  0
SECTION
  2
HEADER
  9
$ACADVER
  1
AC1014
  9
$ACADMAINTVER
 70
     9
  9
$DWGCODEPAGE
  3
ANSI_932
  9
$INSBASE
 10
0.0
 20
0.0
 30
0.0
  9
$EXTMIN
 10
-395.4594601293336
 20
1495.043476893424
 30
0.0
  9
$EXTMAX
 10
-248.3301476549832
 20
1685.026347592769
 30
0.0
  9
$LIMMIN
 10
0.0
 20
0.0
  9
$LIMMAX
 10
420.0
 20
297.0
  9
$ORTHOMODE
 70
     1
  9
$REGENMODE
 70
     1
  9
$FILLMODE
 70
     1
  9
$QTEXTMODE
 70
     0
  9
$MIRRTEXT
 70
     1
  9
$DRAGMODE
 70
     2
  9
$LTSCALE
 40
1.0
  9
$OSMODE
 70
    37
  9
$ATTMODE
 70
     1
  9
$TEXTSIZE
 40
2.5
  9
$TRACEWID
 40
1.0
  9
$TEXTSTYLE
  7
ゴシック体
  9
$CLAYER
  8
SOUZOUSEN
  9
$CELTYPE
  6
BYLAYER
  9
$CECOLOR
 62
   256
  9
$CELTSCALE
 40
1.0
  9
$DELOBJ
 70
     1
  9
$DISPSILH
 70
     0
  9
$DIMSCALE
 40
0.0
  9
$DIMASZ
 40
3.0
  9
$DIMEXO
 40
0.5
  9
$DIMDLI
 40
0.5
  9
$DIMRND
 40
0.0
  9
$DIMDLE
 40
0.0
  9
$DIMEXE
 40
0.5
  9
$DIMTP
 40
0.0
  9
$DIMTM
 40
0.0
  9
$DIMTXT
 40
3.5
  9
$DIMCEN
 40
0.0
  9
$DIMTSZ
 40
0.0
  9
$DIMTOL
 70
     0
  9
$DIMLIM
 70
     0
  9
$DIMTIH
 70
     0
  9
$DIMTOH
 70
     0
  9
$DIMSE1
 70
     0
  9
$DIMSE2
 70
     0
  9
$DIMTAD
 70
     1
  9
$DIMZIN
 70
     8
  9
$DIMBLK
  1

  9
$DIMASO
 70
     1
  9
$DIMSHO
 70
     1
  9
$DIMPOST
  1

  9
$DIMAPOST
  1

  9
$DIMALT
 70
     0
  9
$DIMALTD
 70
     2
  9
$DIMALTF
 40
25.4
  9
$DIMLFAC
 40
1.0
  9
$DIMTOFL
 70
     1
  9
$DIMTVP
 40
0.0
  9
$DIMTIX
 70
     0
  9
$DIMSOXD
 70
     0
  9
$DIMSAH
 70
     0
  9
$DIMBLK1
  1

  9
$DIMBLK2
  1

  9
$DIMSTYLE
  2
標準スタイル
  9
$DIMCLRD
 70
     1
  9
$DIMCLRE
 70
     1
  9
$DIMCLRT
 70
     1
  9
$DIMTFAC
 40
1.0
  9
$DIMGAP
 40
1.0
  9
$DIMJUST
 70
     0
  9
$DIMSD1
 70
     0
  9
$DIMSD2
 70
     0
  9
$DIMTOLJ
 70
     1
  9
$DIMTZIN
 70
     8
  9
$DIMALTZ
 70
     0
  9
$DIMALTTZ
 70
     0
  9
$DIMFIT
 70
     3
  9
$DIMUPT
 70
     0
  9
$DIMUNIT
 70
     2
  9
$DIMDEC
 70
     2
  9
$DIMTDEC
 70
     2
  9
$DIMALTU
 70
     2
  9
$DIMALTTD
 70
     2
  9
$DIMTXSTY
  7
ゴシック体
  9
$DIMAUNIT
 70
     0
  9
$LUNITS
 70
     2
  9
$LUPREC
 70
     4
  9
$SKETCHINC
 40
1.0
  9
$FILLETRAD
 40
0.0
  9
$AUNITS
 70
     0
  9
$AUPREC
 70
     0
  9
$MENU
  1
.
  9
$ELEVATION
 40
0.0
  9
$PELEVATION
 40
0.0
  9
$THICKNESS
 40
0.0
  9
$LIMCHECK
 70
     0
  9
$BLIPMODE
 70
     0
  9
$CHAMFERA
 40
10.0
  9
$CHAMFERB
 40
10.0
  9
$CHAMFERC
 40
2.0
  9
$CHAMFERD
 40
0.7853981633974483
  9
$SKPOLY
 70
     0
  9
$TDCREATE
 40
2450495.493631365
  9
$TDUPDATE
 40
2456315.764311875
  9
$TDINDWG
 40
1.7972983449
  9
$TDUSRTIMER
 40
1.7972983449
  9
$USRTIMER
 70
     1
  9
$ANGBASE
 50
0.0
  9
$ANGDIR
 70
     0
  9
$PDMODE
 70
    99
  9
$PDSIZE
 40
0.0
  9
$PLINEWID
 40
0.0
  9
$COORDS
 70
     1
  9
$SPLFRAME
 70
     0
  9
$SPLINETYPE
 70
     6
  9
$SPLINESEGS
 70
     8
  9
$ATTDIA
 70
     0
  9
$ATTREQ
 70
     1
  9
$HANDLING
 70
 10241
  9
$HANDSEED
  5
1A5EF
  9
$SURFTAB1
 70
     6
  9
$SURFTAB2
 70
     6
  9
$SURFTYPE
 70
     6
  9
$SURFU
 70
     6
  9
$SURFV
 70
     6
  9
$UCSNAME
  2

  9
$UCSORG
 10
0.0
 20
0.0
 30
0.0
  9
$UCSXDIR
 10
1.0
 20
0.0
 30
0.0
  9
$UCSYDIR
 10
0.0
 20
1.0
 30
0.0
  9
$PUCSNAME
  2

  9
$PUCSORG
 10
0.0
 20
0.0
 30
0.0
  9
$PUCSXDIR
 10
1.0
 20
0.0
 30
0.0
  9
$PUCSYDIR
 10
0.0
 20
1.0
 30
0.0
  9
$USERI1
 70
     0
  9
$USERI2
 70
     0
  9
$USERI3
 70
     0
  9
$USERI4
 70
     0
  9
$USERI5
 70
     0
  9
$USERR1
 40
0.0
  9
$USERR2
 40
0.0
  9
$USERR3
 40
0.0
  9
$USERR4
 40
0.0
  9
$USERR5
 40
0.0
  9
$WORLDVIEW
 70
     1
  9
$SHADEDGE
 70
     3
  9
$SHADEDIF
 70
    70
  9
$TILEMODE
 70
     0
  9
$MAXACTVP
 70
    16
  9
$PINSBASE
 10
0.0
 20
0.0
 30
0.0
  9
$PLIMCHECK
 70
     0
  9
$PEXTMIN
 10
29.01237915885758
 20
27.67558272958513
 30
-0.0015258207003583
  9
$PEXTMAX
 10
414.5423247139811
 20
287.7003947008357
 30
0.0000000349246037
  9
$PLIMMIN
 10
11.82004301553063
 20
9.193992763477359
  9
$PLIMMAX
 10
431.7666982889681
 20
306.204643398243
  9
$UNITMODE
 70
     0
  9
$VISRETAIN
 70
     0
  9
$PLINEGEN
 70
     0
  9
$PSLTSCALE
 70
     1
  9
$TREEDEPTH
 70
  3020
  9
$PICKSTYLE
 70
     1
  9
$CMLSTYLE
  2
STANDARD
  9
$CMLJUST
 70
     0
  9
$CMLSCALE
 40
1.0
  9
$PROXYGRAPHICS
 70
     1
  9
$MEASUREMENT
 70
     1
  0
ENDSEC
  0
SECTION
  2
CLASSES
  0
CLASS
  1
LWPOLYLINE
  2
AcDbPolyline
  3
AutoCAD 2000
 90
        0
280
     0
281
     1
  0
CLASS
  1
HATCH
  2
AcDbHatch
  3
AutoCAD 2000
 90
        0
280
     0
281
     1
  0
CLASS
  1
ACDBDICTIONARYWDFLT
  2
AcDbDictionaryWithDefault
  3
AutoCAD 2000
 90
        0
280
     0
281
     0
  0
CLASS
  1
ACDBPLACEHOLDER
  2
AcDbPlaceHolder
  3
AutoCAD 2000
 90
        0
280
     0
281
     0
  0
CLASS
  1
LAYOUT
  2
AcDbLayout
  3
AutoCAD 2000
 90
        0
280
     0
281
     0
  0
CLASS
  1
DICTIONARYVAR
  2
AcDbDictionaryVar
  3
AutoCAD 2000
 90
        0
280
     0
281
     0
  0
CLASS
  1
LONG_TRANSACTION
  2
AcDbLongTransaction
  3
AutoCAD 2000
 90
        0
280
     0
281
     0
  0
CLASS
  1
LWPOLYLINE
  2
AcDbPolyline
  3
AutoCAD 2000
 90
        0
280
     0
281
     1
  0
CLASS
  1
HATCH
  2
AcDbHatch
  3
AutoCAD 2000
 90
        0
280
     0
281
     1
  0
CLASS
  1
XRECORD
  2
AcDbXrecord
  3
AutoCAD 2000
 90
        0
280
     0
281
     0
  0
ENDSEC
  0
SECTION
  2
TABLES
  0
TABLE
  2
VPORT
  5
8
330
0
100
AcDbSymbolTable
 70
     2
  0
VPORT
  5
1A5B4
330
8
100
AcDbSymbolTableRecord
100
AcDbViewportTableRecord
  2
*ACTIVE
 70
     0
 10
0.0
 20
0.0
 11
1.0
 21
1.0
 12
-321.8844496514282
 22
1590.009646033549
 13
0.0
 23
0.0
 14
5.0
 24
5.0
 15
0.0
 25
0.0
 16
0.0
 26
0.0
 36
1.0
 17
0.0
 27
0.0
 37
0.0
 40
192.2766274322516
 41
1.781954887218045
 42
50.0
 43
0.0
 44
0.0
 50
0.0
 51
0.0
 71
     0
 72
   100
 73
     1
 74
     0
 75
     0
 76
     0
 77
     0
 78
     0
  0
ENDTAB
  0
TABLE
  2
LTYPE
  5
5
330
0
100
AcDbSymbolTable
 70
     4
  0
LTYPE
  5
14
330
5
100
AcDbSymbolTableRecord
100
AcDbLinetypeTableRecord
  2
BYBLOCK
 70
     0
  3

 72
    65
 73
     0
 40
0.0
  0
LTYPE
  5
15
330
5
100
AcDbSymbolTableRecord
100
AcDbLinetypeTableRecord
  2
BYLAYER
 70
     0
  3

 72
    65
 73
     0
 40
0.0
  0
LTYPE
  5
16
330
5
100
AcDbSymbolTableRecord
100
AcDbLinetypeTableRecord
  2
CONTINUOUS
 70
     0
  3
Solid line
 72
    65
 73
     0
 40
0.0
  0
LTYPE
  5
1956
330
5
100
AcDbSymbolTableRecord
100
AcDbLinetypeTableRecord
  2
CENTERX2
 70
     0
  3
________  __  ________  __  ________  __  _____
 72
    65
 73
     4
 40
4.0
 49
2.5
 74
     0
 49
-0.5
 74
     0
 49
0.5
 74
     0
 49
-0.5
 74
     0
  0
LTYPE
  5
1958
330
5
100
AcDbSymbolTableRecord
100
AcDbLinetypeTableRecord
  2
PHANTOMX2
 70
     0
  3
____________    ____    ____    ____________   
 72
    65
 73
     6
 40
5.0
 49
2.5
 74
     0
 49
-0.5
 74
     0
 49
0.5
 74
     0
 49
-0.5
 74
     0
 49
0.5
 74
     0
 49
-0.5
 74
     0
  0
LTYPE
  5
142A2
330
5
100
AcDbSymbolTableRecord
100
AcDbLinetypeTableRecord
  2
DASHEDX2
 70
     0
  3
____  ____  ____  ____  ____  ____  ____  ____ 
 72
    65
 73
     2
 40
1.5
 49
1.0
 74
     0
 49
-0.5
 74
     0
  0
ENDTAB
  0
TABLE
  2
LAYER
  5
2
102
{ACAD_XDICTIONARY
360
14053
102
}
330
0
100
AcDbSymbolTable
 70
     7
  0
LAYER
  5
F
330
2
100
AcDbSymbolTableRecord
100
AcDbLayerTableRecord
  2
0
 70
     0
 62
     7
  6
CONTINUOUS
  0
LAYER
  5
18F
330
2
100
AcDbSymbolTableRecord
100
AcDbLayerTableRecord
  2
ZISSEN1
 70
     0
 62
     7
  6
CONTINUOUS
  0
LAYER
  5
529
330
2
100
AcDbSymbolTableRecord
100
AcDbLayerTableRecord
  2
SUNPOU
 70
     0
 62
     1
  6
CONTINUOUS
  0
LAYER
  5
195A
330
2
100
AcDbSymbolTableRecord
100
AcDbLayerTableRecord
  2
CL1
 70
     0
 62
   210
  6
CENTERX2
  0
LAYER
  5
195C
330
2
100
AcDbSymbolTableRecord
100
AcDbLayerTableRecord
  2
SOUZOUSEN
 70
     0
 62
     5
  6
PHANTOMX2
  0
LAYER
  5
3A9B
330
2
100
AcDbSymbolTableRecord
100
AcDbLayerTableRecord
  2
DEFPOINTS
 70
     0
 62
     7
  6
CONTINUOUS
  0
LAYER
  5
1A100
330
2
100
AcDbSymbolTableRecord
100
AcDbLayerTableRecord
  2
HONETU
 70
     0
 62
     4
  6
CONTINUOUS
  0
ENDTAB
  0
TABLE
  2
STYLE
  5
3
330
0
100
AcDbSymbolTable
 70
     2
  0
STYLE
  5
10
330
3
100
AcDbSymbolTableRecord
100
AcDbTextStyleTableRecord
  2
STANDARD
 70
     0
 40
0.0
 41
1.0
 50
0.0
 71
     0
 42
3.0
  3
txt
  4
BigFont
  0
STYLE
  5
1960
330
3
100
AcDbSymbolTableRecord
100
AcDbTextStyleTableRecord
  2
ゴシック体
 70
     0
 40
0.0
 41
1.0
 50
0.0
 71
     0
 42
2.5
  3
MS Gothic.ttf
  4

1001
ACAD
1000
MS Gothic
1071
    32817
  0
ENDTAB
  0
TABLE
  2
VIEW
  5
6
330
0
100
AcDbSymbolTable
 70
     0
  0
ENDTAB
  0
TABLE
  2
UCS
  5
7
330
0
100
AcDbSymbolTable
 70
     0
  0
ENDTAB
  0
TABLE
  2
APPID
  5
9
330
0
100
AcDbSymbolTable
 70
     5
  0
APPID
  5
11
330
9
100
AcDbSymbolTableRecord
100
AcDbRegAppTableRecord
  2
ACAD
 70
     0
  0
APPID
  5
4005
330
9
100
AcDbSymbolTableRecord
100
AcDbRegAppTableRecord
  2
CONTENTTABDATA
 70
     0
  0
APPID
  5
4006
330
9
100
AcDbSymbolTableRecord
100
AcDbRegAppTableRecord
  2
CONTENTCURRENTTAB
 70
     0
  0
APPID
  5
477B
330
9
100
AcDbSymbolTableRecord
100
AcDbRegAppTableRecord
  2
CONTENTBLOCKDESCRIPTION
 70
     0
  0
APPID
  5
477C
330
9
100
AcDbSymbolTableRecord
100
AcDbRegAppTableRecord
  2
CONTENTBLOCKICON
 70
     0
  0
ENDTAB
  0
TABLE
  2
DIMSTYLE
  5
A
330
0
100
AcDbSymbolTable
 70
     2
  0
DIMSTYLE
105
1D
330
A
100
AcDbSymbolTableRecord
100
AcDbDimStyleTableRecord
  2
STANDARD
 70
     0
  3

  4

  5

  6

  7

 40
1.0
 41
0.18
 42
0.0625
 43
0.38
 44
0.18
 45
0.0
 46
0.0
 47
0.0
 48
0.0
140
0.18
141
0.09
142
0.0
143
25.4
144
1.0
145
0.0
146
1.0
147
0.09
 71
     0
 72
     0
 73
     1
 74
     1
 75
     0
 76
     0
 77
     0
 78
     0
170
     0
171
     2
172
     0
173
     0
174
     0
175
     0
176
     0
177
     0
178
     0
270
     2
271
     4
272
     4
273
     2
274
     2
340
10
275
     0
280
     0
281
     0
282
     0
283
     1
284
     0
285
     0
286
     0
287
     3
288
     0
  0
DIMSTYLE
105
52E
102
{ACAD_REACTORS
330
1A2B6
330
1A2C7
330
1A2CB
330
1A315
330
1A316
330
1A328
330
1A37E
330
1A3C1
330
1A3C2
330
1A44E
102
}
330
A
100
AcDbSymbolTableRecord
100
AcDbDimStyleTableRecord
  2
標準スタイル
 70
     0
  3

  4

  5

  6

  7

 40
0.0
 41
3.0
 42
0.5
 43
0.5
 44
0.5
 45
0.0
 46
0.0
 47
0.0
 48
0.0
140
3.5
141
0.0
142
0.0
143
25.4
144
1.0
145
0.0
146
1.0
147
1.0
 71
     0
 72
     0
 73
     0
 74
     0
 75
     0
 76
     0
 77
     1
 78
     8
170
     0
171
     2
172
     1
173
     0
174
     0
175
     0
176
     1
177
     1
178
     1
270
     2
271
     2
272
     2
273
     2
274
     2
340
1960
275
     0
280
     0
281
     0
282
     0
283
     1
284
     8
285
     0
286
     0
287
     3
288
     0
  0
ENDTAB
  0
TABLE
  2
BLOCK_RECORD
  5
1
330
0
100
AcDbSymbolTable
 70
    10
  0
BLOCK_RECORD
  5
1A
102
{ACAD_XDICTIONARY
360
1A5D5
102
}
330
1
100
AcDbSymbolTableRecord
100
AcDbBlockTableRecord
  2
*MODEL_SPACE
  0
BLOCK_RECORD
  5
5D8E
102
{ACAD_XDICTIONARY
360
1A5D7
102
}
330
1
100
AcDbSymbolTableRecord
100
AcDbBlockTableRecord
  2
*PAPER_SPACE
  0
BLOCK_RECORD
  5
1A463
330
1
100
AcDbSymbolTableRecord
100
AcDbBlockTableRecord
  2
*D0
  0
BLOCK_RECORD
  5
1A46F
330
1
100
AcDbSymbolTableRecord
100
AcDbBlockTableRecord
  2
*D1
  0
BLOCK_RECORD
  5
1A47B
330
1
100
AcDbSymbolTableRecord
100
AcDbBlockTableRecord
  2
*D2
  0
BLOCK_RECORD
  5
1A489
330
1
100
AcDbSymbolTableRecord
100
AcDbBlockTableRecord
  2
*D3
  0
BLOCK_RECORD
  5
1A497
330
1
100
AcDbSymbolTableRecord
100
AcDbBlockTableRecord
  2
*D4
  0
BLOCK_RECORD
  5
1A4A3
330
1
100
AcDbSymbolTableRecord
100
AcDbBlockTableRecord
  2
*D5
  0
BLOCK_RECORD
  5
1A4B1
330
1
100
AcDbSymbolTableRecord
100
AcDbBlockTableRecord
  2
*D6
  0
BLOCK_RECORD
  5
1A4BD
330
1
100
AcDbSymbolTableRecord
100
AcDbBlockTableRecord
  2
*D7
  0
BLOCK_RECORD
  5
1A4C9
330
1
100
AcDbSymbolTableRecord
100
AcDbBlockTableRecord
  2
*D8
  0
BLOCK_RECORD
  5
1A4D5
330
1
100
AcDbSymbolTableRecord
100
AcDbBlockTableRecord
  2
*D9
  0
ENDTAB
  0
ENDSEC
  0
SECTION
  2
BLOCKS
  0
BLOCK
  5
1B
330
1A
100
AcDbEntity
  8
0
100
AcDbBlockBegin
  2
*MODEL_SPACE
 70
     0
 10
0.0
 20
0.0
 30
0.0
  3
*MODEL_SPACE
  1

  0
ENDBLK
  5
1C
330
1A
100
AcDbEntity
  8
0
100
AcDbBlockEnd
  0
BLOCK
  5
5E60
330
5D8E
100
AcDbEntity
 67
     1
  8
0
100
AcDbBlockBegin
  2
*PAPER_SPACE
 70
     0
 10
0.0
 20
0.0
 30
0.0
  3
*PAPER_SPACE
  1

  0
ENDBLK
  5
5E61
330
5D8E
100
AcDbEntity
 67
     1
  8
0
100
AcDbBlockEnd
  0
BLOCK
  5
1A46D
330
1A463
100
AcDbEntity
  8
0
100
AcDbBlockBegin
  2
*D0
 70
     1
 10
0.0
 20
0.0
 30
0.0
  3
*D0
  1

  0
LINE
  5
1A4E3
330
1A463
100
AcDbEntity
  8
SUNPOU
 62
     1
100
AcDbLine
 10
-381.5801476549832
 20
1510.413774158538
 30
0.0
 11
-381.5801476549832
 21
1495.043476893424
 31
0.0
  0
LINE
  5
1A4E4
330
1A463
100
AcDbEntity
  8
SUNPOU
 62
     1
100
AcDbLine
 10
-311.5801476549842
 20
1507.413774158538
 30
0.0
 11
-311.5801476549842
 21
1495.043476893424
 31
0.0
  0
LINE
  5
1A4E5
330
1A463
100
AcDbEntity
  8
SUNPOU
 62
     1
100
AcDbLine
 10
-378.5801476549833
 20
1495.543476893424
 30
0.0
 11
-314.5801476549842
 21
1495.543476893424
 31
0.0
  0
SOLID
  5
1A4E6
330
1A463
100
AcDbEntity
  8
SUNPOU
 62
     1
100
AcDbTrace
 10
-378.5801476549833
 20
1496.043476893424
 30
0.0
 11
-378.5801476549833
 21
1495.043476893424
 31
0.0
 12
-381.5801476549832
 22
1495.543476893424
 32
0.0
 13
-381.5801476549832
 23
1495.543476893424
 33
0.0
  0
SOLID
  5
1A4E7
330
1A463
100
AcDbEntity
  8
SUNPOU
 62
     1
100
AcDbTrace
 10
-314.5801476549842
 20
1496.043476893424
 30
0.0
 11
-314.5801476549842
 21
1495.043476893424
 31
0.0
 12
-311.5801476549842
 22
1495.543476893424
 32
0.0
 13
-311.5801476549842
 23
1495.543476893424
 33
0.0
  0
MTEXT
  5
1A4E8
330
1A463
100
AcDbEntity
  8
SUNPOU
 62
     1
100
AcDbMText
 10
-346.5801476549837
 20
1498.293476893424
 30
0.0
 40
3.5
 41
0.0
 71
     5
 72
     1
  1
\A1;70
1001
ACAD
1000
MTEXTBEGIN
1070
    73
1070
     1
1070
    44
1040
1.0
1070
    74
1070
     0
1000
MTEXTEND
  0
POINT
  5
1A4E9
330
1A463
100
AcDbEntity
  8
DEFPOINTS
 62
     0
100
AcDbPoint
 10
-381.5801476549832
 20
1510.913774158538
 30
0.0
  0
POINT
  5
1A4EA
330
1A463
100
AcDbEntity
  8
DEFPOINTS
 62
     0
100
AcDbPoint
 10
-311.5801476549842
 20
1507.913774158538
 30
0.0
  0
POINT
  5
1A4EB
330
1A463
100
AcDbEntity
  8
DEFPOINTS
 62
     0
100
AcDbPoint
 10
-311.5801476549842
 20
1495.543476893424
 30
0.0
  0
ENDBLK
  5
1A46E
330
1A463
100
AcDbEntity
  8
0
100
AcDbBlockEnd
  0
BLOCK
  5
1A479
330
1A46F
100
AcDbEntity
  8
0
100
AcDbBlockBegin
  2
*D1
 70
     1
 10
0.0
 20
0.0
 30
0.0
  3
*D1
  1

  0
LINE
  5
1A4EC
330
1A46F
100
AcDbEntity
  8
SUNPOU
 62
     1
100
AcDbLine
 10
-382.0801476549842
 20
1638.913774158539
 30
0.0
 11
-391.4594601293334
 21
1638.913774158539
 31
0.0
  0
LINE
  5
1A4ED
330
1A46F
100
AcDbEntity
  8
SUNPOU
 62
     1
100
AcDbLine
 10
-382.0801476549842
 20
1558.913774158539
 30
0.0
 11
-391.4594601293334
 21
1558.913774158539
 31
0.0
  0
LINE
  5
1A4EE
330
1A46F
100
AcDbEntity
  8
SUNPOU
 62
     1
100
AcDbLine
 10
-390.9594601293335
 20
1635.913774158539
 30
0.0
 11
-390.9594601293335
 21
1561.913774158539
 31
0.0
  0
SOLID
  5
1A4EF
330
1A46F
100
AcDbEntity
  8
SUNPOU
 62
     1
100
AcDbTrace
 10
-391.4594601293334
 20
1635.913774158539
 30
0.0
 11
-390.4594601293334
 21
1635.913774158539
 31
0.0
 12
-390.9594601293335
 22
1638.913774158539
 32
0.0
 13
-390.9594601293335
 23
1638.913774158539
 33
0.0
  0
SOLID
  5
1A4F0
330
1A46F
100
AcDbEntity
  8
SUNPOU
 62
     1
100
AcDbTrace
 10
-391.4594601293334
 20
1561.913774158539
 30
0.0
 11
-390.4594601293334
 21
1561.913774158539
 31
0.0
 12
-390.9594601293335
 22
1558.913774158539
 32
0.0
 13
-390.9594601293335
 23
1558.913774158539
 33
0.0
  0
MTEXT
  5
1A4F1
330
1A46F
100
AcDbEntity
  8
SUNPOU
 62
     1
100
AcDbMText
 10
-393.7094601293336
 20
1598.913774158539
 30
0.0
 40
3.5
 41
0.0
 71
     5
 72
     1
  1
\A1;80
 11
0.0000000000000001
 21
1.0
 31
0.0
1001
ACAD
1000
MTEXTBEGIN
1070
    73
1070
     1
1070
    44
1040
1.0
1070
    74
1070
     0
1000
MTEXTEND
  0
POINT
  5
1A4F2
330
1A46F
100
AcDbEntity
  8
DEFPOINTS
 62
     0
100
AcDbPoint
 10
-381.5801476549842
 20
1638.913774158539
 30
0.0
  0
POINT
  5
1A4F3
330
1A46F
100
AcDbEntity
  8
DEFPOINTS
 62
     0
100
AcDbPoint
 10
-381.5801476549842
 20
1558.913774158539
 30
0.0
  0
POINT
  5
1A4F4
330
1A46F
100
AcDbEntity
  8
DEFPOINTS
 62
     0
100
AcDbPoint
 10
-390.9594601293335
 20
1558.913774158539
 30
0.0
  0
ENDBLK
  5
1A47A
330
1A46F
100
AcDbEntity
  8
0
100
AcDbBlockEnd
  0
BLOCK
  5
1A487
330
1A47B
100
AcDbEntity
  8
0
100
AcDbBlockBegin
  2
*D2
 70
     1
 10
0.0
 20
0.0
 30
0.0
  3
*D2
  1

  0
LINE
  5
1A4F5
330
1A47B
100
AcDbEntity
  8
SUNPOU
 62
     1
100
AcDbLine
 10
-381.5801476549842
 20
1536.413774158538
 30
0.0
 11
-381.5801476549842
 21
1543.587460869951
 31
0.0
  0
LINE
  5
1A4F6
330
1A47B
100
AcDbEntity
  8
SUNPOU
 62
     1
100
AcDbLine
 10
-378.5801476549842
 20
1536.413774158538
 30
0.0
 11
-378.5801476549842
 21
1543.587460869951
 31
0.0
  0
LINE
  5
1A4F7
330
1A47B
100
AcDbEntity
  8
SUNPOU
 62
     1
100
AcDbLine
 10
-384.5801476549842
 20
1543.08746086995
 30
0.0
 11
-387.5801476549842
 21
1543.08746086995
 31
0.0
  0
LINE
  5
1A4F8
330
1A47B
100
AcDbEntity
  8
SUNPOU
 62
     1
100
AcDbLine
 10
-375.5801476549842
 20
1543.08746086995
 30
0.0
 11
-368.2468143216508
 21
1543.08746086995
 31
0.0
  0
LINE
  5
1A4F9
330
1A47B
100
AcDbEntity
  8
SUNPOU
 62
     1
100
AcDbLine
 10
-381.5801476549842
 20
1543.08746086995
 30
0.0
 11
-378.5801476549842
 21
1543.08746086995
 31
0.0
  0
SOLID
  5
1A4FA
330
1A47B
100
AcDbEntity
  8
SUNPOU
 62
     1
100
AcDbTrace
 10
-384.5801476549842
 20
1543.587460869951
 30
0.0
 11
-384.5801476549842
 21
1542.587460869951
 31
0.0
 12
-381.5801476549842
 22
1543.08746086995
 32
0.0
 13
-381.5801476549842
 23
1543.08746086995
 33
0.0
  0
SOLID
  5
1A4FB
330
1A47B
100
AcDbEntity
  8
SUNPOU
 62
     1
100
AcDbTrace
 10
-375.5801476549842
 20
1543.587460869951
 30
0.0
 11
-375.5801476549842
 21
1542.587460869951
 31
0.0
 12
-378.5801476549842
 22
1543.08746086995
 32
0.0
 13
-378.5801476549842
 23
1543.08746086995
 33
0.0
  0
MTEXT
  5
1A4FC
330
1A47B
100
AcDbEntity
  8
SUNPOU
 62
     1
100
AcDbMText
 10
-370.4134809883175
 20
1545.83746086995
 30
0.0
 40
3.5
 41
0.0
 71
     5
 72
     1
  1
\A1;3
1001
ACAD
1000
MTEXTBEGIN
1070
    73
1070
     1
1070
    44
1040
1.0
1070
    74
1070
     0
1000
MTEXTEND
  0
POINT
  5
1A4FD
330
1A47B
100
AcDbEntity
  8
DEFPOINTS
 62
     0
100
AcDbPoint
 10
-381.5801476549842
 20
1535.913774158538
 30
0.0
  0
POINT
  5
1A4FE
330
1A47B
100
AcDbEntity
  8
DEFPOINTS
 62
     0
100
AcDbPoint
 10
-378.5801476549842
 20
1535.913774158538
 30
0.0
  0
POINT
  5
1A4FF
330
1A47B
100
AcDbEntity
  8
DEFPOINTS
 62
     0
100
AcDbPoint
 10
-378.5801476549842
 20
1543.08746086995
 30
0.0
  0
ENDBLK
  5
1A488
330
1A47B
100
AcDbEntity
  8
0
100
AcDbBlockEnd
  0
BLOCK
  5
1A495
330
1A489
100
AcDbEntity
  8
0
100
AcDbBlockBegin
  2
*D3
 70
     1
 10
0.0
 20
0.0
 30
0.0
  3
*D3
  1

  0
LINE
  5
1A5D9
330
1A489
100
AcDbEntity
  8
SUNPOU
 62
     1
100
AcDbLine
 10
-267.3301476549833
 20
1636.413774158539
 30
0.0
 11
-286.6773801503453
 21
1636.413774158539
 31
0.0
  0
LINE
  5
1A5DA
330
1A489
100
AcDbEntity
  8
SUNPOU
 62
     1
100
AcDbLine
 10
-277.0801476549832
 20
1638.913774158539
 30
0.0
 11
-286.6773801503453
 21
1638.913774158539
 31
0.0
  0
LINE
  5
1A5DB
330
1A489
100
AcDbEntity
  8
SUNPOU
 62
     1
100
AcDbLine
 10
-286.1773801503453
 20
1633.413774158539
 30
0.0
 11
-286.1773801503453
 21
1630.413774158539
 31
0.0
  0
LINE
  5
1A5DC
330
1A489
100
AcDbEntity
  8
SUNPOU
 62
     1
100
AcDbLine
 10
-286.1773801503453
 20
1641.913774158539
 30
0.0
 11
-286.1773801503453
 21
1644.913774158539
 31
0.0
  0
MTEXT
  5
1A5DD
330
1A489
100
AcDbEntity
  8
SUNPOU
 62
     1
100
AcDbMText
 10
-289.5733833009577
 20
1644.224879677685
 30
0.0
 40
3.5
 41
0.0
 71
     5
 72
     1
  1
\A1;2.5
 11
0.0000000000000001
 21
1.0
 31
0.0
  0
LINE
  5
1A5DE
330
1A489
100
AcDbEntity
  8
SUNPOU
 62
     1
100
AcDbLine
 10
-286.1773801503453
 20
1636.413774158539
 30
0.0
 11
-286.1773801503453
 21
1638.913774158539
 31
0.0
  0
SOLID
  5
1A5DF
330
1A489
100
AcDbEntity
  8
SUNPOU
 62
     1
100
AcDbTrace
 10
-286.6773801503453
 20
1633.413774158539
 30
0.0
 11
-285.6773801503453
 21
1633.413774158539
 31
0.0
 12
-286.1773801503453
 22
1636.413774158539
 32
0.0
 13
-286.1773801503453
 23
1636.413774158539
 33
0.0
  0
SOLID
  5
1A5E0
330
1A489
100
AcDbEntity
  8
SUNPOU
 62
     1
100
AcDbTrace
 10
-286.6773801503453
 20
1641.913774158539
 30
0.0
 11
-285.6773801503453
 21
1641.913774158539
 31
0.0
 12
-286.1773801503453
 22
1638.913774158539
 32
0.0
 13
-286.1773801503453
 23
1638.913774158539
 33
0.0
  0
POINT
  5
1A5E1
330
1A489
100
AcDbEntity
  8
DEFPOINTS
 62
     0
100
AcDbPoint
 10
-266.8301476549832
 20
1636.413774158539
 30
0.0
  0
POINT
  5
1A5E2
330
1A489
100
AcDbEntity
  8
DEFPOINTS
 62
     0
100
AcDbPoint
 10
-276.5801476549833
 20
1638.913774158539
 30
0.0
  0
POINT
  5
1A5E3
330
1A489
100
AcDbEntity
  8
DEFPOINTS
 62
     0
100
AcDbPoint
 10
-286.1773801503453
 20
1638.913774158539
 30
0.0
  0
ENDBLK
  5
1A496
330
1A489
100
AcDbEntity
  8
0
100
AcDbBlockEnd
  0
BLOCK
  5
1A4A1
330
1A497
100
AcDbEntity
  8
0
100
AcDbBlockBegin
  2
*D4
 70
     1
 10
0.0
 20
0.0
 30
0.0
  3
*D4
  1

  0
LINE
  5
1A50B
330
1A497
100
AcDbEntity
  8
SUNPOU
 62
     1
100
AcDbLine
 10
-265.5801476549829
 20
1636.413774158539
 30
0.0
 11
-286.6773801503453
 21
1636.413774158539
 31
0.0
  0
LINE
  5
1A50C
330
1A497
100
AcDbEntity
  8
SUNPOU
 62
     1
100
AcDbLine
 10
-265.5801476549829
 20
1561.413774158539
 30
0.0
 11
-286.6773801503453
 21
1561.413774158539
 31
0.0
  0
LINE
  5
1A50D
330
1A497
100
AcDbEntity
  8
SUNPOU
 62
     1
100
AcDbLine
 10
-286.1773801503453
 20
1633.413774158539
 30
0.0
 11
-286.1773801503453
 21
1564.413774158539
 31
0.0
  0
SOLID
  5
1A50E
330
1A497
100
AcDbEntity
  8
SUNPOU
 62
     1
100
AcDbTrace
 10
-286.6773801503453
 20
1633.413774158539
 30
0.0
 11
-285.6773801503453
 21
1633.413774158539
 31
0.0
 12
-286.1773801503453
 22
1636.413774158539
 32
0.0
 13
-286.1773801503453
 23
1636.413774158539
 33
0.0
  0
SOLID
  5
1A50F
330
1A497
100
AcDbEntity
  8
SUNPOU
 62
     1
100
AcDbTrace
 10
-286.6773801503453
 20
1564.413774158539
 30
0.0
 11
-285.6773801503453
 21
1564.413774158539
 31
0.0
 12
-286.1773801503453
 22
1561.413774158539
 32
0.0
 13
-286.1773801503453
 23
1561.413774158539
 33
0.0
  0
MTEXT
  5
1A510
330
1A497
100
AcDbEntity
  8
SUNPOU
 62
     1
100
AcDbMText
 10
-288.9273801503455
 20
1598.913774158539
 30
0.0
 40
3.5
 41
0.0
 71
     5
 72
     1
  1
\A1;75
 11
0.0000000000000001
 21
1.0
 31
0.0
1001
ACAD
1000
MTEXTBEGIN
1070
    73
1070
     1
1070
    44
1040
1.0
1070
    74
1070
     0
1000
MTEXTEND
  0
POINT
  5
1A511
330
1A497
100
AcDbEntity
  8
DEFPOINTS
 62
     0
100
AcDbPoint
 10
-265.0801476549829
 20
1636.413774158539
 30
0.0
  0
POINT
  5
1A512
330
1A497
100
AcDbEntity
  8
DEFPOINTS
 62
     0
100
AcDbPoint
 10
-265.0801476549829
 20
1561.413774158539
 30
0.0
  0
POINT
  5
1A513
330
1A497
100
AcDbEntity
  8
DEFPOINTS
 62
     0
100
AcDbPoint
 10
-286.1773801503453
 20
1561.413774158539
 30
0.0
  0
ENDBLK
  5
1A4A2
330
1A497
100
AcDbEntity
  8
0
100
AcDbBlockEnd
  0
BLOCK
  5
1A4AF
330
1A4A3
100
AcDbEntity
  8
0
100
AcDbBlockBegin
  2
*D5
 70
     1
 10
0.0
 20
0.0
 30
0.0
  3
*D5
  1

  0
LINE
  5
1A5E4
330
1A4A3
100
AcDbEntity
  8
SUNPOU
 62
     1
100
AcDbLine
 10
-267.3301476549833
 20
1561.413774158539
 30
0.0
 11
-286.6773801503453
 21
1561.413774158539
 31
0.0
  0
LINE
  5
1A5E5
330
1A4A3
100
AcDbEntity
  8
SUNPOU
 62
     1
100
AcDbLine
 10
-267.3301476549833
 20
1558.913774158539
 30
0.0
 11
-286.6773801503453
 21
1558.913774158539
 31
0.0
  0
LINE
  5
1A5E6
330
1A4A3
100
AcDbEntity
  8
SUNPOU
 62
     1
100
AcDbLine
 10
-286.1773801503453
 20
1564.413774158539
 30
0.0
 11
-286.1773801503453
 21
1567.413774158539
 31
0.0
  0
LINE
  5
1A5E7
330
1A4A3
100
AcDbEntity
  8
SUNPOU
 62
     1
100
AcDbLine
 10
-286.1773801503453
 20
1555.913774158539
 30
0.0
 11
-286.1773801503453
 21
1552.913774158539
 31
0.0
  0
MTEXT
  5
1A5E8
330
1A4A3
100
AcDbEntity
  8
SUNPOU
 62
     1
100
AcDbMText
 10
-289.2829536110008
 20
1553.844208031338
 30
0.0
 40
3.5
 41
0.0
 71
     5
 72
     1
  1
\A1;2.5
 11
0.0000000000000001
 21
1.0
 31
0.0
  0
LINE
  5
1A5E9
330
1A4A3
100
AcDbEntity
  8
SUNPOU
 62
     1
100
AcDbLine
 10
-286.1773801503453
 20
1561.413774158539
 30
0.0
 11
-286.1773801503453
 21
1558.913774158539
 31
0.0
  0
SOLID
  5
1A5EA
330
1A4A3
100
AcDbEntity
  8
SUNPOU
 62
     1
100
AcDbTrace
 10
-286.6773801503453
 20
1564.413774158539
 30
0.0
 11
-285.6773801503453
 21
1564.413774158539
 31
0.0
 12
-286.1773801503453
 22
1561.413774158539
 32
0.0
 13
-286.1773801503453
 23
1561.413774158539
 33
0.0
  0
SOLID
  5
1A5EB
330
1A4A3
100
AcDbEntity
  8
SUNPOU
 62
     1
100
AcDbTrace
 10
-286.6773801503453
 20
1555.913774158539
 30
0.0
 11
-285.6773801503453
 21
1555.913774158539
 31
0.0
 12
-286.1773801503453
 22
1558.913774158539
 32
0.0
 13
-286.1773801503453
 23
1558.913774158539
 33
0.0
  0
POINT
  5
1A5EC
330
1A4A3
100
AcDbEntity
  8
DEFPOINTS
 62
     0
100
AcDbPoint
 10
-266.8301476549832
 20
1561.413774158539
 30
0.0
  0
POINT
  5
1A5ED
330
1A4A3
100
AcDbEntity
  8
DEFPOINTS
 62
     0
100
AcDbPoint
 10
-266.8301476549832
 20
1558.913774158539
 30
0.0
  0
POINT
  5
1A5EE
330
1A4A3
100
AcDbEntity
  8
DEFPOINTS
 62
     0
100
AcDbPoint
 10
-286.1773801503453
 20
1558.913774158539
 30
0.0
  0
ENDBLK
  5
1A4B0
330
1A4A3
100
AcDbEntity
  8
0
100
AcDbBlockEnd
  0
BLOCK
  5
1A4BB
330
1A4B1
100
AcDbEntity
  8
0
100
AcDbBlockBegin
  2
*D6
 70
     1
 10
0.0
 20
0.0
 30
0.0
  3
*D6
  1

  0
LINE
  5
1A51F
330
1A4B1
100
AcDbEntity
  8
HONETU
  6
CENTERX2
 62
     1
100
AcDbLine
 10
-311.0801476549842
 20
1507.913774158538
 30
0.0
 11
-298.5033301383056
 21
1507.913774158538
 31
0.0
  0
LINE
  5
1A520
330
1A4B1
100
AcDbEntity
  8
HONETU
  6
CENTERX2
 62
     1
100
AcDbLine
 10
-311.0801476549842
 20
1532.613774158539
 30
0.0
 11
-298.5033301383056
 21
1532.613774158539
 31
0.0
  0
LINE
  5
1A521
330
1A4B1
100
AcDbEntity
  8
HONETU
  6
CENTERX2
 62
     1
100
AcDbLine
 10
-299.0033301383056
 20
1510.913774158538
 30
0.0
 11
-299.0033301383056
 21
1529.613774158539
 31
0.0
  0
SOLID
  5
1A522
330
1A4B1
100
AcDbEntity
  8
HONETU
  6
CENTERX2
 62
     1
100
AcDbTrace
 10
-299.5033301383056
 20
1510.913774158538
 30
0.0
 11
-298.5033301383056
 21
1510.913774158538
 31
0.0
 12
-299.0033301383056
 22
1507.913774158538
 32
0.0
 13
-299.0033301383056
 23
1507.913774158538
 33
0.0
  0
SOLID
  5
1A523
330
1A4B1
100
AcDbEntity
  8
HONETU
  6
CENTERX2
 62
     1
100
AcDbTrace
 10
-299.5033301383056
 20
1529.613774158539
 30
0.0
 11
-298.5033301383056
 21
1529.613774158539
 31
0.0
 12
-299.0033301383056
 22
1532.613774158539
 32
0.0
 13
-299.0033301383056
 23
1532.613774158539
 33
0.0
  0
MTEXT
  5
1A524
330
1A4B1
100
AcDbEntity
  8
HONETU
  6
CENTERX2
 62
     1
100
AcDbMText
 10
-301.7533301383058
 20
1520.263774158538
 30
0.0
 40
3.5
 41
0.0
 71
     5
 72
     1
  1
\A1;(24.7)
 11
0.0000000000000001
 21
1.0
 31
0.0
1001
ACAD
1000
MTEXTBEGIN
1070
    73
1070
     1
1070
    44
1040
1.0
1070
    74
1070
     0
1000
MTEXTEND
  0
POINT
  5
1A525
330
1A4B1
100
AcDbEntity
  8
DEFPOINTS
  6
CENTERX2
 62
     0
100
AcDbPoint
 10
-311.5801476549842
 20
1507.913774158538
 30
0.0
  0
POINT
  5
1A526
330
1A4B1
100
AcDbEntity
  8
DEFPOINTS
  6
CENTERX2
 62
     0
100
AcDbPoint
 10
-311.5801476549842
 20
1532.613774158539
 30
0.0
  0
POINT
  5
1A527
330
1A4B1
100
AcDbEntity
  8
DEFPOINTS
  6
CENTERX2
 62
     0
100
AcDbPoint
 10
-299.0033301383056
 20
1532.613774158539
 30
0.0
  0
ENDBLK
  5
1A4BC
330
1A4B1
100
AcDbEntity
  8
0
100
AcDbBlockEnd
  0
BLOCK
  5
1A4C7
330
1A4BD
100
AcDbEntity
  8
0
100
AcDbBlockBegin
  2
*D7
 70
     1
 10
0.0
 20
0.0
 30
0.0
  3
*D7
  1

  0
LINE
  5
1A59F
330
1A4BD
100
AcDbEntity
  8
SUNPOU
 62
     1
100
AcDbLine
 10
-249.5801476549833
 20
1563.413774158539
 30
0.0
 11
-249.5801476549833
 21
1542.086832451766
 31
0.0
  0
LINE
  5
1A5A0
330
1A4BD
100
AcDbEntity
  8
SUNPOU
 62
     1
100
AcDbLine
 10
-277.5801476549833
 20
1559.413774158539
 30
0.0
 11
-277.5801476549833
 21
1542.086832451766
 31
0.0
  0
LINE
  5
1A5A1
330
1A4BD
100
AcDbEntity
  8
SUNPOU
 62
     1
100
AcDbLine
 10
-252.5801476549833
 20
1542.586832451766
 30
0.0
 11
-274.5801476549833
 21
1542.586832451766
 31
0.0
  0
SOLID
  5
1A5A2
330
1A4BD
100
AcDbEntity
  8
SUNPOU
 62
     1
100
AcDbTrace
 10
-252.5801476549833
 20
1543.086832451766
 30
0.0
 11
-252.5801476549833
 21
1542.086832451766
 31
0.0
 12
-249.5801476549833
 22
1542.586832451766
 32
0.0
 13
-249.5801476549833
 23
1542.586832451766
 33
0.0
  0
SOLID
  5
1A5A3
330
1A4BD
100
AcDbEntity
  8
SUNPOU
 62
     1
100
AcDbTrace
 10
-274.5801476549833
 20
1543.086832451766
 30
0.0
 11
-274.5801476549833
 21
1542.086832451766
 31
0.0
 12
-277.5801476549833
 22
1542.586832451766
 32
0.0
 13
-277.5801476549833
 23
1542.586832451766
 33
0.0
  0
MTEXT
  5
1A5A4
330
1A4BD
100
AcDbEntity
  8
SUNPOU
 62
     1
100
AcDbMText
 10
-263.5801476549833
 20
1545.336832451766
 30
0.0
 40
3.5
 41
0.0
 71
     5
 72
     1
  1
\A1;28
1001
ACAD
1000
MTEXTBEGIN
1070
    73
1070
     1
1070
    44
1040
1.0
1070
    74
1070
     0
1000
MTEXTEND
  0
POINT
  5
1A5A5
330
1A4BD
100
AcDbEntity
  8
DEFPOINTS
 62
     0
100
AcDbPoint
 10
-249.5801476549833
 20
1563.913774158539
 30
0.0
  0
POINT
  5
1A5A6
330
1A4BD
100
AcDbEntity
  8
DEFPOINTS
 62
     0
100
AcDbPoint
 10
-277.5801476549833
 20
1559.913774158539
 30
0.0
  0
POINT
  5
1A5A7
330
1A4BD
100
AcDbEntity
  8
DEFPOINTS
 62
     0
100
AcDbPoint
 10
-277.5801476549833
 20
1542.586832451766
 30
0.0
  0
ENDBLK
  5
1A4C8
330
1A4BD
100
AcDbEntity
  8
0
100
AcDbBlockEnd
  0
BLOCK
  5
1A4D3
330
1A4C9
100
AcDbEntity
  8
0
100
AcDbBlockBegin
  2
*D8
 70
     1
 10
0.0
 20
0.0
 30
0.0
  3
*D8
  1

  0
LINE
  5
1A531
330
1A4C9
100
AcDbEntity
  8
SUNPOU
 62
     1
100
AcDbLine
 10
-249.5801476549833
 20
1563.413774158539
 30
0.0
 11
-249.5801476549833
 21
1551.118936103292
 31
0.0
  0
LINE
  5
1A532
330
1A4C9
100
AcDbEntity
  8
SUNPOU
 62
     1
100
AcDbLine
 10
-265.080147654983
 20
1558.413774158539
 30
0.0
 11
-265.080147654983
 21
1551.118936103292
 31
0.0
  0
LINE
  5
1A533
330
1A4C9
100
AcDbEntity
  8
SUNPOU
 62
     1
100
AcDbLine
 10
-252.5801476549833
 20
1551.618936103292
 30
0.0
 11
-262.080147654983
 21
1551.618936103292
 31
0.0
  0
SOLID
  5
1A534
330
1A4C9
100
AcDbEntity
  8
SUNPOU
 62
     1
100
AcDbTrace
 10
-252.5801476549833
 20
1552.118936103292
 30
0.0
 11
-252.5801476549833
 21
1551.118936103292
 31
0.0
 12
-249.5801476549833
 22
1551.618936103292
 32
0.0
 13
-249.5801476549833
 23
1551.618936103292
 33
0.0
  0
SOLID
  5
1A535
330
1A4C9
100
AcDbEntity
  8
SUNPOU
 62
     1
100
AcDbTrace
 10
-262.080147654983
 20
1552.118936103292
 30
0.0
 11
-262.080147654983
 21
1551.118936103292
 31
0.0
 12
-265.080147654983
 22
1551.618936103292
 32
0.0
 13
-265.080147654983
 23
1551.618936103292
 33
0.0
  0
MTEXT
  5
1A536
330
1A4C9
100
AcDbEntity
  8
SUNPOU
 62
     1
100
AcDbMText
 10
-257.3301476549831
 20
1554.368936103292
 30
0.0
 40
3.5
 41
0.0
 71
     5
 72
     1
  1
\A1;15.5
1001
ACAD
1000
MTEXTBEGIN
1070
    73
1070
     1
1070
    44
1040
1.0
1070
    74
1070
     0
1000
MTEXTEND
  0
POINT
  5
1A537
330
1A4C9
100
AcDbEntity
  8
DEFPOINTS
 62
     0
100
AcDbPoint
 10
-249.5801476549833
 20
1563.913774158539
 30
0.0
  0
POINT
  5
1A538
330
1A4C9
100
AcDbEntity
  8
DEFPOINTS
 62
     0
100
AcDbPoint
 10
-265.080147654983
 20
1558.913774158539
 30
0.0
  0
POINT
  5
1A539
330
1A4C9
100
AcDbEntity
  8
DEFPOINTS
 62
     0
100
AcDbPoint
 10
-265.080147654983
 20
1551.618936103292
 30
0.0
  0
ENDBLK
  5
1A4D4
330
1A4C9
100
AcDbEntity
  8
0
100
AcDbBlockEnd
  0
BLOCK
  5
1A4E1
330
1A4D5
100
AcDbEntity
  8
0
100
AcDbBlockBegin
  2
*D9
 70
     1
 10
0.0
 20
0.0
 30
0.0
  3
*D9
  1

  0
LINE
  5
1A53A
330
1A4D5
100
AcDbEntity
  8
SUNPOU
 62
     1
100
AcDbLine
 10
-266.8301476549832
 20
1639.413774158539
 30
0.0
 11
-266.8301476549832
 21
1645.025029867231
 31
0.0
  0
LINE
  5
1A53B
330
1A4D5
100
AcDbEntity
  8
SUNPOU
 62
     1
100
AcDbLine
 10
-263.3301476549833
 20
1639.413774158539
 30
0.0
 11
-263.3301476549833
 21
1645.025029867231
 31
0.0
  0
LINE
  5
1A53C
330
1A4D5
100
AcDbEntity
  8
SUNPOU
 62
     1
100
AcDbLine
 10
-269.8301476549833
 20
1644.525029867231
 30
0.0
 11
-272.8301476549833
 21
1644.525029867231
 31
0.0
  0
LINE
  5
1A53D
330
1A4D5
100
AcDbEntity
  8
SUNPOU
 62
     1
100
AcDbLine
 10
-260.3301476549833
 20
1644.525029867231
 30
0.0
 11
-248.3301476549832
 21
1644.525029867231
 31
0.0
  0
LINE
  5
1A53E
330
1A4D5
100
AcDbEntity
  8
SUNPOU
 62
     1
100
AcDbLine
 10
-266.8301476549832
 20
1644.525029867231
 30
0.0
 11
-263.3301476549833
 21
1644.525029867231
 31
0.0
  0
SOLID
  5
1A53F
330
1A4D5
100
AcDbEntity
  8
SUNPOU
 62
     1
100
AcDbTrace
 10
-269.8301476549833
 20
1645.025029867231
 30
0.0
 11
-269.8301476549833
 21
1644.025029867231
 31
0.0
 12
-266.8301476549832
 22
1644.525029867231
 32
0.0
 13
-266.8301476549832
 23
1644.525029867231
 33
0.0
  0
SOLID
  5
1A540
330
1A4D5
100
AcDbEntity
  8
SUNPOU
 62
     1
100
AcDbTrace
 10
-260.3301476549833
 20
1645.025029867231
 30
0.0
 11
-260.3301476549833
 21
1644.025029867231
 31
0.0
 12
-263.3301476549833
 22
1644.525029867231
 32
0.0
 13
-263.3301476549833
 23
1644.525029867231
 33
0.0
  0
MTEXT
  5
1A541
330
1A4D5
100
AcDbEntity
  8
SUNPOU
 62
     1
100
AcDbMText
 10
-252.8301476549833
 20
1647.275029867231
 30
0.0
 40
3.5
 41
0.0
 71
     5
 72
     1
  1
\A1;3.5
1001
ACAD
1000
MTEXTBEGIN
1070
    73
1070
     1
1070
    44
1040
1.0
1070
    74
1070
     0
1000
MTEXTEND
  0
POINT
  5
1A542
330
1A4D5
100
AcDbEntity
  8
DEFPOINTS
 62
     0
100
AcDbPoint
 10
-266.8301476549832
 20
1638.913774158539
 30
0.0
  0
POINT
  5
1A543
330
1A4D5
100
AcDbEntity
  8
DEFPOINTS
 62
     0
100
AcDbPoint
 10
-263.3301476549833
 20
1638.913774158539
 30
0.0
  0
POINT
  5
1A544
330
1A4D5
100
AcDbEntity
  8
DEFPOINTS
 62
     0
100
AcDbPoint
 10
-263.3301476549833
 20
1644.525029867231
 30
0.0
  0
ENDBLK
  5
1A4E2
330
1A4D5
100
AcDbEntity
  8
0
100
AcDbBlockEnd
  0
ENDSEC
  0
SECTION
  2
ENTITIES
  0
MTEXT
  5
5084
330
1A
100
AcDbEntity
  8
0
100
AcDbMText
 10
1985.239088685435
 20
-948.5420423450428
 30
0.0
 40
8.0
 41
0.0
 71
     7
 72
     5
  1

1001
ACAD
1000
MTEXTBEGIN
1070
    73
1070
     1
1070
    44
1040
1.0
1070
    74
1070
     0
1000
MTEXTEND
  0
MTEXT
  5
5085
330
1A
100
AcDbEntity
  8
0
100
AcDbMText
 10
4270.596778580329
 20
22.24825240601649
 30
0.0
 40
8.0
 41
0.0
 71
     7
 72
     5
  1

1001
ACAD
1000
MTEXTBEGIN
1070
    73
1070
     1
1070
    44
1040
1.0
1070
    74
1070
     0
1000
MTEXTEND
  0
MTEXT
  5
5343
330
1A
100
AcDbEntity
  8
SUNPOU
100
AcDbMText
 10
6936.493799262471
 20
9534.359644781135
 30
0.0
 40
10.5
 41
0.0
 71
     1
 72
     5
  1

1001
ACAD
1000
MTEXTBEGIN
1070
    73
1070
     1
1070
    44
1040
1.0
1070
    74
1070
     0
1000
MTEXTEND
  0
MTEXT
  5
544F
330
1A
100
AcDbEntity
  8
0
100
AcDbMText
 10
16317.2832773148
 20
12833.35428897674
 30
0.0
 40
8.0
 41
0.0
 71
     7
 72
     5
  1

1001
ACAD
1000
MTEXTBEGIN
1070
    73
1070
     1
1070
    44
1040
1.0
1070
    74
1070
     0
1000
MTEXTEND
  0
MTEXT
  5
5450
330
1A
100
AcDbEntity
  8
0
100
AcDbMText
 10
18602.64096720969
 20
13804.1445837278
 30
0.0
 40
8.0
 41
0.0
 71
     7
 72
     5
  1

1001
ACAD
1000
MTEXTBEGIN
1070
    73
1070
     1
1070
    44
1040
1.0
1070
    74
1070
     0
1000
MTEXTEND
  0
MTEXT
  5
5451
330
1A
100
AcDbEntity
  8
SUNPOU
100
AcDbMText
 10
21268.53798789184
 20
23316.25597610292
 30
0.0
 40
10.5
 41
0.0
 71
     1
 72
     5
  1

1001
ACAD
1000
MTEXTBEGIN
1070
    73
1070
     1
1070
    44
1040
1.0
1070
    74
1070
     0
1000
MTEXTEND
  0
MTEXT
  5
5452
330
1A
100
AcDbEntity
  8
SUNPOU
100
AcDbMText
 10
13337.6147919559
 20
22369.46284218996
 30
0.0
 40
10.5
 41
0.0
 71
     7
 72
     5
  1

1001
ACAD
1000
MTEXTBEGIN
1070
    73
1070
     1
1070
    44
1040
1.0
1070
    74
1070
     0
1000
MTEXTEND
  0
MTEXT
  5
5453
330
1A
100
AcDbEntity
  8
SUNPOU
100
AcDbMText
 10
16286.59845646867
 20
27270.13891403281
 30
0.0
 40
10.5
 41
0.0
 71
     7
 72
     5
  1

1001
ACAD
1000
MTEXTBEGIN
1070
    73
1070
     1
1070
    44
1040
1.0
1070
    74
1070
     0
1000
MTEXTEND
  0
MTEXT
  5
5454
330
1A
100
AcDbEntity
  8
SUNPOU
100
AcDbMText
 10
20795.67658441924
 20
29706.43966165288
 30
0.0
 40
10.5
 41
0.0
 71
     7
 72
     5
  1

1001
ACAD
1000
MTEXTBEGIN
1070
    73
1070
     1
1070
    44
1040
1.0
1070
    74
1070
     0
1000
MTEXTEND
  0
MTEXT
  5
5455
330
1A
100
AcDbEntity
  8
0
100
AcDbMText
 10
16611.93789220314
 20
14707.52144344448
 30
0.0
 40
8.0
 41
0.0
 71
     7
 72
     5
  1

1001
ACAD
1000
MTEXTBEGIN
1070
    73
1070
     1
1070
    44
1040
1.0
1070
    74
1070
     0
1000
MTEXTEND
  0
MTEXT
  5
5456
330
1A
100
AcDbEntity
  8
0
100
AcDbMText
 10
18897.29558209804
 20
15678.31173819554
 30
0.0
 40
8.0
 41
0.0
 71
     7
 72
     5
  1

1001
ACAD
1000
MTEXTBEGIN
1070
    73
1070
     1
1070
    44
1040
1.0
1070
    74
1070
     0
1000
MTEXTEND
  0
MTEXT
  5
5457
330
1A
100
AcDbEntity
  8
SUNPOU
100
AcDbMText
 10
21563.19260278019
 20
25190.42313057066
 30
0.0
 40
10.5
 41
0.0
 71
     1
 72
     5
  1

1001
ACAD
1000
MTEXTBEGIN
1070
    73
1070
     1
1070
    44
1040
1.0
1070
    74
1070
     0
1000
MTEXTEND
  0
MTEXT
  5
5458
330
1A
100
AcDbEntity
  8
SUNPOU
100
AcDbMText
 10
13632.26940684426
 20
24243.6299966577
 30
0.0
 40
10.5
 41
0.0
 71
     7
 72
     5
  1

1001
ACAD
1000
MTEXTBEGIN
1070
    73
1070
     1
1070
    44
1040
1.0
1070
    74
1070
     0
1000
MTEXTEND
  0
MTEXT
  5
5459
330
1A
100
AcDbEntity
  8
SUNPOU
100
AcDbMText
 10
16581.25307135702
 20
29144.30606850055
 30
0.0
 40
10.5
 41
0.0
 71
     7
 72
     5
  1

1001
ACAD
1000
MTEXTBEGIN
1070
    73
1070
     1
1070
    44
1040
1.0
1070
    74
1070
     0
1000
MTEXTEND
  0
MTEXT
  5
545A
330
1A
100
AcDbEntity
  8
SUNPOU
100
AcDbMText
 10
21090.33119930759
 20
31580.60681612062
 30
0.0
 40
10.5
 41
0.0
 71
     7
 72
     5
  1

1001
ACAD
1000
MTEXTBEGIN
1070
    73
1070
     1
1070
    44
1040
1.0
1070
    74
1070
     0
1000
MTEXTEND
  0
MTEXT
  5
545B
330
1A
100
AcDbEntity
  8
0
100
AcDbMText
 10
22871.60517627167
 20
23974.88367124799
 30
0.0
 40
8.0
 41
0.0
 71
     7
 72
     5
  1

1001
ACAD
1000
MTEXTBEGIN
1070
    73
1070
     1
1070
    44
1040
1.0
1070
    74
1070
     0
1000
MTEXTEND
  0
MTEXT
  5
545C
330
1A
100
AcDbEntity
  8
0
100
AcDbMText
 10
25156.96286616657
 20
24945.67396599906
 30
0.0
 40
8.0
 41
0.0
 71
     7
 72
     5
  1

1001
ACAD
1000
MTEXTBEGIN
1070
    73
1070
     1
1070
    44
1040
1.0
1070
    74
1070
     0
1000
MTEXTEND
  0
MTEXT
  5
545D
330
1A
100
AcDbEntity
  8
SUNPOU
100
AcDbMText
 10
27822.85988684871
 20
34457.78535837418
 30
0.0
 40
10.5
 41
0.0
 71
     1
 72
     5
  1

1001
ACAD
1000
MTEXTBEGIN
1070
    73
1070
     1
1070
    44
1040
1.0
1070
    74
1070
     0
1000
MTEXTEND
  0
MTEXT
  5
545E
330
1A
100
AcDbEntity
  8
SUNPOU
100
AcDbMText
 10
19891.93669091278
 20
33510.99222446122
 30
0.0
 40
10.5
 41
0.0
 71
     7
 72
     5
  1

1001
ACAD
1000
MTEXTBEGIN
1070
    73
1070
     1
1070
    44
1040
1.0
1070
    74
1070
     0
1000
MTEXTEND
  0
MTEXT
  5
545F
330
1A
100
AcDbEntity
  8
SUNPOU
100
AcDbMText
 10
22840.92035542555
 20
38411.66829630407
 30
0.0
 40
10.5
 41
0.0
 71
     7
 72
     5
  1

1001
ACAD
1000
MTEXTBEGIN
1070
    73
1070
     1
1070
    44
1040
1.0
1070
    74
1070
     0
1000
MTEXTEND
  0
MTEXT
  5
5460
330
1A
100
AcDbEntity
  8
SUNPOU
100
AcDbMText
 10
27349.99848337611
 20
40847.96904392415
 30
0.0
 40
10.5
 41
0.0
 71
     7
 72
     5
  1

1001
ACAD
1000
MTEXTBEGIN
1070
    73
1070
     1
1070
    44
1040
1.0
1070
    74
1070
     0
1000
MTEXTEND
  0
MTEXT
  5
55B7
330
1A
100
AcDbEntity
  8
SUNPOU
100
AcDbMText
 10
67424.23923338197
 20
64463.86602884816
 30
0.0
 40
10.5
 41
0.0
 71
     9
 72
     5
  1

1001
ACAD
1000
MTEXTBEGIN
1070
    73
1070
     1
1070
    44
1040
1.0
1070
    74
1070
     0
1000
MTEXTEND
  0
MTEXT
  5
55B8
330
1A
100
AcDbEntity
  8
SUNPOU
100
AcDbMText
 10
76146.40679929998
 20
71879.70056038563
 30
0.0
 40
10.5
 41
0.0
 71
     9
 72
     5
  1

1001
ACAD
1000
MTEXTBEGIN
1070
    73
1070
     1
1070
    44
1040
1.0
1070
    74
1070
     0
1000
MTEXTEND
  0
MTEXT
  5
55B9
330
1A
100
AcDbEntity
  8
SUNPOU
100
AcDbMText
 10
95100.16551662994
 20
89346.27661287766
 30
0.0
 40
10.5
 41
0.0
 71
     9
 72
     5
  1

1001
ACAD
1000
MTEXTBEGIN
1070
    73
1070
     1
1070
    44
1040
1.0
1070
    74
1070
     0
1000
MTEXTEND
  0
MTEXT
  5
55BA
330
1A
100
AcDbEntity
  8
SUNPOU
100
AcDbMText
 10
97043.57276333936
 20
87545.22753299966
 30
0.0
 40
3.5
 41
0.0
 71
     9
 72
     5
  1

1001
ACAD
1000
MTEXTBEGIN
1070
    73
1070
     1
1070
    44
1040
1.0
1070
    74
1070
     0
1000
MTEXTEND
  0
MTEXT
  5
55BB
330
1A
100
AcDbEntity
  8
SUNPOU
100
AcDbMText
 10
128169.752595959
 20
130040.1732006569
 30
0.0
 40
10.5
 41
0.0
 71
     9
 72
     5
  1

1001
ACAD
1000
MTEXTBEGIN
1070
    73
1070
     1
1070
    44
1040
1.0
1070
    74
1070
     0
1000
MTEXTEND
  0
MTEXT
  5
55BC
330
1A
100
AcDbEntity
  8
SUNPOU
100
AcDbMText
 10
130113.1598426684
 20
128239.1241207789
 30
0.0
 40
3.5
 41
0.0
 71
     9
 72
     5
  1

1001
ACAD
1000
MTEXTBEGIN
1070
    73
1070
     1
1070
    44
1040
1.0
1070
    74
1070
     0
1000
MTEXTEND
  0
MTEXT
  5
55BD
330
1A
100
AcDbEntity
  8
SUNPOU
100
AcDbMText
 10
78610.02030175463
 20
75873.33835563206
 30
0.0
 40
10.5
 41
0.0
 71
     9
 72
     5
  1

1001
ACAD
1000
MTEXTBEGIN
1070
    73
1070
     1
1070
    44
1040
1.0
1070
    74
1070
     0
1000
MTEXTEND
  0
MTEXT
  5
55BE
330
1A
100
AcDbEntity
  8
SUNPOU
100
AcDbMText
 10
64662.02020137863
 20
56700.93921651987
 30
0.0
 40
3.5
 41
0.0
 71
     7
 72
     5
  1

1001
ACAD
1000
MTEXTBEGIN
1070
    73
1070
     1
1070
    44
1040
1.0
1070
    74
1070
     0
1000
MTEXTEND
  0
MTEXT
  5
55BF
330
1A
100
AcDbEntity
  8
SUNPOU
100
AcDbMText
 10
45647.18959837178
 20
44463.08794733807
 30
0.0
 40
10.5
 41
0.0
 71
     7
 72
     5
  1

1001
ACAD
1000
MTEXTBEGIN
1070
    73
1070
     1
1070
    44
1040
1.0
1070
    74
1070
     0
1000
MTEXTEND
  0
MTEXT
  5
55C0
330
1A
100
AcDbEntity
  8
SUNPOU
100
AcDbMText
 10
33189.96133342368
 20
28618.15636923965
 30
0.0
 40
35.0
 41
0.0
 71
     9
 72
     5
  1

1001
ACAD
1000
MTEXTBEGIN
1070
    73
1070
     1
1070
    44
1040
1.0
1070
    74
1070
     0
1000
MTEXTEND
  0
MTEXT
  5
55C1
330
1A
100
AcDbEntity
  8
SUNPOU
100
AcDbMText
 10
32098.44639099864
 20
29226.93177928835
 30
0.0
 40
350.0000004171781
 41
0.0
 71
     7
 72
     5
  1

1001
ACAD
1000
MTEXTBEGIN
1070
    73
1070
     1
1070
    44
1040
1.0
1070
    74
1070
     0
1000
MTEXTEND
  0
MTEXT
  5
55C2
330
1A
100
AcDbEntity
  8
0
100
AcDbMText
 10
38142.39714894154
 20
27206.85414142458
 30
0.0
 40
8.0
 41
0.0
 71
     7
 72
     5
  1

1001
ACAD
1000
MTEXTBEGIN
1070
    73
1070
     1
1070
    44
1040
1.0
1070
    74
1070
     0
1000
MTEXTEND
  0
MTEXT
  5
55C3
330
1A
100
AcDbEntity
  8
0
100
AcDbMText
 10
40427.75483883644
 20
28177.64443617564
 30
0.0
 40
8.0
 41
0.0
 71
     7
 72
     5
  1

1001
ACAD
1000
MTEXTBEGIN
1070
    73
1070
     1
1070
    44
1040
1.0
1070
    74
1070
     0
1000
MTEXTEND
  0
MTEXT
  5
55C4
330
1A
100
AcDbEntity
  8
SUNPOU
100
AcDbMText
 10
43093.65185951858
 20
37689.75582855077
 30
0.0
 40
10.5
 41
0.0
 71
     1
 72
     5
  1

1001
ACAD
1000
MTEXTBEGIN
1070
    73
1070
     1
1070
    44
1040
1.0
1070
    74
1070
     0
1000
MTEXTEND
  0
MTEXT
  5
55C5
330
1A
100
AcDbEntity
  8
SUNPOU
100
AcDbMText
 10
35162.72866358265
 20
36742.96269463781
 30
0.0
 40
10.5
 41
0.0
 71
     7
 72
     5
  1

1001
ACAD
1000
MTEXTBEGIN
1070
    73
1070
     1
1070
    44
1040
1.0
1070
    74
1070
     0
1000
MTEXTEND
  0
MTEXT
  5
55C6
330
1A
100
AcDbEntity
  8
SUNPOU
100
AcDbMText
 10
38111.71232809542
 20
41643.63876648066
 30
0.0
 40
10.5
 41
0.0
 71
     7
 72
     5
  1

1001
ACAD
1000
MTEXTBEGIN
1070
    73
1070
     1
1070
    44
1040
1.0
1070
    74
1070
     0
1000
MTEXTEND
  0
MTEXT
  5
55C7
330
1A
100
AcDbEntity
  8
SUNPOU
100
AcDbMText
 10
42620.79045604597
 20
44079.93951410074
 30
0.0
 40
10.5
 41
0.0
 71
     7
 72
     5
  1

1001
ACAD
1000
MTEXTBEGIN
1070
    73
1070
     1
1070
    44
1040
1.0
1070
    74
1070
     0
1000
MTEXTEND
  0
MTEXT
  5
55C8
330
1A
100
AcDbEntity
  8
SUNPOU
100
AcDbMText
 10
26221.62834281429
 20
23077.53566448964
 30
0.0
 40
10.5
 41
0.0
 71
     7
 72
     5
  1

1001
ACAD
1000
MTEXTBEGIN
1070
    73
1070
     1
1070
    44
1040
1.0
1070
    74
1070
     0
1000
MTEXTEND
  0
MTEXT
  5
55C9
330
1A
100
AcDbEntity
  8
SUNPOU
100
AcDbMText
 10
77413.14677671455
 20
68750.51622813789
 30
0.0
 40
10.5
 41
0.0
 71
     9
 72
     5
  1

1001
ACAD
1000
MTEXTBEGIN
1070
    73
1070
     1
1070
    44
1040
1.0
1070
    74
1070
     0
1000
MTEXTEND
  0
MTEXT
  5
55CA
330
1A
100
AcDbEntity
  8
SUNPOU
100
AcDbMText
 10
86135.31434263256
 20
76166.35075967536
 30
0.0
 40
10.5
 41
0.0
 71
     9
 72
     5
  1

1001
ACAD
1000
MTEXTBEGIN
1070
    73
1070
     1
1070
    44
1040
1.0
1070
    74
1070
     0
1000
MTEXTEND
  0
MTEXT
  5
55CB
330
1A
100
AcDbEntity
  8
SUNPOU
100
AcDbMText
 10
105089.0730599625
 20
93632.92681216739
 30
0.0
 40
10.5
 41
0.0
 71
     9
 72
     5
  1

1001
ACAD
1000
MTEXTBEGIN
1070
    73
1070
     1
1070
    44
1040
1.0
1070
    74
1070
     0
1000
MTEXTEND
  0
MTEXT
  5
55CC
330
1A
100
AcDbEntity
  8
SUNPOU
100
AcDbMText
 10
107032.4803066719
 20
91831.8777322894
 30
0.0
 40
3.5
 41
0.0
 71
     9
 72
     5
  1

1001
ACAD
1000
MTEXTBEGIN
1070
    73
1070
     1
1070
    44
1040
1.0
1070
    74
1070
     0
1000
MTEXTEND
  0
MTEXT
  5
55CD
330
1A
100
AcDbEntity
  8
SUNPOU
100
AcDbMText
 10
138158.6601392916
 20
134326.8233999467
 30
0.0
 40
10.5
 41
0.0
 71
     9
 72
     5
  1

1001
ACAD
1000
MTEXTBEGIN
1070
    73
1070
     1
1070
    44
1040
1.0
1070
    74
1070
     0
1000
MTEXTEND
  0
MTEXT
  5
55CE
330
1A
100
AcDbEntity
  8
SUNPOU
100
AcDbMText
 10
140102.067386001
 20
132525.7743200686
 30
0.0
 40
3.5
 41
0.0
 71
     9
 72
     5
  1

1001
ACAD
1000
MTEXTBEGIN
1070
    73
1070
     1
1070
    44
1040
1.0
1070
    74
1070
     0
1000
MTEXTEND
  0
MTEXT
  5
55CF
330
1A
100
AcDbEntity
  8
SUNPOU
100
AcDbMText
 10
88598.92784508721
 20
80159.98855492179
 30
0.0
 40
10.5
 41
0.0
 71
     9
 72
     5
  1

1001
ACAD
1000
MTEXTBEGIN
1070
    73
1070
     1
1070
    44
1040
1.0
1070
    74
1070
     0
1000
MTEXTEND
  0
MTEXT
  5
55D0
330
1A
100
AcDbEntity
  8
SUNPOU
100
AcDbMText
 10
74650.92774471121
 20
60987.5894158096
 30
0.0
 40
3.5
 41
0.0
 71
     7
 72
     5
  1

1001
ACAD
1000
MTEXTBEGIN
1070
    73
1070
     1
1070
    44
1040
1.0
1070
    74
1070
     0
1000
MTEXTEND
  0
MTEXT
  5
55D1
330
1A
100
AcDbEntity
  8
SUNPOU
100
AcDbMText
 10
55636.09714170436
 20
48749.73814662781
 30
0.0
 40
10.5
 41
0.0
 71
     7
 72
     5
  1

1001
ACAD
1000
MTEXTBEGIN
1070
    73
1070
     1
1070
    44
1040
1.0
1070
    74
1070
     0
1000
MTEXTEND
  0
MTEXT
  5
55D2
330
1A
100
AcDbEntity
  8
SUNPOU
100
AcDbMText
 10
43178.86887675626
 20
32904.80656852938
 30
0.0
 40
35.0
 41
0.0
 71
     9
 72
     5
  1

1001
ACAD
1000
MTEXTBEGIN
1070
    73
1070
     1
1070
    44
1040
1.0
1070
    74
1070
     0
1000
MTEXTEND
  0
MTEXT
  5
55D3
330
1A
100
AcDbEntity
  8
SUNPOU
100
AcDbMText
 10
42087.35393433121
 20
33513.58197857809
 30
0.0
 40
350.0000004171781
 41
0.0
 71
     7
 72
     5
  1

1001
ACAD
1000
MTEXTBEGIN
1070
    73
1070
     1
1070
    44
1040
1.0
1070
    74
1070
     0
1000
MTEXTEND
  0
MTEXT
  5
55D4
330
1A
100
AcDbEntity
  8
0
100
AcDbMText
 10
48131.30469227412
 20
31493.50434071431
 30
0.0
 40
8.0
 41
0.0
 71
     7
 72
     5
  1

1001
ACAD
1000
MTEXTBEGIN
1070
    73
1070
     1
1070
    44
1040
1.0
1070
    74
1070
     0
1000
MTEXTEND
  0
MTEXT
  5
55D5
330
1A
100
AcDbEntity
  8
0
100
AcDbMText
 10
50416.66238216901
 20
32464.29463546537
 30
0.0
 40
8.0
 41
0.0
 71
     7
 72
     5
  1

1001
ACAD
1000
MTEXTBEGIN
1070
    73
1070
     1
1070
    44
1040
1.0
1070
    74
1070
     0
1000
MTEXTEND
  0
MTEXT
  5
55D6
330
1A
100
AcDbEntity
  8
SUNPOU
100
AcDbMText
 10
53082.55940285115
 20
41976.4060278405
 30
0.0
 40
10.5
 41
0.0
 71
     1
 72
     5
  1

1001
ACAD
1000
MTEXTBEGIN
1070
    73
1070
     1
1070
    44
1040
1.0
1070
    74
1070
     0
1000
MTEXTEND
  0
MTEXT
  5
55D7
330
1A
100
AcDbEntity
  8
SUNPOU
100
AcDbMText
 10
45151.63620691522
 20
41029.61289392755
 30
0.0
 40
10.5
 41
0.0
 71
     7
 72
     5
  1

1001
ACAD
1000
MTEXTBEGIN
1070
    73
1070
     1
1070
    44
1040
1.0
1070
    74
1070
     0
1000
MTEXTEND
  0
MTEXT
  5
55D8
330
1A
100
AcDbEntity
  8
SUNPOU
100
AcDbMText
 10
48100.61987142798
 20
45930.28896577039
 30
0.0
 40
10.5
 41
0.0
 71
     7
 72
     5
  1

1001
ACAD
1000
MTEXTBEGIN
1070
    73
1070
     1
1070
    44
1040
1.0
1070
    74
1070
     0
1000
MTEXTEND
  0
MTEXT
  5
55D9
330
1A
100
AcDbEntity
  8
SUNPOU
100
AcDbMText
 10
52609.69799937854
 20
48366.58971339046
 30
0.0
 40
10.5
 41
0.0
 71
     7
 72
     5
  1

1001
ACAD
1000
MTEXTBEGIN
1070
    73
1070
     1
1070
    44
1040
1.0
1070
    74
1070
     0
1000
MTEXTEND
  0
MTEXT
  5
55DA
330
1A
100
AcDbEntity
  8
SUNPOU
100
AcDbMText
 10
36210.53588614687
 20
27364.18586377937
 30
0.0
 40
10.5
 41
0.0
 71
     7
 72
     5
  1

1001
ACAD
1000
MTEXTBEGIN
1070
    73
1070
     1
1070
    44
1040
1.0
1070
    74
1070
     0
1000
MTEXTEND
  0
MTEXT
  5
55DB
330
1A
100
AcDbEntity
  8
SUNPOU
100
AcDbMText
 10
38021.29879752181
 20
33691.59985125794
 30
0.0
 40
10.5
 41
0.0
 71
     9
 72
     5
  1

1001
ACAD
1000
MTEXTBEGIN
1070
    73
1070
     1
1070
    44
1040
1.0
1070
    74
1070
     0
1000
MTEXTEND
  0
MTEXT
  5
55DC
330
1A
100
AcDbEntity
  8
SUNPOU
100
AcDbMText
 10
46743.46636343979
 20
41107.43438279541
 30
0.0
 40
10.5
 41
0.0
 71
     9
 72
     5
  1

1001
ACAD
1000
MTEXTBEGIN
1070
    73
1070
     1
1070
    44
1040
1.0
1070
    74
1070
     0
1000
MTEXTEND
  0
MTEXT
  5
55DD
330
1A
100
AcDbEntity
  8
SUNPOU
100
AcDbMText
 10
65697.22508076975
 20
58574.01043528746
 30
0.0
 40
10.5
 41
0.0
 71
     9
 72
     5
  1

1001
ACAD
1000
MTEXTBEGIN
1070
    73
1070
     1
1070
    44
1040
1.0
1070
    74
1070
     0
1000
MTEXTEND
  0
MTEXT
  5
55DE
330
1A
100
AcDbEntity
  8
SUNPOU
100
AcDbMText
 10
67640.63232747917
 20
56772.96135540945
 30
0.0
 40
3.5
 41
0.0
 71
     9
 72
     5
  1

1001
ACAD
1000
MTEXTBEGIN
1070
    73
1070
     1
1070
    44
1040
1.0
1070
    74
1070
     0
1000
MTEXTEND
  0
MTEXT
  5
55DF
330
1A
100
AcDbEntity
  8
SUNPOU
100
AcDbMText
 10
98766.81216009888
 20
99267.9070230668
 30
0.0
 40
10.5
 41
0.0
 71
     9
 72
     5
  1

1001
ACAD
1000
MTEXTBEGIN
1070
    73
1070
     1
1070
    44
1040
1.0
1070
    74
1070
     0
1000
MTEXTEND
  0
MTEXT
  5
55E0
330
1A
100
AcDbEntity
  8
SUNPOU
100
AcDbMText
 10
100710.2194068083
 20
97466.85794318878
 30
0.0
 40
3.5
 41
0.0
 71
     9
 72
     5
  1

1001
ACAD
1000
MTEXTBEGIN
1070
    73
1070
     1
1070
    44
1040
1.0
1070
    74
1070
     0
1000
MTEXTEND
  0
MTEXT
  5
55E1
330
1A
100
AcDbEntity
  8
SUNPOU
100
AcDbMText
 10
49207.07986589444
 20
45101.07217804185
 30
0.0
 40
10.5
 41
0.0
 71
     9
 72
     5
  1

1001
ACAD
1000
MTEXTBEGIN
1070
    73
1070
     1
1070
    44
1040
1.0
1070
    74
1070
     0
1000
MTEXTEND
  0
MTEXT
  5
55E2
330
1A
100
AcDbEntity
  8
SUNPOU
100
AcDbMText
 10
35259.07976551845
 20
25928.67303892964
 30
0.0
 40
3.5
 41
0.0
 71
     7
 72
     5
  1

1001
ACAD
1000
MTEXTBEGIN
1070
    73
1070
     1
1070
    44
1040
1.0
1070
    74
1070
     0
1000
MTEXTEND
  0
MTEXT
  5
55E3
330
1A
100
AcDbEntity
  8
SUNPOU
100
AcDbMText
 10
48951.43044828905
 20
35287.73625995099
 30
0.0
 40
10.5
 41
0.0
 71
     9
 72
     5
  1

1001
ACAD
1000
MTEXTBEGIN
1070
    73
1070
     1
1070
    44
1040
1.0
1070
    74
1070
     0
1000
MTEXTEND
  0
MTEXT
  5
55E4
330
1A
100
AcDbEntity
  8
SUNPOU
100
AcDbMText
 10
57673.59801420702
 20
42703.57079148847
 30
0.0
 40
10.5
 41
0.0
 71
     9
 72
     5
  1

1001
ACAD
1000
MTEXTBEGIN
1070
    73
1070
     1
1070
    44
1040
1.0
1070
    74
1070
     0
1000
MTEXTEND
  0
MTEXT
  5
55E5
330
1A
100
AcDbEntity
  8
SUNPOU
100
AcDbMText
 10
76627.35673153699
 20
60170.14684398051
 30
0.0
 40
10.5
 41
0.0
 71
     9
 72
     5
  1

1001
ACAD
1000
MTEXTBEGIN
1070
    73
1070
     1
1070
    44
1040
1.0
1070
    74
1070
     0
1000
MTEXTEND
  0
MTEXT
  5
55E6
330
1A
100
AcDbEntity
  8
SUNPOU
100
AcDbMText
 10
78570.76397824641
 20
58369.09776410251
 30
0.0
 40
3.5
 41
0.0
 71
     9
 72
     5
  1

1001
ACAD
1000
MTEXTBEGIN
1070
    73
1070
     1
1070
    44
1040
1.0
1070
    74
1070
     0
1000
MTEXTEND
  0
MTEXT
  5
55E7
330
1A
100
AcDbEntity
  8
SUNPOU
100
AcDbMText
 10
109696.9438108661
 20
100864.0434317598
 30
0.0
 40
10.5
 41
0.0
 71
     9
 72
     5
  1

1001
ACAD
1000
MTEXTBEGIN
1070
    73
1070
     1
1070
    44
1040
1.0
1070
    74
1070
     0
1000
MTEXTEND
  0
MTEXT
  5
55E8
330
1A
100
AcDbEntity
  8
SUNPOU
100
AcDbMText
 10
111640.3510575755
 20
99062.99435188183
 30
0.0
 40
3.5
 41
0.0
 71
     9
 72
     5
  1

1001
ACAD
1000
MTEXTBEGIN
1070
    73
1070
     1
1070
    44
1040
1.0
1070
    74
1070
     0
1000
MTEXTEND
  0
MTEXT
  5
55E9
330
1A
100
AcDbEntity
  8
SUNPOU
100
AcDbMText
 10
60137.21151666167
 20
46697.20858673491
 30
0.0
 40
10.5
 41
0.0
 71
     9
 72
     5
  1

1001
ACAD
1000
MTEXTBEGIN
1070
    73
1070
     1
1070
    44
1040
1.0
1070
    74
1070
     0
1000
MTEXTEND
  0
MTEXT
  5
55EA
330
1A
100
AcDbEntity
  8
SUNPOU
100
AcDbMText
 10
46189.21141628568
 20
27524.80944762269
 30
0.0
 40
3.5
 41
0.0
 71
     7
 72
     5
  1

1001
ACAD
1000
MTEXTBEGIN
1070
    73
1070
     1
1070
    44
1040
1.0
1070
    74
1070
     0
1000
MTEXTEND
  0
MTEXT
  5
55EB
330
1A
100
AcDbEntity
  8
SUNPOU
100
AcDbMText
 10
45007.68847015541
 20
38269.57947701874
 30
0.0
 40
10.5
 41
0.0
 71
     9
 72
     5
  1

1001
ACAD
1000
MTEXTBEGIN
1070
    73
1070
     1
1070
    44
1040
1.0
1070
    74
1070
     0
1000
MTEXTEND
  0
MTEXT
  5
55EC
330
1A
100
AcDbEntity
  8
SUNPOU
100
AcDbMText
 10
63961.44718748539
 20
55736.15552951081
 30
0.0
 40
10.5
 41
0.0
 71
     9
 72
     5
  1

1001
ACAD
1000
MTEXTBEGIN
1070
    73
1070
     1
1070
    44
1040
1.0
1070
    74
1070
     0
1000
MTEXTEND
  0
MTEXT
  5
55ED
330
1A
100
AcDbEntity
  8
SUNPOU
100
AcDbMText
 10
65904.85443419479
 20
53935.10644963279
 30
0.0
 40
3.5
 41
0.0
 71
     9
 72
     5
  1

1001
ACAD
1000
MTEXTBEGIN
1070
    73
1070
     1
1070
    44
1040
1.0
1070
    74
1070
     0
1000
MTEXTEND
  0
MTEXT
  5
55EE
330
1A
100
AcDbEntity
  8
SUNPOU
100
AcDbMText
 10
97031.03426681451
 20
96430.05211729015
 30
0.0
 40
10.5
 41
0.0
 71
     9
 72
     5
  1

1001
ACAD
1000
MTEXTBEGIN
1070
    73
1070
     1
1070
    44
1040
1.0
1070
    74
1070
     0
1000
MTEXTEND
  0
MTEXT
  5
55EF
330
1A
100
AcDbEntity
  8
SUNPOU
100
AcDbMText
 10
98974.44151352393
 20
94629.00303741212
 30
0.0
 40
3.5
 41
0.0
 71
     9
 72
     5
  1

1001
ACAD
1000
MTEXTBEGIN
1070
    73
1070
     1
1070
    44
1040
1.0
1070
    74
1070
     0
1000
MTEXTEND
  0
MTEXT
  5
55F0
330
1A
100
AcDbEntity
  8
SUNPOU
100
AcDbMText
 10
47471.30197261006
 20
42263.21727226519
 30
0.0
 40
10.5
 41
0.0
 71
     9
 72
     5
  1

1001
ACAD
1000
MTEXTBEGIN
1070
    73
1070
     1
1070
    44
1040
1.0
1070
    74
1070
     0
1000
MTEXTEND
  0
MTEXT
  5
55F1
330
1A
100
AcDbEntity
  8
SUNPOU
100
AcDbMText
 10
33523.30187223408
 20
23090.81813315298
 30
0.0
 40
3.5
 41
0.0
 71
     7
 72
     5
  1

1001
ACAD
1000
MTEXTBEGIN
1070
    73
1070
     1
1070
    44
1040
1.0
1070
    74
1070
     0
1000
MTEXTEND
  0
MTEXT
  5
55F2
330
1A
100
AcDbEntity
  8
SUNPOU
100
AcDbMText
 10
57959.46254102503
 20
50038.08111611015
 30
0.0
 40
10.5
 41
0.0
 71
     9
 72
     5
  1

1001
ACAD
1000
MTEXTBEGIN
1070
    73
1070
     1
1070
    44
1040
1.0
1070
    74
1070
     0
1000
MTEXTEND
  0
MTEXT
  5
55F3
330
1A
100
AcDbEntity
  8
SUNPOU
100
AcDbMText
 10
76913.22125835503
 20
67504.65716860222
 30
0.0
 40
10.5
 41
0.0
 71
     9
 72
     5
  1

1001
ACAD
1000
MTEXTBEGIN
1070
    73
1070
     1
1070
    44
1040
1.0
1070
    74
1070
     0
1000
MTEXTEND
  0
MTEXT
  5
55F4
330
1A
100
AcDbEntity
  8
SUNPOU
100
AcDbMText
 10
78856.62850506443
 20
65703.6080887242
 30
0.0
 40
3.5
 41
0.0
 71
     9
 72
     5
  1

1001
ACAD
1000
MTEXTBEGIN
1070
    73
1070
     1
1070
    44
1040
1.0
1070
    74
1070
     0
1000
MTEXTEND
  0
MTEXT
  5
55F5
330
1A
100
AcDbEntity
  8
SUNPOU
100
AcDbMText
 10
109982.8083376841
 20
108198.5537563815
 30
0.0
 40
10.5
 41
0.0
 71
     9
 72
     5
  1

1001
ACAD
1000
MTEXTBEGIN
1070
    73
1070
     1
1070
    44
1040
1.0
1070
    74
1070
     0
1000
MTEXTEND
  0
MTEXT
  5
55F6
330
1A
100
AcDbEntity
  8
SUNPOU
100
AcDbMText
 10
111926.2155843935
 20
106397.5046765035
 30
0.0
 40
3.5
 41
0.0
 71
     9
 72
     5
  1

1001
ACAD
1000
MTEXTBEGIN
1070
    73
1070
     1
1070
    44
1040
1.0
1070
    74
1070
     0
1000
MTEXTEND
  0
MTEXT
  5
55F7
330
1A
100
AcDbEntity
  8
SUNPOU
100
AcDbMText
 10
60423.07604347968
 20
54031.71891135659
 30
0.0
 40
10.5
 41
0.0
 71
     9
 72
     5
  1

1001
ACAD
1000
MTEXTBEGIN
1070
    73
1070
     1
1070
    44
1040
1.0
1070
    74
1070
     0
1000
MTEXTEND
  0
MTEXT
  5
55F8
330
1A
100
AcDbEntity
  8
SUNPOU
100
AcDbMText
 10
46475.07594310369
 20
34859.3197722444
 30
0.0
 40
3.5
 41
0.0
 71
     7
 72
     5
  1

1001
ACAD
1000
MTEXTBEGIN
1070
    73
1070
     1
1070
    44
1040
1.0
1070
    74
1070
     0
1000
MTEXTEND
  0
MTEXT
  5
55F9
330
1A
100
AcDbEntity
  8
SUNPOU
100
AcDbMText
 10
74027.35402123588
 20
68370.58278833383
 30
0.0
 40
10.5
 41
0.0
 71
     9
 72
     5
  1

1001
ACAD
1000
MTEXTBEGIN
1070
    73
1070
     1
1070
    44
1040
1.0
1070
    74
1070
     0
1000
MTEXTEND
  0
MTEXT
  5
55FA
330
1A
100
AcDbEntity
  8
SUNPOU
100
AcDbMText
 10
75970.7612679453
 20
66569.53370845583
 30
0.0
 40
3.5
 41
0.0
 71
     9
 72
     5
  1

1001
ACAD
1000
MTEXTBEGIN
1070
    73
1070
     1
1070
    44
1040
1.0
1070
    74
1070
     0
1000
MTEXTEND
  0
MTEXT
  5
55FB
330
1A
100
AcDbEntity
  8
SUNPOU
100
AcDbMText
 10
107096.941100565
 20
109064.4793761132
 30
0.0
 40
10.5
 41
0.0
 71
     9
 72
     5
  1

1001
ACAD
1000
MTEXTBEGIN
1070
    73
1070
     1
1070
    44
1040
1.0
1070
    74
1070
     0
1000
MTEXTEND
  0
MTEXT
  5
55FC
330
1A
100
AcDbEntity
  8
SUNPOU
100
AcDbMText
 10
109040.3483472744
 20
107263.4302962351
 30
0.0
 40
3.5
 41
0.0
 71
     9
 72
     5
  1

1001
ACAD
1000
MTEXTBEGIN
1070
    73
1070
     1
1070
    44
1040
1.0
1070
    74
1070
     0
1000
MTEXTEND
  0
MTEXT
  5
55FD
330
1A
100
AcDbEntity
  8
SUNPOU
100
AcDbMText
 10
105709.1709283621
 20
108141.3777665285
 30
0.0
 40
10.5
 41
0.0
 71
     9
 72
     5
  1

1001
ACAD
1000
MTEXTBEGIN
1070
    73
1070
     1
1070
    44
1040
1.0
1070
    74
1070
     0
1000
MTEXTEND
  0
MTEXT
  5
55FE
330
1A
100
AcDbEntity
  8
SUNPOU
100
AcDbMText
 10
107652.5781750715
 20
106340.3286866505
 30
0.0
 40
3.5
 41
0.0
 71
     9
 72
     5
  1

1001
ACAD
1000
MTEXTBEGIN
1070
    73
1070
     1
1070
    44
1040
1.0
1070
    74
1070
     0
1000
MTEXTEND
  0
MTEXT
  5
55FF
330
1A
100
AcDbEntity
  8
SUNPOU
100
AcDbMText
 10
73193.09268743351
 20
66158.78082845056
 30
0.0
 40
10.5
 41
0.0
 71
     9
 72
     5
  1

1001
ACAD
1000
MTEXTBEGIN
1070
    73
1070
     1
1070
    44
1040
1.0
1070
    74
1070
     0
1000
MTEXTEND
  0
MTEXT
  5
5600
330
1A
100
AcDbEntity
  8
SUNPOU
100
AcDbMText
 10
75916.39889159806
 20
66563.46252003162
 30
0.0
 40
3.5
 41
0.0
 71
     9
 72
     5
  1

1001
ACAD
1000
MTEXTBEGIN
1070
    73
1070
     1
1070
    44
1040
1.0
1070
    74
1070
     0
1000
MTEXTEND
  0
MTEXT
  5
5601
330
1A
100
AcDbEntity
  8
SUNPOU
100
AcDbMText
 10
75124.04436649058
 20
63402.1566819768
 30
0.0
 40
10.5
 41
0.0
 71
     9
 72
     5
  1

1001
ACAD
1000
MTEXTBEGIN
1070
    73
1070
     1
1070
    44
1040
1.0
1070
    74
1070
     0
1000
MTEXTEND
  0
MTEXT
  5
5602
330
1A
100
AcDbEntity
  8
SUNPOU
100
AcDbMText
 10
77067.4516132
 20
61601.1076020988
 30
0.0
 40
3.5
 41
0.0
 71
     9
 72
     5
  1

1001
ACAD
1000
MTEXTBEGIN
1070
    73
1070
     1
1070
    44
1040
1.0
1070
    74
1070
     0
1000
MTEXTEND
  0
MTEXT
  5
5603
330
1A
100
AcDbEntity
  8
SUNPOU
100
AcDbMText
 10
77012.54710378659
 20
61488.33571981449
 30
0.0
 40
3.5
 41
0.0
 71
     9
 72
     5
  1

1001
ACAD
1000
MTEXTBEGIN
1070
    73
1070
     1
1070
    44
1040
1.0
1070
    74
1070
     0
1000
MTEXTEND
  0
MTEXT
  5
5604
330
1A
100
AcDbEntity
  8
SUNPOU
100
AcDbMText
 10
76376.61896736668
 20
60677.01447874797
 30
0.0
 40
3.5
 41
0.0
 71
     9
 72
     5
  1

1001
ACAD
1000
MTEXTBEGIN
1070
    73
1070
     1
1070
    44
1040
1.0
1070
    74
1070
     0
1000
MTEXTEND
  0
MTEXT
  5
5605
330
1A
100
AcDbEntity
  8
SUNPOU
100
AcDbMText
 10
76375.37854794595
 20
60676.76650181047
 30
0.0
 40
10.5
 41
0.0
 71
     9
 72
     5
  1

1001
ACAD
1000
MTEXTBEGIN
1070
    73
1070
     1
1070
    44
1040
1.0
1070
    74
1070
     0
1000
MTEXTEND
  0
MTEXT
  5
5606
330
1A
100
AcDbEntity
  8
SUNPOU
100
AcDbMText
 10
84709.93991079748
 20
78034.0328293557
 30
0.0
 40
10.5
 41
0.0
 71
     9
 72
     5
  1

1001
ACAD
1000
MTEXTBEGIN
1070
    73
1070
     1
1070
    44
1040
1.0
1070
    74
1070
     0
1000
MTEXTEND
  0
MTEXT
  5
5607
330
1A
100
AcDbEntity
  8
SUNPOU
100
AcDbMText
 10
93432.10747671548
 20
85449.86736089315
 30
0.0
 40
10.5
 41
0.0
 71
     9
 72
     5
  1

1001
ACAD
1000
MTEXTBEGIN
1070
    73
1070
     1
1070
    44
1040
1.0
1070
    74
1070
     0
1000
MTEXTEND
  0
MTEXT
  5
5608
330
1A
100
AcDbEntity
  8
SUNPOU
100
AcDbMText
 10
112385.8661940454
 20
102916.4434133851
 30
0.0
 40
10.5
 41
0.0
 71
     9
 72
     5
  1

1001
ACAD
1000
MTEXTBEGIN
1070
    73
1070
     1
1070
    44
1040
1.0
1070
    74
1070
     0
1000
MTEXTEND
  0
MTEXT
  5
5609
330
1A
100
AcDbEntity
  8
SUNPOU
100
AcDbMText
 10
114329.2734407548
 20
101115.3943335072
 30
0.0
 40
3.5
 41
0.0
 71
     9
 72
     5
  1

1001
ACAD
1000
MTEXTBEGIN
1070
    73
1070
     1
1070
    44
1040
1.0
1070
    74
1070
     0
1000
MTEXTEND
  0
MTEXT
  5
560A
330
1A
100
AcDbEntity
  8
SUNPOU
100
AcDbMText
 10
145455.4532733745
 20
143610.3400011645
 30
0.0
 40
10.5
 41
0.0
 71
     9
 72
     5
  1

1001
ACAD
1000
MTEXTBEGIN
1070
    73
1070
     1
1070
    44
1040
1.0
1070
    74
1070
     0
1000
MTEXTEND
  0
MTEXT
  5
560B
330
1A
100
AcDbEntity
  8
SUNPOU
100
AcDbMText
 10
147398.8605200839
 20
141809.2909212864
 30
0.0
 40
3.5
 41
0.0
 71
     9
 72
     5
  1

1001
ACAD
1000
MTEXTBEGIN
1070
    73
1070
     1
1070
    44
1040
1.0
1070
    74
1070
     0
1000
MTEXTEND
  0
MTEXT
  5
560C
330
1A
100
AcDbEntity
  8
SUNPOU
100
AcDbMText
 10
95895.72097917013
 20
89443.5051561396
 30
0.0
 40
10.5
 41
0.0
 71
     9
 72
     5
  1

1001
ACAD
1000
MTEXTBEGIN
1070
    73
1070
     1
1070
    44
1040
1.0
1070
    74
1070
     0
1000
MTEXTEND
  0
MTEXT
  5
560D
330
1A
100
AcDbEntity
  8
SUNPOU
100
AcDbMText
 10
81947.72087879414
 20
70271.1060170274
 30
0.0
 40
3.5
 41
0.0
 71
     7
 72
     5
  1

1001
ACAD
1000
MTEXTBEGIN
1070
    73
1070
     1
1070
    44
1040
1.0
1070
    74
1070
     0
1000
MTEXTEND
  0
MTEXT
  5
560E
330
1A
100
AcDbEntity
  8
SUNPOU
100
AcDbMText
 10
62932.89027578729
 20
58033.25474784561
 30
0.0
 40
10.5
 41
0.0
 71
     7
 72
     5
  1

1001
ACAD
1000
MTEXTBEGIN
1070
    73
1070
     1
1070
    44
1040
1.0
1070
    74
1070
     0
1000
MTEXTEND
  0
MTEXT
  5
560F
330
1A
100
AcDbEntity
  8
SUNPOU
100
AcDbMText
 10
50475.66201083918
 20
42188.32316974719
 30
0.0
 40
35.0
 41
0.0
 71
     9
 72
     5
  1

1001
ACAD
1000
MTEXTBEGIN
1070
    73
1070
     1
1070
    44
1040
1.0
1070
    74
1070
     0
1000
MTEXTEND
  0
MTEXT
  5
5610
330
1A
100
AcDbEntity
  8
SUNPOU
100
AcDbMText
 10
49384.14706841413
 20
42797.0985797959
 30
0.0
 40
350.0000004171781
 41
0.0
 71
     7
 72
     5
  1

1001
ACAD
1000
MTEXTBEGIN
1070
    73
1070
     1
1070
    44
1040
1.0
1070
    74
1070
     0
1000
MTEXTEND
  0
MTEXT
  5
5611
330
1A
100
AcDbEntity
  8
0
100
AcDbMText
 10
55428.09782635704
 20
40777.02094193211
 30
0.0
 40
8.0
 41
0.0
 71
     7
 72
     5
  1

1001
ACAD
1000
MTEXTBEGIN
1070
    73
1070
     1
1070
    44
1040
1.0
1070
    74
1070
     0
1000
MTEXTEND
  0
MTEXT
  5
5612
330
1A
100
AcDbEntity
  8
0
100
AcDbMText
 10
57713.45551625194
 20
41747.81123668317
 30
0.0
 40
8.0
 41
0.0
 71
     7
 72
     5
  1

1001
ACAD
1000
MTEXTBEGIN
1070
    73
1070
     1
1070
    44
1040
1.0
1070
    74
1070
     0
1000
MTEXTEND
  0
MTEXT
  5
5613
330
1A
100
AcDbEntity
  8
SUNPOU
100
AcDbMText
 10
60379.35253693408
 20
51259.9226290583
 30
0.0
 40
10.5
 41
0.0
 71
     1
 72
     5
  1

1001
ACAD
1000
MTEXTBEGIN
1070
    73
1070
     1
1070
    44
1040
1.0
1070
    74
1070
     0
1000
MTEXTEND
  0
MTEXT
  5
5614
330
1A
100
AcDbEntity
  8
SUNPOU
100
AcDbMText
 10
52448.42934099814
 20
50313.12949514535
 30
0.0
 40
10.5
 41
0.0
 71
     7
 72
     5
  1

1001
ACAD
1000
MTEXTBEGIN
1070
    73
1070
     1
1070
    44
1040
1.0
1070
    74
1070
     0
1000
MTEXTEND
  0
MTEXT
  5
5615
330
1A
100
AcDbEntity
  8
SUNPOU
100
AcDbMText
 10
55397.41300551091
 20
55213.80556698819
 30
0.0
 40
10.5
 41
0.0
 71
     7
 72
     5
  1

1001
ACAD
1000
MTEXTBEGIN
1070
    73
1070
     1
1070
    44
1040
1.0
1070
    74
1070
     0
1000
MTEXTEND
  0
MTEXT
  5
5616
330
1A
100
AcDbEntity
  8
SUNPOU
100
AcDbMText
 10
59906.49113346147
 20
57650.10631460826
 30
0.0
 40
10.5
 41
0.0
 71
     7
 72
     5
  1

1001
ACAD
1000
MTEXTBEGIN
1070
    73
1070
     1
1070
    44
1040
1.0
1070
    74
1070
     0
1000
MTEXTEND
  0
MTEXT
  5
5617
330
1A
100
AcDbEntity
  8
SUNPOU
100
AcDbMText
 10
43507.32902022979
 20
36647.70246499718
 30
0.0
 40
10.5
 41
0.0
 71
     7
 72
     5
  1

1001
ACAD
1000
MTEXTBEGIN
1070
    73
1070
     1
1070
    44
1040
1.0
1070
    74
1070
     0
1000
MTEXTEND
  0
MTEXT
  5
5618
330
1A
100
AcDbEntity
  8
SUNPOU
100
AcDbMText
 10
94698.84745413006
 20
82320.68302864542
 30
0.0
 40
10.5
 41
0.0
 71
     9
 72
     5
  1

1001
ACAD
1000
MTEXTBEGIN
1070
    73
1070
     1
1070
    44
1040
1.0
1070
    74
1070
     0
1000
MTEXTEND
  0
MTEXT
  5
5619
330
1A
100
AcDbEntity
  8
SUNPOU
100
AcDbMText
 10
103421.015020048
 20
89736.5175601829
 30
0.0
 40
10.5
 41
0.0
 71
     9
 72
     5
  1

1001
ACAD
1000
MTEXTBEGIN
1070
    73
1070
     1
1070
    44
1040
1.0
1070
    74
1070
     0
1000
MTEXTEND
  0
MTEXT
  5
561A
330
1A
100
AcDbEntity
  8
SUNPOU
100
AcDbMText
 10
122374.773737378
 20
107203.0936126749
 30
0.0
 40
10.5
 41
0.0
 71
     9
 72
     5
  1

1001
ACAD
1000
MTEXTBEGIN
1070
    73
1070
     1
1070
    44
1040
1.0
1070
    74
1070
     0
1000
MTEXTEND
  0
MTEXT
  5
561B
330
1A
100
AcDbEntity
  8
SUNPOU
100
AcDbMText
 10
124318.1809840874
 20
105402.0445327969
 30
0.0
 40
3.5
 41
0.0
 71
     9
 72
     5
  1

1001
ACAD
1000
MTEXTBEGIN
1070
    73
1070
     1
1070
    44
1040
1.0
1070
    74
1070
     0
1000
MTEXTEND
  0
MTEXT
  5
561C
330
1A
100
AcDbEntity
  8
SUNPOU
100
AcDbMText
 10
155444.3608167071
 20
147896.9902004542
 30
0.0
 40
10.5
 41
0.0
 71
     9
 72
     5
  1

1001
ACAD
1000
MTEXTBEGIN
1070
    73
1070
     1
1070
    44
1040
1.0
1070
    74
1070
     0
1000
MTEXTEND
  0
MTEXT
  5
561D
330
1A
100
AcDbEntity
  8
SUNPOU
100
AcDbMText
 10
157387.7680634165
 20
146095.9411205762
 30
0.0
 40
3.5
 41
0.0
 71
     9
 72
     5
  1

1001
ACAD
1000
MTEXTBEGIN
1070
    73
1070
     1
1070
    44
1040
1.0
1070
    74
1070
     0
1000
MTEXTEND
  0
MTEXT
  5
561E
330
1A
100
AcDbEntity
  8
SUNPOU
100
AcDbMText
 10
105884.6285225027
 20
93730.15535542933
 30
0.0
 40
10.5
 41
0.0
 71
     9
 72
     5
  1

1001
ACAD
1000
MTEXTBEGIN
1070
    73
1070
     1
1070
    44
1040
1.0
1070
    74
1070
     0
1000
MTEXTEND
  0
MTEXT
  5
561F
330
1A
100
AcDbEntity
  8
SUNPOU
100
AcDbMText
 10
91936.6284221267
 20
74557.75621631714
 30
0.0
 40
3.5
 41
0.0
 71
     7
 72
     5
  1

1001
ACAD
1000
MTEXTBEGIN
1070
    73
1070
     1
1070
    44
1040
1.0
1070
    74
1070
     0
1000
MTEXTEND
  0
MTEXT
  5
5620
330
1A
100
AcDbEntity
  8
SUNPOU
100
AcDbMText
 10
72921.79781911986
 20
62319.90494713533
 30
0.0
 40
10.5
 41
0.0
 71
     7
 72
     5
  1

1001
ACAD
1000
MTEXTBEGIN
1070
    73
1070
     1
1070
    44
1040
1.0
1070
    74
1070
     0
1000
MTEXTEND
  0
MTEXT
  5
5621
330
1A
100
AcDbEntity
  8
SUNPOU
100
AcDbMText
 10
60464.56955417175
 20
46474.97336903692
 30
0.0
 40
35.0
 41
0.0
 71
     9
 72
     5
  1

1001
ACAD
1000
MTEXTBEGIN
1070
    73
1070
     1
1070
    44
1040
1.0
1070
    74
1070
     0
1000
MTEXTEND
  0
MTEXT
  5
5622
330
1A
100
AcDbEntity
  8
SUNPOU
100
AcDbMText
 10
59373.05461174672
 20
47083.74877908562
 30
0.0
 40
350.0000004171781
 41
0.0
 71
     7
 72
     5
  1

1001
ACAD
1000
MTEXTBEGIN
1070
    73
1070
     1
1070
    44
1040
1.0
1070
    74
1070
     0
1000
MTEXTEND
  0
MTEXT
  5
5623
330
1A
100
AcDbEntity
  8
0
100
AcDbMText
 10
65417.00536968962
 20
45063.67114122186
 30
0.0
 40
8.0
 41
0.0
 71
     7
 72
     5
  1

1001
ACAD
1000
MTEXTBEGIN
1070
    73
1070
     1
1070
    44
1040
1.0
1070
    74
1070
     0
1000
MTEXTEND
  0
MTEXT
  5
5624
330
1A
100
AcDbEntity
  8
0
100
AcDbMText
 10
67702.36305958452
 20
46034.46143597292
 30
0.0
 40
8.0
 41
0.0
 71
     7
 72
     5
  1

1001
ACAD
1000
MTEXTBEGIN
1070
    73
1070
     1
1070
    44
1040
1.0
1070
    74
1070
     0
1000
MTEXTEND
  0
MTEXT
  5
5625
330
1A
100
AcDbEntity
  8
SUNPOU
100
AcDbMText
 10
70368.26008026666
 20
55546.57282834803
 30
0.0
 40
10.5
 41
0.0
 71
     1
 72
     5
  1

1001
ACAD
1000
MTEXTBEGIN
1070
    73
1070
     1
1070
    44
1040
1.0
1070
    74
1070
     0
1000
MTEXTEND
  0
MTEXT
  5
5626
330
1A
100
AcDbEntity
  8
SUNPOU
100
AcDbMText
 10
62437.33688433072
 20
54599.77969443508
 30
0.0
 40
10.5
 41
0.0
 71
     7
 72
     5
  1

1001
ACAD
1000
MTEXTBEGIN
1070
    73
1070
     1
1070
    44
1040
1.0
1070
    74
1070
     0
1000
MTEXTEND
  0
MTEXT
  5
5627
330
1A
100
AcDbEntity
  8
SUNPOU
100
AcDbMText
 10
65386.32054884349
 20
59500.45576627792
 30
0.0
 40
10.5
 41
0.0
 71
     7
 72
     5
  1

1001
ACAD
1000
MTEXTBEGIN
1070
    73
1070
     1
1070
    44
1040
1.0
1070
    74
1070
     0
1000
MTEXTEND
  0
MTEXT
  5
5628
330
1A
100
AcDbEntity
  8
SUNPOU
100
AcDbMText
 10
69895.39867679405
 20
61936.756513898
 30
0.0
 40
10.5
 41
0.0
 71
     7
 72
     5
  1

1001
ACAD
1000
MTEXTBEGIN
1070
    73
1070
     1
1070
    44
1040
1.0
1070
    74
1070
     0
1000
MTEXTEND
  0
MTEXT
  5
5629
330
1A
100
AcDbEntity
  8
SUNPOU
100
AcDbMText
 10
53496.23656356237
 20
40934.35266428691
 30
0.0
 40
10.5
 41
0.0
 71
     7
 72
     5
  1

1001
ACAD
1000
MTEXTBEGIN
1070
    73
1070
     1
1070
    44
1040
1.0
1070
    74
1070
     0
1000
MTEXTEND
  0
MTEXT
  5
562A
330
1A
100
AcDbEntity
  8
SUNPOU
100
AcDbMText
 10
55306.99947493731
 20
47261.76665176547
 30
0.0
 40
10.5
 41
0.0
 71
     9
 72
     5
  1

1001
ACAD
1000
MTEXTBEGIN
1070
    73
1070
     1
1070
    44
1040
1.0
1070
    74
1070
     0
1000
MTEXTEND
  0
MTEXT
  5
562B
330
1A
100
AcDbEntity
  8
SUNPOU
100
AcDbMText
 10
64029.16704085528
 20
54677.60118330295
 30
0.0
 40
10.5
 41
0.0
 71
     9
 72
     5
  1

1001
ACAD
1000
MTEXTBEGIN
1070
    73
1070
     1
1070
    44
1040
1.0
1070
    74
1070
     0
1000
MTEXTEND
  0
MTEXT
  5
562C
330
1A
100
AcDbEntity
  8
SUNPOU
100
AcDbMText
 10
82982.92575818527
 20
72144.17723579499
 30
0.0
 40
10.5
 41
0.0
 71
     9
 72
     5
  1

1001
ACAD
1000
MTEXTBEGIN
1070
    73
1070
     1
1070
    44
1040
1.0
1070
    74
1070
     0
1000
MTEXTEND
  0
MTEXT
  5
562D
330
1A
100
AcDbEntity
  8
SUNPOU
100
AcDbMText
 10
84926.33300489467
 20
70343.12815591698
 30
0.0
 40
3.5
 41
0.0
 71
     9
 72
     5
  1

1001
ACAD
1000
MTEXTBEGIN
1070
    73
1070
     1
1070
    44
1040
1.0
1070
    74
1070
     0
1000
MTEXTEND
  0
MTEXT
  5
562E
330
1A
100
AcDbEntity
  8
SUNPOU
100
AcDbMText
 10
116052.5128375143
 20
112838.0738235743
 30
0.0
 40
10.5
 41
0.0
 71
     9
 72
     5
  1

1001
ACAD
1000
MTEXTBEGIN
1070
    73
1070
     1
1070
    44
1040
1.0
1070
    74
1070
     0
1000
MTEXTEND
  0
MTEXT
  5
562F
330
1A
100
AcDbEntity
  8
SUNPOU
100
AcDbMText
 10
117995.9200842238
 20
111037.0247436963
 30
0.0
 40
3.5
 41
0.0
 71
     9
 72
     5
  1

1001
ACAD
1000
MTEXTBEGIN
1070
    73
1070
     1
1070
    44
1040
1.0
1070
    74
1070
     0
1000
MTEXTEND
  0
MTEXT
  5
5630
330
1A
100
AcDbEntity
  8
SUNPOU
100
AcDbMText
 10
66492.78054330994
 20
58671.23897854939
 30
0.0
 40
10.5
 41
0.0
 71
     9
 72
     5
  1

1001
ACAD
1000
MTEXTBEGIN
1070
    73
1070
     1
1070
    44
1040
1.0
1070
    74
1070
     0
1000
MTEXTEND
  0
MTEXT
  5
5631
330
1A
100
AcDbEntity
  8
SUNPOU
100
AcDbMText
 10
52544.78044293396
 20
39498.83983943717
 30
0.0
 40
3.5
 41
0.0
 71
     7
 72
     5
  1

1001
ACAD
1000
MTEXTBEGIN
1070
    73
1070
     1
1070
    44
1040
1.0
1070
    74
1070
     0
1000
MTEXTEND
  0
MTEXT
  5
5632
330
1A
100
AcDbEntity
  8
SUNPOU
100
AcDbMText
 10
66237.13112570454
 20
48857.90306045851
 30
0.0
 40
10.5
 41
0.0
 71
     9
 72
     5
  1

1001
ACAD
1000
MTEXTBEGIN
1070
    73
1070
     1
1070
    44
1040
1.0
1070
    74
1070
     0
1000
MTEXTEND
  0
MTEXT
  5
5633
330
1A
100
AcDbEntity
  8
SUNPOU
100
AcDbMText
 10
74959.29869162252
 20
56273.737591996
 30
0.0
 40
10.5
 41
0.0
 71
     9
 72
     5
  1

1001
ACAD
1000
MTEXTBEGIN
1070
    73
1070
     1
1070
    44
1040
1.0
1070
    74
1070
     0
1000
MTEXTEND
  0
MTEXT
  5
5634
330
1A
100
AcDbEntity
  8
SUNPOU
100
AcDbMText
 10
93913.0574089525
 20
73740.31364448805
 30
0.0
 40
10.5
 41
0.0
 71
     9
 72
     5
  1

1001
ACAD
1000
MTEXTBEGIN
1070
    73
1070
     1
1070
    44
1040
1.0
1070
    74
1070
     0
1000
MTEXTEND
  0
MTEXT
  5
5635
330
1A
100
AcDbEntity
  8
SUNPOU
100
AcDbMText
 10
95856.46465566192
 20
71939.26456461004
 30
0.0
 40
3.5
 41
0.0
 71
     9
 72
     5
  1

1001
ACAD
1000
MTEXTBEGIN
1070
    73
1070
     1
1070
    44
1040
1.0
1070
    74
1070
     0
1000
MTEXTEND
  0
MTEXT
  5
5636
330
1A
100
AcDbEntity
  8
SUNPOU
100
AcDbMText
 10
126982.6444882816
 20
114434.2102322673
 30
0.0
 40
10.5
 41
0.0
 71
     9
 72
     5
  1

1001
ACAD
1000
MTEXTBEGIN
1070
    73
1070
     1
1070
    44
1040
1.0
1070
    74
1070
     0
1000
MTEXTEND
  0
MTEXT
  5
5637
330
1A
100
AcDbEntity
  8
SUNPOU
100
AcDbMText
 10
128926.051734991
 20
112633.1611523893
 30
0.0
 40
3.5
 41
0.0
 71
     9
 72
     5
  1

1001
ACAD
1000
MTEXTBEGIN
1070
    73
1070
     1
1070
    44
1040
1.0
1070
    74
1070
     0
1000
MTEXTEND
  0
MTEXT
  5
5638
330
1A
100
AcDbEntity
  8
SUNPOU
100
AcDbMText
 10
77422.91219407717
 20
60267.37538724244
 30
0.0
 40
10.5
 41
0.0
 71
     9
 72
     5
  1

1001
ACAD
1000
MTEXTBEGIN
1070
    73
1070
     1
1070
    44
1040
1.0
1070
    74
1070
     0
1000
MTEXTEND
  0
MTEXT
  5
5639
330
1A
100
AcDbEntity
  8
SUNPOU
100
AcDbMText
 10
63474.91209370119
 20
41094.97624813023
 30
0.0
 40
3.5
 41
0.0
 71
     7
 72
     5
  1

1001
ACAD
1000
MTEXTBEGIN
1070
    73
1070
     1
1070
    44
1040
1.0
1070
    74
1070
     0
1000
MTEXTEND
  0
MTEXT
  5
563A
330
1A
100
AcDbEntity
  8
SUNPOU
100
AcDbMText
 10
48117.65086229006
 20
40806.11043916631
 30
0.0
 40
10.5
 41
0.0
 71
     9
 72
     5
  1

1001
ACAD
1000
MTEXTBEGIN
1070
    73
1070
     1
1070
    44
1040
1.0
1070
    74
1070
     0
1000
MTEXTEND
  0
MTEXT
  5
563B
330
1A
100
AcDbEntity
  8
SUNPOU
100
AcDbMText
 10
67071.40957962004
 20
58272.68649165837
 30
0.0
 40
10.5
 41
0.0
 71
     9
 72
     5
  1

1001
ACAD
1000
MTEXTBEGIN
1070
    73
1070
     1
1070
    44
1040
1.0
1070
    74
1070
     0
1000
MTEXTEND
  0
MTEXT
  5
563C
330
1A
100
AcDbEntity
  8
SUNPOU
100
AcDbMText
 10
69014.81682632945
 20
56471.63741178035
 30
0.0
 40
3.5
 41
0.0
 71
     9
 72
     5
  1

1001
ACAD
1000
MTEXTBEGIN
1070
    73
1070
     1
1070
    44
1040
1.0
1070
    74
1070
     0
1000
MTEXTEND
  0
MTEXT
  5
563D
330
1A
100
AcDbEntity
  8
SUNPOU
100
AcDbMText
 10
100140.9966589491
 20
98966.58307943772
 30
0.0
 40
10.5
 41
0.0
 71
     9
 72
     5
  1

1001
ACAD
1000
MTEXTBEGIN
1070
    73
1070
     1
1070
    44
1040
1.0
1070
    74
1070
     0
1000
MTEXTEND
  0
MTEXT
  5
563E
330
1A
100
AcDbEntity
  8
SUNPOU
100
AcDbMText
 10
102084.4039056586
 20
97165.53399955969
 30
0.0
 40
3.5
 41
0.0
 71
     9
 72
     5
  1

1001
ACAD
1000
MTEXTBEGIN
1070
    73
1070
     1
1070
    44
1040
1.0
1070
    74
1070
     0
1000
MTEXTEND
  0
MTEXT
  5
563F
330
1A
100
AcDbEntity
  8
SUNPOU
100
AcDbMText
 10
50581.26436474472
 20
44799.74823441275
 30
0.0
 40
10.5
 41
0.0
 71
     9
 72
     5
  1

1001
ACAD
1000
MTEXTBEGIN
1070
    73
1070
     1
1070
    44
1040
1.0
1070
    74
1070
     0
1000
MTEXTEND
  0
MTEXT
  5
5640
330
1A
100
AcDbEntity
  8
SUNPOU
100
AcDbMText
 10
36633.26426436873
 20
25627.34909530054
 30
0.0
 40
3.5
 41
0.0
 71
     7
 72
     5
  1

1001
ACAD
1000
MTEXTBEGIN
1070
    73
1070
     1
1070
    44
1040
1.0
1070
    74
1070
     0
1000
MTEXTEND
  0
MTEXT
  5
5641
330
1A
100
AcDbEntity
  8
SUNPOU
100
AcDbMText
 10
61069.42493315968
 20
52574.61207825771
 30
0.0
 40
10.5
 41
0.0
 71
     9
 72
     5
  1

1001
ACAD
1000
MTEXTBEGIN
1070
    73
1070
     1
1070
    44
1040
1.0
1070
    74
1070
     0
1000
MTEXTEND
  0
MTEXT
  5
5642
330
1A
100
AcDbEntity
  8
SUNPOU
100
AcDbMText
 10
80023.18365048967
 20
70041.18813074978
 30
0.0
 40
10.5
 41
0.0
 71
     9
 72
     5
  1

1001
ACAD
1000
MTEXTBEGIN
1070
    73
1070
     1
1070
    44
1040
1.0
1070
    74
1070
     0
1000
MTEXTEND
  0
MTEXT
  5
5643
330
1A
100
AcDbEntity
  8
SUNPOU
100
AcDbMText
 10
81966.59089719908
 20
68240.13905087176
 30
0.0
 40
3.5
 41
0.0
 71
     9
 72
     5
  1

1001
ACAD
1000
MTEXTBEGIN
1070
    73
1070
     1
1070
    44
1040
1.0
1070
    74
1070
     0
1000
MTEXTEND
  0
MTEXT
  5
5644
330
1A
100
AcDbEntity
  8
SUNPOU
100
AcDbMText
 10
113092.7707298187
 20
110735.0847185291
 30
0.0
 40
10.5
 41
0.0
 71
     9
 72
     5
  1

1001
ACAD
1000
MTEXTBEGIN
1070
    73
1070
     1
1070
    44
1040
1.0
1070
    74
1070
     0
1000
MTEXTEND
  0
MTEXT
  5
5645
330
1A
100
AcDbEntity
  8
SUNPOU
100
AcDbMText
 10
115036.1779765282
 20
108934.0356386511
 30
0.0
 40
3.5
 41
0.0
 71
     9
 72
     5
  1

1001
ACAD
1000
MTEXTBEGIN
1070
    73
1070
     1
1070
    44
1040
1.0
1070
    74
1070
     0
1000
MTEXTEND
  0
MTEXT
  5
5646
330
1A
100
AcDbEntity
  8
SUNPOU
100
AcDbMText
 10
63533.03843561433
 20
56568.24987350415
 30
0.0
 40
10.5
 41
0.0
 71
     9
 72
     5
  1

1001
ACAD
1000
MTEXTBEGIN
1070
    73
1070
     1
1070
    44
1040
1.0
1070
    74
1070
     0
1000
MTEXTEND
  0
MTEXT
  5
5647
330
1A
100
AcDbEntity
  8
SUNPOU
100
AcDbMText
 10
49585.03833523835
 20
37395.85073439196
 30
0.0
 40
3.5
 41
0.0
 71
     7
 72
     5
  1

1001
ACAD
1000
MTEXTBEGIN
1070
    73
1070
     1
1070
    44
1040
1.0
1070
    74
1070
     0
1000
MTEXTEND
  0
MTEXT
  5
5648
330
1A
100
AcDbEntity
  8
SUNPOU
100
AcDbMText
 10
77137.31641337052
 20
70907.11375048141
 30
0.0
 40
10.5
 41
0.0
 71
     9
 72
     5
  1

1001
ACAD
1000
MTEXTBEGIN
1070
    73
1070
     1
1070
    44
1040
1.0
1070
    74
1070
     0
1000
MTEXTEND
  0
MTEXT
  5
5649
330
1A
100
AcDbEntity
  8
SUNPOU
100
AcDbMText
 10
79080.72366007995
 20
69106.06467060339
 30
0.0
 40
3.5
 41
0.0
 71
     9
 72
     5
  1

1001
ACAD
1000
MTEXTBEGIN
1070
    73
1070
     1
1070
    44
1040
1.0
1070
    74
1070
     0
1000
MTEXTEND
  0
MTEXT
  5
564A
330
1A
100
AcDbEntity
  8
SUNPOU
100
AcDbMText
 10
110206.9034926996
 20
111601.0103382607
 30
0.0
 40
10.5
 41
0.0
 71
     9
 72
     5
  1

1001
ACAD
1000
MTEXTBEGIN
1070
    73
1070
     1
1070
    44
1040
1.0
1070
    74
1070
     0
1000
MTEXTEND
  0
MTEXT
  5
564B
330
1A
100
AcDbEntity
  8
SUNPOU
100
AcDbMText
 10
112150.310739409
 20
109799.9612583827
 30
0.0
 40
3.5
 41
0.0
 71
     9
 72
     5
  1

1001
ACAD
1000
MTEXTBEGIN
1070
    73
1070
     1
1070
    44
1040
1.0
1070
    74
1070
     0
1000
MTEXTEND
  0
MTEXT
  5
564C
330
1A
100
AcDbEntity
  8
SUNPOU
100
AcDbMText
 10
108819.1333204968
 20
110677.9087286761
 30
0.0
 40
10.5
 41
0.0
 71
     9
 72
     5
  1

1001
ACAD
1000
MTEXTBEGIN
1070
    73
1070
     1
1070
    44
1040
1.0
1070
    74
1070
     0
1000
MTEXTEND
  0
MTEXT
  5
564D
330
1A
100
AcDbEntity
  8
SUNPOU
100
AcDbMText
 10
110762.5405672062
 20
108876.8596487981
 30
0.0
 40
3.5
 41
0.0
 71
     9
 72
     5
  1

1001
ACAD
1000
MTEXTBEGIN
1070
    73
1070
     1
1070
    44
1040
1.0
1070
    74
1070
     0
1000
MTEXTEND
  0
MTEXT
  5
564E
330
1A
100
AcDbEntity
  8
SUNPOU
100
AcDbMText
 10
76303.05507956816
 20
68695.31179059812
 30
0.0
 40
10.5
 41
0.0
 71
     9
 72
     5
  1

1001
ACAD
1000
MTEXTBEGIN
1070
    73
1070
     1
1070
    44
1040
1.0
1070
    74
1070
     0
1000
MTEXTEND
  0
MTEXT
  5
564F
330
1A
100
AcDbEntity
  8
SUNPOU
100
AcDbMText
 10
79026.36128373271
 20
69099.99348217918
 30
0.0
 40
3.5
 41
0.0
 71
     9
 72
     5
  1

1001
ACAD
1000
MTEXTBEGIN
1070
    73
1070
     1
1070
    44
1040
1.0
1070
    74
1070
     0
1000
MTEXTEND
  0
MTEXT
  5
5650
330
1A
100
AcDbEntity
  8
SUNPOU
100
AcDbMText
 10
78234.00675862522
 20
65938.68764412436
 30
0.0
 40
10.5
 41
0.0
 71
     9
 72
     5
  1

1001
ACAD
1000
MTEXTBEGIN
1070
    73
1070
     1
1070
    44
1040
1.0
1070
    74
1070
     0
1000
MTEXTEND
  0
MTEXT
  5
5651
330
1A
100
AcDbEntity
  8
SUNPOU
100
AcDbMText
 10
80177.41400533465
 20
64137.63856424636
 30
0.0
 40
3.5
 41
0.0
 71
     9
 72
     5
  1

1001
ACAD
1000
MTEXTBEGIN
1070
    73
1070
     1
1070
    44
1040
1.0
1070
    74
1070
     0
1000
MTEXTEND
  0
MTEXT
  5
5652
330
1A
100
AcDbEntity
  8
SUNPOU
100
AcDbMText
 10
80122.50949592123
 20
64024.86668196205
 30
0.0
 40
3.5
 41
0.0
 71
     9
 72
     5
  1

1001
ACAD
1000
MTEXTBEGIN
1070
    73
1070
     1
1070
    44
1040
1.0
1070
    74
1070
     0
1000
MTEXTEND
  0
MTEXT
  5
5653
330
1A
100
AcDbEntity
  8
SUNPOU
100
AcDbMText
 10
79486.58135950133
 20
63213.54544089553
 30
0.0
 40
3.5
 41
0.0
 71
     9
 72
     5
  1

1001
ACAD
1000
MTEXTBEGIN
1070
    73
1070
     1
1070
    44
1040
1.0
1070
    74
1070
     0
1000
MTEXTEND
  0
MTEXT
  5
5654
330
1A
100
AcDbEntity
  8
SUNPOU
100
AcDbMText
 10
79485.3409400806
 20
63213.29746395804
 30
0.0
 40
10.5
 41
0.0
 71
     9
 72
     5
  1

1001
ACAD
1000
MTEXTBEGIN
1070
    73
1070
     1
1070
    44
1040
1.0
1070
    74
1070
     0
1000
MTEXTEND
  0
MTEXT
  5
5655
330
1A
100
AcDbEntity
  8
SUNPOU
100
AcDbMText
 10
85473.63363627567
 20
80747.76348077064
 30
0.0
 40
10.5
 41
0.0
 71
     9
 72
     5
  1

1001
ACAD
1000
MTEXTBEGIN
1070
    73
1070
     1
1070
    44
1040
1.0
1070
    74
1070
     0
1000
MTEXTEND
  0
MTEXT
  5
5656
330
1A
100
AcDbEntity
  8
SUNPOU
100
AcDbMText
 10
94195.80120219368
 20
88163.59801230809
 30
0.0
 40
10.5
 41
0.0
 71
     9
 72
     5
  1

1001
ACAD
1000
MTEXTBEGIN
1070
    73
1070
     1
1070
    44
1040
1.0
1070
    74
1070
     0
1000
MTEXTEND
  0
MTEXT
  5
5657
330
1A
100
AcDbEntity
  8
SUNPOU
100
AcDbMText
 10
113149.5599195236
 20
105630.1740648001
 30
0.0
 40
10.5
 41
0.0
 71
     9
 72
     5
  1

1001
ACAD
1000
MTEXTBEGIN
1070
    73
1070
     1
1070
    44
1040
1.0
1070
    74
1070
     0
1000
MTEXTEND
  0
MTEXT
  5
5658
330
1A
100
AcDbEntity
  8
SUNPOU
100
AcDbMText
 10
115092.967166233
 20
103829.1249849221
 30
0.0
 40
3.5
 41
0.0
 71
     9
 72
     5
  1

1001
ACAD
1000
MTEXTBEGIN
1070
    73
1070
     1
1070
    44
1040
1.0
1070
    74
1070
     0
1000
MTEXTEND
  0
MTEXT
  5
5659
330
1A
100
AcDbEntity
  8
SUNPOU
100
AcDbMText
 10
146219.1469988527
 20
146324.0706525794
 30
0.0
 40
10.5
 41
0.0
 71
     9
 72
     5
  1

1001
ACAD
1000
MTEXTBEGIN
1070
    73
1070
     1
1070
    44
1040
1.0
1070
    74
1070
     0
1000
MTEXTEND
  0
MTEXT
  5
565A
330
1A
100
AcDbEntity
  8
SUNPOU
100
AcDbMText
 10
148162.5542455621
 20
144523.0215727014
 30
0.0
 40
3.5
 41
0.0
 71
     9
 72
     5
  1

1001
ACAD
1000
MTEXTBEGIN
1070
    73
1070
     1
1070
    44
1040
1.0
1070
    74
1070
     0
1000
MTEXTEND
  0
MTEXT
  5
565B
330
1A
100
AcDbEntity
  8
SUNPOU
100
AcDbMText
 10
96659.41470464833
 20
92157.23580755453
 30
0.0
 40
10.5
 41
0.0
 71
     9
 72
     5
  1

1001
ACAD
1000
MTEXTBEGIN
1070
    73
1070
     1
1070
    44
1040
1.0
1070
    74
1070
     0
1000
MTEXTEND
  0
MTEXT
  5
565C
330
1A
100
AcDbEntity
  8
SUNPOU
100
AcDbMText
 10
82711.41460427234
 20
72984.83666844234
 30
0.0
 40
3.5
 41
0.0
 71
     7
 72
     5
  1

1001
ACAD
1000
MTEXTBEGIN
1070
    73
1070
     1
1070
    44
1040
1.0
1070
    74
1070
     0
1000
MTEXTEND
  0
MTEXT
  5
565D
330
1A
100
AcDbEntity
  8
SUNPOU
100
AcDbMText
 10
63696.58400126548
 20
60746.98539926055
 30
0.0
 40
10.5
 41
0.0
 71
     7
 72
     5
  1

1001
ACAD
1000
MTEXTBEGIN
1070
    73
1070
     1
1070
    44
1040
1.0
1070
    74
1070
     0
1000
MTEXTEND
  0
MTEXT
  5
565E
330
1A
100
AcDbEntity
  8
SUNPOU
100
AcDbMText
 10
51239.35573631738
 20
44902.05382116213
 30
0.0
 40
35.0
 41
0.0
 71
     9
 72
     5
  1

1001
ACAD
1000
MTEXTBEGIN
1070
    73
1070
     1
1070
    44
1040
1.0
1070
    74
1070
     0
1000
MTEXTEND
  0
MTEXT
  5
565F
330
1A
100
AcDbEntity
  8
SUNPOU
100
AcDbMText
 10
50147.84079389233
 20
45510.82923121084
 30
0.0
 40
350.0000004171781
 41
0.0
 71
     7
 72
     5
  1

1001
ACAD
1000
MTEXTBEGIN
1070
    73
1070
     1
1070
    44
1040
1.0
1070
    74
1070
     0
1000
MTEXTEND
  0
MTEXT
  5
5660
330
1A
100
AcDbEntity
  8
0
100
AcDbMText
 10
56191.79155183523
 20
43490.75159334705
 30
0.0
 40
8.0
 41
0.0
 71
     7
 72
     5
  1

1001
ACAD
1000
MTEXTBEGIN
1070
    73
1070
     1
1070
    44
1040
1.0
1070
    74
1070
     0
1000
MTEXTEND
  0
MTEXT
  5
5661
330
1A
100
AcDbEntity
  8
0
100
AcDbMText
 10
58477.14924173013
 20
44461.54188809812
 30
0.0
 40
8.0
 41
0.0
 71
     7
 72
     5
  1

1001
ACAD
1000
MTEXTBEGIN
1070
    73
1070
     1
1070
    44
1040
1.0
1070
    74
1070
     0
1000
MTEXTEND
  0
MTEXT
  5
5662
330
1A
100
AcDbEntity
  8
SUNPOU
100
AcDbMText
 10
61143.04626241227
 20
53973.65328047324
 30
0.0
 40
10.5
 41
0.0
 71
     1
 72
     5
  1

1001
ACAD
1000
MTEXTBEGIN
1070
    73
1070
     1
1070
    44
1040
1.0
1070
    74
1070
     0
1000
MTEXTEND
  0
MTEXT
  5
5663
330
1A
100
AcDbEntity
  8
SUNPOU
100
AcDbMText
 10
53212.12306647634
 20
53026.86014656028
 30
0.0
 40
10.5
 41
0.0
 71
     7
 72
     5
  1

1001
ACAD
1000
MTEXTBEGIN
1070
    73
1070
     1
1070
    44
1040
1.0
1070
    74
1070
     0
1000
MTEXTEND
  0
MTEXT
  5
5664
330
1A
100
AcDbEntity
  8
SUNPOU
100
AcDbMText
 10
56161.1067309891
 20
57927.53621840312
 30
0.0
 40
10.5
 41
0.0
 71
     7
 72
     5
  1

1001
ACAD
1000
MTEXTBEGIN
1070
    73
1070
     1
1070
    44
1040
1.0
1070
    74
1070
     0
1000
MTEXTEND
  0
MTEXT
  5
5665
330
1A
100
AcDbEntity
  8
SUNPOU
100
AcDbMText
 10
60670.18485893966
 20
60363.8369660232
 30
0.0
 40
10.5
 41
0.0
 71
     7
 72
     5
  1

1001
ACAD
1000
MTEXTBEGIN
1070
    73
1070
     1
1070
    44
1040
1.0
1070
    74
1070
     0
1000
MTEXTEND
  0
MTEXT
  5
5666
330
1A
100
AcDbEntity
  8
SUNPOU
100
AcDbMText
 10
44271.02274570799
 20
39361.43311641212
 30
0.0
 40
10.5
 41
0.0
 71
     7
 72
     5
  1

1001
ACAD
1000
MTEXTBEGIN
1070
    73
1070
     1
1070
    44
1040
1.0
1070
    74
1070
     0
1000
MTEXTEND
  0
MTEXT
  5
5667
330
1A
100
AcDbEntity
  8
SUNPOU
100
AcDbMText
 10
95462.54117960824
 20
85034.41368006038
 30
0.0
 40
10.5
 41
0.0
 71
     9
 72
     5
  1

1001
ACAD
1000
MTEXTBEGIN
1070
    73
1070
     1
1070
    44
1040
1.0
1070
    74
1070
     0
1000
MTEXTEND
  0
MTEXT
  5
5668
330
1A
100
AcDbEntity
  8
SUNPOU
100
AcDbMText
 10
104184.7087455262
 20
92450.24821159784
 30
0.0
 40
10.5
 41
0.0
 71
     9
 72
     5
  1

1001
ACAD
1000
MTEXTBEGIN
1070
    73
1070
     1
1070
    44
1040
1.0
1070
    74
1070
     0
1000
MTEXTEND
  0
MTEXT
  5
5669
330
1A
100
AcDbEntity
  8
SUNPOU
100
AcDbMText
 10
123138.4674628562
 20
109916.8242640898
 30
0.0
 40
10.5
 41
0.0
 71
     9
 72
     5
  1

1001
ACAD
1000
MTEXTBEGIN
1070
    73
1070
     1
1070
    44
1040
1.0
1070
    74
1070
     0
1000
MTEXTEND
  0
MTEXT
  5
566A
330
1A
100
AcDbEntity
  8
SUNPOU
100
AcDbMText
 10
125081.8747095656
 20
108115.7751842118
 30
0.0
 40
3.5
 41
0.0
 71
     9
 72
     5
  1

1001
ACAD
1000
MTEXTBEGIN
1070
    73
1070
     1
1070
    44
1040
1.0
1070
    74
1070
     0
1000
MTEXTEND
  0
MTEXT
  5
566B
330
1A
100
AcDbEntity
  8
SUNPOU
100
AcDbMText
 10
156208.0545421853
 20
150610.7208518691
 30
0.0
 40
10.5
 41
0.0
 71
     9
 72
     5
  1

1001
ACAD
1000
MTEXTBEGIN
1070
    73
1070
     1
1070
    44
1040
1.0
1070
    74
1070
     0
1000
MTEXTEND
  0
MTEXT
  5
566C
330
1A
100
AcDbEntity
  8
SUNPOU
100
AcDbMText
 10
158151.4617888947
 20
148809.6717719911
 30
0.0
 40
3.5
 41
0.0
 71
     9
 72
     5
  1

1001
ACAD
1000
MTEXTBEGIN
1070
    73
1070
     1
1070
    44
1040
1.0
1070
    74
1070
     0
1000
MTEXTEND
  0
MTEXT
  5
566D
330
1A
100
AcDbEntity
  8
SUNPOU
100
AcDbMText
 10
106648.3222479809
 20
96443.88600684427
 30
0.0
 40
10.5
 41
0.0
 71
     9
 72
     5
  1

1001
ACAD
1000
MTEXTBEGIN
1070
    73
1070
     1
1070
    44
1040
1.0
1070
    74
1070
     0
1000
MTEXTEND
  0
MTEXT
  5
566E
330
1A
100
AcDbEntity
  8
SUNPOU
100
AcDbMText
 10
92700.3221476049
 20
77271.48686773207
 30
0.0
 40
3.5
 41
0.0
 71
     7
 72
     5
  1

1001
ACAD
1000
MTEXTBEGIN
1070
    73
1070
     1
1070
    44
1040
1.0
1070
    74
1070
     0
1000
MTEXTEND
  0
MTEXT
  5
566F
330
1A
100
AcDbEntity
  8
SUNPOU
100
AcDbMText
 10
73685.49154459806
 20
65033.63559855027
 30
0.0
 40
10.5
 41
0.0
 71
     7
 72
     5
  1

1001
ACAD
1000
MTEXTBEGIN
1070
    73
1070
     1
1070
    44
1040
1.0
1070
    74
1070
     0
1000
MTEXTEND
  0
MTEXT
  5
5670
330
1A
100
AcDbEntity
  8
SUNPOU
100
AcDbMText
 10
61228.26327964995
 20
49188.70402045185
 30
0.0
 40
35.0
 41
0.0
 71
     9
 72
     5
  1

1001
ACAD
1000
MTEXTBEGIN
1070
    73
1070
     1
1070
    44
1040
1.0
1070
    74
1070
     0
1000
MTEXTEND
  0
MTEXT
  5
5671
330
1A
100
AcDbEntity
  8
SUNPOU
100
AcDbMText
 10
60136.74833722491
 20
49797.47943050056
 30
0.0
 40
350.0000004171781
 41
0.0
 71
     7
 72
     5
  1

1001
ACAD
1000
MTEXTBEGIN
1070
    73
1070
     1
1070
    44
1040
1.0
1070
    74
1070
     0
1000
MTEXTEND
  0
MTEXT
  5
5672
330
1A
100
AcDbEntity
  8
0
100
AcDbMText
 10
66180.69909516782
 20
47777.40179263678
 30
0.0
 40
8.0
 41
0.0
 71
     7
 72
     5
  1

1001
ACAD
1000
MTEXTBEGIN
1070
    73
1070
     1
1070
    44
1040
1.0
1070
    74
1070
     0
1000
MTEXTEND
  0
MTEXT
  5
5673
330
1A
100
AcDbEntity
  8
0
100
AcDbMText
 10
68466.05678506271
 20
48748.19208738784
 30
0.0
 40
8.0
 41
0.0
 71
     7
 72
     5
  1

1001
ACAD
1000
MTEXTBEGIN
1070
    73
1070
     1
1070
    44
1040
1.0
1070
    74
1070
     0
1000
MTEXTEND
  0
MTEXT
  5
5674
330
1A
100
AcDbEntity
  8
SUNPOU
100
AcDbMText
 10
71131.95380574485
 20
58260.30347976296
 30
0.0
 40
10.5
 41
0.0
 71
     1
 72
     5
  1

1001
ACAD
1000
MTEXTBEGIN
1070
    73
1070
     1
1070
    44
1040
1.0
1070
    74
1070
     0
1000
MTEXTEND
  0
MTEXT
  5
5675
330
1A
100
AcDbEntity
  8
SUNPOU
100
AcDbMText
 10
63201.03060980891
 20
57313.51034585002
 30
0.0
 40
10.5
 41
0.0
 71
     7
 72
     5
  1

1001
ACAD
1000
MTEXTBEGIN
1070
    73
1070
     1
1070
    44
1040
1.0
1070
    74
1070
     0
1000
MTEXTEND
  0
MTEXT
  5
5676
330
1A
100
AcDbEntity
  8
SUNPOU
100
AcDbMText
 10
66150.01427432169
 20
62214.18641769286
 30
0.0
 40
10.5
 41
0.0
 71
     7
 72
     5
  1

1001
ACAD
1000
MTEXTBEGIN
1070
    73
1070
     1
1070
    44
1040
1.0
1070
    74
1070
     0
1000
MTEXTEND
  0
MTEXT
  5
5677
330
1A
100
AcDbEntity
  8
SUNPOU
100
AcDbMText
 10
70659.09240227225
 20
64650.48716531294
 30
0.0
 40
10.5
 41
0.0
 71
     7
 72
     5
  1

1001
ACAD
1000
MTEXTBEGIN
1070
    73
1070
     1
1070
    44
1040
1.0
1070
    74
1070
     0
1000
MTEXTEND
  0
MTEXT
  5
5678
330
1A
100
AcDbEntity
  8
SUNPOU
100
AcDbMText
 10
54259.93028904056
 20
43648.08331570185
 30
0.0
 40
10.5
 41
0.0
 71
     7
 72
     5
  1

1001
ACAD
1000
MTEXTBEGIN
1070
    73
1070
     1
1070
    44
1040
1.0
1070
    74
1070
     0
1000
MTEXTEND
  0
MTEXT
  5
5679
330
1A
100
AcDbEntity
  8
SUNPOU
100
AcDbMText
 10
56070.69320041551
 20
49975.4973031804
 30
0.0
 40
10.5
 41
0.0
 71
     9
 72
     5
  1

1001
ACAD
1000
MTEXTBEGIN
1070
    73
1070
     1
1070
    44
1040
1.0
1070
    74
1070
     0
1000
MTEXTEND
  0
MTEXT
  5
567A
330
1A
100
AcDbEntity
  8
SUNPOU
100
AcDbMText
 10
64792.86076633348
 20
57391.33183471788
 30
0.0
 40
10.5
 41
0.0
 71
     9
 72
     5
  1

1001
ACAD
1000
MTEXTBEGIN
1070
    73
1070
     1
1070
    44
1040
1.0
1070
    74
1070
     0
1000
MTEXTEND
  0
MTEXT
  5
567B
330
1A
100
AcDbEntity
  8
SUNPOU
100
AcDbMText
 10
83746.61948366345
 20
74857.90788720994
 30
0.0
 40
10.5
 41
0.0
 71
     9
 72
     5
  1

1001
ACAD
1000
MTEXTBEGIN
1070
    73
1070
     1
1070
    44
1040
1.0
1070
    74
1070
     0
1000
MTEXTEND
  0
MTEXT
  5
567C
330
1A
100
AcDbEntity
  8
SUNPOU
100
AcDbMText
 10
85690.02673037287
 20
73056.85880733192
 30
0.0
 40
3.5
 41
0.0
 71
     9
 72
     5
  1

1001
ACAD
1000
MTEXTBEGIN
1070
    73
1070
     1
1070
    44
1040
1.0
1070
    74
1070
     0
1000
MTEXTEND
  0
MTEXT
  5
567D
330
1A
100
AcDbEntity
  8
SUNPOU
100
AcDbMText
 10
116816.2065629925
 20
115551.8044749892
 30
0.0
 40
10.5
 41
0.0
 71
     9
 72
     5
  1

1001
ACAD
1000
MTEXTBEGIN
1070
    73
1070
     1
1070
    44
1040
1.0
1070
    74
1070
     0
1000
MTEXTEND
  0
MTEXT
  5
567E
330
1A
100
AcDbEntity
  8
SUNPOU
100
AcDbMText
 10
118759.613809702
 20
113750.7553951112
 30
0.0
 40
3.5
 41
0.0
 71
     9
 72
     5
  1

1001
ACAD
1000
MTEXTBEGIN
1070
    73
1070
     1
1070
    44
1040
1.0
1070
    74
1070
     0
1000
MTEXTEND
  0
MTEXT
  5
567F
330
1A
100
AcDbEntity
  8
SUNPOU
100
AcDbMText
 10
67256.47426878814
 20
61384.96962996432
 30
0.0
 40
10.5
 41
0.0
 71
     9
 72
     5
  1

1001
ACAD
1000
MTEXTBEGIN
1070
    73
1070
     1
1070
    44
1040
1.0
1070
    74
1070
     0
1000
MTEXTEND
  0
MTEXT
  5
5680
330
1A
100
AcDbEntity
  8
SUNPOU
100
AcDbMText
 10
53308.47416841216
 20
42212.57049085211
 30
0.0
 40
3.5
 41
0.0
 71
     7
 72
     5
  1

1001
ACAD
1000
MTEXTBEGIN
1070
    73
1070
     1
1070
    44
1040
1.0
1070
    74
1070
     0
1000
MTEXTEND
  0
MTEXT
  5
5681
330
1A
100
AcDbEntity
  8
SUNPOU
100
AcDbMText
 10
67000.82485118274
 20
51571.63371187345
 30
0.0
 40
10.5
 41
0.0
 71
     9
 72
     5
  1

1001
ACAD
1000
MTEXTBEGIN
1070
    73
1070
     1
1070
    44
1040
1.0
1070
    74
1070
     0
1000
MTEXTEND
  0
MTEXT
  5
5682
330
1A
100
AcDbEntity
  8
SUNPOU
100
AcDbMText
 10
75722.99241710071
 20
58987.46824341094
 30
0.0
 40
10.5
 41
0.0
 71
     9
 72
     5
  1

1001
ACAD
1000
MTEXTBEGIN
1070
    73
1070
     1
1070
    44
1040
1.0
1070
    74
1070
     0
1000
MTEXTEND
  0
MTEXT
  5
5683
330
1A
100
AcDbEntity
  8
SUNPOU
100
AcDbMText
 10
94676.75113443068
 20
76454.04429590299
 30
0.0
 40
10.5
 41
0.0
 71
     9
 72
     5
  1

1001
ACAD
1000
MTEXTBEGIN
1070
    73
1070
     1
1070
    44
1040
1.0
1070
    74
1070
     0
1000
MTEXTEND
  0
MTEXT
  5
5684
330
1A
100
AcDbEntity
  8
SUNPOU
100
AcDbMText
 10
96620.1583811401
 20
74652.99521602498
 30
0.0
 40
3.5
 41
0.0
 71
     9
 72
     5
  1

1001
ACAD
1000
MTEXTBEGIN
1070
    73
1070
     1
1070
    44
1040
1.0
1070
    74
1070
     0
1000
MTEXTEND
  0
MTEXT
  5
5685
330
1A
100
AcDbEntity
  8
SUNPOU
100
AcDbMText
 10
127746.3382137598
 20
117147.9408836823
 30
0.0
 40
10.5
 41
0.0
 71
     9
 72
     5
  1

1001
ACAD
1000
MTEXTBEGIN
1070
    73
1070
     1
1070
    44
1040
1.0
1070
    74
1070
     0
1000
MTEXTEND
  0
MTEXT
  5
5686
330
1A
100
AcDbEntity
  8
SUNPOU
100
AcDbMText
 10
129689.7454604692
 20
115346.8918038043
 30
0.0
 40
3.5
 41
0.0
 71
     9
 72
     5
  1

1001
ACAD
1000
MTEXTBEGIN
1070
    73
1070
     1
1070
    44
1040
1.0
1070
    74
1070
     0
1000
MTEXTEND
  0
MTEXT
  5
5687
330
1A
100
AcDbEntity
  8
SUNPOU
100
AcDbMText
 10
78186.60591955537
 20
62981.10603865738
 30
0.0
 40
10.5
 41
0.0
 71
     9
 72
     5
  1

1001
ACAD
1000
MTEXTBEGIN
1070
    73
1070
     1
1070
    44
1040
1.0
1070
    74
1070
     0
1000
MTEXTEND
  0
MTEXT
  5
5688
330
1A
100
AcDbEntity
  8
SUNPOU
100
AcDbMText
 10
64238.60581917939
 20
43808.70689954517
 30
0.0
 40
3.5
 41
0.0
 71
     7
 72
     5
  1

1001
ACAD
1000
MTEXTBEGIN
1070
    73
1070
     1
1070
    44
1040
1.0
1070
    74
1070
     0
1000
MTEXTEND
  0
MTEXT
  5
5689
330
1A
100
AcDbEntity
  8
SUNPOU
100
AcDbMText
 10
33428.13481137435
 20
32770.04710035564
 30
0.0
 40
10.5
 41
0.0
 71
     9
 72
     5
  1

1001
ACAD
1000
MTEXTBEGIN
1070
    73
1070
     1
1070
    44
1040
1.0
1070
    74
1070
     0
1000
MTEXTEND
  0
MTEXT
  5
568A
330
1A
100
AcDbEntity
  8
SUNPOU
100
AcDbMText
 10
52381.89352870432
 20
50236.62315284769
 30
0.0
 40
10.5
 41
0.0
 71
     9
 72
     5
  1

1001
ACAD
1000
MTEXTBEGIN
1070
    73
1070
     1
1070
    44
1040
1.0
1070
    74
1070
     0
1000
MTEXTEND
  0
MTEXT
  5
568B
330
1A
100
AcDbEntity
  8
SUNPOU
100
AcDbMText
 10
54325.30077541374
 20
48435.57407296968
 30
0.0
 40
3.5
 41
0.0
 71
     9
 72
     5
  1

1001
ACAD
1000
MTEXTBEGIN
1070
    73
1070
     1
1070
    44
1040
1.0
1070
    74
1070
     0
1000
MTEXTEND
  0
MTEXT
  5
568C
330
1A
100
AcDbEntity
  8
SUNPOU
100
AcDbMText
 10
85451.48060803343
 20
90930.51974062703
 30
0.0
 40
10.5
 41
0.0
 71
     9
 72
     5
  1

1001
ACAD
1000
MTEXTBEGIN
1070
    73
1070
     1
1070
    44
1040
1.0
1070
    74
1070
     0
1000
MTEXTEND
  0
MTEXT
  5
568D
330
1A
100
AcDbEntity
  8
SUNPOU
100
AcDbMText
 10
87394.88785474286
 20
89129.47066074901
 30
0.0
 40
3.5
 41
0.0
 71
     9
 72
     5
  1

1001
ACAD
1000
MTEXTBEGIN
1070
    73
1070
     1
1070
    44
1040
1.0
1070
    74
1070
     0
1000
MTEXTEND
  0
MTEXT
  5
568E
330
1A
100
AcDbEntity
  8
SUNPOU
100
AcDbMText
 10
35891.74831382901
 20
36763.68489560208
 30
0.0
 40
10.5
 41
0.0
 71
     9
 72
     5
  1

1001
ACAD
1000
MTEXTBEGIN
1070
    73
1070
     1
1070
    44
1040
1.0
1070
    74
1070
     0
1000
MTEXTEND
  0
MTEXT
  5
568F
330
1A
100
AcDbEntity
  8
SUNPOU
100
AcDbMText
 10
21943.74821345303
 20
17591.28575648986
 30
0.0
 40
3.5
 41
0.0
 71
     7
 72
     5
  1

1001
ACAD
1000
MTEXTBEGIN
1070
    73
1070
     1
1070
    44
1040
1.0
1070
    74
1070
     0
1000
MTEXTEND
  0
LINE
  5
1A2B4
330
1A
100
AcDbEntity
  8
ZISSEN1
100
AcDbLine
 10
-366.4577778068271
 20
1532.613774158539
 30
0.0
 11
-375.557777806827
 21
1532.613774158539
 31
0.0
  0
MTEXT
  5
1A2B5
330
1A
100
AcDbEntity
  8
ZISSEN1
100
AcDbMText
 10
-383.9255955237987
 20
1685.026347592769
 30
0.0
 40
5.0
 41
108.3598999999999
 71
     1
 72
     5
  1
DB-2641UA  No.SS0001f97
1001
ACAD
1000
MTEXTBEGIN
1070
    73
1070
     1
1070
    44
1040
1.0
1070
    74
1070
     0
1000
MTEXTEND
1000
MTEXTBEGIN
1070
    73
1070
     1
1070
    44
1040
1.0
1070
    74
1070
     0
1000
MTEXTEND
1000
MTEXTBEGIN
1070
    73
1070
     1
1070
    44
1040
1.0
1070
    74
1070
     0
1000
MTEXTEND
  0
DIMENSION
  5
1A2B6
330
1A
100
AcDbEntity
  8
SUNPOU
100
AcDbDimension
  2
*D0
 10
-311.5801476549842
 20
1495.543476893424
 30
0.0
 11
-346.5801476549837
 21
1498.293476893424
 31
0.0
 70
    32
  3
標準スタイル
100
AcDbAlignedDimension
 13
-381.5801476549832
 23
1510.913774158538
 33
0.0
 14
-311.5801476549842
 24
1507.913774158538
 34
0.0
100
AcDbRotatedDimension
1001
ACAD
1000
DSTYLE
1002
{
1070
   340
1005
10
1070
    40
1040
1.0
1002
}
  0
LINE
  5
1A2B7
330
1A
100
AcDbEntity
  8
ZISSEN1
100
AcDbLine
 10
-375.5801476549833
 20
1627.413774158538
 30
0.0
 11
-353.1801476549836
 21
1627.413774158538
 31
0.0
  0
LINE
  5
1A2B8
330
1A
100
AcDbEntity
  8
ZISSEN1
100
AcDbLine
 10
-375.5801476549833
 20
1619.813774158537
 30
0.0
 11
-353.1801476549834
 21
1619.819544069966
 31
0.0
  0
LINE
  5
1A2B9
330
1A
100
AcDbEntity
  8
ZISSEN1
100
AcDbLine
 10
-374.7301476549834
 20
1626.713774158537
 30
0.0
 11
-354.0301476549842
 21
1626.713774158537
 31
0.0
  0
LINE
  5
1A2BA
330
1A
100
AcDbEntity
  8
ZISSEN1
100
AcDbLine
 10
-375.5801476549833
 20
1627.413774158537
 30
0.0
 11
-353.1801476549834
 21
1627.413774158537
 31
0.0
  0
LINE
  5
1A2BB
330
1A
100
AcDbEntity
  8
ZISSEN1
100
AcDbLine
 10
-355.0301476549833
 20
1622.113774158537
 30
0.0
 11
-373.7301476549834
 21
1622.113774158537
 31
0.0
  0
LINE
  5
1A2BC
330
1A
100
AcDbEntity
  8
ZISSEN1
100
AcDbLine
 10
-373.1301476549841
 20
1621.513774158537
 30
0.0
 11
-355.6301476549841
 21
1621.513774158536
 31
0.0
  0
LINE
  5
1A2BD
330
1A
100
AcDbEntity
  8
ZISSEN1
100
AcDbLine
 10
-366.9301476549834
 20
1620.613774158537
 30
0.0
 11
-361.8301476549833
 21
1620.613774158537
 31
0.0
  0
LINE
  5
1A2BE
330
1A
100
AcDbEntity
  8
ZISSEN1
 48
0.5
100
AcDbLine
 10
-378.5815013777661
 20
1516.113774158539
 30
0.0
 11
-312.0801476549833
 21
1516.113774158539
 31
0.0
  0
LINE
  5
1A2BF
330
1A
100
AcDbEntity
  8
ZISSEN1
 48
0.5
100
AcDbLine
 10
-378.5801476549855
 20
1514.513774158538
 30
0.0
 11
-312.0801476549833
 21
1514.513774158538
 31
0.0
  0
LINE
  5
1A2C0
330
1A
100
AcDbEntity
  8
ZISSEN1
 48
0.5
100
AcDbLine
 10
-377.5801476549842
 20
1563.913774158538
 30
0.0
 11
-312.5801476549842
 21
1563.913774158538
 31
0.0
  0
LINE
  5
1A2C1
330
1A
100
AcDbEntity
  8
ZISSEN1
 48
0.5
100
AcDbLine
 10
-312.5801476549842
 20
1633.913774158538
 30
0.0
 11
-377.5801476549842
 21
1633.913774158538
 31
0.0
  0
LINE
  5
1A2C2
330
1A
100
AcDbEntity
  8
ZISSEN1
100
AcDbLine
 10
-378.5801476549842
 20
1633.413774158537
 30
0.0
 11
-313.0801476549833
 21
1633.413774158537
 31
0.0
  0
LINE
  5
1A2C3
330
1A
100
AcDbEntity
  8
ZISSEN1
100
AcDbLine
 10
-313.0801476549833
 20
1564.413774158537
 30
0.0
 11
-378.5801476549842
 21
1564.413774158537
 31
0.0
  0
LINE
  5
1A2C4
330
1A
100
AcDbEntity
  8
ZISSEN1
100
AcDbLine
 10
-375.5801476549833
 20
1627.413774158537
 30
0.0
 11
-353.1801476549836
 21
1627.413774158537
 31
0.0
  0
LINE
  5
1A2C5
330
1A
100
AcDbEntity
  8
ZISSEN1
 48
0.5
100
AcDbLine
 10
-311.5801476549842
 20
1507.913774158538
 30
0.0
 11
-378.580147654986
 21
1507.913774158538
 31
0.0
  0
LINE
  5
1A2C6
330
1A
100
AcDbEntity
  8
ZISSEN1
 48
0.5
100
AcDbLine
 10
-381.5801476549832
 20
1510.913774158538
 30
0.0
 11
-311.5801476549842
 21
1510.913774158538
 31
0.0
  0
DIMENSION
  5
1A2C7
330
1A
100
AcDbEntity
  8
SUNPOU
100
AcDbDimension
  2
*D1
 10
-390.9594601293335
 20
1558.913774158539
 30
0.0
 11
-393.7094601293336
 21
1598.913774158539
 31
0.0
 70
    32
  3
標準スタイル
100
AcDbAlignedDimension
 13
-381.5801476549842
 23
1638.913774158539
 33
0.0
 14
-381.5801476549842
 24
1558.913774158539
 34
0.0
 50
90.0
100
AcDbRotatedDimension
1001
ACAD
1000
DSTYLE
1002
{
1070
   340
1005
10
1070
    40
1040
1.0
1002
}
  0
LINE
  5
1A2C8
330
1A
100
AcDbEntity
  8
ZISSEN1
 48
0.5
100
AcDbLine
 10
-381.5801476549842
 20
1638.913774158539
 30
0.0
 11
-381.5801476549842
 21
1558.913774158539
 31
0.0
  0
LINE
  5
1A2C9
330
1A
100
AcDbEntity
  8
ZISSEN1
 48
0.5
100
AcDbLine
 10
-378.5801476549842
 20
1558.913774158539
 30
0.0
 11
-378.5801476549842
 21
1638.913774158539
 31
0.0
  0
LINE
  5
1A2CA
330
1A
100
AcDbEntity
  8
ZISSEN1
 62
     0
100
AcDbLine
 10
-378.5801476549842
 20
1633.913774158538
 30
0.0
 11
-378.5801476549833
 21
1627.413774158537
 31
0.0
  0
DIMENSION
  5
1A2CB
330
1A
100
AcDbEntity
  8
SUNPOU
100
AcDbDimension
  2
*D2
 10
-378.5801476549842
 20
1543.08746086995
 30
0.0
 11
-370.4134809883175
 21
1545.83746086995
 31
0.0
 70
    32
  3
標準スタイル
100
AcDbAlignedDimension
 13
-381.5801476549842
 23
1535.913774158538
 33
0.0
 14
-378.5801476549842
 24
1535.913774158538
 34
0.0
100
AcDbRotatedDimension
1001
ACAD
1000
DSTYLE
1002
{
1070
   340
1005
10
1070
    40
1040
1.0
1002
}
  0
LINE
  5
1A2CC
330
1A
100
AcDbEntity
  8
ZISSEN1
 48
0.5
100
AcDbLine
 10
-378.5801476549842
 20
1535.913774158538
 30
0.0
 11
-378.5801476549855
 21
1516.113774158539
 31
0.0
  0
LINE
  5
1A2CD
330
1A
100
AcDbEntity
  8
ZISSEN1
 48
0.5
100
AcDbLine
 10
-381.5801476549842
 20
1535.913774158538
 30
0.0
 11
-381.5801476549842
 21
1510.913774158538
 31
0.0
  0
LINE
  5
1A2CE
330
1A
100
AcDbEntity
  8
ZISSEN1
100
AcDbLine
 10
-375.557777806827
 20
1516.113774158539
 30
0.0
 11
-375.557777806827
 21
1532.613774158539
 31
0.0
  0
LINE
  5
1A2CF
330
1A
100
AcDbEntity
  8
ZISSEN1
100
AcDbLine
 10
-375.5801476549833
 20
1527.613774158538
 30
0.0
 11
-375.5801476549833
 21
1516.113774158539
 31
0.0
  0
LINE
  5
1A2D0
330
1A
100
AcDbEntity
  8
ZISSEN1
100
AcDbLine
 10
-378.5801476549842
 20
1514.513774158538
 30
0.0
 11
-378.5801476549824
 21
1507.913774158538
 31
0.0
  0
LINE
  5
1A2D1
330
1A
100
AcDbEntity
  8
ZISSEN1
 48
0.5
100
AcDbLine
 10
-378.5815013777661
 20
1514.513774158538
 30
0.0
 11
-378.5961213324113
 21
1516.113774158539
 31
0.0
  0
LINE
  5
1A2D2
330
1A
100
AcDbEntity
  8
CL1
 48
0.5
100
AcDbLine
 10
-377.5801476549851
 20
1523.413774158538
 30
0.0
 11
-382.5801476549851
 21
1523.413774158538
 31
0.0
  0
LINE
  5
1A2D3
330
1A
100
AcDbEntity
  8
ZISSEN1
 48
0.5
100
AcDbLine
 10
-378.5801476549842
 20
1521.663774158538
 30
0.0
 11
-381.5801476549842
 21
1521.663774158538
 31
0.0
  0
LINE
  5
1A2D4
330
1A
100
AcDbEntity
  8
ZISSEN1
 48
0.5
100
AcDbLine
 10
-378.5801476549842
 20
1525.163774158538
 30
0.0
 11
-381.5801476549842
 21
1525.163774158538
 31
0.0
  0
ARC
  5
1A2D5
330
1A
100
AcDbEntity
  8
ZISSEN1
 48
0.5
100
AcDbCircle
 10
-378.5801476549821
 20
1510.91377415854
 30
0.0
 40
3.000000000001364
100
AcDbArc
 50
180.000000000026
 51
269.9999999999478
  0
LINE
  5
1A2D6
330
1A
100
AcDbEntity
  8
ZISSEN1
 48
0.5
100
AcDbLine
 10
-377.5801476549851
 20
1510.913774158538
 30
0.0
 11
-377.5801476549851
 21
1507.913774158538
 31
0.0
  0
LINE
  5
1A2D7
330
1A
100
AcDbEntity
  8
ZISSEN1
 48
0.5
100
AcDbLine
 10
-378.5801476549851
 20
1511.913774158538
 30
0.0
 11
-381.5801476549842
 21
1511.913774158538
 31
0.0
  0
LINE
  5
1A2D8
330
1A
100
AcDbEntity
  8
ZISSEN1
100
AcDbLine
 10
-366.4577778068271
 20
1532.613774158539
 30
0.0
 11
-366.4577778068271
 21
1516.113774158539
 31
0.0
  0
LINE
  5
1A2DA
330
1A
100
AcDbEntity
  8
CL1
100
AcDbLine
 10
-382.3889013660233
 20
1561.413774158539
 30
0.0
 11
-377.508429353316
 21
1561.413774158539
 31
0.0
  0
LINE
  5
1A2DB
330
1A
100
AcDbEntity
  8
ZISSEN1
 48
0.5
100
AcDbLine
 10
-381.5801476549842
 20
1558.913774158539
 30
0.0
 11
-378.5801476549842
 21
1558.913774158539
 31
0.0
  0
LINE
  5
1A2DC
330
1A
100
AcDbEntity
  8
ZISSEN1
 48
0.5
100
AcDbLine
 10
-381.5801476549842
 20
1559.913774158539
 30
0.0
 11
-378.5801476549842
 21
1559.913774158539
 31
0.0
  0
LINE
  5
1A2DD
330
1A
100
AcDbEntity
  8
ZISSEN1
 48
0.5
100
AcDbLine
 10
-377.5801476549842
 20
1563.913774158538
 30
0.0
 11
-378.0801476549833
 21
1564.413774158537
 31
0.0
  0
LINE
  5
1A2DE
330
1A
100
AcDbEntity
  8
ZISSEN1
 48
0.5
100
AcDbLine
 10
-378.5801476549842
 20
1534.913774158538
 30
0.0
 11
-381.5801476549842
 21
1534.913774158538
 31
0.0
  0
LINE
  5
1A2DF
330
1A
100
AcDbEntity
  8
ZISSEN1
 48
0.5
100
AcDbLine
 10
-378.5801476549842
 20
1535.913774158538
 30
0.0
 11
-381.5801476549842
 21
1535.913774158538
 31
0.0
  0
LINE
  5
1A2E0
330
1A
100
AcDbEntity
  8
ZISSEN1
100
AcDbLine
 10
-378.0801476549833
 20
1568.413774158537
 30
0.0
 11
-378.0801476549833
 21
1629.413774158537
 31
0.0
  0
LINE
  5
1A2E1
330
1A
100
AcDbEntity
  8
ZISSEN1
100
AcDbLine
 10
-375.557777806827
 20
1569.163774158539
 30
0.0
 11
-366.4577778068271
 21
1569.163774158538
 31
0.0
  0
LINE
  5
1A2E2
330
1A
100
AcDbEntity
  8
ZISSEN1
100
AcDbLine
 10
-375.557777806827
 20
1578.563774158539
 30
0.0
 11
-366.4577778068271
 21
1578.563774158539
 31
0.0
  0
LINE
  5
1A2E3
330
1A
100
AcDbEntity
  8
ZISSEN1
100
AcDbLine
 10
-366.4577778068271
 20
1569.163774158539
 30
0.0
 11
-375.557777806827
 21
1569.163774158539
 31
0.0
  0
LINE
  5
1A2E4
330
1A
100
AcDbEntity
  8
ZISSEN1
100
AcDbLine
 10
-367.1577778068274
 20
1577.963774158539
 30
0.0
 11
-374.8577778068272
 21
1577.963774158539
 31
0.0
  0
LINE
  5
1A2E5
330
1A
100
AcDbEntity
  8
ZISSEN1
100
AcDbLine
 10
-375.557777806827
 20
1578.563774158539
 30
0.0
 11
-366.4577778068267
 21
1578.563774158539
 31
0.0
  0
LINE
  5
1A2E6
330
1A
100
AcDbEntity
  8
ZISSEN1
100
AcDbLine
 10
-367.1577778068274
 20
1571.563774158539
 30
0.0
 11
-374.8577778068272
 21
1571.563774158539
 31
0.0
  0
LINE
  5
1A2E7
330
1A
100
AcDbEntity
  8
ZISSEN1
100
AcDbLine
 10
-366.4577778068267
 20
1570.963774158538
 30
0.0
 11
-375.557777806827
 21
1570.963774158538
 31
0.0
  0
LINE
  5
1A2E8
330
1A
100
AcDbEntity
  8
ZISSEN1
100
AcDbLine
 10
-371.0077778068268
 20
1571.563774158539
 30
0.0
 11
-374.057777806827
 21
1571.563774158539
 31
0.0
  0
LINE
  5
1A2E9
330
1A
100
AcDbEntity
  8
ZISSEN1
100
AcDbLine
 10
-374.8577778068272
 20
1571.563774158539
 30
0.0
 11
-371.0077778068268
 21
1571.563774158539
 31
0.0
  0
LINE
  5
1A2EA
330
1A
100
AcDbEntity
  8
ZISSEN1
100
AcDbLine
 10
-371.9077778068274
 20
1571.563774158539
 30
0.0
 11
-373.1077778068272
 21
1571.563774158539
 31
0.0
  0
LINE
  5
1A2EB
330
1A
100
AcDbEntity
  8
ZISSEN1
100
AcDbLine
 10
-375.557777806827
 20
1569.163774158539
 30
0.0
 11
-375.557777806827
 21
1576.763774158538
 31
0.0
  0
LINE
  5
1A2EC
330
1A
100
AcDbEntity
  8
ZISSEN1
100
AcDbLine
 10
-375.557777806827
 20
1569.163774158539
 30
0.0
 11
-375.557777806827
 21
1576.763774158538
 31
0.0
  0
LINE
  5
1A2ED
330
1A
100
AcDbEntity
  8
ZISSEN1
100
AcDbLine
 10
-375.557777806827
 20
1569.163774158539
 30
0.0
 11
-375.557777806827
 21
1578.563774158539
 31
0.0
  0
LINE
  5
1A2EE
330
1A
100
AcDbEntity
  8
ZISSEN1
100
AcDbLine
 10
-378.0801476549833
 20
1568.413774158537
 30
0.0
 11
-378.5801476549842
 21
1568.413774158537
 31
0.0
  0
LINE
  5
1A2EF
330
1A
100
AcDbEntity
  8
ZISSEN1
100
AcDbLine
 10
-373.057777806827
 20
1571.563774158539
 30
0.0
 11
-373.057777806827
 21
1570.963774158538
 31
0.0
  0
LINE
  5
1A2F0
330
1A
100
AcDbEntity
  8
ZISSEN1
100
AcDbLine
 10
-374.057777806827
 20
1571.563774158539
 30
0.0
 11
-374.057777806827
 21
1570.963774158538
 31
0.0
  0
LINE
  5
1A2F1
330
1A
100
AcDbEntity
  8
ZISSEN1
100
AcDbLine
 10
-374.8577778068272
 20
1571.563774158539
 30
0.0
 11
-374.8577778068272
 21
1577.963774158539
 31
0.0
  0
LINE
  5
1A2F2
330
1A
100
AcDbEntity
  8
ZISSEN1
100
AcDbLine
 10
-375.557777806827
 20
1570.963774158538
 30
0.0
 11
-375.557777806827
 21
1578.563774158539
 31
0.0
  0
LINE
  5
1A2F3
330
1A
100
AcDbEntity
  8
ZISSEN1
100
AcDbLine
 10
-366.4577778068271
 20
1576.763774158538
 30
0.0
 11
-366.4577778068271
 21
1569.163774158538
 31
0.0
  0
LINE
  5
1A2F4
330
1A
100
AcDbEntity
  8
ZISSEN1
100
AcDbLine
 10
-366.4577778068271
 20
1576.763774158538
 30
0.0
 11
-366.4577778068271
 21
1569.163774158538
 31
0.0
  0
LINE
  5
1A2F5
330
1A
100
AcDbEntity
  8
ZISSEN1
100
AcDbLine
 10
-366.4577778068271
 20
1578.563774158539
 30
0.0
 11
-366.4577778068271
 21
1569.163774158539
 31
0.0
  0
LINE
  5
1A2F6
330
1A
100
AcDbEntity
  8
ZISSEN1
100
AcDbLine
 10
-371.0077778068268
 20
1570.963774158538
 30
0.0
 11
-371.0077778068268
 21
1570.363774158539
 31
0.0
  0
LINE
  5
1A2F7
330
1A
100
AcDbEntity
  8
ZISSEN1
100
AcDbLine
 10
-371.5077778068268
 20
1570.363774158539
 30
0.0
 11
-370.5077778068268
 21
1570.363774158539
 31
0.0
  0
LINE
  5
1A2F8
330
1A
100
AcDbEntity
  8
ZISSEN1
100
AcDbLine
 10
-371.5077778068268
 20
1570.963774158538
 30
0.0
 11
-371.5077778068268
 21
1570.363774158539
 31
0.0
  0
LINE
  5
1A2F9
330
1A
100
AcDbEntity
  8
ZISSEN1
100
AcDbLine
 10
-370.5077778068268
 20
1570.963774158538
 30
0.0
 11
-370.5077778068268
 21
1570.363774158539
 31
0.0
  0
LINE
  5
1A2FA
330
1A
100
AcDbEntity
  8
ZISSEN1
100
AcDbLine
 10
-371.0077778068268
 20
1571.563774158539
 30
0.0
 11
-370.5077778068268
 21
1571.563774158539
 31
0.0
  0
LINE
  5
1A2FB
330
1A
100
AcDbEntity
  8
ZISSEN1
100
AcDbLine
 10
-371.0077778068268
 20
1571.563774158539
 30
0.0
 11
-371.5077778068268
 21
1571.563774158539
 31
0.0
  0
LINE
  5
1A2FC
330
1A
100
AcDbEntity
  8
ZISSEN1
100
AcDbLine
 10
-368.9577778068267
 20
1571.563774158539
 30
0.0
 11
-368.9577778068267
 21
1570.963774158538
 31
0.0
  0
LINE
  5
1A2FD
330
1A
100
AcDbEntity
  8
ZISSEN1
100
AcDbLine
 10
-367.9577778068267
 20
1571.563774158539
 30
0.0
 11
-367.9577778068267
 21
1570.963774158538
 31
0.0
  0
LINE
  5
1A2FE
330
1A
100
AcDbEntity
  8
ZISSEN1
100
AcDbLine
 10
-371.0077778068268
 20
1571.563774158539
 30
0.0
 11
-367.9577778068267
 21
1571.563774158539
 31
0.0
  0
LINE
  5
1A2FF
330
1A
100
AcDbEntity
  8
ZISSEN1
100
AcDbLine
 10
-366.4577778068267
 20
1578.563774158539
 30
0.0
 11
-366.4577778068267
 21
1574.283774158538
 31
0.0
  0
LINE
  5
1A300
330
1A
100
AcDbEntity
  8
ZISSEN1
100
AcDbLine
 10
-366.4577778068267
 20
1570.963774158538
 30
0.0
 11
-366.4577778068267
 21
1574.763774158539
 31
0.0
  0
LINE
  5
1A301
330
1A
100
AcDbEntity
  8
ZISSEN1
100
AcDbLine
 10
-367.1577778068274
 20
1574.763774158539
 30
0.0
 11
-367.1577778068274
 21
1571.563774158539
 31
0.0
  0
LINE
  5
1A302
330
1A
100
AcDbEntity
  8
ZISSEN1
100
AcDbLine
 10
-366.4577778068267
 20
1578.563774158539
 30
0.0
 11
-366.4577778068267
 21
1574.763774158539
 31
0.0
  0
LINE
  5
1A303
330
1A
100
AcDbEntity
  8
ZISSEN1
100
AcDbLine
 10
-367.1577778068274
 20
1574.763774158539
 30
0.0
 11
-367.1577778068274
 21
1577.963774158539
 31
0.0
  0
LINE
  5
1A304
330
1A
100
AcDbEntity
  8
ZISSEN1
100
AcDbLine
 10
-368.5801476549833
 20
1620.613774158537
 30
0.0
 11
-375.5801476549833
 21
1620.613774158537
 31
0.0
  0
LINE
  5
1A305
330
1A
100
AcDbEntity
  8
ZISSEN1
100
AcDbLine
 10
-373.7301476549834
 20
1622.113774158537
 30
0.0
 11
-373.7301476549834
 21
1621.313774158537
 31
0.0
  0
LINE
  5
1A306
330
1A
100
AcDbEntity
  8
ZISSEN1
100
AcDbLine
 10
-373.7301476549834
 20
1621.313774158537
 30
0.0
 11
-374.7301476549834
 21
1621.313774158537
 31
0.0
  0
LINE
  5
1A307
330
1A
100
AcDbEntity
  8
ZISSEN1
100
AcDbLine
 10
-373.1301476549841
 20
1620.613774158537
 30
0.0
 11
-373.1301476549841
 21
1621.513774158537
 31
0.0
  0
LINE
  5
1A308
330
1A
100
AcDbEntity
  8
ZISSEN1
100
AcDbLine
 10
-374.7301476549834
 20
1621.313774158537
 30
0.0
 11
-374.7301476549834
 21
1626.713774158537
 31
0.0
  0
LINE
  5
1A309
330
1A
100
AcDbEntity
  8
ZISSEN1
100
AcDbLine
 10
-375.5801476549833
 20
1620.613774158537
 30
0.0
 11
-375.5801476549833
 21
1627.413774158537
 31
0.0
  0
LINE
  5
1A30A
330
1A
100
AcDbEntity
  8
ZISSEN1
100
AcDbLine
 10
-375.5801476549833
 20
1619.813774158537
 30
0.0
 11
-375.5801476549833
 21
1627.413774158538
 31
0.0
  0
LINE
  5
1A30B
330
1A
100
AcDbEntity
  8
ZISSEN1
100
AcDbLine
 10
-378.0801476549833
 20
1629.413774158537
 30
0.0
 11
-378.5801476549842
 21
1629.413774158537
 31
0.0
  0
LINE
  5
1A30C
330
1A
100
AcDbEntity
  8
ZISSEN1
100
AcDbLine
 10
-375.5801476549833
 20
1620.613774158537
 30
0.0
 11
-375.5801476549833
 21
1627.413774158537
 31
0.0
  0
LINE
  5
1A30D
330
1A
100
AcDbEntity
  8
ZISSEN1
100
AcDbLine
 10
-368.5801476549833
 20
1621.513774158537
 30
0.0
 11
-368.5801476549833
 21
1620.613774158537
 31
0.0
  0
LINE
  5
1A30E
330
1A
100
AcDbEntity
  8
ZISSEN1
100
AcDbLine
 10
-366.9301476549834
 20
1621.513774158537
 30
0.0
 11
-366.9301476549834
 21
1620.613774158537
 31
0.0
  0
LWPOLYLINE
  5
1A30F
330
1A
100
AcDbEntity
  8
ZISSEN1
100
AcDbPolyline
 90
        4
 70
     1
 43
0.0
 10
-368.3801476549832
 20
1620.913774158537
 10
-367.1301476549832
 20
1620.913774158537
 10
-367.1301476549832
 20
1621.513774158537
 10
-368.3801476549832
 20
1621.513774158537
  0
LINE
  5
1A311
330
1A
100
AcDbEntity
  8
CL1
100
AcDbLine
 10
-382.6688875440246
 20
1636.413774158539
 30
0.0
 11
-377.3081140389737
 21
1636.413774158539
 31
0.0
  0
LINE
  5
1A312
330
1A
100
AcDbEntity
  8
ZISSEN1
 48
0.5
100
AcDbLine
 10
-378.5801476549842
 20
1638.913774158539
 30
0.0
 11
-381.5801476549842
 21
1638.913774158539
 31
0.0
  0
LINE
  5
1A313
330
1A
100
AcDbEntity
  8
ZISSEN1
 48
0.5
100
AcDbLine
 10
-378.5801476549842
 20
1637.913774158539
 30
0.0
 11
-381.5801476549842
 21
1637.913774158539
 31
0.0
  0
LINE
  5
1A314
330
1A
100
AcDbEntity
  8
ZISSEN1
 48
0.5
100
AcDbLine
 10
-377.5801476549842
 20
1633.913774158538
 30
0.0
 11
-378.0801476549851
 21
1633.413774158537
 31
0.0
  0
DIMENSION
  5
1A315
330
1A
100
AcDbEntity
  8
SUNPOU
100
AcDbDimension
  2
*D3
 10
-286.1773801503453
 20
1638.913774158539
 30
0.0
 11
-289.5733833009577
 21
1644.224879677685
 31
0.0
 70
   160
  3
標準スタイル
100
AcDbAlignedDimension
 13
-266.8301476549832
 23
1636.413774158539
 33
0.0
 14
-276.5801476549833
 24
1638.913774158539
 34
0.0
 50
90.0
100
AcDbRotatedDimension
1001
ACAD
1000
DSTYLE
1002
{
1070
   287
1070
     5
1070
   340
1005
10
1070
    40
1040
1.0
1070
   279
1070
     2
1002
}
  0
DIMENSION
  5
1A316
330
1A
100
AcDbEntity
  8
SUNPOU
100
AcDbDimension
  2
*D4
 10
-286.1773801503453
 20
1561.413774158539
 30
0.0
 11
-288.9273801503455
 21
1598.913774158539
 31
0.0
 70
    32
  3
標準スタイル
100
AcDbAlignedDimension
 13
-265.0801476549829
 23
1636.413774158539
 33
0.0
 14
-265.0801476549829
 24
1561.413774158539
 34
0.0
 50
90.0
100
AcDbRotatedDimension
1001
ACAD
1000
DSTYLE
1002
{
1070
   340
1005
10
1070
    40
1040
1.0
1002
}
  0
LINE
  5
1A317
330
1A
100
AcDbEntity
  8
ZISSEN1
 48
0.5
100
AcDbLine
 10
-252.5801476549833
 20
1637.913774158539
 30
0.0
 11
-252.5801476549833
 21
1559.913774158539
 31
0.0
  0
LINE
  5
1A318
330
1A
100
AcDbEntity
  8
ZISSEN1
 48
0.5
100
AcDbLine
 10
-277.5801476549833
 20
1637.913774158539
 30
0.0
 11
-277.5801476549833
 21
1559.913774158539
 31
0.0
  0
LINE
  5
1A319
330
1A
100
AcDbEntity
  8
ZISSEN1
 48
0.5
100
AcDbLine
 10
-249.5801476549833
 20
1563.913774158539
 30
0.0
 11
-249.5801476549833
 21
1633.913774158539
 31
0.0
  0
LINE
  5
1A31A
330
1A
100
AcDbEntity
  8
ZISSEN1
100
AcDbLine
 10
-312.0801476549833
 20
1610.213774158537
 30
0.0
 11
-312.0801476549833
 21
1632.413774158537
 31
0.0
  0
LINE
  5
1A31B
330
1A
100
AcDbEntity
  8
ZISSEN1
 48
0.5
100
AcDbLine
 10
-311.5801476549842
 20
1564.913774158538
 30
0.0
 11
-311.5801476549842
 21
1632.913774158538
 31
0.0
  0
CIRCLE
  5
1A31C
330
1A
100
AcDbEntity
  8
ZISSEN1
  6
CONTINUOUS
 62
     0
100
AcDbCircle
 10
-322.5801476549847
 20
1630.413774158539
 30
0.0
 40
2.75
  0
LINE
  5
1A31D
330
1A
100
AcDbEntity
  8
ZISSEN1
 48
0.5
100
AcDbLine
 10
-249.5801476549833
 20
1563.913774158539
 30
0.0
 11
-249.5801476549833
 21
1633.913774158539
 31
0.0
  0
LINE
  5
1A31E
330
1A
100
AcDbEntity
  8
ZISSEN1
 48
0.5
100
AcDbLine
 10
-252.5801476549833
 20
1632.913774158539
 30
0.0
 11
-252.5801476549833
 21
1564.913774158539
 31
0.0
  0
LINE
  5
1A31F
330
1A
100
AcDbEntity
  8
ZISSEN1
 48
0.5
100
AcDbLine
 10
-277.5801476549833
 20
1632.913774158539
 30
0.0
 11
-277.5801476549833
 21
1564.913774158539
 31
0.0
  0
LINE
  5
1A320
330
1A
100
AcDbEntity
  8
ZISSEN1
 48
0.5
100
AcDbLine
 10
-256.1801476549836
 20
1564.413774158539
 30
0.0
 11
-256.1801476549836
 21
1633.413774158539
 31
0.0
  0
LINE
  5
1A321
330
1A
100
AcDbEntity
  8
ZISSEN1
 48
0.5
100
AcDbLine
 10
-257.780147654984
 20
1633.413774158539
 30
0.0
 11
-257.780147654984
 21
1564.413774158539
 31
0.0
  0
LINE
  5
1A322
330
1A
100
AcDbEntity
  8
ZISSEN1
 48
0.5
100
AcDbLine
 10
-256.1801476549836
 20
1564.413774158539
 30
0.0
 11
-256.1801476549836
 21
1633.413774158539
 31
0.0
  0
LINE
  5
1A323
330
1A
100
AcDbEntity
  8
ZISSEN1
 48
0.5
100
AcDbLine
 10
-255.8801476549835
 20
1633.413774158539
 30
0.0
 11
-255.8801476549835
 21
1564.413774158539
 31
0.0
  0
LINE
  5
1A324
330
1A
100
AcDbEntity
  8
ZISSEN1
 48
0.5
100
AcDbLine
 10
-252.8801476549834
 20
1564.413774158539
 30
0.0
 11
-252.8801476549834
 21
1633.413774158539
 31
0.0
  0
LINE
  5
1A325
330
1A
100
AcDbEntity
  8
ZISSEN1
 48
0.5
100
AcDbLine
 10
-252.5801476549833
 20
1633.413774158539
 30
0.0
 11
-252.5801476549833
 21
1564.413774158539
 31
0.0
  0
ARC
  5
1A326
330
1A
100
AcDbEntity
  8
ZISSEN1
100
AcDbCircle
 10
-255.0883488255192
 20
1630.413774158537
 30
0.0
 40
4.06366340092025
100
AcDbArc
 50
137.4114170199048
 51
222.5885829800951
  0
LINE
  5
1A327
330
1A
100
AcDbEntity
  8
ZISSEN1
 48
0.5
100
AcDbLine
 10
-257.780147654984
 20
1633.163774158538
 30
0.0
 11
-257.780147654984
 21
1627.663774158538
 31
0.0
  0
DIMENSION
  5
1A328
330
1A
100
AcDbEntity
  8
SUNPOU
100
AcDbDimension
  2
*D5
 10
-286.1773801503453
 20
1558.913774158539
 30
0.0
 11
-289.2829536110008
 21
1553.844208031338
 31
0.0
 70
   160
  3
標準スタイル
100
AcDbAlignedDimension
 13
-266.8301476549832
 23
1561.413774158539
 33
0.0
 14
-266.8301476549832
 24
1558.913774158539
 34
0.0
 50
90.0
100
AcDbRotatedDimension
1001
ACAD
1000
DSTYLE
1002
{
1070
   287
1070
     5
1070
   340
1005
10
1070
    40
1040
1.0
1070
   279
1070
     2
1002
}
  0
LINE
  5
1A329
330
1A
100
AcDbEntity
  8
ZISSEN1
  6
CONTINUOUS
 62
     0
100
AcDbLine
 10
-322.1801476549845
 20
1567.013774158539
 30
0.0
 11
-321.0801476549842
 21
1567.013774158539
 31
0.0
  0
LINE
  5
1A32A
330
1A
100
AcDbEntity
  8
ZISSEN1
  6
CONTINUOUS
 62
     0
100
AcDbLine
 10
-321.0801476549842
 20
1567.813774158539
 30
0.0
 11
-322.1801476549845
 21
1567.813774158539
 31
0.0
  0
CIRCLE
  5
1A32B
330
1A
100
AcDbEntity
  8
ZISSEN1
  6
CONTINUOUS
 62
     0
100
AcDbCircle
 10
-322.5801476549849
 20
1567.413774158539
 30
0.0
 40
2.75
  0
LINE
  5
1A32C
330
1A
100
AcDbEntity
  8
ZISSEN1
  6
CONTINUOUS
 62
     0
100
AcDbLine
 10
-321.0801476549842
 20
1567.813774158539
 30
0.0
 11
-322.1801476549845
 21
1567.813774158539
 31
0.0
  0
LINE
  5
1A32D
330
1A
100
AcDbEntity
  8
ZISSEN1
  6
CONTINUOUS
 62
     0
100
AcDbLine
 10
-322.1801476549845
 20
1567.013774158539
 30
0.0
 11
-321.0801476549842
 21
1567.013774158539
 31
0.0
  0
LINE
  5
1A32E
330
1A
100
AcDbEntity
  8
ZISSEN1
  6
CONTINUOUS
 62
     0
100
AcDbLine
 10
-321.0801476549842
 20
1630.813774158539
 30
0.0
 11
-322.1801476549845
 21
1630.813774158539
 31
0.0
  0
LINE
  5
1A32F
330
1A
100
AcDbEntity
  8
ZISSEN1
  6
CONTINUOUS
 62
     0
100
AcDbLine
 10
-322.1801476549845
 20
1630.013774158539
 30
0.0
 11
-321.0801476549842
 21
1630.013774158539
 31
0.0
  0
LINE
  5
1A330
330
1A
100
AcDbEntity
  8
ZISSEN1
100
AcDbLine
 10
-319.830147654986
 20
1516.113774158539
 30
0.0
 11
-325.330147654986
 21
1516.113774158539
 31
0.0
  0
ARC
  5
1A331
330
1A
100
AcDbEntity
  8
ZISSEN1
100
AcDbCircle
 10
-322.5801476549857
 20
1513.421975329074
 30
0.0
 40
4.06366340092025
100
AcDbArc
 50
47.41141701993242
 51
132.5885829800675
  0
LINE
  5
1A332
330
1A
100
AcDbEntity
  8
ZISSEN1
 48
0.5
100
AcDbLine
 10
-312.080147654986
 20
1511.213774158538
 30
0.0
 11
-335.080147654986
 21
1511.213774158538
 31
0.0
  0
LINE
  5
1A333
330
1A
100
AcDbEntity
  8
ZISSEN1
 48
0.5
100
AcDbLine
 10
-335.080147654986
 20
1510.913774158538
 30
0.0
 11
-312.080147654986
 21
1510.913774158538
 31
0.0
  0
LINE
  5
1A334
330
1A
100
AcDbEntity
  8
ZISSEN1
 48
0.5
100
AcDbLine
 10
-312.080147654986
 20
1514.513774158538
 30
0.0
 11
-335.080147654986
 21
1514.513774158538
 31
0.0
  0
LINE
  5
1A335
330
1A
100
AcDbEntity
  8
ZISSEN1
 48
0.5
100
AcDbLine
 10
-335.080147654986
 20
1514.213774158538
 30
0.0
 11
-312.080147654986
 21
1514.213774158538
 31
0.0
  0
LINE
  5
1A336
330
1A
100
AcDbEntity
  8
ZISSEN1
  6
CONTINUOUS
 62
     0
100
AcDbLine
 10
-322.1801476549845
 20
1567.013774158539
 30
0.0
 11
-322.1801476549845
 21
1565.913774158539
 31
0.0
  0
LINE
  5
1A337
330
1A
100
AcDbEntity
  8
ZISSEN1
  6
CONTINUOUS
 62
     0
100
AcDbLine
 10
-322.9801476549847
 20
1565.913774158539
 30
0.0
 11
-322.9801476549847
 21
1567.013774158539
 31
0.0
  0
LINE
  5
1A338
330
1A
100
AcDbEntity
  8
ZISSEN1
100
AcDbLine
 10
-353.1801476549834
 20
1527.613774158538
 30
0.0
 11
-353.1801476549834
 21
1516.113774158539
 31
0.0
  0
LINE
  5
1A339
330
1A
100
AcDbEntity
  8
ZISSEN1
100
AcDbLine
 10
-334.080147654986
 20
1514.213774158538
 30
0.0
 11
-334.080147654986
 21
1511.213774158538
 31
0.0
  0
LINE
  5
1A33A
330
1A
100
AcDbEntity
  8
ZISSEN1
 48
0.5
100
AcDbLine
 10
-334.080147654986
 20
1510.913774158538
 30
0.0
 11
-334.080147654986
 21
1511.213774158538
 31
0.0
  0
LINE
  5
1A33B
330
1A
100
AcDbEntity
  8
ZISSEN1
 48
0.5
100
AcDbLine
 10
-335.080147654986
 20
1511.213774158538
 30
0.0
 11
-335.080147654986
 21
1510.913774158538
 31
0.0
  0
LINE
  5
1A33C
330
1A
100
AcDbEntity
  8
ZISSEN1
 48
0.5
100
AcDbLine
 10
-334.080147654986
 20
1514.213774158538
 30
0.0
 11
-334.080147654986
 21
1514.513774158538
 31
0.0
  0
LINE
  5
1A33D
330
1A
100
AcDbEntity
  8
ZISSEN1
 48
0.5
100
AcDbLine
 10
-335.080147654986
 20
1514.513774158538
 30
0.0
 11
-335.080147654986
 21
1514.213774158538
 31
0.0
  0
LINE
  5
1A33E
330
1A
100
AcDbEntity
  8
ZISSEN1
100
AcDbLine
 10
-325.330147654986
 20
1516.113774158539
 30
0.0
 11
-325.330147654986
 21
1516.413774158538
 31
0.0
  0
LINE
  5
1A33F
330
1A
100
AcDbEntity
  8
ZISSEN1
  6
CONTINUOUS
 62
     0
100
AcDbLine
 10
-322.5801476549842
 20
1565.913774158539
 30
0.0
 11
-322.9801476549847
 21
1565.913774158539
 31
0.0
  0
LINE
  5
1A340
330
1A
100
AcDbEntity
  8
ZISSEN1
  6
CONTINUOUS
 62
     0
100
AcDbLine
 10
-322.1801476549845
 20
1565.913774158539
 30
0.0
 11
-322.5801476549842
 21
1565.913774158539
 31
0.0
  0
LINE
  5
1A341
330
1A
100
AcDbEntity
  8
ZISSEN1
100
AcDbLine
 10
-353.1801476549836
 20
1620.613774158537
 30
0.0
 11
-360.1801476549836
 21
1620.613774158537
 31
0.0
  0
LINE
  5
1A342
330
1A
100
AcDbEntity
  8
ZISSEN1
100
AcDbLine
 10
-353.1801476549836
 20
1627.413774158538
 30
0.0
 11
-353.1801476549836
 21
1620.613774158537
 31
0.0
  0
LINE
  5
1A343
330
1A
100
AcDbEntity
  8
ZISSEN1
100
AcDbLine
 10
-353.1801476549834
 20
1619.819544069966
 30
0.0
 11
-353.1801476549834
 21
1627.419544069966
 31
0.0
  0
LINE
  5
1A344
330
1A
100
AcDbEntity
  8
ZISSEN1
100
AcDbLine
 10
-354.0301476549842
 20
1621.313774158537
 30
0.0
 11
-355.0301476549833
 21
1621.313774158537
 31
0.0
  0
LINE
  5
1A345
330
1A
100
AcDbEntity
  8
ZISSEN1
100
AcDbLine
 10
-355.0301476549833
 20
1621.313774158537
 30
0.0
 11
-355.0301476549833
 21
1622.113774158537
 31
0.0
  0
LINE
  5
1A346
330
1A
100
AcDbEntity
  8
ZISSEN1
100
AcDbLine
 10
-355.6301476549841
 20
1621.513774158536
 30
0.0
 11
-355.6301476549841
 21
1620.613774158537
 31
0.0
  0
LINE
  5
1A347
330
1A
100
AcDbEntity
  8
ZISSEN1
100
AcDbLine
 10
-361.8301476549833
 20
1621.513774158536
 30
0.0
 11
-361.8301476549833
 21
1620.613774158537
 31
0.0
  0
LINE
  5
1A348
330
1A
100
AcDbEntity
  8
ZISSEN1
100
AcDbLine
 10
-360.1801476549843
 20
1621.513774158536
 30
0.0
 11
-360.1801476549843
 21
1620.613774158537
 31
0.0
  0
LINE
  5
1A349
330
1A
100
AcDbEntity
  8
ZISSEN1
100
AcDbLine
 10
-353.1801476549834
 20
1620.613774158537
 30
0.0
 11
-360.1801476549843
 21
1620.613774158537
 31
0.0
  0
LWPOLYLINE
  5
1A34A
330
1A
100
AcDbEntity
  8
ZISSEN1
100
AcDbPolyline
 90
        4
 70
     1
 43
0.0
 10
-361.6301476549832
 20
1620.913774158537
 10
-360.3801476549841
 20
1620.913774158537
 10
-360.3801476549841
 20
1621.513774158536
 10
-361.6301476549832
 20
1621.513774158536
  0
LINE
  5
1A34B
330
1A
100
AcDbEntity
  8
ZISSEN1
100
AcDbLine
 10
-354.0301476549842
 20
1621.313774158537
 30
0.0
 11
-354.0301476549842
 21
1626.713774158537
 31
0.0
  0
LINE
  5
1A34C
330
1A
100
AcDbEntity
  8
ZISSEN1
100
AcDbLine
 10
-354.0301476549842
 20
1626.713774158537
 30
0.0
 11
-354.0301476549842
 21
1621.313774158537
 31
0.0
  0
LINE
  5
1A34D
330
1A
100
AcDbEntity
  8
ZISSEN1
100
AcDbLine
 10
-354.0301476549842
 20
1626.713774158537
 30
0.0
 11
-354.0301476549842
 21
1621.313774158537
 31
0.0
  0
LINE
  5
1A34E
330
1A
100
AcDbEntity
  8
ZISSEN1
100
AcDbLine
 10
-353.1801476549834
 20
1627.413774158537
 30
0.0
 11
-353.1801476549834
 21
1620.613774158537
 31
0.0
  0
LWPOLYLINE
  5
1A34F
330
1A
100
AcDbEntity
  8
ZISSEN1
100
AcDbPolyline
 90
        4
 70
     1
 43
0.0
 10
-350.177610624759
 20
1615.353774158539
 10
-343.5776106247586
 20
1615.353774158539
 10
-343.5776106247586
 20
1620.753774158539
 10
-350.177610624759
 20
1620.753774158539
  0
LWPOLYLINE
  5
1A350
330
1A
100
AcDbEntity
  8
ZISSEN1
100
AcDbPolyline
 90
        4
 70
     1
 43
0.0
 10
-349.0779154805705
 20
1619.553774158538
 10
-348.4779154805702
 20
1619.553774158538
 10
-348.4779154805702
 20
1616.553774158538
 10
-349.0779154805705
 20
1616.553774158538
  0
LWPOLYLINE
  5
1A351
330
1A
100
AcDbEntity
  8
ZISSEN1
100
AcDbPolyline
 90
        4
 70
     1
 43
0.0
 10
-347.8058393986276
 20
1619.553774158538
 10
-347.2058393986273
 20
1619.553774158538
 10
-347.2058393986273
 20
1616.553774158538
 10
-347.8058393986276
 20
1616.553774158538
  0
LWPOLYLINE
  5
1A352
330
1A
100
AcDbEntity
  8
ZISSEN1
100
AcDbPolyline
 90
        4
 70
     1
 43
0.0
 10
-345.2658393986276
 20
1619.553774158538
 10
-344.6658393986273
 20
1619.553774158538
 10
-344.6658393986273
 20
1616.553774158538
 10
-345.2658393986276
 20
1616.553774158538
  0
LWPOLYLINE
  5
1A353
330
1A
100
AcDbEntity
  8
ZISSEN1
100
AcDbPolyline
 90
        4
 70
     1
 43
0.0
 10
-346.5379154805706
 20
1619.553774158538
 10
-345.9379154805702
 20
1619.553774158538
 10
-345.9379154805702
 20
1616.553774158538
 10
-346.5379154805706
 20
1616.553774158538
  0
LWPOLYLINE
  5
1A354
330
1A
100
AcDbEntity
  8
ZISSEN1
100
AcDbPolyline
 90
        4
 70
     1
 43
0.0
 10
-350.177610624759
 20
1615.513774158539
 10
-343.5776106247586
 20
1615.513774158539
 10
-343.5776106247586
 20
1620.593774158539
 10
-350.177610624759
 20
1620.593774158539
  0
LWPOLYLINE
  5
1A355
330
1A
100
AcDbEntity
  8
ZISSEN1
100
AcDbPolyline
 90
        4
 70
     1
 43
0.0
 10
-350.177610624759
 20
1625.21232161753
 10
-343.5776106247586
 20
1625.21232161753
 10
-343.5776106247586
 20
1630.61232161753
 10
-350.177610624759
 20
1630.61232161753
  0
LWPOLYLINE
  5
1A356
330
1A
100
AcDbEntity
  8
ZISSEN1
100
AcDbPolyline
 90
        4
 70
     1
 43
0.0
 10
-349.0779154805705
 20
1629.412321617529
 10
-348.4779154805702
 20
1629.412321617529
 10
-348.4779154805702
 20
1626.412321617529
 10
-349.0779154805705
 20
1626.412321617529
  0
LWPOLYLINE
  5
1A357
330
1A
100
AcDbEntity
  8
ZISSEN1
100
AcDbPolyline
 90
        4
 70
     1
 43
0.0
 10
-347.8058393986276
 20
1629.412321617529
 10
-347.2058393986273
 20
1629.412321617529
 10
-347.2058393986273
 20
1626.412321617529
 10
-347.8058393986276
 20
1626.412321617529
  0
LWPOLYLINE
  5
1A358
330
1A
100
AcDbEntity
  8
ZISSEN1
100
AcDbPolyline
 90
        4
 70
     1
 43
0.0
 10
-345.2658393986276
 20
1629.412321617529
 10
-344.6658393986273
 20
1629.412321617529
 10
-344.6658393986273
 20
1626.412321617529
 10
-345.2658393986276
 20
1626.412321617529
  0
LWPOLYLINE
  5
1A359
330
1A
100
AcDbEntity
  8
ZISSEN1
100
AcDbPolyline
 90
        4
 70
     1
 43
0.0
 10
-346.5379154805706
 20
1629.412321617529
 10
-345.9379154805702
 20
1629.412321617529
 10
-345.9379154805702
 20
1626.412321617529
 10
-346.5379154805706
 20
1626.412321617529
  0
LWPOLYLINE
  5
1A35A
330
1A
100
AcDbEntity
  8
ZISSEN1
100
AcDbPolyline
 90
        4
 70
     1
 43
0.0
 10
-350.177610624759
 20
1625.37232161753
 10
-343.5776106247586
 20
1625.37232161753
 10
-343.5776106247586
 20
1630.45232161753
 10
-350.177610624759
 20
1630.45232161753
  0
LINE
  5
1A35B
330
1A
100
AcDbEntity
  8
ZISSEN1
  6
CONTINUOUS
 62
     0
100
AcDbLine
 10
-322.1801476549845
 20
1567.813774158539
 30
0.0
 11
-322.1801476549845
 21
1568.913774158539
 31
0.0
  0
LINE
  5
1A35C
330
1A
100
AcDbEntity
  8
ZISSEN1
  6
CONTINUOUS
 62
     0
100
AcDbLine
 10
-322.9801476549847
 20
1568.913774158539
 30
0.0
 11
-322.9801476549847
 21
1567.813774158539
 31
0.0
  0
LINE
  5
1A35D
330
1A
100
AcDbEntity
  8
ZISSEN1
  6
CONTINUOUS
 62
     0
100
AcDbLine
 10
-322.5801476549842
 20
1568.913774158539
 30
0.0
 11
-322.9801476549847
 21
1568.913774158539
 31
0.0
  0
LINE
  5
1A35E
330
1A
100
AcDbEntity
  8
ZISSEN1
  6
CONTINUOUS
 62
     0
100
AcDbLine
 10
-324.0801476549842
 20
1567.813774158539
 30
0.0
 11
-322.9801476549847
 21
1567.813774158539
 31
0.0
  0
LINE
  5
1A35F
330
1A
100
AcDbEntity
  8
ZISSEN1
  6
CONTINUOUS
 62
     0
100
AcDbLine
 10
-322.9801476549847
 20
1567.013774158539
 30
0.0
 11
-324.0801476549842
 21
1567.013774158539
 31
0.0
  0
LINE
  5
1A360
330
1A
100
AcDbEntity
  8
ZISSEN1
  6
CONTINUOUS
 62
     0
100
AcDbLine
 10
-324.0801476549842
 20
1567.013774158539
 30
0.0
 11
-324.0801476549842
 21
1567.413774158539
 31
0.0
  0
LINE
  5
1A361
330
1A
100
AcDbEntity
  8
ZISSEN1
  6
CONTINUOUS
 62
     0
100
AcDbLine
 10
-324.0801476549842
 20
1567.413774158539
 30
0.0
 11
-324.0801476549842
 21
1567.813774158539
 31
0.0
  0
LINE
  5
1A362
330
1A
100
AcDbEntity
  8
ZISSEN1
  6
CONTINUOUS
 62
     0
100
AcDbLine
 10
-322.1801476549845
 20
1568.913774158539
 30
0.0
 11
-322.5801476549842
 21
1568.913774158539
 31
0.0
  0
LINE
  5
1A363
330
1A
100
AcDbEntity
  8
ZISSEN1
100
AcDbLine
 10
-339.9801476549847
 20
1619.873774158538
 30
0.0
 11
-339.9801476549847
 21
1627.273774158539
 31
0.0
  0
LINE
  5
1A364
330
1A
100
AcDbEntity
  8
ZISSEN1
100
AcDbLine
 10
-336.3801476549844
 20
1619.873774158538
 30
0.0
 11
-336.3801476549844
 21
1627.273774158539
 31
0.0
  0
LINE
  5
1A365
330
1A
100
AcDbEntity
  8
ZISSEN1
100
AcDbLine
 10
-339.9801476549847
 20
1619.873774158538
 30
0.0
 11
-336.3801476549844
 21
1619.873774158538
 31
0.0
  0
LINE
  5
1A366
330
1A
100
AcDbEntity
  8
ZISSEN1
100
AcDbLine
 10
-336.3801476549844
 20
1627.273774158539
 30
0.0
 11
-339.9801476549847
 21
1627.273774158539
 31
0.0
  0
LINE
  5
1A367
330
1A
100
AcDbEntity
  8
ZISSEN1
100
AcDbLine
 10
-333.4801476549847
 20
1629.548774158539
 30
0.0
 11
-333.4801476549847
 21
1630.798774158539
 31
0.0
  0
LINE
  5
1A368
330
1A
100
AcDbEntity
  8
ZISSEN1
100
AcDbLine
 10
-335.4801476549847
 20
1630.798774158539
 30
0.0
 11
-335.4801476549847
 21
1629.548774158539
 31
0.0
  0
LINE
  5
1A369
330
1A
100
AcDbEntity
  8
ZISSEN1
100
AcDbLine
 10
-333.4801476549847
 20
1630.798774158539
 30
0.0
 11
-335.4801476549847
 21
1630.798774158539
 31
0.0
  0
LINE
  5
1A36A
330
1A
100
AcDbEntity
  8
ZISSEN1
100
AcDbLine
 10
-335.4801476549847
 20
1629.548774158539
 30
0.0
 11
-333.4801476549847
 21
1629.548774158539
 31
0.0
  0
LINE
  5
1A36B
330
1A
100
AcDbEntity
  8
ZISSEN1
100
AcDbLine
 10
-333.4801476549847
 20
1629.548774158539
 30
0.0
 11
-333.7801476549849
 21
1629.548774158539
 31
0.0
  0
LINE
  5
1A36C
330
1A
100
AcDbEntity
  8
ZISSEN1
100
AcDbLine
 10
-338.8309895698458
 20
1629.516029508384
 30
0.0
 11
-338.8309895698458
 21
1630.766029508384
 31
0.0
  0
LINE
  5
1A36D
330
1A
100
AcDbEntity
  8
ZISSEN1
100
AcDbLine
 10
-340.8309895698458
 20
1630.766029508384
 30
0.0
 11
-340.8309895698458
 21
1629.516029508384
 31
0.0
  0
LINE
  5
1A36E
330
1A
100
AcDbEntity
  8
ZISSEN1
100
AcDbLine
 10
-338.8309895698458
 20
1630.766029508384
 30
0.0
 11
-340.8309895698458
 21
1630.766029508384
 31
0.0
  0
LINE
  5
1A36F
330
1A
100
AcDbEntity
  8
ZISSEN1
100
AcDbLine
 10
-340.8309895698458
 20
1629.516029508384
 30
0.0
 11
-338.8309895698458
 21
1629.516029508384
 31
0.0
  0
LINE
  5
1A370
330
1A
100
AcDbEntity
  8
ZISSEN1
100
AcDbLine
 10
-338.8309895698458
 20
1629.516029508384
 30
0.0
 11
-339.130989569846
 21
1629.516029508384
 31
0.0
  0
LINE
  5
1A371
330
1A
100
AcDbEntity
  8
ZISSEN1
  6
CONTINUOUS
 62
     0
100
AcDbLine
 10
-322.1801476549845
 20
1628.913774158539
 30
0.0
 11
-322.5801476549842
 21
1628.913774158539
 31
0.0
  0
LINE
  5
1A372
330
1A
100
AcDbEntity
  8
ZISSEN1
  6
CONTINUOUS
 62
     0
100
AcDbLine
 10
-322.5801476549842
 20
1628.913774158539
 30
0.0
 11
-322.9801476549847
 21
1628.913774158539
 31
0.0
  0
LINE
  5
1A373
330
1A
100
AcDbEntity
  8
ZISSEN1
  6
CONTINUOUS
 62
     0
100
AcDbLine
 10
-324.0801476549842
 20
1630.413774158539
 30
0.0
 11
-324.0801476549842
 21
1630.813774158539
 31
0.0
  0
LINE
  5
1A374
330
1A
100
AcDbEntity
  8
ZISSEN1
  6
CONTINUOUS
 62
     0
100
AcDbLine
 10
-324.0801476549842
 20
1630.013774158539
 30
0.0
 11
-324.0801476549842
 21
1630.413774158539
 31
0.0
  0
LINE
  5
1A375
330
1A
100
AcDbEntity
  8
ZISSEN1
  6
CONTINUOUS
 62
     0
100
AcDbLine
 10
-322.1801476549845
 20
1630.013774158539
 30
0.0
 11
-322.1801476549845
 21
1628.913774158539
 31
0.0
  0
LINE
  5
1A376
330
1A
100
AcDbEntity
  8
ZISSEN1
  6
CONTINUOUS
 62
     0
100
AcDbLine
 10
-322.9801476549847
 20
1628.913774158539
 30
0.0
 11
-322.9801476549847
 21
1630.013774158539
 31
0.0
  0
LINE
  5
1A377
330
1A
100
AcDbEntity
  8
ZISSEN1
  6
CONTINUOUS
 62
     0
100
AcDbLine
 10
-322.9801476549847
 20
1630.013774158539
 30
0.0
 11
-324.0801476549842
 21
1630.013774158539
 31
0.0
  0
LINE
  5
1A378
330
1A
100
AcDbEntity
  8
ZISSEN1
  6
CONTINUOUS
 62
     0
100
AcDbLine
 10
-324.0801476549842
 20
1630.813774158539
 30
0.0
 11
-322.9801476549847
 21
1630.813774158539
 31
0.0
  0
LINE
  5
1A379
330
1A
100
AcDbEntity
  8
ZISSEN1
  6
CONTINUOUS
 62
     0
100
AcDbLine
 10
-322.5801476549842
 20
1631.913774158538
 30
0.0
 11
-322.9801476549847
 21
1631.913774158538
 31
0.0
  0
LINE
  5
1A37A
330
1A
100
AcDbEntity
  8
ZISSEN1
  6
CONTINUOUS
 62
     0
100
AcDbLine
 10
-322.1801476549845
 20
1631.913774158538
 30
0.0
 11
-322.5801476549842
 21
1631.913774158538
 31
0.0
  0
LINE
  5
1A37B
330
1A
100
AcDbEntity
  8
ZISSEN1
  6
CONTINUOUS
 62
     0
100
AcDbLine
 10
-322.9801476549847
 20
1631.913774158538
 30
0.0
 11
-322.9801476549847
 21
1630.813774158539
 31
0.0
  0
LINE
  5
1A37C
330
1A
100
AcDbEntity
  8
ZISSEN1
  6
CONTINUOUS
 62
     0
100
AcDbLine
 10
-322.1801476549845
 20
1630.813774158539
 30
0.0
 11
-322.1801476549845
 21
1631.913774158538
 31
0.0
  0
LINE
  5
1A37D
330
1A
100
AcDbEntity
  8
ZISSEN1
100
AcDbLine
 10
-312.0801476549833
 20
1587.113774158537
 30
0.0
 11
-312.0801476549833
 21
1565.413774158539
 31
0.0
  0
DIMENSION
  5
1A37E
330
1A
100
AcDbEntity
  8
HONETU
  6
CENTERX2
100
AcDbDimension
  2
*D6
 10
-299.0033301383056
 20
1532.613774158539
 30
0.0
 11
-301.7533301383058
 21
1520.263774158538
 31
0.0
 70
    32
  1
(24.7)
  3
標準スタイル
100
AcDbAlignedDimension
 13
-311.5801476549842
 23
1507.913774158538
 33
0.0
 14
-311.5801476549842
 24
1532.613774158539
 34
0.0
 50
90.0
100
AcDbRotatedDimension
1001
ACAD
1000
DSTYLE
1002
{
1070
   340
1005
10
1070
    40
1040
1.0
1002
}
  0
LINE
  5
1A37F
330
1A
100
AcDbEntity
  8
ZISSEN1
100
AcDbLine
 10
-320.9801476549837
 20
1532.613774158539
 30
0.0
 11
-311.5801476549842
 21
1532.613774158539
 31
0.0
  0
LINE
  5
1A380
330
1A
100
AcDbEntity
  8
ZISSEN1
100
AcDbLine
 10
-311.5801476549842
 20
1516.113774158539
 30
0.0
 11
-319.830147654986
 21
1516.113774158539
 31
0.0
  0
LINE
  5
1A381
330
1A
100
AcDbEntity
  8
ZISSEN1
100
AcDbLine
 10
-320.9801476549837
 20
1532.613774158539
 30
0.0
 11
-311.5801476549842
 21
1532.613774158539
 31
0.0
  0
LINE
  5
1A382
330
1A
100
AcDbEntity
  8
ZISSEN1
100
AcDbLine
 10
-312.080147654986
 20
1511.213774158538
 30
0.0
 11
-312.080147654986
 21
1514.213774158538
 31
0.0
  0
LINE
  5
1A383
330
1A
100
AcDbEntity
  8
ZISSEN1
100
AcDbLine
 10
-320.980147654982
 20
1517.157395015798
 30
0.0
 11
-320.9801476549837
 21
1532.613774158539
 31
0.0
  0
LINE
  5
1A384
330
1A
100
AcDbEntity
  8
ZISSEN1
100
AcDbLine
 10
-319.830147654986
 20
1516.413774158538
 30
0.0
 11
-319.830147654986
 21
1516.113774158539
 31
0.0
  0
LINE
  5
1A385
330
1A
100
AcDbEntity
  8
ZISSEN1
 48
0.5
100
AcDbLine
 10
-313.0801476549851
 20
1514.513774158538
 30
0.0
 11
-313.0801476549851
 21
1516.113774158539
 31
0.0
  0
LINE
  5
1A386
330
1A
100
AcDbEntity
  8
ZISSEN1
 48
0.5
100
AcDbLine
 10
-312.0801476549833
 20
1514.513774158538
 30
0.0
 11
-312.0801476549833
 21
1516.113774158539
 31
0.0
  0
LINE
  5
1A387
330
1A
100
AcDbEntity
  8
ZISSEN1
 48
0.5
100
AcDbLine
 10
-313.080147654986
 20
1510.913774158538
 30
0.0
 11
-313.080147654986
 21
1511.213774158538
 31
0.0
  0
LINE
  5
1A388
330
1A
100
AcDbEntity
  8
ZISSEN1
 48
0.5
100
AcDbLine
 10
-312.080147654986
 20
1510.913774158538
 30
0.0
 11
-312.080147654986
 21
1511.213774158538
 31
0.0
  0
LINE
  5
1A389
330
1A
100
AcDbEntity
  8
ZISSEN1
 48
0.5
100
AcDbLine
 10
-313.080147654986
 20
1511.213774158538
 30
0.0
 11
-313.080147654986
 21
1514.513774158538
 31
0.0
  0
LINE
  5
1A38A
330
1A
100
AcDbEntity
  8
ZISSEN1
 48
0.5
100
AcDbLine
 10
-312.080147654986
 20
1514.213774158538
 30
0.0
 11
-312.080147654986
 21
1514.513774158538
 31
0.0
  0
LINE
  5
1A38B
330
1A
100
AcDbEntity
  8
ZISSEN1
 48
0.5
100
AcDbLine
 10
-312.5801476549842
 20
1510.913774158538
 30
0.0
 11
-312.5801476549842
 21
1507.913774158538
 31
0.0
  0
LINE
  5
1A38C
330
1A
100
AcDbEntity
  8
ZISSEN1
100
AcDbLine
 10
-311.5801476549842
 20
1532.613774158539
 30
0.0
 11
-311.5801476549842
 21
1516.113774158539
 31
0.0
  0
LINE
  5
1A38D
330
1A
100
AcDbEntity
  8
ZISSEN1
 48
0.5
100
AcDbLine
 10
-311.5801476549842
 20
1510.913774158538
 30
0.0
 11
-311.5801476549842
 21
1507.913774158538
 31
0.0
  0
LINE
  5
1A38E
330
1A
100
AcDbEntity
  8
ZISSEN1
 48
0.5
100
AcDbLine
 10
-312.5801476549842
 20
1563.913774158538
 30
0.0
 11
-311.5801476549842
 21
1564.913774158538
 31
0.0
  0
LINE
  5
1A38F
330
1A
100
AcDbEntity
  8
ZISSEN1
100
AcDbLine
 10
-313.0801476549842
 20
1564.413774158538
 30
0.0
 11
-312.0801476549842
 21
1565.413774158538
 31
0.0
  0
LINE
  5
1A390
330
1A
100
AcDbEntity
  8
ZISSEN1
100
AcDbLine
 10
-320.9801476549829
 20
1610.213774158537
 30
0.0
 11
-320.9801476549829
 21
1587.113774158537
 31
0.0
  0
LINE
  5
1A391
330
1A
100
AcDbEntity
  8
ZISSEN1
100
AcDbLine
 10
-311.5801476549828
 20
1610.213774158537
 30
0.0
 11
-311.5801476549828
 21
1587.113774158537
 31
0.0
  0
LINE
  5
1A392
330
1A
100
AcDbEntity
  8
ZISSEN1
100
AcDbLine
 10
-320.9801476549829
 20
1587.113774158537
 30
0.0
 11
-320.9801476549829
 21
1610.213774158537
 31
0.0
  0
LINE
  5
1A393
330
1A
100
AcDbEntity
  8
ZISSEN1
100
AcDbLine
 10
-313.9801476549829
 20
1609.513774158537
 30
0.0
 11
-313.9801476549829
 21
1598.663774158537
 31
0.0
  0
LINE
  5
1A394
330
1A
100
AcDbEntity
  8
ZISSEN1
100
AcDbLine
 10
-313.3801476549834
 20
1598.663774158537
 30
0.0
 11
-313.3801476549834
 21
1610.213774158537
 31
0.0
  0
LINE
  5
1A395
330
1A
100
AcDbEntity
  8
ZISSEN1
100
AcDbLine
 10
-313.3801476549834
 20
1598.663774158537
 30
0.0
 11
-313.3801476549834
 21
1603.013774158537
 31
0.0
  0
LINE
  5
1A396
330
1A
100
AcDbEntity
  8
ZISSEN1
100
AcDbLine
 10
-313.3801476549834
 20
1598.663774158537
 30
0.0
 11
-313.3801476549834
 21
1599.863774158537
 31
0.0
  0
LINE
  5
1A397
330
1A
100
AcDbEntity
  8
ZISSEN1
100
AcDbLine
 10
-312.780147654984
 20
1599.863774158537
 30
0.0
 11
-312.780147654984
 21
1598.663774158537
 31
0.0
  0
LINE
  5
1A398
330
1A
100
AcDbEntity
  8
ZISSEN1
100
AcDbLine
 10
-320.9801476549829
 20
1598.663774158537
 30
0.0
 11
-320.9801476549829
 21
1610.213774158537
 31
0.0
  0
LINE
  5
1A399
330
1A
100
AcDbEntity
  8
ZISSEN1
100
AcDbLine
 10
-320.3801476549825
 20
1609.513774158537
 30
0.0
 11
-320.3801476549825
 21
1598.663774158537
 31
0.0
  0
LINE
  5
1A39A
330
1A
100
AcDbEntity
  8
ZISSEN1
100
AcDbLine
 10
-311.5801476549828
 20
1587.113774158537
 30
0.0
 11
-320.9801476549829
 21
1587.113774158537
 31
0.0
  0
LINE
  5
1A39B
330
1A
100
AcDbEntity
  8
ZISSEN1
100
AcDbLine
 10
-313.380147654983
 20
1587.113774158537
 30
0.0
 11
-320.9801476549829
 21
1587.113774158537
 31
0.0
  0
LINE
  5
1A39C
330
1A
100
AcDbEntity
  8
ZISSEN1
  6
CONTINUOUS
 62
     0
100
AcDbLine
 10
-321.0801476549842
 20
1567.413774158539
 30
0.0
 11
-321.0801476549842
 21
1567.813774158539
 31
0.0
  0
LINE
  5
1A39D
330
1A
100
AcDbEntity
  8
ZISSEN1
  6
CONTINUOUS
 62
     0
100
AcDbLine
 10
-321.0801476549842
 20
1567.013774158539
 30
0.0
 11
-321.0801476549842
 21
1567.413774158539
 31
0.0
  0
LINE
  5
1A39E
330
1A
100
AcDbEntity
  8
ZISSEN1
  6
CONTINUOUS
 62
     0
100
AcDbLine
 10
-321.0801476549842
 20
1567.013774158539
 30
0.0
 11
-321.0801476549842
 21
1567.413774158539
 31
0.0
  0
LINE
  5
1A39F
330
1A
100
AcDbEntity
  8
ZISSEN1
  6
CONTINUOUS
 62
     0
100
AcDbLine
 10
-321.0801476549842
 20
1567.413774158539
 30
0.0
 11
-321.0801476549842
 21
1567.813774158539
 31
0.0
  0
LINE
  5
1A3A0
330
1A
100
AcDbEntity
  8
ZISSEN1
100
AcDbLine
 10
-317.1801476549836
 20
1587.813774158537
 30
0.0
 11
-313.9801476549829
 21
1587.813774158537
 31
0.0
  0
LINE
  5
1A3A1
330
1A
100
AcDbEntity
  8
ZISSEN1
100
AcDbLine
 10
-313.3801476549834
 20
1587.113774158537
 30
0.0
 11
-317.1801476549836
 21
1587.113774158537
 31
0.0
  0
LINE
  5
1A3A2
330
1A
100
AcDbEntity
  8
ZISSEN1
100
AcDbLine
 10
-314.1801476549836
 20
1587.113774158537
 30
0.0
 11
-320.9801476549829
 21
1587.113774158537
 31
0.0
  0
LINE
  5
1A3A3
330
1A
100
AcDbEntity
  8
ZISSEN1
100
AcDbLine
 10
-317.1801476549836
 20
1587.813774158537
 30
0.0
 11
-320.3801476549825
 21
1587.813774158537
 31
0.0
  0
LINE
  5
1A3A4
330
1A
100
AcDbEntity
  8
ZISSEN1
100
AcDbLine
 10
-320.9801476549829
 20
1587.113774158537
 30
0.0
 11
-317.1801476549836
 21
1587.113774158537
 31
0.0
  0
LINE
  5
1A3A5
330
1A
100
AcDbEntity
  8
ZISSEN1
100
AcDbLine
 10
-312.780147654984
 20
1597.463774158537
 30
0.0
 11
-312.780147654984
 21
1598.663774158537
 31
0.0
  0
LINE
  5
1A3A6
330
1A
100
AcDbEntity
  8
ZISSEN1
100
AcDbLine
 10
-313.3801476549834
 20
1598.663774158537
 30
0.0
 11
-313.3801476549834
 21
1597.463774158537
 31
0.0
  0
LINE
  5
1A3A7
330
1A
100
AcDbEntity
  8
ZISSEN1
100
AcDbLine
 10
-313.3801476549834
 20
1598.663774158537
 30
0.0
 11
-313.3801476549834
 21
1594.313774158537
 31
0.0
  0
LINE
  5
1A3A8
330
1A
100
AcDbEntity
  8
ZISSEN1
100
AcDbLine
 10
-313.3801476549834
 20
1597.463774158537
 30
0.0
 11
-312.780147654984
 21
1597.463774158537
 31
0.0
  0
LINE
  5
1A3A9
330
1A
100
AcDbEntity
  8
ZISSEN1
100
AcDbLine
 10
-313.9801476549829
 20
1595.513774158537
 30
0.0
 11
-313.3801476549834
 21
1595.513774158537
 31
0.0
  0
LINE
  5
1A3AA
330
1A
100
AcDbEntity
  8
ZISSEN1
100
AcDbLine
 10
-313.9801476549829
 20
1594.313774158537
 30
0.0
 11
-313.9801476549829
 21
1595.513774158537
 31
0.0
  0
LINE
  5
1A3AB
330
1A
100
AcDbEntity
  8
ZISSEN1
100
AcDbLine
 10
-313.3801476549834
 20
1594.313774158537
 30
0.0
 11
-313.9801476549829
 21
1594.313774158537
 31
0.0
  0
LINE
  5
1A3AC
330
1A
100
AcDbEntity
  8
ZISSEN1
100
AcDbLine
 10
-313.9801476549829
 20
1587.813774158537
 30
0.0
 11
-313.9801476549829
 21
1598.663774158537
 31
0.0
  0
LINE
  5
1A3AD
330
1A
100
AcDbEntity
  8
ZISSEN1
100
AcDbLine
 10
-313.3801476549834
 20
1598.663774158537
 30
0.0
 11
-313.3801476549834
 21
1587.113774158537
 31
0.0
  0
LINE
  5
1A3AE
330
1A
100
AcDbEntity
  8
ZISSEN1
100
AcDbLine
 10
-320.9801476549829
 20
1598.663774158537
 30
0.0
 11
-320.9801476549829
 21
1587.113774158537
 31
0.0
  0
LINE
  5
1A3AF
330
1A
100
AcDbEntity
  8
ZISSEN1
100
AcDbLine
 10
-320.3801476549825
 20
1587.813774158537
 30
0.0
 11
-320.3801476549825
 21
1598.663774158537
 31
0.0
  0
LINE
  5
1A3B0
330
1A
100
AcDbEntity
  8
ZISSEN1
100
AcDbLine
 10
-320.9801476549829
 20
1610.213774158537
 30
0.0
 11
-311.5801476549828
 21
1610.213774158537
 31
0.0
  0
LINE
  5
1A3B1
330
1A
100
AcDbEntity
  8
ZISSEN1
100
AcDbLine
 10
-320.9801476549829
 20
1610.213774158537
 30
0.0
 11
-313.380147654983
 21
1610.213774158537
 31
0.0
  0
LINE
  5
1A3B2
330
1A
100
AcDbEntity
  8
ZISSEN1
  6
CONTINUOUS
 62
     0
100
AcDbLine
 10
-321.0801476549842
 20
1630.013774158539
 30
0.0
 11
-321.0801476549842
 21
1630.413774158539
 31
0.0
  0
LINE
  5
1A3B3
330
1A
100
AcDbEntity
  8
ZISSEN1
  6
CONTINUOUS
 62
     0
100
AcDbLine
 10
-321.0801476549842
 20
1630.413774158539
 30
0.0
 11
-321.0801476549842
 21
1630.813774158539
 31
0.0
  0
LINE
  5
1A3B4
330
1A
100
AcDbEntity
  8
ZISSEN1
100
AcDbLine
 10
-317.1801476549836
 20
1609.513774158537
 30
0.0
 11
-313.9801476549829
 21
1609.513774158537
 31
0.0
  0
LINE
  5
1A3B5
330
1A
100
AcDbEntity
  8
ZISSEN1
100
AcDbLine
 10
-313.3801476549834
 20
1610.213774158537
 30
0.0
 11
-317.1801476549836
 21
1610.213774158537
 31
0.0
  0
LINE
  5
1A3B6
330
1A
100
AcDbEntity
  8
ZISSEN1
100
AcDbLine
 10
-313.3801476549834
 20
1603.013774158537
 30
0.0
 11
-313.9801476549829
 21
1603.013774158537
 31
0.0
  0
LINE
  5
1A3B7
330
1A
100
AcDbEntity
  8
ZISSEN1
100
AcDbLine
 10
-313.9801476549829
 20
1603.013774158537
 30
0.0
 11
-313.9801476549829
 21
1601.813774158537
 31
0.0
  0
LINE
  5
1A3B8
330
1A
100
AcDbEntity
  8
ZISSEN1
100
AcDbLine
 10
-313.9801476549829
 20
1601.813774158537
 30
0.0
 11
-313.3801476549834
 21
1601.813774158537
 31
0.0
  0
LINE
  5
1A3B9
330
1A
100
AcDbEntity
  8
ZISSEN1
100
AcDbLine
 10
-313.3801476549834
 20
1599.863774158537
 30
0.0
 11
-312.780147654984
 21
1599.863774158537
 31
0.0
  0
LINE
  5
1A3BA
330
1A
100
AcDbEntity
  8
ZISSEN1
100
AcDbLine
 10
-317.1801476549836
 20
1609.513774158537
 30
0.0
 11
-320.3801476549825
 21
1609.513774158537
 31
0.0
  0
LINE
  5
1A3BB
330
1A
100
AcDbEntity
  8
ZISSEN1
100
AcDbLine
 10
-320.9801476549829
 20
1610.213774158537
 30
0.0
 11
-317.1801476549836
 21
1610.213774158537
 31
0.0
  0
LINE
  5
1A3BC
330
1A
100
AcDbEntity
  8
ZISSEN1
100
AcDbLine
 10
-320.9801476549829
 20
1610.213774158537
 30
0.0
 11
-316.7001476549823
 21
1610.213774158537
 31
0.0
  0
LINE
  5
1A3BD
330
1A
100
AcDbEntity
  8
ZISSEN1
 48
0.5
100
AcDbLine
 10
-257.780147654984
 20
1565.588774158536
 30
0.0
 11
-257.780147654984
 21
1568.388774158536
 31
0.0
  0
LINE
  5
1A3BE
330
1A
100
AcDbEntity
  8
ZISSEN1
 48
0.5
100
AcDbLine
 10
-257.780147654984
 20
1570.163774158539
 30
0.0
 11
-257.780147654984
 21
1564.663774158539
 31
0.0
  0
ARC
  5
1A3BF
330
1A
100
AcDbEntity
  8
ZISSEN1
100
AcDbCircle
 10
-255.0883488255201
 20
1567.413774158539
 30
0.0
 40
4.06366340092025
100
AcDbArc
 50
137.4114170199048
 51
222.5885829800951
  0
LINE
  5
1A3C0
330
1A
100
AcDbEntity
  8
ZISSEN1
 48
0.5
100
AcDbLine
 10
-263.3301476549833
 20
1558.913774158539
 30
0.0
 11
-253.5801476549833
 21
1558.913774158539
 31
0.0
  0
DIMENSION
  5
1A3C1
330
1A
100
AcDbEntity
  8
SUNPOU
100
AcDbDimension
  2
*D7
 10
-277.5801476549833
 20
1542.586832451766
 30
0.0
 11
-263.5801476549833
 21
1545.336832451766
 31
0.0
 70
    32
  3
標準スタイル
100
AcDbAlignedDimension
 13
-249.5801476549833
 23
1563.913774158539
 33
0.0
 14
-277.5801476549833
 24
1559.913774158539
 34
0.0
100
AcDbRotatedDimension
1001
ACAD
1000
DSTYLE
1002
{
1070
   340
1005
10
1070
    40
1040
1.0
1002
}
  0
DIMENSION
  5
1A3C2
330
1A
100
AcDbEntity
  8
SUNPOU
100
AcDbDimension
  2
*D8
 10
-265.080147654983
 20
1551.618936103292
 30
0.0
 11
-257.3301476549831
 21
1554.368936103292
 31
0.0
 70
    32
  3
標準スタイル
100
AcDbAlignedDimension
 13
-249.5801476549833
 23
1563.913774158539
 33
0.0
 14
-265.080147654983
 24
1558.913774158539
 34
0.0
100
AcDbRotatedDimension
1001
ACAD
1000
DSTYLE
1002
{
1070
   340
1005
10
1070
    40
1040
1.0
1002
}
  0
LINE
  5
1A3C3
330
1A
100
AcDbEntity
  8
ZISSEN1
 48
0.5
100
AcDbLine
 10
-276.5801476549833
 20
1558.913774158539
 30
0.0
 11
-266.8301476549832
 21
1558.913774158539
 31
0.0
  0
LINE
  5
1A3C4
330
1A
100
AcDbEntity
  8
ZISSEN1
 48
0.5
100
AcDbLine
 10
-277.5801476549833
 20
1559.913774158539
 30
0.0
 11
-276.5801476549833
 21
1558.913774158539
 31
0.0
  0
LINE
  5
1A3C5
330
1A
100
AcDbEntity
  8
CL1
100
AcDbLine
 10
-265.0801476549829
 20
1564.163774158538
 30
0.0
 11
-265.080147654983
 21
1558.913774158539
 31
0.0
  0
LINE
  5
1A3C6
330
1A
100
AcDbEntity
  8
CL1
100
AcDbLine
 10
-266.8301476549832
 20
1561.413774158539
 30
0.0
 11
-263.3301476549833
 21
1561.413774158539
 31
0.0
  0
ARC
  5
1A3C7
330
1A
100
AcDbEntity
  8
ZISSEN1
 48
0.5
100
AcDbCircle
 10
-265.0801476549832
 20
1562.413774158539
 30
0.0
 40
1.75
100
AcDbArc
 50
0.0
 51
180.0
  0
LINE
  5
1A3C8
330
1A
100
AcDbEntity
  8
ZISSEN1
 48
0.5
100
AcDbLine
 10
-263.3301476549833
 20
1562.413774158539
 30
0.0
 11
-263.3301476549833
 21
1558.913774158539
 31
0.0
  0
LINE
  5
1A3C9
330
1A
100
AcDbEntity
  8
ZISSEN1
 48
0.5
100
AcDbLine
 10
-266.8301476549832
 20
1558.913774158539
 30
0.0
 11
-266.8301476549832
 21
1562.413774158539
 31
0.0
  0
LINE
  5
1A3CA
330
1A
100
AcDbEntity
  8
ZISSEN1
 48
0.5
100
AcDbLine
 10
-249.5801476549833
 20
1564.913774158539
 30
0.0
 11
-252.5801476549833
 21
1564.913774158539
 31
0.0
  0
LINE
  5
1A3CB
330
1A
100
AcDbEntity
  8
ZISSEN1
 48
0.5
100
AcDbLine
 10
-252.5801476549833
 20
1563.913774158539
 30
0.0
 11
-249.5801476549833
 21
1563.913774158539
 31
0.0
  0
LINE
  5
1A3CC
330
1A
100
AcDbEntity
  8
ZISSEN1
  6
DASHEDX2
 48
0.5
100
AcDbLine
 10
-249.5801476549833
 20
1564.913774158539
 30
0.0
 11
-252.5801476549833
 21
1564.913774158539
 31
0.0
  0
LINE
  5
1A3CD
330
1A
100
AcDbEntity
  8
ZISSEN1
 48
0.5
100
AcDbLine
 10
-252.5801476549833
 20
1563.913774158539
 30
0.0
 11
-249.5801476549833
 21
1563.913774158539
 31
0.0
  0
LINE
  5
1A3CE
330
1A
100
AcDbEntity
  8
ZISSEN1
 48
0.5
100
AcDbLine
 10
-252.5801476549833
 20
1559.913774158539
 30
0.0
 11
-253.5801476549833
 21
1558.913774158539
 31
0.0
  0
LINE
  5
1A3CF
330
1A
100
AcDbEntity
  8
ZISSEN1
 48
0.5
100
AcDbLine
 10
-252.5801476549833
 20
1564.913774158539
 30
0.0
 11
-252.5801476549833
 21
1563.913774158539
 31
0.0
  0
LINE
  5
1A3D0
330
1A
100
AcDbEntity
  8
ZISSEN1
 48
0.5
100
AcDbLine
 10
-252.8801476549834
 20
1564.613774158539
 30
0.0
 11
-253.5801476549833
 21
1563.913774158539
 31
0.0
  0
LINE
  5
1A3D1
330
1A
100
AcDbEntity
  8
ZISSEN1
 48
0.5
100
AcDbLine
 10
-256.1801476549836
 20
1564.413774158539
 30
0.0
 11
-256.1801476549836
 21
1563.913774158539
 31
0.0
  0
LINE
  5
1A3D2
330
1A
100
AcDbEntity
  8
ZISSEN1
 48
0.5
100
AcDbLine
 10
-253.5801476549833
 20
1563.913774158539
 30
0.0
 11
-256.1801476549836
 21
1563.913774158539
 31
0.0
  0
LINE
  5
1A3D3
330
1A
100
AcDbEntity
  8
ZISSEN1
 48
0.5
100
AcDbLine
 10
-257.780147654984
 20
1564.413774158539
 30
0.0
 11
-256.1801476549836
 21
1564.413774158539
 31
0.0
  0
LINE
  5
1A3D4
330
1A
100
AcDbEntity
  8
ZISSEN1
 48
0.5
100
AcDbLine
 10
-255.8801476549835
 20
1564.413774158539
 30
0.0
 11
-256.1801476549836
 21
1564.413774158539
 31
0.0
  0
LINE
  5
1A3D5
330
1A
100
AcDbEntity
  8
ZISSEN1
 48
0.5
100
AcDbLine
 10
-252.5801476549833
 20
1564.413774158539
 30
0.0
 11
-252.8801476549834
 21
1564.413774158539
 31
0.0
  0
LINE
  5
1A3D6
330
1A
100
AcDbEntity
  8
ZISSEN1
100
AcDbLine
 10
-257.780147654984
 20
1564.663774158539
 30
0.0
 11
-258.0801476549842
 21
1564.663774158539
 31
0.0
  0
LINE
  5
1A3D7
330
1A
100
AcDbEntity
  8
ZISSEN1
100
AcDbLine
 10
-274.280147654984
 20
1578.563774158539
 30
0.0
 11
-257.780147654984
 21
1578.563774158539
 31
0.0
  0
LINE
  5
1A3D8
330
1A
100
AcDbEntity
  8
ZISSEN1
100
AcDbLine
 10
-258.7558902685005
 20
1569.163774158539
 30
0.0
 11
-274.280147654984
 21
1569.163774158539
 31
0.0
  0
LINE
  5
1A3D9
330
1A
100
AcDbEntity
  8
ZISSEN1
100
AcDbLine
 10
-268.280147654984
 20
1610.213774158538
 30
0.0
 11
-257.780147654984
 21
1610.213774158538
 31
0.0
  0
LINE
  5
1A3DA
330
1A
100
AcDbEntity
  8
ZISSEN1
100
AcDbLine
 10
-257.780147654984
 20
1610.213774158538
 30
0.0
 11
-274.280147654984
 21
1610.213774158538
 31
0.0
  0
LINE
  5
1A3DB
330
1A
100
AcDbEntity
  8
ZISSEN1
100
AcDbLine
 10
-257.780147654984
 20
1587.113774158538
 30
0.0
 11
-268.280147654984
 21
1587.113774158538
 31
0.0
  0
LINE
  5
1A3DC
330
1A
100
AcDbEntity
  8
ZISSEN1
100
AcDbLine
 10
-274.280147654984
 20
1587.113774158538
 30
0.0
 11
-257.780147654984
 21
1587.113774158538
 31
0.0
  0
LINE
  5
1A3DD
330
1A
100
AcDbEntity
  8
ZISSEN1
 48
0.5
100
AcDbLine
 10
-265.3801476549844
 20
1620.613774158537
 30
0.0
 11
-257.780147654984
 21
1620.613774158537
 31
0.0
  0
LINE
  5
1A3DE
330
1A
100
AcDbEntity
  8
ZISSEN1
100
AcDbLine
 10
-257.780147654984
 20
1627.413774158537
 30
0.0
 11
-269.2801476549831
 21
1627.413774158537
 31
0.0
  0
LINE
  5
1A3DF
330
1A
100
AcDbEntity
  8
ZISSEN1
 62
     0
100
AcDbLine
 10
-263.280147654984
 20
1627.413774158539
 30
0.0
 11
-260.280147654984
 21
1627.413774158539
 31
0.0
  0
LINE
  5
1A3E0
330
1A
100
AcDbEntity
  8
ZISSEN1
 62
     0
100
AcDbLine
 10
-264.4801476549838
 20
1627.393774158538
 30
0.0
 11
-259.0781336549836
 21
1627.393774158538
 31
0.0
  0
LINE
  5
1A3E1
330
1A
100
AcDbEntity
  8
ZISSEN1
 62
     0
100
AcDbLine
 10
-263.280147654984
 20
1620.013774158537
 30
0.0
 11
-260.280147654984
 21
1620.013774158537
 31
0.0
  0
LINE
  5
1A3E2
330
1A
100
AcDbEntity
  8
ZISSEN1
 62
     0
100
AcDbLine
 10
-264.4801476549838
 20
1620.033774158538
 30
0.0
 11
-259.0781336549836
 21
1620.033774158538
 31
0.0
  0
CIRCLE
  5
1A3E3
330
1A
100
AcDbEntity
  8
ZISSEN1
 62
     0
100
AcDbCircle
 10
-261.7801476549837
 20
1623.713774158538
 30
0.0
 40
1.75
  0
CIRCLE
  5
1A3E4
330
1A
100
AcDbEntity
  8
ZISSEN1
 62
     0
100
AcDbCircle
 10
-261.7801476549837
 20
1623.713774158538
 30
0.0
 40
1.7
  0
LINE
  5
1A3E5
330
1A
100
AcDbEntity
  8
ZISSEN1
100
AcDbLine
 10
-274.280147654984
 20
1610.213774158538
 30
0.0
 11
-274.280147654984
 21
1587.113774158538
 31
0.0
  0
LINE
  5
1A3E6
330
1A
100
AcDbEntity
  8
ZISSEN1
100
AcDbLine
 10
-274.280147654984
 20
1569.163774158539
 30
0.0
 11
-274.280147654984
 21
1578.563774158539
 31
0.0
  0
LINE
  5
1A3E7
330
1A
100
AcDbEntity
  8
ZISSEN1
100
AcDbLine
 10
-269.2801476549831
 20
1620.613774158537
 30
0.0
 11
-265.3801476549844
 21
1620.613774158537
 31
0.0
  0
LINE
  5
1A3E8
330
1A
100
AcDbEntity
  8
ZISSEN1
100
AcDbLine
 10
-269.2801476549831
 20
1627.413774158537
 30
0.0
 11
-269.2801476549831
 21
1619.813774158537
 31
0.0
  0
LINE
  5
1A3E9
330
1A
100
AcDbEntity
  8
ZISSEN1
100
AcDbLine
 10
-269.2801476549831
 20
1627.413774158537
 30
0.0
 11
-269.2801476549831
 21
1620.613774158537
 31
0.0
  0
LINE
  5
1A3EA
330
1A
100
AcDbEntity
  8
ZISSEN1
100
AcDbLine
 10
-269.2801476549831
 20
1627.413774158537
 30
0.0
 11
-269.2801476549831
 21
1625.913774158537
 31
0.0
  0
LINE
  5
1A3EB
330
1A
100
AcDbEntity
  8
ZISSEN1
100
AcDbLine
 10
-268.2801476549831
 20
1619.813774158537
 30
0.0
 11
-268.2801476549831
 21
1620.613774158537
 31
0.0
  0
LINE
  5
1A3EC
330
1A
100
AcDbEntity
  8
ZISSEN1
100
AcDbLine
 10
-269.2801476549831
 20
1619.813774158537
 30
0.0
 11
-268.2801476549831
 21
1619.813774158537
 31
0.0
  0
LINE
  5
1A3ED
330
1A
100
AcDbEntity
  8
ZISSEN1
 62
     0
100
AcDbLine
 10
-265.0801476549842
 20
1626.663774158539
 30
0.0
 11
-264.8801476549844
 21
1626.863774158538
 31
0.0
  0
LINE
  5
1A3EE
330
1A
100
AcDbEntity
  8
ZISSEN1
 62
     0
100
AcDbLine
 10
-265.0801476549842
 20
1626.663774158539
 30
0.0
 11
-265.0801476549842
 21
1626.420046158537
 31
0.0
  0
LINE
  5
1A3EF
330
1A
100
AcDbEntity
  8
ZISSEN1
 62
     0
100
AcDbLine
 10
-265.3601476549839
 20
1626.413774158539
 30
0.0
 11
-265.077159654984
 21
1626.413774158539
 31
0.0
  0
LINE
  5
1A3F0
330
1A
100
AcDbEntity
  8
ZISSEN1
 62
     0
100
AcDbLine
 10
-265.1301476549844
 20
1627.013774158537
 30
0.0
 11
-265.1301476549844
 21
1626.413774158539
 31
0.0
  0
LINE
  5
1A3F1
330
1A
100
AcDbEntity
  8
ZISSEN1
 62
     0
100
AcDbLine
 10
-265.030147654984
 20
1627.013774158537
 30
0.0
 11
-265.030147654984
 21
1626.713774158538
 31
0.0
  0
ARC
  5
1A3F2
330
1A
100
AcDbEntity
  8
ZISSEN1
 62
     0
100
AcDbCircle
 10
-265.1801476549834
 20
1626.813774158538
 30
0.0
 40
0.2
100
AcDbArc
 50
90.00001616489916
 51
180.0000049782966
  0
LINE
  5
1A3F3
330
1A
100
AcDbEntity
  8
ZISSEN1
 62
     0
100
AcDbLine
 10
-264.4801476549838
 20
1627.393774158538
 30
0.0
 11
-264.4801476549838
 21
1627.063774158538
 31
0.0
  0
LINE
  5
1A3F4
330
1A
100
AcDbEntity
  8
ZISSEN1
 62
     0
100
AcDbLine
 10
-263.280147654984
 20
1627.413774158539
 30
0.0
 11
-263.280147654984
 21
1627.393774158538
 31
0.0
  0
ARC
  5
1A3F5
330
1A
100
AcDbEntity
  8
ZISSEN1
 62
     0
100
AcDbCircle
 10
-264.6801476549833
 20
1627.063774158538
 30
0.0
 40
0.2
100
AcDbArc
 50
269.9999949911147
 51
359.9999975851869
  0
LINE
  5
1A3F6
330
1A
100
AcDbEntity
  8
ZISSEN1
 62
     0
100
AcDbLine
 10
-264.8801476549844
 20
1626.863774158538
 30
0.0
 11
-264.6801476549836
 21
1626.863774158538
 31
0.0
  0
LINE
  5
1A3F7
330
1A
100
AcDbEntity
  8
ZISSEN1
 62
     0
100
AcDbLine
 10
-265.1801476549836
 20
1627.013774158537
 30
0.0
 11
-264.4864996549841
 21
1627.013774158537
 31
0.0
  0
LINE
  5
1A3F8
330
1A
100
AcDbEntity
  8
ZISSEN1
 62
     0
100
AcDbLine
 10
-264.8801476549844
 20
1620.563772158538
 30
0.0
 11
-265.0801496549839
 21
1620.763774158537
 31
0.0
  0
LINE
  5
1A3F9
330
1A
100
AcDbEntity
  8
ZISSEN1
 62
     0
100
AcDbLine
 10
-265.0801476549842
 20
1620.763774158537
 30
0.0
 11
-265.0801476549842
 21
1621.007092158538
 31
0.0
  0
LINE
  5
1A3FA
330
1A
100
AcDbEntity
  8
ZISSEN1
 62
     0
100
AcDbLine
 10
-265.3601476549839
 20
1621.013774158537
 30
0.0
 11
-265.077159654984
 21
1621.013774158537
 31
0.0
  0
LINE
  5
1A3FB
330
1A
100
AcDbEntity
  8
ZISSEN1
 62
     0
100
AcDbLine
 10
-264.8801476549844
 20
1620.563774158538
 30
0.0
 11
-264.6801476549836
 21
1620.563774158538
 31
0.0
  0
LINE
  5
1A3FC
330
1A
100
AcDbEntity
  8
ZISSEN1
 62
     0
100
AcDbLine
 10
-265.3601476549839
 20
1621.013826158538
 30
0.0
 11
-265.3601476549839
 21
1623.713774158538
 31
0.0
  0
LINE
  5
1A3FD
330
1A
100
AcDbEntity
  8
ZISSEN1
 62
     0
100
AcDbLine
 10
-260.8789194011925
 20
1623.015093108911
 30
0.0
 11
-260.6499162776973
 21
1623.567955555478
 31
0.0
  0
LINE
  5
1A3FE
330
1A
100
AcDbEntity
  8
ZISSEN1
 62
     0
100
AcDbLine
 10
-260.8775248062385
 20
1623.015177872793
 30
0.0
 11
-261.4792068950638
 21
1623.264402754221
 31
0.0
  0
LINE
  5
1A3FF
330
1A
100
AcDbEntity
  8
ZISSEN1
 62
     0
100
AcDbLine
 10
-260.64791474682
 20
1623.569505592299
 30
0.0
 11
-261.2495968356453
 21
1623.818730473728
 31
0.0
  0
LINE
  5
1A400
330
1A
100
AcDbEntity
  8
ZISSEN1
 62
     0
100
AcDbLine
 10
-262.0810884149051
 20
1624.163145562856
 30
0.0
 11
-261.8851039701731
 21
1624.244324977878
 31
0.0
  0
LINE
  5
1A401
330
1A
100
AcDbEntity
  8
ZISSEN1
 62
     0
100
AcDbLine
 10
-261.6747740553384
 20
1624.752519184742
 30
0.0
 11
-261.9535676385877
 21
1624.867999268027
 31
0.0
  0
LINE
  5
1A402
330
1A
100
AcDbEntity
  8
ZISSEN1
 62
     0
100
AcDbLine
 10
-261.2495968356453
 20
1623.818730473728
 30
0.0
 11
-261.3307762506666
 21
1624.014714918458
 31
0.0
  0
LINE
  5
1A403
330
1A
100
AcDbEntity
  8
ZISSEN1
 62
     0
100
AcDbLine
 10
-260.847842745452
 20
1624.409993021035
 30
0.0
 11
-261.1219116087705
 21
1624.523516061247
 31
0.0
  0
LINE
  5
1A404
330
1A
100
AcDbEntity
  8
ZISSEN1
 62
     0
100
AcDbLine
 10
-262.0387406005421
 20
1622.305537783314
 30
0.0
 11
-262.5930683200487
 21
1622.535147842733
 31
0.0
  0
LINE
  5
1A405
330
1A
100
AcDbEntity
  8
ZISSEN1
 62
     0
100
AcDbLine
 10
-262.038739835175
 20
1622.305539631073
 30
0.0
 11
-261.6751913397948
 21
1623.183223339198
 31
0.0
  0
LINE
  5
1A406
330
1A
100
AcDbEntity
  8
ZISSEN1
 62
     0
100
AcDbLine
 10
-262.5930675546825
 20
1622.535149690492
 30
0.0
 11
-262.2295190593023
 21
1623.412833398618
 31
0.0
  0
LINE
  5
1A407
330
1A
100
AcDbEntity
  8
ZISSEN1
 62
     0
100
AcDbLine
 10
-262.2295190593023
 20
1623.412833398618
 30
0.0
 11
-262.3106984743236
 21
1623.60881784335
 31
0.0
  0
LINE
  5
1A408
330
1A
100
AcDbEntity
  8
ZISSEN1
 62
     0
100
AcDbLine
 10
-261.4792068950638
 20
1623.264402754221
 30
0.0
 11
-261.6751913397948
 21
1623.183223339198
 31
0.0
  0
LINE
  5
1A409
330
1A
100
AcDbEntity
  8
ZISSEN1
 62
     0
100
AcDbLine
 10
-262.9114543727174
 20
1623.856996660112
 30
0.0
 11
-262.6824512492222
 21
1624.409859106682
 31
0.0
  0
LINE
  5
1A40A
330
1A
100
AcDbEntity
  8
ZISSEN1
 62
     0
100
AcDbLine
 10
-262.3106984743236
 20
1623.60881784335
 30
0.0
 11
-262.9141377820197
 21
1623.858770588666
 31
0.0
  0
LINE
  5
1A40B
330
1A
100
AcDbEntity
  8
ZISSEN1
 62
     0
100
AcDbLine
 10
-262.0810884149051
 20
1624.163145562856
 30
0.0
 11
-262.6798030026721
 21
1624.411141265101
 31
0.0
  0
LINE
  5
1A40C
330
1A
100
AcDbEntity
  8
ZISSEN1
 62
     0
100
AcDbLine
 10
-261.3307762506666
 20
1624.014714918458
 30
0.0
 11
-261.0053904778961
 21
1624.800265664086
 31
0.0
  0
LINE
  5
1A40D
330
1A
100
AcDbEntity
  8
ZISSEN1
 62
     0
100
AcDbLine
 10
-261.8851039701731
 20
1624.244324977878
 30
0.0
 11
-261.5597181974027
 21
1625.029875723506
 31
0.0
  0
LINE
  5
1A40E
330
1A
100
AcDbEntity
  8
ZISSEN1
 62
     0
100
AcDbLine
 10
-261.1678570933519
 20
1625.19198478905
 30
0.0
 11
-261.9506816806316
 21
1624.867728228039
 31
0.0
  0
LINE
  5
1A40F
330
1A
100
AcDbEntity
  8
ZISSEN1
 62
     0
100
AcDbLine
 10
-260.8427273588614
 20
1624.407055870028
 30
0.0
 11
-261.1678552455924
 21
1625.191984023683
 31
0.0
  0
LINE
  5
1A410
330
1A
100
AcDbEntity
  8
ZISSEN1
 62
     0
100
AcDbLine
 10
-264.4801476549838
 20
1620.033774158538
 30
0.0
 11
-264.4801476549838
 21
1620.363774158538
 31
0.0
  0
LINE
  5
1A411
330
1A
100
AcDbEntity
  8
ZISSEN1
 62
     0
100
AcDbLine
 10
-263.280147654984
 20
1620.013774158537
 30
0.0
 11
-263.280147654984
 21
1620.033774158538
 31
0.0
  0
LINE
  5
1A412
330
1A
100
AcDbEntity
  8
ZISSEN1
 62
     0
100
AcDbLine
 10
-265.1801476549836
 20
1620.413774158539
 30
0.0
 11
-264.4864996549841
 21
1620.413774158539
 31
0.0
  0
LINE
  5
1A413
330
1A
100
AcDbEntity
  8
ZISSEN1
 62
     0
100
AcDbLine
 10
-265.1301476549844
 20
1621.013774158537
 30
0.0
 11
-265.1301476549844
 21
1620.413774158539
 31
0.0
  0
LINE
  5
1A414
330
1A
100
AcDbEntity
  8
ZISSEN1
 62
     0
100
AcDbLine
 10
-265.030147654984
 20
1620.713772158537
 30
0.0
 11
-265.030147654984
 21
1620.413774158539
 31
0.0
  0
ARC
  5
1A415
330
1A
100
AcDbEntity
  8
ZISSEN1
 62
     0
100
AcDbCircle
 10
-265.1801476549834
 20
1620.613774158537
 30
0.0
 40
0.2
100
AcDbArc
 50
179.9999950217034
 51
269.999983835205
  0
ARC
  5
1A416
330
1A
100
AcDbEntity
  8
ZISSEN1
 62
     0
100
AcDbCircle
 10
-264.6801476549833
 20
1620.363774158538
 30
0.0
 40
0.2
100
AcDbArc
 50
359.9999975851869
 51
90.00000000010421
  0
LINE
  5
1A417
330
1A
100
AcDbEntity
  8
ZISSEN1
 62
     0
100
AcDbLine
 10
-265.3601476549839
 20
1626.413722158537
 30
0.0
 11
-265.3601476549839
 21
1623.713774158538
 31
0.0
  0
LINE
  5
1A418
330
1A
100
AcDbEntity
  8
ZISSEN1
 62
     0
100
AcDbLine
 10
-265.3801476549844
 20
1626.813774158538
 30
0.0
 11
-265.3801476549844
 21
1620.613774158537
 31
0.0
  0
LINE
  5
1A419
330
1A
100
AcDbEntity
  8
ZISSEN1
100
AcDbLine
 10
-257.780147654984
 20
1587.113774158538
 30
0.0
 11
-257.780147654984
 21
1610.213774158538
 31
0.0
  0
LINE
  5
1A41A
330
1A
100
AcDbEntity
  8
ZISSEN1
100
AcDbLine
 10
-252.8801476549834
 20
1586.913774158539
 30
0.0
 11
-255.8801476549835
 21
1586.913774158539
 31
0.0
  0
LINE
  5
1A41B
330
1A
100
AcDbEntity
  8
ZISSEN1
100
AcDbLine
 10
-258.0801476549842
 20
1570.163774158539
 30
0.0
 11
-257.780147654984
 21
1570.163774158539
 31
0.0
  0
LINE
  5
1A41C
330
1A
100
AcDbEntity
  8
ZISSEN1
100
AcDbLine
 10
-260.280147654984
 20
1630.61232161753
 30
0.0
 11
-260.280147654984
 21
1627.393774158538
 31
0.0
  0
LINE
  5
1A41D
330
1A
100
AcDbEntity
  8
ZISSEN1
100
AcDbLine
 10
-259.1471588903666
 20
1630.61232161753
 30
0.0
 11
-260.280147654984
 21
1630.61232161753
 31
0.0
  0
LINE
  5
1A41E
330
1A
100
AcDbEntity
  8
ZISSEN1
100
AcDbLine
 10
-252.8801476549834
 20
1610.413774158539
 30
0.0
 11
-255.8801476549835
 21
1610.413774158539
 31
0.0
  0
LINE
  5
1A41F
330
1A
100
AcDbEntity
  8
ZISSEN1
 62
     0
100
AcDbLine
 10
-258.4775956549839
 20
1621.013774158537
 30
0.0
 11
-258.2776076549836
 21
1621.013774158537
 31
0.0
  0
LINE
  5
1A420
330
1A
100
AcDbEntity
  8
ZISSEN1
 62
     0
100
AcDbLine
 10
-258.4775956549839
 20
1621.013774158537
 30
0.0
 11
-257.780147654984
 21
1621.013774158537
 31
0.0
  0
LINE
  5
1A421
330
1A
100
AcDbEntity
  8
ZISSEN1
 62
     0
100
AcDbLine
 10
-260.280147654984
 20
1627.413774158539
 30
0.0
 11
-260.280147654984
 21
1627.393774158538
 31
0.0
  0
LINE
  5
1A422
330
1A
100
AcDbEntity
  8
ZISSEN1
 62
     0
100
AcDbLine
 10
-258.4801476549838
 20
1626.663772158538
 30
0.0
 11
-258.6801476549836
 21
1626.863772158539
 31
0.0
  0
LINE
  5
1A423
330
1A
100
AcDbEntity
  8
ZISSEN1
 62
     0
100
AcDbLine
 10
-258.4801476549838
 20
1626.663774158539
 30
0.0
 11
-258.4801476549838
 21
1626.413314158537
 31
0.0
  0
LINE
  5
1A424
330
1A
100
AcDbEntity
  8
ZISSEN1
 62
     0
100
AcDbLine
 10
-258.4775956549839
 20
1626.413774158539
 30
0.0
 11
-258.2776076549836
 21
1626.413774158539
 31
0.0
  0
LINE
  5
1A425
330
1A
100
AcDbEntity
  8
ZISSEN1
 62
     0
100
AcDbLine
 10
-258.6801476549836
 20
1626.863774158538
 30
0.0
 11
-258.8801476549844
 21
1626.863774158538
 31
0.0
  0
LINE
  5
1A426
330
1A
100
AcDbEntity
  8
ZISSEN1
 62
     0
100
AcDbLine
 10
-259.0801476549842
 20
1627.393774158538
 30
0.0
 11
-259.0801476549842
 21
1627.063774158538
 31
0.0
  0
LINE
  5
1A427
330
1A
100
AcDbEntity
  8
ZISSEN1
 62
     0
100
AcDbLine
 10
-258.1801476549836
 20
1626.603774158537
 30
0.0
 11
-258.1801476549836
 21
1626.413774158539
 31
0.0
  0
LINE
  5
1A428
330
1A
100
AcDbEntity
  8
ZISSEN1
 62
     0
100
AcDbLine
 10
-258.4301476549836
 20
1627.013774158537
 30
0.0
 11
-258.4301476549836
 21
1626.413774158539
 31
0.0
  0
LINE
  5
1A429
330
1A
100
AcDbEntity
  8
ZISSEN1
 62
     0
100
AcDbLine
 10
-258.530147654984
 20
1627.013774158537
 30
0.0
 11
-258.530147654984
 21
1626.713772158537
 31
0.0
  0
ARC
  5
1A42A
330
1A
100
AcDbEntity
  8
ZISSEN1
 62
     0
100
AcDbCircle
 10
-258.8801476549841
 20
1627.063774158538
 30
0.0
 40
0.2
100
AcDbArc
 50
180.000002414787
 51
270.0000050086768
  0
LINE
  5
1A42B
330
1A
100
AcDbEntity
  8
ZISSEN1
 62
     0
100
AcDbLine
 10
-257.780147654984
 20
1626.503774158538
 30
0.0
 11
-257.780147654984
 21
1626.413774158539
 31
0.0
  0
LINE
  5
1A42C
330
1A
100
AcDbEntity
  8
ZISSEN1
 62
     0
100
AcDbLine
 10
-257.780147654984
 20
1626.603774158537
 30
0.0
 11
-257.9801476549838
 21
1626.603774158537
 31
0.0
  0
LINE
  5
1A42D
330
1A
100
AcDbEntity
  8
ZISSEN1
 62
     0
100
AcDbLine
 10
-257.780147654984
 20
1627.013774158537
 30
0.0
 11
-257.780147654984
 21
1626.603774158537
 31
0.0
  0
LINE
  5
1A42E
330
1A
100
AcDbEntity
  8
ZISSEN1
 62
     0
100
AcDbLine
 10
-257.780147654984
 20
1627.013774158537
 30
0.0
 11
-257.780147654984
 21
1626.603774158537
 31
0.0
  0
LINE
  5
1A42F
330
1A
100
AcDbEntity
  8
ZISSEN1
 62
     0
100
AcDbLine
 10
-257.9301476549836
 20
1626.603774158537
 30
0.0
 11
-257.9301476549836
 21
1626.503774158538
 31
0.0
  0
LINE
  5
1A430
330
1A
100
AcDbEntity
  8
ZISSEN1
 62
     0
100
AcDbLine
 10
-257.780147654984
 20
1625.903774158538
 30
0.0
 11
-257.780147654984
 21
1625.333772158538
 31
0.0
  0
LINE
  5
1A431
330
1A
100
AcDbEntity
  8
ZISSEN1
 62
     0
100
AcDbLine
 10
-257.780147654984
 20
1625.413774158539
 30
0.0
 11
-257.780147654984
 21
1626.413774158539
 31
0.0
  0
LINE
  5
1A432
330
1A
100
AcDbEntity
  8
ZISSEN1
 62
     0
100
AcDbLine
 10
-258.4775956549839
 20
1626.413774158539
 30
0.0
 11
-257.780147654984
 21
1626.413774158539
 31
0.0
  0
LINE
  5
1A433
330
1A
100
AcDbEntity
  8
ZISSEN1
 62
     0
100
AcDbLine
 10
-259.0737976549836
 20
1627.013774158537
 30
0.0
 11
-257.780147654984
 21
1627.013774158537
 31
0.0
  0
LINE
  5
1A434
330
1A
100
AcDbEntity
  8
ZISSEN1
 62
     0
100
AcDbLine
 10
-257.780147654984
 20
1626.503774158538
 30
0.0
 11
-258.1801476549836
 21
1626.503774158538
 31
0.0
  0
LINE
  5
1A435
330
1A
100
AcDbEntity
  8
ZISSEN1
 62
     0
100
AcDbLine
 10
-257.780147654984
 20
1626.603774158537
 30
0.0
 11
-258.1801476549836
 21
1626.603774158537
 31
0.0
  0
LINE
  5
1A436
330
1A
100
AcDbEntity
  8
ZISSEN1
 62
     0
100
AcDbLine
 10
-260.280147654984
 20
1620.033774158538
 30
0.0
 11
-260.280147654984
 21
1620.013774158537
 31
0.0
  0
LINE
  5
1A437
330
1A
100
AcDbEntity
  8
ZISSEN1
 62
     0
100
AcDbLine
 10
-258.6801476549836
 20
1620.563774158538
 30
0.0
 11
-258.4801476549838
 21
1620.763774158537
 31
0.0
  0
LINE
  5
1A438
330
1A
100
AcDbEntity
  8
ZISSEN1
 62
     0
100
AcDbLine
 10
-258.4801476549838
 20
1620.763774158537
 30
0.0
 11
-258.4801476549838
 21
1621.007092158538
 31
0.0
  0
LINE
  5
1A439
330
1A
100
AcDbEntity
  8
ZISSEN1
 62
     0
100
AcDbLine
 10
-258.6801476549836
 20
1620.563774158538
 30
0.0
 11
-258.8801476549844
 21
1620.563774158538
 31
0.0
  0
LINE
  5
1A43A
330
1A
100
AcDbEntity
  8
ZISSEN1
 62
     0
100
AcDbLine
 10
-258.1801476549836
 20
1621.013774158537
 30
0.0
 11
-258.1801476549836
 21
1620.823772158538
 31
0.0
  0
LINE
  5
1A43B
330
1A
100
AcDbEntity
  8
ZISSEN1
 62
     0
100
AcDbLine
 10
-257.780147654984
 20
1620.923776158538
 30
0.0
 11
-257.780147654984
 21
1621.013774158537
 31
0.0
  0
LINE
  5
1A43C
330
1A
100
AcDbEntity
  8
ZISSEN1
 62
     0
100
AcDbLine
 10
-257.780147654984
 20
1620.823772158538
 30
0.0
 11
-257.9801476549838
 21
1620.823772158538
 31
0.0
  0
LINE
  5
1A43D
330
1A
100
AcDbEntity
  8
ZISSEN1
 62
     0
100
AcDbLine
 10
-257.9301476549836
 20
1620.923776158538
 30
0.0
 11
-257.9301476549836
 21
1620.823772158538
 31
0.0
  0
LINE
  5
1A43E
330
1A
100
AcDbEntity
  8
ZISSEN1
 62
     0
100
AcDbLine
 10
-257.780147654984
 20
1621.013774158537
 30
0.0
 11
-257.780147654984
 21
1622.013774158537
 31
0.0
  0
LINE
  5
1A43F
330
1A
100
AcDbEntity
  8
ZISSEN1
 62
     0
100
AcDbLine
 10
-257.780147654984
 20
1621.523772158538
 30
0.0
 11
-257.780147654984
 21
1622.093774158538
 31
0.0
  0
LINE
  5
1A440
330
1A
100
AcDbEntity
  8
ZISSEN1
 62
     0
100
AcDbLine
 10
-257.780147654984
 20
1620.923776158538
 30
0.0
 11
-258.1801476549836
 21
1620.923776158538
 31
0.0
  0
LINE
  5
1A441
330
1A
100
AcDbEntity
  8
ZISSEN1
 62
     0
100
AcDbLine
 10
-257.780147654984
 20
1620.823772158538
 30
0.0
 11
-258.1801476549836
 21
1620.823772158538
 31
0.0
  0
LINE
  5
1A442
330
1A
100
AcDbEntity
  8
ZISSEN1
 62
     0
100
AcDbLine
 10
-259.0801476549842
 20
1620.033774158538
 30
0.0
 11
-259.0801476549842
 21
1620.363774158538
 31
0.0
  0
LINE
  5
1A443
330
1A
100
AcDbEntity
  8
ZISSEN1
 62
     0
100
AcDbLine
 10
-259.0737976549836
 20
1620.413774158539
 30
0.0
 11
-257.780147654984
 21
1620.413774158539
 31
0.0
  0
LINE
  5
1A444
330
1A
100
AcDbEntity
  8
ZISSEN1
 62
     0
100
AcDbLine
 10
-258.530147654984
 20
1620.713772158537
 30
0.0
 11
-258.530147654984
 21
1620.413774158539
 31
0.0
  0
LINE
  5
1A445
330
1A
100
AcDbEntity
  8
ZISSEN1
 62
     0
100
AcDbLine
 10
-258.4301476549836
 20
1621.013774158537
 30
0.0
 11
-258.4301476549836
 21
1620.413774158539
 31
0.0
  0
LINE
  5
1A446
330
1A
100
AcDbEntity
  8
ZISSEN1
 62
     0
100
AcDbLine
 10
-257.780147654984
 20
1620.413774158539
 30
0.0
 11
-257.780147654984
 21
1620.823772158538
 31
0.0
  0
LINE
  5
1A447
330
1A
100
AcDbEntity
  8
ZISSEN1
 62
     0
100
AcDbLine
 10
-257.780147654984
 20
1620.413772158538
 30
0.0
 11
-257.780147654984
 21
1620.823772158538
 31
0.0
  0
ARC
  5
1A448
330
1A
100
AcDbEntity
  8
ZISSEN1
 62
     0
100
AcDbCircle
 10
-258.8801476549841
 20
1620.363774158538
 30
0.0
 40
0.2
100
AcDbArc
 50
90.00000000010421
 51
180.000002414787
  0
LINE
  5
1A449
330
1A
100
AcDbEntity
  8
ZISSEN1
100
AcDbLine
 10
-257.7801476549831
 20
1627.663774158538
 30
0.0
 11
-258.0801476549833
 21
1627.663774158538
 31
0.0
  0
LINE
  5
1A44A
330
1A
100
AcDbEntity
  8
ZISSEN1
 48
0.5
100
AcDbLine
 10
-311.5801476549842
 20
1632.913774158538
 30
0.0
 11
-312.5801476549842
 21
1633.913774158538
 31
0.0
  0
LINE
  5
1A44C
330
1A
100
AcDbEntity
  8
ZISSEN1
100
AcDbLine
 10
-313.0801476549842
 20
1633.413774158538
 30
0.0
 11
-312.0801476549842
 21
1632.413774158538
 31
0.0
  0
LINE
  5
1A44D
330
1A
100
AcDbEntity
  8
ZISSEN1
 48
0.5
100
AcDbLine
 10
-253.5801476549833
 20
1638.913774158539
 30
0.0
 11
-263.3301476549833
 21
1638.913774158539
 31
0.0
  0
DIMENSION
  5
1A44E
330
1A
100
AcDbEntity
  8
SUNPOU
100
AcDbDimension
  2
*D9
 10
-263.3301476549833
 20
1644.525029867231
 30
0.0
 11
-252.8301476549833
 21
1647.275029867231
 31
0.0
 70
    32
  3
標準スタイル
100
AcDbAlignedDimension
 13
-266.8301476549832
 23
1638.913774158539
 33
0.0
 14
-263.3301476549833
 24
1638.913774158539
 34
0.0
100
AcDbRotatedDimension
1001
ACAD
1000
DSTYLE
1002
{
1070
   340
1005
10
1070
    40
1040
1.0
1002
}
  0
LINE
  5
1A44F
330
1A
100
AcDbEntity
  8
ZISSEN1
 48
0.5
100
AcDbLine
 10
-266.8301476549832
 20
1638.913774158539
 30
0.0
 11
-276.5801476549833
 21
1638.913774158539
 31
0.0
  0
LINE
  5
1A450
330
1A
100
AcDbEntity
  8
ZISSEN1
 48
0.5
100
AcDbLine
 10
-276.5801476549833
 20
1638.913774158539
 30
0.0
 11
-277.5801476549833
 21
1637.913774158539
 31
0.0
  0
LINE
  5
1A451
330
1A
100
AcDbEntity
  8
CL1
100
AcDbLine
 10
-265.0801476549829
 20
1638.913774158539
 30
0.0
 11
-265.0801476549832
 21
1633.663774158538
 31
0.0
  0
LINE
  5
1A452
330
1A
100
AcDbEntity
  8
CL1
100
AcDbLine
 10
-266.8301476549832
 20
1636.413774158539
 30
0.0
 11
-263.3301476549833
 21
1636.413774158539
 31
0.0
  0
ARC
  5
1A453
330
1A
100
AcDbEntity
  8
ZISSEN1
 48
0.5
100
AcDbCircle
 10
-265.0801476549832
 20
1635.413774158539
 30
0.0
 40
1.75
100
AcDbArc
 50
180.0
 51
0.0
  0
LINE
  5
1A454
330
1A
100
AcDbEntity
  8
ZISSEN1
 48
0.5
100
AcDbLine
 10
-266.8301476549832
 20
1635.413774158539
 30
0.0
 11
-266.8301476549832
 21
1638.913774158539
 31
0.0
  0
LINE
  5
1A455
330
1A
100
AcDbEntity
  8
ZISSEN1
 48
0.5
100
AcDbLine
 10
-263.3301476549833
 20
1638.913774158539
 30
0.0
 11
-263.3301476549833
 21
1635.413774158539
 31
0.0
  0
LINE
  5
1A456
330
1A
100
AcDbEntity
  8
ZISSEN1
 48
0.5
100
AcDbLine
 10
-249.5801476549833
 20
1632.913774158539
 30
0.0
 11
-252.5801476549833
 21
1632.913774158539
 31
0.0
  0
LINE
  5
1A457
330
1A
100
AcDbEntity
  8
ZISSEN1
 48
0.5
100
AcDbLine
 10
-249.5801476549833
 20
1633.913774158539
 30
0.0
 11
-252.5801476549833
 21
1633.913774158539
 31
0.0
  0
LINE
  5
1A458
330
1A
100
AcDbEntity
  8
ZISSEN1
  6
DASHEDX2
 48
0.5
100
AcDbLine
 10
-249.5801476549833
 20
1632.913774158539
 30
0.0
 11
-252.5801476549833
 21
1632.913774158539
 31
0.0
  0
LINE
  5
1A459
330
1A
100
AcDbEntity
  8
ZISSEN1
 48
0.5
100
AcDbLine
 10
-249.5801476549833
 20
1633.913774158539
 30
0.0
 11
-252.5801476549833
 21
1633.913774158539
 31
0.0
  0
LINE
  5
1A45A
330
1A
100
AcDbEntity
  8
ZISSEN1
 48
0.5
100
AcDbLine
 10
-252.5801476549833
 20
1637.913774158539
 30
0.0
 11
-253.5801476549833
 21
1638.913774158539
 31
0.0
  0
LINE
  5
1A45B
330
1A
100
AcDbEntity
  8
ZISSEN1
 48
0.5
100
AcDbLine
 10
-252.5801476549833
 20
1632.913774158539
 30
0.0
 11
-252.5801476549833
 21
1633.913774158539
 31
0.0
  0
LINE
  5
1A45C
330
1A
100
AcDbEntity
  8
ZISSEN1
 48
0.5
100
AcDbLine
 10
-252.8801476549834
 20
1633.213774158539
 30
0.0
 11
-253.5801476549833
 21
1633.913774158539
 31
0.0
  0
LINE
  5
1A45D
330
1A
100
AcDbEntity
  8
ZISSEN1
 48
0.5
100
AcDbLine
 10
-256.1801476549836
 20
1633.913774158539
 30
0.0
 11
-256.1801476549836
 21
1633.413774158539
 31
0.0
  0
LINE
  5
1A45E
330
1A
100
AcDbEntity
  8
ZISSEN1
 48
0.5
100
AcDbLine
 10
-253.5801476549833
 20
1633.913774158539
 30
0.0
 11
-256.1801476549836
 21
1633.913774158539
 31
0.0
  0
LINE
  5
1A45F
330
1A
100
AcDbEntity
  8
ZISSEN1
 48
0.5
100
AcDbLine
 10
-256.1801476549836
 20
1633.413774158539
 30
0.0
 11
-257.780147654984
 21
1633.413774158539
 31
0.0
  0
LINE
  5
1A460
330
1A
100
AcDbEntity
  8
ZISSEN1
 48
0.5
100
AcDbLine
 10
-256.1801476549836
 20
1633.413774158539
 30
0.0
 11
-255.8801476549835
 21
1633.413774158539
 31
0.0
  0
LINE
  5
1A461
330
1A
100
AcDbEntity
  8
ZISSEN1
 48
0.5
100
AcDbLine
 10
-252.8801476549834
 20
1633.413774158539
 30
0.0
 11
-252.5801476549833
 21
1633.413774158539
 31
0.0
  0
LINE
  5
1A462
330
1A
100
AcDbEntity
  8
ZISSEN1
100
AcDbLine
 10
-258.0801476549833
 20
1633.163774158538
 30
0.0
 11
-257.7801476549831
 21
1633.163774158538
 31
0.0
  0
LINE
  5
1A54A
330
1A
100
AcDbEntity
  8
ZISSEN1
100
AcDbLine
 10
-353.1801476549834
 20
1527.613774158538
 30
0.0
 11
-366.4577778068271
 21
1527.613774158538
 31
0.0
  0
LINE
  5
1A54B
330
1A
100
AcDbEntity
  8
SOUZOUSEN
100
AcDbLine
 10
-366.4577778068271
 20
1527.613774158538
 30
0.0
 11
-375.557777806827
 21
1527.613774158538
 31
0.0
  0
LINE
  5
1A54C
330
1A
100
AcDbEntity
  8
ZISSEN1
100
AcDbLine
 10
-375.5801476549833
 20
1527.613774158538
 30
0.0
 11
-375.557777806827
 21
1527.613774158538
 31
0.0
  0
LINE
  5
1A576
330
1A
100
AcDbEntity
  8
SOUZOUSEN
100
AcDbLine
 10
-378.5801476549842
 20
1564.163774158538
 30
0.0
 11
-381.5801476549842
 21
1564.163774158538
 31
0.0
  0
LINE
  5
1A578
330
1A
100
AcDbEntity
  8
SOUZOUSEN
100
AcDbLine
 10
-381.5801476549842
 20
1633.663774158538
 30
0.0
 11
-378.5801476549841
 21
1633.663774158538
 31
0.0
  0
VIEWPORT
  5
5D8F
330
5D8E
100
AcDbEntity
 67
     1
  8
0
100
AcDbViewport
 10
221.7773519364194
 20
157.6879887152104
 30
0.0
 40
468.5684599252842
 41
262.9519205487881
 68
     1
 69
     1
1001
ACAD
1000
MVIEW
1002
{
1070
    16
1010
0.0
1020
0.0
1030
0.0
1010
0.0
1020
0.0
1030
1.0
1040
0.0
1040
262.9519205487881
1040
221.7773519364194
1040
157.6879887152104
1040
50.0
1040
0.0
1040
0.0
1070
     0
1070
   100
1070
     1
1070
     0
1070
     0
1070
     0
1070
     0
1070
     0
1040
0.0
1040
0.0
1040
0.0
1040
1.0
1040
1.0
1040
10.0
1040
10.0
1070
     0
1002
{
1002
}
1002
}
  0
VIEWPORT
  5
6001
330
5D8E
100
AcDbEntity
 67
     1
  8
ZISSEN1
100
AcDbViewport
 10
221.7861955525412
 20
157.6960273330388
 30
0.0
 40
385.4999999999997
 41
259.9999999999999
 68
     2
 69
     2
1001
ACAD
1000
MVIEW
1002
{
1070
    16
1010
0.0
1020
0.0
1030
0.0
1010
0.0
1020
0.0
1030
1.0
1040
0.0
1040
259.9999999999999
1040
-324.6538205686606
1040
1590.104314857569
1040
50.0
1040
0.0
1040
0.0
1070
     0
1070
   100
1070
     1
1070
     0
1070
     0
1070
     0
1070
     0
1070
     0
1040
0.0
1040
0.0
1040
0.0
1040
1.0
1040
1.0
1040
10.0
1040
10.0
1070
     0
1002
{
1002
}
1002
}
  0
TEXT
  5
716F
330
5D8E
100
AcDbEntity
 67
     1
  8
SUNPOU
 62
     0
100
AcDbText
 10
374.1863124306944
 20
60.86794705907585
 30
0.0
 40
3.5
  1
縮尺 1/1
  7
ゴシック体
100
AcDbText
  0
ENDSEC
  0
SECTION
  2
OBJECTS
  0
DICTIONARY
  5
C
330
0
100
AcDbDictionary
  3
ACAD_GROUP
350
D
  3
ACAD_LAYOUT
350
5C7D
  3
ACAD_MLINESTYLE
350
E
  3
ACAD_PLOTSETTINGS
350
5C7E
  3
ACAD_PLOTSTYLENAME
350
5C7B
  3
DWGPROPS
350
12861
  3
ACDBHEADERROUNDTRIPXREC
350
1A5B5
  0
DICTIONARY
  5
14053
330
2
100
AcDbDictionary
280
     1
  3
ACAD_LAYERFILTERS
360
14054
  0
DICTIONARY
  5
1A5D5
330
1A
100
AcDbDictionary
280
     1
  3
ACAD_LAYOUTSELFREF
360
1A5D6
  0
DICTIONARY
  5
1A5D7
330
5D8E
100
AcDbDictionary
280
     1
  3
ACAD_LAYOUTSELFREF
360
1A5D8
  0
DICTIONARY
  5
D
102
{ACAD_REACTORS
330
C
102
}
330
C
100
AcDbDictionary
  3
*A1
350
477D
  3
*A2
350
477E
  3
*A3
350
477F
  3
*A4
350
19BD4
  3
*A5
350
4780
  3
*A6
350
4C0F
  3
*A7
350
13E2E
  3
*A8
350
19B96
  3
*A9
350
4C10
  3
*A10
350
4C11
  3
*A11
350
4C12
  3
*A12
350
19E0C
  3
*A13
350
19B1E
  3
*A14
350
4C13
  3
*A15
350
19B97
  3
*A16
350
19BD5
  3
*A17
350
19B98
  3
*A18
350
19B99
  3
*A19
350
19B9A
  3
*A20
350
19BD3
  3
*A21
350
4781
  3
*A22
350
19BD6
  3
*A23
350
19E0D
  3
*A24
350
19DAA
  3
*A25
350
4C14
  3
*A26
350
19DAB
  3
*A27
350
19DB9
  3
*A28
350
19B30
  3
*A29
350
19E69
  3
*A30
350
4C15
  3
*A31
350
4C16
  3
*A32
350
4C0E
  3
*A33
350
4C17
  0
DICTIONARY
  5
5C7D
102
{ACAD_REACTORS
330
C
102
}
330
C
100
AcDbDictionary
  0
DICTIONARY
  5
E
102
{ACAD_REACTORS
330
C
102
}
330
C
100
AcDbDictionary
  3
STANDARD
350
13
  0
DICTIONARY
  5
5C7E
102
{ACAD_REACTORS
330
C
102
}
330
C
100
AcDbDictionary
  0
ACDBDICTIONARYWDFLT
  5
5C7B
102
{ACAD_REACTORS
330
C
102
}
330
C
100
AcDbDictionary
281
     1
  3
Normal
350
5C7C
100
AcDbDictionaryWithDefault
340
5C7C
  0
XRECORD
  5
12861
102
{ACAD_REACTORS
330
C
102
}
330
C
100
AcDbXrecord
  1
DWGPROPS COOKIE
  2

  3

  4

  6

  7

  8

  9

300
=
301
=
302
=
303
=
304
=
305
=
306
=
307
=
308
=
309
=
 40
1.583646701388888
 41
2450495.493631365
 42
2455325.72058449
  1

 90
        0
  0
DICTIONARY
  5
1A5B5
102
{ACAD_REACTORS
330
C
102
}
330
C
100
AcDbDictionary
  3
TSTACKALIGN
350
1A5B6
  3
TSTACKSIZE
350
1A5B7
  3
HYPERLINKBASE
350
1A5B8
  3
STYLESHEET
350
1A5B9
  3
LAYOUTDICT
350
1A5BA
  3
PLOTSETDICT
350
1A5BB
  3
PLOTSTYLNAMDICT
350
1A5BC
  3
LWETCUNION
350
1A5BD
  3
INSUNITS
350
1A5BE
  3
CEPSNTYPE
350
1A5BF
  3
FINGERPRINTGUID
350
1A5C0
  3
VERSIONGUID
350
1A5C1
  3
PSVPSCALE
350
1A5C2
  3
PUCSORTHOREF
350
1A5C3
  3
PUCSORTHOVIEW
350
1A5C4
  3
PUCSBASE
350
1A5C5
  3
PUCSORGTOP
350
1A5C6
  3
PUCSORGBOTTOM
350
1A5C7
  3
PUCSORGLEFT
350
1A5C8
  3
PUCSORGRIGHT
350
1A5C9
  3
PUCSORGFRONT
350
1A5CA
  3
PUCSORGBACK
350
1A5CB
  3
UCSORTHOREF
350
1A5CC
  3
UCSORTHOVIEW
350
1A5CD
  3
UCSBASE
350
1A5CE
  3
UCSORGTOP
350
1A5CF
  3
UCSORGBOTTOM
350
1A5D0
  3
UCSORGLEFT
350
1A5D1
  3
UCSORGRIGHT
350
1A5D2
  3
UCSORGFRONT
350
1A5D3
  3
UCSORGBACK
350
1A5D4
  0
DICTIONARY
  5
14054
102
{ACAD_REACTORS
330
14053
102
}
330
14053
100
AcDbDictionary
280
     1
  3
BASE
360
14055
  3
CASE
360
14056
  3
KIKOU
360
14057
  0
XRECORD
  5
1A5D6
102
{ACAD_REACTORS
330
1A5D5
102
}
330
1A5D5
100
AcDbXrecord
340
1A
  0
XRECORD
  5
1A5D8
102
{ACAD_REACTORS
330
1A5D7
102
}
330
1A5D7
100
AcDbXrecord
340
5D8E
  0
GROUP
  5
477D
102
{ACAD_REACTORS
330
D
102
}
330
D
100
AcDbGroup
300

 70
     1
 71
     1
  0
GROUP
  5
477E
102
{ACAD_REACTORS
330
D
102
}
330
D
100
AcDbGroup
300

 70
     1
 71
     1
  0
GROUP
  5
477F
102
{ACAD_REACTORS
330
D
102
}
330
D
100
AcDbGroup
300

 70
     1
 71
     1
  0
GROUP
  5
19BD4
102
{ACAD_REACTORS
330
D
102
}
330
D
100
AcDbGroup
300

 70
     1
 71
     1
  0
GROUP
  5
4780
102
{ACAD_REACTORS
330
D
102
}
330
D
100
AcDbGroup
300

 70
     1
 71
     1
  0
GROUP
  5
4C0F
102
{ACAD_REACTORS
330
D
102
}
330
D
100
AcDbGroup
300

 70
     1
 71
     1
  0
GROUP
  5
13E2E
102
{ACAD_REACTORS
330
D
102
}
330
D
100
AcDbGroup
300

 70
     1
 71
     1
  0
GROUP
  5
19B96
102
{ACAD_REACTORS
330
D
102
}
330
D
100
AcDbGroup
300

 70
     1
 71
     1
  0
GROUP
  5
4C10
102
{ACAD_REACTORS
330
D
102
}
330
D
100
AcDbGroup
300

 70
     1
 71
     1
  0
GROUP
  5
4C11
102
{ACAD_REACTORS
330
D
102
}
330
D
100
AcDbGroup
300

 70
     1
 71
     1
  0
GROUP
  5
4C12
102
{ACAD_REACTORS
330
D
102
}
330
D
100
AcDbGroup
300

 70
     1
 71
     1
  0
GROUP
  5
19E0C
102
{ACAD_REACTORS
330
D
102
}
330
D
100
AcDbGroup
300

 70
     1
 71
     1
  0
GROUP
  5
19B1E
102
{ACAD_REACTORS
330
D
102
}
330
D
100
AcDbGroup
300

 70
     1
 71
     1
  0
GROUP
  5
4C13
102
{ACAD_REACTORS
330
D
102
}
330
D
100
AcDbGroup
300

 70
     1
 71
     1
  0
GROUP
  5
19B97
102
{ACAD_REACTORS
330
D
102
}
330
D
100
AcDbGroup
300

 70
     1
 71
     1
  0
GROUP
  5
19BD5
102
{ACAD_REACTORS
330
D
102
}
330
D
100
AcDbGroup
300

 70
     1
 71
     1
  0
GROUP
  5
19B98
102
{ACAD_REACTORS
330
D
102
}
330
D
100
AcDbGroup
300

 70
     1
 71
     1
  0
GROUP
  5
19B99
102
{ACAD_REACTORS
330
D
102
}
330
D
100
AcDbGroup
300

 70
     1
 71
     1
  0
GROUP
  5
19B9A
102
{ACAD_REACTORS
330
D
102
}
330
D
100
AcDbGroup
300

 70
     1
 71
     1
  0
GROUP
  5
19BD3
102
{ACAD_REACTORS
330
D
102
}
330
D
100
AcDbGroup
300

 70
     1
 71
     1
  0
GROUP
  5
4781
102
{ACAD_REACTORS
330
D
102
}
330
D
100
AcDbGroup
300

 70
     1
 71
     1
  0
GROUP
  5
19BD6
102
{ACAD_REACTORS
330
D
102
}
330
D
100
AcDbGroup
300

 70
     1
 71
     1
  0
GROUP
  5
19E0D
102
{ACAD_REACTORS
330
D
102
}
330
D
100
AcDbGroup
300

 70
     1
 71
     1
  0
GROUP
  5
19DAA
102
{ACAD_REACTORS
330
D
102
}
330
D
100
AcDbGroup
300

 70
     1
 71
     1
  0
GROUP
  5
4C14
102
{ACAD_REACTORS
330
D
102
}
330
D
100
AcDbGroup
300

 70
     1
 71
     1
  0
GROUP
  5
19DAB
102
{ACAD_REACTORS
330
D
102
}
330
D
100
AcDbGroup
300

 70
     1
 71
     1
  0
GROUP
  5
19DB9
102
{ACAD_REACTORS
330
D
102
}
330
D
100
AcDbGroup
300

 70
     1
 71
     1
  0
GROUP
  5
19B30
102
{ACAD_REACTORS
330
D
102
}
330
D
100
AcDbGroup
300

 70
     1
 71
     1
  0
GROUP
  5
19E69
102
{ACAD_REACTORS
330
D
102
}
330
D
100
AcDbGroup
300

 70
     1
 71
     1
  0
GROUP
  5
4C15
102
{ACAD_REACTORS
330
D
102
}
330
D
100
AcDbGroup
300

 70
     1
 71
     1
  0
GROUP
  5
4C16
102
{ACAD_REACTORS
330
D
102
}
330
D
100
AcDbGroup
300

 70
     1
 71
     1
  0
GROUP
  5
4C0E
102
{ACAD_REACTORS
330
D
102
}
330
D
100
AcDbGroup
300

 70
     1
 71
     1
  0
GROUP
  5
4C17
102
{ACAD_REACTORS
330
D
102
}
330
D
100
AcDbGroup
300

 70
     1
 71
     1
  0
MLINESTYLE
  5
13
102
{ACAD_REACTORS
330
E
102
}
330
E
100
AcDbMlineStyle
  2
STANDARD
 70
     0
  3

 62
     0
 51
90.0
 52
90.0
 71
     2
 49
0.5
 62
   256
  6
BYLAYER
 49
-0.5
 62
   256
  6
BYLAYER
  0
ACDBPLACEHOLDER
  5
5C7C
102
{ACAD_REACTORS
330
5C7B
102
}
330
5C7B
100
AcDbPlaceHolder
280
     0
  0
XRECORD
  5
1A5B6
102
{ACAD_REACTORS
330
1A5B5
102
}
330
1A5B5
100
AcDbXrecord
 90
        1
  0
XRECORD
  5
1A5B7
102
{ACAD_REACTORS
330
1A5B5
102
}
330
1A5B5
100
AcDbXrecord
 90
       70
  0
XRECORD
  5
1A5B8
102
{ACAD_REACTORS
330
1A5B5
102
}
330
1A5B5
100
AcDbXrecord
  1

  0
XRECORD
  5
1A5B9
102
{ACAD_REACTORS
330
1A5B5
102
}
330
1A5B5
100
AcDbXrecord
  1

  0
XRECORD
  5
1A5BA
102
{ACAD_REACTORS
330
1A5B5
102
}
330
1A5B5
100
AcDbXrecord
340
5C7D
  0
XRECORD
  5
1A5BB
102
{ACAD_REACTORS
330
1A5B5
102
}
330
1A5B5
100
AcDbXrecord
340
5C7E
  0
XRECORD
  5
1A5BC
102
{ACAD_REACTORS
330
1A5B5
102
}
330
1A5B5
100
AcDbXrecord
340
5C7B
  0
XRECORD
  5
1A5BD
102
{ACAD_REACTORS
330
1A5B5
102
}
330
1A5B5
100
AcDbXrecord
 90
    10781
  0
XRECORD
  5
1A5BE
102
{ACAD_REACTORS
330
1A5B5
102
}
330
1A5B5
100
AcDbXrecord
 90
        0
  0
XRECORD
  5
1A5BF
102
{ACAD_REACTORS
330
1A5B5
102
}
330
1A5B5
100
AcDbXrecord
 90
        0
  0
XRECORD
  5
1A5C0
102
{ACAD_REACTORS
330
1A5B5
102
}
330
1A5B5
100
AcDbXrecord
  1
{225A7F0D-DA29-11D8-946A-0000E2416295}
  0
XRECORD
  5
1A5C1
102
{ACAD_REACTORS
330
1A5B5
102
}
330
1A5B5
100
AcDbXrecord
  1
{6851177B-9411-42C5-ADDF-159CE785BD3C}
  0
XRECORD
  5
1A5C2
102
{ACAD_REACTORS
330
1A5B5
102
}
330
1A5B5
100
AcDbXrecord
 40
0.0
  0
XRECORD
  5
1A5C3
102
{ACAD_REACTORS
330
1A5B5
102
}
330
1A5B5
100
AcDbXrecord
340
0
  0
XRECORD
  5
1A5C4
102
{ACAD_REACTORS
330
1A5B5
102
}
330
1A5B5
100
AcDbXrecord
 70
     0
  0
XRECORD
  5
1A5C5
102
{ACAD_REACTORS
330
1A5B5
102
}
330
1A5B5
100
AcDbXrecord
340
0
  0
XRECORD
  5
1A5C6
102
{ACAD_REACTORS
330
1A5B5
102
}
330
1A5B5
100
AcDbXrecord
 10
0.0
 20
0.0
 30
0.0
  0
XRECORD
  5
1A5C7
102
{ACAD_REACTORS
330
1A5B5
102
}
330
1A5B5
100
AcDbXrecord
 10
0.0
 20
0.0
 30
0.0
  0
XRECORD
  5
1A5C8
102
{ACAD_REACTORS
330
1A5B5
102
}
330
1A5B5
100
AcDbXrecord
 10
0.0
 20
0.0
 30
0.0
  0
XRECORD
  5
1A5C9
102
{ACAD_REACTORS
330
1A5B5
102
}
330
1A5B5
100
AcDbXrecord
 10
0.0
 20
0.0
 30
0.0
  0
XRECORD
  5
1A5CA
102
{ACAD_REACTORS
330
1A5B5
102
}
330
1A5B5
100
AcDbXrecord
 10
0.0
 20
0.0
 30
0.0
  0
XRECORD
  5
1A5CB
102
{ACAD_REACTORS
330
1A5B5
102
}
330
1A5B5
100
AcDbXrecord
 10
0.0
 20
0.0
 30
0.0
  0
XRECORD
  5
1A5CC
102
{ACAD_REACTORS
330
1A5B5
102
}
330
1A5B5
100
AcDbXrecord
340
0
  0
XRECORD
  5
1A5CD
102
{ACAD_REACTORS
330
1A5B5
102
}
330
1A5B5
100
AcDbXrecord
 70
     0
  0
XRECORD
  5
1A5CE
102
{ACAD_REACTORS
330
1A5B5
102
}
330
1A5B5
100
AcDbXrecord
340
0
  0
XRECORD
  5
1A5CF
102
{ACAD_REACTORS
330
1A5B5
102
}
330
1A5B5
100
AcDbXrecord
 10
0.0
 20
0.0
 30
0.0
  0
XRECORD
  5
1A5D0
102
{ACAD_REACTORS
330
1A5B5
102
}
330
1A5B5
100
AcDbXrecord
 10
0.0
 20
0.0
 30
0.0
  0
XRECORD
  5
1A5D1
102
{ACAD_REACTORS
330
1A5B5
102
}
330
1A5B5
100
AcDbXrecord
 10
0.0
 20
0.0
 30
0.0
  0
XRECORD
  5
1A5D2
102
{ACAD_REACTORS
330
1A5B5
102
}
330
1A5B5
100
AcDbXrecord
 10
0.0
 20
0.0
 30
0.0
  0
XRECORD
  5
1A5D3
102
{ACAD_REACTORS
330
1A5B5
102
}
330
1A5B5
100
AcDbXrecord
 10
0.0
 20
0.0
 30
0.0
  0
XRECORD
  5
1A5D4
102
{ACAD_REACTORS
330
1A5B5
102
}
330
1A5B5
100
AcDbXrecord
 10
0.0
 20
0.0
 30
0.0
  0
XRECORD
  5
14055
102
{ACAD_REACTORS
330
14054
102
}
330
14054
100
AcDbXrecord
  1
BASE
  1
BASE*
  1
*
  1
*
 70
     0
  1
*
  1
*
  0
XRECORD
  5
14056
102
{ACAD_REACTORS
330
14054
102
}
330
14054
100
AcDbXrecord
  1
CASE
  1
CASE*
  1
*
  1
*
 70
     0
  1
*
  1
*
  0
XRECORD
  5
14057
102
{ACAD_REACTORS
330
14054
102
}
330
14054
100
AcDbXrecord
  1
KIKOU
  1
KIKOU*
  1
*
  1
*
 70
     0
  1
*
  1
*
  0
ENDSEC
  0
EOF
