  0
SECTION
  2
HEADER
  9
$ACADVER
  1
AC1014
  9
$ACADMAINTVER
 70
     9
  9
$DWGCODEPAGE
  3
ANSI_932
  9
$INSBASE
 10
0.0
 20
0.0
 30
0.0
  9
$EXTMIN
 10
-1718.810221192393
 20
1653.597331290401
 30
0.0
  9
$EXTMAX
 10
-1551.0
 20
1835.705541599433
 30
0.0
  9
$LIMMIN
 10
0.0
 20
0.0
  9
$LIMMAX
 10
420.0
 20
297.0
  9
$ORTHOMODE
 70
     0
  9
$REGENMODE
 70
     1
  9
$FILLMODE
 70
     1
  9
$QTEXTMODE
 70
     0
  9
$MIRRTEXT
 70
     1
  9
$DRAGMODE
 70
     2
  9
$LTSCALE
 40
1.0
  9
$OSMODE
 70
    37
  9
$ATTMODE
 70
     1
  9
$TEXTSIZE
 40
2.5
  9
$TRACEWID
 40
1.0
  9
$TEXTSTYLE
  7
ゴシック体
  9
$CLAYER
  8
ZISSEN1
  9
$CELTYPE
  6
BYLAYER
  9
$CECOLOR
 62
   256
  9
$CELTSCALE
 40
1.0
  9
$DELOBJ
 70
     1
  9
$DISPSILH
 70
     0
  9
$DIMSCALE
 40
0.0
  9
$DIMASZ
 40
3.0
  9
$DIMEXO
 40
0.5
  9
$DIMDLI
 40
0.5
  9
$DIMRND
 40
0.0
  9
$DIMDLE
 40
0.0
  9
$DIMEXE
 40
0.5
  9
$DIMTP
 40
0.0
  9
$DIMTM
 40
0.0
  9
$DIMTXT
 40
3.5
  9
$DIMCEN
 40
0.0
  9
$DIMTSZ
 40
0.0
  9
$DIMTOL
 70
     0
  9
$DIMLIM
 70
     0
  9
$DIMTIH
 70
     0
  9
$DIMTOH
 70
     0
  9
$DIMSE1
 70
     0
  9
$DIMSE2
 70
     0
  9
$DIMTAD
 70
     1
  9
$DIMZIN
 70
     8
  9
$DIMBLK
  1

  9
$DIMASO
 70
     1
  9
$DIMSHO
 70
     1
  9
$DIMPOST
  1

  9
$DIMAPOST
  1

  9
$DIMALT
 70
     0
  9
$DIMALTD
 70
     2
  9
$DIMALTF
 40
25.4
  9
$DIMLFAC
 40
1.0
  9
$DIMTOFL
 70
     1
  9
$DIMTVP
 40
0.0
  9
$DIMTIX
 70
     0
  9
$DIMSOXD
 70
     0
  9
$DIMSAH
 70
     0
  9
$DIMBLK1
  1

  9
$DIMBLK2
  1

  9
$DIMSTYLE
  2
標準スタイル
  9
$DIMCLRD
 70
     1
  9
$DIMCLRE
 70
     1
  9
$DIMCLRT
 70
     1
  9
$DIMTFAC
 40
1.0
  9
$DIMGAP
 40
1.0
  9
$DIMJUST
 70
     0
  9
$DIMSD1
 70
     0
  9
$DIMSD2
 70
     0
  9
$DIMTOLJ
 70
     1
  9
$DIMTZIN
 70
     8
  9
$DIMALTZ
 70
     0
  9
$DIMALTTZ
 70
     0
  9
$DIMFIT
 70
     3
  9
$DIMUPT
 70
     0
  9
$DIMUNIT
 70
     2
  9
$DIMDEC
 70
     2
  9
$DIMTDEC
 70
     2
  9
$DIMALTU
 70
     2
  9
$DIMALTTD
 70
     2
  9
$DIMTXSTY
  7
ゴシック体
  9
$DIMAUNIT
 70
     0
  9
$LUNITS
 70
     2
  9
$LUPREC
 70
     4
  9
$SKETCHINC
 40
1.0
  9
$FILLETRAD
 40
1.75
  9
$AUNITS
 70
     0
  9
$AUPREC
 70
     0
  9
$MENU
  1
.
  9
$ELEVATION
 40
0.0
  9
$PELEVATION
 40
0.0
  9
$THICKNESS
 40
0.0
  9
$LIMCHECK
 70
     0
  9
$BLIPMODE
 70
     0
  9
$CHAMFERA
 40
1.0
  9
$CHAMFERB
 40
1.0
  9
$CHAMFERC
 40
2.0
  9
$CHAMFERD
 40
0.7853981633974483
  9
$SKPOLY
 70
     0
  9
$TDCREATE
 40
2450495.493631365
  9
$TDUPDATE
 40
2454572.446165069
  9
$TDINDWG
 40
1.8459125810
  9
$TDUSRTIMER
 40
1.8459089815
  9
$USRTIMER
 70
     1
  9
$ANGBASE
 50
0.0
  9
$ANGDIR
 70
     0
  9
$PDMODE
 70
    99
  9
$PDSIZE
 40
0.0
  9
$PLINEWID
 40
0.0
  9
$COORDS
 70
     1
  9
$SPLFRAME
 70
     0
  9
$SPLINETYPE
 70
     6
  9
$SPLINESEGS
 70
     8
  9
$ATTDIA
 70
     0
  9
$ATTREQ
 70
     1
  9
$HANDLING
 70
 10241
  9
$HANDSEED
  5
1348C
  9
$SURFTAB1
 70
     6
  9
$SURFTAB2
 70
     6
  9
$SURFTYPE
 70
     6
  9
$SURFU
 70
     6
  9
$SURFV
 70
     6
  9
$UCSNAME
  2

  9
$UCSORG
 10
0.0
 20
0.0
 30
0.0
  9
$UCSXDIR
 10
1.0
 20
0.0
 30
0.0
  9
$UCSYDIR
 10
0.0
 20
1.0
 30
0.0
  9
$PUCSNAME
  2

  9
$PUCSORG
 10
0.0
 20
0.0
 30
0.0
  9
$PUCSXDIR
 10
1.0
 20
0.0
 30
0.0
  9
$PUCSYDIR
 10
0.0
 20
1.0
 30
0.0
  9
$USERI1
 70
     0
  9
$USERI2
 70
     0
  9
$USERI3
 70
     0
  9
$USERI4
 70
     0
  9
$USERI5
 70
     0
  9
$USERR1
 40
0.0
  9
$USERR2
 40
0.0
  9
$USERR3
 40
0.0
  9
$USERR4
 40
0.0
  9
$USERR5
 40
0.0
  9
$WORLDVIEW
 70
     1
  9
$SHADEDGE
 70
     3
  9
$SHADEDIF
 70
    70
  9
$TILEMODE
 70
     0
  9
$MAXACTVP
 70
    16
  9
$PINSBASE
 10
0.0
 20
0.0
 30
0.0
  9
$PLIMCHECK
 70
     0
  9
$PEXTMIN
 10
29.03619555254121
 20
27.69602733303884
 30
0.0
  9
$PEXTMAX
 10
414.5361955525409
 20
287.6960273330388
 30
0.0
  9
$PLIMMIN
 10
11.80562980258564
 20
9.186558858822655
  9
$PLIMMAX
 10
431.7522850760231
 20
306.1972094935882
  9
$UNITMODE
 70
     0
  9
$VISRETAIN
 70
     0
  9
$PLINEGEN
 70
     0
  9
$PSLTSCALE
 70
     1
  9
$TREEDEPTH
 70
  3020
  9
$PICKSTYLE
 70
     1
  9
$CMLSTYLE
  2
STANDARD
  9
$CMLJUST
 70
     0
  9
$CMLSCALE
 40
1.0
  9
$PROXYGRAPHICS
 70
     1
  9
$MEASUREMENT
 70
     1
  0
ENDSEC
  0
SECTION
  2
CLASSES
  0
CLASS
  1
LWPOLYLINE
  2
AcDbPolyline
  3
AutoCAD 2000
 90
        0
280
     0
281
     1
  0
CLASS
  1
HATCH
  2
AcDbHatch
  3
AutoCAD 2000
 90
        0
280
     0
281
     1
  0
CLASS
  1
ACDBDICTIONARYWDFLT
  2
AcDbDictionaryWithDefault
  3
AutoCAD 2000
 90
        0
280
     0
281
     0
  0
CLASS
  1
ACDBPLACEHOLDER
  2
AcDbPlaceHolder
  3
AutoCAD 2000
 90
        0
280
     0
281
     0
  0
CLASS
  1
LAYOUT
  2
AcDbLayout
  3
AutoCAD 2000
 90
        0
280
     0
281
     0
  0
CLASS
  1
DICTIONARYVAR
  2
AcDbDictionaryVar
  3
AutoCAD 2000
 90
        0
280
     0
281
     0
  0
CLASS
  1
LONG_TRANSACTION
  2
AcDbLongTransaction
  3
AutoCAD 2000
 90
        0
280
     0
281
     0
  0
CLASS
  1
LWPOLYLINE
  2
AcDbPolyline
  3
AutoCAD 2000
 90
        0
280
     0
281
     1
  0
CLASS
  1
HATCH
  2
AcDbHatch
  3
AutoCAD 2000
 90
        0
280
     0
281
     1
  0
CLASS
  1
XRECORD
  2
AcDbXrecord
  3
AutoCAD 2000
 90
        0
280
     0
281
     0
  0
CLASS
  1
LONG_TRANSACTION
  2
AcDbLongTransaction
  3
AutoCAD 2000
 90
        0
280
     0
281
     0
  0
CLASS
  1
LWPOLYLINE
  2
AcDbPolyline
  3
AutoCAD 2000
 90
        0
280
     0
281
     1
  0
CLASS
  1
HATCH
  2
AcDbHatch
  3
AutoCAD 2000
 90
        0
280
     0
281
     1
  0
CLASS
  1
XRECORD
  2
AcDbXrecord
  3
AutoCAD 2000
 90
        0
280
     0
281
     0
  0
ENDSEC
  0
SECTION
  2
TABLES
  0
TABLE
  2
VPORT
  5
8
330
0
100
AcDbSymbolTable
 70
     2
  0
VPORT
  5
1344A
330
8
100
AcDbSymbolTableRecord
100
AcDbViewportTableRecord
  2
*ACTIVE
 70
     0
 10
0.0
 20
0.0
 11
1.0
 21
1.0
 12
-1596.926821832892
 22
1744.651361456652
 13
0.0
 23
0.0
 14
5.0
 24
5.0
 15
0.0
 25
0.0
 16
0.0
 26
0.0
 36
1.0
 17
0.0
 27
0.0
 37
0.0
 40
184.3189658042083
 41
2.173535791757049
 42
50.0
 43
0.0
 44
0.0
 50
0.0
 51
0.0
 71
     0
 72
   100
 73
     1
 74
     0
 75
     0
 76
     0
 77
     0
 78
     0
  0
ENDTAB
  0
TABLE
  2
LTYPE
  5
5
330
0
100
AcDbSymbolTable
 70
     2
  0
LTYPE
  5
14
330
5
100
AcDbSymbolTableRecord
100
AcDbLinetypeTableRecord
  2
BYBLOCK
 70
     0
  3

 72
    65
 73
     0
 40
0.0
  0
LTYPE
  5
15
330
5
100
AcDbSymbolTableRecord
100
AcDbLinetypeTableRecord
  2
BYLAYER
 70
     0
  3

 72
    65
 73
     0
 40
0.0
  0
LTYPE
  5
16
330
5
100
AcDbSymbolTableRecord
100
AcDbLinetypeTableRecord
  2
CONTINUOUS
 70
     0
  3
Solid line
 72
    65
 73
     0
 40
0.0
  0
LTYPE
  5
1956
330
5
100
AcDbSymbolTableRecord
100
AcDbLinetypeTableRecord
  2
CENTERX2
 70
     0
  3
________  __  ________  __  ________  __  _____
 72
    65
 73
     4
 40
4.0
 49
2.5
 74
     0
 49
-0.5
 74
     0
 49
0.5
 74
     0
 49
-0.5
 74
     0
  0
ENDTAB
  0
TABLE
  2
LAYER
  5
2
330
0
100
AcDbSymbolTable
 70
     5
  0
LAYER
  5
F
330
2
100
AcDbSymbolTableRecord
100
AcDbLayerTableRecord
  2
0
 70
     0
 62
     7
  6
CONTINUOUS
  0
LAYER
  5
18F
330
2
100
AcDbSymbolTableRecord
100
AcDbLayerTableRecord
  2
ZISSEN1
 70
     0
 62
     7
  6
CONTINUOUS
  0
LAYER
  5
529
330
2
100
AcDbSymbolTableRecord
100
AcDbLayerTableRecord
  2
SUNPOU
 70
     0
 62
     1
  6
CONTINUOUS
  0
LAYER
  5
195A
330
2
100
AcDbSymbolTableRecord
100
AcDbLayerTableRecord
  2
CL1
 70
     0
 62
   210
  6
CENTERX2
  0
LAYER
  5
3A9B
330
2
100
AcDbSymbolTableRecord
100
AcDbLayerTableRecord
  2
DEFPOINTS
 70
     0
 62
     7
  6
CONTINUOUS
  0
ENDTAB
  0
TABLE
  2
STYLE
  5
3
330
0
100
AcDbSymbolTable
 70
     2
  0
STYLE
  5
10
330
3
100
AcDbSymbolTableRecord
100
AcDbTextStyleTableRecord
  2
STANDARD
 70
     0
 40
0.0
 41
1.0
 50
0.0
 71
     0
 42
3.0
  3
txt
  4
BigFont
  0
STYLE
  5
1960
330
3
100
AcDbSymbolTableRecord
100
AcDbTextStyleTableRecord
  2
ゴシック体
 70
     0
 40
0.0
 41
1.0
 50
0.0
 71
     0
 42
2.5
  3
MS Gothic.ttf
  4

1001
ACAD
1000
MS Gothic
1071
    32817
  0
ENDTAB
  0
TABLE
  2
VIEW
  5
6
330
0
100
AcDbSymbolTable
 70
     0
  0
ENDTAB
  0
TABLE
  2
UCS
  5
7
330
0
100
AcDbSymbolTable
 70
     0
  0
ENDTAB
  0
TABLE
  2
APPID
  5
9
330
0
100
AcDbSymbolTable
 70
     5
  0
APPID
  5
11
330
9
100
AcDbSymbolTableRecord
100
AcDbRegAppTableRecord
  2
ACAD
 70
     0
  0
APPID
  5
4005
330
9
100
AcDbSymbolTableRecord
100
AcDbRegAppTableRecord
  2
CONTENTTABDATA
 70
     0
  0
APPID
  5
4006
330
9
100
AcDbSymbolTableRecord
100
AcDbRegAppTableRecord
  2
CONTENTCURRENTTAB
 70
     0
  0
APPID
  5
477B
330
9
100
AcDbSymbolTableRecord
100
AcDbRegAppTableRecord
  2
CONTENTBLOCKDESCRIPTION
 70
     0
  0
APPID
  5
477C
330
9
100
AcDbSymbolTableRecord
100
AcDbRegAppTableRecord
  2
CONTENTBLOCKICON
 70
     0
  0
ENDTAB
  0
TABLE
  2
DIMSTYLE
  5
A
330
0
100
AcDbSymbolTable
 70
     2
  0
DIMSTYLE
105
1D
330
A
100
AcDbSymbolTableRecord
100
AcDbDimStyleTableRecord
  2
STANDARD
 70
     0
  3

  4

  5

  6

  7

 40
1.0
 41
0.18
 42
0.0625
 43
0.38
 44
0.18
 45
0.0
 46
0.0
 47
0.0
 48
0.0
140
0.18
141
0.09
142
0.0
143
25.4
144
1.0
145
0.0
146
1.0
147
0.09
 71
     0
 72
     0
 73
     1
 74
     1
 75
     0
 76
     0
 77
     0
 78
     0
170
     0
171
     2
172
     0
173
     0
174
     0
175
     0
176
     0
177
     0
178
     0
270
     2
271
     4
272
     4
273
     2
274
     2
340
10
275
     0
280
     0
281
     0
282
     0
283
     1
284
     0
285
     0
286
     0
287
     3
288
     0
  0
DIMSTYLE
105
52E
102
{ACAD_REACTORS
330
12B36
330
12B43
330
12B5F
330
12B6C
330
12B7B
330
12B8A
330
12B99
330
12BA6
330
12BC0
330
12BDC
330
12BE9
330
12ECB
330
12F11
330
12F60
330
12FBD
330
12FCA
102
}
330
A
100
AcDbSymbolTableRecord
100
AcDbDimStyleTableRecord
  2
標準スタイル
 70
     0
  3

  4

  5

  6

  7

 40
0.0
 41
3.0
 42
0.5
 43
0.5
 44
0.5
 45
0.0
 46
0.0
 47
0.0
 48
0.0
140
3.5
141
0.0
142
0.0
143
25.4
144
1.0
145
0.0
146
1.0
147
1.0
 71
     0
 72
     0
 73
     0
 74
     0
 75
     0
 76
     0
 77
     1
 78
     8
170
     0
171
     2
172
     1
173
     0
174
     0
175
     0
176
     1
177
     1
178
     1
270
     2
271
     2
272
     2
273
     2
274
     2
340
1960
275
     0
280
     0
281
     0
282
     0
283
     1
284
     8
285
     0
286
     0
287
     3
288
     0
  0
ENDTAB
  0
TABLE
  2
BLOCK_RECORD
  5
1
330
0
100
AcDbSymbolTable
 70
    16
  0
BLOCK_RECORD
  5
1A
102
{ACAD_XDICTIONARY
360
12CF1
102
}
330
1
100
AcDbSymbolTableRecord
100
AcDbBlockTableRecord
  2
*MODEL_SPACE
  0
BLOCK_RECORD
  5
5D8E
102
{ACAD_XDICTIONARY
360
12CF3
102
}
330
1
100
AcDbSymbolTableRecord
100
AcDbBlockTableRecord
  2
*PAPER_SPACE
  0
BLOCK_RECORD
  5
12B37
330
1
100
AcDbSymbolTableRecord
100
AcDbBlockTableRecord
  2
*D0
  0
BLOCK_RECORD
  5
12B44
330
1
100
AcDbSymbolTableRecord
100
AcDbBlockTableRecord
  2
*D1
  0
BLOCK_RECORD
  5
12B60
330
1
100
AcDbSymbolTableRecord
100
AcDbBlockTableRecord
  2
*D2
  0
BLOCK_RECORD
  5
12B6D
330
1
100
AcDbSymbolTableRecord
100
AcDbBlockTableRecord
  2
*D3
  0
BLOCK_RECORD
  5
12B7C
330
1
100
AcDbSymbolTableRecord
100
AcDbBlockTableRecord
  2
*D4
  0
BLOCK_RECORD
  5
12B8B
330
1
100
AcDbSymbolTableRecord
100
AcDbBlockTableRecord
  2
*D5
  0
BLOCK_RECORD
  5
12B9A
330
1
100
AcDbSymbolTableRecord
100
AcDbBlockTableRecord
  2
*D6
  0
BLOCK_RECORD
  5
12BA7
330
1
100
AcDbSymbolTableRecord
100
AcDbBlockTableRecord
  2
*D7
  0
BLOCK_RECORD
  5
12BC1
330
1
100
AcDbSymbolTableRecord
100
AcDbBlockTableRecord
  2
*D8
  0
BLOCK_RECORD
  5
12BDD
330
1
100
AcDbSymbolTableRecord
100
AcDbBlockTableRecord
  2
*D9
  0
BLOCK_RECORD
  5
12BEA
330
1
100
AcDbSymbolTableRecord
100
AcDbBlockTableRecord
  2
*D10
  0
BLOCK_RECORD
  5
12ECC
330
1
100
AcDbSymbolTableRecord
100
AcDbBlockTableRecord
  2
*D11
  0
BLOCK_RECORD
  5
12F12
330
1
100
AcDbSymbolTableRecord
100
AcDbBlockTableRecord
  2
*D12
  0
BLOCK_RECORD
  5
12F61
330
1
100
AcDbSymbolTableRecord
100
AcDbBlockTableRecord
  2
*D13
  0
BLOCK_RECORD
  5
12FBE
330
1
100
AcDbSymbolTableRecord
100
AcDbBlockTableRecord
  2
*D14
  0
BLOCK_RECORD
  5
12FCB
330
1
100
AcDbSymbolTableRecord
100
AcDbBlockTableRecord
  2
*D15
  0
ENDTAB
  0
ENDSEC
  0
SECTION
  2
BLOCKS
  0
BLOCK
  5
1B
330
1A
100
AcDbEntity
  8
0
100
AcDbBlockBegin
  2
*MODEL_SPACE
 70
     0
 10
0.0
 20
0.0
 30
0.0
  3
*MODEL_SPACE
  1

  0
ENDBLK
  5
1C
330
1A
100
AcDbEntity
  8
0
100
AcDbBlockEnd
  0
BLOCK
  5
5E60
330
5D8E
100
AcDbEntity
 67
     1
  8
0
100
AcDbBlockBegin
  2
*PAPER_SPACE
 70
     0
 10
0.0
 20
0.0
 30
0.0
  3
*PAPER_SPACE
  1

  0
ENDBLK
  5
5E61
330
5D8E
100
AcDbEntity
 67
     1
  8
0
100
AcDbBlockEnd
  0
BLOCK
  5
12B41
330
12B37
100
AcDbEntity
  8
0
100
AcDbBlockBegin
  2
*D0
 70
     1
 10
0.0
 20
0.0
 30
0.0
  3
*D0
  1

  0
LINE
  5
1334B
330
12B37
100
AcDbEntity
  8
SUNPOU
 62
     1
100
AcDbLine
 10
-1703.5
 20
1807.0
 30
0.0
 11
-1714.810221192393
 21
1807.0
 31
0.0
  0
LINE
  5
1334C
330
12B37
100
AcDbEntity
  8
SUNPOU
 62
     1
100
AcDbLine
 10
-1703.5
 20
1750.0
 30
0.0
 11
-1714.810221192393
 21
1750.0
 31
0.0
  0
LINE
  5
1334D
330
12B37
100
AcDbEntity
  8
SUNPOU
 62
     1
100
AcDbLine
 10
-1714.310221192392
 20
1804.0
 30
0.0
 11
-1714.310221192392
 21
1753.0
 31
0.0
  0
SOLID
  5
1334E
330
12B37
100
AcDbEntity
  8
SUNPOU
 62
     1
100
AcDbTrace
 10
-1714.810221192393
 20
1804.0
 30
0.0
 11
-1713.810221192392
 21
1804.0
 31
0.0
 12
-1714.310221192392
 22
1807.0
 32
0.0
 13
-1714.310221192392
 23
1807.0
 33
0.0
  0
SOLID
  5
1334F
330
12B37
100
AcDbEntity
  8
SUNPOU
 62
     1
100
AcDbTrace
 10
-1714.810221192393
 20
1753.0
 30
0.0
 11
-1713.810221192392
 21
1753.0
 31
0.0
 12
-1714.310221192392
 22
1750.0
 32
0.0
 13
-1714.310221192392
 23
1750.0
 33
0.0
  0
MTEXT
  5
13350
330
12B37
100
AcDbEntity
  8
SUNPOU
 62
     1
100
AcDbMText
 10
-1717.060221192393
 20
1778.499999999999
 30
0.0
 40
3.5
 41
0.0
 71
     5
 72
     1
  1
\A1;57
 11
0.0000000000000001
 21
1.0
 31
0.0
1001
ACAD
1000
MTEXTBEGIN
1070
    73
1070
     1
1070
    44
1040
1.0
1070
    74
1070
     0
1000
MTEXTEND
  0
POINT
  5
13351
330
12B37
100
AcDbEntity
  8
DEFPOINTS
 62
     0
100
AcDbPoint
 10
-1703.0
 20
1807.0
 30
0.0
  0
POINT
  5
13352
330
12B37
100
AcDbEntity
  8
DEFPOINTS
 62
     0
100
AcDbPoint
 10
-1703.0
 20
1750.0
 30
0.0
  0
POINT
  5
13353
330
12B37
100
AcDbEntity
  8
DEFPOINTS
 62
     0
100
AcDbPoint
 10
-1714.310221192392
 20
1750.0
 30
0.0
  0
ENDBLK
  5
12B42
330
12B37
100
AcDbEntity
  8
0
100
AcDbBlockEnd
  0
BLOCK
  5
12B4E
330
12B44
100
AcDbEntity
  8
0
100
AcDbBlockBegin
  2
*D1
 70
     1
 10
0.0
 20
0.0
 30
0.0
  3
*D1
  1

  0
LINE
  5
13385
330
12B44
100
AcDbEntity
  8
SUNPOU
 62
     1
100
AcDbLine
 10
-1638.5000235367
 20
1801.0
 30
0.0
 11
-1617.576810346925
 21
1801.0
 31
0.0
  0
LINE
  5
13386
330
12B44
100
AcDbEntity
  8
SUNPOU
 62
     1
100
AcDbLine
 10
-1638.5
 20
1750.0
 30
0.0
 11
-1617.576810346925
 21
1750.0
 31
0.0
  0
LINE
  5
13387
330
12B44
100
AcDbEntity
  8
SUNPOU
 62
     1
100
AcDbLine
 10
-1618.076810346924
 20
1798.0
 30
0.0
 11
-1618.076810346924
 21
1753.0
 31
0.0
  0
SOLID
  5
13388
330
12B44
100
AcDbEntity
  8
SUNPOU
 62
     1
100
AcDbTrace
 10
-1618.576810346924
 20
1798.0
 30
0.0
 11
-1617.576810346925
 21
1798.0
 31
0.0
 12
-1618.076810346924
 22
1801.0
 32
0.0
 13
-1618.076810346924
 23
1801.0
 33
0.0
  0
SOLID
  5
13389
330
12B44
100
AcDbEntity
  8
SUNPOU
 62
     1
100
AcDbTrace
 10
-1618.576810346924
 20
1753.0
 30
0.0
 11
-1617.576810346925
 21
1753.0
 31
0.0
 12
-1618.076810346924
 22
1750.0
 32
0.0
 13
-1618.076810346924
 23
1750.0
 33
0.0
  0
MTEXT
  5
1338A
330
12B44
100
AcDbEntity
  8
SUNPOU
 62
     1
100
AcDbMText
 10
-1620.826810346925
 20
1775.499999999999
 30
0.0
 40
3.5
 41
0.0
 71
     5
 72
     1
  1
\A1;51
 11
0.0000000000000001
 21
1.0
 31
0.0
1001
ACAD
1000
MTEXTBEGIN
1070
    73
1070
     1
1070
    44
1040
1.0
1070
    74
1070
     0
1000
MTEXTEND
  0
POINT
  5
1338B
330
12B44
100
AcDbEntity
  8
DEFPOINTS
 62
     0
100
AcDbPoint
 10
-1639.0000235367
 20
1801.0
 30
0.0
  0
POINT
  5
1338C
330
12B44
100
AcDbEntity
  8
DEFPOINTS
 62
     0
100
AcDbPoint
 10
-1639.0
 20
1750.0
 30
0.0
  0
POINT
  5
1338D
330
12B44
100
AcDbEntity
  8
DEFPOINTS
 62
     0
100
AcDbPoint
 10
-1618.076810346924
 20
1750.0
 30
0.0
  0
ENDBLK
  5
12B4F
330
12B44
100
AcDbEntity
  8
0
100
AcDbBlockEnd
  0
BLOCK
  5
12B6A
330
12B60
100
AcDbEntity
  8
0
100
AcDbBlockBegin
  2
*D2
 70
     1
 10
0.0
 20
0.0
 30
0.0
  3
*D2
  1

  0
LINE
  5
1338E
330
12B60
100
AcDbEntity
  8
SUNPOU
 62
     1
100
AcDbLine
 10
-1572.499999999999
 20
1805.0
 30
0.0
 11
-1591.590637220898
 21
1805.0
 31
0.0
  0
LINE
  5
1338F
330
12B60
100
AcDbEntity
  8
SUNPOU
 62
     1
100
AcDbLine
 10
-1572.499999999999
 20
1752.0
 30
0.0
 11
-1591.590637220898
 21
1752.0
 31
0.0
  0
LINE
  5
13390
330
12B60
100
AcDbEntity
  8
SUNPOU
 62
     1
100
AcDbLine
 10
-1591.090637220898
 20
1802.0
 30
0.0
 11
-1591.090637220898
 21
1755.0
 31
0.0
  0
SOLID
  5
13391
330
12B60
100
AcDbEntity
  8
SUNPOU
 62
     1
100
AcDbTrace
 10
-1591.590637220898
 20
1802.0
 30
0.0
 11
-1590.590637220898
 21
1802.0
 31
0.0
 12
-1591.090637220898
 22
1805.0
 32
0.0
 13
-1591.090637220898
 23
1805.0
 33
0.0
  0
SOLID
  5
13392
330
12B60
100
AcDbEntity
  8
SUNPOU
 62
     1
100
AcDbTrace
 10
-1591.590637220898
 20
1755.0
 30
0.0
 11
-1590.590637220898
 21
1755.0
 31
0.0
 12
-1591.090637220898
 22
1752.0
 32
0.0
 13
-1591.090637220898
 23
1752.0
 33
0.0
  0
MTEXT
  5
13393
330
12B60
100
AcDbEntity
  8
SUNPOU
 62
     1
100
AcDbMText
 10
-1593.840637220898
 20
1778.499999999999
 30
0.0
 40
3.5
 41
0.0
 71
     5
 72
     1
  1
\A1;53
 11
0.0000000000000001
 21
1.0
 31
0.0
1001
ACAD
1000
MTEXTBEGIN
1070
    73
1070
     1
1070
    44
1040
1.0
1070
    74
1070
     0
1000
MTEXTEND
  0
POINT
  5
13394
330
12B60
100
AcDbEntity
  8
DEFPOINTS
 62
     0
100
AcDbPoint
 10
-1572.0
 20
1805.0
 30
0.0
  0
POINT
  5
13395
330
12B60
100
AcDbEntity
  8
DEFPOINTS
 62
     0
100
AcDbPoint
 10
-1572.0
 20
1752.0
 30
0.0
  0
POINT
  5
13396
330
12B60
100
AcDbEntity
  8
DEFPOINTS
 62
     0
100
AcDbPoint
 10
-1591.090637220898
 20
1752.0
 30
0.0
  0
ENDBLK
  5
12B6B
330
12B60
100
AcDbEntity
  8
0
100
AcDbBlockEnd
  0
BLOCK
  5
12B79
330
12B6D
100
AcDbEntity
  8
0
100
AcDbBlockBegin
  2
*D3
 70
     1
 10
0.0
 20
0.0
 30
0.0
  3
*D3
  1

  0
LINE
  5
13397
330
12B6D
100
AcDbEntity
  8
SUNPOU
 62
     1
100
AcDbLine
 10
-1572.499999999999
 20
1805.0
 30
0.0
 11
-1591.590637220897
 21
1805.0
 31
0.0
  0
LINE
  5
13398
330
12B6D
100
AcDbEntity
  8
SUNPOU
 62
     1
100
AcDbLine
 10
-1579.5
 20
1806.999999999998
 30
0.0
 11
-1591.590637220897
 21
1806.999999999998
 31
0.0
  0
LINE
  5
13399
330
12B6D
100
AcDbEntity
  8
SUNPOU
 62
     1
100
AcDbLine
 10
-1591.090637220897
 20
1802.0
 30
0.0
 11
-1591.090637220897
 21
1799.0
 31
0.0
  0
LINE
  5
1339A
330
12B6D
100
AcDbEntity
  8
SUNPOU
 62
     1
100
AcDbLine
 10
-1591.090637220897
 20
1809.999999999999
 30
0.0
 11
-1591.090637220897
 21
1817.333333333332
 31
0.0
  0
LINE
  5
1339B
330
12B6D
100
AcDbEntity
  8
SUNPOU
 62
     1
100
AcDbLine
 10
-1591.090637220897
 20
1805.0
 30
0.0
 11
-1591.090637220897
 21
1806.999999999998
 31
0.0
  0
SOLID
  5
1339C
330
12B6D
100
AcDbEntity
  8
SUNPOU
 62
     1
100
AcDbTrace
 10
-1591.590637220897
 20
1802.0
 30
0.0
 11
-1590.590637220897
 21
1802.0
 31
0.0
 12
-1591.090637220897
 22
1805.0
 32
0.0
 13
-1591.090637220897
 23
1805.0
 33
0.0
  0
SOLID
  5
1339D
330
12B6D
100
AcDbEntity
  8
SUNPOU
 62
     1
100
AcDbTrace
 10
-1591.590637220897
 20
1809.999999999999
 30
0.0
 11
-1590.590637220897
 21
1809.999999999999
 31
0.0
 12
-1591.090637220897
 22
1806.999999999998
 32
0.0
 13
-1591.090637220897
 23
1806.999999999998
 33
0.0
  0
MTEXT
  5
1339E
330
12B6D
100
AcDbEntity
  8
SUNPOU
 62
     1
100
AcDbMText
 10
-1593.840637220898
 20
1815.166666666665
 30
0.0
 40
3.5
 41
0.0
 71
     5
 72
     1
  1
\A1;2
 11
0.0000000000000001
 21
1.0
 31
0.0
1001
ACAD
1000
MTEXTBEGIN
1070
    73
1070
     1
1070
    44
1040
1.0
1070
    74
1070
     0
1000
MTEXTEND
  0
POINT
  5
1339F
330
12B6D
100
AcDbEntity
  8
DEFPOINTS
 62
     0
100
AcDbPoint
 10
-1572.0
 20
1805.0
 30
0.0
  0
POINT
  5
133A0
330
12B6D
100
AcDbEntity
  8
DEFPOINTS
 62
     0
100
AcDbPoint
 10
-1579.0
 20
1806.999999999998
 30
0.0
  0
POINT
  5
133A1
330
12B6D
100
AcDbEntity
  8
DEFPOINTS
 62
     0
100
AcDbPoint
 10
-1591.090637220897
 20
1806.999999999998
 30
0.0
  0
ENDBLK
  5
12B7A
330
12B6D
100
AcDbEntity
  8
0
100
AcDbBlockEnd
  0
BLOCK
  5
12B88
330
12B7C
100
AcDbEntity
  8
0
100
AcDbBlockBegin
  2
*D4
 70
     1
 10
0.0
 20
0.0
 30
0.0
  3
*D4
  1

  0
LINE
  5
133A2
330
12B7C
100
AcDbEntity
  8
SUNPOU
 62
     1
100
AcDbLine
 10
-1573.0
 20
1752.0
 30
0.0
 11
-1591.518249147171
 21
1752.0
 31
0.0
  0
LINE
  5
133A3
330
12B7C
100
AcDbEntity
  8
SUNPOU
 62
     1
100
AcDbLine
 10
-1579.5
 20
1750.0
 30
0.0
 11
-1591.518249147171
 21
1750.0
 31
0.0
  0
LINE
  5
133A4
330
12B7C
100
AcDbEntity
  8
SUNPOU
 62
     1
100
AcDbLine
 10
-1591.018249147171
 20
1755.0
 30
0.0
 11
-1591.018249147171
 21
1758.0
 31
0.0
  0
LINE
  5
133A5
330
12B7C
100
AcDbEntity
  8
SUNPOU
 62
     1
100
AcDbLine
 10
-1591.018249147171
 20
1747.0
 30
0.0
 11
-1591.018249147171
 21
1739.666666666666
 31
0.0
  0
LINE
  5
133A6
330
12B7C
100
AcDbEntity
  8
SUNPOU
 62
     1
100
AcDbLine
 10
-1591.018249147171
 20
1752.0
 30
0.0
 11
-1591.018249147171
 21
1750.0
 31
0.0
  0
SOLID
  5
133A7
330
12B7C
100
AcDbEntity
  8
SUNPOU
 62
     1
100
AcDbTrace
 10
-1591.518249147171
 20
1755.0
 30
0.0
 11
-1590.51824914717
 21
1755.0
 31
0.0
 12
-1591.018249147171
 22
1752.0
 32
0.0
 13
-1591.018249147171
 23
1752.0
 33
0.0
  0
SOLID
  5
133A8
330
12B7C
100
AcDbEntity
  8
SUNPOU
 62
     1
100
AcDbTrace
 10
-1591.518249147171
 20
1747.0
 30
0.0
 11
-1590.51824914717
 21
1747.0
 31
0.0
 12
-1591.018249147171
 22
1750.0
 32
0.0
 13
-1591.018249147171
 23
1750.0
 33
0.0
  0
MTEXT
  5
133A9
330
12B7C
100
AcDbEntity
  8
SUNPOU
 62
     1
100
AcDbMText
 10
-1593.768249147171
 20
1741.833333333333
 30
0.0
 40
3.5
 41
0.0
 71
     5
 72
     1
  1
\A1;2
 11
0.0000000000000001
 21
1.0
 31
0.0
1001
ACAD
1000
MTEXTBEGIN
1070
    73
1070
     1
1070
    44
1040
1.0
1070
    74
1070
     0
1000
MTEXTEND
  0
POINT
  5
133AA
330
12B7C
100
AcDbEntity
  8
DEFPOINTS
 62
     0
100
AcDbPoint
 10
-1572.499999999999
 20
1752.0
 30
0.0
  0
POINT
  5
133AB
330
12B7C
100
AcDbEntity
  8
DEFPOINTS
 62
     0
100
AcDbPoint
 10
-1579.0
 20
1750.0
 30
0.0
  0
POINT
  5
133AC
330
12B7C
100
AcDbEntity
  8
DEFPOINTS
 62
     0
100
AcDbPoint
 10
-1591.018249147171
 20
1750.0
 30
0.0
  0
ENDBLK
  5
12B89
330
12B7C
100
AcDbEntity
  8
0
100
AcDbBlockEnd
  0
BLOCK
  5
12B97
330
12B8B
100
AcDbEntity
  8
0
100
AcDbBlockBegin
  2
*D5
 70
     1
 10
0.0
 20
0.0
 30
0.0
  3
*D5
  1

  0
LINE
  5
133BF
330
12B8B
100
AcDbEntity
  8
SUNPOU
 62
     1
100
AcDbLine
 10
-1569.749999999999
 20
1807.5
 30
0.0
 11
-1569.749999999999
 21
1812.822978787881
 31
0.0
  0
LINE
  5
133C0
330
12B8B
100
AcDbEntity
  8
SUNPOU
 62
     1
100
AcDbLine
 10
-1566.25
 20
1807.5
 30
0.0
 11
-1566.25
 21
1812.822978787881
 31
0.0
  0
LINE
  5
133C1
330
12B8B
100
AcDbEntity
  8
SUNPOU
 62
     1
100
AcDbLine
 10
-1572.75
 20
1812.322978787881
 30
0.0
 11
-1575.75
 21
1812.322978787881
 31
0.0
  0
LINE
  5
133C2
330
12B8B
100
AcDbEntity
  8
SUNPOU
 62
     1
100
AcDbLine
 10
-1563.25
 20
1812.322978787881
 30
0.0
 11
-1551.25
 21
1812.322978787881
 31
0.0
  0
LINE
  5
133C3
330
12B8B
100
AcDbEntity
  8
SUNPOU
 62
     1
100
AcDbLine
 10
-1569.749999999999
 20
1812.322978787881
 30
0.0
 11
-1566.25
 21
1812.322978787881
 31
0.0
  0
SOLID
  5
133C4
330
12B8B
100
AcDbEntity
  8
SUNPOU
 62
     1
100
AcDbTrace
 10
-1572.75
 20
1812.822978787881
 30
0.0
 11
-1572.75
 21
1811.822978787881
 31
0.0
 12
-1569.749999999999
 22
1812.322978787881
 32
0.0
 13
-1569.749999999999
 23
1812.322978787881
 33
0.0
  0
SOLID
  5
133C5
330
12B8B
100
AcDbEntity
  8
SUNPOU
 62
     1
100
AcDbTrace
 10
-1563.25
 20
1812.822978787881
 30
0.0
 11
-1563.25
 21
1811.822978787881
 31
0.0
 12
-1566.25
 22
1812.322978787881
 32
0.0
 13
-1566.25
 23
1812.322978787881
 33
0.0
  0
MTEXT
  5
133C6
330
12B8B
100
AcDbEntity
  8
SUNPOU
 62
     1
100
AcDbMText
 10
-1555.75
 20
1815.072978787881
 30
0.0
 40
3.5
 41
0.0
 71
     5
 72
     1
  1
\A1;3.5
1001
ACAD
1000
MTEXTBEGIN
1070
    73
1070
     1
1070
    44
1040
1.0
1070
    74
1070
     0
1000
MTEXTEND
  0
POINT
  5
133C7
330
12B8B
100
AcDbEntity
  8
DEFPOINTS
 62
     0
100
AcDbPoint
 10
-1569.749999999999
 20
1807.0
 30
0.0
  0
POINT
  5
133C8
330
12B8B
100
AcDbEntity
  8
DEFPOINTS
 62
     0
100
AcDbPoint
 10
-1566.25
 20
1807.0
 30
0.0
  0
POINT
  5
133C9
330
12B8B
100
AcDbEntity
  8
DEFPOINTS
 62
     0
100
AcDbPoint
 10
-1566.25
 20
1812.322978787881
 30
0.0
  0
ENDBLK
  5
12B98
330
12B8B
100
AcDbEntity
  8
0
100
AcDbBlockEnd
  0
BLOCK
  5
12BA4
330
12B9A
100
AcDbEntity
  8
0
100
AcDbBlockBegin
  2
*D6
 70
     1
 10
0.0
 20
0.0
 30
0.0
  3
*D6
  1

  0
LINE
  5
133AD
330
12B9A
100
AcDbEntity
  8
SUNPOU
 62
     1
100
AcDbLine
 10
-1551.0
 20
1749.0
 30
0.0
 11
-1551.0
 21
1740.334940539065
 31
0.0
  0
LINE
  5
133AE
330
12B9A
100
AcDbEntity
  8
SUNPOU
 62
     1
100
AcDbLine
 10
-1568.0
 20
1743.5
 30
0.0
 11
-1568.0
 21
1740.334940539065
 31
0.0
  0
LINE
  5
133AF
330
12B9A
100
AcDbEntity
  8
SUNPOU
 62
     1
100
AcDbLine
 10
-1554.0
 20
1740.834940539064
 30
0.0
 11
-1565.0
 21
1740.834940539064
 31
0.0
  0
SOLID
  5
133B0
330
12B9A
100
AcDbEntity
  8
SUNPOU
 62
     1
100
AcDbTrace
 10
-1554.0
 20
1741.334940539065
 30
0.0
 11
-1554.0
 21
1740.334940539065
 31
0.0
 12
-1551.0
 22
1740.834940539064
 32
0.0
 13
-1551.0
 23
1740.834940539064
 33
0.0
  0
SOLID
  5
133B1
330
12B9A
100
AcDbEntity
  8
SUNPOU
 62
     1
100
AcDbTrace
 10
-1565.0
 20
1741.334940539065
 30
0.0
 11
-1565.0
 21
1740.334940539065
 31
0.0
 12
-1568.0
 22
1740.834940539064
 32
0.0
 13
-1568.0
 23
1740.834940539064
 33
0.0
  0
MTEXT
  5
133B2
330
12B9A
100
AcDbEntity
  8
SUNPOU
 62
     1
100
AcDbMText
 10
-1559.5
 20
1743.584940539065
 30
0.0
 40
3.5
 41
0.0
 71
     5
 72
     1
  1
\A1;17
1001
ACAD
1000
MTEXTBEGIN
1070
    73
1070
     1
1070
    44
1040
1.0
1070
    74
1070
     0
1000
MTEXTEND
  0
POINT
  5
133B3
330
12B9A
100
AcDbEntity
  8
DEFPOINTS
 62
     0
100
AcDbPoint
 10
-1551.0
 20
1749.5
 30
0.0
  0
POINT
  5
133B4
330
12B9A
100
AcDbEntity
  8
DEFPOINTS
 62
     0
100
AcDbPoint
 10
-1568.0
 20
1744.0
 30
0.0
  0
POINT
  5
133B5
330
12B9A
100
AcDbEntity
  8
DEFPOINTS
 62
     0
100
AcDbPoint
 10
-1568.0
 20
1740.834940539064
 30
0.0
  0
ENDBLK
  5
12BA5
330
12B9A
100
AcDbEntity
  8
0
100
AcDbBlockEnd
  0
BLOCK
  5
12BB1
330
12BA7
100
AcDbEntity
  8
0
100
AcDbBlockBegin
  2
*D7
 70
     1
 10
0.0
 20
0.0
 30
0.0
  3
*D7
  1

  0
LINE
  5
133B6
330
12BA7
100
AcDbEntity
  8
SUNPOU
 62
     1
100
AcDbLine
 10
-1580.0
 20
1750.499999999999
 30
0.0
 11
-1580.0
 21
1730.188236346338
 31
0.0
  0
LINE
  5
133B7
330
12BA7
100
AcDbEntity
  8
SUNPOU
 62
     1
100
AcDbLine
 10
-1551.0
 20
1749.5
 30
0.0
 11
-1551.0
 21
1730.188236346338
 31
0.0
  0
LINE
  5
133B8
330
12BA7
100
AcDbEntity
  8
SUNPOU
 62
     1
100
AcDbLine
 10
-1577.000000000001
 20
1730.688236346338
 30
0.0
 11
-1554.0
 21
1730.688236346338
 31
0.0
  0
SOLID
  5
133B9
330
12BA7
100
AcDbEntity
  8
SUNPOU
 62
     1
100
AcDbTrace
 10
-1577.000000000001
 20
1731.188236346338
 30
0.0
 11
-1577.000000000001
 21
1730.188236346338
 31
0.0
 12
-1580.0
 22
1730.688236346338
 32
0.0
 13
-1580.0
 23
1730.688236346338
 33
0.0
  0
SOLID
  5
133BA
330
12BA7
100
AcDbEntity
  8
SUNPOU
 62
     1
100
AcDbTrace
 10
-1554.0
 20
1731.188236346338
 30
0.0
 11
-1554.0
 21
1730.188236346338
 31
0.0
 12
-1551.0
 22
1730.688236346338
 32
0.0
 13
-1551.0
 23
1730.688236346338
 33
0.0
  0
MTEXT
  5
133BB
330
12BA7
100
AcDbEntity
  8
SUNPOU
 62
     1
100
AcDbMText
 10
-1565.5
 20
1733.438236346338
 30
0.0
 40
3.5
 41
0.0
 71
     5
 72
     1
  1
\A1;29
1001
ACAD
1000
MTEXTBEGIN
1070
    73
1070
     1
1070
    44
1040
1.0
1070
    74
1070
     0
1000
MTEXTEND
  0
POINT
  5
133BC
330
12BA7
100
AcDbEntity
  8
DEFPOINTS
 62
     0
100
AcDbPoint
 10
-1580.0
 20
1751.0
 30
0.0
  0
POINT
  5
133BD
330
12BA7
100
AcDbEntity
  8
DEFPOINTS
 62
     0
100
AcDbPoint
 10
-1551.0
 20
1750.0
 30
0.0
  0
POINT
  5
133BE
330
12BA7
100
AcDbEntity
  8
DEFPOINTS
 62
     0
100
AcDbPoint
 10
-1551.0
 20
1730.688236346338
 30
0.0
  0
ENDBLK
  5
12BB2
330
12BA7
100
AcDbEntity
  8
0
100
AcDbBlockEnd
  0
BLOCK
  5
12BCB
330
12BC1
100
AcDbEntity
  8
0
100
AcDbBlockBegin
  2
*D8
 70
     1
 10
0.0
 20
0.0
 30
0.0
  3
*D8
  1

  0
LINE
  5
133CA
330
12BC1
100
AcDbEntity
  8
SUNPOU
 62
     1
100
AcDbLine
 10
-1703.0
 20
1666.25
 30
0.0
 11
-1703.0
 21
1653.597331290401
 31
0.0
  0
LINE
  5
133CB
330
12BC1
100
AcDbEntity
  8
SUNPOU
 62
     1
100
AcDbLine
 10
-1638.0
 20
1664.5
 30
0.0
 11
-1638.0
 21
1653.597331290401
 31
0.0
  0
LINE
  5
133CC
330
12BC1
100
AcDbEntity
  8
SUNPOU
 62
     1
100
AcDbLine
 10
-1700.0
 20
1654.097331290402
 30
0.0
 11
-1641.0
 21
1654.097331290402
 31
0.0
  0
SOLID
  5
133CD
330
12BC1
100
AcDbEntity
  8
SUNPOU
 62
     1
100
AcDbTrace
 10
-1700.0
 20
1654.597331290402
 30
0.0
 11
-1700.0
 21
1653.597331290401
 31
0.0
 12
-1703.0
 22
1654.097331290402
 32
0.0
 13
-1703.0
 23
1654.097331290402
 33
0.0
  0
SOLID
  5
133CE
330
12BC1
100
AcDbEntity
  8
SUNPOU
 62
     1
100
AcDbTrace
 10
-1641.0
 20
1654.597331290402
 30
0.0
 11
-1641.0
 21
1653.597331290401
 31
0.0
 12
-1638.0
 22
1654.097331290402
 32
0.0
 13
-1638.0
 23
1654.097331290402
 33
0.0
  0
MTEXT
  5
133CF
330
12BC1
100
AcDbEntity
  8
SUNPOU
 62
     1
100
AcDbMText
 10
-1670.5
 20
1656.847331290402
 30
0.0
 40
3.5
 41
0.0
 71
     5
 72
     1
  1
\A1;65
1001
ACAD
1000
MTEXTBEGIN
1070
    73
1070
     1
1070
    44
1040
1.0
1070
    74
1070
     0
1000
MTEXTEND
  0
POINT
  5
133D0
330
12BC1
100
AcDbEntity
  8
DEFPOINTS
 62
     0
100
AcDbPoint
 10
-1703.0
 20
1666.75
 30
0.0
  0
POINT
  5
133D1
330
12BC1
100
AcDbEntity
  8
DEFPOINTS
 62
     0
100
AcDbPoint
 10
-1638.0
 20
1665.0
 30
0.0
  0
POINT
  5
133D2
330
12BC1
100
AcDbEntity
  8
DEFPOINTS
 62
     0
100
AcDbPoint
 10
-1638.0
 20
1654.097331290402
 30
0.0
  0
ENDBLK
  5
12BCC
330
12BC1
100
AcDbEntity
  8
0
100
AcDbBlockEnd
  0
BLOCK
  5
12BE7
330
12BDD
100
AcDbEntity
  8
0
100
AcDbBlockBegin
  2
*D9
 70
     1
 10
0.0
 20
0.0
 30
0.0
  3
*D9
  1

  0
LINE
  5
133D3
330
12BDD
100
AcDbEntity
  8
SUNPOU
 62
     1
100
AcDbLine
 10
-1638.5
 20
1689.0
 30
0.0
 11
-1615.985089668355
 21
1689.0
 31
0.0
  0
LINE
  5
133D4
330
12BDD
100
AcDbEntity
  8
SUNPOU
 62
     1
100
AcDbLine
 10
-1637.5
 20
1665.0
 30
0.0
 11
-1615.985089668355
 21
1665.0
 31
0.0
  0
LINE
  5
133D5
330
12BDD
100
AcDbEntity
  8
SUNPOU
 62
     1
100
AcDbLine
 10
-1616.485089668355
 20
1686.0
 30
0.0
 11
-1616.485089668355
 21
1668.0
 31
0.0
  0
SOLID
  5
133D6
330
12BDD
100
AcDbEntity
  8
SUNPOU
 62
     1
100
AcDbTrace
 10
-1616.985089668355
 20
1686.0
 30
0.0
 11
-1615.985089668355
 21
1686.0
 31
0.0
 12
-1616.485089668355
 22
1689.0
 32
0.0
 13
-1616.485089668355
 23
1689.0
 33
0.0
  0
SOLID
  5
133D7
330
12BDD
100
AcDbEntity
  8
SUNPOU
 62
     1
100
AcDbTrace
 10
-1616.985089668355
 20
1668.0
 30
0.0
 11
-1615.985089668355
 21
1668.0
 31
0.0
 12
-1616.485089668355
 22
1665.0
 32
0.0
 13
-1616.485089668355
 23
1665.0
 33
0.0
  0
MTEXT
  5
133D8
330
12BDD
100
AcDbEntity
  8
SUNPOU
 62
     1
100
AcDbMText
 10
-1619.235089668355
 20
1676.999999999999
 30
0.0
 40
3.5
 41
0.0
 71
     5
 72
     1
  1
\A1;24
 11
0.0000000000000001
 21
1.0
 31
0.0
1001
ACAD
1000
MTEXTBEGIN
1070
    73
1070
     1
1070
    44
1040
1.0
1070
    74
1070
     0
1000
MTEXTEND
  0
POINT
  5
133D9
330
12BDD
100
AcDbEntity
  8
DEFPOINTS
 62
     0
100
AcDbPoint
 10
-1639.0
 20
1689.0
 30
0.0
  0
POINT
  5
133DA
330
12BDD
100
AcDbEntity
  8
DEFPOINTS
 62
     0
100
AcDbPoint
 10
-1638.0
 20
1665.0
 30
0.0
  0
POINT
  5
133DB
330
12BDD
100
AcDbEntity
  8
DEFPOINTS
 62
     0
100
AcDbPoint
 10
-1616.485089668355
 20
1665.0
 30
0.0
  0
ENDBLK
  5
12BE8
330
12BDD
100
AcDbEntity
  8
0
100
AcDbBlockEnd
  0
BLOCK
  5
12BF6
330
12BEA
100
AcDbEntity
  8
0
100
AcDbBlockBegin
  2
*D10
 70
     1
 10
0.0
 20
0.0
 30
0.0
  3
*D10
  1

  0
LINE
  5
133DC
330
12BEA
100
AcDbEntity
  8
SUNPOU
 62
     1
100
AcDbLine
 10
-1703.0
 20
1694.5
 30
0.0
 11
-1703.0
 21
1699.782932010023
 31
0.0
  0
LINE
  5
133DD
330
12BEA
100
AcDbEntity
  8
SUNPOU
 62
     1
100
AcDbLine
 10
-1700.0
 20
1694.5
 30
0.0
 11
-1700.0
 21
1699.782932010023
 31
0.0
  0
LINE
  5
133DE
330
12BEA
100
AcDbEntity
  8
SUNPOU
 62
     1
100
AcDbLine
 10
-1706.0
 20
1699.282932010024
 30
0.0
 11
-1709.0
 21
1699.282932010024
 31
0.0
  0
LINE
  5
133DF
330
12BEA
100
AcDbEntity
  8
SUNPOU
 62
     1
100
AcDbLine
 10
-1697.0
 20
1699.282932010024
 30
0.0
 11
-1689.666666666666
 21
1699.282932010024
 31
0.0
  0
LINE
  5
133E0
330
12BEA
100
AcDbEntity
  8
SUNPOU
 62
     1
100
AcDbLine
 10
-1703.0
 20
1699.282932010024
 30
0.0
 11
-1700.0
 21
1699.282932010024
 31
0.0
  0
SOLID
  5
133E1
330
12BEA
100
AcDbEntity
  8
SUNPOU
 62
     1
100
AcDbTrace
 10
-1706.0
 20
1699.782932010023
 30
0.0
 11
-1706.0
 21
1698.782932010024
 31
0.0
 12
-1703.0
 22
1699.282932010024
 32
0.0
 13
-1703.0
 23
1699.282932010024
 33
0.0
  0
SOLID
  5
133E2
330
12BEA
100
AcDbEntity
  8
SUNPOU
 62
     1
100
AcDbTrace
 10
-1697.0
 20
1699.782932010023
 30
0.0
 11
-1697.0
 21
1698.782932010024
 31
0.0
 12
-1700.0
 22
1699.282932010024
 32
0.0
 13
-1700.0
 23
1699.282932010024
 33
0.0
  0
MTEXT
  5
133E3
330
12BEA
100
AcDbEntity
  8
SUNPOU
 62
     1
100
AcDbMText
 10
-1691.833333333333
 20
1702.032932010023
 30
0.0
 40
3.5
 41
0.0
 71
     5
 72
     1
  1
\A1;3
1001
ACAD
1000
MTEXTBEGIN
1070
    73
1070
     1
1070
    44
1040
1.0
1070
    74
1070
     0
1000
MTEXTEND
  0
POINT
  5
133E4
330
12BEA
100
AcDbEntity
  8
DEFPOINTS
 62
     0
100
AcDbPoint
 10
-1703.0
 20
1694.0
 30
0.0
  0
POINT
  5
133E5
330
12BEA
100
AcDbEntity
  8
DEFPOINTS
 62
     0
100
AcDbPoint
 10
-1700.0
 20
1694.0
 30
0.0
  0
POINT
  5
133E6
330
12BEA
100
AcDbEntity
  8
DEFPOINTS
 62
     0
100
AcDbPoint
 10
-1700.0
 20
1699.282932010024
 30
0.0
  0
ENDBLK
  5
12BF7
330
12BEA
100
AcDbEntity
  8
0
100
AcDbBlockEnd
  0
BLOCK
  5
12ED6
330
12ECC
100
AcDbEntity
  8
0
100
AcDbBlockBegin
  2
*D11
 70
     1
 10
0.0
 20
0.0
 30
0.0
  3
*D11
  1

  0
LINE
  5
1337C
330
12ECC
100
AcDbEntity
  8
ZISSEN1
 62
     1
100
AcDbLine
 10
-1690.5
 20
1805.0
 30
0.0
 11
-1626.475010733599
 21
1805.0
 31
0.0
  0
LINE
  5
1337D
330
12ECC
100
AcDbEntity
  8
ZISSEN1
 62
     1
100
AcDbLine
 10
-1638.5
 20
1752.0
 30
0.0
 11
-1626.475010733599
 21
1752.0
 31
0.0
  0
LINE
  5
1337E
330
12ECC
100
AcDbEntity
  8
ZISSEN1
 62
     1
100
AcDbLine
 10
-1626.975010733598
 20
1802.0
 30
0.0
 11
-1626.975010733598
 21
1755.0
 31
0.0
  0
SOLID
  5
1337F
330
12ECC
100
AcDbEntity
  8
ZISSEN1
 62
     1
100
AcDbTrace
 10
-1627.475010733598
 20
1802.0
 30
0.0
 11
-1626.475010733599
 21
1802.0
 31
0.0
 12
-1626.975010733598
 22
1805.0
 32
0.0
 13
-1626.975010733598
 23
1805.0
 33
0.0
  0
SOLID
  5
13380
330
12ECC
100
AcDbEntity
  8
ZISSEN1
 62
     1
100
AcDbTrace
 10
-1627.475010733598
 20
1755.0
 30
0.0
 11
-1626.475010733599
 21
1755.0
 31
0.0
 12
-1626.975010733598
 22
1752.0
 32
0.0
 13
-1626.975010733598
 23
1752.0
 33
0.0
  0
MTEXT
  5
13381
330
12ECC
100
AcDbEntity
  8
ZISSEN1
 62
     1
100
AcDbMText
 10
-1629.725010733599
 20
1778.499999999999
 30
0.0
 40
3.5
 41
0.0
 71
     5
 72
     1
  1
\A1;53
 11
0.0000000000000001
 21
1.0
 31
0.0
1001
ACAD
1000
MTEXTBEGIN
1070
    73
1070
     1
1070
    44
1040
1.0
1070
    74
1070
     0
1000
MTEXTEND
  0
POINT
  5
13382
330
12ECC
100
AcDbEntity
  8
DEFPOINTS
 62
     0
100
AcDbPoint
 10
-1691.0
 20
1805.0
 30
0.0
  0
POINT
  5
13383
330
12ECC
100
AcDbEntity
  8
DEFPOINTS
 62
     0
100
AcDbPoint
 10
-1639.0
 20
1752.0
 30
0.0
  0
POINT
  5
13384
330
12ECC
100
AcDbEntity
  8
DEFPOINTS
 62
     0
100
AcDbPoint
 10
-1626.975010733598
 20
1752.0
 30
0.0
  0
ENDBLK
  5
12ED7
330
12ECC
100
AcDbEntity
  8
0
100
AcDbBlockEnd
  0
BLOCK
  5
12F21
330
12F12
100
AcDbEntity
  8
0
100
AcDbBlockBegin
  2
*D12
 70
     1
 10
0.0
 20
0.0
 30
0.0
  3
*D12
  1

  0
LINE
  5
1346D
330
12F12
100
AcDbEntity
  8
ZISSEN1
 62
     1
100
AcDbLine
 10
-1638.5
 20
1752.0
 30
0.0
 11
-1626.475010733599
 21
1752.0
 31
0.0
  0
LINE
  5
1346E
330
12F12
100
AcDbEntity
  8
ZISSEN1
 62
     1
100
AcDbLine
 10
-1638.0
 20
1750.0
 30
0.0
 11
-1626.475010733599
 21
1750.0
 31
0.0
  0
LINE
  5
1346F
330
12F12
100
AcDbEntity
  8
ZISSEN1
 62
     1
100
AcDbLine
 10
-1626.975010733598
 20
1755.0
 30
0.0
 11
-1626.975010733598
 21
1758.0
 31
0.0
  0
LINE
  5
13470
330
12F12
100
AcDbEntity
  8
ZISSEN1
 62
     1
100
AcDbLine
 10
-1626.975010733598
 20
1747.0
 30
0.0
 11
-1626.975010733598
 21
1744.0
 31
0.0
  0
MTEXT
  5
13471
330
12F12
100
AcDbEntity
  8
ZISSEN1
 62
     1
100
AcDbMText
 10
-1630.225010733598
 20
1747.0
 30
0.0
 40
3.5
 41
0.0
 71
     5
 72
     1
  1
\A1;2
 11
0.0000000000000001
 21
1.0
 31
0.0
  0
LINE
  5
13472
330
12F12
100
AcDbEntity
  8
ZISSEN1
 62
     1
100
AcDbLine
 10
-1626.975010733598
 20
1752.0
 30
0.0
 11
-1626.975010733598
 21
1750.0
 31
0.0
  0
SOLID
  5
13473
330
12F12
100
AcDbEntity
  8
ZISSEN1
 62
     1
100
AcDbTrace
 10
-1627.475010733598
 20
1755.0
 30
0.0
 11
-1626.475010733599
 21
1755.0
 31
0.0
 12
-1626.975010733598
 22
1752.0
 32
0.0
 13
-1626.975010733598
 23
1752.0
 33
0.0
  0
SOLID
  5
13474
330
12F12
100
AcDbEntity
  8
ZISSEN1
 62
     1
100
AcDbTrace
 10
-1627.475010733598
 20
1747.0
 30
0.0
 11
-1626.475010733599
 21
1747.0
 31
0.0
 12
-1626.975010733598
 22
1750.0
 32
0.0
 13
-1626.975010733598
 23
1750.0
 33
0.0
  0
POINT
  5
13475
330
12F12
100
AcDbEntity
  8
DEFPOINTS
 62
     0
100
AcDbPoint
 10
-1639.0
 20
1752.0
 30
0.0
  0
POINT
  5
13476
330
12F12
100
AcDbEntity
  8
DEFPOINTS
 62
     0
100
AcDbPoint
 10
-1638.5
 20
1750.0
 30
0.0
  0
POINT
  5
13477
330
12F12
100
AcDbEntity
  8
DEFPOINTS
 62
     0
100
AcDbPoint
 10
-1626.975010733598
 20
1750.0
 30
0.0
  0
ENDBLK
  5
12F22
330
12F12
100
AcDbEntity
  8
0
100
AcDbBlockEnd
  0
BLOCK
  5
12F6D
330
12F61
100
AcDbEntity
  8
0
100
AcDbBlockBegin
  2
*D13
 70
     1
 10
0.0
 20
0.0
 30
0.0
  3
*D13
  1

  0
LINE
  5
13354
330
12F61
100
AcDbEntity
  8
ZISSEN1
 62
     1
100
AcDbLine
 10
-1703.0
 20
1749.5
 30
0.0
 11
-1703.0
 21
1741.056339851902
 31
0.0
  0
LINE
  5
13355
330
12F61
100
AcDbEntity
  8
ZISSEN1
 62
     1
100
AcDbLine
 10
-1695.0
 20
1801.0
 30
0.0
 11
-1695.0
 21
1741.056339851902
 31
0.0
  0
LINE
  5
13356
330
12F61
100
AcDbEntity
  8
ZISSEN1
 62
     1
100
AcDbLine
 10
-1701.0
 20
1741.556339851902
 30
0.0
 11
-1697.0
 21
1741.556339851902
 31
0.0
  0
SOLID
  5
13357
330
12F61
100
AcDbEntity
  8
ZISSEN1
 62
     1
100
AcDbTrace
 10
-1701.0
 20
1741.889673185235
 30
0.0
 11
-1701.0
 21
1741.223006518568
 31
0.0
 12
-1703.0
 22
1741.556339851902
 32
0.0
 13
-1703.0
 23
1741.556339851902
 33
0.0
  0
SOLID
  5
13358
330
12F61
100
AcDbEntity
  8
ZISSEN1
 62
     1
100
AcDbTrace
 10
-1697.0
 20
1741.889673185235
 30
0.0
 11
-1697.0
 21
1741.223006518568
 31
0.0
 12
-1695.0
 22
1741.556339851902
 32
0.0
 13
-1695.0
 23
1741.556339851902
 33
0.0
  0
MTEXT
  5
13359
330
12F61
100
AcDbEntity
  8
ZISSEN1
 62
     1
100
AcDbMText
 10
-1699.0
 20
1744.306339851902
 30
0.0
 40
3.5
 41
0.0
 71
     5
 72
     1
  1
\A1;8
1001
ACAD
1000
MTEXTBEGIN
1070
    73
1070
     1
1070
    44
1040
1.0
1070
    74
1070
     0
1000
MTEXTEND
  0
POINT
  5
1335A
330
12F61
100
AcDbEntity
  8
DEFPOINTS
 62
     0
100
AcDbPoint
 10
-1703.0
 20
1750.0
 30
0.0
  0
POINT
  5
1335B
330
12F61
100
AcDbEntity
  8
DEFPOINTS
 62
     0
100
AcDbPoint
 10
-1695.0
 20
1801.5
 30
0.0
  0
POINT
  5
1335C
330
12F61
100
AcDbEntity
  8
DEFPOINTS
 62
     0
100
AcDbPoint
 10
-1695.0
 20
1741.556339851902
 30
0.0
  0
ENDBLK
  5
12F6E
330
12F61
100
AcDbEntity
  8
0
100
AcDbBlockEnd
  0
BLOCK
  5
12FC8
330
12FBE
100
AcDbEntity
  8
0
100
AcDbBlockBegin
  2
*D14
 70
     1
 10
0.0
 20
0.0
 30
0.0
  3
*D14
  1

  0
LINE
  5
13478
330
12FBE
100
AcDbEntity
  8
ZISSEN1
 62
     1
100
AcDbLine
 10
-1695.0
 20
1801.75
 30
0.0
 11
-1695.0
 21
1741.056339851902
 31
0.0
  0
LINE
  5
13479
330
12FBE
100
AcDbEntity
  8
ZISSEN1
 62
     1
100
AcDbLine
 10
-1643.0
 20
1746.5
 30
0.0
 11
-1643.0
 21
1741.056339851902
 31
0.0
  0
LINE
  5
1347A
330
12FBE
100
AcDbEntity
  8
ZISSEN1
 62
     1
100
AcDbLine
 10
-1692.0
 20
1741.556339851902
 30
0.0
 11
-1646.0
 21
1741.556339851902
 31
0.0
  0
SOLID
  5
1347B
330
12FBE
100
AcDbEntity
  8
ZISSEN1
 62
     1
100
AcDbTrace
 10
-1692.0
 20
1742.056339851902
 30
0.0
 11
-1692.0
 21
1741.056339851902
 31
0.0
 12
-1695.0
 22
1741.556339851902
 32
0.0
 13
-1695.0
 23
1741.556339851902
 33
0.0
  0
SOLID
  5
1347C
330
12FBE
100
AcDbEntity
  8
ZISSEN1
 62
     1
100
AcDbTrace
 10
-1646.0
 20
1742.056339851902
 30
0.0
 11
-1646.0
 21
1741.056339851902
 31
0.0
 12
-1643.0
 22
1741.556339851902
 32
0.0
 13
-1643.0
 23
1741.556339851902
 33
0.0
  0
MTEXT
  5
1347D
330
12FBE
100
AcDbEntity
  8
ZISSEN1
 62
     1
100
AcDbMText
 10
-1669.0
 20
1744.306339851902
 30
0.0
 40
3.5
 41
0.0
 71
     5
 72
     1
  1
\A1;52
  0
POINT
  5
1347E
330
12FBE
100
AcDbEntity
  8
DEFPOINTS
 62
     0
100
AcDbPoint
 10
-1695.0
 20
1802.25
 30
0.0
  0
POINT
  5
1347F
330
12FBE
100
AcDbEntity
  8
DEFPOINTS
 62
     0
100
AcDbPoint
 10
-1643.0
 20
1747.0
 30
0.0
  0
POINT
  5
13480
330
12FBE
100
AcDbEntity
  8
DEFPOINTS
 62
     0
100
AcDbPoint
 10
-1643.0
 20
1741.556339851902
 30
0.0
  0
ENDBLK
  5
12FC9
330
12FBE
100
AcDbEntity
  8
0
100
AcDbBlockEnd
  0
BLOCK
  5
12FD7
330
12FCB
100
AcDbEntity
  8
0
100
AcDbBlockBegin
  2
*D15
 70
     1
 10
0.0
 20
0.0
 30
0.0
  3
*D15
  1

  0
LINE
  5
13481
330
12FCB
100
AcDbEntity
  8
ZISSEN1
 62
     1
100
AcDbLine
 10
-1643.0
 20
1746.5
 30
0.0
 11
-1643.0
 21
1741.056339851902
 31
0.0
  0
LINE
  5
13482
330
12FCB
100
AcDbEntity
  8
ZISSEN1
 62
     1
100
AcDbLine
 10
-1638.000000461504
 20
1750.499999999999
 30
0.0
 11
-1638.000000461504
 21
1741.056339851902
 31
0.0
  0
LINE
  5
13483
330
12FCB
100
AcDbEntity
  8
ZISSEN1
 62
     1
100
AcDbLine
 10
-1646.0
 20
1741.556339851902
 30
0.0
 11
-1649.0
 21
1741.556339851902
 31
0.0
  0
LINE
  5
13484
330
12FCB
100
AcDbEntity
  8
ZISSEN1
 62
     1
100
AcDbLine
 10
-1635.000000461504
 20
1741.556339851902
 30
0.0
 11
-1632.000000461504
 21
1741.556339851902
 31
0.0
  0
LINE
  5
13485
330
12FCB
100
AcDbEntity
  8
ZISSEN1
 62
     1
100
AcDbLine
 10
-1643.0
 20
1741.556339851902
 30
0.0
 11
-1638.000000461504
 21
1741.556339851902
 31
0.0
  0
SOLID
  5
13486
330
12FCB
100
AcDbEntity
  8
ZISSEN1
 62
     1
100
AcDbTrace
 10
-1646.0
 20
1742.056339851902
 30
0.0
 11
-1646.0
 21
1741.056339851902
 31
0.0
 12
-1643.0
 22
1741.556339851902
 32
0.0
 13
-1643.0
 23
1741.556339851902
 33
0.0
  0
SOLID
  5
13487
330
12FCB
100
AcDbEntity
  8
ZISSEN1
 62
     1
100
AcDbTrace
 10
-1635.000000461504
 20
1742.056339851902
 30
0.0
 11
-1635.000000461504
 21
1741.056339851902
 31
0.0
 12
-1638.000000461504
 22
1741.556339851902
 32
0.0
 13
-1638.000000461504
 23
1741.556339851902
 33
0.0
  0
MTEXT
  5
13488
330
12FCB
100
AcDbEntity
  8
ZISSEN1
 62
     1
100
AcDbMText
 10
-1640.500000230752
 20
1744.306339851902
 30
0.0
 40
3.5
 41
0.0
 71
     5
 72
     1
  1
\A1;5
  0
POINT
  5
13489
330
12FCB
100
AcDbEntity
  8
DEFPOINTS
 62
     0
100
AcDbPoint
 10
-1643.0
 20
1747.0
 30
0.0
  0
POINT
  5
1348A
330
12FCB
100
AcDbEntity
  8
DEFPOINTS
 62
     0
100
AcDbPoint
 10
-1638.000000461504
 20
1751.0
 30
0.0
  0
POINT
  5
1348B
330
12FCB
100
AcDbEntity
  8
DEFPOINTS
 62
     0
100
AcDbPoint
 10
-1638.000000461504
 20
1741.556339851902
 30
0.0
  0
ENDBLK
  5
12FD8
330
12FCB
100
AcDbEntity
  8
0
100
AcDbBlockEnd
  0
ENDSEC
  0
SECTION
  2
ENTITIES
  0
MTEXT
  5
5084
330
1A
100
AcDbEntity
  8
0
100
AcDbMText
 10
1985.239088685434
 20
-948.5420423450428
 30
0.0
 40
8.0
 41
0.0
 71
     7
 72
     5
  1

1001
ACAD
1000
MTEXTBEGIN
1070
    73
1070
     1
1070
    44
1040
1.0
1070
    74
1070
     0
1000
MTEXTEND
1000
MTEXTBEGIN
1070
    73
1070
     1
1070
    44
1040
1.0
1070
    74
1070
     0
1000
MTEXTEND
  0
MTEXT
  5
5085
330
1A
100
AcDbEntity
  8
0
100
AcDbMText
 10
4270.596778580329
 20
22.24825240601647
 30
0.0
 40
8.0
 41
0.0
 71
     7
 72
     5
  1

1001
ACAD
1000
MTEXTBEGIN
1070
    73
1070
     1
1070
    44
1040
1.0
1070
    74
1070
     0
1000
MTEXTEND
1000
MTEXTBEGIN
1070
    73
1070
     1
1070
    44
1040
1.0
1070
    74
1070
     0
1000
MTEXTEND
  0
MTEXT
  5
5343
330
1A
100
AcDbEntity
  8
SUNPOU
100
AcDbMText
 10
6936.493799262471
 20
9534.359644781137
 30
0.0
 40
10.5
 41
0.0
 71
     1
 72
     5
  1

1001
ACAD
1000
MTEXTBEGIN
1070
    73
1070
     1
1070
    44
1040
1.0
1070
    74
1070
     0
1000
MTEXTEND
1000
MTEXTBEGIN
1070
    73
1070
     1
1070
    44
1040
1.0
1070
    74
1070
     0
1000
MTEXTEND
  0
MTEXT
  5
544F
330
1A
100
AcDbEntity
  8
0
100
AcDbMText
 10
16317.2832773148
 20
12833.35428897674
 30
0.0
 40
8.0
 41
0.0
 71
     7
 72
     5
  1

1001
ACAD
1000
MTEXTBEGIN
1070
    73
1070
     1
1070
    44
1040
1.0
1070
    74
1070
     0
1000
MTEXTEND
1000
MTEXTBEGIN
1070
    73
1070
     1
1070
    44
1040
1.0
1070
    74
1070
     0
1000
MTEXTEND
  0
MTEXT
  5
5450
330
1A
100
AcDbEntity
  8
0
100
AcDbMText
 10
18602.64096720968
 20
13804.1445837278
 30
0.0
 40
8.0
 41
0.0
 71
     7
 72
     5
  1

1001
ACAD
1000
MTEXTBEGIN
1070
    73
1070
     1
1070
    44
1040
1.0
1070
    74
1070
     0
1000
MTEXTEND
1000
MTEXTBEGIN
1070
    73
1070
     1
1070
    44
1040
1.0
1070
    74
1070
     0
1000
MTEXTEND
  0
MTEXT
  5
5451
330
1A
100
AcDbEntity
  8
SUNPOU
100
AcDbMText
 10
21268.53798789184
 20
23316.25597610292
 30
0.0
 40
10.5
 41
0.0
 71
     1
 72
     5
  1

1001
ACAD
1000
MTEXTBEGIN
1070
    73
1070
     1
1070
    44
1040
1.0
1070
    74
1070
     0
1000
MTEXTEND
1000
MTEXTBEGIN
1070
    73
1070
     1
1070
    44
1040
1.0
1070
    74
1070
     0
1000
MTEXTEND
  0
MTEXT
  5
5452
330
1A
100
AcDbEntity
  8
SUNPOU
100
AcDbMText
 10
13337.6147919559
 20
22369.46284218996
 30
0.0
 40
10.5
 41
0.0
 71
     7
 72
     5
  1

1001
ACAD
1000
MTEXTBEGIN
1070
    73
1070
     1
1070
    44
1040
1.0
1070
    74
1070
     0
1000
MTEXTEND
1000
MTEXTBEGIN
1070
    73
1070
     1
1070
    44
1040
1.0
1070
    74
1070
     0
1000
MTEXTEND
  0
MTEXT
  5
5453
330
1A
100
AcDbEntity
  8
SUNPOU
100
AcDbMText
 10
16286.59845646867
 20
27270.13891403279
 30
0.0
 40
10.5
 41
0.0
 71
     7
 72
     5
  1

1001
ACAD
1000
MTEXTBEGIN
1070
    73
1070
     1
1070
    44
1040
1.0
1070
    74
1070
     0
1000
MTEXTEND
1000
MTEXTBEGIN
1070
    73
1070
     1
1070
    44
1040
1.0
1070
    74
1070
     0
1000
MTEXTEND
  0
MTEXT
  5
5454
330
1A
100
AcDbEntity
  8
SUNPOU
100
AcDbMText
 10
20795.67658441924
 20
29706.43966165288
 30
0.0
 40
10.5
 41
0.0
 71
     7
 72
     5
  1

1001
ACAD
1000
MTEXTBEGIN
1070
    73
1070
     1
1070
    44
1040
1.0
1070
    74
1070
     0
1000
MTEXTEND
1000
MTEXTBEGIN
1070
    73
1070
     1
1070
    44
1040
1.0
1070
    74
1070
     0
1000
MTEXTEND
  0
MTEXT
  5
5455
330
1A
100
AcDbEntity
  8
0
100
AcDbMText
 10
16611.93789220313
 20
14707.52144344448
 30
0.0
 40
8.0
 41
0.0
 71
     7
 72
     5
  1

1001
ACAD
1000
MTEXTBEGIN
1070
    73
1070
     1
1070
    44
1040
1.0
1070
    74
1070
     0
1000
MTEXTEND
1000
MTEXTBEGIN
1070
    73
1070
     1
1070
    44
1040
1.0
1070
    74
1070
     0
1000
MTEXTEND
  0
MTEXT
  5
5456
330
1A
100
AcDbEntity
  8
0
100
AcDbMText
 10
18897.29558209803
 20
15678.31173819554
 30
0.0
 40
8.0
 41
0.0
 71
     7
 72
     5
  1

1001
ACAD
1000
MTEXTBEGIN
1070
    73
1070
     1
1070
    44
1040
1.0
1070
    74
1070
     0
1000
MTEXTEND
1000
MTEXTBEGIN
1070
    73
1070
     1
1070
    44
1040
1.0
1070
    74
1070
     0
1000
MTEXTEND
  0
MTEXT
  5
5457
330
1A
100
AcDbEntity
  8
SUNPOU
100
AcDbMText
 10
21563.19260278019
 20
25190.42313057066
 30
0.0
 40
10.5
 41
0.0
 71
     1
 72
     5
  1

1001
ACAD
1000
MTEXTBEGIN
1070
    73
1070
     1
1070
    44
1040
1.0
1070
    74
1070
     0
1000
MTEXTEND
1000
MTEXTBEGIN
1070
    73
1070
     1
1070
    44
1040
1.0
1070
    74
1070
     0
1000
MTEXTEND
  0
MTEXT
  5
5458
330
1A
100
AcDbEntity
  8
SUNPOU
100
AcDbMText
 10
13632.26940684425
 20
24243.6299966577
 30
0.0
 40
10.5
 41
0.0
 71
     7
 72
     5
  1

1001
ACAD
1000
MTEXTBEGIN
1070
    73
1070
     1
1070
    44
1040
1.0
1070
    74
1070
     0
1000
MTEXTEND
1000
MTEXTBEGIN
1070
    73
1070
     1
1070
    44
1040
1.0
1070
    74
1070
     0
1000
MTEXTEND
  0
MTEXT
  5
5459
330
1A
100
AcDbEntity
  8
SUNPOU
100
AcDbMText
 10
16581.25307135702
 20
29144.30606850055
 30
0.0
 40
10.5
 41
0.0
 71
     7
 72
     5
  1

1001
ACAD
1000
MTEXTBEGIN
1070
    73
1070
     1
1070
    44
1040
1.0
1070
    74
1070
     0
1000
MTEXTEND
1000
MTEXTBEGIN
1070
    73
1070
     1
1070
    44
1040
1.0
1070
    74
1070
     0
1000
MTEXTEND
  0
MTEXT
  5
545A
330
1A
100
AcDbEntity
  8
SUNPOU
100
AcDbMText
 10
21090.33119930759
 20
31580.60681612062
 30
0.0
 40
10.5
 41
0.0
 71
     7
 72
     5
  1

1001
ACAD
1000
MTEXTBEGIN
1070
    73
1070
     1
1070
    44
1040
1.0
1070
    74
1070
     0
1000
MTEXTEND
1000
MTEXTBEGIN
1070
    73
1070
     1
1070
    44
1040
1.0
1070
    74
1070
     0
1000
MTEXTEND
  0
MTEXT
  5
545B
330
1A
100
AcDbEntity
  8
0
100
AcDbMText
 10
22871.60517627166
 20
23974.88367124799
 30
0.0
 40
8.0
 41
0.0
 71
     7
 72
     5
  1

1001
ACAD
1000
MTEXTBEGIN
1070
    73
1070
     1
1070
    44
1040
1.0
1070
    74
1070
     0
1000
MTEXTEND
1000
MTEXTBEGIN
1070
    73
1070
     1
1070
    44
1040
1.0
1070
    74
1070
     0
1000
MTEXTEND
  0
MTEXT
  5
545C
330
1A
100
AcDbEntity
  8
0
100
AcDbMText
 10
25156.96286616655
 20
24945.67396599904
 30
0.0
 40
8.0
 41
0.0
 71
     7
 72
     5
  1

1001
ACAD
1000
MTEXTBEGIN
1070
    73
1070
     1
1070
    44
1040
1.0
1070
    74
1070
     0
1000
MTEXTEND
1000
MTEXTBEGIN
1070
    73
1070
     1
1070
    44
1040
1.0
1070
    74
1070
     0
1000
MTEXTEND
  0
MTEXT
  5
545D
330
1A
100
AcDbEntity
  8
SUNPOU
100
AcDbMText
 10
27822.85988684871
 20
34457.78535837418
 30
0.0
 40
10.5
 41
0.0
 71
     1
 72
     5
  1

1001
ACAD
1000
MTEXTBEGIN
1070
    73
1070
     1
1070
    44
1040
1.0
1070
    74
1070
     0
1000
MTEXTEND
1000
MTEXTBEGIN
1070
    73
1070
     1
1070
    44
1040
1.0
1070
    74
1070
     0
1000
MTEXTEND
  0
MTEXT
  5
545E
330
1A
100
AcDbEntity
  8
SUNPOU
100
AcDbMText
 10
19891.93669091278
 20
33510.99222446122
 30
0.0
 40
10.5
 41
0.0
 71
     7
 72
     5
  1

1001
ACAD
1000
MTEXTBEGIN
1070
    73
1070
     1
1070
    44
1040
1.0
1070
    74
1070
     0
1000
MTEXTEND
1000
MTEXTBEGIN
1070
    73
1070
     1
1070
    44
1040
1.0
1070
    74
1070
     0
1000
MTEXTEND
  0
MTEXT
  5
545F
330
1A
100
AcDbEntity
  8
SUNPOU
100
AcDbMText
 10
22840.92035542555
 20
38411.66829630406
 30
0.0
 40
10.5
 41
0.0
 71
     7
 72
     5
  1

1001
ACAD
1000
MTEXTBEGIN
1070
    73
1070
     1
1070
    44
1040
1.0
1070
    74
1070
     0
1000
MTEXTEND
1000
MTEXTBEGIN
1070
    73
1070
     1
1070
    44
1040
1.0
1070
    74
1070
     0
1000
MTEXTEND
  0
MTEXT
  5
5460
330
1A
100
AcDbEntity
  8
SUNPOU
100
AcDbMText
 10
27349.99848337611
 20
40847.96904392415
 30
0.0
 40
10.5
 41
0.0
 71
     7
 72
     5
  1

1001
ACAD
1000
MTEXTBEGIN
1070
    73
1070
     1
1070
    44
1040
1.0
1070
    74
1070
     0
1000
MTEXTEND
1000
MTEXTBEGIN
1070
    73
1070
     1
1070
    44
1040
1.0
1070
    74
1070
     0
1000
MTEXTEND
  0
MTEXT
  5
55B7
330
1A
100
AcDbEntity
  8
SUNPOU
100
AcDbMText
 10
67424.23923338197
 20
64463.86602884816
 30
0.0
 40
10.5
 41
0.0
 71
     9
 72
     5
  1

1001
ACAD
1000
MTEXTBEGIN
1070
    73
1070
     1
1070
    44
1040
1.0
1070
    74
1070
     0
1000
MTEXTEND
1000
MTEXTBEGIN
1070
    73
1070
     1
1070
    44
1040
1.0
1070
    74
1070
     0
1000
MTEXTEND
  0
MTEXT
  5
55B8
330
1A
100
AcDbEntity
  8
SUNPOU
100
AcDbMText
 10
76146.40679929998
 20
71879.70056038563
 30
0.0
 40
10.5
 41
0.0
 71
     9
 72
     5
  1

1001
ACAD
1000
MTEXTBEGIN
1070
    73
1070
     1
1070
    44
1040
1.0
1070
    74
1070
     0
1000
MTEXTEND
1000
MTEXTBEGIN
1070
    73
1070
     1
1070
    44
1040
1.0
1070
    74
1070
     0
1000
MTEXTEND
  0
MTEXT
  5
55B9
330
1A
100
AcDbEntity
  8
SUNPOU
100
AcDbMText
 10
95100.16551662994
 20
89346.27661287766
 30
0.0
 40
10.5
 41
0.0
 71
     9
 72
     5
  1

1001
ACAD
1000
MTEXTBEGIN
1070
    73
1070
     1
1070
    44
1040
1.0
1070
    74
1070
     0
1000
MTEXTEND
1000
MTEXTBEGIN
1070
    73
1070
     1
1070
    44
1040
1.0
1070
    74
1070
     0
1000
MTEXTEND
  0
MTEXT
  5
55BA
330
1A
100
AcDbEntity
  8
SUNPOU
100
AcDbMText
 10
97043.57276333935
 20
87545.22753299966
 30
0.0
 40
3.5
 41
0.0
 71
     9
 72
     5
  1

1001
ACAD
1000
MTEXTBEGIN
1070
    73
1070
     1
1070
    44
1040
1.0
1070
    74
1070
     0
1000
MTEXTEND
1000
MTEXTBEGIN
1070
    73
1070
     1
1070
    44
1040
1.0
1070
    74
1070
     0
1000
MTEXTEND
  0
MTEXT
  5
55BB
330
1A
100
AcDbEntity
  8
SUNPOU
100
AcDbMText
 10
128169.7525959589
 20
130040.1732006569
 30
0.0
 40
10.5
 41
0.0
 71
     9
 72
     5
  1

1001
ACAD
1000
MTEXTBEGIN
1070
    73
1070
     1
1070
    44
1040
1.0
1070
    74
1070
     0
1000
MTEXTEND
1000
MTEXTBEGIN
1070
    73
1070
     1
1070
    44
1040
1.0
1070
    74
1070
     0
1000
MTEXTEND
  0
MTEXT
  5
55BC
330
1A
100
AcDbEntity
  8
SUNPOU
100
AcDbMText
 10
130113.1598426684
 20
128239.1241207789
 30
0.0
 40
3.5
 41
0.0
 71
     9
 72
     5
  1

1001
ACAD
1000
MTEXTBEGIN
1070
    73
1070
     1
1070
    44
1040
1.0
1070
    74
1070
     0
1000
MTEXTEND
1000
MTEXTBEGIN
1070
    73
1070
     1
1070
    44
1040
1.0
1070
    74
1070
     0
1000
MTEXTEND
  0
MTEXT
  5
55BD
330
1A
100
AcDbEntity
  8
SUNPOU
100
AcDbMText
 10
78610.02030175463
 20
75873.33835563206
 30
0.0
 40
10.5
 41
0.0
 71
     9
 72
     5
  1

1001
ACAD
1000
MTEXTBEGIN
1070
    73
1070
     1
1070
    44
1040
1.0
1070
    74
1070
     0
1000
MTEXTEND
1000
MTEXTBEGIN
1070
    73
1070
     1
1070
    44
1040
1.0
1070
    74
1070
     0
1000
MTEXTEND
  0
MTEXT
  5
55BE
330
1A
100
AcDbEntity
  8
SUNPOU
100
AcDbMText
 10
64662.02020137862
 20
56700.93921651987
 30
0.0
 40
3.5
 41
0.0
 71
     7
 72
     5
  1

1001
ACAD
1000
MTEXTBEGIN
1070
    73
1070
     1
1070
    44
1040
1.0
1070
    74
1070
     0
1000
MTEXTEND
1000
MTEXTBEGIN
1070
    73
1070
     1
1070
    44
1040
1.0
1070
    74
1070
     0
1000
MTEXTEND
  0
MTEXT
  5
55BF
330
1A
100
AcDbEntity
  8
SUNPOU
100
AcDbMText
 10
45647.18959837176
 20
44463.08794733806
 30
0.0
 40
10.5
 41
0.0
 71
     7
 72
     5
  1

1001
ACAD
1000
MTEXTBEGIN
1070
    73
1070
     1
1070
    44
1040
1.0
1070
    74
1070
     0
1000
MTEXTEND
1000
MTEXTBEGIN
1070
    73
1070
     1
1070
    44
1040
1.0
1070
    74
1070
     0
1000
MTEXTEND
  0
MTEXT
  5
55C0
330
1A
100
AcDbEntity
  8
SUNPOU
100
AcDbMText
 10
33189.96133342368
 20
28618.15636923965
 30
0.0
 40
35.0
 41
0.0
 71
     9
 72
     5
  1

1001
ACAD
1000
MTEXTBEGIN
1070
    73
1070
     1
1070
    44
1040
1.0
1070
    74
1070
     0
1000
MTEXTEND
1000
MTEXTBEGIN
1070
    73
1070
     1
1070
    44
1040
1.0
1070
    74
1070
     0
1000
MTEXTEND
  0
MTEXT
  5
55C1
330
1A
100
AcDbEntity
  8
SUNPOU
100
AcDbMText
 10
32098.44639099864
 20
29226.93177928834
 30
0.0
 40
350.0000004171781
 41
0.0
 71
     7
 72
     5
  1

1001
ACAD
1000
MTEXTBEGIN
1070
    73
1070
     1
1070
    44
1040
1.0
1070
    74
1070
     0
1000
MTEXTEND
1000
MTEXTBEGIN
1070
    73
1070
     1
1070
    44
1040
1.0
1070
    74
1070
     0
1000
MTEXTEND
  0
MTEXT
  5
55C2
330
1A
100
AcDbEntity
  8
0
100
AcDbMText
 10
38142.39714894154
 20
27206.85414142458
 30
0.0
 40
8.0
 41
0.0
 71
     7
 72
     5
  1

1001
ACAD
1000
MTEXTBEGIN
1070
    73
1070
     1
1070
    44
1040
1.0
1070
    74
1070
     0
1000
MTEXTEND
1000
MTEXTBEGIN
1070
    73
1070
     1
1070
    44
1040
1.0
1070
    74
1070
     0
1000
MTEXTEND
  0
MTEXT
  5
55C3
330
1A
100
AcDbEntity
  8
0
100
AcDbMText
 10
40427.75483883644
 20
28177.64443617564
 30
0.0
 40
8.0
 41
0.0
 71
     7
 72
     5
  1

1001
ACAD
1000
MTEXTBEGIN
1070
    73
1070
     1
1070
    44
1040
1.0
1070
    74
1070
     0
1000
MTEXTEND
1000
MTEXTBEGIN
1070
    73
1070
     1
1070
    44
1040
1.0
1070
    74
1070
     0
1000
MTEXTEND
  0
MTEXT
  5
55C4
330
1A
100
AcDbEntity
  8
SUNPOU
100
AcDbMText
 10
43093.65185951858
 20
37689.75582855077
 30
0.0
 40
10.5
 41
0.0
 71
     1
 72
     5
  1

1001
ACAD
1000
MTEXTBEGIN
1070
    73
1070
     1
1070
    44
1040
1.0
1070
    74
1070
     0
1000
MTEXTEND
1000
MTEXTBEGIN
1070
    73
1070
     1
1070
    44
1040
1.0
1070
    74
1070
     0
1000
MTEXTEND
  0
MTEXT
  5
55C5
330
1A
100
AcDbEntity
  8
SUNPOU
100
AcDbMText
 10
35162.72866358265
 20
36742.96269463781
 30
0.0
 40
10.5
 41
0.0
 71
     7
 72
     5
  1

1001
ACAD
1000
MTEXTBEGIN
1070
    73
1070
     1
1070
    44
1040
1.0
1070
    74
1070
     0
1000
MTEXTEND
1000
MTEXTBEGIN
1070
    73
1070
     1
1070
    44
1040
1.0
1070
    74
1070
     0
1000
MTEXTEND
  0
MTEXT
  5
55C6
330
1A
100
AcDbEntity
  8
SUNPOU
100
AcDbMText
 10
38111.71232809542
 20
41643.63876648065
 30
0.0
 40
10.5
 41
0.0
 71
     7
 72
     5
  1

1001
ACAD
1000
MTEXTBEGIN
1070
    73
1070
     1
1070
    44
1040
1.0
1070
    74
1070
     0
1000
MTEXTEND
1000
MTEXTBEGIN
1070
    73
1070
     1
1070
    44
1040
1.0
1070
    74
1070
     0
1000
MTEXTEND
  0
MTEXT
  5
55C7
330
1A
100
AcDbEntity
  8
SUNPOU
100
AcDbMText
 10
42620.79045604596
 20
44079.93951410074
 30
0.0
 40
10.5
 41
0.0
 71
     7
 72
     5
  1

1001
ACAD
1000
MTEXTBEGIN
1070
    73
1070
     1
1070
    44
1040
1.0
1070
    74
1070
     0
1000
MTEXTEND
1000
MTEXTBEGIN
1070
    73
1070
     1
1070
    44
1040
1.0
1070
    74
1070
     0
1000
MTEXTEND
  0
MTEXT
  5
55C8
330
1A
100
AcDbEntity
  8
SUNPOU
100
AcDbMText
 10
26221.62834281429
 20
23077.53566448964
 30
0.0
 40
10.5
 41
0.0
 71
     7
 72
     5
  1

1001
ACAD
1000
MTEXTBEGIN
1070
    73
1070
     1
1070
    44
1040
1.0
1070
    74
1070
     0
1000
MTEXTEND
1000
MTEXTBEGIN
1070
    73
1070
     1
1070
    44
1040
1.0
1070
    74
1070
     0
1000
MTEXTEND
  0
MTEXT
  5
55C9
330
1A
100
AcDbEntity
  8
SUNPOU
100
AcDbMText
 10
77413.14677671455
 20
68750.51622813789
 30
0.0
 40
10.5
 41
0.0
 71
     9
 72
     5
  1

1001
ACAD
1000
MTEXTBEGIN
1070
    73
1070
     1
1070
    44
1040
1.0
1070
    74
1070
     0
1000
MTEXTEND
1000
MTEXTBEGIN
1070
    73
1070
     1
1070
    44
1040
1.0
1070
    74
1070
     0
1000
MTEXTEND
  0
MTEXT
  5
55CA
330
1A
100
AcDbEntity
  8
SUNPOU
100
AcDbMText
 10
86135.31434263256
 20
76166.35075967536
 30
0.0
 40
10.5
 41
0.0
 71
     9
 72
     5
  1

1001
ACAD
1000
MTEXTBEGIN
1070
    73
1070
     1
1070
    44
1040
1.0
1070
    74
1070
     0
1000
MTEXTEND
1000
MTEXTBEGIN
1070
    73
1070
     1
1070
    44
1040
1.0
1070
    74
1070
     0
1000
MTEXTEND
  0
MTEXT
  5
55CB
330
1A
100
AcDbEntity
  8
SUNPOU
100
AcDbMText
 10
105089.0730599624
 20
93632.92681216739
 30
0.0
 40
10.5
 41
0.0
 71
     9
 72
     5
  1

1001
ACAD
1000
MTEXTBEGIN
1070
    73
1070
     1
1070
    44
1040
1.0
1070
    74
1070
     0
1000
MTEXTEND
1000
MTEXTBEGIN
1070
    73
1070
     1
1070
    44
1040
1.0
1070
    74
1070
     0
1000
MTEXTEND
  0
MTEXT
  5
55CC
330
1A
100
AcDbEntity
  8
SUNPOU
100
AcDbMText
 10
107032.4803066718
 20
91831.87773228937
 30
0.0
 40
3.5
 41
0.0
 71
     9
 72
     5
  1

1001
ACAD
1000
MTEXTBEGIN
1070
    73
1070
     1
1070
    44
1040
1.0
1070
    74
1070
     0
1000
MTEXTEND
1000
MTEXTBEGIN
1070
    73
1070
     1
1070
    44
1040
1.0
1070
    74
1070
     0
1000
MTEXTEND
  0
MTEXT
  5
55CD
330
1A
100
AcDbEntity
  8
SUNPOU
100
AcDbMText
 10
138158.6601392916
 20
134326.8233999467
 30
0.0
 40
10.5
 41
0.0
 71
     9
 72
     5
  1

1001
ACAD
1000
MTEXTBEGIN
1070
    73
1070
     1
1070
    44
1040
1.0
1070
    74
1070
     0
1000
MTEXTEND
1000
MTEXTBEGIN
1070
    73
1070
     1
1070
    44
1040
1.0
1070
    74
1070
     0
1000
MTEXTEND
  0
MTEXT
  5
55CE
330
1A
100
AcDbEntity
  8
SUNPOU
100
AcDbMText
 10
140102.067386001
 20
132525.7743200686
 30
0.0
 40
3.5
 41
0.0
 71
     9
 72
     5
  1

1001
ACAD
1000
MTEXTBEGIN
1070
    73
1070
     1
1070
    44
1040
1.0
1070
    74
1070
     0
1000
MTEXTEND
1000
MTEXTBEGIN
1070
    73
1070
     1
1070
    44
1040
1.0
1070
    74
1070
     0
1000
MTEXTEND
  0
MTEXT
  5
55CF
330
1A
100
AcDbEntity
  8
SUNPOU
100
AcDbMText
 10
88598.92784508721
 20
80159.98855492179
 30
0.0
 40
10.5
 41
0.0
 71
     9
 72
     5
  1

1001
ACAD
1000
MTEXTBEGIN
1070
    73
1070
     1
1070
    44
1040
1.0
1070
    74
1070
     0
1000
MTEXTEND
1000
MTEXTBEGIN
1070
    73
1070
     1
1070
    44
1040
1.0
1070
    74
1070
     0
1000
MTEXTEND
  0
MTEXT
  5
55D0
330
1A
100
AcDbEntity
  8
SUNPOU
100
AcDbMText
 10
74650.92774471121
 20
60987.58941580959
 30
0.0
 40
3.5
 41
0.0
 71
     7
 72
     5
  1

1001
ACAD
1000
MTEXTBEGIN
1070
    73
1070
     1
1070
    44
1040
1.0
1070
    74
1070
     0
1000
MTEXTEND
1000
MTEXTBEGIN
1070
    73
1070
     1
1070
    44
1040
1.0
1070
    74
1070
     0
1000
MTEXTEND
  0
MTEXT
  5
55D1
330
1A
100
AcDbEntity
  8
SUNPOU
100
AcDbMText
 10
55636.09714170436
 20
48749.73814662781
 30
0.0
 40
10.5
 41
0.0
 71
     7
 72
     5
  1

1001
ACAD
1000
MTEXTBEGIN
1070
    73
1070
     1
1070
    44
1040
1.0
1070
    74
1070
     0
1000
MTEXTEND
1000
MTEXTBEGIN
1070
    73
1070
     1
1070
    44
1040
1.0
1070
    74
1070
     0
1000
MTEXTEND
  0
MTEXT
  5
55D2
330
1A
100
AcDbEntity
  8
SUNPOU
100
AcDbMText
 10
43178.86887675626
 20
32904.80656852937
 30
0.0
 40
35.0
 41
0.0
 71
     9
 72
     5
  1

1001
ACAD
1000
MTEXTBEGIN
1070
    73
1070
     1
1070
    44
1040
1.0
1070
    74
1070
     0
1000
MTEXTEND
1000
MTEXTBEGIN
1070
    73
1070
     1
1070
    44
1040
1.0
1070
    74
1070
     0
1000
MTEXTEND
  0
MTEXT
  5
55D3
330
1A
100
AcDbEntity
  8
SUNPOU
100
AcDbMText
 10
42087.3539343312
 20
33513.58197857808
 30
0.0
 40
350.0000004171781
 41
0.0
 71
     7
 72
     5
  1

1001
ACAD
1000
MTEXTBEGIN
1070
    73
1070
     1
1070
    44
1040
1.0
1070
    74
1070
     0
1000
MTEXTEND
1000
MTEXTBEGIN
1070
    73
1070
     1
1070
    44
1040
1.0
1070
    74
1070
     0
1000
MTEXTEND
  0
MTEXT
  5
55D4
330
1A
100
AcDbEntity
  8
0
100
AcDbMText
 10
48131.30469227412
 20
31493.50434071431
 30
0.0
 40
8.0
 41
0.0
 71
     7
 72
     5
  1

1001
ACAD
1000
MTEXTBEGIN
1070
    73
1070
     1
1070
    44
1040
1.0
1070
    74
1070
     0
1000
MTEXTEND
1000
MTEXTBEGIN
1070
    73
1070
     1
1070
    44
1040
1.0
1070
    74
1070
     0
1000
MTEXTEND
  0
MTEXT
  5
55D5
330
1A
100
AcDbEntity
  8
0
100
AcDbMText
 10
50416.66238216901
 20
32464.29463546537
 30
0.0
 40
8.0
 41
0.0
 71
     7
 72
     5
  1

1001
ACAD
1000
MTEXTBEGIN
1070
    73
1070
     1
1070
    44
1040
1.0
1070
    74
1070
     0
1000
MTEXTEND
1000
MTEXTBEGIN
1070
    73
1070
     1
1070
    44
1040
1.0
1070
    74
1070
     0
1000
MTEXTEND
  0
MTEXT
  5
55D6
330
1A
100
AcDbEntity
  8
SUNPOU
100
AcDbMText
 10
53082.55940285115
 20
41976.4060278405
 30
0.0
 40
10.5
 41
0.0
 71
     1
 72
     5
  1

1001
ACAD
1000
MTEXTBEGIN
1070
    73
1070
     1
1070
    44
1040
1.0
1070
    74
1070
     0
1000
MTEXTEND
1000
MTEXTBEGIN
1070
    73
1070
     1
1070
    44
1040
1.0
1070
    74
1070
     0
1000
MTEXTEND
  0
MTEXT
  5
55D7
330
1A
100
AcDbEntity
  8
SUNPOU
100
AcDbMText
 10
45151.63620691521
 20
41029.61289392755
 30
0.0
 40
10.5
 41
0.0
 71
     7
 72
     5
  1

1001
ACAD
1000
MTEXTBEGIN
1070
    73
1070
     1
1070
    44
1040
1.0
1070
    74
1070
     0
1000
MTEXTEND
1000
MTEXTBEGIN
1070
    73
1070
     1
1070
    44
1040
1.0
1070
    74
1070
     0
1000
MTEXTEND
  0
MTEXT
  5
55D8
330
1A
100
AcDbEntity
  8
SUNPOU
100
AcDbMText
 10
48100.61987142798
 20
45930.28896577039
 30
0.0
 40
10.5
 41
0.0
 71
     7
 72
     5
  1

1001
ACAD
1000
MTEXTBEGIN
1070
    73
1070
     1
1070
    44
1040
1.0
1070
    74
1070
     0
1000
MTEXTEND
1000
MTEXTBEGIN
1070
    73
1070
     1
1070
    44
1040
1.0
1070
    74
1070
     0
1000
MTEXTEND
  0
MTEXT
  5
55D9
330
1A
100
AcDbEntity
  8
SUNPOU
100
AcDbMText
 10
52609.69799937853
 20
48366.58971339046
 30
0.0
 40
10.5
 41
0.0
 71
     7
 72
     5
  1

1001
ACAD
1000
MTEXTBEGIN
1070
    73
1070
     1
1070
    44
1040
1.0
1070
    74
1070
     0
1000
MTEXTEND
1000
MTEXTBEGIN
1070
    73
1070
     1
1070
    44
1040
1.0
1070
    74
1070
     0
1000
MTEXTEND
  0
MTEXT
  5
55DA
330
1A
100
AcDbEntity
  8
SUNPOU
100
AcDbMText
 10
36210.53588614687
 20
27364.18586377937
 30
0.0
 40
10.5
 41
0.0
 71
     7
 72
     5
  1

1001
ACAD
1000
MTEXTBEGIN
1070
    73
1070
     1
1070
    44
1040
1.0
1070
    74
1070
     0
1000
MTEXTEND
1000
MTEXTBEGIN
1070
    73
1070
     1
1070
    44
1040
1.0
1070
    74
1070
     0
1000
MTEXTEND
  0
MTEXT
  5
55DB
330
1A
100
AcDbEntity
  8
SUNPOU
100
AcDbMText
 10
38021.29879752181
 20
33691.59985125794
 30
0.0
 40
10.5
 41
0.0
 71
     9
 72
     5
  1

1001
ACAD
1000
MTEXTBEGIN
1070
    73
1070
     1
1070
    44
1040
1.0
1070
    74
1070
     0
1000
MTEXTEND
1000
MTEXTBEGIN
1070
    73
1070
     1
1070
    44
1040
1.0
1070
    74
1070
     0
1000
MTEXTEND
  0
MTEXT
  5
55DC
330
1A
100
AcDbEntity
  8
SUNPOU
100
AcDbMText
 10
46743.46636343979
 20
41107.4343827954
 30
0.0
 40
10.5
 41
0.0
 71
     9
 72
     5
  1

1001
ACAD
1000
MTEXTBEGIN
1070
    73
1070
     1
1070
    44
1040
1.0
1070
    74
1070
     0
1000
MTEXTEND
1000
MTEXTBEGIN
1070
    73
1070
     1
1070
    44
1040
1.0
1070
    74
1070
     0
1000
MTEXTEND
  0
MTEXT
  5
55DD
330
1A
100
AcDbEntity
  8
SUNPOU
100
AcDbMText
 10
65697.22508076974
 20
58574.01043528746
 30
0.0
 40
10.5
 41
0.0
 71
     9
 72
     5
  1

1001
ACAD
1000
MTEXTBEGIN
1070
    73
1070
     1
1070
    44
1040
1.0
1070
    74
1070
     0
1000
MTEXTEND
1000
MTEXTBEGIN
1070
    73
1070
     1
1070
    44
1040
1.0
1070
    74
1070
     0
1000
MTEXTEND
  0
MTEXT
  5
55DE
330
1A
100
AcDbEntity
  8
SUNPOU
100
AcDbMText
 10
67640.63232747917
 20
56772.96135540945
 30
0.0
 40
3.5
 41
0.0
 71
     9
 72
     5
  1

1001
ACAD
1000
MTEXTBEGIN
1070
    73
1070
     1
1070
    44
1040
1.0
1070
    74
1070
     0
1000
MTEXTEND
1000
MTEXTBEGIN
1070
    73
1070
     1
1070
    44
1040
1.0
1070
    74
1070
     0
1000
MTEXTEND
  0
MTEXT
  5
55DF
330
1A
100
AcDbEntity
  8
SUNPOU
100
AcDbMText
 10
98766.81216009886
 20
99267.9070230668
 30
0.0
 40
10.5
 41
0.0
 71
     9
 72
     5
  1

1001
ACAD
1000
MTEXTBEGIN
1070
    73
1070
     1
1070
    44
1040
1.0
1070
    74
1070
     0
1000
MTEXTEND
1000
MTEXTBEGIN
1070
    73
1070
     1
1070
    44
1040
1.0
1070
    74
1070
     0
1000
MTEXTEND
  0
MTEXT
  5
55E0
330
1A
100
AcDbEntity
  8
SUNPOU
100
AcDbMText
 10
100710.2194068083
 20
97466.85794318876
 30
0.0
 40
3.5
 41
0.0
 71
     9
 72
     5
  1

1001
ACAD
1000
MTEXTBEGIN
1070
    73
1070
     1
1070
    44
1040
1.0
1070
    74
1070
     0
1000
MTEXTEND
1000
MTEXTBEGIN
1070
    73
1070
     1
1070
    44
1040
1.0
1070
    74
1070
     0
1000
MTEXTEND
  0
MTEXT
  5
55E1
330
1A
100
AcDbEntity
  8
SUNPOU
100
AcDbMText
 10
49207.07986589443
 20
45101.07217804184
 30
0.0
 40
10.5
 41
0.0
 71
     9
 72
     5
  1

1001
ACAD
1000
MTEXTBEGIN
1070
    73
1070
     1
1070
    44
1040
1.0
1070
    74
1070
     0
1000
MTEXTEND
1000
MTEXTBEGIN
1070
    73
1070
     1
1070
    44
1040
1.0
1070
    74
1070
     0
1000
MTEXTEND
  0
MTEXT
  5
55E2
330
1A
100
AcDbEntity
  8
SUNPOU
100
AcDbMText
 10
35259.07976551845
 20
25928.67303892964
 30
0.0
 40
3.5
 41
0.0
 71
     7
 72
     5
  1

1001
ACAD
1000
MTEXTBEGIN
1070
    73
1070
     1
1070
    44
1040
1.0
1070
    74
1070
     0
1000
MTEXTEND
1000
MTEXTBEGIN
1070
    73
1070
     1
1070
    44
1040
1.0
1070
    74
1070
     0
1000
MTEXTEND
  0
MTEXT
  5
55E3
330
1A
100
AcDbEntity
  8
SUNPOU
100
AcDbMText
 10
48951.43044828905
 20
35287.73625995099
 30
0.0
 40
10.5
 41
0.0
 71
     9
 72
     5
  1

1001
ACAD
1000
MTEXTBEGIN
1070
    73
1070
     1
1070
    44
1040
1.0
1070
    74
1070
     0
1000
MTEXTEND
1000
MTEXTBEGIN
1070
    73
1070
     1
1070
    44
1040
1.0
1070
    74
1070
     0
1000
MTEXTEND
  0
MTEXT
  5
55E4
330
1A
100
AcDbEntity
  8
SUNPOU
100
AcDbMText
 10
57673.59801420702
 20
42703.57079148847
 30
0.0
 40
10.5
 41
0.0
 71
     9
 72
     5
  1

1001
ACAD
1000
MTEXTBEGIN
1070
    73
1070
     1
1070
    44
1040
1.0
1070
    74
1070
     0
1000
MTEXTEND
1000
MTEXTBEGIN
1070
    73
1070
     1
1070
    44
1040
1.0
1070
    74
1070
     0
1000
MTEXTEND
  0
MTEXT
  5
55E5
330
1A
100
AcDbEntity
  8
SUNPOU
100
AcDbMText
 10
76627.35673153699
 20
60170.14684398051
 30
0.0
 40
10.5
 41
0.0
 71
     9
 72
     5
  1

1001
ACAD
1000
MTEXTBEGIN
1070
    73
1070
     1
1070
    44
1040
1.0
1070
    74
1070
     0
1000
MTEXTEND
1000
MTEXTBEGIN
1070
    73
1070
     1
1070
    44
1040
1.0
1070
    74
1070
     0
1000
MTEXTEND
  0
MTEXT
  5
55E6
330
1A
100
AcDbEntity
  8
SUNPOU
100
AcDbMText
 10
78570.76397824641
 20
58369.09776410251
 30
0.0
 40
3.5
 41
0.0
 71
     9
 72
     5
  1

1001
ACAD
1000
MTEXTBEGIN
1070
    73
1070
     1
1070
    44
1040
1.0
1070
    74
1070
     0
1000
MTEXTEND
1000
MTEXTBEGIN
1070
    73
1070
     1
1070
    44
1040
1.0
1070
    74
1070
     0
1000
MTEXTEND
  0
MTEXT
  5
55E7
330
1A
100
AcDbEntity
  8
SUNPOU
100
AcDbMText
 10
109696.943810866
 20
100864.0434317598
 30
0.0
 40
10.5
 41
0.0
 71
     9
 72
     5
  1

1001
ACAD
1000
MTEXTBEGIN
1070
    73
1070
     1
1070
    44
1040
1.0
1070
    74
1070
     0
1000
MTEXTEND
1000
MTEXTBEGIN
1070
    73
1070
     1
1070
    44
1040
1.0
1070
    74
1070
     0
1000
MTEXTEND
  0
MTEXT
  5
55E8
330
1A
100
AcDbEntity
  8
SUNPOU
100
AcDbMText
 10
111640.3510575755
 20
99062.99435188183
 30
0.0
 40
3.5
 41
0.0
 71
     9
 72
     5
  1

1001
ACAD
1000
MTEXTBEGIN
1070
    73
1070
     1
1070
    44
1040
1.0
1070
    74
1070
     0
1000
MTEXTEND
1000
MTEXTBEGIN
1070
    73
1070
     1
1070
    44
1040
1.0
1070
    74
1070
     0
1000
MTEXTEND
  0
MTEXT
  5
55E9
330
1A
100
AcDbEntity
  8
SUNPOU
100
AcDbMText
 10
60137.21151666167
 20
46697.20858673491
 30
0.0
 40
10.5
 41
0.0
 71
     9
 72
     5
  1

1001
ACAD
1000
MTEXTBEGIN
1070
    73
1070
     1
1070
    44
1040
1.0
1070
    74
1070
     0
1000
MTEXTEND
1000
MTEXTBEGIN
1070
    73
1070
     1
1070
    44
1040
1.0
1070
    74
1070
     0
1000
MTEXTEND
  0
MTEXT
  5
55EA
330
1A
100
AcDbEntity
  8
SUNPOU
100
AcDbMText
 10
46189.21141628568
 20
27524.80944762269
 30
0.0
 40
3.5
 41
0.0
 71
     7
 72
     5
  1

1001
ACAD
1000
MTEXTBEGIN
1070
    73
1070
     1
1070
    44
1040
1.0
1070
    74
1070
     0
1000
MTEXTEND
1000
MTEXTBEGIN
1070
    73
1070
     1
1070
    44
1040
1.0
1070
    74
1070
     0
1000
MTEXTEND
  0
MTEXT
  5
55EB
330
1A
100
AcDbEntity
  8
SUNPOU
100
AcDbMText
 10
45007.68847015541
 20
38269.57947701873
 30
0.0
 40
10.5
 41
0.0
 71
     9
 72
     5
  1

1001
ACAD
1000
MTEXTBEGIN
1070
    73
1070
     1
1070
    44
1040
1.0
1070
    74
1070
     0
1000
MTEXTEND
1000
MTEXTBEGIN
1070
    73
1070
     1
1070
    44
1040
1.0
1070
    74
1070
     0
1000
MTEXTEND
  0
MTEXT
  5
55EC
330
1A
100
AcDbEntity
  8
SUNPOU
100
AcDbMText
 10
63961.44718748539
 20
55736.15552951081
 30
0.0
 40
10.5
 41
0.0
 71
     9
 72
     5
  1

1001
ACAD
1000
MTEXTBEGIN
1070
    73
1070
     1
1070
    44
1040
1.0
1070
    74
1070
     0
1000
MTEXTEND
1000
MTEXTBEGIN
1070
    73
1070
     1
1070
    44
1040
1.0
1070
    74
1070
     0
1000
MTEXTEND
  0
MTEXT
  5
55ED
330
1A
100
AcDbEntity
  8
SUNPOU
100
AcDbMText
 10
65904.85443419479
 20
53935.10644963278
 30
0.0
 40
3.5
 41
0.0
 71
     9
 72
     5
  1

1001
ACAD
1000
MTEXTBEGIN
1070
    73
1070
     1
1070
    44
1040
1.0
1070
    74
1070
     0
1000
MTEXTEND
1000
MTEXTBEGIN
1070
    73
1070
     1
1070
    44
1040
1.0
1070
    74
1070
     0
1000
MTEXTEND
  0
MTEXT
  5
55EE
330
1A
100
AcDbEntity
  8
SUNPOU
100
AcDbMText
 10
97031.03426681453
 20
96430.05211729015
 30
0.0
 40
10.5
 41
0.0
 71
     9
 72
     5
  1

1001
ACAD
1000
MTEXTBEGIN
1070
    73
1070
     1
1070
    44
1040
1.0
1070
    74
1070
     0
1000
MTEXTEND
1000
MTEXTBEGIN
1070
    73
1070
     1
1070
    44
1040
1.0
1070
    74
1070
     0
1000
MTEXTEND
  0
MTEXT
  5
55EF
330
1A
100
AcDbEntity
  8
SUNPOU
100
AcDbMText
 10
98974.44151352393
 20
94629.00303741212
 30
0.0
 40
3.5
 41
0.0
 71
     9
 72
     5
  1

1001
ACAD
1000
MTEXTBEGIN
1070
    73
1070
     1
1070
    44
1040
1.0
1070
    74
1070
     0
1000
MTEXTEND
1000
MTEXTBEGIN
1070
    73
1070
     1
1070
    44
1040
1.0
1070
    74
1070
     0
1000
MTEXTEND
  0
MTEXT
  5
55F0
330
1A
100
AcDbEntity
  8
SUNPOU
100
AcDbMText
 10
47471.30197261006
 20
42263.21727226519
 30
0.0
 40
10.5
 41
0.0
 71
     9
 72
     5
  1

1001
ACAD
1000
MTEXTBEGIN
1070
    73
1070
     1
1070
    44
1040
1.0
1070
    74
1070
     0
1000
MTEXTEND
1000
MTEXTBEGIN
1070
    73
1070
     1
1070
    44
1040
1.0
1070
    74
1070
     0
1000
MTEXTEND
  0
MTEXT
  5
55F1
330
1A
100
AcDbEntity
  8
SUNPOU
100
AcDbMText
 10
33523.30187223408
 20
23090.81813315298
 30
0.0
 40
3.5
 41
0.0
 71
     7
 72
     5
  1

1001
ACAD
1000
MTEXTBEGIN
1070
    73
1070
     1
1070
    44
1040
1.0
1070
    74
1070
     0
1000
MTEXTEND
1000
MTEXTBEGIN
1070
    73
1070
     1
1070
    44
1040
1.0
1070
    74
1070
     0
1000
MTEXTEND
  0
MTEXT
  5
55F2
330
1A
100
AcDbEntity
  8
SUNPOU
100
AcDbMText
 10
57959.46254102503
 20
50038.08111611014
 30
0.0
 40
10.5
 41
0.0
 71
     9
 72
     5
  1

1001
ACAD
1000
MTEXTBEGIN
1070
    73
1070
     1
1070
    44
1040
1.0
1070
    74
1070
     0
1000
MTEXTEND
1000
MTEXTBEGIN
1070
    73
1070
     1
1070
    44
1040
1.0
1070
    74
1070
     0
1000
MTEXTEND
  0
MTEXT
  5
55F3
330
1A
100
AcDbEntity
  8
SUNPOU
100
AcDbMText
 10
76913.22125835503
 20
67504.65716860222
 30
0.0
 40
10.5
 41
0.0
 71
     9
 72
     5
  1

1001
ACAD
1000
MTEXTBEGIN
1070
    73
1070
     1
1070
    44
1040
1.0
1070
    74
1070
     0
1000
MTEXTEND
1000
MTEXTBEGIN
1070
    73
1070
     1
1070
    44
1040
1.0
1070
    74
1070
     0
1000
MTEXTEND
  0
MTEXT
  5
55F4
330
1A
100
AcDbEntity
  8
SUNPOU
100
AcDbMText
 10
78856.62850506443
 20
65703.6080887242
 30
0.0
 40
3.5
 41
0.0
 71
     9
 72
     5
  1

1001
ACAD
1000
MTEXTBEGIN
1070
    73
1070
     1
1070
    44
1040
1.0
1070
    74
1070
     0
1000
MTEXTEND
1000
MTEXTBEGIN
1070
    73
1070
     1
1070
    44
1040
1.0
1070
    74
1070
     0
1000
MTEXTEND
  0
MTEXT
  5
55F5
330
1A
100
AcDbEntity
  8
SUNPOU
100
AcDbMText
 10
109982.8083376841
 20
108198.5537563815
 30
0.0
 40
10.5
 41
0.0
 71
     9
 72
     5
  1

1001
ACAD
1000
MTEXTBEGIN
1070
    73
1070
     1
1070
    44
1040
1.0
1070
    74
1070
     0
1000
MTEXTEND
1000
MTEXTBEGIN
1070
    73
1070
     1
1070
    44
1040
1.0
1070
    74
1070
     0
1000
MTEXTEND
  0
MTEXT
  5
55F6
330
1A
100
AcDbEntity
  8
SUNPOU
100
AcDbMText
 10
111926.2155843933
 20
106397.5046765035
 30
0.0
 40
3.5
 41
0.0
 71
     9
 72
     5
  1

1001
ACAD
1000
MTEXTBEGIN
1070
    73
1070
     1
1070
    44
1040
1.0
1070
    74
1070
     0
1000
MTEXTEND
1000
MTEXTBEGIN
1070
    73
1070
     1
1070
    44
1040
1.0
1070
    74
1070
     0
1000
MTEXTEND
  0
MTEXT
  5
55F7
330
1A
100
AcDbEntity
  8
SUNPOU
100
AcDbMText
 10
60423.07604347968
 20
54031.71891135658
 30
0.0
 40
10.5
 41
0.0
 71
     9
 72
     5
  1

1001
ACAD
1000
MTEXTBEGIN
1070
    73
1070
     1
1070
    44
1040
1.0
1070
    74
1070
     0
1000
MTEXTEND
1000
MTEXTBEGIN
1070
    73
1070
     1
1070
    44
1040
1.0
1070
    74
1070
     0
1000
MTEXTEND
  0
MTEXT
  5
55F8
330
1A
100
AcDbEntity
  8
SUNPOU
100
AcDbMText
 10
46475.07594310369
 20
34859.3197722444
 30
0.0
 40
3.5
 41
0.0
 71
     7
 72
     5
  1

1001
ACAD
1000
MTEXTBEGIN
1070
    73
1070
     1
1070
    44
1040
1.0
1070
    74
1070
     0
1000
MTEXTEND
1000
MTEXTBEGIN
1070
    73
1070
     1
1070
    44
1040
1.0
1070
    74
1070
     0
1000
MTEXTEND
  0
MTEXT
  5
55F9
330
1A
100
AcDbEntity
  8
SUNPOU
100
AcDbMText
 10
74027.35402123588
 20
68370.58278833383
 30
0.0
 40
10.5
 41
0.0
 71
     9
 72
     5
  1

1001
ACAD
1000
MTEXTBEGIN
1070
    73
1070
     1
1070
    44
1040
1.0
1070
    74
1070
     0
1000
MTEXTEND
1000
MTEXTBEGIN
1070
    73
1070
     1
1070
    44
1040
1.0
1070
    74
1070
     0
1000
MTEXTEND
  0
MTEXT
  5
55FA
330
1A
100
AcDbEntity
  8
SUNPOU
100
AcDbMText
 10
75970.7612679453
 20
66569.53370845583
 30
0.0
 40
3.5
 41
0.0
 71
     9
 72
     5
  1

1001
ACAD
1000
MTEXTBEGIN
1070
    73
1070
     1
1070
    44
1040
1.0
1070
    74
1070
     0
1000
MTEXTEND
1000
MTEXTBEGIN
1070
    73
1070
     1
1070
    44
1040
1.0
1070
    74
1070
     0
1000
MTEXTEND
  0
MTEXT
  5
55FB
330
1A
100
AcDbEntity
  8
SUNPOU
100
AcDbMText
 10
107096.941100565
 20
109064.4793761132
 30
0.0
 40
10.5
 41
0.0
 71
     9
 72
     5
  1

1001
ACAD
1000
MTEXTBEGIN
1070
    73
1070
     1
1070
    44
1040
1.0
1070
    74
1070
     0
1000
MTEXTEND
1000
MTEXTBEGIN
1070
    73
1070
     1
1070
    44
1040
1.0
1070
    74
1070
     0
1000
MTEXTEND
  0
MTEXT
  5
55FC
330
1A
100
AcDbEntity
  8
SUNPOU
100
AcDbMText
 10
109040.3483472744
 20
107263.430296235
 30
0.0
 40
3.5
 41
0.0
 71
     9
 72
     5
  1

1001
ACAD
1000
MTEXTBEGIN
1070
    73
1070
     1
1070
    44
1040
1.0
1070
    74
1070
     0
1000
MTEXTEND
1000
MTEXTBEGIN
1070
    73
1070
     1
1070
    44
1040
1.0
1070
    74
1070
     0
1000
MTEXTEND
  0
MTEXT
  5
55FD
330
1A
100
AcDbEntity
  8
SUNPOU
100
AcDbMText
 10
105709.1709283621
 20
108141.3777665285
 30
0.0
 40
10.5
 41
0.0
 71
     9
 72
     5
  1

1001
ACAD
1000
MTEXTBEGIN
1070
    73
1070
     1
1070
    44
1040
1.0
1070
    74
1070
     0
1000
MTEXTEND
1000
MTEXTBEGIN
1070
    73
1070
     1
1070
    44
1040
1.0
1070
    74
1070
     0
1000
MTEXTEND
  0
MTEXT
  5
55FE
330
1A
100
AcDbEntity
  8
SUNPOU
100
AcDbMText
 10
107652.5781750715
 20
106340.3286866505
 30
0.0
 40
3.5
 41
0.0
 71
     9
 72
     5
  1

1001
ACAD
1000
MTEXTBEGIN
1070
    73
1070
     1
1070
    44
1040
1.0
1070
    74
1070
     0
1000
MTEXTEND
1000
MTEXTBEGIN
1070
    73
1070
     1
1070
    44
1040
1.0
1070
    74
1070
     0
1000
MTEXTEND
  0
MTEXT
  5
55FF
330
1A
100
AcDbEntity
  8
SUNPOU
100
AcDbMText
 10
73193.09268743351
 20
66158.78082845057
 30
0.0
 40
10.5
 41
0.0
 71
     9
 72
     5
  1

1001
ACAD
1000
MTEXTBEGIN
1070
    73
1070
     1
1070
    44
1040
1.0
1070
    74
1070
     0
1000
MTEXTEND
1000
MTEXTBEGIN
1070
    73
1070
     1
1070
    44
1040
1.0
1070
    74
1070
     0
1000
MTEXTEND
  0
MTEXT
  5
5600
330
1A
100
AcDbEntity
  8
SUNPOU
100
AcDbMText
 10
75916.39889159807
 20
66563.46252003162
 30
0.0
 40
3.5
 41
0.0
 71
     9
 72
     5
  1

1001
ACAD
1000
MTEXTBEGIN
1070
    73
1070
     1
1070
    44
1040
1.0
1070
    74
1070
     0
1000
MTEXTEND
1000
MTEXTBEGIN
1070
    73
1070
     1
1070
    44
1040
1.0
1070
    74
1070
     0
1000
MTEXTEND
  0
MTEXT
  5
5601
330
1A
100
AcDbEntity
  8
SUNPOU
100
AcDbMText
 10
75124.04436649058
 20
63402.1566819768
 30
0.0
 40
10.5
 41
0.0
 71
     9
 72
     5
  1

1001
ACAD
1000
MTEXTBEGIN
1070
    73
1070
     1
1070
    44
1040
1.0
1070
    74
1070
     0
1000
MTEXTEND
1000
MTEXTBEGIN
1070
    73
1070
     1
1070
    44
1040
1.0
1070
    74
1070
     0
1000
MTEXTEND
  0
MTEXT
  5
5602
330
1A
100
AcDbEntity
  8
SUNPOU
100
AcDbMText
 10
77067.4516132
 20
61601.1076020988
 30
0.0
 40
3.5
 41
0.0
 71
     9
 72
     5
  1

1001
ACAD
1000
MTEXTBEGIN
1070
    73
1070
     1
1070
    44
1040
1.0
1070
    74
1070
     0
1000
MTEXTEND
1000
MTEXTBEGIN
1070
    73
1070
     1
1070
    44
1040
1.0
1070
    74
1070
     0
1000
MTEXTEND
  0
MTEXT
  5
5603
330
1A
100
AcDbEntity
  8
SUNPOU
100
AcDbMText
 10
77012.54710378659
 20
61488.33571981449
 30
0.0
 40
3.5
 41
0.0
 71
     9
 72
     5
  1

1001
ACAD
1000
MTEXTBEGIN
1070
    73
1070
     1
1070
    44
1040
1.0
1070
    74
1070
     0
1000
MTEXTEND
1000
MTEXTBEGIN
1070
    73
1070
     1
1070
    44
1040
1.0
1070
    74
1070
     0
1000
MTEXTEND
  0
MTEXT
  5
5604
330
1A
100
AcDbEntity
  8
SUNPOU
100
AcDbMText
 10
76376.61896736668
 20
60677.01447874798
 30
0.0
 40
3.5
 41
0.0
 71
     9
 72
     5
  1

1001
ACAD
1000
MTEXTBEGIN
1070
    73
1070
     1
1070
    44
1040
1.0
1070
    74
1070
     0
1000
MTEXTEND
1000
MTEXTBEGIN
1070
    73
1070
     1
1070
    44
1040
1.0
1070
    74
1070
     0
1000
MTEXTEND
  0
MTEXT
  5
5605
330
1A
100
AcDbEntity
  8
SUNPOU
100
AcDbMText
 10
76375.37854794595
 20
60676.76650181048
 30
0.0
 40
10.5
 41
0.0
 71
     9
 72
     5
  1

1001
ACAD
1000
MTEXTBEGIN
1070
    73
1070
     1
1070
    44
1040
1.0
1070
    74
1070
     0
1000
MTEXTEND
1000
MTEXTBEGIN
1070
    73
1070
     1
1070
    44
1040
1.0
1070
    74
1070
     0
1000
MTEXTEND
  0
MTEXT
  5
5606
330
1A
100
AcDbEntity
  8
SUNPOU
100
AcDbMText
 10
84709.93991079748
 20
78034.0328293557
 30
0.0
 40
10.5
 41
0.0
 71
     9
 72
     5
  1

1001
ACAD
1000
MTEXTBEGIN
1070
    73
1070
     1
1070
    44
1040
1.0
1070
    74
1070
     0
1000
MTEXTEND
1000
MTEXTBEGIN
1070
    73
1070
     1
1070
    44
1040
1.0
1070
    74
1070
     0
1000
MTEXTEND
  0
MTEXT
  5
5607
330
1A
100
AcDbEntity
  8
SUNPOU
100
AcDbMText
 10
93432.10747671546
 20
85449.86736089315
 30
0.0
 40
10.5
 41
0.0
 71
     9
 72
     5
  1

1001
ACAD
1000
MTEXTBEGIN
1070
    73
1070
     1
1070
    44
1040
1.0
1070
    74
1070
     0
1000
MTEXTEND
1000
MTEXTBEGIN
1070
    73
1070
     1
1070
    44
1040
1.0
1070
    74
1070
     0
1000
MTEXTEND
  0
MTEXT
  5
5608
330
1A
100
AcDbEntity
  8
SUNPOU
100
AcDbMText
 10
112385.8661940454
 20
102916.4434133851
 30
0.0
 40
10.5
 41
0.0
 71
     9
 72
     5
  1

1001
ACAD
1000
MTEXTBEGIN
1070
    73
1070
     1
1070
    44
1040
1.0
1070
    74
1070
     0
1000
MTEXTEND
1000
MTEXTBEGIN
1070
    73
1070
     1
1070
    44
1040
1.0
1070
    74
1070
     0
1000
MTEXTEND
  0
MTEXT
  5
5609
330
1A
100
AcDbEntity
  8
SUNPOU
100
AcDbMText
 10
114329.2734407548
 20
101115.3943335072
 30
0.0
 40
3.5
 41
0.0
 71
     9
 72
     5
  1

1001
ACAD
1000
MTEXTBEGIN
1070
    73
1070
     1
1070
    44
1040
1.0
1070
    74
1070
     0
1000
MTEXTEND
1000
MTEXTBEGIN
1070
    73
1070
     1
1070
    44
1040
1.0
1070
    74
1070
     0
1000
MTEXTEND
  0
MTEXT
  5
560A
330
1A
100
AcDbEntity
  8
SUNPOU
100
AcDbMText
 10
145455.4532733745
 20
143610.3400011645
 30
0.0
 40
10.5
 41
0.0
 71
     9
 72
     5
  1

1001
ACAD
1000
MTEXTBEGIN
1070
    73
1070
     1
1070
    44
1040
1.0
1070
    74
1070
     0
1000
MTEXTEND
1000
MTEXTBEGIN
1070
    73
1070
     1
1070
    44
1040
1.0
1070
    74
1070
     0
1000
MTEXTEND
  0
MTEXT
  5
560B
330
1A
100
AcDbEntity
  8
SUNPOU
100
AcDbMText
 10
147398.8605200839
 20
141809.2909212864
 30
0.0
 40
3.5
 41
0.0
 71
     9
 72
     5
  1

1001
ACAD
1000
MTEXTBEGIN
1070
    73
1070
     1
1070
    44
1040
1.0
1070
    74
1070
     0
1000
MTEXTEND
1000
MTEXTBEGIN
1070
    73
1070
     1
1070
    44
1040
1.0
1070
    74
1070
     0
1000
MTEXTEND
  0
MTEXT
  5
560C
330
1A
100
AcDbEntity
  8
SUNPOU
100
AcDbMText
 10
95895.72097917011
 20
89443.50515613962
 30
0.0
 40
10.5
 41
0.0
 71
     9
 72
     5
  1

1001
ACAD
1000
MTEXTBEGIN
1070
    73
1070
     1
1070
    44
1040
1.0
1070
    74
1070
     0
1000
MTEXTEND
1000
MTEXTBEGIN
1070
    73
1070
     1
1070
    44
1040
1.0
1070
    74
1070
     0
1000
MTEXTEND
  0
MTEXT
  5
560D
330
1A
100
AcDbEntity
  8
SUNPOU
100
AcDbMText
 10
81947.72087879414
 20
70271.1060170274
 30
0.0
 40
3.5
 41
0.0
 71
     7
 72
     5
  1

1001
ACAD
1000
MTEXTBEGIN
1070
    73
1070
     1
1070
    44
1040
1.0
1070
    74
1070
     0
1000
MTEXTEND
1000
MTEXTBEGIN
1070
    73
1070
     1
1070
    44
1040
1.0
1070
    74
1070
     0
1000
MTEXTEND
  0
MTEXT
  5
560E
330
1A
100
AcDbEntity
  8
SUNPOU
100
AcDbMText
 10
62932.89027578729
 20
58033.25474784561
 30
0.0
 40
10.5
 41
0.0
 71
     7
 72
     5
  1

1001
ACAD
1000
MTEXTBEGIN
1070
    73
1070
     1
1070
    44
1040
1.0
1070
    74
1070
     0
1000
MTEXTEND
1000
MTEXTBEGIN
1070
    73
1070
     1
1070
    44
1040
1.0
1070
    74
1070
     0
1000
MTEXTEND
  0
MTEXT
  5
560F
330
1A
100
AcDbEntity
  8
SUNPOU
100
AcDbMText
 10
50475.66201083918
 20
42188.32316974718
 30
0.0
 40
35.0
 41
0.0
 71
     9
 72
     5
  1

1001
ACAD
1000
MTEXTBEGIN
1070
    73
1070
     1
1070
    44
1040
1.0
1070
    74
1070
     0
1000
MTEXTEND
1000
MTEXTBEGIN
1070
    73
1070
     1
1070
    44
1040
1.0
1070
    74
1070
     0
1000
MTEXTEND
  0
MTEXT
  5
5610
330
1A
100
AcDbEntity
  8
SUNPOU
100
AcDbMText
 10
49384.14706841413
 20
42797.0985797959
 30
0.0
 40
350.0000004171781
 41
0.0
 71
     7
 72
     5
  1

1001
ACAD
1000
MTEXTBEGIN
1070
    73
1070
     1
1070
    44
1040
1.0
1070
    74
1070
     0
1000
MTEXTEND
1000
MTEXTBEGIN
1070
    73
1070
     1
1070
    44
1040
1.0
1070
    74
1070
     0
1000
MTEXTEND
  0
MTEXT
  5
5611
330
1A
100
AcDbEntity
  8
0
100
AcDbMText
 10
55428.09782635704
 20
40777.0209419321
 30
0.0
 40
8.0
 41
0.0
 71
     7
 72
     5
  1

1001
ACAD
1000
MTEXTBEGIN
1070
    73
1070
     1
1070
    44
1040
1.0
1070
    74
1070
     0
1000
MTEXTEND
1000
MTEXTBEGIN
1070
    73
1070
     1
1070
    44
1040
1.0
1070
    74
1070
     0
1000
MTEXTEND
  0
MTEXT
  5
5612
330
1A
100
AcDbEntity
  8
0
100
AcDbMText
 10
57713.45551625192
 20
41747.81123668316
 30
0.0
 40
8.0
 41
0.0
 71
     7
 72
     5
  1

1001
ACAD
1000
MTEXTBEGIN
1070
    73
1070
     1
1070
    44
1040
1.0
1070
    74
1070
     0
1000
MTEXTEND
1000
MTEXTBEGIN
1070
    73
1070
     1
1070
    44
1040
1.0
1070
    74
1070
     0
1000
MTEXTEND
  0
MTEXT
  5
5613
330
1A
100
AcDbEntity
  8
SUNPOU
100
AcDbMText
 10
60379.35253693407
 20
51259.9226290583
 30
0.0
 40
10.5
 41
0.0
 71
     1
 72
     5
  1

1001
ACAD
1000
MTEXTBEGIN
1070
    73
1070
     1
1070
    44
1040
1.0
1070
    74
1070
     0
1000
MTEXTEND
1000
MTEXTBEGIN
1070
    73
1070
     1
1070
    44
1040
1.0
1070
    74
1070
     0
1000
MTEXTEND
  0
MTEXT
  5
5614
330
1A
100
AcDbEntity
  8
SUNPOU
100
AcDbMText
 10
52448.42934099813
 20
50313.12949514535
 30
0.0
 40
10.5
 41
0.0
 71
     7
 72
     5
  1

1001
ACAD
1000
MTEXTBEGIN
1070
    73
1070
     1
1070
    44
1040
1.0
1070
    74
1070
     0
1000
MTEXTEND
1000
MTEXTBEGIN
1070
    73
1070
     1
1070
    44
1040
1.0
1070
    74
1070
     0
1000
MTEXTEND
  0
MTEXT
  5
5615
330
1A
100
AcDbEntity
  8
SUNPOU
100
AcDbMText
 10
55397.4130055109
 20
55213.80556698819
 30
0.0
 40
10.5
 41
0.0
 71
     7
 72
     5
  1

1001
ACAD
1000
MTEXTBEGIN
1070
    73
1070
     1
1070
    44
1040
1.0
1070
    74
1070
     0
1000
MTEXTEND
1000
MTEXTBEGIN
1070
    73
1070
     1
1070
    44
1040
1.0
1070
    74
1070
     0
1000
MTEXTEND
  0
MTEXT
  5
5616
330
1A
100
AcDbEntity
  8
SUNPOU
100
AcDbMText
 10
59906.49113346147
 20
57650.10631460826
 30
0.0
 40
10.5
 41
0.0
 71
     7
 72
     5
  1

1001
ACAD
1000
MTEXTBEGIN
1070
    73
1070
     1
1070
    44
1040
1.0
1070
    74
1070
     0
1000
MTEXTEND
1000
MTEXTBEGIN
1070
    73
1070
     1
1070
    44
1040
1.0
1070
    74
1070
     0
1000
MTEXTEND
  0
MTEXT
  5
5617
330
1A
100
AcDbEntity
  8
SUNPOU
100
AcDbMText
 10
43507.32902022977
 20
36647.70246499718
 30
0.0
 40
10.5
 41
0.0
 71
     7
 72
     5
  1

1001
ACAD
1000
MTEXTBEGIN
1070
    73
1070
     1
1070
    44
1040
1.0
1070
    74
1070
     0
1000
MTEXTEND
1000
MTEXTBEGIN
1070
    73
1070
     1
1070
    44
1040
1.0
1070
    74
1070
     0
1000
MTEXTEND
  0
MTEXT
  5
5618
330
1A
100
AcDbEntity
  8
SUNPOU
100
AcDbMText
 10
94698.84745413006
 20
82320.68302864544
 30
0.0
 40
10.5
 41
0.0
 71
     9
 72
     5
  1

1001
ACAD
1000
MTEXTBEGIN
1070
    73
1070
     1
1070
    44
1040
1.0
1070
    74
1070
     0
1000
MTEXTEND
1000
MTEXTBEGIN
1070
    73
1070
     1
1070
    44
1040
1.0
1070
    74
1070
     0
1000
MTEXTEND
  0
MTEXT
  5
5619
330
1A
100
AcDbEntity
  8
SUNPOU
100
AcDbMText
 10
103421.015020048
 20
89736.5175601829
 30
0.0
 40
10.5
 41
0.0
 71
     9
 72
     5
  1

1001
ACAD
1000
MTEXTBEGIN
1070
    73
1070
     1
1070
    44
1040
1.0
1070
    74
1070
     0
1000
MTEXTEND
1000
MTEXTBEGIN
1070
    73
1070
     1
1070
    44
1040
1.0
1070
    74
1070
     0
1000
MTEXTEND
  0
MTEXT
  5
561A
330
1A
100
AcDbEntity
  8
SUNPOU
100
AcDbMText
 10
122374.773737378
 20
107203.0936126749
 30
0.0
 40
10.5
 41
0.0
 71
     9
 72
     5
  1

1001
ACAD
1000
MTEXTBEGIN
1070
    73
1070
     1
1070
    44
1040
1.0
1070
    74
1070
     0
1000
MTEXTEND
1000
MTEXTBEGIN
1070
    73
1070
     1
1070
    44
1040
1.0
1070
    74
1070
     0
1000
MTEXTEND
  0
MTEXT
  5
561B
330
1A
100
AcDbEntity
  8
SUNPOU
100
AcDbMText
 10
124318.1809840874
 20
105402.0445327969
 30
0.0
 40
3.5
 41
0.0
 71
     9
 72
     5
  1

1001
ACAD
1000
MTEXTBEGIN
1070
    73
1070
     1
1070
    44
1040
1.0
1070
    74
1070
     0
1000
MTEXTEND
1000
MTEXTBEGIN
1070
    73
1070
     1
1070
    44
1040
1.0
1070
    74
1070
     0
1000
MTEXTEND
  0
MTEXT
  5
561C
330
1A
100
AcDbEntity
  8
SUNPOU
100
AcDbMText
 10
155444.3608167071
 20
147896.9902004542
 30
0.0
 40
10.5
 41
0.0
 71
     9
 72
     5
  1

1001
ACAD
1000
MTEXTBEGIN
1070
    73
1070
     1
1070
    44
1040
1.0
1070
    74
1070
     0
1000
MTEXTEND
1000
MTEXTBEGIN
1070
    73
1070
     1
1070
    44
1040
1.0
1070
    74
1070
     0
1000
MTEXTEND
  0
MTEXT
  5
561D
330
1A
100
AcDbEntity
  8
SUNPOU
100
AcDbMText
 10
157387.7680634165
 20
146095.9411205762
 30
0.0
 40
3.5
 41
0.0
 71
     9
 72
     5
  1

1001
ACAD
1000
MTEXTBEGIN
1070
    73
1070
     1
1070
    44
1040
1.0
1070
    74
1070
     0
1000
MTEXTEND
1000
MTEXTBEGIN
1070
    73
1070
     1
1070
    44
1040
1.0
1070
    74
1070
     0
1000
MTEXTEND
  0
MTEXT
  5
561E
330
1A
100
AcDbEntity
  8
SUNPOU
100
AcDbMText
 10
105884.6285225027
 20
93730.15535542933
 30
0.0
 40
10.5
 41
0.0
 71
     9
 72
     5
  1

1001
ACAD
1000
MTEXTBEGIN
1070
    73
1070
     1
1070
    44
1040
1.0
1070
    74
1070
     0
1000
MTEXTEND
1000
MTEXTBEGIN
1070
    73
1070
     1
1070
    44
1040
1.0
1070
    74
1070
     0
1000
MTEXTEND
  0
MTEXT
  5
561F
330
1A
100
AcDbEntity
  8
SUNPOU
100
AcDbMText
 10
91936.6284221267
 20
74557.75621631714
 30
0.0
 40
3.5
 41
0.0
 71
     7
 72
     5
  1

1001
ACAD
1000
MTEXTBEGIN
1070
    73
1070
     1
1070
    44
1040
1.0
1070
    74
1070
     0
1000
MTEXTEND
1000
MTEXTBEGIN
1070
    73
1070
     1
1070
    44
1040
1.0
1070
    74
1070
     0
1000
MTEXTEND
  0
MTEXT
  5
5620
330
1A
100
AcDbEntity
  8
SUNPOU
100
AcDbMText
 10
72921.79781911986
 20
62319.90494713532
 30
0.0
 40
10.5
 41
0.0
 71
     7
 72
     5
  1

1001
ACAD
1000
MTEXTBEGIN
1070
    73
1070
     1
1070
    44
1040
1.0
1070
    74
1070
     0
1000
MTEXTEND
1000
MTEXTBEGIN
1070
    73
1070
     1
1070
    44
1040
1.0
1070
    74
1070
     0
1000
MTEXTEND
  0
MTEXT
  5
5621
330
1A
100
AcDbEntity
  8
SUNPOU
100
AcDbMText
 10
60464.56955417175
 20
46474.97336903692
 30
0.0
 40
35.0
 41
0.0
 71
     9
 72
     5
  1

1001
ACAD
1000
MTEXTBEGIN
1070
    73
1070
     1
1070
    44
1040
1.0
1070
    74
1070
     0
1000
MTEXTEND
1000
MTEXTBEGIN
1070
    73
1070
     1
1070
    44
1040
1.0
1070
    74
1070
     0
1000
MTEXTEND
  0
MTEXT
  5
5622
330
1A
100
AcDbEntity
  8
SUNPOU
100
AcDbMText
 10
59373.05461174673
 20
47083.74877908561
 30
0.0
 40
350.0000004171781
 41
0.0
 71
     7
 72
     5
  1

1001
ACAD
1000
MTEXTBEGIN
1070
    73
1070
     1
1070
    44
1040
1.0
1070
    74
1070
     0
1000
MTEXTEND
1000
MTEXTBEGIN
1070
    73
1070
     1
1070
    44
1040
1.0
1070
    74
1070
     0
1000
MTEXTEND
  0
MTEXT
  5
5623
330
1A
100
AcDbEntity
  8
0
100
AcDbMText
 10
65417.00536968963
 20
45063.67114122186
 30
0.0
 40
8.0
 41
0.0
 71
     7
 72
     5
  1

1001
ACAD
1000
MTEXTBEGIN
1070
    73
1070
     1
1070
    44
1040
1.0
1070
    74
1070
     0
1000
MTEXTEND
1000
MTEXTBEGIN
1070
    73
1070
     1
1070
    44
1040
1.0
1070
    74
1070
     0
1000
MTEXTEND
  0
MTEXT
  5
5624
330
1A
100
AcDbEntity
  8
0
100
AcDbMText
 10
67702.36305958452
 20
46034.46143597292
 30
0.0
 40
8.0
 41
0.0
 71
     7
 72
     5
  1

1001
ACAD
1000
MTEXTBEGIN
1070
    73
1070
     1
1070
    44
1040
1.0
1070
    74
1070
     0
1000
MTEXTEND
1000
MTEXTBEGIN
1070
    73
1070
     1
1070
    44
1040
1.0
1070
    74
1070
     0
1000
MTEXTEND
  0
MTEXT
  5
5625
330
1A
100
AcDbEntity
  8
SUNPOU
100
AcDbMText
 10
70368.26008026666
 20
55546.57282834803
 30
0.0
 40
10.5
 41
0.0
 71
     1
 72
     5
  1

1001
ACAD
1000
MTEXTBEGIN
1070
    73
1070
     1
1070
    44
1040
1.0
1070
    74
1070
     0
1000
MTEXTEND
1000
MTEXTBEGIN
1070
    73
1070
     1
1070
    44
1040
1.0
1070
    74
1070
     0
1000
MTEXTEND
  0
MTEXT
  5
5626
330
1A
100
AcDbEntity
  8
SUNPOU
100
AcDbMText
 10
62437.33688433072
 20
54599.77969443507
 30
0.0
 40
10.5
 41
0.0
 71
     7
 72
     5
  1

1001
ACAD
1000
MTEXTBEGIN
1070
    73
1070
     1
1070
    44
1040
1.0
1070
    74
1070
     0
1000
MTEXTEND
1000
MTEXTBEGIN
1070
    73
1070
     1
1070
    44
1040
1.0
1070
    74
1070
     0
1000
MTEXTEND
  0
MTEXT
  5
5627
330
1A
100
AcDbEntity
  8
SUNPOU
100
AcDbMText
 10
65386.32054884347
 20
59500.45576627792
 30
0.0
 40
10.5
 41
0.0
 71
     7
 72
     5
  1

1001
ACAD
1000
MTEXTBEGIN
1070
    73
1070
     1
1070
    44
1040
1.0
1070
    74
1070
     0
1000
MTEXTEND
1000
MTEXTBEGIN
1070
    73
1070
     1
1070
    44
1040
1.0
1070
    74
1070
     0
1000
MTEXTEND
  0
MTEXT
  5
5628
330
1A
100
AcDbEntity
  8
SUNPOU
100
AcDbMText
 10
69895.39867679405
 20
61936.756513898
 30
0.0
 40
10.5
 41
0.0
 71
     7
 72
     5
  1

1001
ACAD
1000
MTEXTBEGIN
1070
    73
1070
     1
1070
    44
1040
1.0
1070
    74
1070
     0
1000
MTEXTEND
1000
MTEXTBEGIN
1070
    73
1070
     1
1070
    44
1040
1.0
1070
    74
1070
     0
1000
MTEXTEND
  0
MTEXT
  5
5629
330
1A
100
AcDbEntity
  8
SUNPOU
100
AcDbMText
 10
53496.23656356237
 20
40934.35266428691
 30
0.0
 40
10.5
 41
0.0
 71
     7
 72
     5
  1

1001
ACAD
1000
MTEXTBEGIN
1070
    73
1070
     1
1070
    44
1040
1.0
1070
    74
1070
     0
1000
MTEXTEND
1000
MTEXTBEGIN
1070
    73
1070
     1
1070
    44
1040
1.0
1070
    74
1070
     0
1000
MTEXTEND
  0
MTEXT
  5
562A
330
1A
100
AcDbEntity
  8
SUNPOU
100
AcDbMText
 10
55306.99947493731
 20
47261.76665176546
 30
0.0
 40
10.5
 41
0.0
 71
     9
 72
     5
  1

1001
ACAD
1000
MTEXTBEGIN
1070
    73
1070
     1
1070
    44
1040
1.0
1070
    74
1070
     0
1000
MTEXTEND
1000
MTEXTBEGIN
1070
    73
1070
     1
1070
    44
1040
1.0
1070
    74
1070
     0
1000
MTEXTEND
  0
MTEXT
  5
562B
330
1A
100
AcDbEntity
  8
SUNPOU
100
AcDbMText
 10
64029.16704085527
 20
54677.60118330295
 30
0.0
 40
10.5
 41
0.0
 71
     9
 72
     5
  1

1001
ACAD
1000
MTEXTBEGIN
1070
    73
1070
     1
1070
    44
1040
1.0
1070
    74
1070
     0
1000
MTEXTEND
1000
MTEXTBEGIN
1070
    73
1070
     1
1070
    44
1040
1.0
1070
    74
1070
     0
1000
MTEXTEND
  0
MTEXT
  5
562C
330
1A
100
AcDbEntity
  8
SUNPOU
100
AcDbMText
 10
82982.92575818527
 20
72144.17723579499
 30
0.0
 40
10.5
 41
0.0
 71
     9
 72
     5
  1

1001
ACAD
1000
MTEXTBEGIN
1070
    73
1070
     1
1070
    44
1040
1.0
1070
    74
1070
     0
1000
MTEXTEND
1000
MTEXTBEGIN
1070
    73
1070
     1
1070
    44
1040
1.0
1070
    74
1070
     0
1000
MTEXTEND
  0
MTEXT
  5
562D
330
1A
100
AcDbEntity
  8
SUNPOU
100
AcDbMText
 10
84926.33300489467
 20
70343.12815591697
 30
0.0
 40
3.5
 41
0.0
 71
     9
 72
     5
  1

1001
ACAD
1000
MTEXTBEGIN
1070
    73
1070
     1
1070
    44
1040
1.0
1070
    74
1070
     0
1000
MTEXTEND
1000
MTEXTBEGIN
1070
    73
1070
     1
1070
    44
1040
1.0
1070
    74
1070
     0
1000
MTEXTEND
  0
MTEXT
  5
562E
330
1A
100
AcDbEntity
  8
SUNPOU
100
AcDbMText
 10
116052.5128375142
 20
112838.0738235742
 30
0.0
 40
10.5
 41
0.0
 71
     9
 72
     5
  1

1001
ACAD
1000
MTEXTBEGIN
1070
    73
1070
     1
1070
    44
1040
1.0
1070
    74
1070
     0
1000
MTEXTEND
1000
MTEXTBEGIN
1070
    73
1070
     1
1070
    44
1040
1.0
1070
    74
1070
     0
1000
MTEXTEND
  0
MTEXT
  5
562F
330
1A
100
AcDbEntity
  8
SUNPOU
100
AcDbMText
 10
117995.9200842238
 20
111037.0247436963
 30
0.0
 40
3.5
 41
0.0
 71
     9
 72
     5
  1

1001
ACAD
1000
MTEXTBEGIN
1070
    73
1070
     1
1070
    44
1040
1.0
1070
    74
1070
     0
1000
MTEXTEND
1000
MTEXTBEGIN
1070
    73
1070
     1
1070
    44
1040
1.0
1070
    74
1070
     0
1000
MTEXTEND
  0
MTEXT
  5
5630
330
1A
100
AcDbEntity
  8
SUNPOU
100
AcDbMText
 10
66492.78054330994
 20
58671.23897854939
 30
0.0
 40
10.5
 41
0.0
 71
     9
 72
     5
  1

1001
ACAD
1000
MTEXTBEGIN
1070
    73
1070
     1
1070
    44
1040
1.0
1070
    74
1070
     0
1000
MTEXTEND
1000
MTEXTBEGIN
1070
    73
1070
     1
1070
    44
1040
1.0
1070
    74
1070
     0
1000
MTEXTEND
  0
MTEXT
  5
5631
330
1A
100
AcDbEntity
  8
SUNPOU
100
AcDbMText
 10
52544.78044293397
 20
39498.83983943717
 30
0.0
 40
3.5
 41
0.0
 71
     7
 72
     5
  1

1001
ACAD
1000
MTEXTBEGIN
1070
    73
1070
     1
1070
    44
1040
1.0
1070
    74
1070
     0
1000
MTEXTEND
1000
MTEXTBEGIN
1070
    73
1070
     1
1070
    44
1040
1.0
1070
    74
1070
     0
1000
MTEXTEND
  0
MTEXT
  5
5632
330
1A
100
AcDbEntity
  8
SUNPOU
100
AcDbMText
 10
66237.13112570454
 20
48857.90306045851
 30
0.0
 40
10.5
 41
0.0
 71
     9
 72
     5
  1

1001
ACAD
1000
MTEXTBEGIN
1070
    73
1070
     1
1070
    44
1040
1.0
1070
    74
1070
     0
1000
MTEXTEND
1000
MTEXTBEGIN
1070
    73
1070
     1
1070
    44
1040
1.0
1070
    74
1070
     0
1000
MTEXTEND
  0
MTEXT
  5
5633
330
1A
100
AcDbEntity
  8
SUNPOU
100
AcDbMText
 10
74959.29869162253
 20
56273.73759199598
 30
0.0
 40
10.5
 41
0.0
 71
     9
 72
     5
  1

1001
ACAD
1000
MTEXTBEGIN
1070
    73
1070
     1
1070
    44
1040
1.0
1070
    74
1070
     0
1000
MTEXTEND
1000
MTEXTBEGIN
1070
    73
1070
     1
1070
    44
1040
1.0
1070
    74
1070
     0
1000
MTEXTEND
  0
MTEXT
  5
5634
330
1A
100
AcDbEntity
  8
SUNPOU
100
AcDbMText
 10
93913.0574089525
 20
73740.31364448805
 30
0.0
 40
10.5
 41
0.0
 71
     9
 72
     5
  1

1001
ACAD
1000
MTEXTBEGIN
1070
    73
1070
     1
1070
    44
1040
1.0
1070
    74
1070
     0
1000
MTEXTEND
1000
MTEXTBEGIN
1070
    73
1070
     1
1070
    44
1040
1.0
1070
    74
1070
     0
1000
MTEXTEND
  0
MTEXT
  5
5635
330
1A
100
AcDbEntity
  8
SUNPOU
100
AcDbMText
 10
95856.46465566192
 20
71939.26456461004
 30
0.0
 40
3.5
 41
0.0
 71
     9
 72
     5
  1

1001
ACAD
1000
MTEXTBEGIN
1070
    73
1070
     1
1070
    44
1040
1.0
1070
    74
1070
     0
1000
MTEXTEND
1000
MTEXTBEGIN
1070
    73
1070
     1
1070
    44
1040
1.0
1070
    74
1070
     0
1000
MTEXTEND
  0
MTEXT
  5
5636
330
1A
100
AcDbEntity
  8
SUNPOU
100
AcDbMText
 10
126982.6444882816
 20
114434.2102322673
 30
0.0
 40
10.5
 41
0.0
 71
     9
 72
     5
  1

1001
ACAD
1000
MTEXTBEGIN
1070
    73
1070
     1
1070
    44
1040
1.0
1070
    74
1070
     0
1000
MTEXTEND
1000
MTEXTBEGIN
1070
    73
1070
     1
1070
    44
1040
1.0
1070
    74
1070
     0
1000
MTEXTEND
  0
MTEXT
  5
5637
330
1A
100
AcDbEntity
  8
SUNPOU
100
AcDbMText
 10
128926.051734991
 20
112633.1611523893
 30
0.0
 40
3.5
 41
0.0
 71
     9
 72
     5
  1

1001
ACAD
1000
MTEXTBEGIN
1070
    73
1070
     1
1070
    44
1040
1.0
1070
    74
1070
     0
1000
MTEXTEND
1000
MTEXTBEGIN
1070
    73
1070
     1
1070
    44
1040
1.0
1070
    74
1070
     0
1000
MTEXTEND
  0
MTEXT
  5
5638
330
1A
100
AcDbEntity
  8
SUNPOU
100
AcDbMText
 10
77422.91219407717
 20
60267.37538724244
 30
0.0
 40
10.5
 41
0.0
 71
     9
 72
     5
  1

1001
ACAD
1000
MTEXTBEGIN
1070
    73
1070
     1
1070
    44
1040
1.0
1070
    74
1070
     0
1000
MTEXTEND
1000
MTEXTBEGIN
1070
    73
1070
     1
1070
    44
1040
1.0
1070
    74
1070
     0
1000
MTEXTEND
  0
MTEXT
  5
5639
330
1A
100
AcDbEntity
  8
SUNPOU
100
AcDbMText
 10
63474.91209370119
 20
41094.97624813023
 30
0.0
 40
3.5
 41
0.0
 71
     7
 72
     5
  1

1001
ACAD
1000
MTEXTBEGIN
1070
    73
1070
     1
1070
    44
1040
1.0
1070
    74
1070
     0
1000
MTEXTEND
1000
MTEXTBEGIN
1070
    73
1070
     1
1070
    44
1040
1.0
1070
    74
1070
     0
1000
MTEXTEND
  0
MTEXT
  5
563A
330
1A
100
AcDbEntity
  8
SUNPOU
100
AcDbMText
 10
48117.65086229006
 20
40806.11043916631
 30
0.0
 40
10.5
 41
0.0
 71
     9
 72
     5
  1

1001
ACAD
1000
MTEXTBEGIN
1070
    73
1070
     1
1070
    44
1040
1.0
1070
    74
1070
     0
1000
MTEXTEND
1000
MTEXTBEGIN
1070
    73
1070
     1
1070
    44
1040
1.0
1070
    74
1070
     0
1000
MTEXTEND
  0
MTEXT
  5
563B
330
1A
100
AcDbEntity
  8
SUNPOU
100
AcDbMText
 10
67071.40957962004
 20
58272.68649165838
 30
0.0
 40
10.5
 41
0.0
 71
     9
 72
     5
  1

1001
ACAD
1000
MTEXTBEGIN
1070
    73
1070
     1
1070
    44
1040
1.0
1070
    74
1070
     0
1000
MTEXTEND
1000
MTEXTBEGIN
1070
    73
1070
     1
1070
    44
1040
1.0
1070
    74
1070
     0
1000
MTEXTEND
  0
MTEXT
  5
563C
330
1A
100
AcDbEntity
  8
SUNPOU
100
AcDbMText
 10
69014.81682632945
 20
56471.63741178035
 30
0.0
 40
3.5
 41
0.0
 71
     9
 72
     5
  1

1001
ACAD
1000
MTEXTBEGIN
1070
    73
1070
     1
1070
    44
1040
1.0
1070
    74
1070
     0
1000
MTEXTEND
1000
MTEXTBEGIN
1070
    73
1070
     1
1070
    44
1040
1.0
1070
    74
1070
     0
1000
MTEXTEND
  0
MTEXT
  5
563D
330
1A
100
AcDbEntity
  8
SUNPOU
100
AcDbMText
 10
100140.9966589491
 20
98966.58307943773
 30
0.0
 40
10.5
 41
0.0
 71
     9
 72
     5
  1

1001
ACAD
1000
MTEXTBEGIN
1070
    73
1070
     1
1070
    44
1040
1.0
1070
    74
1070
     0
1000
MTEXTEND
1000
MTEXTBEGIN
1070
    73
1070
     1
1070
    44
1040
1.0
1070
    74
1070
     0
1000
MTEXTEND
  0
MTEXT
  5
563E
330
1A
100
AcDbEntity
  8
SUNPOU
100
AcDbMText
 10
102084.4039056586
 20
97165.53399955968
 30
0.0
 40
3.5
 41
0.0
 71
     9
 72
     5
  1

1001
ACAD
1000
MTEXTBEGIN
1070
    73
1070
     1
1070
    44
1040
1.0
1070
    74
1070
     0
1000
MTEXTEND
1000
MTEXTBEGIN
1070
    73
1070
     1
1070
    44
1040
1.0
1070
    74
1070
     0
1000
MTEXTEND
  0
MTEXT
  5
563F
330
1A
100
AcDbEntity
  8
SUNPOU
100
AcDbMText
 10
50581.26436474472
 20
44799.74823441275
 30
0.0
 40
10.5
 41
0.0
 71
     9
 72
     5
  1

1001
ACAD
1000
MTEXTBEGIN
1070
    73
1070
     1
1070
    44
1040
1.0
1070
    74
1070
     0
1000
MTEXTEND
1000
MTEXTBEGIN
1070
    73
1070
     1
1070
    44
1040
1.0
1070
    74
1070
     0
1000
MTEXTEND
  0
MTEXT
  5
5640
330
1A
100
AcDbEntity
  8
SUNPOU
100
AcDbMText
 10
36633.26426436873
 20
25627.34909530054
 30
0.0
 40
3.5
 41
0.0
 71
     7
 72
     5
  1

1001
ACAD
1000
MTEXTBEGIN
1070
    73
1070
     1
1070
    44
1040
1.0
1070
    74
1070
     0
1000
MTEXTEND
1000
MTEXTBEGIN
1070
    73
1070
     1
1070
    44
1040
1.0
1070
    74
1070
     0
1000
MTEXTEND
  0
MTEXT
  5
5641
330
1A
100
AcDbEntity
  8
SUNPOU
100
AcDbMText
 10
61069.42493315968
 20
52574.61207825771
 30
0.0
 40
10.5
 41
0.0
 71
     9
 72
     5
  1

1001
ACAD
1000
MTEXTBEGIN
1070
    73
1070
     1
1070
    44
1040
1.0
1070
    74
1070
     0
1000
MTEXTEND
1000
MTEXTBEGIN
1070
    73
1070
     1
1070
    44
1040
1.0
1070
    74
1070
     0
1000
MTEXTEND
  0
MTEXT
  5
5642
330
1A
100
AcDbEntity
  8
SUNPOU
100
AcDbMText
 10
80023.18365048967
 20
70041.18813074978
 30
0.0
 40
10.5
 41
0.0
 71
     9
 72
     5
  1

1001
ACAD
1000
MTEXTBEGIN
1070
    73
1070
     1
1070
    44
1040
1.0
1070
    74
1070
     0
1000
MTEXTEND
1000
MTEXTBEGIN
1070
    73
1070
     1
1070
    44
1040
1.0
1070
    74
1070
     0
1000
MTEXTEND
  0
MTEXT
  5
5643
330
1A
100
AcDbEntity
  8
SUNPOU
100
AcDbMText
 10
81966.59089719908
 20
68240.13905087176
 30
0.0
 40
3.5
 41
0.0
 71
     9
 72
     5
  1

1001
ACAD
1000
MTEXTBEGIN
1070
    73
1070
     1
1070
    44
1040
1.0
1070
    74
1070
     0
1000
MTEXTEND
1000
MTEXTBEGIN
1070
    73
1070
     1
1070
    44
1040
1.0
1070
    74
1070
     0
1000
MTEXTEND
  0
MTEXT
  5
5644
330
1A
100
AcDbEntity
  8
SUNPOU
100
AcDbMText
 10
113092.7707298186
 20
110735.0847185291
 30
0.0
 40
10.5
 41
0.0
 71
     9
 72
     5
  1

1001
ACAD
1000
MTEXTBEGIN
1070
    73
1070
     1
1070
    44
1040
1.0
1070
    74
1070
     0
1000
MTEXTEND
1000
MTEXTBEGIN
1070
    73
1070
     1
1070
    44
1040
1.0
1070
    74
1070
     0
1000
MTEXTEND
  0
MTEXT
  5
5645
330
1A
100
AcDbEntity
  8
SUNPOU
100
AcDbMText
 10
115036.1779765282
 20
108934.0356386511
 30
0.0
 40
3.5
 41
0.0
 71
     9
 72
     5
  1

1001
ACAD
1000
MTEXTBEGIN
1070
    73
1070
     1
1070
    44
1040
1.0
1070
    74
1070
     0
1000
MTEXTEND
1000
MTEXTBEGIN
1070
    73
1070
     1
1070
    44
1040
1.0
1070
    74
1070
     0
1000
MTEXTEND
  0
MTEXT
  5
5646
330
1A
100
AcDbEntity
  8
SUNPOU
100
AcDbMText
 10
63533.03843561432
 20
56568.24987350415
 30
0.0
 40
10.5
 41
0.0
 71
     9
 72
     5
  1

1001
ACAD
1000
MTEXTBEGIN
1070
    73
1070
     1
1070
    44
1040
1.0
1070
    74
1070
     0
1000
MTEXTEND
1000
MTEXTBEGIN
1070
    73
1070
     1
1070
    44
1040
1.0
1070
    74
1070
     0
1000
MTEXTEND
  0
MTEXT
  5
5647
330
1A
100
AcDbEntity
  8
SUNPOU
100
AcDbMText
 10
49585.03833523835
 20
37395.85073439196
 30
0.0
 40
3.5
 41
0.0
 71
     7
 72
     5
  1

1001
ACAD
1000
MTEXTBEGIN
1070
    73
1070
     1
1070
    44
1040
1.0
1070
    74
1070
     0
1000
MTEXTEND
1000
MTEXTBEGIN
1070
    73
1070
     1
1070
    44
1040
1.0
1070
    74
1070
     0
1000
MTEXTEND
  0
MTEXT
  5
5648
330
1A
100
AcDbEntity
  8
SUNPOU
100
AcDbMText
 10
77137.31641337052
 20
70907.11375048141
 30
0.0
 40
10.5
 41
0.0
 71
     9
 72
     5
  1

1001
ACAD
1000
MTEXTBEGIN
1070
    73
1070
     1
1070
    44
1040
1.0
1070
    74
1070
     0
1000
MTEXTEND
1000
MTEXTBEGIN
1070
    73
1070
     1
1070
    44
1040
1.0
1070
    74
1070
     0
1000
MTEXTEND
  0
MTEXT
  5
5649
330
1A
100
AcDbEntity
  8
SUNPOU
100
AcDbMText
 10
79080.72366007995
 20
69106.06467060339
 30
0.0
 40
3.5
 41
0.0
 71
     9
 72
     5
  1

1001
ACAD
1000
MTEXTBEGIN
1070
    73
1070
     1
1070
    44
1040
1.0
1070
    74
1070
     0
1000
MTEXTEND
1000
MTEXTBEGIN
1070
    73
1070
     1
1070
    44
1040
1.0
1070
    74
1070
     0
1000
MTEXTEND
  0
MTEXT
  5
564A
330
1A
100
AcDbEntity
  8
SUNPOU
100
AcDbMText
 10
110206.9034926996
 20
111601.0103382607
 30
0.0
 40
10.5
 41
0.0
 71
     9
 72
     5
  1

1001
ACAD
1000
MTEXTBEGIN
1070
    73
1070
     1
1070
    44
1040
1.0
1070
    74
1070
     0
1000
MTEXTEND
1000
MTEXTBEGIN
1070
    73
1070
     1
1070
    44
1040
1.0
1070
    74
1070
     0
1000
MTEXTEND
  0
MTEXT
  5
564B
330
1A
100
AcDbEntity
  8
SUNPOU
100
AcDbMText
 10
112150.310739409
 20
109799.9612583826
 30
0.0
 40
3.5
 41
0.0
 71
     9
 72
     5
  1

1001
ACAD
1000
MTEXTBEGIN
1070
    73
1070
     1
1070
    44
1040
1.0
1070
    74
1070
     0
1000
MTEXTEND
1000
MTEXTBEGIN
1070
    73
1070
     1
1070
    44
1040
1.0
1070
    74
1070
     0
1000
MTEXTEND
  0
MTEXT
  5
564C
330
1A
100
AcDbEntity
  8
SUNPOU
100
AcDbMText
 10
108819.1333204967
 20
110677.9087286761
 30
0.0
 40
10.5
 41
0.0
 71
     9
 72
     5
  1

1001
ACAD
1000
MTEXTBEGIN
1070
    73
1070
     1
1070
    44
1040
1.0
1070
    74
1070
     0
1000
MTEXTEND
1000
MTEXTBEGIN
1070
    73
1070
     1
1070
    44
1040
1.0
1070
    74
1070
     0
1000
MTEXTEND
  0
MTEXT
  5
564D
330
1A
100
AcDbEntity
  8
SUNPOU
100
AcDbMText
 10
110762.5405672062
 20
108876.8596487981
 30
0.0
 40
3.5
 41
0.0
 71
     9
 72
     5
  1

1001
ACAD
1000
MTEXTBEGIN
1070
    73
1070
     1
1070
    44
1040
1.0
1070
    74
1070
     0
1000
MTEXTEND
1000
MTEXTBEGIN
1070
    73
1070
     1
1070
    44
1040
1.0
1070
    74
1070
     0
1000
MTEXTEND
  0
MTEXT
  5
564E
330
1A
100
AcDbEntity
  8
SUNPOU
100
AcDbMText
 10
76303.05507956816
 20
68695.31179059812
 30
0.0
 40
10.5
 41
0.0
 71
     9
 72
     5
  1

1001
ACAD
1000
MTEXTBEGIN
1070
    73
1070
     1
1070
    44
1040
1.0
1070
    74
1070
     0
1000
MTEXTEND
1000
MTEXTBEGIN
1070
    73
1070
     1
1070
    44
1040
1.0
1070
    74
1070
     0
1000
MTEXTEND
  0
MTEXT
  5
564F
330
1A
100
AcDbEntity
  8
SUNPOU
100
AcDbMText
 10
79026.36128373271
 20
69099.99348217918
 30
0.0
 40
3.5
 41
0.0
 71
     9
 72
     5
  1

1001
ACAD
1000
MTEXTBEGIN
1070
    73
1070
     1
1070
    44
1040
1.0
1070
    74
1070
     0
1000
MTEXTEND
1000
MTEXTBEGIN
1070
    73
1070
     1
1070
    44
1040
1.0
1070
    74
1070
     0
1000
MTEXTEND
  0
MTEXT
  5
5650
330
1A
100
AcDbEntity
  8
SUNPOU
100
AcDbMText
 10
78234.00675862522
 20
65938.68764412436
 30
0.0
 40
10.5
 41
0.0
 71
     9
 72
     5
  1

1001
ACAD
1000
MTEXTBEGIN
1070
    73
1070
     1
1070
    44
1040
1.0
1070
    74
1070
     0
1000
MTEXTEND
1000
MTEXTBEGIN
1070
    73
1070
     1
1070
    44
1040
1.0
1070
    74
1070
     0
1000
MTEXTEND
  0
MTEXT
  5
5651
330
1A
100
AcDbEntity
  8
SUNPOU
100
AcDbMText
 10
80177.41400533465
 20
64137.63856424636
 30
0.0
 40
3.5
 41
0.0
 71
     9
 72
     5
  1

1001
ACAD
1000
MTEXTBEGIN
1070
    73
1070
     1
1070
    44
1040
1.0
1070
    74
1070
     0
1000
MTEXTEND
1000
MTEXTBEGIN
1070
    73
1070
     1
1070
    44
1040
1.0
1070
    74
1070
     0
1000
MTEXTEND
  0
MTEXT
  5
5652
330
1A
100
AcDbEntity
  8
SUNPOU
100
AcDbMText
 10
80122.50949592122
 20
64024.86668196204
 30
0.0
 40
3.5
 41
0.0
 71
     9
 72
     5
  1

1001
ACAD
1000
MTEXTBEGIN
1070
    73
1070
     1
1070
    44
1040
1.0
1070
    74
1070
     0
1000
MTEXTEND
1000
MTEXTBEGIN
1070
    73
1070
     1
1070
    44
1040
1.0
1070
    74
1070
     0
1000
MTEXTEND
  0
MTEXT
  5
5653
330
1A
100
AcDbEntity
  8
SUNPOU
100
AcDbMText
 10
79486.58135950133
 20
63213.54544089553
 30
0.0
 40
3.5
 41
0.0
 71
     9
 72
     5
  1

1001
ACAD
1000
MTEXTBEGIN
1070
    73
1070
     1
1070
    44
1040
1.0
1070
    74
1070
     0
1000
MTEXTEND
1000
MTEXTBEGIN
1070
    73
1070
     1
1070
    44
1040
1.0
1070
    74
1070
     0
1000
MTEXTEND
  0
MTEXT
  5
5654
330
1A
100
AcDbEntity
  8
SUNPOU
100
AcDbMText
 10
79485.3409400806
 20
63213.29746395804
 30
0.0
 40
10.5
 41
0.0
 71
     9
 72
     5
  1

1001
ACAD
1000
MTEXTBEGIN
1070
    73
1070
     1
1070
    44
1040
1.0
1070
    74
1070
     0
1000
MTEXTEND
1000
MTEXTBEGIN
1070
    73
1070
     1
1070
    44
1040
1.0
1070
    74
1070
     0
1000
MTEXTEND
  0
MTEXT
  5
5655
330
1A
100
AcDbEntity
  8
SUNPOU
100
AcDbMText
 10
85473.63363627567
 20
80747.76348077064
 30
0.0
 40
10.5
 41
0.0
 71
     9
 72
     5
  1

1001
ACAD
1000
MTEXTBEGIN
1070
    73
1070
     1
1070
    44
1040
1.0
1070
    74
1070
     0
1000
MTEXTEND
1000
MTEXTBEGIN
1070
    73
1070
     1
1070
    44
1040
1.0
1070
    74
1070
     0
1000
MTEXTEND
  0
MTEXT
  5
5656
330
1A
100
AcDbEntity
  8
SUNPOU
100
AcDbMText
 10
94195.80120219368
 20
88163.59801230806
 30
0.0
 40
10.5
 41
0.0
 71
     9
 72
     5
  1

1001
ACAD
1000
MTEXTBEGIN
1070
    73
1070
     1
1070
    44
1040
1.0
1070
    74
1070
     0
1000
MTEXTEND
1000
MTEXTBEGIN
1070
    73
1070
     1
1070
    44
1040
1.0
1070
    74
1070
     0
1000
MTEXTEND
  0
MTEXT
  5
5657
330
1A
100
AcDbEntity
  8
SUNPOU
100
AcDbMText
 10
113149.5599195236
 20
105630.1740648001
 30
0.0
 40
10.5
 41
0.0
 71
     9
 72
     5
  1

1001
ACAD
1000
MTEXTBEGIN
1070
    73
1070
     1
1070
    44
1040
1.0
1070
    74
1070
     0
1000
MTEXTEND
1000
MTEXTBEGIN
1070
    73
1070
     1
1070
    44
1040
1.0
1070
    74
1070
     0
1000
MTEXTEND
  0
MTEXT
  5
5658
330
1A
100
AcDbEntity
  8
SUNPOU
100
AcDbMText
 10
115092.967166233
 20
103829.1249849221
 30
0.0
 40
3.5
 41
0.0
 71
     9
 72
     5
  1

1001
ACAD
1000
MTEXTBEGIN
1070
    73
1070
     1
1070
    44
1040
1.0
1070
    74
1070
     0
1000
MTEXTEND
1000
MTEXTBEGIN
1070
    73
1070
     1
1070
    44
1040
1.0
1070
    74
1070
     0
1000
MTEXTEND
  0
MTEXT
  5
5659
330
1A
100
AcDbEntity
  8
SUNPOU
100
AcDbMText
 10
146219.1469988527
 20
146324.0706525794
 30
0.0
 40
10.5
 41
0.0
 71
     9
 72
     5
  1

1001
ACAD
1000
MTEXTBEGIN
1070
    73
1070
     1
1070
    44
1040
1.0
1070
    74
1070
     0
1000
MTEXTEND
1000
MTEXTBEGIN
1070
    73
1070
     1
1070
    44
1040
1.0
1070
    74
1070
     0
1000
MTEXTEND
  0
MTEXT
  5
565A
330
1A
100
AcDbEntity
  8
SUNPOU
100
AcDbMText
 10
148162.5542455621
 20
144523.0215727014
 30
0.0
 40
3.5
 41
0.0
 71
     9
 72
     5
  1

1001
ACAD
1000
MTEXTBEGIN
1070
    73
1070
     1
1070
    44
1040
1.0
1070
    74
1070
     0
1000
MTEXTEND
1000
MTEXTBEGIN
1070
    73
1070
     1
1070
    44
1040
1.0
1070
    74
1070
     0
1000
MTEXTEND
  0
MTEXT
  5
565B
330
1A
100
AcDbEntity
  8
SUNPOU
100
AcDbMText
 10
96659.41470464833
 20
92157.23580755453
 30
0.0
 40
10.5
 41
0.0
 71
     9
 72
     5
  1

1001
ACAD
1000
MTEXTBEGIN
1070
    73
1070
     1
1070
    44
1040
1.0
1070
    74
1070
     0
1000
MTEXTEND
1000
MTEXTBEGIN
1070
    73
1070
     1
1070
    44
1040
1.0
1070
    74
1070
     0
1000
MTEXTEND
  0
MTEXT
  5
565C
330
1A
100
AcDbEntity
  8
SUNPOU
100
AcDbMText
 10
82711.41460427234
 20
72984.83666844234
 30
0.0
 40
3.5
 41
0.0
 71
     7
 72
     5
  1

1001
ACAD
1000
MTEXTBEGIN
1070
    73
1070
     1
1070
    44
1040
1.0
1070
    74
1070
     0
1000
MTEXTEND
1000
MTEXTBEGIN
1070
    73
1070
     1
1070
    44
1040
1.0
1070
    74
1070
     0
1000
MTEXTEND
  0
MTEXT
  5
565D
330
1A
100
AcDbEntity
  8
SUNPOU
100
AcDbMText
 10
63696.58400126548
 20
60746.98539926055
 30
0.0
 40
10.5
 41
0.0
 71
     7
 72
     5
  1

1001
ACAD
1000
MTEXTBEGIN
1070
    73
1070
     1
1070
    44
1040
1.0
1070
    74
1070
     0
1000
MTEXTEND
1000
MTEXTBEGIN
1070
    73
1070
     1
1070
    44
1040
1.0
1070
    74
1070
     0
1000
MTEXTEND
  0
MTEXT
  5
565E
330
1A
100
AcDbEntity
  8
SUNPOU
100
AcDbMText
 10
51239.35573631738
 20
44902.05382116213
 30
0.0
 40
35.0
 41
0.0
 71
     9
 72
     5
  1

1001
ACAD
1000
MTEXTBEGIN
1070
    73
1070
     1
1070
    44
1040
1.0
1070
    74
1070
     0
1000
MTEXTEND
1000
MTEXTBEGIN
1070
    73
1070
     1
1070
    44
1040
1.0
1070
    74
1070
     0
1000
MTEXTEND
  0
MTEXT
  5
565F
330
1A
100
AcDbEntity
  8
SUNPOU
100
AcDbMText
 10
50147.84079389233
 20
45510.82923121084
 30
0.0
 40
350.0000004171781
 41
0.0
 71
     7
 72
     5
  1

1001
ACAD
1000
MTEXTBEGIN
1070
    73
1070
     1
1070
    44
1040
1.0
1070
    74
1070
     0
1000
MTEXTEND
1000
MTEXTBEGIN
1070
    73
1070
     1
1070
    44
1040
1.0
1070
    74
1070
     0
1000
MTEXTEND
  0
MTEXT
  5
5660
330
1A
100
AcDbEntity
  8
0
100
AcDbMText
 10
56191.79155183523
 20
43490.75159334705
 30
0.0
 40
8.0
 41
0.0
 71
     7
 72
     5
  1

1001
ACAD
1000
MTEXTBEGIN
1070
    73
1070
     1
1070
    44
1040
1.0
1070
    74
1070
     0
1000
MTEXTEND
1000
MTEXTBEGIN
1070
    73
1070
     1
1070
    44
1040
1.0
1070
    74
1070
     0
1000
MTEXTEND
  0
MTEXT
  5
5661
330
1A
100
AcDbEntity
  8
0
100
AcDbMText
 10
58477.14924173012
 20
44461.54188809812
 30
0.0
 40
8.0
 41
0.0
 71
     7
 72
     5
  1

1001
ACAD
1000
MTEXTBEGIN
1070
    73
1070
     1
1070
    44
1040
1.0
1070
    74
1070
     0
1000
MTEXTEND
1000
MTEXTBEGIN
1070
    73
1070
     1
1070
    44
1040
1.0
1070
    74
1070
     0
1000
MTEXTEND
  0
MTEXT
  5
5662
330
1A
100
AcDbEntity
  8
SUNPOU
100
AcDbMText
 10
61143.04626241227
 20
53973.65328047324
 30
0.0
 40
10.5
 41
0.0
 71
     1
 72
     5
  1

1001
ACAD
1000
MTEXTBEGIN
1070
    73
1070
     1
1070
    44
1040
1.0
1070
    74
1070
     0
1000
MTEXTEND
1000
MTEXTBEGIN
1070
    73
1070
     1
1070
    44
1040
1.0
1070
    74
1070
     0
1000
MTEXTEND
  0
MTEXT
  5
5663
330
1A
100
AcDbEntity
  8
SUNPOU
100
AcDbMText
 10
53212.12306647632
 20
53026.86014656028
 30
0.0
 40
10.5
 41
0.0
 71
     7
 72
     5
  1

1001
ACAD
1000
MTEXTBEGIN
1070
    73
1070
     1
1070
    44
1040
1.0
1070
    74
1070
     0
1000
MTEXTEND
1000
MTEXTBEGIN
1070
    73
1070
     1
1070
    44
1040
1.0
1070
    74
1070
     0
1000
MTEXTEND
  0
MTEXT
  5
5664
330
1A
100
AcDbEntity
  8
SUNPOU
100
AcDbMText
 10
56161.10673098909
 20
57927.53621840312
 30
0.0
 40
10.5
 41
0.0
 71
     7
 72
     5
  1

1001
ACAD
1000
MTEXTBEGIN
1070
    73
1070
     1
1070
    44
1040
1.0
1070
    74
1070
     0
1000
MTEXTEND
1000
MTEXTBEGIN
1070
    73
1070
     1
1070
    44
1040
1.0
1070
    74
1070
     0
1000
MTEXTEND
  0
MTEXT
  5
5665
330
1A
100
AcDbEntity
  8
SUNPOU
100
AcDbMText
 10
60670.18485893966
 20
60363.8369660232
 30
0.0
 40
10.5
 41
0.0
 71
     7
 72
     5
  1

1001
ACAD
1000
MTEXTBEGIN
1070
    73
1070
     1
1070
    44
1040
1.0
1070
    74
1070
     0
1000
MTEXTEND
1000
MTEXTBEGIN
1070
    73
1070
     1
1070
    44
1040
1.0
1070
    74
1070
     0
1000
MTEXTEND
  0
MTEXT
  5
5666
330
1A
100
AcDbEntity
  8
SUNPOU
100
AcDbMText
 10
44271.02274570799
 20
39361.43311641211
 30
0.0
 40
10.5
 41
0.0
 71
     7
 72
     5
  1

1001
ACAD
1000
MTEXTBEGIN
1070
    73
1070
     1
1070
    44
1040
1.0
1070
    74
1070
     0
1000
MTEXTEND
1000
MTEXTBEGIN
1070
    73
1070
     1
1070
    44
1040
1.0
1070
    74
1070
     0
1000
MTEXTEND
  0
MTEXT
  5
5667
330
1A
100
AcDbEntity
  8
SUNPOU
100
AcDbMText
 10
95462.54117960824
 20
85034.41368006038
 30
0.0
 40
10.5
 41
0.0
 71
     9
 72
     5
  1

1001
ACAD
1000
MTEXTBEGIN
1070
    73
1070
     1
1070
    44
1040
1.0
1070
    74
1070
     0
1000
MTEXTEND
1000
MTEXTBEGIN
1070
    73
1070
     1
1070
    44
1040
1.0
1070
    74
1070
     0
1000
MTEXTEND
  0
MTEXT
  5
5668
330
1A
100
AcDbEntity
  8
SUNPOU
100
AcDbMText
 10
104184.7087455262
 20
92450.24821159784
 30
0.0
 40
10.5
 41
0.0
 71
     9
 72
     5
  1

1001
ACAD
1000
MTEXTBEGIN
1070
    73
1070
     1
1070
    44
1040
1.0
1070
    74
1070
     0
1000
MTEXTEND
1000
MTEXTBEGIN
1070
    73
1070
     1
1070
    44
1040
1.0
1070
    74
1070
     0
1000
MTEXTEND
  0
MTEXT
  5
5669
330
1A
100
AcDbEntity
  8
SUNPOU
100
AcDbMText
 10
123138.4674628562
 20
109916.8242640898
 30
0.0
 40
10.5
 41
0.0
 71
     9
 72
     5
  1

1001
ACAD
1000
MTEXTBEGIN
1070
    73
1070
     1
1070
    44
1040
1.0
1070
    74
1070
     0
1000
MTEXTEND
1000
MTEXTBEGIN
1070
    73
1070
     1
1070
    44
1040
1.0
1070
    74
1070
     0
1000
MTEXTEND
  0
MTEXT
  5
566A
330
1A
100
AcDbEntity
  8
SUNPOU
100
AcDbMText
 10
125081.8747095656
 20
108115.7751842118
 30
0.0
 40
3.5
 41
0.0
 71
     9
 72
     5
  1

1001
ACAD
1000
MTEXTBEGIN
1070
    73
1070
     1
1070
    44
1040
1.0
1070
    74
1070
     0
1000
MTEXTEND
1000
MTEXTBEGIN
1070
    73
1070
     1
1070
    44
1040
1.0
1070
    74
1070
     0
1000
MTEXTEND
  0
MTEXT
  5
566B
330
1A
100
AcDbEntity
  8
SUNPOU
100
AcDbMText
 10
156208.0545421853
 20
150610.7208518691
 30
0.0
 40
10.5
 41
0.0
 71
     9
 72
     5
  1

1001
ACAD
1000
MTEXTBEGIN
1070
    73
1070
     1
1070
    44
1040
1.0
1070
    74
1070
     0
1000
MTEXTEND
1000
MTEXTBEGIN
1070
    73
1070
     1
1070
    44
1040
1.0
1070
    74
1070
     0
1000
MTEXTEND
  0
MTEXT
  5
566C
330
1A
100
AcDbEntity
  8
SUNPOU
100
AcDbMText
 10
158151.4617888947
 20
148809.6717719911
 30
0.0
 40
3.5
 41
0.0
 71
     9
 72
     5
  1

1001
ACAD
1000
MTEXTBEGIN
1070
    73
1070
     1
1070
    44
1040
1.0
1070
    74
1070
     0
1000
MTEXTEND
1000
MTEXTBEGIN
1070
    73
1070
     1
1070
    44
1040
1.0
1070
    74
1070
     0
1000
MTEXTEND
  0
MTEXT
  5
566D
330
1A
100
AcDbEntity
  8
SUNPOU
100
AcDbMText
 10
106648.3222479809
 20
96443.88600684427
 30
0.0
 40
10.5
 41
0.0
 71
     9
 72
     5
  1

1001
ACAD
1000
MTEXTBEGIN
1070
    73
1070
     1
1070
    44
1040
1.0
1070
    74
1070
     0
1000
MTEXTEND
1000
MTEXTBEGIN
1070
    73
1070
     1
1070
    44
1040
1.0
1070
    74
1070
     0
1000
MTEXTEND
  0
MTEXT
  5
566E
330
1A
100
AcDbEntity
  8
SUNPOU
100
AcDbMText
 10
92700.3221476049
 20
77271.48686773207
 30
0.0
 40
3.5
 41
0.0
 71
     7
 72
     5
  1

1001
ACAD
1000
MTEXTBEGIN
1070
    73
1070
     1
1070
    44
1040
1.0
1070
    74
1070
     0
1000
MTEXTEND
1000
MTEXTBEGIN
1070
    73
1070
     1
1070
    44
1040
1.0
1070
    74
1070
     0
1000
MTEXTEND
  0
MTEXT
  5
566F
330
1A
100
AcDbEntity
  8
SUNPOU
100
AcDbMText
 10
73685.49154459807
 20
65033.63559855027
 30
0.0
 40
10.5
 41
0.0
 71
     7
 72
     5
  1

1001
ACAD
1000
MTEXTBEGIN
1070
    73
1070
     1
1070
    44
1040
1.0
1070
    74
1070
     0
1000
MTEXTEND
1000
MTEXTBEGIN
1070
    73
1070
     1
1070
    44
1040
1.0
1070
    74
1070
     0
1000
MTEXTEND
  0
MTEXT
  5
5670
330
1A
100
AcDbEntity
  8
SUNPOU
100
AcDbMText
 10
61228.26327964995
 20
49188.70402045183
 30
0.0
 40
35.0
 41
0.0
 71
     9
 72
     5
  1

1001
ACAD
1000
MTEXTBEGIN
1070
    73
1070
     1
1070
    44
1040
1.0
1070
    74
1070
     0
1000
MTEXTEND
1000
MTEXTBEGIN
1070
    73
1070
     1
1070
    44
1040
1.0
1070
    74
1070
     0
1000
MTEXTEND
  0
MTEXT
  5
5671
330
1A
100
AcDbEntity
  8
SUNPOU
100
AcDbMText
 10
60136.74833722491
 20
49797.47943050056
 30
0.0
 40
350.0000004171781
 41
0.0
 71
     7
 72
     5
  1

1001
ACAD
1000
MTEXTBEGIN
1070
    73
1070
     1
1070
    44
1040
1.0
1070
    74
1070
     0
1000
MTEXTEND
1000
MTEXTBEGIN
1070
    73
1070
     1
1070
    44
1040
1.0
1070
    74
1070
     0
1000
MTEXTEND
  0
MTEXT
  5
5672
330
1A
100
AcDbEntity
  8
0
100
AcDbMText
 10
66180.69909516782
 20
47777.40179263677
 30
0.0
 40
8.0
 41
0.0
 71
     7
 72
     5
  1

1001
ACAD
1000
MTEXTBEGIN
1070
    73
1070
     1
1070
    44
1040
1.0
1070
    74
1070
     0
1000
MTEXTEND
1000
MTEXTBEGIN
1070
    73
1070
     1
1070
    44
1040
1.0
1070
    74
1070
     0
1000
MTEXTEND
  0
MTEXT
  5
5673
330
1A
100
AcDbEntity
  8
0
100
AcDbMText
 10
68466.05678506271
 20
48748.19208738784
 30
0.0
 40
8.0
 41
0.0
 71
     7
 72
     5
  1

1001
ACAD
1000
MTEXTBEGIN
1070
    73
1070
     1
1070
    44
1040
1.0
1070
    74
1070
     0
1000
MTEXTEND
1000
MTEXTBEGIN
1070
    73
1070
     1
1070
    44
1040
1.0
1070
    74
1070
     0
1000
MTEXTEND
  0
MTEXT
  5
5674
330
1A
100
AcDbEntity
  8
SUNPOU
100
AcDbMText
 10
71131.95380574485
 20
58260.30347976296
 30
0.0
 40
10.5
 41
0.0
 71
     1
 72
     5
  1

1001
ACAD
1000
MTEXTBEGIN
1070
    73
1070
     1
1070
    44
1040
1.0
1070
    74
1070
     0
1000
MTEXTEND
1000
MTEXTBEGIN
1070
    73
1070
     1
1070
    44
1040
1.0
1070
    74
1070
     0
1000
MTEXTEND
  0
MTEXT
  5
5675
330
1A
100
AcDbEntity
  8
SUNPOU
100
AcDbMText
 10
63201.03060980891
 20
57313.51034585003
 30
0.0
 40
10.5
 41
0.0
 71
     7
 72
     5
  1

1001
ACAD
1000
MTEXTBEGIN
1070
    73
1070
     1
1070
    44
1040
1.0
1070
    74
1070
     0
1000
MTEXTEND
1000
MTEXTBEGIN
1070
    73
1070
     1
1070
    44
1040
1.0
1070
    74
1070
     0
1000
MTEXTEND
  0
MTEXT
  5
5676
330
1A
100
AcDbEntity
  8
SUNPOU
100
AcDbMText
 10
66150.01427432169
 20
62214.18641769286
 30
0.0
 40
10.5
 41
0.0
 71
     7
 72
     5
  1

1001
ACAD
1000
MTEXTBEGIN
1070
    73
1070
     1
1070
    44
1040
1.0
1070
    74
1070
     0
1000
MTEXTEND
1000
MTEXTBEGIN
1070
    73
1070
     1
1070
    44
1040
1.0
1070
    74
1070
     0
1000
MTEXTEND
  0
MTEXT
  5
5677
330
1A
100
AcDbEntity
  8
SUNPOU
100
AcDbMText
 10
70659.09240227225
 20
64650.48716531294
 30
0.0
 40
10.5
 41
0.0
 71
     7
 72
     5
  1

1001
ACAD
1000
MTEXTBEGIN
1070
    73
1070
     1
1070
    44
1040
1.0
1070
    74
1070
     0
1000
MTEXTEND
1000
MTEXTBEGIN
1070
    73
1070
     1
1070
    44
1040
1.0
1070
    74
1070
     0
1000
MTEXTEND
  0
MTEXT
  5
5678
330
1A
100
AcDbEntity
  8
SUNPOU
100
AcDbMText
 10
54259.93028904056
 20
43648.08331570185
 30
0.0
 40
10.5
 41
0.0
 71
     7
 72
     5
  1

1001
ACAD
1000
MTEXTBEGIN
1070
    73
1070
     1
1070
    44
1040
1.0
1070
    74
1070
     0
1000
MTEXTEND
1000
MTEXTBEGIN
1070
    73
1070
     1
1070
    44
1040
1.0
1070
    74
1070
     0
1000
MTEXTEND
  0
MTEXT
  5
5679
330
1A
100
AcDbEntity
  8
SUNPOU
100
AcDbMText
 10
56070.69320041551
 20
49975.4973031804
 30
0.0
 40
10.5
 41
0.0
 71
     9
 72
     5
  1

1001
ACAD
1000
MTEXTBEGIN
1070
    73
1070
     1
1070
    44
1040
1.0
1070
    74
1070
     0
1000
MTEXTEND
1000
MTEXTBEGIN
1070
    73
1070
     1
1070
    44
1040
1.0
1070
    74
1070
     0
1000
MTEXTEND
  0
MTEXT
  5
567A
330
1A
100
AcDbEntity
  8
SUNPOU
100
AcDbMText
 10
64792.86076633347
 20
57391.33183471787
 30
0.0
 40
10.5
 41
0.0
 71
     9
 72
     5
  1

1001
ACAD
1000
MTEXTBEGIN
1070
    73
1070
     1
1070
    44
1040
1.0
1070
    74
1070
     0
1000
MTEXTEND
1000
MTEXTBEGIN
1070
    73
1070
     1
1070
    44
1040
1.0
1070
    74
1070
     0
1000
MTEXTEND
  0
MTEXT
  5
567B
330
1A
100
AcDbEntity
  8
SUNPOU
100
AcDbMText
 10
83746.61948366345
 20
74857.90788720994
 30
0.0
 40
10.5
 41
0.0
 71
     9
 72
     5
  1

1001
ACAD
1000
MTEXTBEGIN
1070
    73
1070
     1
1070
    44
1040
1.0
1070
    74
1070
     0
1000
MTEXTEND
1000
MTEXTBEGIN
1070
    73
1070
     1
1070
    44
1040
1.0
1070
    74
1070
     0
1000
MTEXTEND
  0
MTEXT
  5
567C
330
1A
100
AcDbEntity
  8
SUNPOU
100
AcDbMText
 10
85690.02673037287
 20
73056.85880733192
 30
0.0
 40
3.5
 41
0.0
 71
     9
 72
     5
  1

1001
ACAD
1000
MTEXTBEGIN
1070
    73
1070
     1
1070
    44
1040
1.0
1070
    74
1070
     0
1000
MTEXTEND
1000
MTEXTBEGIN
1070
    73
1070
     1
1070
    44
1040
1.0
1070
    74
1070
     0
1000
MTEXTEND
  0
MTEXT
  5
567D
330
1A
100
AcDbEntity
  8
SUNPOU
100
AcDbMText
 10
116816.2065629925
 20
115551.8044749892
 30
0.0
 40
10.5
 41
0.0
 71
     9
 72
     5
  1

1001
ACAD
1000
MTEXTBEGIN
1070
    73
1070
     1
1070
    44
1040
1.0
1070
    74
1070
     0
1000
MTEXTEND
1000
MTEXTBEGIN
1070
    73
1070
     1
1070
    44
1040
1.0
1070
    74
1070
     0
1000
MTEXTEND
  0
MTEXT
  5
567E
330
1A
100
AcDbEntity
  8
SUNPOU
100
AcDbMText
 10
118759.6138097019
 20
113750.7553951111
 30
0.0
 40
3.5
 41
0.0
 71
     9
 72
     5
  1

1001
ACAD
1000
MTEXTBEGIN
1070
    73
1070
     1
1070
    44
1040
1.0
1070
    74
1070
     0
1000
MTEXTEND
1000
MTEXTBEGIN
1070
    73
1070
     1
1070
    44
1040
1.0
1070
    74
1070
     0
1000
MTEXTEND
  0
MTEXT
  5
567F
330
1A
100
AcDbEntity
  8
SUNPOU
100
AcDbMText
 10
67256.47426878814
 20
61384.96962996432
 30
0.0
 40
10.5
 41
0.0
 71
     9
 72
     5
  1

1001
ACAD
1000
MTEXTBEGIN
1070
    73
1070
     1
1070
    44
1040
1.0
1070
    74
1070
     0
1000
MTEXTEND
1000
MTEXTBEGIN
1070
    73
1070
     1
1070
    44
1040
1.0
1070
    74
1070
     0
1000
MTEXTEND
  0
MTEXT
  5
5680
330
1A
100
AcDbEntity
  8
SUNPOU
100
AcDbMText
 10
53308.47416841216
 20
42212.57049085211
 30
0.0
 40
3.5
 41
0.0
 71
     7
 72
     5
  1

1001
ACAD
1000
MTEXTBEGIN
1070
    73
1070
     1
1070
    44
1040
1.0
1070
    74
1070
     0
1000
MTEXTEND
1000
MTEXTBEGIN
1070
    73
1070
     1
1070
    44
1040
1.0
1070
    74
1070
     0
1000
MTEXTEND
  0
MTEXT
  5
5681
330
1A
100
AcDbEntity
  8
SUNPOU
100
AcDbMText
 10
67000.82485118274
 20
51571.63371187343
 30
0.0
 40
10.5
 41
0.0
 71
     9
 72
     5
  1

1001
ACAD
1000
MTEXTBEGIN
1070
    73
1070
     1
1070
    44
1040
1.0
1070
    74
1070
     0
1000
MTEXTEND
1000
MTEXTBEGIN
1070
    73
1070
     1
1070
    44
1040
1.0
1070
    74
1070
     0
1000
MTEXTEND
  0
MTEXT
  5
5682
330
1A
100
AcDbEntity
  8
SUNPOU
100
AcDbMText
 10
75722.99241710071
 20
58987.46824341094
 30
0.0
 40
10.5
 41
0.0
 71
     9
 72
     5
  1

1001
ACAD
1000
MTEXTBEGIN
1070
    73
1070
     1
1070
    44
1040
1.0
1070
    74
1070
     0
1000
MTEXTEND
1000
MTEXTBEGIN
1070
    73
1070
     1
1070
    44
1040
1.0
1070
    74
1070
     0
1000
MTEXTEND
  0
MTEXT
  5
5683
330
1A
100
AcDbEntity
  8
SUNPOU
100
AcDbMText
 10
94676.75113443068
 20
76454.04429590299
 30
0.0
 40
10.5
 41
0.0
 71
     9
 72
     5
  1

1001
ACAD
1000
MTEXTBEGIN
1070
    73
1070
     1
1070
    44
1040
1.0
1070
    74
1070
     0
1000
MTEXTEND
1000
MTEXTBEGIN
1070
    73
1070
     1
1070
    44
1040
1.0
1070
    74
1070
     0
1000
MTEXTEND
  0
MTEXT
  5
5684
330
1A
100
AcDbEntity
  8
SUNPOU
100
AcDbMText
 10
96620.1583811401
 20
74652.99521602497
 30
0.0
 40
3.5
 41
0.0
 71
     9
 72
     5
  1

1001
ACAD
1000
MTEXTBEGIN
1070
    73
1070
     1
1070
    44
1040
1.0
1070
    74
1070
     0
1000
MTEXTEND
1000
MTEXTBEGIN
1070
    73
1070
     1
1070
    44
1040
1.0
1070
    74
1070
     0
1000
MTEXTEND
  0
MTEXT
  5
5685
330
1A
100
AcDbEntity
  8
SUNPOU
100
AcDbMText
 10
127746.3382137598
 20
117147.9408836822
 30
0.0
 40
10.5
 41
0.0
 71
     9
 72
     5
  1

1001
ACAD
1000
MTEXTBEGIN
1070
    73
1070
     1
1070
    44
1040
1.0
1070
    74
1070
     0
1000
MTEXTEND
1000
MTEXTBEGIN
1070
    73
1070
     1
1070
    44
1040
1.0
1070
    74
1070
     0
1000
MTEXTEND
  0
MTEXT
  5
5686
330
1A
100
AcDbEntity
  8
SUNPOU
100
AcDbMText
 10
129689.7454604692
 20
115346.8918038041
 30
0.0
 40
3.5
 41
0.0
 71
     9
 72
     5
  1

1001
ACAD
1000
MTEXTBEGIN
1070
    73
1070
     1
1070
    44
1040
1.0
1070
    74
1070
     0
1000
MTEXTEND
1000
MTEXTBEGIN
1070
    73
1070
     1
1070
    44
1040
1.0
1070
    74
1070
     0
1000
MTEXTEND
  0
MTEXT
  5
5687
330
1A
100
AcDbEntity
  8
SUNPOU
100
AcDbMText
 10
78186.60591955537
 20
62981.10603865737
 30
0.0
 40
10.5
 41
0.0
 71
     9
 72
     5
  1

1001
ACAD
1000
MTEXTBEGIN
1070
    73
1070
     1
1070
    44
1040
1.0
1070
    74
1070
     0
1000
MTEXTEND
1000
MTEXTBEGIN
1070
    73
1070
     1
1070
    44
1040
1.0
1070
    74
1070
     0
1000
MTEXTEND
  0
MTEXT
  5
5688
330
1A
100
AcDbEntity
  8
SUNPOU
100
AcDbMText
 10
64238.60581917939
 20
43808.70689954517
 30
0.0
 40
3.5
 41
0.0
 71
     7
 72
     5
  1

1001
ACAD
1000
MTEXTBEGIN
1070
    73
1070
     1
1070
    44
1040
1.0
1070
    74
1070
     0
1000
MTEXTEND
1000
MTEXTBEGIN
1070
    73
1070
     1
1070
    44
1040
1.0
1070
    74
1070
     0
1000
MTEXTEND
  0
MTEXT
  5
5689
330
1A
100
AcDbEntity
  8
SUNPOU
100
AcDbMText
 10
33428.13481137435
 20
32770.04710035563
 30
0.0
 40
10.5
 41
0.0
 71
     9
 72
     5
  1

1001
ACAD
1000
MTEXTBEGIN
1070
    73
1070
     1
1070
    44
1040
1.0
1070
    74
1070
     0
1000
MTEXTEND
1000
MTEXTBEGIN
1070
    73
1070
     1
1070
    44
1040
1.0
1070
    74
1070
     0
1000
MTEXTEND
  0
MTEXT
  5
568A
330
1A
100
AcDbEntity
  8
SUNPOU
100
AcDbMText
 10
52381.89352870431
 20
50236.62315284768
 30
0.0
 40
10.5
 41
0.0
 71
     9
 72
     5
  1

1001
ACAD
1000
MTEXTBEGIN
1070
    73
1070
     1
1070
    44
1040
1.0
1070
    74
1070
     0
1000
MTEXTEND
1000
MTEXTBEGIN
1070
    73
1070
     1
1070
    44
1040
1.0
1070
    74
1070
     0
1000
MTEXTEND
  0
MTEXT
  5
568B
330
1A
100
AcDbEntity
  8
SUNPOU
100
AcDbMText
 10
54325.30077541374
 20
48435.57407296968
 30
0.0
 40
3.5
 41
0.0
 71
     9
 72
     5
  1

1001
ACAD
1000
MTEXTBEGIN
1070
    73
1070
     1
1070
    44
1040
1.0
1070
    74
1070
     0
1000
MTEXTEND
1000
MTEXTBEGIN
1070
    73
1070
     1
1070
    44
1040
1.0
1070
    74
1070
     0
1000
MTEXTEND
  0
MTEXT
  5
568C
330
1A
100
AcDbEntity
  8
SUNPOU
100
AcDbMText
 10
85451.48060803342
 20
90930.51974062703
 30
0.0
 40
10.5
 41
0.0
 71
     9
 72
     5
  1

1001
ACAD
1000
MTEXTBEGIN
1070
    73
1070
     1
1070
    44
1040
1.0
1070
    74
1070
     0
1000
MTEXTEND
1000
MTEXTBEGIN
1070
    73
1070
     1
1070
    44
1040
1.0
1070
    74
1070
     0
1000
MTEXTEND
  0
MTEXT
  5
568D
330
1A
100
AcDbEntity
  8
SUNPOU
100
AcDbMText
 10
87394.88785474286
 20
89129.47066074901
 30
0.0
 40
3.5
 41
0.0
 71
     9
 72
     5
  1

1001
ACAD
1000
MTEXTBEGIN
1070
    73
1070
     1
1070
    44
1040
1.0
1070
    74
1070
     0
1000
MTEXTEND
1000
MTEXTBEGIN
1070
    73
1070
     1
1070
    44
1040
1.0
1070
    74
1070
     0
1000
MTEXTEND
  0
MTEXT
  5
568E
330
1A
100
AcDbEntity
  8
SUNPOU
100
AcDbMText
 10
35891.74831382901
 20
36763.68489560208
 30
0.0
 40
10.5
 41
0.0
 71
     9
 72
     5
  1

1001
ACAD
1000
MTEXTBEGIN
1070
    73
1070
     1
1070
    44
1040
1.0
1070
    74
1070
     0
1000
MTEXTEND
1000
MTEXTBEGIN
1070
    73
1070
     1
1070
    44
1040
1.0
1070
    74
1070
     0
1000
MTEXTEND
  0
MTEXT
  5
568F
330
1A
100
AcDbEntity
  8
SUNPOU
100
AcDbMText
 10
21943.74821345303
 20
17591.28575648985
 30
0.0
 40
3.5
 41
0.0
 71
     7
 72
     5
  1

1001
ACAD
1000
MTEXTBEGIN
1070
    73
1070
     1
1070
    44
1040
1.0
1070
    74
1070
     0
1000
MTEXTEND
1000
MTEXTBEGIN
1070
    73
1070
     1
1070
    44
1040
1.0
1070
    74
1070
     0
1000
MTEXTEND
  0
MTEXT
  5
123A9
330
1A
100
AcDbEntity
  8
ZISSEN1
100
AcDbMText
 10
-1707.187619529359
 20
1835.705541599433
 30
0.0
 40
5.0
 41
108.3598999999999
 71
     1
 72
     5
  1
ADB-5F30{\H0.6x;V1}  No.SS0001f64
1001
ACAD
1000
MTEXTBEGIN
1070
    73
1070
     1
1070
    44
1040
1.0
1070
    74
1070
     0
1000
MTEXTEND
1000
MTEXTBEGIN
1070
    73
1070
     1
1070
    44
1040
1.0
1070
    74
1070
     0
1000
MTEXTEND
  0
LINE
  5
12903
330
1A
100
AcDbEntity
  8
ZISSEN1
100
AcDbLine
 10
-1551.0
 20
1807.0
 30
0.0
 11
-1551.0
 21
1750.0
 31
0.0
  0
LINE
  5
12904
330
1A
100
AcDbEntity
  8
ZISSEN1
100
AcDbLine
 10
-1554.0
 20
1807.0
 30
0.0
 11
-1554.0
 21
1750.0
 31
0.0
  0
LINE
  5
12905
330
1A
100
AcDbEntity
  8
ZISSEN1
100
AcDbLine
 10
-1561.9
 20
1801.0
 30
0.0
 11
-1561.9
 21
1786.099999999999
 31
0.0
  0
LINE
  5
12906
330
1A
100
AcDbEntity
  8
ZISSEN1
100
AcDbLine
 10
-1563.5
 20
1801.0
 30
0.0
 11
-1563.5
 21
1786.099999999999
 31
0.0
  0
LINE
  5
12908
330
1A
100
AcDbEntity
  8
ZISSEN1
100
AcDbLine
 10
-1638.000000461504
 20
1751.0
 30
0.0
 11
-1638.000023075196
 21
1800.0
 31
0.0
  0
LINE
  5
12909
330
1A
100
AcDbEntity
  8
ZISSEN1
100
AcDbLine
 10
-1580.0
 20
1806.0
 30
0.0
 11
-1580.0
 21
1751.0
 31
0.0
  0
LINE
  5
1290C
330
1A
100
AcDbEntity
  8
ZISSEN1
100
AcDbLine
 10
-1703.0
 20
1750.0
 30
0.0
 11
-1703.0
 21
1807.0
 31
0.0
  0
LINE
  5
1290D
330
1A
100
AcDbEntity
  8
ZISSEN1
100
AcDbLine
 10
-1700.0
 20
1750.0
 30
0.0
 11
-1700.0
 21
1807.0
 31
0.0
  0
LINE
  5
12918
330
1A
100
AcDbEntity
  8
ZISSEN1
100
AcDbLine
 10
-1701.249999999999
 20
1665.0
 30
0.0
 11
-1638.0
 21
1665.0
 31
0.0
  0
LINE
  5
12919
330
1A
100
AcDbEntity
  8
ZISSEN1
100
AcDbLine
 10
-1700.0
 20
1668.0
 30
0.0
 11
-1638.0
 21
1668.0
 31
0.0
  0
LINE
  5
1291A
330
1A
100
AcDbEntity
  8
ZISSEN1
100
AcDbLine
 10
-1699.5
 20
1675.9
 30
0.0
 11
-1638.0
 21
1675.9
 31
0.0
  0
LINE
  5
1291B
330
1A
100
AcDbEntity
  8
ZISSEN1
100
AcDbLine
 10
-1699.5
 20
1677.5
 30
0.0
 11
-1638.0
 21
1677.5
 31
0.0
  0
LINE
  5
1291E
330
1A
100
AcDbEntity
  8
ZISSEN1
100
AcDbLine
 10
-1700.0
 20
1668.0
 30
0.0
 11
-1700.0
 21
1694.0
 31
0.0
  0
LINE
  5
1291F
330
1A
100
AcDbEntity
  8
ZISSEN1
100
AcDbLine
 10
-1703.0
 20
1666.75
 30
0.0
 11
-1703.0
 21
1694.0
 31
0.0
  0
LINE
  5
12924
330
1A
100
AcDbEntity
  8
ZISSEN1
100
AcDbLine
 10
-1703.0
 20
1694.0
 30
0.0
 11
-1700.0
 21
1694.0
 31
0.0
  0
LINE
  5
12928
330
1A
100
AcDbEntity
  8
ZISSEN1
100
AcDbLine
 10
-1703.0
 20
1683.749999999999
 30
0.0
 11
-1700.0
 21
1683.749999999999
 31
0.0
  0
LINE
  5
12929
330
1A
100
AcDbEntity
  8
ZISSEN1
100
AcDbLine
 10
-1703.0
 20
1680.25
 30
0.0
 11
-1700.0
 21
1680.25
 31
0.0
  0
LINE
  5
1292A
330
1A
100
AcDbEntity
  8
CL1
100
AcDbLine
 10
-1706.000000000001
 20
1682.0
 30
0.0
 11
-1698.000000000001
 21
1682.0
 31
0.0
  0
LINE
  5
12935
330
1A
100
AcDbEntity
  8
ZISSEN1
100
AcDbLine
 10
-1639.0
 20
1677.5
 30
0.0
 11
-1639.0
 21
1689.0
 31
0.0
  0
LINE
  5
12936
330
1A
100
AcDbEntity
  8
ZISSEN1
100
AcDbLine
 10
-1663.2
 20
1679.95
 30
0.0
 11
-1663.2
 21
1677.5
 31
0.0
  0
LINE
  5
12937
330
1A
100
AcDbEntity
  8
ZISSEN1
100
AcDbLine
 10
-1670.1
 20
1677.5
 30
0.0
 11
-1670.1
 21
1689.0
 31
0.0
  0
LINE
  5
12938
330
1A
100
AcDbEntity
  8
ZISSEN1
100
AcDbLine
 10
-1646.6
 20
1677.5
 30
0.0
 11
-1646.6
 21
1689.0
 31
0.0
  0
LINE
  5
12939
330
1A
100
AcDbEntity
  8
ZISSEN1
100
AcDbLine
 10
-1692.5
 20
1677.5
 30
0.0
 11
-1692.5
 21
1689.0
 31
0.0
  0
LINE
  5
1293A
330
1A
100
AcDbEntity
  8
ZISSEN1
100
AcDbLine
 10
-1638.0
 20
1677.5
 30
0.0
 11
-1638.0
 21
1675.9
 31
0.0
  0
LINE
  5
1293B
330
1A
100
AcDbEntity
  8
ZISSEN1
100
AcDbLine
 10
-1638.0
 20
1668.0
 30
0.0
 11
-1638.0
 21
1665.0
 31
0.0
  0
LINE
  5
1293D
330
1A
100
AcDbEntity
  8
ZISSEN1
100
AcDbLine
 10
-1638.5
 20
1675.9
 30
0.0
 11
-1638.5
 21
1669.600000051463
 31
0.0
  0
LINE
  5
1293E
330
1A
100
AcDbEntity
  8
ZISSEN1
100
AcDbLine
 10
-1643.499999999999
 20
1675.90000025095
 30
0.0
 11
-1643.499999999999
 21
1669.600000051463
 31
0.0
  0
LINE
  5
1293F
330
1A
100
AcDbEntity
  8
ZISSEN1
100
AcDbLine
 10
-1646.6
 20
1689.0
 30
0.0
 11
-1639.0
 21
1689.0
 31
0.0
  0
LINE
  5
12941
330
1A
100
AcDbEntity
  8
ZISSEN1
100
AcDbLine
 10
-1663.2
 20
1679.95
 30
0.0
 11
-1658.000000339494
 21
1679.949999936519
 31
0.0
  0
LINE
  5
12943
330
1A
100
AcDbEntity
  8
ZISSEN1
100
AcDbLine
 10
-1692.5
 20
1689.0
 30
0.0
 11
-1670.1
 21
1689.0
 31
0.0
  0
LINE
  5
12944
330
1A
100
AcDbEntity
  8
ZISSEN1
100
AcDbLine
 10
-1699.49999983755
 20
1750.499999896246
 30
0.0
 11
-1647.5
 21
1750.499999999999
 31
0.0
  0
LINE
  5
1294B
330
1A
100
AcDbEntity
  8
ZISSEN1
100
AcDbLine
 10
-1703.0
 20
1750.0
 30
0.0
 11
-1700.0
 21
1750.0
 31
0.0
  0
LINE
  5
12950
330
1A
100
AcDbEntity
  8
ZISSEN1
100
AcDbLine
 10
-1646.6
 20
1786.1
 30
0.0
 11
-1639.0
 21
1786.1
 31
0.0
  0
LINE
  5
12951
330
1A
100
AcDbEntity
  8
ZISSEN1
100
AcDbLine
 10
-1646.6
 20
1771.2
 30
0.0
 11
-1639.0
 21
1771.2
 31
0.0
  0
LINE
  5
12952
330
1A
100
AcDbEntity
  8
ZISSEN1
100
AcDbLine
 10
-1646.6
 20
1769.65
 30
0.0
 11
-1639.0
 21
1769.65
 31
0.0
  0
LINE
  5
12953
330
1A
100
AcDbEntity
  8
ZISSEN1
100
AcDbLine
 10
-1646.6
 20
1762.25
 30
0.0
 11
-1639.0
 21
1762.25
 31
0.0
  0
LINE
  5
12954
330
1A
100
AcDbEntity
  8
ZISSEN1
100
AcDbLine
 10
-1646.6
 20
1769.65
 30
0.0
 11
-1646.6
 21
1762.25
 31
0.0
  0
LINE
  5
12956
330
1A
100
AcDbEntity
  8
ZISSEN1
100
AcDbLine
 10
-1646.6
 20
1786.1
 30
0.0
 11
-1646.6
 21
1771.2
 31
0.0
  0
LINE
  5
12957
330
1A
100
AcDbEntity
  8
ZISSEN1
100
AcDbLine
 10
-1639.0
 20
1769.65
 30
0.0
 11
-1639.0
 21
1762.25
 31
0.0
  0
LINE
  5
12958
330
1A
100
AcDbEntity
  8
ZISSEN1
100
AcDbLine
 10
-1639.0
 20
1786.1
 30
0.0
 11
-1639.0
 21
1771.2
 31
0.0
  0
LINE
  5
1295B
330
1A
100
AcDbEntity
  8
ZISSEN1
100
AcDbLine
 10
-1579.0
 20
1750.0
 30
0.0
 11
-1580.0
 21
1751.0
 31
0.0
  0
LINE
  5
12960
330
1A
100
AcDbEntity
  8
ZISSEN1
100
AcDbLine
 10
-1561.9
 20
1757.0
 30
0.0
 11
-1555.6
 21
1757.0
 31
0.0
  0
LINE
  5
12961
330
1A
100
AcDbEntity
  8
ZISSEN1
100
AcDbLine
 10
-1561.9
 20
1762.0
 30
0.0
 11
-1555.6
 21
1762.0
 31
0.0
  0
LINE
  5
12964
330
1A
100
AcDbEntity
  8
ZISSEN1
100
AcDbLine
 10
-1563.5
 20
1750.499999999999
 30
0.0
 11
-1561.9
 21
1750.499999999999
 31
0.0
  0
LINE
  5
12966
330
1A
100
AcDbEntity
  8
ZISSEN1
100
AcDbLine
 10
-1575.0
 20
1769.65
 30
0.0
 11
-1575.0
 21
1762.249999999999
 31
0.0
  0
LINE
  5
12967
330
1A
100
AcDbEntity
  8
ZISSEN1
100
AcDbLine
 10
-1567.099999999999
 20
1786.1
 30
0.0
 11
-1567.099999999999
 21
1771.2
 31
0.0
  0
LINE
  5
12968
330
1A
100
AcDbEntity
  8
ZISSEN1
100
AcDbLine
 10
-1569.749999999999
 20
1750.0
 30
0.0
 11
-1569.749999999999
 21
1753.0
 31
0.0
  0
LINE
  5
12969
330
1A
100
AcDbEntity
  8
ZISSEN1
100
AcDbLine
 10
-1566.25
 20
1750.0
 30
0.0
 11
-1566.25
 21
1753.0
 31
0.0
  0
LINE
  5
1296A
330
1A
100
AcDbEntity
  8
CL1
100
AcDbLine
 10
-1568.0
 20
1744.0
 30
0.0
 11
-1568.0
 21
1757.5
 31
0.0
  0
LINE
  5
1296C
330
1A
100
AcDbEntity
  8
ZISSEN1
100
AcDbLine
 10
-1579.0
 20
1750.0
 30
0.0
 11
-1569.749999999999
 21
1750.0
 31
0.0
  0
LINE
  5
1296E
330
1A
100
AcDbEntity
  8
CL1
100
AcDbLine
 10
-1572.0
 20
1752.0
 30
0.0
 11
-1564.0
 21
1752.0
 31
0.0
  0
LINE
  5
1296F
330
1A
100
AcDbEntity
  8
ZISSEN1
100
AcDbLine
 10
-1566.25
 20
1749.999999780389
 30
0.0
 11
-1554.0
 21
1750.0
 31
0.0
  0
LINE
  5
12970
330
1A
100
AcDbEntity
  8
ZISSEN1
100
AcDbLine
 10
-1575.0
 20
1769.65
 30
0.0
 11
-1563.5
 21
1769.65
 31
0.0
  0
LINE
  5
12971
330
1A
100
AcDbEntity
  8
ZISSEN1
100
AcDbLine
 10
-1575.0
 20
1762.249999999999
 30
0.0
 11
-1563.5
 21
1762.249999999999
 31
0.0
  0
LINE
  5
12972
330
1A
100
AcDbEntity
  8
ZISSEN1
100
AcDbLine
 10
-1567.099999999999
 20
1786.1
 30
0.0
 11
-1555.6
 21
1786.1
 31
0.0
  0
LINE
  5
12973
330
1A
100
AcDbEntity
  8
ZISSEN1
100
AcDbLine
 10
-1567.099999999999
 20
1771.2
 30
0.0
 11
-1555.6
 21
1771.2
 31
0.0
  0
LINE
  5
12976
330
1A
100
AcDbEntity
  8
ZISSEN1
100
AcDbLine
 10
-1554.0
 20
1750.0
 30
0.0
 11
-1551.0
 21
1750.0
 31
0.0
  0
LINE
  5
12977
330
1A
100
AcDbEntity
  8
ZISSEN1
100
AcDbLine
 10
-1692.5
 20
1793.399999999999
 30
0.0
 11
-1670.1
 21
1793.399999999999
 31
0.0
  0
LINE
  5
12978
330
1A
100
AcDbEntity
  8
ZISSEN1
100
AcDbLine
 10
-1692.5
 20
1801.0
 30
0.0
 11
-1670.1
 21
1801.0
 31
0.0
  0
LINE
  5
12979
330
1A
100
AcDbEntity
  8
ZISSEN1
100
AcDbLine
 10
-1699.49999983755
 20
1801.0
 30
0.0
 11
-1639.0000235367
 21
1801.0
 31
0.0
  0
LINE
  5
1297E
330
1A
100
AcDbEntity
  8
ZISSEN1
100
AcDbLine
 10
-1703.0
 20
1807.0
 30
0.0
 11
-1700.0
 21
1807.0
 31
0.0
  0
LINE
  5
12983
330
1A
100
AcDbEntity
  8
ZISSEN1
100
AcDbLine
 10
-1692.5
 20
1801.0
 30
0.0
 11
-1692.5
 21
1793.399999999999
 31
0.0
  0
LINE
  5
12986
330
1A
100
AcDbEntity
  8
ZISSEN1
100
AcDbLine
 10
-1655.6
 20
1800.0
 30
0.0
 11
-1650.0
 21
1800.0
 31
0.0
  0
LINE
  5
12987
330
1A
100
AcDbEntity
  8
ZISSEN1
100
AcDbLine
 10
-1655.6
 20
1793.4
 30
0.0
 11
-1650.0
 21
1793.4
 31
0.0
  0
LINE
  5
12988
330
1A
100
AcDbEntity
  8
ZISSEN1
100
AcDbLine
 10
-1655.6
 20
1793.0
 30
0.0
 11
-1650.0
 21
1793.0
 31
0.0
  0
LINE
  5
12989
330
1A
100
AcDbEntity
  8
ZISSEN1
100
AcDbLine
 10
-1655.6
 20
1786.4
 30
0.0
 11
-1650.0
 21
1786.4
 31
0.0
  0
LINE
  5
1298A
330
1A
100
AcDbEntity
  8
ZISSEN1
100
AcDbLine
 10
-1670.1
 20
1801.0
 30
0.0
 11
-1670.1
 21
1793.399999999999
 31
0.0
  0
LINE
  5
1298C
330
1A
100
AcDbEntity
  8
ZISSEN1
100
AcDbLine
 10
-1663.2
 20
1795.0
 30
0.0
 11
-1658.0
 21
1795.0
 31
0.0
  0
LINE
  5
1298D
330
1A
100
AcDbEntity
  8
ZISSEN1
100
AcDbLine
 10
-1655.6
 20
1786.4
 30
0.0
 11
-1655.6
 21
1793.0
 31
0.0
  0
LINE
  5
1298E
330
1A
100
AcDbEntity
  8
ZISSEN1
100
AcDbLine
 10
-1658.0
 20
1795.0
 30
0.0
 11
-1658.0
 21
1800.0
 31
0.0
  0
LINE
  5
1298F
330
1A
100
AcDbEntity
  8
ZISSEN1
100
AcDbLine
 10
-1655.6
 20
1793.4
 30
0.0
 11
-1655.6
 21
1800.0
 31
0.0
  0
LINE
  5
12990
330
1A
100
AcDbEntity
  8
ZISSEN1
100
AcDbLine
 10
-1663.2
 20
1795.0
 30
0.0
 11
-1663.2
 21
1800.0
 31
0.0
  0
LINE
  5
12991
330
1A
100
AcDbEntity
  8
ZISSEN1
100
AcDbLine
 10
-1663.2
 20
1800.0
 30
0.0
 11
-1658.0
 21
1800.0
 31
0.0
  0
LINE
  5
12992
330
1A
100
AcDbEntity
  8
ZISSEN1
100
AcDbLine
 10
-1650.0
 20
1786.4
 30
0.0
 11
-1650.0
 21
1793.0
 31
0.0
  0
LINE
  5
12993
330
1A
100
AcDbEntity
  8
ZISSEN1
100
AcDbLine
 10
-1650.0
 20
1793.4
 30
0.0
 11
-1650.0
 21
1800.0
 31
0.0
  0
LINE
  5
12995
330
1A
100
AcDbEntity
  8
ZISSEN1
100
AcDbLine
 10
-1580.0
 20
1806.0
 30
0.0
 11
-1579.0
 21
1806.999999999998
 31
0.0
  0
LINE
  5
1299D
330
1A
100
AcDbEntity
  8
ZISSEN1
100
AcDbLine
 10
-1563.5
 20
1801.0
 30
0.0
 11
-1561.9
 21
1801.0
 31
0.0
  0
LINE
  5
1299E
330
1A
100
AcDbEntity
  8
ZISSEN1
100
AcDbLine
 10
-1566.0
 20
1800.0
 30
0.0
 11
-1563.5
 21
1800.0
 31
0.0
  0
LINE
  5
1299F
330
1A
100
AcDbEntity
  8
ZISSEN1
100
AcDbLine
 10
-1566.0
 20
1793.0
 30
0.0
 11
-1563.5
 21
1793.0
 31
0.0
  0
LINE
  5
129A0
330
1A
100
AcDbEntity
  8
ZISSEN1
100
AcDbLine
 10
-1566.0
 20
1793.4
 30
0.0
 11
-1563.5
 21
1793.4
 31
0.0
  0
LINE
  5
129A1
330
1A
100
AcDbEntity
  8
ZISSEN1
100
AcDbLine
 10
-1566.0
 20
1786.4
 30
0.0
 11
-1563.5
 21
1786.4
 31
0.0
  0
LINE
  5
129A2
330
1A
100
AcDbEntity
  8
ZISSEN1
100
AcDbLine
 10
-1566.0
 20
1786.4
 30
0.0
 11
-1566.0
 21
1793.0
 31
0.0
  0
LINE
  5
129A3
330
1A
100
AcDbEntity
  8
ZISSEN1
100
AcDbLine
 10
-1566.0
 20
1793.4
 30
0.0
 11
-1566.0
 21
1800.0
 31
0.0
  0
LINE
  5
129A5
330
1A
100
AcDbEntity
  8
ZISSEN1
100
AcDbLine
 10
-1569.749999999999
 20
1807.0
 30
0.0
 11
-1569.749999999999
 21
1804.0
 31
0.0
  0
LINE
  5
129A6
330
1A
100
AcDbEntity
  8
ZISSEN1
100
AcDbLine
 10
-1566.25
 20
1807.0
 30
0.0
 11
-1566.25
 21
1804.0
 31
0.0
  0
LINE
  5
129A9
330
1A
100
AcDbEntity
  8
CL1
100
AcDbLine
 10
-1568.0
 20
1801.5
 30
0.0
 11
-1568.0
 21
1810.0
 31
0.0
  0
LINE
  5
129AA
330
1A
100
AcDbEntity
  8
ZISSEN1
100
AcDbLine
 10
-1575.0
 20
1793.399999999999
 30
0.0
 11
-1575.0
 21
1801.0
 31
0.0
  0
LINE
  5
129AB
330
1A
100
AcDbEntity
  8
ZISSEN1
100
AcDbLine
 10
-1579.0
 20
1806.999999999998
 30
0.0
 11
-1569.749999999999
 21
1807.0
 31
0.0
  0
LINE
  5
129AE
330
1A
100
AcDbEntity
  8
ZISSEN1
100
AcDbLine
 10
-1566.25
 20
1807.0
 30
0.0
 11
-1555.0
 21
1807.0
 31
0.0
  0
LINE
  5
129AF
330
1A
100
AcDbEntity
  8
CL1
100
AcDbLine
 10
-1572.0
 20
1805.0
 30
0.0
 11
-1564.0
 21
1805.0
 31
0.0
  0
LINE
  5
129B0
330
1A
100
AcDbEntity
  8
ZISSEN1
100
AcDbLine
 10
-1575.0
 20
1801.0
 30
0.0
 11
-1563.5
 21
1801.0
 31
0.0
  0
LINE
  5
129B1
330
1A
100
AcDbEntity
  8
ZISSEN1
100
AcDbLine
 10
-1575.0
 20
1793.399999999999
 30
0.0
 11
-1565.8
 21
1793.399999999999
 31
0.0
  0
LINE
  5
129B5
330
1A
100
AcDbEntity
  8
ZISSEN1
100
AcDbLine
 10
-1554.0
 20
1807.0
 30
0.0
 11
-1551.0
 21
1807.0
 31
0.0
  0
LINE
  5
12AF4
330
1A
100
AcDbEntity
  8
CL1
100
AcDbLine
 10
-1691.0
 20
1805.0
 30
0.0
 11
-1699.0
 21
1805.0
 31
0.0
  0
DIMENSION
  5
12B36
330
1A
100
AcDbEntity
  8
SUNPOU
100
AcDbDimension
  2
*D0
 10
-1714.310221192392
 20
1750.0
 30
0.0
 11
-1717.060221192393
 21
1778.499999999999
 31
0.0
 70
    32
  3
標準スタイル
100
AcDbAlignedDimension
 13
-1703.0
 23
1807.0
 33
0.0
 14
-1703.0
 24
1750.0
 34
0.0
 50
90.0
100
AcDbRotatedDimension
1001
ACAD
1000
DSTYLE
1002
{
1070
   340
1005
10
1070
    40
1040
1.0
1002
}
  0
DIMENSION
  5
12B43
330
1A
100
AcDbEntity
  8
SUNPOU
100
AcDbDimension
  2
*D1
 10
-1618.076810346924
 20
1750.0
 30
0.0
 11
-1618.076810346925
 21
1775.499999999999
 31
0.0
 70
   160
  3
標準スタイル
100
AcDbAlignedDimension
 13
-1639.0000235367
 23
1801.0
 33
0.0
 14
-1639.0
 24
1750.0
 34
0.0
 50
90.0
100
AcDbRotatedDimension
1001
ACAD
1000
DSTYLE
1002
{
1070
   340
1005
10
1070
    40
1040
1.0
1002
}
  0
DIMENSION
  5
12B5F
330
1A
100
AcDbEntity
  8
SUNPOU
100
AcDbDimension
  2
*D2
 10
-1591.090637220898
 20
1752.0
 30
0.0
 11
-1593.840637220898
 21
1778.499999999999
 31
0.0
 70
    32
  3
標準スタイル
100
AcDbAlignedDimension
 13
-1572.0
 23
1805.0
 33
0.0
 14
-1572.0
 24
1752.0
 34
0.0
 50
90.0
100
AcDbRotatedDimension
1001
ACAD
1000
DSTYLE
1002
{
1070
   340
1005
10
1070
    40
1040
1.0
1002
}
  0
DIMENSION
  5
12B6C
330
1A
100
AcDbEntity
  8
SUNPOU
100
AcDbDimension
  2
*D3
 10
-1591.090637220897
 20
1806.999999999998
 30
0.0
 11
-1591.090637220898
 21
1815.166666666665
 31
0.0
 70
   160
  3
標準スタイル
100
AcDbAlignedDimension
 13
-1572.0
 23
1805.0
 33
0.0
 14
-1579.0
 24
1806.999999999998
 34
0.0
 50
90.0
100
AcDbRotatedDimension
1001
ACAD
1000
DSTYLE
1002
{
1070
   340
1005
10
1070
    40
1040
1.0
1002
}
  0
DIMENSION
  5
12B7B
330
1A
100
AcDbEntity
  8
SUNPOU
100
AcDbDimension
  2
*D4
 10
-1591.018249147171
 20
1750.0
 30
0.0
 11
-1593.768249147171
 21
1741.833333333333
 31
0.0
 70
    32
  3
標準スタイル
100
AcDbAlignedDimension
 13
-1572.499999999999
 23
1752.0
 33
0.0
 14
-1579.0
 24
1750.0
 34
0.0
 50
90.0
100
AcDbRotatedDimension
1001
ACAD
1000
DSTYLE
1002
{
1070
   340
1005
10
1070
    40
1040
1.0
1002
}
  0
DIMENSION
  5
12B8A
330
1A
100
AcDbEntity
  8
SUNPOU
100
AcDbDimension
  2
*D5
 10
-1566.25
 20
1812.322978787881
 30
0.0
 11
-1555.75
 21
1815.072978787881
 31
0.0
 70
    32
  3
標準スタイル
100
AcDbAlignedDimension
 13
-1569.749999999999
 23
1807.0
 33
0.0
 14
-1566.25
 24
1807.0
 34
0.0
100
AcDbRotatedDimension
1001
ACAD
1000
DSTYLE
1002
{
1070
   340
1005
10
1070
    40
1040
1.0
1002
}
  0
DIMENSION
  5
12B99
330
1A
100
AcDbEntity
  8
SUNPOU
100
AcDbDimension
  2
*D6
 10
-1568.0
 20
1740.834940539064
 30
0.0
 11
-1559.5
 21
1743.584940539065
 31
0.0
 70
    32
  3
標準スタイル
100
AcDbAlignedDimension
 13
-1551.0
 23
1749.5
 33
0.0
 14
-1568.0
 24
1744.0
 34
0.0
100
AcDbRotatedDimension
1001
ACAD
1000
DSTYLE
1002
{
1070
   340
1005
10
1070
    40
1040
1.0
1002
}
  0
DIMENSION
  5
12BA6
330
1A
100
AcDbEntity
  8
SUNPOU
100
AcDbDimension
  2
*D7
 10
-1551.0
 20
1730.688236346338
 30
0.0
 11
-1565.5
 21
1733.438236346338
 31
0.0
 70
    32
  3
標準スタイル
100
AcDbAlignedDimension
 13
-1580.0
 23
1751.0
 33
0.0
 14
-1551.0
 24
1750.0
 34
0.0
100
AcDbRotatedDimension
1001
ACAD
1000
DSTYLE
1002
{
1070
   340
1005
10
1070
    40
1040
1.0
1002
}
  0
DIMENSION
  5
12BC0
330
1A
100
AcDbEntity
  8
SUNPOU
100
AcDbDimension
  2
*D8
 10
-1638.0
 20
1654.097331290402
 30
0.0
 11
-1670.5
 21
1656.847331290402
 31
0.0
 70
    32
  3
標準スタイル
100
AcDbAlignedDimension
 13
-1703.0
 23
1666.75
 33
0.0
 14
-1638.0
 24
1665.0
 34
0.0
100
AcDbRotatedDimension
1001
ACAD
1000
DSTYLE
1002
{
1070
   340
1005
10
1070
    40
1040
1.0
1002
}
  0
DIMENSION
  5
12BDC
330
1A
100
AcDbEntity
  8
SUNPOU
100
AcDbDimension
  2
*D9
 10
-1616.485089668355
 20
1665.0
 30
0.0
 11
-1619.235089668355
 21
1676.999999999999
 31
0.0
 70
    32
  3
標準スタイル
100
AcDbAlignedDimension
 13
-1639.0
 23
1689.0
 33
0.0
 14
-1638.0
 24
1665.0
 34
0.0
 50
90.0
100
AcDbRotatedDimension
1001
ACAD
1000
DSTYLE
1002
{
1070
   340
1005
10
1070
    40
1040
1.0
1002
}
  0
DIMENSION
  5
12BE9
330
1A
100
AcDbEntity
  8
SUNPOU
100
AcDbDimension
  2
*D10
 10
-1700.0
 20
1699.282932010024
 30
0.0
 11
-1691.833333333333
 21
1702.032932010023
 31
0.0
 70
    32
  3
標準スタイル
100
AcDbAlignedDimension
 13
-1703.0
 23
1694.0
 33
0.0
 14
-1700.0
 24
1694.0
 34
0.0
100
AcDbRotatedDimension
1001
ACAD
1000
DSTYLE
1002
{
1070
   340
1005
10
1070
    40
1040
1.0
1002
}
  0
LINE
  5
12E09
330
1A
100
AcDbEntity
  8
ZISSEN1
100
AcDbLine
 10
-1703.0
 20
1806.0
 30
0.0
 11
-1700.0
 21
1806.0
 31
0.0
  0
LINE
  5
12E10
330
1A
100
AcDbEntity
  8
ZISSEN1
100
AcDbLine
 10
-1699.49999983755
 20
1750.499999896246
 30
0.0
 11
-1699.49999983755
 21
1801.0
 31
0.0
  0
LINE
  5
12E11
330
1A
100
AcDbEntity
  8
ZISSEN1
100
AcDbLine
 10
-1647.5
 20
1750.499999999999
 30
0.0
 11
-1647.5
 21
1756.0
 31
0.0
  0
LINE
  5
12E12
330
1A
100
AcDbEntity
  8
ZISSEN1
100
AcDbLine
 10
-1647.5
 20
1756.0
 30
0.0
 11
-1639.000002769023
 21
1756.0
 31
0.0
  0
LINE
  5
12E13
330
1A
100
AcDbEntity
  8
ZISSEN1
100
AcDbLine
 10
-1699.0
 20
1750.0
 30
0.0
 11
-1690.0
 21
1750.0
 31
0.0
  0
LINE
  5
12E17
330
1A
100
AcDbEntity
  8
ZISSEN1
100
AcDbLine
 10
-1690.0
 20
1750.0
 30
0.0
 11
-1690.0
 21
1750.499999999999
 31
0.0
  0
LINE
  5
12E18
330
1A
100
AcDbEntity
  8
ZISSEN1
100
AcDbLine
 10
-1644.75
 20
1750.0
 30
0.0
 11
-1657.499999999999
 21
1750.0
 31
0.0
  0
LINE
  5
12E19
330
1A
100
AcDbEntity
  8
ZISSEN1
100
AcDbLine
 10
-1644.75
 20
1750.0
 30
0.0
 11
-1644.75
 21
1753.0
 31
0.0
  0
LINE
  5
12E1B
330
1A
100
AcDbEntity
  8
ZISSEN1
100
AcDbLine
 10
-1641.25
 20
1750.0
 30
0.0
 11
-1641.25
 21
1753.0
 31
0.0
  0
LINE
  5
12E1C
330
1A
100
AcDbEntity
  8
ZISSEN1
100
AcDbLine
 10
-1641.25
 20
1750.0
 30
0.0
 11
-1639.0
 21
1750.0
 31
0.0
  0
LINE
  5
12E1D
330
1A
100
AcDbEntity
  8
ZISSEN1
100
AcDbLine
 10
-1657.499999999999
 20
1750.0
 30
0.0
 11
-1657.499999999999
 21
1750.499999980047
 31
0.0
  0
LINE
  5
12E2E
330
1A
100
AcDbEntity
  8
ZISSEN1
100
AcDbLine
 10
-1696.75
 20
1807.0
 30
0.0
 11
-1696.75
 21
1804.0
 31
0.0
  0
LINE
  5
12E2F
330
1A
100
AcDbEntity
  8
ZISSEN1
100
AcDbLine
 10
-1693.25
 20
1807.0
 30
0.0
 11
-1693.25
 21
1804.0
 31
0.0
  0
LINE
  5
12E31
330
1A
100
AcDbEntity
  8
ZISSEN1
100
AcDbLine
 10
-1699.0
 20
1807.0
 30
0.0
 11
-1696.75
 21
1807.0
 31
0.0
  0
LINE
  5
12E32
330
1A
100
AcDbEntity
  8
ZISSEN1
100
AcDbLine
 10
-1693.25
 20
1807.0
 30
0.0
 11
-1691.0
 21
1807.0
 31
0.0
  0
LINE
  5
12E34
330
1A
100
AcDbEntity
  8
ZISSEN1
100
AcDbLine
 10
-1690.0
 20
1806.0
 30
0.0
 11
-1690.0
 21
1801.0
 31
0.0
  0
LINE
  5
12E3B
330
1A
100
AcDbEntity
  8
ZISSEN1
100
AcDbLine
 10
-1703.000000201219
 20
1751.000000072597
 30
0.0
 11
-1700.000000201219
 21
1751.000000072597
 31
0.0
  0
LINE
  5
12E3C
330
1A
100
AcDbEntity
  8
ZISSEN1
100
AcDbLine
 10
-1691.0
 20
1807.0
 30
0.0
 11
-1690.0
 21
1806.0
 31
0.0
  0
LINE
  5
12E3E
330
1A
100
AcDbEntity
  8
ZISSEN1
100
AcDbLine
 10
-1699.0
 20
1807.0
 30
0.0
 11
-1700.0
 21
1806.0
 31
0.0
  0
LINE
  5
12E3F
330
1A
100
AcDbEntity
  8
ZISSEN1
100
AcDbLine
 10
-1639.0000235367
 20
1801.0
 30
0.0
 11
-1638.000023075196
 21
1800.0
 31
0.0
  0
LINE
  5
12E40
330
1A
100
AcDbEntity
  8
ZISSEN1
100
AcDbLine
 10
-1639.0
 20
1750.0
 30
0.0
 11
-1638.000000461504
 21
1751.0
 31
0.0
  0
LINE
  5
12E41
330
1A
100
AcDbEntity
  8
ZISSEN1
100
AcDbLine
 10
-1699.0
 20
1750.0
 30
0.0
 11
-1700.0
 21
1751.0
 31
0.0
  0
LINE
  5
12E43
330
1A
100
AcDbEntity
  8
ZISSEN1
100
AcDbLine
 10
-1639.000002769023
 20
1756.0
 30
0.0
 11
-1638.000003230527
 21
1757.0
 31
0.0
  0
LINE
  5
12E78
330
1A
100
AcDbEntity
  8
CL1
100
AcDbLine
 10
-1695.0
 20
1801.5
 30
0.0
 11
-1695.0
 21
1810.0
 31
0.0
  0
LINE
  5
12E80
330
1A
100
AcDbEntity
  8
CL1
100
AcDbLine
 10
-1643.0
 20
1747.0
 30
0.0
 11
-1643.0
 21
1755.5
 31
0.0
  0
LINE
  5
12E81
330
1A
100
AcDbEntity
  8
CL1
100
AcDbLine
 10
-1639.0
 20
1752.0
 30
0.0
 11
-1647.0
 21
1752.0
 31
0.0
  0
LINE
  5
12E82
330
1A
100
AcDbEntity
  8
ZISSEN1
100
AcDbLine
 10
-1695.0
 20
1802.25
 30
0.0
 11
-1695.0
 21
1802.25
 31
0.0
  0
ARC
  5
12E83
330
1A
100
AcDbEntity
  8
ZISSEN1
100
AcDbCircle
 10
-1695.0
 20
1804.0
 30
0.0
 40
1.75
100
AcDbArc
 50
180.0
 51
270.0
  0
ARC
  5
12E84
330
1A
100
AcDbEntity
  8
ZISSEN1
100
AcDbCircle
 10
-1695.0
 20
1804.0
 30
0.0
 40
1.75
100
AcDbArc
 50
270.0
 51
0.0
  0
LINE
  5
12E85
330
1A
100
AcDbEntity
  8
ZISSEN1
100
AcDbLine
 10
-1643.0
 20
1754.75
 30
0.0
 11
-1643.0
 21
1754.75
 31
0.0
  0
ARC
  5
12E86
330
1A
100
AcDbEntity
  8
ZISSEN1
100
AcDbCircle
 10
-1643.0
 20
1753.0
 30
0.0
 40
1.75
100
AcDbArc
 50
90.0
 51
180.0
  0
ARC
  5
12E87
330
1A
100
AcDbEntity
  8
ZISSEN1
100
AcDbCircle
 10
-1643.0
 20
1753.0
 30
0.0
 40
1.75
100
AcDbArc
 50
0.0
 51
90.0
  0
DIMENSION
  5
12ECB
330
1A
100
AcDbEntity
  8
ZISSEN1
100
AcDbDimension
  2
*D11
 10
-1626.975010733598
 20
1752.0
 30
0.0
 11
-1629.725010733599
 21
1778.499999999999
 31
0.0
 70
    32
  3
標準スタイル
100
AcDbAlignedDimension
 13
-1691.0
 23
1805.0
 33
0.0
 14
-1639.0
 24
1752.0
 34
0.0
 50
90.0
100
AcDbRotatedDimension
1001
ACAD
1000
DSTYLE
1002
{
1070
   340
1005
10
1070
    40
1040
1.0
1002
}
  0
DIMENSION
  5
12F11
330
1A
100
AcDbEntity
  8
ZISSEN1
100
AcDbDimension
  2
*D12
 10
-1626.975010733598
 20
1750.0
 30
0.0
 11
-1627.475010733598
 21
1747.0
 31
0.0
 70
   160
  3
標準スタイル
100
AcDbAlignedDimension
 13
-1639.0
 23
1752.0
 33
0.0
 14
-1638.5
 24
1750.0
 34
0.0
 50
90.0
100
AcDbRotatedDimension
1001
ACAD
1000
DSTYLE
1002
{
1070
   287
1070
     4
1070
   340
1005
10
1070
    40
1040
1.0
1070
   279
1070
     1
1002
}
  0
DIMENSION
  5
12F60
330
1A
100
AcDbEntity
  8
ZISSEN1
100
AcDbDimension
  2
*D13
 10
-1695.0
 20
1741.556339851902
 30
0.0
 11
-1699.0
 21
1744.306339851902
 31
0.0
 70
    32
  3
標準スタイル
100
AcDbAlignedDimension
 13
-1703.0
 23
1750.0
 33
0.0
 14
-1695.0
 24
1801.5
 34
0.0
100
AcDbRotatedDimension
1001
ACAD
1000
DSTYLE
1002
{
1070
   340
1005
10
1070
    41
1040
2.0
1070
   282
1070
     0
1070
   281
1070
     0
1070
    75
1070
     0
1070
    40
1040
1.0
1002
}
  0
DIMENSION
  5
12FBD
330
1A
100
AcDbEntity
  8
ZISSEN1
100
AcDbDimension
  2
*D14
 10
-1643.0
 20
1741.556339851902
 30
0.0
 11
-1669.0
 21
1744.306339851902
 31
0.0
 70
    32
  3
標準スタイル
100
AcDbAlignedDimension
 13
-1695.0
 23
1802.25
 33
0.0
 14
-1643.0
 24
1747.0
 34
0.0
100
AcDbRotatedDimension
1001
ACAD
1000
DSTYLE
1002
{
1070
   287
1070
     4
1070
   340
1005
10
1070
    40
1040
1.0
1070
   279
1070
     1
1002
}
  0
DIMENSION
  5
12FCA
330
1A
100
AcDbEntity
  8
ZISSEN1
100
AcDbDimension
  2
*D15
 10
-1638.000000461504
 20
1741.556339851902
 30
0.0
 11
-1640.500000230752
 21
1744.306339851902
 31
0.0
 70
    32
  3
標準スタイル
100
AcDbAlignedDimension
 13
-1643.0
 23
1747.0
 33
0.0
 14
-1638.000000461504
 24
1751.0
 34
0.0
100
AcDbRotatedDimension
1001
ACAD
1000
DSTYLE
1002
{
1070
   287
1070
     4
1070
   340
1005
10
1070
    40
1040
1.0
1070
   279
1070
     1
1002
}
  0
LINE
  5
13095
330
1A
100
AcDbEntity
  8
ZISSEN1
100
AcDbLine
 10
-1554.0
 20
1806.0
 30
0.0
 11
-1551.0
 21
1806.0
 31
0.0
  0
LINE
  5
13096
330
1A
100
AcDbEntity
  8
ZISSEN1
100
AcDbLine
 10
-1554.0
 20
1751.0
 30
0.0
 11
-1551.0
 21
1751.0
 31
0.0
  0
LWPOLYLINE
  5
13097
330
1A
100
AcDbEntity
  8
ZISSEN1
100
AcDbPolyline
 90
        4
 70
     1
 43
0.0
 10
-1555.6
 20
1750.499999999999
 10
-1554.0
 20
1750.499999999999
 10
-1554.0
 20
1801.0
 10
-1555.6
 20
1801.0
  0
LINE
  5
130A3
330
1A
100
AcDbEntity
  8
ZISSEN1
100
AcDbLine
 10
-1561.9
 20
1771.2
 30
0.0
 11
-1561.9
 21
1750.499999999999
 31
0.0
  0
LINE
  5
130A4
330
1A
100
AcDbEntity
  8
ZISSEN1
100
AcDbLine
 10
-1563.5
 20
1771.2
 30
0.0
 11
-1563.5
 21
1750.499999999999
 31
0.0
  0
LINE
  5
130BD
330
1A
100
AcDbEntity
  8
ZISSEN1
100
AcDbLine
 10
-1563.499999519437
 20
1751.499999749204
 30
0.0
 11
-1561.899999519437
 21
1751.499999749204
 31
0.0
  0
LINE
  5
130C5
330
1A
100
AcDbEntity
  8
ZISSEN1
100
AcDbLine
 10
-1561.899999604686
 20
1800.000000215523
 30
0.0
 11
-1555.599999604685
 21
1800.000000215523
 31
0.0
  0
LINE
  5
130C6
330
1A
100
AcDbEntity
  8
ZISSEN1
100
AcDbLine
 10
-1561.899999604686
 20
1795.000000215523
 30
0.0
 11
-1555.599999604685
 21
1795.000000215523
 31
0.0
  0
LINE
  5
130D9
330
1A
100
AcDbEntity
  8
ZISSEN1
100
AcDbLine
 10
-1568.0
 20
1802.25
 30
0.0
 11
-1568.0
 21
1802.25
 31
0.0
  0
ARC
  5
130DA
330
1A
100
AcDbEntity
  8
ZISSEN1
100
AcDbCircle
 10
-1568.0
 20
1804.0
 30
0.0
 40
1.75
100
AcDbArc
 50
180.0
 51
270.0
  0
ARC
  5
130DB
330
1A
100
AcDbEntity
  8
ZISSEN1
100
AcDbCircle
 10
-1568.0
 20
1804.0
 30
0.0
 40
1.75
100
AcDbArc
 50
270.0
 51
0.0
  0
LINE
  5
130DC
330
1A
100
AcDbEntity
  8
ZISSEN1
100
AcDbLine
 10
-1555.0
 20
1807.0
 30
0.0
 11
-1554.0
 21
1806.0
 31
0.0
  0
LINE
  5
130DD
330
1A
100
AcDbEntity
  8
ZISSEN1
100
AcDbLine
 10
-1568.0
 20
1754.75
 30
0.0
 11
-1568.0
 21
1754.75
 31
0.0
  0
ARC
  5
130DE
330
1A
100
AcDbEntity
  8
ZISSEN1
100
AcDbCircle
 10
-1568.0
 20
1753.0
 30
0.0
 40
1.75
100
AcDbArc
 50
0.0
 51
90.0
  0
ARC
  5
130DF
330
1A
100
AcDbEntity
  8
ZISSEN1
100
AcDbCircle
 10
-1568.0
 20
1753.0
 30
0.0
 40
1.75
100
AcDbArc
 50
90.0
 51
180.0
  0
LINE
  5
130E6
330
1A
100
AcDbEntity
  8
ZISSEN1
100
AcDbLine
 10
-1563.500000323213
 20
1756.000000038645
 30
0.0
 11
-1561.900000323214
 21
1756.000000038645
 31
0.0
  0
LINE
  5
130EC
330
1A
100
AcDbEntity
  8
ZISSEN1
100
AcDbLine
 10
-1555.600000323213
 20
1756.000000038645
 30
0.0
 11
-1554.000000323213
 21
1756.000000038645
 31
0.0
  0
LINE
  5
130F2
330
1A
100
AcDbEntity
  8
ZISSEN1
100
AcDbLine
 10
-1563.500000323213
 20
1788.500000038646
 30
0.0
 11
-1561.900000323214
 21
1788.500000038646
 31
0.0
  0
LINE
  5
130F8
330
1A
100
AcDbEntity
  8
ZISSEN1
100
AcDbLine
 10
-1563.500000323213
 20
1770.400000038646
 30
0.0
 11
-1561.900000323214
 21
1770.400000038646
 31
0.0
  0
LINE
  5
131E7
330
1A
100
AcDbEntity
  8
ZISSEN1
100
AcDbLine
 10
-1700.000000124951
 20
1669.600000051463
 30
0.0
 11
-1638.0
 21
1669.600000051463
 31
0.0
  0
LINE
  5
131E8
330
1A
100
AcDbEntity
  8
ZISSEN1
100
AcDbLine
 10
-1638.0
 20
1669.600000051463
 30
0.0
 11
-1638.0
 21
1668.0
 31
0.0
  0
LINE
  5
131E9
330
1A
100
AcDbEntity
  8
ZISSEN1
100
AcDbLine
 10
-1700.000000124951
 20
1668.000000051463
 30
0.0
 11
-1638.0
 21
1668.000000051463
 31
0.0
  0
LINE
  5
131F0
330
1A
100
AcDbEntity
  8
ZISSEN1
100
AcDbLine
 10
-1647.500000278479
 20
1669.599999843723
 30
0.0
 11
-1647.500000278479
 21
1667.99999979226
 31
0.0
  0
LINE
  5
131F6
330
1A
100
AcDbEntity
  8
ZISSEN1
100
AcDbLine
 10
-1647.500000278479
 20
1677.5
 30
0.0
 11
-1647.500000278479
 21
1675.9
 31
0.0
  0
LINE
  5
131FC
330
1A
100
AcDbEntity
  8
ZISSEN1
100
AcDbLine
 10
-1648.000000278479
 20
1677.5
 30
0.0
 11
-1648.000000278479
 21
1675.9
 31
0.0
  0
LINE
  5
13202
330
1A
100
AcDbEntity
  8
ZISSEN1
100
AcDbLine
 10
-1699.500000278479
 20
1677.499999843723
 30
0.0
 11
-1699.500000278479
 21
1675.89999979226
 31
0.0
  0
LINE
  5
1320A
330
1A
100
AcDbEntity
  8
ZISSEN1
100
AcDbLine
 10
-1699.500000190985
 20
1675.900000400687
 30
0.0
 11
-1699.500000190985
 21
1669.600000201199
 31
0.0
  0
LINE
  5
1320B
330
1A
100
AcDbEntity
  8
ZISSEN1
100
AcDbLine
 10
-1694.500000190985
 20
1675.900000149736
 30
0.0
 11
-1694.500000190985
 21
1669.600000201199
 31
0.0
  0
LINE
  5
13212
330
1A
100
AcDbEntity
  8
ZISSEN1
100
AcDbLine
 10
-1646.500000190985
 20
1675.900000400687
 30
0.0
 11
-1646.500000190985
 21
1669.600000201199
 31
0.0
  0
LINE
  5
13219
330
1A
100
AcDbEntity
  8
ZISSEN1
100
AcDbLine
 10
-1690.000000075904
 20
1668.0
 30
0.0
 11
-1690.000000075904
 21
1665.000000056939
 31
0.0
  0
LINE
  5
1321F
330
1A
100
AcDbEntity
  8
ZISSEN1
100
AcDbLine
 10
-1657.500000075904
 20
1668.0
 30
0.0
 11
-1657.500000075904
 21
1665.000000056939
 31
0.0
  0
LINE
  5
13226
330
1A
100
AcDbEntity
  8
ZISSEN1
100
AcDbLine
 10
-1644.749999796729
 20
1667.999999771568
 30
0.0
 11
-1644.749999796729
 21
1664.999999828507
 31
0.0
  0
LINE
  5
1322C
330
1A
100
AcDbEntity
  8
ZISSEN1
100
AcDbLine
 10
-1641.24999979673
 20
1667.999999771568
 30
0.0
 11
-1641.24999979673
 21
1664.999999828507
 31
0.0
  0
LINE
  5
13232
330
1A
100
AcDbEntity
  8
ZISSEN1
100
AcDbLine
 10
-1698.999999796729
 20
1667.999999771568
 30
0.0
 11
-1698.999999796729
 21
1664.999999828507
 31
0.0
  0
ARC
  5
13233
330
1A
100
AcDbEntity
  8
ZISSEN1
100
AcDbCircle
 10
-1701.249999999999
 20
1666.75
 30
0.0
 40
1.75
100
AcDbArc
 50
180.0
 51
270.0
  0
LINE
  5
1323A
330
1A
100
AcDbEntity
  8
ZISSEN1
100
AcDbLine
 10
-1703.000000234237
 20
1668.000000152328
 30
0.0
 11
-1700.000000234237
 21
1668.000000152328
 31
0.0
  0
LINE
  5
13240
330
1A
100
AcDbEntity
  8
ZISSEN1
100
AcDbLine
 10
-1703.000000234237
 20
1669.000000152329
 30
0.0
 11
-1700.000000234237
 21
1669.000000152329
 31
0.0
  0
LINE
  5
13246
330
1A
100
AcDbEntity
  8
ZISSEN1
100
AcDbLine
 10
-1703.000000234237
 20
1693.000000152329
 30
0.0
 11
-1700.000000234237
 21
1693.000000152329
 31
0.0
  0
LINE
  5
1324D
330
1A
100
AcDbEntity
  8
ZISSEN1
100
AcDbLine
 10
-1700.000000424527
 20
1668.000000015556
 30
0.0
 11
-1700.000000424527
 21
1665.000000072495
 31
0.0
  0
LINE
  5
13254
330
1A
100
AcDbEntity
  8
CL1
100
AcDbLine
 10
-1643.0
 20
1662.5
 30
0.0
 11
-1643.0
 21
1670.5
 31
0.0
  0
LINE
  5
13255
330
1A
100
AcDbEntity
  8
ZISSEN1
100
AcDbLine
 10
-1648.5
 20
1750.499999999999
 30
0.0
 11
-1647.5
 21
1751.5
 31
0.0
  0
LINE
  5
1325C
330
1A
100
AcDbEntity
  8
ZISSEN1
100
AcDbLine
 10
-1698.500000403431
 20
1677.499999895187
 30
0.0
 11
-1698.500000403431
 21
1675.899999843723
 31
0.0
  0
LINE
  5
13263
330
1A
100
AcDbEntity
  8
ZISSEN1
100
AcDbLine
 10
-1698.499999459656
 20
1750.499999939131
 30
0.0
 11
-1699.499999459656
 21
1751.499999939132
 31
0.0
  0
LINE
  5
1326A
330
1A
100
AcDbEntity
  8
ZISSEN1
100
AcDbLine
 10
-1658.000000339494
 20
1679.949999936519
 30
0.0
 11
-1658.000000339494
 21
1677.49999993652
 31
0.0
  0
LINE
  5
13270
330
1A
100
AcDbEntity
  8
ZISSEN1
100
AcDbLine
 10
-1655.600000339494
 20
1680.0
 30
0.0
 11
-1655.600000339494
 21
1677.49999993652
 31
0.0
  0
LINE
  5
13276
330
1A
100
AcDbEntity
  8
ZISSEN1
100
AcDbLine
 10
-1650.000000339494
 20
1680.0
 30
0.0
 11
-1650.000000339494
 21
1677.49999993652
 31
0.0
  0
LINE
  5
1327D
330
1A
100
AcDbEntity
  8
ZISSEN1
100
AcDbLine
 10
-1655.600000678989
 20
1680.0
 30
0.0
 11
-1650.000000339494
 21
1680.0
 31
0.0
  0
LINE
  5
133F4
330
1A
100
AcDbEntity
  8
ZISSEN1
100
AcDbLine
 10
-1554.000000271199
 20
1770.700000057245
 30
0.0
 11
-1551.000000271199
 21
1770.700000057245
 31
0.0
  0
LINE
  5
133FA
330
1A
100
AcDbEntity
  8
ZISSEN1
100
AcDbLine
 10
-1554.000000271199
 20
1786.600000057245
 30
0.0
 11
-1551.000000271199
 21
1786.600000057245
 31
0.0
  0
LINE
  5
1340E
330
1A
100
AcDbEntity
  8
ZISSEN1
  6
CONTINUOUS
100
AcDbLine
 10
-1640.0
 20
1788.0
 30
0.0
 11
-1641.59998
 21
1788.0
 31
0.0
  0
LINE
  5
1340F
330
1A
100
AcDbEntity
  8
ZISSEN1
  6
CONTINUOUS
100
AcDbLine
 10
-1640.0
 20
1788.80002
 30
0.0
 11
-1640.0
 21
1788.0
 31
0.0
  0
LINE
  5
13410
330
1A
100
AcDbEntity
  8
ZISSEN1
  6
CONTINUOUS
100
AcDbLine
 10
-1641.59998
 20
1788.80002
 30
0.0
 11
-1640.0
 21
1788.80002
 31
0.0
  0
LINE
  5
13411
330
1A
100
AcDbEntity
  8
ZISSEN1
  6
CONTINUOUS
100
AcDbLine
 10
-1641.59998
 20
1788.0
 30
0.0
 11
-1641.59998
 21
1788.80002
 31
0.0
  0
LINE
  5
13412
330
1A
100
AcDbEntity
  8
ZISSEN1
  6
CONTINUOUS
100
AcDbLine
 10
-1639.999999704917
 20
1789.499999705705
 30
0.0
 11
-1641.599979704917
 21
1789.499999705705
 31
0.0
  0
LINE
  5
13413
330
1A
100
AcDbEntity
  8
ZISSEN1
  6
CONTINUOUS
100
AcDbLine
 10
-1639.999999704917
 20
1790.300019705705
 30
0.0
 11
-1639.999999704917
 21
1789.499999705705
 31
0.0
  0
LINE
  5
13414
330
1A
100
AcDbEntity
  8
ZISSEN1
  6
CONTINUOUS
100
AcDbLine
 10
-1641.599979704917
 20
1790.300019705705
 30
0.0
 11
-1639.999999704917
 21
1790.300019705705
 31
0.0
  0
LINE
  5
13415
330
1A
100
AcDbEntity
  8
ZISSEN1
  6
CONTINUOUS
100
AcDbLine
 10
-1641.599979704917
 20
1789.499999705705
 30
0.0
 11
-1641.599979704917
 21
1790.300019705705
 31
0.0
  0
LINE
  5
13431
330
1A
100
AcDbEntity
  8
ZISSEN1
  6
CONTINUOUS
100
AcDbLine
 10
-1556.399999644659
 20
1790.300019564873
 30
0.0
 11
-1555.6
 21
1790.300019564873
 31
0.0
  0
LINE
  5
13432
330
1A
100
AcDbEntity
  8
ZISSEN1
  6
CONTINUOUS
100
AcDbLine
 10
-1556.399999644659
 20
1789.499999564873
 30
0.0
 11
-1556.399999644659
 21
1790.300019564873
 31
0.0
  0
LINE
  5
13433
330
1A
100
AcDbEntity
  8
ZISSEN1
  6
CONTINUOUS
100
AcDbLine
 10
-1555.6
 20
1789.499999564873
 30
0.0
 11
-1556.399999644659
 21
1789.499999564873
 31
0.0
  0
LINE
  5
13434
330
1A
100
AcDbEntity
  8
ZISSEN1
  6
CONTINUOUS
100
AcDbLine
 10
-1556.399999939741
 20
1788.800019859167
 30
0.0
 11
-1555.6
 21
1788.800019859167
 31
0.0
  0
LINE
  5
13435
330
1A
100
AcDbEntity
  8
ZISSEN1
  6
CONTINUOUS
100
AcDbLine
 10
-1556.399999939741
 20
1787.999999859168
 30
0.0
 11
-1556.399999939741
 21
1788.800019859167
 31
0.0
  0
LINE
  5
13436
330
1A
100
AcDbEntity
  8
ZISSEN1
  6
CONTINUOUS
100
AcDbLine
 10
-1555.6
 20
1787.999999859168
 30
0.0
 11
-1556.399999939741
 21
1787.999999859168
 31
0.0
  0
VIEWPORT
  5
5D8F
330
5D8E
100
AcDbEntity
 67
     1
  8
0
100
AcDbViewport
 10
286.5523078977013
 20
157.6918841762054
 30
0.0
 40
683.0059499095991
 41
314.237268371582
 68
     1
 69
     1
1001
ACAD
1000
MVIEW
1002
{
1070
    16
1010
0.0
1020
0.0
1030
0.0
1010
0.0
1020
0.0
1030
1.0
1040
0.0
1040
314.237268371582
1040
286.5523078977013
1040
157.6918841762054
1040
50.0
1040
0.0
1040
0.0
1070
     0
1070
   100
1070
     1
1070
     0
1070
     0
1070
     0
1070
     0
1070
     0
1040
0.0
1040
0.0
1040
0.0
1040
1.0
1040
1.0
1040
10.0
1040
10.0
1070
     0
1002
{
1002
}
1002
}
  0
VIEWPORT
  5
6001
330
5D8E
100
AcDbEntity
 67
     1
  8
ZISSEN1
100
AcDbViewport
 10
221.786195552541
 20
157.6960273330388
 30
0.0
 40
385.4999999999997
 41
259.9999999999999
 68
     2
 69
     2
1001
ACAD
1000
MVIEW
1002
{
1070
    16
1010
0.0
1020
0.0
1030
0.0
1010
0.0
1020
0.0
1030
1.0
1040
0.0
1040
259.9999999999999
1040
-1620.198918399796
1040
1756.737276238831
1040
50.0
1040
0.0
1040
0.0
1070
     0
1070
   100
1070
     1
1070
     0
1070
     0
1070
     0
1070
     0
1070
     0
1040
0.0
1040
0.0
1040
0.0
1040
1.0
1040
1.0
1040
10.0
1040
10.0
1070
     0
1002
{
1002
}
1002
}
  0
TEXT
  5
12C0E
330
5D8E
100
AcDbEntity
 67
     1
  8
SUNPOU
 62
     0
100
AcDbText
 10
369.78046354052
 20
44.45106598157518
 30
0.0
 40
3.5
  1
縮尺 1/1
  7
ゴシック体
100
AcDbText
  0
ENDSEC
  0
SECTION
  2
OBJECTS
  0
DICTIONARY
  5
C
330
0
100
AcDbDictionary
  3
ACAD_GROUP
350
D
  3
ACAD_LAYOUT
350
5C7D
  3
ACAD_MLINESTYLE
350
E
  3
ACAD_PLOTSETTINGS
350
5C7E
  3
ACAD_PLOTSTYLENAME
350
5C7B
  3
ACDBVARIABLEDICTIONARY
350
12CBC
  3
DWGPROPS
350
5E8E
  3
ACDBHEADERROUNDTRIPXREC
350
1344B
  0
DICTIONARY
  5
12CF1
330
1A
100
AcDbDictionary
280
     1
  3
ACAD_LAYOUTSELFREF
360
1346B
  0
DICTIONARY
  5
12CF3
330
5D8E
100
AcDbDictionary
280
     1
  3
ACAD_LAYOUTSELFREF
360
1346C
  0
DICTIONARY
  5
D
102
{ACAD_REACTORS
330
C
102
}
330
C
100
AcDbDictionary
  3
*A1
350
477D
  3
*A2
350
477E
  3
*A3
350
477F
  3
*A4
350
4780
  3
*A5
350
4781
  3
*A6
350
4C0E
  3
*A7
350
4C0F
  3
*A8
350
4C10
  3
*A9
350
4C11
  3
*A10
350
4C12
  3
*A11
350
4C13
  3
*A12
350
4C14
  3
*A13
350
4C15
  3
*A14
350
4C16
  3
*A15
350
4C17
  0
DICTIONARY
  5
5C7D
102
{ACAD_REACTORS
330
C
102
}
330
C
100
AcDbDictionary
  0
DICTIONARY
  5
E
102
{ACAD_REACTORS
330
C
102
}
330
C
100
AcDbDictionary
  3
STANDARD
350
13
  0
DICTIONARY
  5
5C7E
102
{ACAD_REACTORS
330
C
102
}
330
C
100
AcDbDictionary
  0
ACDBDICTIONARYWDFLT
  5
5C7B
102
{ACAD_REACTORS
330
C
102
}
330
C
100
AcDbDictionary
281
     1
  3
Normal
350
5C7C
100
AcDbDictionaryWithDefault
340
5C7C
  0
DICTIONARY
  5
12CBC
102
{ACAD_REACTORS
330
C
102
}
330
C
100
AcDbDictionary
  3
INDEXCTL
350
12CBD
  0
XRECORD
  5
5E8E
102
{ACAD_REACTORS
330
C
102
}
330
C
100
AcDbXrecord
  1
DWGPROPS COOKIE
  2

  3

  4

  6

  7

  8

  9

300
=
301
=
302
=
303
=
304
=
305
=
306
=
307
=
308
=
309
=
 40
0.586753587962963
 41
2450495.493631364
 42
2453208.662277431
  1

 90
        0
  0
DICTIONARY
  5
1344B
102
{ACAD_REACTORS
330
C
102
}
330
C
100
AcDbDictionary
  3
TSTACKALIGN
350
1344C
  3
TSTACKSIZE
350
1344D
  3
HYPERLINKBASE
350
1344E
  3
STYLESHEET
350
1344F
  3
LAYOUTDICT
350
13450
  3
PLOTSETDICT
350
13451
  3
PLOTSTYLNAMDICT
350
13452
  3
LWETCUNION
350
13453
  3
INSUNITS
350
13454
  3
CEPSNTYPE
350
13455
  3
FINGERPRINTGUID
350
13456
  3
VERSIONGUID
350
13457
  3
PSVPSCALE
350
13458
  3
PUCSORTHOREF
350
13459
  3
PUCSORTHOVIEW
350
1345A
  3
PUCSBASE
350
1345B
  3
PUCSORGTOP
350
1345C
  3
PUCSORGBOTTOM
350
1345D
  3
PUCSORGLEFT
350
1345E
  3
PUCSORGRIGHT
350
1345F
  3
PUCSORGFRONT
350
13460
  3
PUCSORGBACK
350
13461
  3
UCSORTHOREF
350
13462
  3
UCSORTHOVIEW
350
13463
  3
UCSBASE
350
13464
  3
UCSORGTOP
350
13465
  3
UCSORGBOTTOM
350
13466
  3
UCSORGLEFT
350
13467
  3
UCSORGRIGHT
350
13468
  3
UCSORGFRONT
350
13469
  3
UCSORGBACK
350
1346A
  0
XRECORD
  5
1346B
102
{ACAD_REACTORS
330
12CF1
102
}
330
12CF1
100
AcDbXrecord
340
1A
  0
XRECORD
  5
1346C
102
{ACAD_REACTORS
330
12CF3
102
}
330
12CF3
100
AcDbXrecord
340
5D8E
  0
GROUP
  5
477D
102
{ACAD_REACTORS
330
D
102
}
330
D
100
AcDbGroup
300

 70
     1
 71
     1
  0
GROUP
  5
477E
102
{ACAD_REACTORS
330
D
102
}
330
D
100
AcDbGroup
300

 70
     1
 71
     1
  0
GROUP
  5
477F
102
{ACAD_REACTORS
330
D
102
}
330
D
100
AcDbGroup
300

 70
     1
 71
     1
  0
GROUP
  5
4780
102
{ACAD_REACTORS
330
D
102
}
330
D
100
AcDbGroup
300

 70
     1
 71
     1
  0
GROUP
  5
4781
102
{ACAD_REACTORS
330
D
102
}
330
D
100
AcDbGroup
300

 70
     1
 71
     1
  0
GROUP
  5
4C0E
102
{ACAD_REACTORS
330
D
102
}
330
D
100
AcDbGroup
300

 70
     1
 71
     1
  0
GROUP
  5
4C0F
102
{ACAD_REACTORS
330
D
102
}
330
D
100
AcDbGroup
300

 70
     1
 71
     1
  0
GROUP
  5
4C10
102
{ACAD_REACTORS
330
D
102
}
330
D
100
AcDbGroup
300

 70
     1
 71
     1
  0
GROUP
  5
4C11
102
{ACAD_REACTORS
330
D
102
}
330
D
100
AcDbGroup
300

 70
     1
 71
     1
  0
GROUP
  5
4C12
102
{ACAD_REACTORS
330
D
102
}
330
D
100
AcDbGroup
300

 70
     1
 71
     1
  0
GROUP
  5
4C13
102
{ACAD_REACTORS
330
D
102
}
330
D
100
AcDbGroup
300

 70
     1
 71
     1
  0
GROUP
  5
4C14
102
{ACAD_REACTORS
330
D
102
}
330
D
100
AcDbGroup
300

 70
     1
 71
     1
  0
GROUP
  5
4C15
102
{ACAD_REACTORS
330
D
102
}
330
D
100
AcDbGroup
300

 70
     1
 71
     1
  0
GROUP
  5
4C16
102
{ACAD_REACTORS
330
D
102
}
330
D
100
AcDbGroup
300

 70
     1
 71
     1
  0
GROUP
  5
4C17
102
{ACAD_REACTORS
330
D
102
}
330
D
100
AcDbGroup
300

 70
     1
 71
     1
  0
MLINESTYLE
  5
13
102
{ACAD_REACTORS
330
E
102
}
330
E
100
AcDbMlineStyle
  2
STANDARD
 70
     0
  3

 62
     0
 51
90.0
 52
90.0
 71
     2
 49
0.5
 62
   256
  6
BYLAYER
 49
-0.5
 62
   256
  6
BYLAYER
  0
ACDBPLACEHOLDER
  5
5C7C
102
{ACAD_REACTORS
330
5C7B
102
}
330
5C7B
100
AcDbPlaceHolder
280
     0
  0
DICTIONARYVAR
  5
12CBD
102
{ACAD_REACTORS
330
12CBC
102
}
330
12CBC
100
DictionaryVariables
280
     0
  1
-1
  0
XRECORD
  5
1344C
102
{ACAD_REACTORS
330
1344B
102
}
330
1344B
100
AcDbXrecord
 90
        1
  0
XRECORD
  5
1344D
102
{ACAD_REACTORS
330
1344B
102
}
330
1344B
100
AcDbXrecord
 90
       70
  0
XRECORD
  5
1344E
102
{ACAD_REACTORS
330
1344B
102
}
330
1344B
100
AcDbXrecord
  1

  0
XRECORD
  5
1344F
102
{ACAD_REACTORS
330
1344B
102
}
330
1344B
100
AcDbXrecord
  1

  0
XRECORD
  5
13450
102
{ACAD_REACTORS
330
1344B
102
}
330
1344B
100
AcDbXrecord
340
5C7D
  0
XRECORD
  5
13451
102
{ACAD_REACTORS
330
1344B
102
}
330
1344B
100
AcDbXrecord
340
5C7E
  0
XRECORD
  5
13452
102
{ACAD_REACTORS
330
1344B
102
}
330
1344B
100
AcDbXrecord
340
5C7B
  0
XRECORD
  5
13453
102
{ACAD_REACTORS
330
1344B
102
}
330
1344B
100
AcDbXrecord
 90
    10781
  0
XRECORD
  5
13454
102
{ACAD_REACTORS
330
1344B
102
}
330
1344B
100
AcDbXrecord
 90
        0
  0
XRECORD
  5
13455
102
{ACAD_REACTORS
330
1344B
102
}
330
1344B
100
AcDbXrecord
 90
        0
  0
XRECORD
  5
13456
102
{ACAD_REACTORS
330
1344B
102
}
330
1344B
100
AcDbXrecord
  1
{225A7F0D-DA29-11D8-946A-0000E2416295}
  0
XRECORD
  5
13457
102
{ACAD_REACTORS
330
1344B
102
}
330
1344B
100
AcDbXrecord
  1
{682593B6-1478-449D-B881-6E0246AEAE8A}
  0
XRECORD
  5
13458
102
{ACAD_REACTORS
330
1344B
102
}
330
1344B
100
AcDbXrecord
 40
0.0
  0
XRECORD
  5
13459
102
{ACAD_REACTORS
330
1344B
102
}
330
1344B
100
AcDbXrecord
340
0
  0
XRECORD
  5
1345A
102
{ACAD_REACTORS
330
1344B
102
}
330
1344B
100
AcDbXrecord
 70
     0
  0
XRECORD
  5
1345B
102
{ACAD_REACTORS
330
1344B
102
}
330
1344B
100
AcDbXrecord
340
0
  0
XRECORD
  5
1345C
102
{ACAD_REACTORS
330
1344B
102
}
330
1344B
100
AcDbXrecord
 10
0.0
 20
0.0
 30
0.0
  0
XRECORD
  5
1345D
102
{ACAD_REACTORS
330
1344B
102
}
330
1344B
100
AcDbXrecord
 10
0.0
 20
0.0
 30
0.0
  0
XRECORD
  5
1345E
102
{ACAD_REACTORS
330
1344B
102
}
330
1344B
100
AcDbXrecord
 10
0.0
 20
0.0
 30
0.0
  0
XRECORD
  5
1345F
102
{ACAD_REACTORS
330
1344B
102
}
330
1344B
100
AcDbXrecord
 10
0.0
 20
0.0
 30
0.0
  0
XRECORD
  5
13460
102
{ACAD_REACTORS
330
1344B
102
}
330
1344B
100
AcDbXrecord
 10
0.0
 20
0.0
 30
0.0
  0
XRECORD
  5
13461
102
{ACAD_REACTORS
330
1344B
102
}
330
1344B
100
AcDbXrecord
 10
0.0
 20
0.0
 30
0.0
  0
XRECORD
  5
13462
102
{ACAD_REACTORS
330
1344B
102
}
330
1344B
100
AcDbXrecord
340
0
  0
XRECORD
  5
13463
102
{ACAD_REACTORS
330
1344B
102
}
330
1344B
100
AcDbXrecord
 70
     0
  0
XRECORD
  5
13464
102
{ACAD_REACTORS
330
1344B
102
}
330
1344B
100
AcDbXrecord
340
0
  0
XRECORD
  5
13465
102
{ACAD_REACTORS
330
1344B
102
}
330
1344B
100
AcDbXrecord
 10
0.0
 20
0.0
 30
0.0
  0
XRECORD
  5
13466
102
{ACAD_REACTORS
330
1344B
102
}
330
1344B
100
AcDbXrecord
 10
0.0
 20
0.0
 30
0.0
  0
XRECORD
  5
13467
102
{ACAD_REACTORS
330
1344B
102
}
330
1344B
100
AcDbXrecord
 10
0.0
 20
0.0
 30
0.0
  0
XRECORD
  5
13468
102
{ACAD_REACTORS
330
1344B
102
}
330
1344B
100
AcDbXrecord
 10
0.0
 20
0.0
 30
0.0
  0
XRECORD
  5
13469
102
{ACAD_REACTORS
330
1344B
102
}
330
1344B
100
AcDbXrecord
 10
0.0
 20
0.0
 30
0.0
  0
XRECORD
  5
1346A
102
{ACAD_REACTORS
330
1344B
102
}
330
1344B
100
AcDbXrecord
 10
0.0
 20
0.0
 30
0.0
  0
ENDSEC
  0
EOF
