  0
SECTION
  2
HEADER
  9
$ACADVER
  1
AC1014
  9
$ACADMAINTVER
 70
     9
  9
$DWGCODEPAGE
  3
ANSI_932
  9
$INSBASE
 10
0.0
 20
0.0
 30
0.0
  9
$EXTMIN
 10
-1729.685773045912
 20
1644.439823325006
 30
0.0
  9
$EXTMAX
 10
-1470.982019537695
 20
1895.997709413814
 30
0.0
  9
$LIMMIN
 10
0.0
 20
0.0
  9
$LIMMAX
 10
420.0
 20
297.0
  9
$ORTHOMODE
 70
     1
  9
$REGENMODE
 70
     1
  9
$FILLMODE
 70
     1
  9
$QTEXTMODE
 70
     0
  9
$MIRRTEXT
 70
     1
  9
$DRAGMODE
 70
     2
  9
$LTSCALE
 40
1.0
  9
$OSMODE
 70
    37
  9
$ATTMODE
 70
     1
  9
$TEXTSIZE
 40
2.5
  9
$TRACEWID
 40
1.0
  9
$TEXTSTYLE
  7
ゴシック体
  9
$CLAYER
  8
SUNPOU
  9
$CELTYPE
  6
BYLAYER
  9
$CECOLOR
 62
   256
  9
$CELTSCALE
 40
1.0
  9
$DELOBJ
 70
     1
  9
$DISPSILH
 70
     0
  9
$DIMSCALE
 40
0.0
  9
$DIMASZ
 40
3.0
  9
$DIMEXO
 40
0.5
  9
$DIMDLI
 40
0.5
  9
$DIMRND
 40
0.0
  9
$DIMDLE
 40
0.0
  9
$DIMEXE
 40
0.5
  9
$DIMTP
 40
0.0
  9
$DIMTM
 40
0.0
  9
$DIMTXT
 40
3.5
  9
$DIMCEN
 40
-0.09
  9
$DIMTSZ
 40
0.0
  9
$DIMTOL
 70
     0
  9
$DIMLIM
 70
     0
  9
$DIMTIH
 70
     0
  9
$DIMTOH
 70
     0
  9
$DIMSE1
 70
     0
  9
$DIMSE2
 70
     0
  9
$DIMTAD
 70
     1
  9
$DIMZIN
 70
     8
  9
$DIMBLK
  1

  9
$DIMASO
 70
     1
  9
$DIMSHO
 70
     1
  9
$DIMPOST
  1

  9
$DIMAPOST
  1

  9
$DIMALT
 70
     0
  9
$DIMALTD
 70
     2
  9
$DIMALTF
 40
25.4
  9
$DIMLFAC
 40
1.0
  9
$DIMTOFL
 70
     1
  9
$DIMTVP
 40
0.0
  9
$DIMTIX
 70
     0
  9
$DIMSOXD
 70
     0
  9
$DIMSAH
 70
     0
  9
$DIMBLK1
  1

  9
$DIMBLK2
  1

  9
$DIMSTYLE
  2
標準スタイル
  9
$DIMCLRD
 70
     1
  9
$DIMCLRE
 70
     1
  9
$DIMCLRT
 70
     1
  9
$DIMTFAC
 40
1.0
  9
$DIMGAP
 40
1.0
  9
$DIMJUST
 70
     0
  9
$DIMSD1
 70
     0
  9
$DIMSD2
 70
     0
  9
$DIMTOLJ
 70
     1
  9
$DIMTZIN
 70
     8
  9
$DIMALTZ
 70
     0
  9
$DIMALTTZ
 70
     0
  9
$DIMFIT
 70
     3
  9
$DIMUPT
 70
     0
  9
$DIMUNIT
 70
     2
  9
$DIMDEC
 70
     2
  9
$DIMTDEC
 70
     2
  9
$DIMALTU
 70
     2
  9
$DIMALTTD
 70
     2
  9
$DIMTXSTY
  7
ゴシック体
  9
$DIMAUNIT
 70
     0
  9
$LUNITS
 70
     2
  9
$LUPREC
 70
     4
  9
$SKETCHINC
 40
1.0
  9
$FILLETRAD
 40
0.0
  9
$AUNITS
 70
     0
  9
$AUPREC
 70
     0
  9
$MENU
  1
.
  9
$ELEVATION
 40
0.0
  9
$PELEVATION
 40
0.0
  9
$THICKNESS
 40
0.0
  9
$LIMCHECK
 70
     0
  9
$BLIPMODE
 70
     0
  9
$CHAMFERA
 40
10.0
  9
$CHAMFERB
 40
10.0
  9
$CHAMFERC
 40
2.0
  9
$CHAMFERD
 40
0.7853981633974483
  9
$SKPOLY
 70
     0
  9
$TDCREATE
 40
2450495.493631365
  9
$TDUPDATE
 40
2455141.604242234
  9
$TDINDWG
 40
1.5178071181
  9
$TDUSRTIMER
 40
1.5178071181
  9
$USRTIMER
 70
     1
  9
$ANGBASE
 50
0.0
  9
$ANGDIR
 70
     0
  9
$PDMODE
 70
    99
  9
$PDSIZE
 40
0.0
  9
$PLINEWID
 40
0.0
  9
$COORDS
 70
     1
  9
$SPLFRAME
 70
     0
  9
$SPLINETYPE
 70
     6
  9
$SPLINESEGS
 70
     8
  9
$ATTDIA
 70
     0
  9
$ATTREQ
 70
     1
  9
$HANDLING
 70
 10241
  9
$HANDSEED
  5
12D65
  9
$SURFTAB1
 70
     6
  9
$SURFTAB2
 70
     6
  9
$SURFTYPE
 70
     6
  9
$SURFU
 70
     6
  9
$SURFV
 70
     6
  9
$UCSNAME
  2

  9
$UCSORG
 10
0.0
 20
0.0
 30
0.0
  9
$UCSXDIR
 10
1.0
 20
0.0
 30
0.0
  9
$UCSYDIR
 10
0.0
 20
1.0
 30
0.0
  9
$PUCSNAME
  2

  9
$PUCSORG
 10
0.0
 20
0.0
 30
0.0
  9
$PUCSXDIR
 10
1.0
 20
0.0
 30
0.0
  9
$PUCSYDIR
 10
0.0
 20
1.0
 30
0.0
  9
$USERI1
 70
     0
  9
$USERI2
 70
     0
  9
$USERI3
 70
     0
  9
$USERI4
 70
     0
  9
$USERI5
 70
     0
  9
$USERR1
 40
0.0
  9
$USERR2
 40
0.0
  9
$USERR3
 40
0.0
  9
$USERR4
 40
0.0
  9
$USERR5
 40
0.0
  9
$WORLDVIEW
 70
     1
  9
$SHADEDGE
 70
     3
  9
$SHADEDIF
 70
    70
  9
$TILEMODE
 70
     0
  9
$MAXACTVP
 70
    16
  9
$PINSBASE
 10
0.0
 20
0.0
 30
0.0
  9
$PLIMCHECK
 70
     0
  9
$PEXTMIN
 10
29.03619555254135
 20
27.69602733303884
 30
0.0
  9
$PEXTMAX
 10
414.5361955525411
 20
287.6960273330388
 30
0.0
  9
$PLIMMIN
 10
11.8293593838553
 20
9.180829085897363
  9
$PLIMMAX
 10
431.7760146572928
 20
306.1914797206629
  9
$UNITMODE
 70
     0
  9
$VISRETAIN
 70
     0
  9
$PLINEGEN
 70
     0
  9
$PSLTSCALE
 70
     1
  9
$TREEDEPTH
 70
  3020
  9
$PICKSTYLE
 70
     1
  9
$CMLSTYLE
  2
STANDARD
  9
$CMLJUST
 70
     0
  9
$CMLSCALE
 40
1.0
  9
$PROXYGRAPHICS
 70
     1
  9
$MEASUREMENT
 70
     1
  0
ENDSEC
  0
SECTION
  2
CLASSES
  0
CLASS
  1
LWPOLYLINE
  2
AcDbPolyline
  3
AutoCAD 2000
 90
        0
280
     0
281
     1
  0
CLASS
  1
HATCH
  2
AcDbHatch
  3
AutoCAD 2000
 90
        0
280
     0
281
     1
  0
CLASS
  1
ACDBDICTIONARYWDFLT
  2
AcDbDictionaryWithDefault
  3
AutoCAD 2000
 90
        0
280
     0
281
     0
  0
CLASS
  1
ACDBPLACEHOLDER
  2
AcDbPlaceHolder
  3
AutoCAD 2000
 90
        0
280
     0
281
     0
  0
CLASS
  1
LAYOUT
  2
AcDbLayout
  3
AutoCAD 2000
 90
        0
280
     0
281
     0
  0
CLASS
  1
DICTIONARYVAR
  2
AcDbDictionaryVar
  3
AutoCAD 2000
 90
        0
280
     0
281
     0
  0
CLASS
  1
LONG_TRANSACTION
  2
AcDbLongTransaction
  3
AutoCAD 2000
 90
        0
280
     0
281
     0
  0
CLASS
  1
LWPOLYLINE
  2
AcDbPolyline
  3
AutoCAD 2000
 90
        0
280
     0
281
     1
  0
CLASS
  1
HATCH
  2
AcDbHatch
  3
AutoCAD 2000
 90
        0
280
     0
281
     1
  0
CLASS
  1
XRECORD
  2
AcDbXrecord
  3
AutoCAD 2000
 90
        0
280
     0
281
     0
  0
ENDSEC
  0
SECTION
  2
TABLES
  0
TABLE
  2
VPORT
  5
8
330
0
100
AcDbSymbolTable
 70
     1
  0
VPORT
  5
12D24
330
8
100
AcDbSymbolTableRecord
100
AcDbViewportTableRecord
  2
*ACTIVE
 70
     0
 10
0.0
 20
0.0
 11
1.0
 21
1.0
 12
-1589.403606258679
 22
1770.97862620849
 13
0.0
 23
0.0
 14
5.0
 24
5.0
 15
0.0
 25
0.0
 16
0.0
 26
0.0
 36
1.0
 17
0.0
 27
0.0
 37
0.0
 40
287.1627301466709
 41
1.695885509838998
 42
50.0
 43
0.0
 44
0.0
 50
0.0
 51
0.0
 71
     0
 72
   100
 73
     1
 74
     0
 75
     0
 76
     0
 77
     0
 78
     0
  0
ENDTAB
  0
TABLE
  2
LTYPE
  5
5
330
0
100
AcDbSymbolTable
 70
     2
  0
LTYPE
  5
14
330
5
100
AcDbSymbolTableRecord
100
AcDbLinetypeTableRecord
  2
BYBLOCK
 70
     0
  3

 72
    65
 73
     0
 40
0.0
  0
LTYPE
  5
15
330
5
100
AcDbSymbolTableRecord
100
AcDbLinetypeTableRecord
  2
BYLAYER
 70
     0
  3

 72
    65
 73
     0
 40
0.0
  0
LTYPE
  5
16
330
5
100
AcDbSymbolTableRecord
100
AcDbLinetypeTableRecord
  2
CONTINUOUS
 70
     0
  3
Solid line
 72
    65
 73
     0
 40
0.0
  0
LTYPE
  5
1956
330
5
100
AcDbSymbolTableRecord
100
AcDbLinetypeTableRecord
  2
CENTERX2
 70
     0
  3
________  __  ________  __  ________  __  _____
 72
    65
 73
     4
 40
4.0
 49
2.5
 74
     0
 49
-0.5
 74
     0
 49
0.5
 74
     0
 49
-0.5
 74
     0
  0
ENDTAB
  0
TABLE
  2
LAYER
  5
2
330
0
100
AcDbSymbolTable
 70
     5
  0
LAYER
  5
F
330
2
100
AcDbSymbolTableRecord
100
AcDbLayerTableRecord
  2
0
 70
     0
 62
     7
  6
CONTINUOUS
  0
LAYER
  5
18F
330
2
100
AcDbSymbolTableRecord
100
AcDbLayerTableRecord
  2
ZISSEN1
 70
     0
 62
     7
  6
CONTINUOUS
  0
LAYER
  5
529
330
2
100
AcDbSymbolTableRecord
100
AcDbLayerTableRecord
  2
SUNPOU
 70
     0
 62
     1
  6
CONTINUOUS
  0
LAYER
  5
195A
330
2
100
AcDbSymbolTableRecord
100
AcDbLayerTableRecord
  2
CL1
 70
     0
 62
   210
  6
CENTERX2
  0
LAYER
  5
3A9B
330
2
100
AcDbSymbolTableRecord
100
AcDbLayerTableRecord
  2
DEFPOINTS
 70
     0
 62
     7
  6
CONTINUOUS
  0
ENDTAB
  0
TABLE
  2
STYLE
  5
3
330
0
100
AcDbSymbolTable
 70
     2
  0
STYLE
  5
10
330
3
100
AcDbSymbolTableRecord
100
AcDbTextStyleTableRecord
  2
STANDARD
 70
     0
 40
0.0
 41
1.0
 50
0.0
 71
     0
 42
3.0
  3
txt
  4
BigFont
  0
STYLE
  5
1960
330
3
100
AcDbSymbolTableRecord
100
AcDbTextStyleTableRecord
  2
ゴシック体
 70
     0
 40
0.0
 41
1.0
 50
0.0
 71
     0
 42
2.5
  3
MS Gothic.ttf
  4

1001
ACAD
1000
MS Gothic
1071
    32817
  0
ENDTAB
  0
TABLE
  2
VIEW
  5
6
330
0
100
AcDbSymbolTable
 70
     0
  0
ENDTAB
  0
TABLE
  2
UCS
  5
7
330
0
100
AcDbSymbolTable
 70
     0
  0
ENDTAB
  0
TABLE
  2
APPID
  5
9
330
0
100
AcDbSymbolTable
 70
     5
  0
APPID
  5
11
330
9
100
AcDbSymbolTableRecord
100
AcDbRegAppTableRecord
  2
ACAD
 70
     0
  0
APPID
  5
4005
330
9
100
AcDbSymbolTableRecord
100
AcDbRegAppTableRecord
  2
CONTENTTABDATA
 70
     0
  0
APPID
  5
4006
330
9
100
AcDbSymbolTableRecord
100
AcDbRegAppTableRecord
  2
CONTENTCURRENTTAB
 70
     0
  0
APPID
  5
477B
330
9
100
AcDbSymbolTableRecord
100
AcDbRegAppTableRecord
  2
CONTENTBLOCKDESCRIPTION
 70
     0
  0
APPID
  5
477C
330
9
100
AcDbSymbolTableRecord
100
AcDbRegAppTableRecord
  2
CONTENTBLOCKICON
 70
     0
  0
ENDTAB
  0
TABLE
  2
DIMSTYLE
  5
A
330
0
100
AcDbSymbolTable
 70
     2
  0
DIMSTYLE
105
1D
330
A
100
AcDbSymbolTableRecord
100
AcDbDimStyleTableRecord
  2
STANDARD
 70
     0
  3

  4

  5

  6

  7

 40
1.0
 41
0.18
 42
0.0625
 43
0.38
 44
0.18
 45
0.0
 46
0.0
 47
0.0
 48
0.0
140
0.18
141
0.09
142
0.0
143
25.4
144
1.0
145
0.0
146
1.0
147
0.09
 71
     0
 72
     0
 73
     1
 74
     1
 75
     0
 76
     0
 77
     0
 78
     0
170
     0
171
     2
172
     0
173
     0
174
     0
175
     0
176
     0
177
     0
178
     0
270
     2
271
     4
272
     4
273
     2
274
     2
340
10
275
     0
280
     0
281
     0
282
     0
283
     1
284
     0
285
     0
286
     0
287
     3
288
     0
  0
DIMSTYLE
105
52E
102
{ACAD_REACTORS
330
12811
330
12845
330
1285D
330
12877
330
12893
330
128FC
330
12949
330
12958
330
129A0
330
12A00
330
129C9
330
129AF
330
129BC
330
12B03
330
12CF0
102
}
330
A
100
AcDbSymbolTableRecord
100
AcDbDimStyleTableRecord
  2
標準スタイル
 70
     0
  3

  4

  5

  6

  7

 40
0.0
 41
3.0
 42
0.5
 43
0.5
 44
0.5
 45
0.0
 46
0.0
 47
0.0
 48
0.0
140
3.5
141
-0.09
142
0.0
143
25.4
144
1.0
145
0.0
146
1.0
147
1.0
 71
     0
 72
     0
 73
     0
 74
     0
 75
     0
 76
     0
 77
     1
 78
     8
170
     0
171
     2
172
     1
173
     0
174
     0
175
     0
176
     1
177
     1
178
     1
270
     2
271
     2
272
     2
273
     2
274
     2
340
1960
275
     0
280
     0
281
     0
282
     0
283
     1
284
     8
285
     0
286
     0
287
     3
288
     0
  0
ENDTAB
  0
TABLE
  2
BLOCK_RECORD
  5
1
330
0
100
AcDbSymbolTable
 70
    15
  0
BLOCK_RECORD
  5
1A
102
{ACAD_XDICTIONARY
360
12D56
102
}
330
1
100
AcDbSymbolTableRecord
100
AcDbBlockTableRecord
  2
*MODEL_SPACE
  0
BLOCK_RECORD
  5
5D8E
102
{ACAD_XDICTIONARY
360
12D58
102
}
330
1
100
AcDbSymbolTableRecord
100
AcDbBlockTableRecord
  2
*PAPER_SPACE
  0
BLOCK_RECORD
  5
12812
330
1
100
AcDbSymbolTableRecord
100
AcDbBlockTableRecord
  2
*D0
  0
BLOCK_RECORD
  5
12846
330
1
100
AcDbSymbolTableRecord
100
AcDbBlockTableRecord
  2
*D1
  0
BLOCK_RECORD
  5
1285E
330
1
100
AcDbSymbolTableRecord
100
AcDbBlockTableRecord
  2
*D2
  0
BLOCK_RECORD
  5
12878
330
1
100
AcDbSymbolTableRecord
100
AcDbBlockTableRecord
  2
*D3
  0
BLOCK_RECORD
  5
12894
330
1
100
AcDbSymbolTableRecord
100
AcDbBlockTableRecord
  2
*D4
  0
BLOCK_RECORD
  5
128FD
330
1
100
AcDbSymbolTableRecord
100
AcDbBlockTableRecord
  2
*D5
  0
BLOCK_RECORD
  5
1294A
330
1
100
AcDbSymbolTableRecord
100
AcDbBlockTableRecord
  2
*D6
  0
BLOCK_RECORD
  5
12959
330
1
100
AcDbSymbolTableRecord
100
AcDbBlockTableRecord
  2
*D7
  0
BLOCK_RECORD
  5
129A1
330
1
100
AcDbSymbolTableRecord
100
AcDbBlockTableRecord
  2
*D8
  0
BLOCK_RECORD
  5
129B0
330
1
100
AcDbSymbolTableRecord
100
AcDbBlockTableRecord
  2
*D9
  0
BLOCK_RECORD
  5
129BD
330
1
100
AcDbSymbolTableRecord
100
AcDbBlockTableRecord
  2
*D10
  0
BLOCK_RECORD
  5
129CA
330
1
100
AcDbSymbolTableRecord
100
AcDbBlockTableRecord
  2
*D11
  0
BLOCK_RECORD
  5
12A01
330
1
100
AcDbSymbolTableRecord
100
AcDbBlockTableRecord
  2
*D12
  0
BLOCK_RECORD
  5
12B04
330
1
100
AcDbSymbolTableRecord
100
AcDbBlockTableRecord
  2
*D13
  0
BLOCK_RECORD
  5
12CF1
330
1
100
AcDbSymbolTableRecord
100
AcDbBlockTableRecord
  2
*D14
  0
ENDTAB
  0
ENDSEC
  0
SECTION
  2
BLOCKS
  0
BLOCK
  5
1B
330
1A
100
AcDbEntity
  8
0
100
AcDbBlockBegin
  2
*MODEL_SPACE
 70
     0
 10
0.0
 20
0.0
 30
0.0
  3
*MODEL_SPACE
  1

  0
ENDBLK
  5
1C
330
1A
100
AcDbEntity
  8
0
100
AcDbBlockEnd
  0
BLOCK
  5
5E60
330
5D8E
100
AcDbEntity
 67
     1
  8
0
100
AcDbBlockBegin
  2
*PAPER_SPACE
 70
     0
 10
0.0
 20
0.0
 30
0.0
  3
*PAPER_SPACE
  1

  0
ENDBLK
  5
5E61
330
5D8E
100
AcDbEntity
 67
     1
  8
0
100
AcDbBlockEnd
  0
BLOCK
  5
1281E
330
12812
100
AcDbEntity
  8
0
100
AcDbBlockBegin
  2
*D0
 70
     1
 10
0.0
 20
0.0
 30
0.0
  3
*D0
  1

  0
LINE
  5
12813
330
12812
100
AcDbEntity
  8
ZISSEN1
 62
     1
100
AcDbLine
 10
-1494.578255840947
 20
1760.540582805207
 30
0.0
 11
-1472.986144248989
 21
1760.540582805207
 31
0.0
  0
LINE
  5
12814
330
12812
100
AcDbEntity
  8
ZISSEN1
 62
     1
100
AcDbLine
 10
-1494.578255840946
 20
1752.920582805208
 30
0.0
 11
-1472.986144248989
 21
1752.920582805208
 31
0.0
  0
LINE
  5
12815
330
12812
100
AcDbEntity
  8
ZISSEN1
 62
     1
100
AcDbLine
 10
-1473.486144248989
 20
1763.540582805207
 30
0.0
 11
-1473.486144248989
 21
1766.540582805207
 31
0.0
  0
LINE
  5
12816
330
12812
100
AcDbEntity
  8
ZISSEN1
 62
     1
100
AcDbLine
 10
-1473.486144248989
 20
1749.920582805208
 30
0.0
 11
-1473.486144248989
 21
1736.357131028558
 31
0.0
  0
LINE
  5
12817
330
12812
100
AcDbEntity
  8
ZISSEN1
 62
     1
100
AcDbLine
 10
-1473.486144248989
 20
1760.540582805207
 30
0.0
 11
-1473.486144248989
 21
1752.920582805208
 31
0.0
  0
SOLID
  5
12818
330
12812
100
AcDbEntity
  8
ZISSEN1
 62
     1
100
AcDbTrace
 10
-1473.986144248989
 20
1763.540582805207
 30
0.0
 11
-1472.986144248989
 21
1763.540582805207
 31
0.0
 12
-1473.486144248989
 22
1760.540582805207
 32
0.0
 13
-1473.486144248989
 23
1760.540582805207
 33
0.0
  0
SOLID
  5
12819
330
12812
100
AcDbEntity
  8
ZISSEN1
 62
     1
100
AcDbTrace
 10
-1473.986144248989
 20
1749.920582805208
 30
0.0
 11
-1472.986144248989
 21
1749.920582805208
 31
0.0
 12
-1473.486144248989
 22
1752.920582805208
 32
0.0
 13
-1473.486144248989
 23
1752.920582805208
 33
0.0
  0
MTEXT
  5
1281A
330
12812
100
AcDbEntity
  8
ZISSEN1
 62
     1
100
AcDbMText
 10
-1476.23614424899
 20
1741.638856916882
 30
0.0
 40
3.5
 41
0.0
 71
     5
 72
     1
  1
\A1;7.62
  7
ゴシック体
 11
0.0000000000000001
 21
1.0
 31
0.0
1001
ACAD
1000
MTEXTBEGIN
1070
    73
1070
     1
1070
    44
1040
1.0
1070
    74
1070
     0
1000
MTEXTEND
  0
POINT
  5
1281B
330
12812
100
AcDbEntity
  8
DEFPOINTS
 62
     0
100
AcDbPoint
 10
-1495.078255840947
 20
1760.540582805207
 30
0.0
  0
POINT
  5
1281C
330
12812
100
AcDbEntity
  8
DEFPOINTS
 62
     0
100
AcDbPoint
 10
-1495.078255840946
 20
1752.920582805208
 30
0.0
  0
POINT
  5
1281D
330
12812
100
AcDbEntity
  8
DEFPOINTS
 62
     0
100
AcDbPoint
 10
-1473.486144248989
 20
1752.920582805208
 30
0.0
  0
ENDBLK
  5
1281F
330
12812
100
AcDbEntity
  8
0
100
AcDbBlockEnd
  0
BLOCK
  5
12850
330
12846
100
AcDbEntity
  8
0
100
AcDbBlockBegin
  2
*D1
 70
     1
 10
0.0
 20
0.0
 30
0.0
  3
*D1
  1

  0
LINE
  5
12A1C
330
12846
100
AcDbEntity
  8
SUNPOU
 62
     1
100
AcDbLine
 10
-1712.028245124999
 20
1814.790562632627
 30
0.0
 11
-1724.779681675354
 21
1814.790562632627
 31
0.0
  0
LINE
  5
12A1D
330
12846
100
AcDbEntity
  8
SUNPOU
 62
     1
100
AcDbLine
 10
-1712.028245124999
 20
1804.790572632627
 30
0.0
 11
-1724.779681675354
 21
1804.790572632627
 31
0.0
  0
LINE
  5
12A1E
330
12846
100
AcDbEntity
  8
SUNPOU
 62
     1
100
AcDbLine
 10
-1724.279681675353
 20
1817.790562632627
 30
0.0
 11
-1724.279681675353
 21
1820.790562632627
 31
0.0
  0
LINE
  5
12A1F
330
12846
100
AcDbEntity
  8
SUNPOU
 62
     1
100
AcDbLine
 10
-1724.279681675353
 20
1801.790572632627
 30
0.0
 11
-1724.279681675353
 21
1798.790572632627
 31
0.0
  0
LINE
  5
12A20
330
12846
100
AcDbEntity
  8
SUNPOU
 62
     1
100
AcDbLine
 10
-1724.279681675353
 20
1814.790562632627
 30
0.0
 11
-1724.279681675353
 21
1804.790572632627
 31
0.0
  0
SOLID
  5
12A21
330
12846
100
AcDbEntity
  8
SUNPOU
 62
     1
100
AcDbTrace
 10
-1724.779681675354
 20
1817.790562632627
 30
0.0
 11
-1723.779681675353
 21
1817.790562632627
 31
0.0
 12
-1724.279681675353
 22
1814.790562632627
 32
0.0
 13
-1724.279681675353
 23
1814.790562632627
 33
0.0
  0
SOLID
  5
12A22
330
12846
100
AcDbEntity
  8
SUNPOU
 62
     1
100
AcDbTrace
 10
-1724.779681675354
 20
1801.790572632627
 30
0.0
 11
-1723.779681675353
 21
1801.790572632627
 31
0.0
 12
-1724.279681675353
 22
1804.790572632627
 32
0.0
 13
-1724.279681675353
 23
1804.790572632627
 33
0.0
  0
MTEXT
  5
12A23
330
12846
100
AcDbEntity
  8
SUNPOU
 62
     1
100
AcDbMText
 10
-1727.322828883475
 20
1809.592757994656
 30
0.0
 40
3.5
 41
0.0
 71
     5
 72
     1
  1
\A1;(10)
  7
ゴシック体
 11
0.0000000000000001
 21
1.0
 31
0.0
1001
ACAD
1000
MTEXTBEGIN
1070
    73
1070
     1
1070
    44
1040
1.0
1070
    74
1070
     0
1000
MTEXTEND
  0
POINT
  5
12A24
330
12846
100
AcDbEntity
  8
DEFPOINTS
 62
     0
100
AcDbPoint
 10
-1711.528245124999
 20
1814.790562632627
 30
0.0
  0
POINT
  5
12A25
330
12846
100
AcDbEntity
  8
DEFPOINTS
 62
     0
100
AcDbPoint
 10
-1711.528245124999
 20
1804.790572632627
 30
0.0
  0
POINT
  5
12A26
330
12846
100
AcDbEntity
  8
DEFPOINTS
 62
     0
100
AcDbPoint
 10
-1724.279681675353
 20
1804.790572632627
 30
0.0
  0
ENDBLK
  5
12851
330
12846
100
AcDbEntity
  8
0
100
AcDbBlockEnd
  0
BLOCK
  5
12868
330
1285E
100
AcDbEntity
  8
0
100
AcDbBlockBegin
  2
*D2
 70
     1
 10
0.0
 20
0.0
 30
0.0
  3
*D2
  1

  0
LINE
  5
128B7
330
1285E
100
AcDbEntity
  8
SUNPOU
 62
     1
100
AcDbLine
 10
-1712.028245124999
 20
1804.790572632627
 30
0.0
 11
-1724.779681675354
 21
1804.790572632627
 31
0.0
  0
LINE
  5
128B8
330
1285E
100
AcDbEntity
  8
SUNPOU
 62
     1
100
AcDbLine
 10
-1709.028247124999
 20
1684.790573632627
 30
0.0
 11
-1724.779681675354
 21
1684.790573632627
 31
0.0
  0
LINE
  5
128B9
330
1285E
100
AcDbEntity
  8
SUNPOU
 62
     1
100
AcDbLine
 10
-1724.279681675353
 20
1801.790572632627
 30
0.0
 11
-1724.279681675353
 21
1687.790573632627
 31
0.0
  0
SOLID
  5
128BA
330
1285E
100
AcDbEntity
  8
SUNPOU
 62
     1
100
AcDbTrace
 10
-1724.779681675354
 20
1801.790572632627
 30
0.0
 11
-1723.779681675353
 21
1801.790572632627
 31
0.0
 12
-1724.279681675353
 22
1804.790572632627
 32
0.0
 13
-1724.279681675353
 23
1804.790572632627
 33
0.0
  0
SOLID
  5
128BB
330
1285E
100
AcDbEntity
  8
SUNPOU
 62
     1
100
AcDbTrace
 10
-1724.779681675354
 20
1687.790573632627
 30
0.0
 11
-1723.779681675353
 21
1687.790573632627
 31
0.0
 12
-1724.279681675353
 22
1684.790573632627
 32
0.0
 13
-1724.279681675353
 23
1684.790573632627
 33
0.0
  0
MTEXT
  5
128BC
330
1285E
100
AcDbEntity
  8
SUNPOU
 62
     1
100
AcDbMText
 10
-1727.029681675354
 20
1743.788363500884
 30
0.0
 40
3.5
 41
0.0
 71
     5
 72
     1
  1
\A1;120
  7
ゴシック体
 11
0.0000000000000001
 21
1.0
 31
0.0
1001
ACAD
1000
MTEXTBEGIN
1070
    73
1070
     1
1070
    44
1040
1.0
1070
    74
1070
     0
1000
MTEXTEND
  0
POINT
  5
128BD
330
1285E
100
AcDbEntity
  8
DEFPOINTS
 62
     0
100
AcDbPoint
 10
-1711.528245124999
 20
1804.790572632627
 30
0.0
  0
POINT
  5
128BE
330
1285E
100
AcDbEntity
  8
DEFPOINTS
 62
     0
100
AcDbPoint
 10
-1708.528247124999
 20
1684.790573632627
 30
0.0
  0
POINT
  5
128BF
330
1285E
100
AcDbEntity
  8
DEFPOINTS
 62
     0
100
AcDbPoint
 10
-1724.279681675353
 20
1684.790573632627
 30
0.0
  0
ENDBLK
  5
12869
330
1285E
100
AcDbEntity
  8
0
100
AcDbBlockEnd
  0
BLOCK
  5
12882
330
12878
100
AcDbEntity
  8
0
100
AcDbBlockBegin
  2
*D3
 70
     1
 10
0.0
 20
0.0
 30
0.0
  3
*D3
  1

  0
LINE
  5
128CB
330
12878
100
AcDbEntity
  8
SUNPOU
 62
     1
100
AcDbLine
 10
-1709.528247124999
 20
1684.790573632627
 30
0.0
 11
-1724.779681675354
 21
1684.790573632627
 31
0.0
  0
LINE
  5
128CC
330
12878
100
AcDbEntity
  8
SUNPOU
 62
     1
100
AcDbLine
 10
-1712.028245124999
 20
1674.790577632627
 30
0.0
 11
-1724.779681675354
 21
1674.790577632627
 31
0.0
  0
LINE
  5
128CD
330
12878
100
AcDbEntity
  8
SUNPOU
 62
     1
100
AcDbLine
 10
-1724.279681675353
 20
1681.790573632627
 30
0.0
 11
-1724.279681675353
 21
1677.790577632627
 31
0.0
  0
SOLID
  5
128CE
330
12878
100
AcDbEntity
  8
SUNPOU
 62
     1
100
AcDbTrace
 10
-1724.779681675354
 20
1681.790573632627
 30
0.0
 11
-1723.779681675353
 21
1681.790573632627
 31
0.0
 12
-1724.279681675353
 22
1684.790573632627
 32
0.0
 13
-1724.279681675353
 23
1684.790573632627
 33
0.0
  0
SOLID
  5
128CF
330
12878
100
AcDbEntity
  8
SUNPOU
 62
     1
100
AcDbTrace
 10
-1724.779681675354
 20
1677.790577632627
 30
0.0
 11
-1723.779681675353
 21
1677.790577632627
 31
0.0
 12
-1724.279681675353
 22
1674.790577632627
 32
0.0
 13
-1724.279681675353
 23
1674.790577632627
 33
0.0
  0
MTEXT
  5
128D0
330
12878
100
AcDbEntity
  8
SUNPOU
 62
     1
100
AcDbMText
 10
-1727.029681675354
 20
1679.790575632627
 30
0.0
 40
3.5
 41
0.0
 71
     5
 72
     1
  1
\A1;10
  7
ゴシック体
 11
0.0000000000000001
 21
1.0
 31
0.0
1001
ACAD
1000
MTEXTBEGIN
1070
    73
1070
     1
1070
    44
1040
1.0
1070
    74
1070
     0
1000
MTEXTEND
  0
POINT
  5
128D1
330
12878
100
AcDbEntity
  8
DEFPOINTS
 62
     0
100
AcDbPoint
 10
-1709.028247124999
 20
1684.790573632627
 30
0.0
  0
POINT
  5
128D2
330
12878
100
AcDbEntity
  8
DEFPOINTS
 62
     0
100
AcDbPoint
 10
-1711.528245124999
 20
1674.790577632627
 30
0.0
  0
POINT
  5
128D3
330
12878
100
AcDbEntity
  8
DEFPOINTS
 62
     0
100
AcDbPoint
 10
-1724.279681675353
 20
1674.790577632627
 30
0.0
  0
ENDBLK
  5
12883
330
12878
100
AcDbEntity
  8
0
100
AcDbBlockEnd
  0
BLOCK
  5
1289E
330
12894
100
AcDbEntity
  8
0
100
AcDbBlockBegin
  2
*D4
 70
     1
 10
0.0
 20
0.0
 30
0.0
  3
*D4
  1

  0
LINE
  5
12B22
330
12894
100
AcDbEntity
  8
SUNPOU
 62
     1
100
AcDbLine
 10
-1711.528245124999
 20
1673.790577632627
 30
0.0
 11
-1711.528245124999
 21
1660.321589677103
 31
0.0
  0
LINE
  5
12B23
330
12894
100
AcDbEntity
  8
SUNPOU
 62
     1
100
AcDbLine
 10
-1591.528246124999
 20
1684.290560632627
 30
0.0
 11
-1591.528246124999
 21
1660.321589677103
 31
0.0
  0
LINE
  5
12B24
330
12894
100
AcDbEntity
  8
SUNPOU
 62
     1
100
AcDbLine
 10
-1708.528245124999
 20
1660.821589677103
 30
0.0
 11
-1594.528246124999
 21
1660.821589677103
 31
0.0
  0
SOLID
  5
12B25
330
12894
100
AcDbEntity
  8
SUNPOU
 62
     1
100
AcDbTrace
 10
-1708.528245124999
 20
1661.321589677103
 30
0.0
 11
-1708.528245124999
 21
1660.321589677103
 31
0.0
 12
-1711.528245124999
 22
1660.821589677103
 32
0.0
 13
-1711.528245124999
 23
1660.821589677103
 33
0.0
  0
SOLID
  5
12B26
330
12894
100
AcDbEntity
  8
SUNPOU
 62
     1
100
AcDbTrace
 10
-1594.528246124999
 20
1661.321589677103
 30
0.0
 11
-1594.528246124999
 21
1660.321589677103
 31
0.0
 12
-1591.528246124999
 22
1660.821589677103
 32
0.0
 13
-1591.528246124999
 23
1660.821589677103
 33
0.0
  0
MTEXT
  5
12B27
330
12894
100
AcDbEntity
  8
SUNPOU
 62
     1
100
AcDbMText
 10
-1656.507384824357
 20
1663.571589677103
 30
0.0
 40
3.5
 41
0.0
 71
     5
 72
     1
  1
\A1;120
  7
ゴシック体
1001
ACAD
1000
MTEXTBEGIN
1070
    73
1070
     1
1070
    44
1040
1.0
1070
    74
1070
     0
1000
MTEXTEND
  0
POINT
  5
12B28
330
12894
100
AcDbEntity
  8
DEFPOINTS
 62
     0
100
AcDbPoint
 10
-1711.528245124999
 20
1674.290577632627
 30
0.0
  0
POINT
  5
12B29
330
12894
100
AcDbEntity
  8
DEFPOINTS
 62
     0
100
AcDbPoint
 10
-1591.528246124999
 20
1684.790560632627
 30
0.0
  0
POINT
  5
12B2A
330
12894
100
AcDbEntity
  8
DEFPOINTS
 62
     0
100
AcDbPoint
 10
-1591.528246124999
 20
1660.821589677103
 30
0.0
  0
ENDBLK
  5
1289F
330
12894
100
AcDbEntity
  8
0
100
AcDbBlockEnd
  0
BLOCK
  5
12909
330
128FD
100
AcDbEntity
  8
0
100
AcDbBlockBegin
  2
*D5
 70
     1
 10
0.0
 20
0.0
 30
0.0
  3
*D5
  1

  0
LINE
  5
12B96
330
128FD
100
AcDbEntity
  8
SUNPOU
 62
     1
100
AcDbLine
 10
-1711.528245124999
 20
1674.290577632627
 30
0.0
 11
-1711.528245124999
 21
1667.298340425817
 31
0.0
  0
LINE
  5
12B97
330
128FD
100
AcDbEntity
  8
SUNPOU
 62
     1
100
AcDbLine
 10
-1708.528247124999
 20
1674.290577632627
 30
0.0
 11
-1708.528247124999
 21
1667.298340425817
 31
0.0
  0
LINE
  5
12B98
330
128FD
100
AcDbEntity
  8
SUNPOU
 62
     1
100
AcDbLine
 10
-1705.528247124999
 20
1667.798340425817
 30
0.0
 11
-1702.528247124999
 21
1667.798340425817
 31
0.0
  0
LINE
  5
12B99
330
128FD
100
AcDbEntity
  8
SUNPOU
 62
     1
100
AcDbLine
 10
-1714.528245124999
 20
1667.798340425817
 30
0.0
 11
-1721.340427866115
 21
1667.798340425817
 31
0.0
  0
LINE
  5
12B9A
330
128FD
100
AcDbEntity
  8
SUNPOU
 62
     1
100
AcDbLine
 10
-1708.528247124999
 20
1667.798340425817
 30
0.0
 11
-1711.528245124999
 21
1667.798340425817
 31
0.0
  0
SOLID
  5
12B9B
330
128FD
100
AcDbEntity
  8
SUNPOU
 62
     1
100
AcDbTrace
 10
-1705.528247124999
 20
1668.298340425818
 30
0.0
 11
-1705.528247124999
 21
1667.298340425817
 31
0.0
 12
-1708.528247124999
 22
1667.798340425817
 32
0.0
 13
-1708.528247124999
 23
1667.798340425817
 33
0.0
  0
SOLID
  5
12B9C
330
128FD
100
AcDbEntity
  8
SUNPOU
 62
     1
100
AcDbTrace
 10
-1714.528245124999
 20
1668.298340425818
 30
0.0
 11
-1714.528245124999
 21
1667.298340425817
 31
0.0
 12
-1711.528245124999
 22
1667.798340425817
 32
0.0
 13
-1711.528245124999
 23
1667.798340425817
 33
0.0
  0
MTEXT
  5
12B9D
330
128FD
100
AcDbEntity
  8
SUNPOU
 62
     1
100
AcDbMText
 10
-1719.434336495558
 20
1670.548340425818
 30
0.0
 40
3.5
 41
0.0
 71
     5
 72
     1
  1
\A1;3
  7
ゴシック体
1001
ACAD
1000
MTEXTBEGIN
1070
    73
1070
     1
1070
    44
1040
1.0
1070
    74
1070
     0
1000
MTEXTEND
  0
POINT
  5
12B9E
330
128FD
100
AcDbEntity
  8
DEFPOINTS
 62
     0
100
AcDbPoint
 10
-1711.528245124999
 20
1674.790577632627
 30
0.0
  0
POINT
  5
12B9F
330
128FD
100
AcDbEntity
  8
DEFPOINTS
 62
     0
100
AcDbPoint
 10
-1708.528247124999
 20
1674.790577632627
 30
0.0
  0
POINT
  5
12BA0
330
128FD
100
AcDbEntity
  8
DEFPOINTS
 62
     0
100
AcDbPoint
 10
-1708.528247124999
 20
1667.798340425817
 30
0.0
  0
ENDBLK
  5
1290A
330
128FD
100
AcDbEntity
  8
0
100
AcDbBlockEnd
  0
BLOCK
  5
12956
330
1294A
100
AcDbEntity
  8
0
100
AcDbBlockBegin
  2
*D6
 70
     1
 10
0.0
 20
0.0
 30
0.0
  3
*D6
  1

  0
LINE
  5
12995
330
1294A
100
AcDbEntity
  8
SUNPOU
 62
     1
100
AcDbLine
 10
-1531.821116072
 20
1814.791001376942
 30
0.0
 11
-1552.679707004513
 21
1814.791001376942
 31
0.0
  0
LINE
  5
12996
330
1294A
100
AcDbEntity
  8
SUNPOU
 62
     1
100
AcDbLine
 10
-1525.028246072
 20
1809.790981376943
 30
0.0
 11
-1552.679707004513
 21
1809.790981376943
 31
0.0
  0
LINE
  5
12997
330
1294A
100
AcDbEntity
  8
SUNPOU
 62
     1
100
AcDbLine
 10
-1552.179707004513
 20
1817.791001376943
 30
0.0
 11
-1552.179707004513
 21
1820.791001376943
 31
0.0
  0
LINE
  5
12998
330
1294A
100
AcDbEntity
  8
SUNPOU
 62
     1
100
AcDbLine
 10
-1552.179707004513
 20
1806.790981376943
 30
0.0
 11
-1552.179707004513
 21
1803.790981376943
 31
0.0
  0
LINE
  5
12999
330
1294A
100
AcDbEntity
  8
SUNPOU
 62
     1
100
AcDbLine
 10
-1552.179707004513
 20
1814.791001376942
 30
0.0
 11
-1552.179707004513
 21
1809.790981376943
 31
0.0
  0
SOLID
  5
1299A
330
1294A
100
AcDbEntity
  8
SUNPOU
 62
     1
100
AcDbTrace
 10
-1552.679707004513
 20
1817.791001376943
 30
0.0
 11
-1551.679707004513
 21
1817.791001376943
 31
0.0
 12
-1552.179707004513
 22
1814.791001376942
 32
0.0
 13
-1552.179707004513
 23
1814.791001376942
 33
0.0
  0
SOLID
  5
1299B
330
1294A
100
AcDbEntity
  8
SUNPOU
 62
     1
100
AcDbTrace
 10
-1552.679707004513
 20
1806.790981376943
 30
0.0
 11
-1551.679707004513
 21
1806.790981376943
 31
0.0
 12
-1552.179707004513
 22
1809.790981376943
 32
0.0
 13
-1552.179707004513
 23
1809.790981376943
 33
0.0
  0
MTEXT
  5
1299C
330
1294A
100
AcDbEntity
  8
SUNPOU
 62
     1
100
AcDbMText
 10
-1555.222854212635
 20
1812.290991376942
 30
0.0
 40
3.5
 41
0.0
 71
     5
 72
     1
  1
\A1;(5)
  7
ゴシック体
 11
0.0000000000000001
 21
1.0
 31
0.0
1001
ACAD
1000
MTEXTBEGIN
1070
    73
1070
     1
1070
    44
1040
1.0
1070
    74
1070
     0
1000
MTEXTEND
  0
POINT
  5
1299D
330
1294A
100
AcDbEntity
  8
DEFPOINTS
 62
     0
100
AcDbPoint
 10
-1531.321116072
 20
1814.791001376942
 30
0.0
  0
POINT
  5
1299E
330
1294A
100
AcDbEntity
  8
DEFPOINTS
 62
     0
100
AcDbPoint
 10
-1524.528246072
 20
1809.790981376943
 30
0.0
  0
POINT
  5
1299F
330
1294A
100
AcDbEntity
  8
DEFPOINTS
 62
     0
100
AcDbPoint
 10
-1552.179707004513
 20
1809.790981376943
 30
0.0
  0
ENDBLK
  5
12957
330
1294A
100
AcDbEntity
  8
0
100
AcDbBlockEnd
  0
BLOCK
  5
12963
330
12959
100
AcDbEntity
  8
0
100
AcDbBlockBegin
  2
*D7
 70
     1
 10
0.0
 20
0.0
 30
0.0
  3
*D7
  1

  0
LINE
  5
1295A
330
12959
100
AcDbEntity
  8
SUNPOU
 62
     1
100
AcDbLine
 10
-1525.528246072
 20
1809.790981376943
 30
0.0
 11
-1552.679707004513
 21
1809.790981376943
 31
0.0
  0
LINE
  5
1295B
330
12959
100
AcDbEntity
  8
SUNPOU
 62
     1
100
AcDbLine
 10
-1525.028244537967
 20
1679.788399639921
 30
0.0
 11
-1552.679707004513
 21
1679.788399639921
 31
0.0
  0
LINE
  5
1295C
330
12959
100
AcDbEntity
  8
SUNPOU
 62
     1
100
AcDbLine
 10
-1552.179707004513
 20
1806.790981376943
 30
0.0
 11
-1552.179707004513
 21
1682.788399639921
 31
0.0
  0
SOLID
  5
1295D
330
12959
100
AcDbEntity
  8
SUNPOU
 62
     1
100
AcDbTrace
 10
-1552.679707004513
 20
1806.790981376943
 30
0.0
 11
-1551.679707004513
 21
1806.790981376943
 31
0.0
 12
-1552.179707004513
 22
1809.790981376943
 32
0.0
 13
-1552.179707004513
 23
1809.790981376943
 33
0.0
  0
SOLID
  5
1295E
330
12959
100
AcDbEntity
  8
SUNPOU
 62
     1
100
AcDbTrace
 10
-1552.679707004513
 20
1682.788399639921
 30
0.0
 11
-1551.679707004513
 21
1682.788399639921
 31
0.0
 12
-1552.179707004513
 22
1679.788399639921
 32
0.0
 13
-1552.179707004513
 23
1679.788399639921
 33
0.0
  0
MTEXT
  5
1295F
330
12959
100
AcDbEntity
  8
SUNPOU
 62
     1
100
AcDbMText
 10
-1554.929707004514
 20
1744.789690508431
 30
0.0
 40
3.5
 41
0.0
 71
     5
 72
     1
  1
\A1;130
  7
ゴシック体
 11
0.0000000000000001
 21
1.0
 31
0.0
1001
ACAD
1000
MTEXTBEGIN
1070
    73
1070
     1
1070
    44
1040
1.0
1070
    74
1070
     0
1000
MTEXTEND
  0
POINT
  5
12960
330
12959
100
AcDbEntity
  8
DEFPOINTS
 62
     0
100
AcDbPoint
 10
-1525.028246072
 20
1809.790981376943
 30
0.0
  0
POINT
  5
12961
330
12959
100
AcDbEntity
  8
DEFPOINTS
 62
     0
100
AcDbPoint
 10
-1524.528244537967
 20
1679.788399639921
 30
0.0
  0
POINT
  5
12962
330
12959
100
AcDbEntity
  8
DEFPOINTS
 62
     0
100
AcDbPoint
 10
-1552.179707004513
 20
1679.788399639921
 30
0.0
  0
ENDBLK
  5
12964
330
12959
100
AcDbEntity
  8
0
100
AcDbBlockEnd
  0
BLOCK
  5
129AD
330
129A1
100
AcDbEntity
  8
0
100
AcDbBlockBegin
  2
*D8
 70
     1
 10
0.0
 20
0.0
 30
0.0
  3
*D8
  1

  0
LINE
  5
12A75
330
129A1
100
AcDbEntity
  8
SUNPOU
 62
     1
100
AcDbLine
 10
-1503.778264537968
 20
1674.288395639921
 30
0.0
 11
-1503.778264537968
 21
1667.938748211019
 31
0.0
  0
LINE
  5
12A76
330
129A1
100
AcDbEntity
  8
SUNPOU
 62
     1
100
AcDbLine
 10
-1499.278244537967
 20
1674.288395639921
 30
0.0
 11
-1499.278244537967
 21
1667.938748211019
 31
0.0
  0
LINE
  5
12A77
330
129A1
100
AcDbEntity
  8
SUNPOU
 62
     1
100
AcDbLine
 10
-1506.778264537967
 20
1668.438748211019
 30
0.0
 11
-1509.778264537967
 21
1668.438748211019
 31
0.0
  0
LINE
  5
12A78
330
129A1
100
AcDbEntity
  8
SUNPOU
 62
     1
100
AcDbLine
 10
-1496.278244537967
 20
1668.438748211019
 30
0.0
 11
-1484.864538954211
 21
1668.438748211019
 31
0.0
  0
LINE
  5
12A79
330
129A1
100
AcDbEntity
  8
SUNPOU
 62
     1
100
AcDbLine
 10
-1503.778264537968
 20
1668.438748211019
 30
0.0
 11
-1499.278244537967
 21
1668.438748211019
 31
0.0
  0
SOLID
  5
12A7A
330
129A1
100
AcDbEntity
  8
SUNPOU
 62
     1
100
AcDbTrace
 10
-1506.778264537967
 20
1668.938748211019
 30
0.0
 11
-1506.778264537967
 21
1667.938748211019
 31
0.0
 12
-1503.778264537968
 22
1668.438748211019
 32
0.0
 13
-1503.778264537968
 23
1668.438748211019
 33
0.0
  0
SOLID
  5
12A7B
330
129A1
100
AcDbEntity
  8
SUNPOU
 62
     1
100
AcDbTrace
 10
-1496.278244537967
 20
1668.938748211019
 30
0.0
 11
-1496.278244537967
 21
1667.938748211019
 31
0.0
 12
-1499.278244537967
 22
1668.438748211019
 32
0.0
 13
-1499.278244537967
 23
1668.438748211019
 33
0.0
  0
MTEXT
  5
12A7C
330
129A1
100
AcDbEntity
  8
SUNPOU
 62
     1
100
AcDbMText
 10
-1489.071391746089
 20
1671.188748211019
 30
0.0
 40
3.5
 41
0.0
 71
     5
 72
     1
  1
\A1;4.5
  7
ゴシック体
1001
ACAD
1000
MTEXTBEGIN
1070
    73
1070
     1
1070
    44
1040
1.0
1070
    74
1070
     0
1000
MTEXTEND
  0
POINT
  5
12A7D
330
129A1
100
AcDbEntity
  8
DEFPOINTS
 62
     0
100
AcDbPoint
 10
-1503.778264537968
 20
1674.788395639921
 30
0.0
  0
POINT
  5
12A7E
330
129A1
100
AcDbEntity
  8
DEFPOINTS
 62
     0
100
AcDbPoint
 10
-1499.278244537967
 20
1674.788395639921
 30
0.0
  0
POINT
  5
12A7F
330
129A1
100
AcDbEntity
  8
DEFPOINTS
 62
     0
100
AcDbPoint
 10
-1499.278244537967
 20
1668.438748211019
 30
0.0
  0
ENDBLK
  5
129AE
330
129A1
100
AcDbEntity
  8
0
100
AcDbBlockEnd
  0
BLOCK
  5
129BA
330
129B0
100
AcDbEntity
  8
0
100
AcDbBlockBegin
  2
*D9
 70
     1
 10
0.0
 20
0.0
 30
0.0
  3
*D9
  1

  0
LINE
  5
12A92
330
129B0
100
AcDbEntity
  8
SUNPOU
 62
     1
100
AcDbLine
 10
-1521.528234537967
 20
1676.28840263992
 30
0.0
 11
-1521.528234537967
 21
1660.321589677103
 31
0.0
  0
LINE
  5
12A93
330
129B0
100
AcDbEntity
  8
SUNPOU
 62
     1
100
AcDbLine
 10
-1501.528244537968
 20
1676.28840263992
 30
0.0
 11
-1501.528244537968
 21
1660.321589677103
 31
0.0
  0
LINE
  5
12A94
330
129B0
100
AcDbEntity
  8
SUNPOU
 62
     1
100
AcDbLine
 10
-1518.528234537967
 20
1660.821589677103
 30
0.0
 11
-1504.528244537968
 21
1660.821589677103
 31
0.0
  0
SOLID
  5
12A95
330
129B0
100
AcDbEntity
  8
SUNPOU
 62
     1
100
AcDbTrace
 10
-1518.528234537967
 20
1661.321589677103
 30
0.0
 11
-1518.528234537967
 21
1660.321589677103
 31
0.0
 12
-1521.528234537967
 22
1660.821589677103
 32
0.0
 13
-1521.528234537967
 23
1660.821589677103
 33
0.0
  0
SOLID
  5
12A96
330
129B0
100
AcDbEntity
  8
SUNPOU
 62
     1
100
AcDbTrace
 10
-1504.528244537968
 20
1661.321589677103
 30
0.0
 11
-1504.528244537968
 21
1660.321589677103
 31
0.0
 12
-1501.528244537968
 22
1660.821589677103
 32
0.0
 13
-1501.528244537968
 23
1660.821589677103
 33
0.0
  0
MTEXT
  5
12A97
330
129B0
100
AcDbEntity
  8
SUNPOU
 62
     1
100
AcDbMText
 10
-1511.528239537967
 20
1663.571589677103
 30
0.0
 40
3.5
 41
0.0
 71
     5
 72
     1
  1
\A1;20
  7
ゴシック体
1001
ACAD
1000
MTEXTBEGIN
1070
    73
1070
     1
1070
    44
1040
1.0
1070
    74
1070
     0
1000
MTEXTEND
  0
POINT
  5
12A98
330
129B0
100
AcDbEntity
  8
DEFPOINTS
 62
     0
100
AcDbPoint
 10
-1521.528234537967
 20
1676.78840263992
 30
0.0
  0
POINT
  5
12A99
330
129B0
100
AcDbEntity
  8
DEFPOINTS
 62
     0
100
AcDbPoint
 10
-1501.528244537968
 20
1676.78840263992
 30
0.0
  0
POINT
  5
12A9A
330
129B0
100
AcDbEntity
  8
DEFPOINTS
 62
     0
100
AcDbPoint
 10
-1501.528244537968
 20
1660.821589677103
 30
0.0
  0
ENDBLK
  5
129BB
330
129B0
100
AcDbEntity
  8
0
100
AcDbBlockEnd
  0
BLOCK
  5
129C7
330
129BD
100
AcDbEntity
  8
0
100
AcDbBlockBegin
  2
*D10
 70
     1
 10
0.0
 20
0.0
 30
0.0
  3
*D10
  1

  0
LINE
  5
12A89
330
129BD
100
AcDbEntity
  8
SUNPOU
 62
     1
100
AcDbLine
 10
-1501.528244537968
 20
1675.78840263992
 30
0.0
 11
-1501.528244537968
 21
1660.321589677103
 31
0.0
  0
LINE
  5
12A8A
330
129BD
100
AcDbEntity
  8
SUNPOU
 62
     1
100
AcDbLine
 10
-1482.528236124999
 20
1684.290573632627
 30
0.0
 11
-1482.528236124999
 21
1660.321589677103
 31
0.0
  0
LINE
  5
12A8B
330
129BD
100
AcDbEntity
  8
SUNPOU
 62
     1
100
AcDbLine
 10
-1498.528244537967
 20
1660.821589677103
 30
0.0
 11
-1485.528236124999
 21
1660.821589677103
 31
0.0
  0
SOLID
  5
12A8C
330
129BD
100
AcDbEntity
  8
SUNPOU
 62
     1
100
AcDbTrace
 10
-1498.528244537967
 20
1661.321589677103
 30
0.0
 11
-1498.528244537967
 21
1660.321589677103
 31
0.0
 12
-1501.528244537968
 22
1660.821589677103
 32
0.0
 13
-1501.528244537968
 23
1660.821589677103
 33
0.0
  0
SOLID
  5
12A8D
330
129BD
100
AcDbEntity
  8
SUNPOU
 62
     1
100
AcDbTrace
 10
-1485.528236124999
 20
1661.321589677103
 30
0.0
 11
-1485.528236124999
 21
1660.321589677103
 31
0.0
 12
-1482.528236124999
 22
1660.821589677103
 32
0.0
 13
-1482.528236124999
 23
1660.821589677103
 33
0.0
  0
MTEXT
  5
12A8E
330
129BD
100
AcDbEntity
  8
SUNPOU
 62
     1
100
AcDbMText
 10
-1492.028240331483
 20
1663.571589677103
 30
0.0
 40
3.5
 41
0.0
 71
     5
 72
     1
  1
\A1;19
  7
ゴシック体
1001
ACAD
1000
MTEXTBEGIN
1070
    73
1070
     1
1070
    44
1040
1.0
1070
    74
1070
     0
1000
MTEXTEND
  0
POINT
  5
12A8F
330
129BD
100
AcDbEntity
  8
DEFPOINTS
 62
     0
100
AcDbPoint
 10
-1501.528244537968
 20
1676.28840263992
 30
0.0
  0
POINT
  5
12A90
330
129BD
100
AcDbEntity
  8
DEFPOINTS
 62
     0
100
AcDbPoint
 10
-1482.528236124999
 20
1684.790573632627
 30
0.0
  0
POINT
  5
12A91
330
129BD
100
AcDbEntity
  8
DEFPOINTS
 62
     0
100
AcDbPoint
 10
-1482.528236124999
 20
1660.821589677103
 30
0.0
  0
ENDBLK
  5
129C8
330
129BD
100
AcDbEntity
  8
0
100
AcDbBlockEnd
  0
BLOCK
  5
129D4
330
129CA
100
AcDbEntity
  8
0
100
AcDbBlockBegin
  2
*D11
 70
     1
 10
0.0
 20
0.0
 30
0.0
  3
*D11
  1

  0
LINE
  5
12A9B
330
129CA
100
AcDbEntity
  8
SUNPOU
 62
     1
100
AcDbLine
 10
-1540.528226124999
 20
1684.290560632627
 30
0.0
 11
-1540.528226124999
 21
1652.704431758594
 31
0.0
  0
LINE
  5
12A9C
330
129CA
100
AcDbEntity
  8
SUNPOU
 62
     1
100
AcDbLine
 10
-1482.528236124999
 20
1684.290573632627
 30
0.0
 11
-1482.528236124999
 21
1652.704431758594
 31
0.0
  0
LINE
  5
12A9D
330
129CA
100
AcDbEntity
  8
SUNPOU
 62
     1
100
AcDbLine
 10
-1537.528226124999
 20
1653.204431758594
 30
0.0
 11
-1485.528236124999
 21
1653.204431758594
 31
0.0
  0
SOLID
  5
12A9E
330
129CA
100
AcDbEntity
  8
SUNPOU
 62
     1
100
AcDbTrace
 10
-1537.528226124999
 20
1653.704431758594
 30
0.0
 11
-1537.528226124999
 21
1652.704431758594
 31
0.0
 12
-1540.528226124999
 22
1653.204431758594
 32
0.0
 13
-1540.528226124999
 23
1653.204431758594
 33
0.0
  0
SOLID
  5
12A9F
330
129CA
100
AcDbEntity
  8
SUNPOU
 62
     1
100
AcDbTrace
 10
-1485.528236124999
 20
1653.704431758594
 30
0.0
 11
-1485.528236124999
 21
1652.704431758594
 31
0.0
 12
-1482.528236124999
 22
1653.204431758594
 32
0.0
 13
-1482.528236124999
 23
1653.204431758594
 33
0.0
  0
MTEXT
  5
12AA0
330
129CA
100
AcDbEntity
  8
SUNPOU
 62
     1
100
AcDbMText
 10
-1511.528231124999
 20
1655.954431758594
 30
0.0
 40
3.5
 41
0.0
 71
     5
 72
     1
  1
\A1;58
  7
ゴシック体
1001
ACAD
1000
MTEXTBEGIN
1070
    73
1070
     1
1070
    44
1040
1.0
1070
    74
1070
     0
1000
MTEXTEND
  0
POINT
  5
12AA1
330
129CA
100
AcDbEntity
  8
DEFPOINTS
 62
     0
100
AcDbPoint
 10
-1540.528226124999
 20
1684.790560632627
 30
0.0
  0
POINT
  5
12AA2
330
129CA
100
AcDbEntity
  8
DEFPOINTS
 62
     0
100
AcDbPoint
 10
-1482.528236124999
 20
1684.790573632627
 30
0.0
  0
POINT
  5
12AA3
330
129CA
100
AcDbEntity
  8
DEFPOINTS
 62
     0
100
AcDbPoint
 10
-1482.528236124999
 20
1653.204431758594
 30
0.0
  0
ENDBLK
  5
129D5
330
129CA
100
AcDbEntity
  8
0
100
AcDbBlockEnd
  0
BLOCK
  5
12A0B
330
12A01
100
AcDbEntity
  8
0
100
AcDbBlockBegin
  2
*D12
 70
     1
 10
0.0
 20
0.0
 30
0.0
  3
*D12
  1

  0
LINE
  5
12AA4
330
12A01
100
AcDbEntity
  8
SUNPOU
 62
     1
100
AcDbLine
 10
-1543.528236124999
 20
1715.640579632627
 30
0.0
 11
-1543.528236124999
 21
1644.439823325006
 31
0.0
  0
LINE
  5
12AA5
330
12A01
100
AcDbEntity
  8
SUNPOU
 62
     1
100
AcDbLine
 10
-1479.528256124999
 20
1689.140579632627
 30
0.0
 11
-1479.528256124999
 21
1644.439823325006
 31
0.0
  0
LINE
  5
12AA6
330
12A01
100
AcDbEntity
  8
SUNPOU
 62
     1
100
AcDbLine
 10
-1540.528236124999
 20
1644.939823325006
 30
0.0
 11
-1482.528256124999
 21
1644.939823325006
 31
0.0
  0
SOLID
  5
12AA7
330
12A01
100
AcDbEntity
  8
SUNPOU
 62
     1
100
AcDbTrace
 10
-1540.528236124999
 20
1645.439823325006
 30
0.0
 11
-1540.528236124999
 21
1644.439823325006
 31
0.0
 12
-1543.528236124999
 22
1644.939823325006
 32
0.0
 13
-1543.528236124999
 23
1644.939823325006
 33
0.0
  0
SOLID
  5
12AA8
330
12A01
100
AcDbEntity
  8
SUNPOU
 62
     1
100
AcDbTrace
 10
-1482.528256124999
 20
1645.439823325006
 30
0.0
 11
-1482.528256124999
 21
1644.439823325006
 31
0.0
 12
-1479.528256124999
 22
1644.939823325006
 32
0.0
 13
-1479.528256124999
 23
1644.939823325006
 33
0.0
  0
MTEXT
  5
12AA9
330
12A01
100
AcDbEntity
  8
SUNPOU
 62
     1
100
AcDbMText
 10
-1511.528246124999
 20
1647.982970533128
 30
0.0
 40
3.5
 41
0.0
 71
     5
 72
     1
  1
\A1;(64)
  7
ゴシック体
1001
ACAD
1000
MTEXTBEGIN
1070
    73
1070
     1
1070
    44
1040
1.0
1070
    74
1070
     0
1000
MTEXTEND
  0
POINT
  5
12AAA
330
12A01
100
AcDbEntity
  8
DEFPOINTS
 62
     0
100
AcDbPoint
 10
-1543.528236124999
 20
1716.140579632627
 30
0.0
  0
POINT
  5
12AAB
330
12A01
100
AcDbEntity
  8
DEFPOINTS
 62
     0
100
AcDbPoint
 10
-1479.528256124999
 20
1689.640579632627
 30
0.0
  0
POINT
  5
12AAC
330
12A01
100
AcDbEntity
  8
DEFPOINTS
 62
     0
100
AcDbPoint
 10
-1479.528256124999
 20
1644.939823325006
 30
0.0
  0
ENDBLK
  5
12A0C
330
12A01
100
AcDbEntity
  8
0
100
AcDbBlockEnd
  0
BLOCK
  5
12B0E
330
12B04
100
AcDbEntity
  8
0
100
AcDbBlockBegin
  2
*D13
 70
     1
 10
0.0
 20
0.0
 30
0.0
  3
*D13
  1

  0
LINE
  5
12B7E
330
12B04
100
AcDbEntity
  8
SUNPOU
 62
     1
100
AcDbLine
 10
-1591.528246124999
 20
1684.290573632627
 30
0.0
 11
-1591.528246124999
 21
1660.321589677103
 31
0.0
  0
LINE
  5
12B7F
330
12B04
100
AcDbEntity
  8
SUNPOU
 62
     1
100
AcDbLine
 10
-1577.028256124999
 20
1694.290581632627
 30
0.0
 11
-1577.028256124999
 21
1660.321589677103
 31
0.0
  0
LINE
  5
12B80
330
12B04
100
AcDbEntity
  8
SUNPOU
 62
     1
100
AcDbLine
 10
-1588.528246124999
 20
1660.821589677103
 30
0.0
 11
-1580.028256124999
 21
1660.821589677103
 31
0.0
  0
SOLID
  5
12B81
330
12B04
100
AcDbEntity
  8
SUNPOU
 62
     1
100
AcDbTrace
 10
-1588.528246124999
 20
1661.321589677103
 30
0.0
 11
-1588.528246124999
 21
1660.321589677103
 31
0.0
 12
-1591.528246124999
 22
1660.821589677103
 32
0.0
 13
-1591.528246124999
 23
1660.821589677103
 33
0.0
  0
SOLID
  5
12B82
330
12B04
100
AcDbEntity
  8
SUNPOU
 62
     1
100
AcDbTrace
 10
-1580.028256124999
 20
1661.321589677103
 30
0.0
 11
-1580.028256124999
 21
1660.321589677103
 31
0.0
 12
-1577.028256124999
 22
1660.821589677103
 32
0.0
 13
-1577.028256124999
 23
1660.821589677103
 33
0.0
  0
MTEXT
  5
12B83
330
12B04
100
AcDbEntity
  8
SUNPOU
 62
     1
100
AcDbMText
 10
-1584.278251124999
 20
1663.864736885224
 30
0.0
 40
3.5
 41
0.0
 71
     5
 72
     1
  1
\A1;(14.5)
  7
ゴシック体
1001
ACAD
1000
MTEXTBEGIN
1070
    73
1070
     1
1070
    44
1040
1.0
1070
    74
1070
     0
1000
MTEXTEND
  0
POINT
  5
12B84
330
12B04
100
AcDbEntity
  8
DEFPOINTS
 62
     0
100
AcDbPoint
 10
-1591.528246124999
 20
1684.790573632627
 30
0.0
  0
POINT
  5
12B85
330
12B04
100
AcDbEntity
  8
DEFPOINTS
 62
     0
100
AcDbPoint
 10
-1577.028256124999
 20
1694.790581632627
 30
0.0
  0
POINT
  5
12B86
330
12B04
100
AcDbEntity
  8
DEFPOINTS
 62
     0
100
AcDbPoint
 10
-1577.028256124999
 20
1660.821589677103
 30
0.0
  0
ENDBLK
  5
12B0F
330
12B04
100
AcDbEntity
  8
0
100
AcDbBlockEnd
  0
BLOCK
  5
12CFD
330
12CF1
100
AcDbEntity
  8
0
100
AcDbBlockBegin
  2
*D14
 70
     1
 10
0.0
 20
0.0
 30
0.0
  3
*D14
  1

  0
LINE
  5
12D5A
330
12CF1
100
AcDbEntity
  8
SUNPOU
 62
     1
100
AcDbLine
 10
-1525.028244537967
 20
1679.788399639921
 30
0.0
 11
-1552.679707004513
 21
1679.788399639921
 31
0.0
  0
LINE
  5
12D5B
330
12CF1
100
AcDbEntity
  8
SUNPOU
 62
     1
100
AcDbLine
 10
-1531.821114537967
 20
1674.788395639921
 30
0.0
 11
-1552.679707004513
 21
1674.788395639921
 31
0.0
  0
LINE
  5
12D5C
330
12CF1
100
AcDbEntity
  8
SUNPOU
 62
     1
100
AcDbLine
 10
-1552.179707004513
 20
1682.788399639921
 30
0.0
 11
-1552.179707004513
 21
1685.788399639921
 31
0.0
  0
LINE
  5
12D5D
330
12CF1
100
AcDbEntity
  8
SUNPOU
 62
     1
100
AcDbLine
 10
-1552.179707004513
 20
1671.788395639921
 30
0.0
 11
-1552.179707004513
 21
1668.788395639921
 31
0.0
  0
MTEXT
  5
12D5E
330
12CF1
100
AcDbEntity
  8
SUNPOU
 62
     1
100
AcDbMText
 10
-1555.222129271573
 20
1677.161029640771
 30
0.0
 40
3.5
 41
0.0
 71
     5
 72
     1
  1
\A1;(5)
  7
ゴシック体
 11
0.0000000000000001
 21
1.0
 31
0.0
  0
LINE
  5
12D5F
330
12CF1
100
AcDbEntity
  8
SUNPOU
 62
     1
100
AcDbLine
 10
-1552.179707004513
 20
1679.788399639921
 30
0.0
 11
-1552.179707004513
 21
1674.788395639921
 31
0.0
  0
SOLID
  5
12D60
330
12CF1
100
AcDbEntity
  8
SUNPOU
 62
     1
100
AcDbTrace
 10
-1552.679707004513
 20
1682.788399639921
 30
0.0
 11
-1551.679707004513
 21
1682.788399639921
 31
0.0
 12
-1552.179707004513
 22
1679.788399639921
 32
0.0
 13
-1552.179707004513
 23
1679.788399639921
 33
0.0
  0
SOLID
  5
12D61
330
12CF1
100
AcDbEntity
  8
SUNPOU
 62
     1
100
AcDbTrace
 10
-1552.679707004513
 20
1671.788395639921
 30
0.0
 11
-1551.679707004513
 21
1671.788395639921
 31
0.0
 12
-1552.179707004513
 22
1674.788395639921
 32
0.0
 13
-1552.179707004513
 23
1674.788395639921
 33
0.0
  0
POINT
  5
12D62
330
12CF1
100
AcDbEntity
  8
DEFPOINTS
 62
     0
100
AcDbPoint
 10
-1524.528244537967
 20
1679.788399639921
 30
0.0
  0
POINT
  5
12D63
330
12CF1
100
AcDbEntity
  8
DEFPOINTS
 62
     0
100
AcDbPoint
 10
-1531.321114537967
 20
1674.788395639921
 30
0.0
  0
POINT
  5
12D64
330
12CF1
100
AcDbEntity
  8
DEFPOINTS
 62
     0
100
AcDbPoint
 10
-1552.179707004513
 20
1674.788395639921
 30
0.0
  0
ENDBLK
  5
12CFE
330
12CF1
100
AcDbEntity
  8
0
100
AcDbBlockEnd
  0
ENDSEC
  0
SECTION
  2
ENTITIES
  0
MTEXT
  5
5084
330
1A
100
AcDbEntity
  8
0
100
AcDbMText
 10
1985.239088685435
 20
-948.5420423450428
 30
0.0
 40
8.0
 41
0.0
 71
     7
 72
     5
  1

1001
ACAD
1000
MTEXTBEGIN
1070
    73
1070
     1
1070
    44
1040
1.0
1070
    74
1070
     0
1000
MTEXTEND
  0
MTEXT
  5
5085
330
1A
100
AcDbEntity
  8
0
100
AcDbMText
 10
4270.596778580329
 20
22.24825240601649
 30
0.0
 40
8.0
 41
0.0
 71
     7
 72
     5
  1

1001
ACAD
1000
MTEXTBEGIN
1070
    73
1070
     1
1070
    44
1040
1.0
1070
    74
1070
     0
1000
MTEXTEND
  0
MTEXT
  5
5343
330
1A
100
AcDbEntity
  8
SUNPOU
100
AcDbMText
 10
6936.493799262471
 20
9534.359644781135
 30
0.0
 40
10.5
 41
0.0
 71
     1
 72
     5
  1

1001
ACAD
1000
MTEXTBEGIN
1070
    73
1070
     1
1070
    44
1040
1.0
1070
    74
1070
     0
1000
MTEXTEND
  0
MTEXT
  5
544F
330
1A
100
AcDbEntity
  8
0
100
AcDbMText
 10
16317.2832773148
 20
12833.35428897674
 30
0.0
 40
8.0
 41
0.0
 71
     7
 72
     5
  1

1001
ACAD
1000
MTEXTBEGIN
1070
    73
1070
     1
1070
    44
1040
1.0
1070
    74
1070
     0
1000
MTEXTEND
  0
MTEXT
  5
5450
330
1A
100
AcDbEntity
  8
0
100
AcDbMText
 10
18602.64096720969
 20
13804.1445837278
 30
0.0
 40
8.0
 41
0.0
 71
     7
 72
     5
  1

1001
ACAD
1000
MTEXTBEGIN
1070
    73
1070
     1
1070
    44
1040
1.0
1070
    74
1070
     0
1000
MTEXTEND
  0
MTEXT
  5
5451
330
1A
100
AcDbEntity
  8
SUNPOU
100
AcDbMText
 10
21268.53798789184
 20
23316.25597610292
 30
0.0
 40
10.5
 41
0.0
 71
     1
 72
     5
  1

1001
ACAD
1000
MTEXTBEGIN
1070
    73
1070
     1
1070
    44
1040
1.0
1070
    74
1070
     0
1000
MTEXTEND
  0
MTEXT
  5
5452
330
1A
100
AcDbEntity
  8
SUNPOU
100
AcDbMText
 10
13337.6147919559
 20
22369.46284218996
 30
0.0
 40
10.5
 41
0.0
 71
     7
 72
     5
  1

1001
ACAD
1000
MTEXTBEGIN
1070
    73
1070
     1
1070
    44
1040
1.0
1070
    74
1070
     0
1000
MTEXTEND
  0
MTEXT
  5
5453
330
1A
100
AcDbEntity
  8
SUNPOU
100
AcDbMText
 10
16286.59845646867
 20
27270.13891403281
 30
0.0
 40
10.5
 41
0.0
 71
     7
 72
     5
  1

1001
ACAD
1000
MTEXTBEGIN
1070
    73
1070
     1
1070
    44
1040
1.0
1070
    74
1070
     0
1000
MTEXTEND
  0
MTEXT
  5
5454
330
1A
100
AcDbEntity
  8
SUNPOU
100
AcDbMText
 10
20795.67658441924
 20
29706.43966165288
 30
0.0
 40
10.5
 41
0.0
 71
     7
 72
     5
  1

1001
ACAD
1000
MTEXTBEGIN
1070
    73
1070
     1
1070
    44
1040
1.0
1070
    74
1070
     0
1000
MTEXTEND
  0
MTEXT
  5
5455
330
1A
100
AcDbEntity
  8
0
100
AcDbMText
 10
16611.93789220314
 20
14707.52144344448
 30
0.0
 40
8.0
 41
0.0
 71
     7
 72
     5
  1

1001
ACAD
1000
MTEXTBEGIN
1070
    73
1070
     1
1070
    44
1040
1.0
1070
    74
1070
     0
1000
MTEXTEND
  0
MTEXT
  5
5456
330
1A
100
AcDbEntity
  8
0
100
AcDbMText
 10
18897.29558209804
 20
15678.31173819554
 30
0.0
 40
8.0
 41
0.0
 71
     7
 72
     5
  1

1001
ACAD
1000
MTEXTBEGIN
1070
    73
1070
     1
1070
    44
1040
1.0
1070
    74
1070
     0
1000
MTEXTEND
  0
MTEXT
  5
5457
330
1A
100
AcDbEntity
  8
SUNPOU
100
AcDbMText
 10
21563.19260278019
 20
25190.42313057066
 30
0.0
 40
10.5
 41
0.0
 71
     1
 72
     5
  1

1001
ACAD
1000
MTEXTBEGIN
1070
    73
1070
     1
1070
    44
1040
1.0
1070
    74
1070
     0
1000
MTEXTEND
  0
MTEXT
  5
5458
330
1A
100
AcDbEntity
  8
SUNPOU
100
AcDbMText
 10
13632.26940684426
 20
24243.6299966577
 30
0.0
 40
10.5
 41
0.0
 71
     7
 72
     5
  1

1001
ACAD
1000
MTEXTBEGIN
1070
    73
1070
     1
1070
    44
1040
1.0
1070
    74
1070
     0
1000
MTEXTEND
  0
MTEXT
  5
5459
330
1A
100
AcDbEntity
  8
SUNPOU
100
AcDbMText
 10
16581.25307135702
 20
29144.30606850055
 30
0.0
 40
10.5
 41
0.0
 71
     7
 72
     5
  1

1001
ACAD
1000
MTEXTBEGIN
1070
    73
1070
     1
1070
    44
1040
1.0
1070
    74
1070
     0
1000
MTEXTEND
  0
MTEXT
  5
545A
330
1A
100
AcDbEntity
  8
SUNPOU
100
AcDbMText
 10
21090.33119930759
 20
31580.60681612062
 30
0.0
 40
10.5
 41
0.0
 71
     7
 72
     5
  1

1001
ACAD
1000
MTEXTBEGIN
1070
    73
1070
     1
1070
    44
1040
1.0
1070
    74
1070
     0
1000
MTEXTEND
  0
MTEXT
  5
545B
330
1A
100
AcDbEntity
  8
0
100
AcDbMText
 10
22871.60517627167
 20
23974.88367124799
 30
0.0
 40
8.0
 41
0.0
 71
     7
 72
     5
  1

1001
ACAD
1000
MTEXTBEGIN
1070
    73
1070
     1
1070
    44
1040
1.0
1070
    74
1070
     0
1000
MTEXTEND
  0
MTEXT
  5
545C
330
1A
100
AcDbEntity
  8
0
100
AcDbMText
 10
25156.96286616657
 20
24945.67396599906
 30
0.0
 40
8.0
 41
0.0
 71
     7
 72
     5
  1

1001
ACAD
1000
MTEXTBEGIN
1070
    73
1070
     1
1070
    44
1040
1.0
1070
    74
1070
     0
1000
MTEXTEND
  0
MTEXT
  5
545D
330
1A
100
AcDbEntity
  8
SUNPOU
100
AcDbMText
 10
27822.85988684871
 20
34457.78535837418
 30
0.0
 40
10.5
 41
0.0
 71
     1
 72
     5
  1

1001
ACAD
1000
MTEXTBEGIN
1070
    73
1070
     1
1070
    44
1040
1.0
1070
    74
1070
     0
1000
MTEXTEND
  0
MTEXT
  5
545E
330
1A
100
AcDbEntity
  8
SUNPOU
100
AcDbMText
 10
19891.93669091278
 20
33510.99222446122
 30
0.0
 40
10.5
 41
0.0
 71
     7
 72
     5
  1

1001
ACAD
1000
MTEXTBEGIN
1070
    73
1070
     1
1070
    44
1040
1.0
1070
    74
1070
     0
1000
MTEXTEND
  0
MTEXT
  5
545F
330
1A
100
AcDbEntity
  8
SUNPOU
100
AcDbMText
 10
22840.92035542555
 20
38411.66829630407
 30
0.0
 40
10.5
 41
0.0
 71
     7
 72
     5
  1

1001
ACAD
1000
MTEXTBEGIN
1070
    73
1070
     1
1070
    44
1040
1.0
1070
    74
1070
     0
1000
MTEXTEND
  0
MTEXT
  5
5460
330
1A
100
AcDbEntity
  8
SUNPOU
100
AcDbMText
 10
27349.99848337611
 20
40847.96904392415
 30
0.0
 40
10.5
 41
0.0
 71
     7
 72
     5
  1

1001
ACAD
1000
MTEXTBEGIN
1070
    73
1070
     1
1070
    44
1040
1.0
1070
    74
1070
     0
1000
MTEXTEND
  0
MTEXT
  5
55B7
330
1A
100
AcDbEntity
  8
SUNPOU
100
AcDbMText
 10
67424.23923338197
 20
64463.86602884816
 30
0.0
 40
10.5
 41
0.0
 71
     9
 72
     5
  1

1001
ACAD
1000
MTEXTBEGIN
1070
    73
1070
     1
1070
    44
1040
1.0
1070
    74
1070
     0
1000
MTEXTEND
  0
MTEXT
  5
55B8
330
1A
100
AcDbEntity
  8
SUNPOU
100
AcDbMText
 10
76146.40679929998
 20
71879.70056038563
 30
0.0
 40
10.5
 41
0.0
 71
     9
 72
     5
  1

1001
ACAD
1000
MTEXTBEGIN
1070
    73
1070
     1
1070
    44
1040
1.0
1070
    74
1070
     0
1000
MTEXTEND
  0
MTEXT
  5
55B9
330
1A
100
AcDbEntity
  8
SUNPOU
100
AcDbMText
 10
95100.16551662994
 20
89346.27661287766
 30
0.0
 40
10.5
 41
0.0
 71
     9
 72
     5
  1

1001
ACAD
1000
MTEXTBEGIN
1070
    73
1070
     1
1070
    44
1040
1.0
1070
    74
1070
     0
1000
MTEXTEND
  0
MTEXT
  5
55BA
330
1A
100
AcDbEntity
  8
SUNPOU
100
AcDbMText
 10
97043.57276333936
 20
87545.22753299966
 30
0.0
 40
3.5
 41
0.0
 71
     9
 72
     5
  1

1001
ACAD
1000
MTEXTBEGIN
1070
    73
1070
     1
1070
    44
1040
1.0
1070
    74
1070
     0
1000
MTEXTEND
  0
MTEXT
  5
55BB
330
1A
100
AcDbEntity
  8
SUNPOU
100
AcDbMText
 10
128169.752595959
 20
130040.1732006569
 30
0.0
 40
10.5
 41
0.0
 71
     9
 72
     5
  1

1001
ACAD
1000
MTEXTBEGIN
1070
    73
1070
     1
1070
    44
1040
1.0
1070
    74
1070
     0
1000
MTEXTEND
  0
MTEXT
  5
55BC
330
1A
100
AcDbEntity
  8
SUNPOU
100
AcDbMText
 10
130113.1598426684
 20
128239.1241207789
 30
0.0
 40
3.5
 41
0.0
 71
     9
 72
     5
  1

1001
ACAD
1000
MTEXTBEGIN
1070
    73
1070
     1
1070
    44
1040
1.0
1070
    74
1070
     0
1000
MTEXTEND
  0
MTEXT
  5
55BD
330
1A
100
AcDbEntity
  8
SUNPOU
100
AcDbMText
 10
78610.02030175463
 20
75873.33835563206
 30
0.0
 40
10.5
 41
0.0
 71
     9
 72
     5
  1

1001
ACAD
1000
MTEXTBEGIN
1070
    73
1070
     1
1070
    44
1040
1.0
1070
    74
1070
     0
1000
MTEXTEND
  0
MTEXT
  5
55BE
330
1A
100
AcDbEntity
  8
SUNPOU
100
AcDbMText
 10
64662.02020137863
 20
56700.93921651987
 30
0.0
 40
3.5
 41
0.0
 71
     7
 72
     5
  1

1001
ACAD
1000
MTEXTBEGIN
1070
    73
1070
     1
1070
    44
1040
1.0
1070
    74
1070
     0
1000
MTEXTEND
  0
MTEXT
  5
55BF
330
1A
100
AcDbEntity
  8
SUNPOU
100
AcDbMText
 10
45647.18959837178
 20
44463.08794733807
 30
0.0
 40
10.5
 41
0.0
 71
     7
 72
     5
  1

1001
ACAD
1000
MTEXTBEGIN
1070
    73
1070
     1
1070
    44
1040
1.0
1070
    74
1070
     0
1000
MTEXTEND
  0
MTEXT
  5
55C0
330
1A
100
AcDbEntity
  8
SUNPOU
100
AcDbMText
 10
33189.96133342368
 20
28618.15636923965
 30
0.0
 40
35.0
 41
0.0
 71
     9
 72
     5
  1

1001
ACAD
1000
MTEXTBEGIN
1070
    73
1070
     1
1070
    44
1040
1.0
1070
    74
1070
     0
1000
MTEXTEND
  0
MTEXT
  5
55C1
330
1A
100
AcDbEntity
  8
SUNPOU
100
AcDbMText
 10
32098.44639099864
 20
29226.93177928835
 30
0.0
 40
350.0000004171781
 41
0.0
 71
     7
 72
     5
  1

1001
ACAD
1000
MTEXTBEGIN
1070
    73
1070
     1
1070
    44
1040
1.0
1070
    74
1070
     0
1000
MTEXTEND
  0
MTEXT
  5
55C2
330
1A
100
AcDbEntity
  8
0
100
AcDbMText
 10
38142.39714894154
 20
27206.85414142458
 30
0.0
 40
8.0
 41
0.0
 71
     7
 72
     5
  1

1001
ACAD
1000
MTEXTBEGIN
1070
    73
1070
     1
1070
    44
1040
1.0
1070
    74
1070
     0
1000
MTEXTEND
  0
MTEXT
  5
55C3
330
1A
100
AcDbEntity
  8
0
100
AcDbMText
 10
40427.75483883644
 20
28177.64443617564
 30
0.0
 40
8.0
 41
0.0
 71
     7
 72
     5
  1

1001
ACAD
1000
MTEXTBEGIN
1070
    73
1070
     1
1070
    44
1040
1.0
1070
    74
1070
     0
1000
MTEXTEND
  0
MTEXT
  5
55C4
330
1A
100
AcDbEntity
  8
SUNPOU
100
AcDbMText
 10
43093.65185951858
 20
37689.75582855077
 30
0.0
 40
10.5
 41
0.0
 71
     1
 72
     5
  1

1001
ACAD
1000
MTEXTBEGIN
1070
    73
1070
     1
1070
    44
1040
1.0
1070
    74
1070
     0
1000
MTEXTEND
  0
MTEXT
  5
55C5
330
1A
100
AcDbEntity
  8
SUNPOU
100
AcDbMText
 10
35162.72866358265
 20
36742.96269463781
 30
0.0
 40
10.5
 41
0.0
 71
     7
 72
     5
  1

1001
ACAD
1000
MTEXTBEGIN
1070
    73
1070
     1
1070
    44
1040
1.0
1070
    74
1070
     0
1000
MTEXTEND
  0
MTEXT
  5
55C6
330
1A
100
AcDbEntity
  8
SUNPOU
100
AcDbMText
 10
38111.71232809542
 20
41643.63876648066
 30
0.0
 40
10.5
 41
0.0
 71
     7
 72
     5
  1

1001
ACAD
1000
MTEXTBEGIN
1070
    73
1070
     1
1070
    44
1040
1.0
1070
    74
1070
     0
1000
MTEXTEND
  0
MTEXT
  5
55C7
330
1A
100
AcDbEntity
  8
SUNPOU
100
AcDbMText
 10
42620.79045604597
 20
44079.93951410074
 30
0.0
 40
10.5
 41
0.0
 71
     7
 72
     5
  1

1001
ACAD
1000
MTEXTBEGIN
1070
    73
1070
     1
1070
    44
1040
1.0
1070
    74
1070
     0
1000
MTEXTEND
  0
MTEXT
  5
55C8
330
1A
100
AcDbEntity
  8
SUNPOU
100
AcDbMText
 10
26221.62834281429
 20
23077.53566448964
 30
0.0
 40
10.5
 41
0.0
 71
     7
 72
     5
  1

1001
ACAD
1000
MTEXTBEGIN
1070
    73
1070
     1
1070
    44
1040
1.0
1070
    74
1070
     0
1000
MTEXTEND
  0
MTEXT
  5
55C9
330
1A
100
AcDbEntity
  8
SUNPOU
100
AcDbMText
 10
77413.14677671455
 20
68750.51622813789
 30
0.0
 40
10.5
 41
0.0
 71
     9
 72
     5
  1

1001
ACAD
1000
MTEXTBEGIN
1070
    73
1070
     1
1070
    44
1040
1.0
1070
    74
1070
     0
1000
MTEXTEND
  0
MTEXT
  5
55CA
330
1A
100
AcDbEntity
  8
SUNPOU
100
AcDbMText
 10
86135.31434263256
 20
76166.35075967536
 30
0.0
 40
10.5
 41
0.0
 71
     9
 72
     5
  1

1001
ACAD
1000
MTEXTBEGIN
1070
    73
1070
     1
1070
    44
1040
1.0
1070
    74
1070
     0
1000
MTEXTEND
  0
MTEXT
  5
55CB
330
1A
100
AcDbEntity
  8
SUNPOU
100
AcDbMText
 10
105089.0730599625
 20
93632.92681216739
 30
0.0
 40
10.5
 41
0.0
 71
     9
 72
     5
  1

1001
ACAD
1000
MTEXTBEGIN
1070
    73
1070
     1
1070
    44
1040
1.0
1070
    74
1070
     0
1000
MTEXTEND
  0
MTEXT
  5
55CC
330
1A
100
AcDbEntity
  8
SUNPOU
100
AcDbMText
 10
107032.4803066719
 20
91831.8777322894
 30
0.0
 40
3.5
 41
0.0
 71
     9
 72
     5
  1

1001
ACAD
1000
MTEXTBEGIN
1070
    73
1070
     1
1070
    44
1040
1.0
1070
    74
1070
     0
1000
MTEXTEND
  0
MTEXT
  5
55CD
330
1A
100
AcDbEntity
  8
SUNPOU
100
AcDbMText
 10
138158.6601392916
 20
134326.8233999467
 30
0.0
 40
10.5
 41
0.0
 71
     9
 72
     5
  1

1001
ACAD
1000
MTEXTBEGIN
1070
    73
1070
     1
1070
    44
1040
1.0
1070
    74
1070
     0
1000
MTEXTEND
  0
MTEXT
  5
55CE
330
1A
100
AcDbEntity
  8
SUNPOU
100
AcDbMText
 10
140102.067386001
 20
132525.7743200686
 30
0.0
 40
3.5
 41
0.0
 71
     9
 72
     5
  1

1001
ACAD
1000
MTEXTBEGIN
1070
    73
1070
     1
1070
    44
1040
1.0
1070
    74
1070
     0
1000
MTEXTEND
  0
MTEXT
  5
55CF
330
1A
100
AcDbEntity
  8
SUNPOU
100
AcDbMText
 10
88598.92784508721
 20
80159.98855492179
 30
0.0
 40
10.5
 41
0.0
 71
     9
 72
     5
  1

1001
ACAD
1000
MTEXTBEGIN
1070
    73
1070
     1
1070
    44
1040
1.0
1070
    74
1070
     0
1000
MTEXTEND
  0
MTEXT
  5
55D0
330
1A
100
AcDbEntity
  8
SUNPOU
100
AcDbMText
 10
74650.92774471121
 20
60987.5894158096
 30
0.0
 40
3.5
 41
0.0
 71
     7
 72
     5
  1

1001
ACAD
1000
MTEXTBEGIN
1070
    73
1070
     1
1070
    44
1040
1.0
1070
    74
1070
     0
1000
MTEXTEND
  0
MTEXT
  5
55D1
330
1A
100
AcDbEntity
  8
SUNPOU
100
AcDbMText
 10
55636.09714170436
 20
48749.73814662781
 30
0.0
 40
10.5
 41
0.0
 71
     7
 72
     5
  1

1001
ACAD
1000
MTEXTBEGIN
1070
    73
1070
     1
1070
    44
1040
1.0
1070
    74
1070
     0
1000
MTEXTEND
  0
MTEXT
  5
55D2
330
1A
100
AcDbEntity
  8
SUNPOU
100
AcDbMText
 10
43178.86887675626
 20
32904.80656852938
 30
0.0
 40
35.0
 41
0.0
 71
     9
 72
     5
  1

1001
ACAD
1000
MTEXTBEGIN
1070
    73
1070
     1
1070
    44
1040
1.0
1070
    74
1070
     0
1000
MTEXTEND
  0
MTEXT
  5
55D3
330
1A
100
AcDbEntity
  8
SUNPOU
100
AcDbMText
 10
42087.35393433121
 20
33513.58197857809
 30
0.0
 40
350.0000004171781
 41
0.0
 71
     7
 72
     5
  1

1001
ACAD
1000
MTEXTBEGIN
1070
    73
1070
     1
1070
    44
1040
1.0
1070
    74
1070
     0
1000
MTEXTEND
  0
MTEXT
  5
55D4
330
1A
100
AcDbEntity
  8
0
100
AcDbMText
 10
48131.30469227412
 20
31493.50434071431
 30
0.0
 40
8.0
 41
0.0
 71
     7
 72
     5
  1

1001
ACAD
1000
MTEXTBEGIN
1070
    73
1070
     1
1070
    44
1040
1.0
1070
    74
1070
     0
1000
MTEXTEND
  0
MTEXT
  5
55D5
330
1A
100
AcDbEntity
  8
0
100
AcDbMText
 10
50416.66238216901
 20
32464.29463546537
 30
0.0
 40
8.0
 41
0.0
 71
     7
 72
     5
  1

1001
ACAD
1000
MTEXTBEGIN
1070
    73
1070
     1
1070
    44
1040
1.0
1070
    74
1070
     0
1000
MTEXTEND
  0
MTEXT
  5
55D6
330
1A
100
AcDbEntity
  8
SUNPOU
100
AcDbMText
 10
53082.55940285115
 20
41976.4060278405
 30
0.0
 40
10.5
 41
0.0
 71
     1
 72
     5
  1

1001
ACAD
1000
MTEXTBEGIN
1070
    73
1070
     1
1070
    44
1040
1.0
1070
    74
1070
     0
1000
MTEXTEND
  0
MTEXT
  5
55D7
330
1A
100
AcDbEntity
  8
SUNPOU
100
AcDbMText
 10
45151.63620691522
 20
41029.61289392755
 30
0.0
 40
10.5
 41
0.0
 71
     7
 72
     5
  1

1001
ACAD
1000
MTEXTBEGIN
1070
    73
1070
     1
1070
    44
1040
1.0
1070
    74
1070
     0
1000
MTEXTEND
  0
MTEXT
  5
55D8
330
1A
100
AcDbEntity
  8
SUNPOU
100
AcDbMText
 10
48100.61987142798
 20
45930.28896577039
 30
0.0
 40
10.5
 41
0.0
 71
     7
 72
     5
  1

1001
ACAD
1000
MTEXTBEGIN
1070
    73
1070
     1
1070
    44
1040
1.0
1070
    74
1070
     0
1000
MTEXTEND
  0
MTEXT
  5
55D9
330
1A
100
AcDbEntity
  8
SUNPOU
100
AcDbMText
 10
52609.69799937854
 20
48366.58971339046
 30
0.0
 40
10.5
 41
0.0
 71
     7
 72
     5
  1

1001
ACAD
1000
MTEXTBEGIN
1070
    73
1070
     1
1070
    44
1040
1.0
1070
    74
1070
     0
1000
MTEXTEND
  0
MTEXT
  5
55DA
330
1A
100
AcDbEntity
  8
SUNPOU
100
AcDbMText
 10
36210.53588614687
 20
27364.18586377937
 30
0.0
 40
10.5
 41
0.0
 71
     7
 72
     5
  1

1001
ACAD
1000
MTEXTBEGIN
1070
    73
1070
     1
1070
    44
1040
1.0
1070
    74
1070
     0
1000
MTEXTEND
  0
MTEXT
  5
55DB
330
1A
100
AcDbEntity
  8
SUNPOU
100
AcDbMText
 10
38021.29879752181
 20
33691.59985125794
 30
0.0
 40
10.5
 41
0.0
 71
     9
 72
     5
  1

1001
ACAD
1000
MTEXTBEGIN
1070
    73
1070
     1
1070
    44
1040
1.0
1070
    74
1070
     0
1000
MTEXTEND
  0
MTEXT
  5
55DC
330
1A
100
AcDbEntity
  8
SUNPOU
100
AcDbMText
 10
46743.46636343979
 20
41107.43438279541
 30
0.0
 40
10.5
 41
0.0
 71
     9
 72
     5
  1

1001
ACAD
1000
MTEXTBEGIN
1070
    73
1070
     1
1070
    44
1040
1.0
1070
    74
1070
     0
1000
MTEXTEND
  0
MTEXT
  5
55DD
330
1A
100
AcDbEntity
  8
SUNPOU
100
AcDbMText
 10
65697.22508076975
 20
58574.01043528746
 30
0.0
 40
10.5
 41
0.0
 71
     9
 72
     5
  1

1001
ACAD
1000
MTEXTBEGIN
1070
    73
1070
     1
1070
    44
1040
1.0
1070
    74
1070
     0
1000
MTEXTEND
  0
MTEXT
  5
55DE
330
1A
100
AcDbEntity
  8
SUNPOU
100
AcDbMText
 10
67640.63232747917
 20
56772.96135540945
 30
0.0
 40
3.5
 41
0.0
 71
     9
 72
     5
  1

1001
ACAD
1000
MTEXTBEGIN
1070
    73
1070
     1
1070
    44
1040
1.0
1070
    74
1070
     0
1000
MTEXTEND
  0
MTEXT
  5
55DF
330
1A
100
AcDbEntity
  8
SUNPOU
100
AcDbMText
 10
98766.81216009888
 20
99267.9070230668
 30
0.0
 40
10.5
 41
0.0
 71
     9
 72
     5
  1

1001
ACAD
1000
MTEXTBEGIN
1070
    73
1070
     1
1070
    44
1040
1.0
1070
    74
1070
     0
1000
MTEXTEND
  0
MTEXT
  5
55E0
330
1A
100
AcDbEntity
  8
SUNPOU
100
AcDbMText
 10
100710.2194068083
 20
97466.85794318878
 30
0.0
 40
3.5
 41
0.0
 71
     9
 72
     5
  1

1001
ACAD
1000
MTEXTBEGIN
1070
    73
1070
     1
1070
    44
1040
1.0
1070
    74
1070
     0
1000
MTEXTEND
  0
MTEXT
  5
55E1
330
1A
100
AcDbEntity
  8
SUNPOU
100
AcDbMText
 10
49207.07986589444
 20
45101.07217804185
 30
0.0
 40
10.5
 41
0.0
 71
     9
 72
     5
  1

1001
ACAD
1000
MTEXTBEGIN
1070
    73
1070
     1
1070
    44
1040
1.0
1070
    74
1070
     0
1000
MTEXTEND
  0
MTEXT
  5
55E2
330
1A
100
AcDbEntity
  8
SUNPOU
100
AcDbMText
 10
35259.07976551845
 20
25928.67303892964
 30
0.0
 40
3.5
 41
0.0
 71
     7
 72
     5
  1

1001
ACAD
1000
MTEXTBEGIN
1070
    73
1070
     1
1070
    44
1040
1.0
1070
    74
1070
     0
1000
MTEXTEND
  0
MTEXT
  5
55E3
330
1A
100
AcDbEntity
  8
SUNPOU
100
AcDbMText
 10
48951.43044828905
 20
35287.73625995099
 30
0.0
 40
10.5
 41
0.0
 71
     9
 72
     5
  1

1001
ACAD
1000
MTEXTBEGIN
1070
    73
1070
     1
1070
    44
1040
1.0
1070
    74
1070
     0
1000
MTEXTEND
  0
MTEXT
  5
55E4
330
1A
100
AcDbEntity
  8
SUNPOU
100
AcDbMText
 10
57673.59801420702
 20
42703.57079148847
 30
0.0
 40
10.5
 41
0.0
 71
     9
 72
     5
  1

1001
ACAD
1000
MTEXTBEGIN
1070
    73
1070
     1
1070
    44
1040
1.0
1070
    74
1070
     0
1000
MTEXTEND
  0
MTEXT
  5
55E5
330
1A
100
AcDbEntity
  8
SUNPOU
100
AcDbMText
 10
76627.35673153699
 20
60170.14684398051
 30
0.0
 40
10.5
 41
0.0
 71
     9
 72
     5
  1

1001
ACAD
1000
MTEXTBEGIN
1070
    73
1070
     1
1070
    44
1040
1.0
1070
    74
1070
     0
1000
MTEXTEND
  0
MTEXT
  5
55E6
330
1A
100
AcDbEntity
  8
SUNPOU
100
AcDbMText
 10
78570.76397824641
 20
58369.09776410251
 30
0.0
 40
3.5
 41
0.0
 71
     9
 72
     5
  1

1001
ACAD
1000
MTEXTBEGIN
1070
    73
1070
     1
1070
    44
1040
1.0
1070
    74
1070
     0
1000
MTEXTEND
  0
MTEXT
  5
55E7
330
1A
100
AcDbEntity
  8
SUNPOU
100
AcDbMText
 10
109696.9438108661
 20
100864.0434317598
 30
0.0
 40
10.5
 41
0.0
 71
     9
 72
     5
  1

1001
ACAD
1000
MTEXTBEGIN
1070
    73
1070
     1
1070
    44
1040
1.0
1070
    74
1070
     0
1000
MTEXTEND
  0
MTEXT
  5
55E8
330
1A
100
AcDbEntity
  8
SUNPOU
100
AcDbMText
 10
111640.3510575755
 20
99062.99435188183
 30
0.0
 40
3.5
 41
0.0
 71
     9
 72
     5
  1

1001
ACAD
1000
MTEXTBEGIN
1070
    73
1070
     1
1070
    44
1040
1.0
1070
    74
1070
     0
1000
MTEXTEND
  0
MTEXT
  5
55E9
330
1A
100
AcDbEntity
  8
SUNPOU
100
AcDbMText
 10
60137.21151666167
 20
46697.20858673491
 30
0.0
 40
10.5
 41
0.0
 71
     9
 72
     5
  1

1001
ACAD
1000
MTEXTBEGIN
1070
    73
1070
     1
1070
    44
1040
1.0
1070
    74
1070
     0
1000
MTEXTEND
  0
MTEXT
  5
55EA
330
1A
100
AcDbEntity
  8
SUNPOU
100
AcDbMText
 10
46189.21141628568
 20
27524.80944762269
 30
0.0
 40
3.5
 41
0.0
 71
     7
 72
     5
  1

1001
ACAD
1000
MTEXTBEGIN
1070
    73
1070
     1
1070
    44
1040
1.0
1070
    74
1070
     0
1000
MTEXTEND
  0
MTEXT
  5
55EB
330
1A
100
AcDbEntity
  8
SUNPOU
100
AcDbMText
 10
45007.68847015541
 20
38269.57947701874
 30
0.0
 40
10.5
 41
0.0
 71
     9
 72
     5
  1

1001
ACAD
1000
MTEXTBEGIN
1070
    73
1070
     1
1070
    44
1040
1.0
1070
    74
1070
     0
1000
MTEXTEND
  0
MTEXT
  5
55EC
330
1A
100
AcDbEntity
  8
SUNPOU
100
AcDbMText
 10
63961.44718748539
 20
55736.15552951081
 30
0.0
 40
10.5
 41
0.0
 71
     9
 72
     5
  1

1001
ACAD
1000
MTEXTBEGIN
1070
    73
1070
     1
1070
    44
1040
1.0
1070
    74
1070
     0
1000
MTEXTEND
  0
MTEXT
  5
55ED
330
1A
100
AcDbEntity
  8
SUNPOU
100
AcDbMText
 10
65904.85443419479
 20
53935.10644963279
 30
0.0
 40
3.5
 41
0.0
 71
     9
 72
     5
  1

1001
ACAD
1000
MTEXTBEGIN
1070
    73
1070
     1
1070
    44
1040
1.0
1070
    74
1070
     0
1000
MTEXTEND
  0
MTEXT
  5
55EE
330
1A
100
AcDbEntity
  8
SUNPOU
100
AcDbMText
 10
97031.03426681451
 20
96430.05211729015
 30
0.0
 40
10.5
 41
0.0
 71
     9
 72
     5
  1

1001
ACAD
1000
MTEXTBEGIN
1070
    73
1070
     1
1070
    44
1040
1.0
1070
    74
1070
     0
1000
MTEXTEND
  0
MTEXT
  5
55EF
330
1A
100
AcDbEntity
  8
SUNPOU
100
AcDbMText
 10
98974.44151352393
 20
94629.00303741212
 30
0.0
 40
3.5
 41
0.0
 71
     9
 72
     5
  1

1001
ACAD
1000
MTEXTBEGIN
1070
    73
1070
     1
1070
    44
1040
1.0
1070
    74
1070
     0
1000
MTEXTEND
  0
MTEXT
  5
55F0
330
1A
100
AcDbEntity
  8
SUNPOU
100
AcDbMText
 10
47471.30197261006
 20
42263.21727226519
 30
0.0
 40
10.5
 41
0.0
 71
     9
 72
     5
  1

1001
ACAD
1000
MTEXTBEGIN
1070
    73
1070
     1
1070
    44
1040
1.0
1070
    74
1070
     0
1000
MTEXTEND
  0
MTEXT
  5
55F1
330
1A
100
AcDbEntity
  8
SUNPOU
100
AcDbMText
 10
33523.30187223408
 20
23090.81813315298
 30
0.0
 40
3.5
 41
0.0
 71
     7
 72
     5
  1

1001
ACAD
1000
MTEXTBEGIN
1070
    73
1070
     1
1070
    44
1040
1.0
1070
    74
1070
     0
1000
MTEXTEND
  0
MTEXT
  5
55F2
330
1A
100
AcDbEntity
  8
SUNPOU
100
AcDbMText
 10
57959.46254102503
 20
50038.08111611015
 30
0.0
 40
10.5
 41
0.0
 71
     9
 72
     5
  1

1001
ACAD
1000
MTEXTBEGIN
1070
    73
1070
     1
1070
    44
1040
1.0
1070
    74
1070
     0
1000
MTEXTEND
  0
MTEXT
  5
55F3
330
1A
100
AcDbEntity
  8
SUNPOU
100
AcDbMText
 10
76913.22125835503
 20
67504.65716860222
 30
0.0
 40
10.5
 41
0.0
 71
     9
 72
     5
  1

1001
ACAD
1000
MTEXTBEGIN
1070
    73
1070
     1
1070
    44
1040
1.0
1070
    74
1070
     0
1000
MTEXTEND
  0
MTEXT
  5
55F4
330
1A
100
AcDbEntity
  8
SUNPOU
100
AcDbMText
 10
78856.62850506443
 20
65703.6080887242
 30
0.0
 40
3.5
 41
0.0
 71
     9
 72
     5
  1

1001
ACAD
1000
MTEXTBEGIN
1070
    73
1070
     1
1070
    44
1040
1.0
1070
    74
1070
     0
1000
MTEXTEND
  0
MTEXT
  5
55F5
330
1A
100
AcDbEntity
  8
SUNPOU
100
AcDbMText
 10
109982.8083376841
 20
108198.5537563815
 30
0.0
 40
10.5
 41
0.0
 71
     9
 72
     5
  1

1001
ACAD
1000
MTEXTBEGIN
1070
    73
1070
     1
1070
    44
1040
1.0
1070
    74
1070
     0
1000
MTEXTEND
  0
MTEXT
  5
55F6
330
1A
100
AcDbEntity
  8
SUNPOU
100
AcDbMText
 10
111926.2155843935
 20
106397.5046765035
 30
0.0
 40
3.5
 41
0.0
 71
     9
 72
     5
  1

1001
ACAD
1000
MTEXTBEGIN
1070
    73
1070
     1
1070
    44
1040
1.0
1070
    74
1070
     0
1000
MTEXTEND
  0
MTEXT
  5
55F7
330
1A
100
AcDbEntity
  8
SUNPOU
100
AcDbMText
 10
60423.07604347968
 20
54031.71891135659
 30
0.0
 40
10.5
 41
0.0
 71
     9
 72
     5
  1

1001
ACAD
1000
MTEXTBEGIN
1070
    73
1070
     1
1070
    44
1040
1.0
1070
    74
1070
     0
1000
MTEXTEND
  0
MTEXT
  5
55F8
330
1A
100
AcDbEntity
  8
SUNPOU
100
AcDbMText
 10
46475.07594310369
 20
34859.3197722444
 30
0.0
 40
3.5
 41
0.0
 71
     7
 72
     5
  1

1001
ACAD
1000
MTEXTBEGIN
1070
    73
1070
     1
1070
    44
1040
1.0
1070
    74
1070
     0
1000
MTEXTEND
  0
MTEXT
  5
55F9
330
1A
100
AcDbEntity
  8
SUNPOU
100
AcDbMText
 10
74027.35402123588
 20
68370.58278833383
 30
0.0
 40
10.5
 41
0.0
 71
     9
 72
     5
  1

1001
ACAD
1000
MTEXTBEGIN
1070
    73
1070
     1
1070
    44
1040
1.0
1070
    74
1070
     0
1000
MTEXTEND
  0
MTEXT
  5
55FA
330
1A
100
AcDbEntity
  8
SUNPOU
100
AcDbMText
 10
75970.7612679453
 20
66569.53370845583
 30
0.0
 40
3.5
 41
0.0
 71
     9
 72
     5
  1

1001
ACAD
1000
MTEXTBEGIN
1070
    73
1070
     1
1070
    44
1040
1.0
1070
    74
1070
     0
1000
MTEXTEND
  0
MTEXT
  5
55FB
330
1A
100
AcDbEntity
  8
SUNPOU
100
AcDbMText
 10
107096.941100565
 20
109064.4793761132
 30
0.0
 40
10.5
 41
0.0
 71
     9
 72
     5
  1

1001
ACAD
1000
MTEXTBEGIN
1070
    73
1070
     1
1070
    44
1040
1.0
1070
    74
1070
     0
1000
MTEXTEND
  0
MTEXT
  5
55FC
330
1A
100
AcDbEntity
  8
SUNPOU
100
AcDbMText
 10
109040.3483472744
 20
107263.4302962351
 30
0.0
 40
3.5
 41
0.0
 71
     9
 72
     5
  1

1001
ACAD
1000
MTEXTBEGIN
1070
    73
1070
     1
1070
    44
1040
1.0
1070
    74
1070
     0
1000
MTEXTEND
  0
MTEXT
  5
55FD
330
1A
100
AcDbEntity
  8
SUNPOU
100
AcDbMText
 10
105709.1709283621
 20
108141.3777665285
 30
0.0
 40
10.5
 41
0.0
 71
     9
 72
     5
  1

1001
ACAD
1000
MTEXTBEGIN
1070
    73
1070
     1
1070
    44
1040
1.0
1070
    74
1070
     0
1000
MTEXTEND
  0
MTEXT
  5
55FE
330
1A
100
AcDbEntity
  8
SUNPOU
100
AcDbMText
 10
107652.5781750715
 20
106340.3286866505
 30
0.0
 40
3.5
 41
0.0
 71
     9
 72
     5
  1

1001
ACAD
1000
MTEXTBEGIN
1070
    73
1070
     1
1070
    44
1040
1.0
1070
    74
1070
     0
1000
MTEXTEND
  0
MTEXT
  5
55FF
330
1A
100
AcDbEntity
  8
SUNPOU
100
AcDbMText
 10
73193.09268743351
 20
66158.78082845056
 30
0.0
 40
10.5
 41
0.0
 71
     9
 72
     5
  1

1001
ACAD
1000
MTEXTBEGIN
1070
    73
1070
     1
1070
    44
1040
1.0
1070
    74
1070
     0
1000
MTEXTEND
  0
MTEXT
  5
5600
330
1A
100
AcDbEntity
  8
SUNPOU
100
AcDbMText
 10
75916.39889159806
 20
66563.46252003162
 30
0.0
 40
3.5
 41
0.0
 71
     9
 72
     5
  1

1001
ACAD
1000
MTEXTBEGIN
1070
    73
1070
     1
1070
    44
1040
1.0
1070
    74
1070
     0
1000
MTEXTEND
  0
MTEXT
  5
5601
330
1A
100
AcDbEntity
  8
SUNPOU
100
AcDbMText
 10
75124.04436649058
 20
63402.1566819768
 30
0.0
 40
10.5
 41
0.0
 71
     9
 72
     5
  1

1001
ACAD
1000
MTEXTBEGIN
1070
    73
1070
     1
1070
    44
1040
1.0
1070
    74
1070
     0
1000
MTEXTEND
  0
MTEXT
  5
5602
330
1A
100
AcDbEntity
  8
SUNPOU
100
AcDbMText
 10
77067.4516132
 20
61601.1076020988
 30
0.0
 40
3.5
 41
0.0
 71
     9
 72
     5
  1

1001
ACAD
1000
MTEXTBEGIN
1070
    73
1070
     1
1070
    44
1040
1.0
1070
    74
1070
     0
1000
MTEXTEND
  0
MTEXT
  5
5603
330
1A
100
AcDbEntity
  8
SUNPOU
100
AcDbMText
 10
77012.54710378659
 20
61488.33571981449
 30
0.0
 40
3.5
 41
0.0
 71
     9
 72
     5
  1

1001
ACAD
1000
MTEXTBEGIN
1070
    73
1070
     1
1070
    44
1040
1.0
1070
    74
1070
     0
1000
MTEXTEND
  0
MTEXT
  5
5604
330
1A
100
AcDbEntity
  8
SUNPOU
100
AcDbMText
 10
76376.61896736668
 20
60677.01447874797
 30
0.0
 40
3.5
 41
0.0
 71
     9
 72
     5
  1

1001
ACAD
1000
MTEXTBEGIN
1070
    73
1070
     1
1070
    44
1040
1.0
1070
    74
1070
     0
1000
MTEXTEND
  0
MTEXT
  5
5605
330
1A
100
AcDbEntity
  8
SUNPOU
100
AcDbMText
 10
76375.37854794595
 20
60676.76650181047
 30
0.0
 40
10.5
 41
0.0
 71
     9
 72
     5
  1

1001
ACAD
1000
MTEXTBEGIN
1070
    73
1070
     1
1070
    44
1040
1.0
1070
    74
1070
     0
1000
MTEXTEND
  0
MTEXT
  5
5606
330
1A
100
AcDbEntity
  8
SUNPOU
100
AcDbMText
 10
84709.93991079748
 20
78034.0328293557
 30
0.0
 40
10.5
 41
0.0
 71
     9
 72
     5
  1

1001
ACAD
1000
MTEXTBEGIN
1070
    73
1070
     1
1070
    44
1040
1.0
1070
    74
1070
     0
1000
MTEXTEND
  0
MTEXT
  5
5607
330
1A
100
AcDbEntity
  8
SUNPOU
100
AcDbMText
 10
93432.10747671548
 20
85449.86736089315
 30
0.0
 40
10.5
 41
0.0
 71
     9
 72
     5
  1

1001
ACAD
1000
MTEXTBEGIN
1070
    73
1070
     1
1070
    44
1040
1.0
1070
    74
1070
     0
1000
MTEXTEND
  0
MTEXT
  5
5608
330
1A
100
AcDbEntity
  8
SUNPOU
100
AcDbMText
 10
112385.8661940454
 20
102916.4434133851
 30
0.0
 40
10.5
 41
0.0
 71
     9
 72
     5
  1

1001
ACAD
1000
MTEXTBEGIN
1070
    73
1070
     1
1070
    44
1040
1.0
1070
    74
1070
     0
1000
MTEXTEND
  0
MTEXT
  5
5609
330
1A
100
AcDbEntity
  8
SUNPOU
100
AcDbMText
 10
114329.2734407548
 20
101115.3943335072
 30
0.0
 40
3.5
 41
0.0
 71
     9
 72
     5
  1

1001
ACAD
1000
MTEXTBEGIN
1070
    73
1070
     1
1070
    44
1040
1.0
1070
    74
1070
     0
1000
MTEXTEND
  0
MTEXT
  5
560A
330
1A
100
AcDbEntity
  8
SUNPOU
100
AcDbMText
 10
145455.4532733745
 20
143610.3400011645
 30
0.0
 40
10.5
 41
0.0
 71
     9
 72
     5
  1

1001
ACAD
1000
MTEXTBEGIN
1070
    73
1070
     1
1070
    44
1040
1.0
1070
    74
1070
     0
1000
MTEXTEND
  0
MTEXT
  5
560B
330
1A
100
AcDbEntity
  8
SUNPOU
100
AcDbMText
 10
147398.8605200839
 20
141809.2909212864
 30
0.0
 40
3.5
 41
0.0
 71
     9
 72
     5
  1

1001
ACAD
1000
MTEXTBEGIN
1070
    73
1070
     1
1070
    44
1040
1.0
1070
    74
1070
     0
1000
MTEXTEND
  0
MTEXT
  5
560C
330
1A
100
AcDbEntity
  8
SUNPOU
100
AcDbMText
 10
95895.72097917013
 20
89443.5051561396
 30
0.0
 40
10.5
 41
0.0
 71
     9
 72
     5
  1

1001
ACAD
1000
MTEXTBEGIN
1070
    73
1070
     1
1070
    44
1040
1.0
1070
    74
1070
     0
1000
MTEXTEND
  0
MTEXT
  5
560D
330
1A
100
AcDbEntity
  8
SUNPOU
100
AcDbMText
 10
81947.72087879414
 20
70271.1060170274
 30
0.0
 40
3.5
 41
0.0
 71
     7
 72
     5
  1

1001
ACAD
1000
MTEXTBEGIN
1070
    73
1070
     1
1070
    44
1040
1.0
1070
    74
1070
     0
1000
MTEXTEND
  0
MTEXT
  5
560E
330
1A
100
AcDbEntity
  8
SUNPOU
100
AcDbMText
 10
62932.89027578729
 20
58033.25474784561
 30
0.0
 40
10.5
 41
0.0
 71
     7
 72
     5
  1

1001
ACAD
1000
MTEXTBEGIN
1070
    73
1070
     1
1070
    44
1040
1.0
1070
    74
1070
     0
1000
MTEXTEND
  0
MTEXT
  5
560F
330
1A
100
AcDbEntity
  8
SUNPOU
100
AcDbMText
 10
50475.66201083918
 20
42188.32316974719
 30
0.0
 40
35.0
 41
0.0
 71
     9
 72
     5
  1

1001
ACAD
1000
MTEXTBEGIN
1070
    73
1070
     1
1070
    44
1040
1.0
1070
    74
1070
     0
1000
MTEXTEND
  0
MTEXT
  5
5610
330
1A
100
AcDbEntity
  8
SUNPOU
100
AcDbMText
 10
49384.14706841413
 20
42797.0985797959
 30
0.0
 40
350.0000004171781
 41
0.0
 71
     7
 72
     5
  1

1001
ACAD
1000
MTEXTBEGIN
1070
    73
1070
     1
1070
    44
1040
1.0
1070
    74
1070
     0
1000
MTEXTEND
  0
MTEXT
  5
5611
330
1A
100
AcDbEntity
  8
0
100
AcDbMText
 10
55428.09782635704
 20
40777.02094193211
 30
0.0
 40
8.0
 41
0.0
 71
     7
 72
     5
  1

1001
ACAD
1000
MTEXTBEGIN
1070
    73
1070
     1
1070
    44
1040
1.0
1070
    74
1070
     0
1000
MTEXTEND
  0
MTEXT
  5
5612
330
1A
100
AcDbEntity
  8
0
100
AcDbMText
 10
57713.45551625194
 20
41747.81123668317
 30
0.0
 40
8.0
 41
0.0
 71
     7
 72
     5
  1

1001
ACAD
1000
MTEXTBEGIN
1070
    73
1070
     1
1070
    44
1040
1.0
1070
    74
1070
     0
1000
MTEXTEND
  0
MTEXT
  5
5613
330
1A
100
AcDbEntity
  8
SUNPOU
100
AcDbMText
 10
60379.35253693408
 20
51259.9226290583
 30
0.0
 40
10.5
 41
0.0
 71
     1
 72
     5
  1

1001
ACAD
1000
MTEXTBEGIN
1070
    73
1070
     1
1070
    44
1040
1.0
1070
    74
1070
     0
1000
MTEXTEND
  0
MTEXT
  5
5614
330
1A
100
AcDbEntity
  8
SUNPOU
100
AcDbMText
 10
52448.42934099814
 20
50313.12949514535
 30
0.0
 40
10.5
 41
0.0
 71
     7
 72
     5
  1

1001
ACAD
1000
MTEXTBEGIN
1070
    73
1070
     1
1070
    44
1040
1.0
1070
    74
1070
     0
1000
MTEXTEND
  0
MTEXT
  5
5615
330
1A
100
AcDbEntity
  8
SUNPOU
100
AcDbMText
 10
55397.41300551091
 20
55213.80556698819
 30
0.0
 40
10.5
 41
0.0
 71
     7
 72
     5
  1

1001
ACAD
1000
MTEXTBEGIN
1070
    73
1070
     1
1070
    44
1040
1.0
1070
    74
1070
     0
1000
MTEXTEND
  0
MTEXT
  5
5616
330
1A
100
AcDbEntity
  8
SUNPOU
100
AcDbMText
 10
59906.49113346147
 20
57650.10631460826
 30
0.0
 40
10.5
 41
0.0
 71
     7
 72
     5
  1

1001
ACAD
1000
MTEXTBEGIN
1070
    73
1070
     1
1070
    44
1040
1.0
1070
    74
1070
     0
1000
MTEXTEND
  0
MTEXT
  5
5617
330
1A
100
AcDbEntity
  8
SUNPOU
100
AcDbMText
 10
43507.32902022979
 20
36647.70246499718
 30
0.0
 40
10.5
 41
0.0
 71
     7
 72
     5
  1

1001
ACAD
1000
MTEXTBEGIN
1070
    73
1070
     1
1070
    44
1040
1.0
1070
    74
1070
     0
1000
MTEXTEND
  0
MTEXT
  5
5618
330
1A
100
AcDbEntity
  8
SUNPOU
100
AcDbMText
 10
94698.84745413006
 20
82320.68302864542
 30
0.0
 40
10.5
 41
0.0
 71
     9
 72
     5
  1

1001
ACAD
1000
MTEXTBEGIN
1070
    73
1070
     1
1070
    44
1040
1.0
1070
    74
1070
     0
1000
MTEXTEND
  0
MTEXT
  5
5619
330
1A
100
AcDbEntity
  8
SUNPOU
100
AcDbMText
 10
103421.015020048
 20
89736.5175601829
 30
0.0
 40
10.5
 41
0.0
 71
     9
 72
     5
  1

1001
ACAD
1000
MTEXTBEGIN
1070
    73
1070
     1
1070
    44
1040
1.0
1070
    74
1070
     0
1000
MTEXTEND
  0
MTEXT
  5
561A
330
1A
100
AcDbEntity
  8
SUNPOU
100
AcDbMText
 10
122374.773737378
 20
107203.0936126749
 30
0.0
 40
10.5
 41
0.0
 71
     9
 72
     5
  1

1001
ACAD
1000
MTEXTBEGIN
1070
    73
1070
     1
1070
    44
1040
1.0
1070
    74
1070
     0
1000
MTEXTEND
  0
MTEXT
  5
561B
330
1A
100
AcDbEntity
  8
SUNPOU
100
AcDbMText
 10
124318.1809840874
 20
105402.0445327969
 30
0.0
 40
3.5
 41
0.0
 71
     9
 72
     5
  1

1001
ACAD
1000
MTEXTBEGIN
1070
    73
1070
     1
1070
    44
1040
1.0
1070
    74
1070
     0
1000
MTEXTEND
  0
MTEXT
  5
561C
330
1A
100
AcDbEntity
  8
SUNPOU
100
AcDbMText
 10
155444.3608167071
 20
147896.9902004542
 30
0.0
 40
10.5
 41
0.0
 71
     9
 72
     5
  1

1001
ACAD
1000
MTEXTBEGIN
1070
    73
1070
     1
1070
    44
1040
1.0
1070
    74
1070
     0
1000
MTEXTEND
  0
MTEXT
  5
561D
330
1A
100
AcDbEntity
  8
SUNPOU
100
AcDbMText
 10
157387.7680634165
 20
146095.9411205762
 30
0.0
 40
3.5
 41
0.0
 71
     9
 72
     5
  1

1001
ACAD
1000
MTEXTBEGIN
1070
    73
1070
     1
1070
    44
1040
1.0
1070
    74
1070
     0
1000
MTEXTEND
  0
MTEXT
  5
561E
330
1A
100
AcDbEntity
  8
SUNPOU
100
AcDbMText
 10
105884.6285225027
 20
93730.15535542933
 30
0.0
 40
10.5
 41
0.0
 71
     9
 72
     5
  1

1001
ACAD
1000
MTEXTBEGIN
1070
    73
1070
     1
1070
    44
1040
1.0
1070
    74
1070
     0
1000
MTEXTEND
  0
MTEXT
  5
561F
330
1A
100
AcDbEntity
  8
SUNPOU
100
AcDbMText
 10
91936.6284221267
 20
74557.75621631714
 30
0.0
 40
3.5
 41
0.0
 71
     7
 72
     5
  1

1001
ACAD
1000
MTEXTBEGIN
1070
    73
1070
     1
1070
    44
1040
1.0
1070
    74
1070
     0
1000
MTEXTEND
  0
MTEXT
  5
5620
330
1A
100
AcDbEntity
  8
SUNPOU
100
AcDbMText
 10
72921.79781911986
 20
62319.90494713533
 30
0.0
 40
10.5
 41
0.0
 71
     7
 72
     5
  1

1001
ACAD
1000
MTEXTBEGIN
1070
    73
1070
     1
1070
    44
1040
1.0
1070
    74
1070
     0
1000
MTEXTEND
  0
MTEXT
  5
5621
330
1A
100
AcDbEntity
  8
SUNPOU
100
AcDbMText
 10
60464.56955417175
 20
46474.97336903692
 30
0.0
 40
35.0
 41
0.0
 71
     9
 72
     5
  1

1001
ACAD
1000
MTEXTBEGIN
1070
    73
1070
     1
1070
    44
1040
1.0
1070
    74
1070
     0
1000
MTEXTEND
  0
MTEXT
  5
5622
330
1A
100
AcDbEntity
  8
SUNPOU
100
AcDbMText
 10
59373.05461174672
 20
47083.74877908562
 30
0.0
 40
350.0000004171781
 41
0.0
 71
     7
 72
     5
  1

1001
ACAD
1000
MTEXTBEGIN
1070
    73
1070
     1
1070
    44
1040
1.0
1070
    74
1070
     0
1000
MTEXTEND
  0
MTEXT
  5
5623
330
1A
100
AcDbEntity
  8
0
100
AcDbMText
 10
65417.00536968962
 20
45063.67114122186
 30
0.0
 40
8.0
 41
0.0
 71
     7
 72
     5
  1

1001
ACAD
1000
MTEXTBEGIN
1070
    73
1070
     1
1070
    44
1040
1.0
1070
    74
1070
     0
1000
MTEXTEND
  0
MTEXT
  5
5624
330
1A
100
AcDbEntity
  8
0
100
AcDbMText
 10
67702.36305958452
 20
46034.46143597292
 30
0.0
 40
8.0
 41
0.0
 71
     7
 72
     5
  1

1001
ACAD
1000
MTEXTBEGIN
1070
    73
1070
     1
1070
    44
1040
1.0
1070
    74
1070
     0
1000
MTEXTEND
  0
MTEXT
  5
5625
330
1A
100
AcDbEntity
  8
SUNPOU
100
AcDbMText
 10
70368.26008026666
 20
55546.57282834803
 30
0.0
 40
10.5
 41
0.0
 71
     1
 72
     5
  1

1001
ACAD
1000
MTEXTBEGIN
1070
    73
1070
     1
1070
    44
1040
1.0
1070
    74
1070
     0
1000
MTEXTEND
  0
MTEXT
  5
5626
330
1A
100
AcDbEntity
  8
SUNPOU
100
AcDbMText
 10
62437.33688433072
 20
54599.77969443508
 30
0.0
 40
10.5
 41
0.0
 71
     7
 72
     5
  1

1001
ACAD
1000
MTEXTBEGIN
1070
    73
1070
     1
1070
    44
1040
1.0
1070
    74
1070
     0
1000
MTEXTEND
  0
MTEXT
  5
5627
330
1A
100
AcDbEntity
  8
SUNPOU
100
AcDbMText
 10
65386.32054884349
 20
59500.45576627792
 30
0.0
 40
10.5
 41
0.0
 71
     7
 72
     5
  1

1001
ACAD
1000
MTEXTBEGIN
1070
    73
1070
     1
1070
    44
1040
1.0
1070
    74
1070
     0
1000
MTEXTEND
  0
MTEXT
  5
5628
330
1A
100
AcDbEntity
  8
SUNPOU
100
AcDbMText
 10
69895.39867679405
 20
61936.756513898
 30
0.0
 40
10.5
 41
0.0
 71
     7
 72
     5
  1

1001
ACAD
1000
MTEXTBEGIN
1070
    73
1070
     1
1070
    44
1040
1.0
1070
    74
1070
     0
1000
MTEXTEND
  0
MTEXT
  5
5629
330
1A
100
AcDbEntity
  8
SUNPOU
100
AcDbMText
 10
53496.23656356237
 20
40934.35266428691
 30
0.0
 40
10.5
 41
0.0
 71
     7
 72
     5
  1

1001
ACAD
1000
MTEXTBEGIN
1070
    73
1070
     1
1070
    44
1040
1.0
1070
    74
1070
     0
1000
MTEXTEND
  0
MTEXT
  5
562A
330
1A
100
AcDbEntity
  8
SUNPOU
100
AcDbMText
 10
55306.99947493731
 20
47261.76665176547
 30
0.0
 40
10.5
 41
0.0
 71
     9
 72
     5
  1

1001
ACAD
1000
MTEXTBEGIN
1070
    73
1070
     1
1070
    44
1040
1.0
1070
    74
1070
     0
1000
MTEXTEND
  0
MTEXT
  5
562B
330
1A
100
AcDbEntity
  8
SUNPOU
100
AcDbMText
 10
64029.16704085528
 20
54677.60118330295
 30
0.0
 40
10.5
 41
0.0
 71
     9
 72
     5
  1

1001
ACAD
1000
MTEXTBEGIN
1070
    73
1070
     1
1070
    44
1040
1.0
1070
    74
1070
     0
1000
MTEXTEND
  0
MTEXT
  5
562C
330
1A
100
AcDbEntity
  8
SUNPOU
100
AcDbMText
 10
82982.92575818527
 20
72144.17723579499
 30
0.0
 40
10.5
 41
0.0
 71
     9
 72
     5
  1

1001
ACAD
1000
MTEXTBEGIN
1070
    73
1070
     1
1070
    44
1040
1.0
1070
    74
1070
     0
1000
MTEXTEND
  0
MTEXT
  5
562D
330
1A
100
AcDbEntity
  8
SUNPOU
100
AcDbMText
 10
84926.33300489467
 20
70343.12815591698
 30
0.0
 40
3.5
 41
0.0
 71
     9
 72
     5
  1

1001
ACAD
1000
MTEXTBEGIN
1070
    73
1070
     1
1070
    44
1040
1.0
1070
    74
1070
     0
1000
MTEXTEND
  0
MTEXT
  5
562E
330
1A
100
AcDbEntity
  8
SUNPOU
100
AcDbMText
 10
116052.5128375143
 20
112838.0738235743
 30
0.0
 40
10.5
 41
0.0
 71
     9
 72
     5
  1

1001
ACAD
1000
MTEXTBEGIN
1070
    73
1070
     1
1070
    44
1040
1.0
1070
    74
1070
     0
1000
MTEXTEND
  0
MTEXT
  5
562F
330
1A
100
AcDbEntity
  8
SUNPOU
100
AcDbMText
 10
117995.9200842238
 20
111037.0247436963
 30
0.0
 40
3.5
 41
0.0
 71
     9
 72
     5
  1

1001
ACAD
1000
MTEXTBEGIN
1070
    73
1070
     1
1070
    44
1040
1.0
1070
    74
1070
     0
1000
MTEXTEND
  0
MTEXT
  5
5630
330
1A
100
AcDbEntity
  8
SUNPOU
100
AcDbMText
 10
66492.78054330994
 20
58671.23897854939
 30
0.0
 40
10.5
 41
0.0
 71
     9
 72
     5
  1

1001
ACAD
1000
MTEXTBEGIN
1070
    73
1070
     1
1070
    44
1040
1.0
1070
    74
1070
     0
1000
MTEXTEND
  0
MTEXT
  5
5631
330
1A
100
AcDbEntity
  8
SUNPOU
100
AcDbMText
 10
52544.78044293396
 20
39498.83983943717
 30
0.0
 40
3.5
 41
0.0
 71
     7
 72
     5
  1

1001
ACAD
1000
MTEXTBEGIN
1070
    73
1070
     1
1070
    44
1040
1.0
1070
    74
1070
     0
1000
MTEXTEND
  0
MTEXT
  5
5632
330
1A
100
AcDbEntity
  8
SUNPOU
100
AcDbMText
 10
66237.13112570454
 20
48857.90306045851
 30
0.0
 40
10.5
 41
0.0
 71
     9
 72
     5
  1

1001
ACAD
1000
MTEXTBEGIN
1070
    73
1070
     1
1070
    44
1040
1.0
1070
    74
1070
     0
1000
MTEXTEND
  0
MTEXT
  5
5633
330
1A
100
AcDbEntity
  8
SUNPOU
100
AcDbMText
 10
74959.29869162252
 20
56273.737591996
 30
0.0
 40
10.5
 41
0.0
 71
     9
 72
     5
  1

1001
ACAD
1000
MTEXTBEGIN
1070
    73
1070
     1
1070
    44
1040
1.0
1070
    74
1070
     0
1000
MTEXTEND
  0
MTEXT
  5
5634
330
1A
100
AcDbEntity
  8
SUNPOU
100
AcDbMText
 10
93913.0574089525
 20
73740.31364448805
 30
0.0
 40
10.5
 41
0.0
 71
     9
 72
     5
  1

1001
ACAD
1000
MTEXTBEGIN
1070
    73
1070
     1
1070
    44
1040
1.0
1070
    74
1070
     0
1000
MTEXTEND
  0
MTEXT
  5
5635
330
1A
100
AcDbEntity
  8
SUNPOU
100
AcDbMText
 10
95856.46465566192
 20
71939.26456461004
 30
0.0
 40
3.5
 41
0.0
 71
     9
 72
     5
  1

1001
ACAD
1000
MTEXTBEGIN
1070
    73
1070
     1
1070
    44
1040
1.0
1070
    74
1070
     0
1000
MTEXTEND
  0
MTEXT
  5
5636
330
1A
100
AcDbEntity
  8
SUNPOU
100
AcDbMText
 10
126982.6444882816
 20
114434.2102322673
 30
0.0
 40
10.5
 41
0.0
 71
     9
 72
     5
  1

1001
ACAD
1000
MTEXTBEGIN
1070
    73
1070
     1
1070
    44
1040
1.0
1070
    74
1070
     0
1000
MTEXTEND
  0
MTEXT
  5
5637
330
1A
100
AcDbEntity
  8
SUNPOU
100
AcDbMText
 10
128926.051734991
 20
112633.1611523893
 30
0.0
 40
3.5
 41
0.0
 71
     9
 72
     5
  1

1001
ACAD
1000
MTEXTBEGIN
1070
    73
1070
     1
1070
    44
1040
1.0
1070
    74
1070
     0
1000
MTEXTEND
  0
MTEXT
  5
5638
330
1A
100
AcDbEntity
  8
SUNPOU
100
AcDbMText
 10
77422.91219407717
 20
60267.37538724244
 30
0.0
 40
10.5
 41
0.0
 71
     9
 72
     5
  1

1001
ACAD
1000
MTEXTBEGIN
1070
    73
1070
     1
1070
    44
1040
1.0
1070
    74
1070
     0
1000
MTEXTEND
  0
MTEXT
  5
5639
330
1A
100
AcDbEntity
  8
SUNPOU
100
AcDbMText
 10
63474.91209370119
 20
41094.97624813023
 30
0.0
 40
3.5
 41
0.0
 71
     7
 72
     5
  1

1001
ACAD
1000
MTEXTBEGIN
1070
    73
1070
     1
1070
    44
1040
1.0
1070
    74
1070
     0
1000
MTEXTEND
  0
MTEXT
  5
563A
330
1A
100
AcDbEntity
  8
SUNPOU
100
AcDbMText
 10
48117.65086229006
 20
40806.11043916631
 30
0.0
 40
10.5
 41
0.0
 71
     9
 72
     5
  1

1001
ACAD
1000
MTEXTBEGIN
1070
    73
1070
     1
1070
    44
1040
1.0
1070
    74
1070
     0
1000
MTEXTEND
  0
MTEXT
  5
563B
330
1A
100
AcDbEntity
  8
SUNPOU
100
AcDbMText
 10
67071.40957962004
 20
58272.68649165837
 30
0.0
 40
10.5
 41
0.0
 71
     9
 72
     5
  1

1001
ACAD
1000
MTEXTBEGIN
1070
    73
1070
     1
1070
    44
1040
1.0
1070
    74
1070
     0
1000
MTEXTEND
  0
MTEXT
  5
563C
330
1A
100
AcDbEntity
  8
SUNPOU
100
AcDbMText
 10
69014.81682632945
 20
56471.63741178035
 30
0.0
 40
3.5
 41
0.0
 71
     9
 72
     5
  1

1001
ACAD
1000
MTEXTBEGIN
1070
    73
1070
     1
1070
    44
1040
1.0
1070
    74
1070
     0
1000
MTEXTEND
  0
MTEXT
  5
563D
330
1A
100
AcDbEntity
  8
SUNPOU
100
AcDbMText
 10
100140.9966589491
 20
98966.58307943772
 30
0.0
 40
10.5
 41
0.0
 71
     9
 72
     5
  1

1001
ACAD
1000
MTEXTBEGIN
1070
    73
1070
     1
1070
    44
1040
1.0
1070
    74
1070
     0
1000
MTEXTEND
  0
MTEXT
  5
563E
330
1A
100
AcDbEntity
  8
SUNPOU
100
AcDbMText
 10
102084.4039056586
 20
97165.53399955969
 30
0.0
 40
3.5
 41
0.0
 71
     9
 72
     5
  1

1001
ACAD
1000
MTEXTBEGIN
1070
    73
1070
     1
1070
    44
1040
1.0
1070
    74
1070
     0
1000
MTEXTEND
  0
MTEXT
  5
563F
330
1A
100
AcDbEntity
  8
SUNPOU
100
AcDbMText
 10
50581.26436474472
 20
44799.74823441275
 30
0.0
 40
10.5
 41
0.0
 71
     9
 72
     5
  1

1001
ACAD
1000
MTEXTBEGIN
1070
    73
1070
     1
1070
    44
1040
1.0
1070
    74
1070
     0
1000
MTEXTEND
  0
MTEXT
  5
5640
330
1A
100
AcDbEntity
  8
SUNPOU
100
AcDbMText
 10
36633.26426436873
 20
25627.34909530054
 30
0.0
 40
3.5
 41
0.0
 71
     7
 72
     5
  1

1001
ACAD
1000
MTEXTBEGIN
1070
    73
1070
     1
1070
    44
1040
1.0
1070
    74
1070
     0
1000
MTEXTEND
  0
MTEXT
  5
5641
330
1A
100
AcDbEntity
  8
SUNPOU
100
AcDbMText
 10
61069.42493315968
 20
52574.61207825771
 30
0.0
 40
10.5
 41
0.0
 71
     9
 72
     5
  1

1001
ACAD
1000
MTEXTBEGIN
1070
    73
1070
     1
1070
    44
1040
1.0
1070
    74
1070
     0
1000
MTEXTEND
  0
MTEXT
  5
5642
330
1A
100
AcDbEntity
  8
SUNPOU
100
AcDbMText
 10
80023.18365048967
 20
70041.18813074978
 30
0.0
 40
10.5
 41
0.0
 71
     9
 72
     5
  1

1001
ACAD
1000
MTEXTBEGIN
1070
    73
1070
     1
1070
    44
1040
1.0
1070
    74
1070
     0
1000
MTEXTEND
  0
MTEXT
  5
5643
330
1A
100
AcDbEntity
  8
SUNPOU
100
AcDbMText
 10
81966.59089719908
 20
68240.13905087176
 30
0.0
 40
3.5
 41
0.0
 71
     9
 72
     5
  1

1001
ACAD
1000
MTEXTBEGIN
1070
    73
1070
     1
1070
    44
1040
1.0
1070
    74
1070
     0
1000
MTEXTEND
  0
MTEXT
  5
5644
330
1A
100
AcDbEntity
  8
SUNPOU
100
AcDbMText
 10
113092.7707298187
 20
110735.0847185291
 30
0.0
 40
10.5
 41
0.0
 71
     9
 72
     5
  1

1001
ACAD
1000
MTEXTBEGIN
1070
    73
1070
     1
1070
    44
1040
1.0
1070
    74
1070
     0
1000
MTEXTEND
  0
MTEXT
  5
5645
330
1A
100
AcDbEntity
  8
SUNPOU
100
AcDbMText
 10
115036.1779765282
 20
108934.0356386511
 30
0.0
 40
3.5
 41
0.0
 71
     9
 72
     5
  1

1001
ACAD
1000
MTEXTBEGIN
1070
    73
1070
     1
1070
    44
1040
1.0
1070
    74
1070
     0
1000
MTEXTEND
  0
MTEXT
  5
5646
330
1A
100
AcDbEntity
  8
SUNPOU
100
AcDbMText
 10
63533.03843561433
 20
56568.24987350415
 30
0.0
 40
10.5
 41
0.0
 71
     9
 72
     5
  1

1001
ACAD
1000
MTEXTBEGIN
1070
    73
1070
     1
1070
    44
1040
1.0
1070
    74
1070
     0
1000
MTEXTEND
  0
MTEXT
  5
5647
330
1A
100
AcDbEntity
  8
SUNPOU
100
AcDbMText
 10
49585.03833523835
 20
37395.85073439196
 30
0.0
 40
3.5
 41
0.0
 71
     7
 72
     5
  1

1001
ACAD
1000
MTEXTBEGIN
1070
    73
1070
     1
1070
    44
1040
1.0
1070
    74
1070
     0
1000
MTEXTEND
  0
MTEXT
  5
5648
330
1A
100
AcDbEntity
  8
SUNPOU
100
AcDbMText
 10
77137.31641337052
 20
70907.11375048141
 30
0.0
 40
10.5
 41
0.0
 71
     9
 72
     5
  1

1001
ACAD
1000
MTEXTBEGIN
1070
    73
1070
     1
1070
    44
1040
1.0
1070
    74
1070
     0
1000
MTEXTEND
  0
MTEXT
  5
5649
330
1A
100
AcDbEntity
  8
SUNPOU
100
AcDbMText
 10
79080.72366007995
 20
69106.06467060339
 30
0.0
 40
3.5
 41
0.0
 71
     9
 72
     5
  1

1001
ACAD
1000
MTEXTBEGIN
1070
    73
1070
     1
1070
    44
1040
1.0
1070
    74
1070
     0
1000
MTEXTEND
  0
MTEXT
  5
564A
330
1A
100
AcDbEntity
  8
SUNPOU
100
AcDbMText
 10
110206.9034926996
 20
111601.0103382607
 30
0.0
 40
10.5
 41
0.0
 71
     9
 72
     5
  1

1001
ACAD
1000
MTEXTBEGIN
1070
    73
1070
     1
1070
    44
1040
1.0
1070
    74
1070
     0
1000
MTEXTEND
  0
MTEXT
  5
564B
330
1A
100
AcDbEntity
  8
SUNPOU
100
AcDbMText
 10
112150.310739409
 20
109799.9612583827
 30
0.0
 40
3.5
 41
0.0
 71
     9
 72
     5
  1

1001
ACAD
1000
MTEXTBEGIN
1070
    73
1070
     1
1070
    44
1040
1.0
1070
    74
1070
     0
1000
MTEXTEND
  0
MTEXT
  5
564C
330
1A
100
AcDbEntity
  8
SUNPOU
100
AcDbMText
 10
108819.1333204968
 20
110677.9087286761
 30
0.0
 40
10.5
 41
0.0
 71
     9
 72
     5
  1

1001
ACAD
1000
MTEXTBEGIN
1070
    73
1070
     1
1070
    44
1040
1.0
1070
    74
1070
     0
1000
MTEXTEND
  0
MTEXT
  5
564D
330
1A
100
AcDbEntity
  8
SUNPOU
100
AcDbMText
 10
110762.5405672062
 20
108876.8596487981
 30
0.0
 40
3.5
 41
0.0
 71
     9
 72
     5
  1

1001
ACAD
1000
MTEXTBEGIN
1070
    73
1070
     1
1070
    44
1040
1.0
1070
    74
1070
     0
1000
MTEXTEND
  0
MTEXT
  5
564E
330
1A
100
AcDbEntity
  8
SUNPOU
100
AcDbMText
 10
76303.05507956816
 20
68695.31179059812
 30
0.0
 40
10.5
 41
0.0
 71
     9
 72
     5
  1

1001
ACAD
1000
MTEXTBEGIN
1070
    73
1070
     1
1070
    44
1040
1.0
1070
    74
1070
     0
1000
MTEXTEND
  0
MTEXT
  5
564F
330
1A
100
AcDbEntity
  8
SUNPOU
100
AcDbMText
 10
79026.36128373271
 20
69099.99348217918
 30
0.0
 40
3.5
 41
0.0
 71
     9
 72
     5
  1

1001
ACAD
1000
MTEXTBEGIN
1070
    73
1070
     1
1070
    44
1040
1.0
1070
    74
1070
     0
1000
MTEXTEND
  0
MTEXT
  5
5650
330
1A
100
AcDbEntity
  8
SUNPOU
100
AcDbMText
 10
78234.00675862522
 20
65938.68764412436
 30
0.0
 40
10.5
 41
0.0
 71
     9
 72
     5
  1

1001
ACAD
1000
MTEXTBEGIN
1070
    73
1070
     1
1070
    44
1040
1.0
1070
    74
1070
     0
1000
MTEXTEND
  0
MTEXT
  5
5651
330
1A
100
AcDbEntity
  8
SUNPOU
100
AcDbMText
 10
80177.41400533465
 20
64137.63856424636
 30
0.0
 40
3.5
 41
0.0
 71
     9
 72
     5
  1

1001
ACAD
1000
MTEXTBEGIN
1070
    73
1070
     1
1070
    44
1040
1.0
1070
    74
1070
     0
1000
MTEXTEND
  0
MTEXT
  5
5652
330
1A
100
AcDbEntity
  8
SUNPOU
100
AcDbMText
 10
80122.50949592123
 20
64024.86668196205
 30
0.0
 40
3.5
 41
0.0
 71
     9
 72
     5
  1

1001
ACAD
1000
MTEXTBEGIN
1070
    73
1070
     1
1070
    44
1040
1.0
1070
    74
1070
     0
1000
MTEXTEND
  0
MTEXT
  5
5653
330
1A
100
AcDbEntity
  8
SUNPOU
100
AcDbMText
 10
79486.58135950133
 20
63213.54544089553
 30
0.0
 40
3.5
 41
0.0
 71
     9
 72
     5
  1

1001
ACAD
1000
MTEXTBEGIN
1070
    73
1070
     1
1070
    44
1040
1.0
1070
    74
1070
     0
1000
MTEXTEND
  0
MTEXT
  5
5654
330
1A
100
AcDbEntity
  8
SUNPOU
100
AcDbMText
 10
79485.3409400806
 20
63213.29746395804
 30
0.0
 40
10.5
 41
0.0
 71
     9
 72
     5
  1

1001
ACAD
1000
MTEXTBEGIN
1070
    73
1070
     1
1070
    44
1040
1.0
1070
    74
1070
     0
1000
MTEXTEND
  0
MTEXT
  5
5655
330
1A
100
AcDbEntity
  8
SUNPOU
100
AcDbMText
 10
85473.63363627567
 20
80747.76348077064
 30
0.0
 40
10.5
 41
0.0
 71
     9
 72
     5
  1

1001
ACAD
1000
MTEXTBEGIN
1070
    73
1070
     1
1070
    44
1040
1.0
1070
    74
1070
     0
1000
MTEXTEND
  0
MTEXT
  5
5656
330
1A
100
AcDbEntity
  8
SUNPOU
100
AcDbMText
 10
94195.80120219368
 20
88163.59801230809
 30
0.0
 40
10.5
 41
0.0
 71
     9
 72
     5
  1

1001
ACAD
1000
MTEXTBEGIN
1070
    73
1070
     1
1070
    44
1040
1.0
1070
    74
1070
     0
1000
MTEXTEND
  0
MTEXT
  5
5657
330
1A
100
AcDbEntity
  8
SUNPOU
100
AcDbMText
 10
113149.5599195236
 20
105630.1740648001
 30
0.0
 40
10.5
 41
0.0
 71
     9
 72
     5
  1

1001
ACAD
1000
MTEXTBEGIN
1070
    73
1070
     1
1070
    44
1040
1.0
1070
    74
1070
     0
1000
MTEXTEND
  0
MTEXT
  5
5658
330
1A
100
AcDbEntity
  8
SUNPOU
100
AcDbMText
 10
115092.967166233
 20
103829.1249849221
 30
0.0
 40
3.5
 41
0.0
 71
     9
 72
     5
  1

1001
ACAD
1000
MTEXTBEGIN
1070
    73
1070
     1
1070
    44
1040
1.0
1070
    74
1070
     0
1000
MTEXTEND
  0
MTEXT
  5
5659
330
1A
100
AcDbEntity
  8
SUNPOU
100
AcDbMText
 10
146219.1469988527
 20
146324.0706525794
 30
0.0
 40
10.5
 41
0.0
 71
     9
 72
     5
  1

1001
ACAD
1000
MTEXTBEGIN
1070
    73
1070
     1
1070
    44
1040
1.0
1070
    74
1070
     0
1000
MTEXTEND
  0
MTEXT
  5
565A
330
1A
100
AcDbEntity
  8
SUNPOU
100
AcDbMText
 10
148162.5542455621
 20
144523.0215727014
 30
0.0
 40
3.5
 41
0.0
 71
     9
 72
     5
  1

1001
ACAD
1000
MTEXTBEGIN
1070
    73
1070
     1
1070
    44
1040
1.0
1070
    74
1070
     0
1000
MTEXTEND
  0
MTEXT
  5
565B
330
1A
100
AcDbEntity
  8
SUNPOU
100
AcDbMText
 10
96659.41470464833
 20
92157.23580755453
 30
0.0
 40
10.5
 41
0.0
 71
     9
 72
     5
  1

1001
ACAD
1000
MTEXTBEGIN
1070
    73
1070
     1
1070
    44
1040
1.0
1070
    74
1070
     0
1000
MTEXTEND
  0
MTEXT
  5
565C
330
1A
100
AcDbEntity
  8
SUNPOU
100
AcDbMText
 10
82711.41460427234
 20
72984.83666844234
 30
0.0
 40
3.5
 41
0.0
 71
     7
 72
     5
  1

1001
ACAD
1000
MTEXTBEGIN
1070
    73
1070
     1
1070
    44
1040
1.0
1070
    74
1070
     0
1000
MTEXTEND
  0
MTEXT
  5
565D
330
1A
100
AcDbEntity
  8
SUNPOU
100
AcDbMText
 10
63696.58400126548
 20
60746.98539926055
 30
0.0
 40
10.5
 41
0.0
 71
     7
 72
     5
  1

1001
ACAD
1000
MTEXTBEGIN
1070
    73
1070
     1
1070
    44
1040
1.0
1070
    74
1070
     0
1000
MTEXTEND
  0
MTEXT
  5
565E
330
1A
100
AcDbEntity
  8
SUNPOU
100
AcDbMText
 10
51239.35573631738
 20
44902.05382116213
 30
0.0
 40
35.0
 41
0.0
 71
     9
 72
     5
  1

1001
ACAD
1000
MTEXTBEGIN
1070
    73
1070
     1
1070
    44
1040
1.0
1070
    74
1070
     0
1000
MTEXTEND
  0
MTEXT
  5
565F
330
1A
100
AcDbEntity
  8
SUNPOU
100
AcDbMText
 10
50147.84079389233
 20
45510.82923121084
 30
0.0
 40
350.0000004171781
 41
0.0
 71
     7
 72
     5
  1

1001
ACAD
1000
MTEXTBEGIN
1070
    73
1070
     1
1070
    44
1040
1.0
1070
    74
1070
     0
1000
MTEXTEND
  0
MTEXT
  5
5660
330
1A
100
AcDbEntity
  8
0
100
AcDbMText
 10
56191.79155183523
 20
43490.75159334705
 30
0.0
 40
8.0
 41
0.0
 71
     7
 72
     5
  1

1001
ACAD
1000
MTEXTBEGIN
1070
    73
1070
     1
1070
    44
1040
1.0
1070
    74
1070
     0
1000
MTEXTEND
  0
MTEXT
  5
5661
330
1A
100
AcDbEntity
  8
0
100
AcDbMText
 10
58477.14924173013
 20
44461.54188809812
 30
0.0
 40
8.0
 41
0.0
 71
     7
 72
     5
  1

1001
ACAD
1000
MTEXTBEGIN
1070
    73
1070
     1
1070
    44
1040
1.0
1070
    74
1070
     0
1000
MTEXTEND
  0
MTEXT
  5
5662
330
1A
100
AcDbEntity
  8
SUNPOU
100
AcDbMText
 10
61143.04626241227
 20
53973.65328047324
 30
0.0
 40
10.5
 41
0.0
 71
     1
 72
     5
  1

1001
ACAD
1000
MTEXTBEGIN
1070
    73
1070
     1
1070
    44
1040
1.0
1070
    74
1070
     0
1000
MTEXTEND
  0
MTEXT
  5
5663
330
1A
100
AcDbEntity
  8
SUNPOU
100
AcDbMText
 10
53212.12306647634
 20
53026.86014656028
 30
0.0
 40
10.5
 41
0.0
 71
     7
 72
     5
  1

1001
ACAD
1000
MTEXTBEGIN
1070
    73
1070
     1
1070
    44
1040
1.0
1070
    74
1070
     0
1000
MTEXTEND
  0
MTEXT
  5
5664
330
1A
100
AcDbEntity
  8
SUNPOU
100
AcDbMText
 10
56161.1067309891
 20
57927.53621840312
 30
0.0
 40
10.5
 41
0.0
 71
     7
 72
     5
  1

1001
ACAD
1000
MTEXTBEGIN
1070
    73
1070
     1
1070
    44
1040
1.0
1070
    74
1070
     0
1000
MTEXTEND
  0
MTEXT
  5
5665
330
1A
100
AcDbEntity
  8
SUNPOU
100
AcDbMText
 10
60670.18485893966
 20
60363.8369660232
 30
0.0
 40
10.5
 41
0.0
 71
     7
 72
     5
  1

1001
ACAD
1000
MTEXTBEGIN
1070
    73
1070
     1
1070
    44
1040
1.0
1070
    74
1070
     0
1000
MTEXTEND
  0
MTEXT
  5
5666
330
1A
100
AcDbEntity
  8
SUNPOU
100
AcDbMText
 10
44271.02274570799
 20
39361.43311641212
 30
0.0
 40
10.5
 41
0.0
 71
     7
 72
     5
  1

1001
ACAD
1000
MTEXTBEGIN
1070
    73
1070
     1
1070
    44
1040
1.0
1070
    74
1070
     0
1000
MTEXTEND
  0
MTEXT
  5
5667
330
1A
100
AcDbEntity
  8
SUNPOU
100
AcDbMText
 10
95462.54117960824
 20
85034.41368006038
 30
0.0
 40
10.5
 41
0.0
 71
     9
 72
     5
  1

1001
ACAD
1000
MTEXTBEGIN
1070
    73
1070
     1
1070
    44
1040
1.0
1070
    74
1070
     0
1000
MTEXTEND
  0
MTEXT
  5
5668
330
1A
100
AcDbEntity
  8
SUNPOU
100
AcDbMText
 10
104184.7087455262
 20
92450.24821159784
 30
0.0
 40
10.5
 41
0.0
 71
     9
 72
     5
  1

1001
ACAD
1000
MTEXTBEGIN
1070
    73
1070
     1
1070
    44
1040
1.0
1070
    74
1070
     0
1000
MTEXTEND
  0
MTEXT
  5
5669
330
1A
100
AcDbEntity
  8
SUNPOU
100
AcDbMText
 10
123138.4674628562
 20
109916.8242640898
 30
0.0
 40
10.5
 41
0.0
 71
     9
 72
     5
  1

1001
ACAD
1000
MTEXTBEGIN
1070
    73
1070
     1
1070
    44
1040
1.0
1070
    74
1070
     0
1000
MTEXTEND
  0
MTEXT
  5
566A
330
1A
100
AcDbEntity
  8
SUNPOU
100
AcDbMText
 10
125081.8747095656
 20
108115.7751842118
 30
0.0
 40
3.5
 41
0.0
 71
     9
 72
     5
  1

1001
ACAD
1000
MTEXTBEGIN
1070
    73
1070
     1
1070
    44
1040
1.0
1070
    74
1070
     0
1000
MTEXTEND
  0
MTEXT
  5
566B
330
1A
100
AcDbEntity
  8
SUNPOU
100
AcDbMText
 10
156208.0545421853
 20
150610.7208518691
 30
0.0
 40
10.5
 41
0.0
 71
     9
 72
     5
  1

1001
ACAD
1000
MTEXTBEGIN
1070
    73
1070
     1
1070
    44
1040
1.0
1070
    74
1070
     0
1000
MTEXTEND
  0
MTEXT
  5
566C
330
1A
100
AcDbEntity
  8
SUNPOU
100
AcDbMText
 10
158151.4617888947
 20
148809.6717719911
 30
0.0
 40
3.5
 41
0.0
 71
     9
 72
     5
  1

1001
ACAD
1000
MTEXTBEGIN
1070
    73
1070
     1
1070
    44
1040
1.0
1070
    74
1070
     0
1000
MTEXTEND
  0
MTEXT
  5
566D
330
1A
100
AcDbEntity
  8
SUNPOU
100
AcDbMText
 10
106648.3222479809
 20
96443.88600684427
 30
0.0
 40
10.5
 41
0.0
 71
     9
 72
     5
  1

1001
ACAD
1000
MTEXTBEGIN
1070
    73
1070
     1
1070
    44
1040
1.0
1070
    74
1070
     0
1000
MTEXTEND
  0
MTEXT
  5
566E
330
1A
100
AcDbEntity
  8
SUNPOU
100
AcDbMText
 10
92700.3221476049
 20
77271.48686773207
 30
0.0
 40
3.5
 41
0.0
 71
     7
 72
     5
  1

1001
ACAD
1000
MTEXTBEGIN
1070
    73
1070
     1
1070
    44
1040
1.0
1070
    74
1070
     0
1000
MTEXTEND
  0
MTEXT
  5
566F
330
1A
100
AcDbEntity
  8
SUNPOU
100
AcDbMText
 10
73685.49154459806
 20
65033.63559855027
 30
0.0
 40
10.5
 41
0.0
 71
     7
 72
     5
  1

1001
ACAD
1000
MTEXTBEGIN
1070
    73
1070
     1
1070
    44
1040
1.0
1070
    74
1070
     0
1000
MTEXTEND
  0
MTEXT
  5
5670
330
1A
100
AcDbEntity
  8
SUNPOU
100
AcDbMText
 10
61228.26327964995
 20
49188.70402045185
 30
0.0
 40
35.0
 41
0.0
 71
     9
 72
     5
  1

1001
ACAD
1000
MTEXTBEGIN
1070
    73
1070
     1
1070
    44
1040
1.0
1070
    74
1070
     0
1000
MTEXTEND
  0
MTEXT
  5
5671
330
1A
100
AcDbEntity
  8
SUNPOU
100
AcDbMText
 10
60136.74833722491
 20
49797.47943050056
 30
0.0
 40
350.0000004171781
 41
0.0
 71
     7
 72
     5
  1

1001
ACAD
1000
MTEXTBEGIN
1070
    73
1070
     1
1070
    44
1040
1.0
1070
    74
1070
     0
1000
MTEXTEND
  0
MTEXT
  5
5672
330
1A
100
AcDbEntity
  8
0
100
AcDbMText
 10
66180.69909516782
 20
47777.40179263678
 30
0.0
 40
8.0
 41
0.0
 71
     7
 72
     5
  1

1001
ACAD
1000
MTEXTBEGIN
1070
    73
1070
     1
1070
    44
1040
1.0
1070
    74
1070
     0
1000
MTEXTEND
  0
MTEXT
  5
5673
330
1A
100
AcDbEntity
  8
0
100
AcDbMText
 10
68466.05678506271
 20
48748.19208738784
 30
0.0
 40
8.0
 41
0.0
 71
     7
 72
     5
  1

1001
ACAD
1000
MTEXTBEGIN
1070
    73
1070
     1
1070
    44
1040
1.0
1070
    74
1070
     0
1000
MTEXTEND
  0
MTEXT
  5
5674
330
1A
100
AcDbEntity
  8
SUNPOU
100
AcDbMText
 10
71131.95380574485
 20
58260.30347976296
 30
0.0
 40
10.5
 41
0.0
 71
     1
 72
     5
  1

1001
ACAD
1000
MTEXTBEGIN
1070
    73
1070
     1
1070
    44
1040
1.0
1070
    74
1070
     0
1000
MTEXTEND
  0
MTEXT
  5
5675
330
1A
100
AcDbEntity
  8
SUNPOU
100
AcDbMText
 10
63201.03060980891
 20
57313.51034585002
 30
0.0
 40
10.5
 41
0.0
 71
     7
 72
     5
  1

1001
ACAD
1000
MTEXTBEGIN
1070
    73
1070
     1
1070
    44
1040
1.0
1070
    74
1070
     0
1000
MTEXTEND
  0
MTEXT
  5
5676
330
1A
100
AcDbEntity
  8
SUNPOU
100
AcDbMText
 10
66150.01427432169
 20
62214.18641769286
 30
0.0
 40
10.5
 41
0.0
 71
     7
 72
     5
  1

1001
ACAD
1000
MTEXTBEGIN
1070
    73
1070
     1
1070
    44
1040
1.0
1070
    74
1070
     0
1000
MTEXTEND
  0
MTEXT
  5
5677
330
1A
100
AcDbEntity
  8
SUNPOU
100
AcDbMText
 10
70659.09240227225
 20
64650.48716531294
 30
0.0
 40
10.5
 41
0.0
 71
     7
 72
     5
  1

1001
ACAD
1000
MTEXTBEGIN
1070
    73
1070
     1
1070
    44
1040
1.0
1070
    74
1070
     0
1000
MTEXTEND
  0
MTEXT
  5
5678
330
1A
100
AcDbEntity
  8
SUNPOU
100
AcDbMText
 10
54259.93028904056
 20
43648.08331570185
 30
0.0
 40
10.5
 41
0.0
 71
     7
 72
     5
  1

1001
ACAD
1000
MTEXTBEGIN
1070
    73
1070
     1
1070
    44
1040
1.0
1070
    74
1070
     0
1000
MTEXTEND
  0
MTEXT
  5
5679
330
1A
100
AcDbEntity
  8
SUNPOU
100
AcDbMText
 10
56070.69320041551
 20
49975.4973031804
 30
0.0
 40
10.5
 41
0.0
 71
     9
 72
     5
  1

1001
ACAD
1000
MTEXTBEGIN
1070
    73
1070
     1
1070
    44
1040
1.0
1070
    74
1070
     0
1000
MTEXTEND
  0
MTEXT
  5
567A
330
1A
100
AcDbEntity
  8
SUNPOU
100
AcDbMText
 10
64792.86076633348
 20
57391.33183471788
 30
0.0
 40
10.5
 41
0.0
 71
     9
 72
     5
  1

1001
ACAD
1000
MTEXTBEGIN
1070
    73
1070
     1
1070
    44
1040
1.0
1070
    74
1070
     0
1000
MTEXTEND
  0
MTEXT
  5
567B
330
1A
100
AcDbEntity
  8
SUNPOU
100
AcDbMText
 10
83746.61948366345
 20
74857.90788720994
 30
0.0
 40
10.5
 41
0.0
 71
     9
 72
     5
  1

1001
ACAD
1000
MTEXTBEGIN
1070
    73
1070
     1
1070
    44
1040
1.0
1070
    74
1070
     0
1000
MTEXTEND
  0
MTEXT
  5
567C
330
1A
100
AcDbEntity
  8
SUNPOU
100
AcDbMText
 10
85690.02673037287
 20
73056.85880733192
 30
0.0
 40
3.5
 41
0.0
 71
     9
 72
     5
  1

1001
ACAD
1000
MTEXTBEGIN
1070
    73
1070
     1
1070
    44
1040
1.0
1070
    74
1070
     0
1000
MTEXTEND
  0
MTEXT
  5
567D
330
1A
100
AcDbEntity
  8
SUNPOU
100
AcDbMText
 10
116816.2065629925
 20
115551.8044749892
 30
0.0
 40
10.5
 41
0.0
 71
     9
 72
     5
  1

1001
ACAD
1000
MTEXTBEGIN
1070
    73
1070
     1
1070
    44
1040
1.0
1070
    74
1070
     0
1000
MTEXTEND
  0
MTEXT
  5
567E
330
1A
100
AcDbEntity
  8
SUNPOU
100
AcDbMText
 10
118759.613809702
 20
113750.7553951112
 30
0.0
 40
3.5
 41
0.0
 71
     9
 72
     5
  1

1001
ACAD
1000
MTEXTBEGIN
1070
    73
1070
     1
1070
    44
1040
1.0
1070
    74
1070
     0
1000
MTEXTEND
  0
MTEXT
  5
567F
330
1A
100
AcDbEntity
  8
SUNPOU
100
AcDbMText
 10
67256.47426878814
 20
61384.96962996432
 30
0.0
 40
10.5
 41
0.0
 71
     9
 72
     5
  1

1001
ACAD
1000
MTEXTBEGIN
1070
    73
1070
     1
1070
    44
1040
1.0
1070
    74
1070
     0
1000
MTEXTEND
  0
MTEXT
  5
5680
330
1A
100
AcDbEntity
  8
SUNPOU
100
AcDbMText
 10
53308.47416841216
 20
42212.57049085211
 30
0.0
 40
3.5
 41
0.0
 71
     7
 72
     5
  1

1001
ACAD
1000
MTEXTBEGIN
1070
    73
1070
     1
1070
    44
1040
1.0
1070
    74
1070
     0
1000
MTEXTEND
  0
MTEXT
  5
5681
330
1A
100
AcDbEntity
  8
SUNPOU
100
AcDbMText
 10
67000.82485118274
 20
51571.63371187345
 30
0.0
 40
10.5
 41
0.0
 71
     9
 72
     5
  1

1001
ACAD
1000
MTEXTBEGIN
1070
    73
1070
     1
1070
    44
1040
1.0
1070
    74
1070
     0
1000
MTEXTEND
  0
MTEXT
  5
5682
330
1A
100
AcDbEntity
  8
SUNPOU
100
AcDbMText
 10
75722.99241710071
 20
58987.46824341094
 30
0.0
 40
10.5
 41
0.0
 71
     9
 72
     5
  1

1001
ACAD
1000
MTEXTBEGIN
1070
    73
1070
     1
1070
    44
1040
1.0
1070
    74
1070
     0
1000
MTEXTEND
  0
MTEXT
  5
5683
330
1A
100
AcDbEntity
  8
SUNPOU
100
AcDbMText
 10
94676.75113443068
 20
76454.04429590299
 30
0.0
 40
10.5
 41
0.0
 71
     9
 72
     5
  1

1001
ACAD
1000
MTEXTBEGIN
1070
    73
1070
     1
1070
    44
1040
1.0
1070
    74
1070
     0
1000
MTEXTEND
  0
MTEXT
  5
5684
330
1A
100
AcDbEntity
  8
SUNPOU
100
AcDbMText
 10
96620.1583811401
 20
74652.99521602498
 30
0.0
 40
3.5
 41
0.0
 71
     9
 72
     5
  1

1001
ACAD
1000
MTEXTBEGIN
1070
    73
1070
     1
1070
    44
1040
1.0
1070
    74
1070
     0
1000
MTEXTEND
  0
MTEXT
  5
5685
330
1A
100
AcDbEntity
  8
SUNPOU
100
AcDbMText
 10
127746.3382137598
 20
117147.9408836823
 30
0.0
 40
10.5
 41
0.0
 71
     9
 72
     5
  1

1001
ACAD
1000
MTEXTBEGIN
1070
    73
1070
     1
1070
    44
1040
1.0
1070
    74
1070
     0
1000
MTEXTEND
  0
MTEXT
  5
5686
330
1A
100
AcDbEntity
  8
SUNPOU
100
AcDbMText
 10
129689.7454604692
 20
115346.8918038043
 30
0.0
 40
3.5
 41
0.0
 71
     9
 72
     5
  1

1001
ACAD
1000
MTEXTBEGIN
1070
    73
1070
     1
1070
    44
1040
1.0
1070
    74
1070
     0
1000
MTEXTEND
  0
MTEXT
  5
5687
330
1A
100
AcDbEntity
  8
SUNPOU
100
AcDbMText
 10
78186.60591955537
 20
62981.10603865738
 30
0.0
 40
10.5
 41
0.0
 71
     9
 72
     5
  1

1001
ACAD
1000
MTEXTBEGIN
1070
    73
1070
     1
1070
    44
1040
1.0
1070
    74
1070
     0
1000
MTEXTEND
  0
MTEXT
  5
5688
330
1A
100
AcDbEntity
  8
SUNPOU
100
AcDbMText
 10
64238.60581917939
 20
43808.70689954517
 30
0.0
 40
3.5
 41
0.0
 71
     7
 72
     5
  1

1001
ACAD
1000
MTEXTBEGIN
1070
    73
1070
     1
1070
    44
1040
1.0
1070
    74
1070
     0
1000
MTEXTEND
  0
MTEXT
  5
5689
330
1A
100
AcDbEntity
  8
SUNPOU
100
AcDbMText
 10
33428.13481137435
 20
32770.04710035564
 30
0.0
 40
10.5
 41
0.0
 71
     9
 72
     5
  1

1001
ACAD
1000
MTEXTBEGIN
1070
    73
1070
     1
1070
    44
1040
1.0
1070
    74
1070
     0
1000
MTEXTEND
  0
MTEXT
  5
568A
330
1A
100
AcDbEntity
  8
SUNPOU
100
AcDbMText
 10
52381.89352870432
 20
50236.62315284769
 30
0.0
 40
10.5
 41
0.0
 71
     9
 72
     5
  1

1001
ACAD
1000
MTEXTBEGIN
1070
    73
1070
     1
1070
    44
1040
1.0
1070
    74
1070
     0
1000
MTEXTEND
  0
MTEXT
  5
568B
330
1A
100
AcDbEntity
  8
SUNPOU
100
AcDbMText
 10
54325.30077541374
 20
48435.57407296968
 30
0.0
 40
3.5
 41
0.0
 71
     9
 72
     5
  1

1001
ACAD
1000
MTEXTBEGIN
1070
    73
1070
     1
1070
    44
1040
1.0
1070
    74
1070
     0
1000
MTEXTEND
  0
MTEXT
  5
568C
330
1A
100
AcDbEntity
  8
SUNPOU
100
AcDbMText
 10
85451.48060803343
 20
90930.51974062703
 30
0.0
 40
10.5
 41
0.0
 71
     9
 72
     5
  1

1001
ACAD
1000
MTEXTBEGIN
1070
    73
1070
     1
1070
    44
1040
1.0
1070
    74
1070
     0
1000
MTEXTEND
  0
MTEXT
  5
568D
330
1A
100
AcDbEntity
  8
SUNPOU
100
AcDbMText
 10
87394.88785474286
 20
89129.47066074901
 30
0.0
 40
3.5
 41
0.0
 71
     9
 72
     5
  1

1001
ACAD
1000
MTEXTBEGIN
1070
    73
1070
     1
1070
    44
1040
1.0
1070
    74
1070
     0
1000
MTEXTEND
  0
MTEXT
  5
568E
330
1A
100
AcDbEntity
  8
SUNPOU
100
AcDbMText
 10
35891.74831382901
 20
36763.68489560208
 30
0.0
 40
10.5
 41
0.0
 71
     9
 72
     5
  1

1001
ACAD
1000
MTEXTBEGIN
1070
    73
1070
     1
1070
    44
1040
1.0
1070
    74
1070
     0
1000
MTEXTEND
  0
MTEXT
  5
568F
330
1A
100
AcDbEntity
  8
SUNPOU
100
AcDbMText
 10
21943.74821345303
 20
17591.28575648986
 30
0.0
 40
3.5
 41
0.0
 71
     7
 72
     5
  1

1001
ACAD
1000
MTEXTBEGIN
1070
    73
1070
     1
1070
    44
1040
1.0
1070
    74
1070
     0
1000
MTEXTEND
  0
MTEXT
  5
12467
330
1A
100
AcDbEntity
  8
ZISSEN1
100
AcDbMText
 10
-1558.443948471706
 20
1857.115119592251
 30
0.0
 40
5.0
 41
101.4373278210342
 71
     1
 72
     5
  1
GD-5510E-01　No.SS0001f54r1
  7
ゴシック体
1001
ACAD
1000
MTEXTBEGIN
1070
    73
1070
     1
1070
    44
1040
1.0
1070
    74
1070
     0
1000
MTEXTEND
  0
ARC
  5
12544
330
1A
100
AcDbEntity
  8
ZISSEN1
100
AcDbCircle
 10
-1592.528256124999
 20
1892.790602632627
 30
0.0
 40
1.0
100
AcDbArc
 50
0.0
 51
90.0
  0
LINE
  5
12545
330
1A
100
AcDbEntity
  8
ZISSEN1
100
AcDbLine
 10
-1593.028256124999
 20
1835.790562632627
 30
0.0
 11
-1591.528246124999
 21
1835.790562632627
 31
0.0
  0
LINE
  5
12546
330
1A
100
AcDbEntity
  8
ZISSEN1
100
AcDbLine
 10
-1591.528246124999
 20
1684.790560632627
 30
0.0
 11
-1708.528247124999
 21
1684.790560632627
 31
0.0
  0
LINE
  5
12547
330
1A
100
AcDbEntity
  8
ZISSEN1
100
AcDbLine
 10
-1591.528246124999
 20
1804.790572632627
 30
0.0
 11
-1708.528247124999
 21
1804.790572632627
 31
0.0
  0
LINE
  5
12548
330
1A
100
AcDbEntity
  8
ZISSEN1
100
AcDbLine
 10
-1701.528266124999
 20
1684.790573632627
 30
0.0
 11
-1591.528246124999
 21
1684.790573632627
 31
0.0
  0
LINE
  5
12549
330
1A
100
AcDbEntity
  8
ZISSEN1
100
AcDbLine
 10
-1708.528247124999
 20
1674.790577632627
 30
0.0
 11
-1708.528247124999
 21
1814.790562632627
 31
0.0
  0
LINE
  5
1254A
330
1A
100
AcDbEntity
  8
ZISSEN1
100
AcDbLine
 10
-1711.528245124999
 20
1674.790577632627
 30
0.0
 11
-1711.528245124999
 21
1814.790562632627
 31
0.0
  0
CIRCLE
  5
1254B
330
1A
100
AcDbEntity
  8
ZISSEN1
100
AcDbCircle
 10
-1685.028246124999
 20
1718.290559632627
 30
0.0
 40
3.1500001
  0
LINE
  5
1254C
330
1A
100
AcDbEntity
  8
CL1
100
AcDbLine
 10
-1705.528250124999
 20
1679.790581632627
 30
0.0
 11
-1714.528255124999
 21
1679.790581632627
 31
0.0
  0
LINE
  5
1254D
330
1A
100
AcDbEntity
  8
ZISSEN1
100
AcDbLine
 10
-1708.528247124999
 20
1675.497686632627
 30
0.0
 11
-1711.528245124999
 21
1675.497686632627
 31
0.0
  0
LINE
  5
1254E
330
1A
100
AcDbEntity
  8
ZISSEN1
100
AcDbLine
 10
-1708.528247124999
 20
1674.790577632627
 30
0.0
 11
-1711.528245124999
 21
1674.790577632627
 31
0.0
  0
LINE
  5
1254F
330
1A
100
AcDbEntity
  8
ZISSEN1
100
AcDbLine
 10
-1708.528247124999
 20
1684.790573632627
 30
0.0
 11
-1708.528247124999
 21
1684.790560632627
 31
0.0
  0
LINE
  5
12550
330
1A
100
AcDbEntity
  8
ZISSEN1
100
AcDbLine
 10
-1593.528256124999
 20
1889.290612632627
 30
0.0
 11
-1593.528256124999
 21
1837.290562632627
 31
0.0
  0
LINE
  5
12551
330
1A
100
AcDbEntity
  8
ZISSEN1
100
AcDbLine
 10
-1593.028256124999
 20
1837.290562632627
 30
0.0
 11
-1593.028256124999
 21
1892.290572632627
 31
0.0
  0
LINE
  5
12552
330
1A
100
AcDbEntity
  8
ZISSEN1
100
AcDbLine
 10
-1711.528245124999
 20
1891.583462632627
 30
0.0
 11
-1711.528245124999
 21
1835.790562632627
 31
0.0
  0
LINE
  5
12553
330
1A
100
AcDbEntity
  8
ZISSEN1
100
AcDbLine
 10
-1708.528247124999
 20
1835.790562632627
 30
0.0
 11
-1708.528247124999
 21
1889.290612632627
 31
0.0
  0
LINE
  5
12554
330
1A
100
AcDbEntity
  8
ZISSEN1
100
AcDbLine
 10
-1700.528266124999
 20
1835.790562632627
 30
0.0
 11
-1593.028256124999
 21
1835.790562632627
 31
0.0
  0
LINE
  5
12555
330
1A
100
AcDbEntity
  8
CL1
100
AcDbLine
 10
-1705.528262124999
 20
1809.790582632627
 30
0.0
 11
-1714.528255124999
 21
1809.790582632627
 31
0.0
  0
LINE
  5
12556
330
1A
100
AcDbEntity
  8
ZISSEN1
100
AcDbLine
 10
-1701.528266124999
 20
1804.790592632627
 30
0.0
 11
-1698.528256124999
 21
1804.790592632627
 31
0.0
  0
LINE
  5
12557
330
1A
100
AcDbEntity
  8
ZISSEN1
100
AcDbLine
 10
-1700.528266124999
 20
1835.790562632627
 30
0.0
 11
-1711.528245124999
 21
1835.790562632627
 31
0.0
  0
LINE
  5
12558
330
1A
100
AcDbEntity
  8
ZISSEN1
100
AcDbLine
 10
-1708.528247124999
 20
1814.083492632627
 30
0.0
 11
-1711.528245124999
 21
1814.083492632627
 31
0.0
  0
LINE
  5
12559
330
1A
100
AcDbEntity
  8
ZISSEN1
100
AcDbLine
 10
-1708.528247124999
 20
1814.790562632627
 30
0.0
 11
-1711.528245124999
 21
1814.790562632627
 31
0.0
  0
LINE
  5
1255A
330
1A
100
AcDbEntity
  8
CL1
100
AcDbLine
 10
-1705.528250124999
 20
1854.790572632627
 30
0.0
 11
-1714.528242124999
 21
1854.790572632627
 31
0.0
  0
LINE
  5
1255B
330
1A
100
AcDbEntity
  8
ZISSEN1
100
AcDbLine
 10
-1708.528247124999
 20
1842.290552632627
 30
0.0
 11
-1711.528245124999
 21
1842.290552632627
 31
0.0
  0
LINE
  5
1255C
330
1A
100
AcDbEntity
  8
ZISSEN1
100
AcDbLine
 10
-1708.528247124999
 20
1845.790562632627
 30
0.0
 11
-1711.528245124999
 21
1845.790562632627
 31
0.0
  0
LINE
  5
1255D
330
1A
100
AcDbEntity
  8
ZISSEN1
100
AcDbLine
 10
-1708.528247124999
 20
1852.540572632627
 30
0.0
 11
-1711.528245124999
 21
1852.540572632627
 31
0.0
  0
LINE
  5
1255E
330
1A
100
AcDbEntity
  8
ZISSEN1
100
AcDbLine
 10
-1708.528247124999
 20
1857.040562632627
 30
0.0
 11
-1711.528245124999
 21
1857.040562632627
 31
0.0
  0
ARC
  5
1255F
330
1A
100
AcDbEntity
  8
ZISSEN1
100
AcDbCircle
 10
-1682.878256124999
 20
1833.790552632627
 30
0.0
 40
1.0
100
AcDbArc
 50
270.0
 51
0.0
  0
LINE
  5
12560
330
1A
100
AcDbEntity
  8
ZISSEN1
100
AcDbLine
 10
-1682.878256124999
 20
1832.790552632627
 30
0.0
 11
-1687.178236124999
 21
1832.790552632627
 31
0.0
  0
ARC
  5
12561
330
1A
100
AcDbEntity
  8
ZISSEN1
100
AcDbCircle
 10
-1687.178236124999
 20
1833.790552632627
 30
0.0
 40
1.0
100
AcDbArc
 50
180.0
 51
270.0
  0
LINE
  5
12562
330
1A
100
AcDbEntity
  8
ZISSEN1
100
AcDbLine
 10
-1688.178246124999
 20
1835.790562632627
 30
0.0
 11
-1688.178246124999
 21
1833.790552632627
 31
0.0
  0
LINE
  5
12563
330
1A
100
AcDbEntity
  8
ZISSEN1
100
AcDbLine
 10
-1681.878256124999
 20
1835.790562632627
 30
0.0
 11
-1681.878256124999
 21
1833.790552632627
 31
0.0
  0
LINE
  5
12564
330
1A
100
AcDbEntity
  8
ZISSEN1
100
AcDbLine
 10
-1593.528256124999
 20
1837.290562632627
 30
0.0
 11
-1593.028256124999
 21
1837.290562632627
 31
0.0
  0
ARC
  5
12565
330
1A
100
AcDbEntity
  8
ZISSEN1
100
AcDbCircle
 10
-1657.378246124999
 20
1893.290572632627
 30
0.0
 40
1.0
100
AcDbArc
 50
0.0
 51
90.0
  0
LINE
  5
12566
330
1A
100
AcDbEntity
  8
ZISSEN1
100
AcDbLine
 10
-1700.528266124999
 20
1892.290572632627
 30
0.0
 11
-1593.028256124999
 21
1892.290572632627
 31
0.0
  0
LINE
  5
12567
330
1A
100
AcDbEntity
  8
ZISSEN1
100
AcDbLine
 10
-1698.528256124999
 20
1889.290612632627
 30
0.0
 11
-1593.528256124999
 21
1889.290612632627
 31
0.0
  0
LINE
  5
12568
330
1A
100
AcDbEntity
  8
ZISSEN1
100
AcDbLine
 10
-1710.821136124999
 20
1892.290572632627
 30
0.0
 11
-1700.528266124999
 21
1892.290572632627
 31
0.0
  0
LINE
  5
12569
330
1A
100
AcDbEntity
  8
ZISSEN1
100
AcDbLine
 10
-1698.528256124999
 20
1889.290612632627
 30
0.0
 11
-1708.528247124999
 21
1889.290612632627
 31
0.0
  0
LINE
  5
1256A
330
1A
100
AcDbEntity
  8
ZISSEN1
100
AcDbLine
 10
-1708.528247124999
 20
1883.790572632627
 30
0.0
 11
-1711.528245124999
 21
1883.790572632627
 31
0.0
  0
LINE
  5
1256B
330
1A
100
AcDbEntity
  8
ZISSEN1
100
AcDbLine
 10
-1711.528245124999
 20
1891.583462632627
 30
0.0
 11
-1710.821136124999
 21
1892.290572632627
 31
0.0
  0
ARC
  5
1256C
330
1A
100
AcDbEntity
  8
ZISSEN1
100
AcDbCircle
 10
-1699.378256124999
 20
1893.290572632627
 30
0.0
 40
1.0
100
AcDbArc
 50
0.0
 51
90.0
  0
LINE
  5
1256D
330
1A
100
AcDbEntity
  8
ZISSEN1
100
AcDbLine
 10
-1699.378256124999
 20
1894.290582632627
 30
0.0
 11
-1703.678247124999
 21
1894.290582632627
 31
0.0
  0
ARC
  5
1256E
330
1A
100
AcDbEntity
  8
ZISSEN1
100
AcDbCircle
 10
-1703.678247124999
 20
1893.290572632627
 30
0.0
 40
1.0
100
AcDbArc
 50
90.0
 51
180.0
  0
LINE
  5
1256F
330
1A
100
AcDbEntity
  8
ZISSEN1
100
AcDbLine
 10
-1704.678251124999
 20
1893.290572632627
 30
0.0
 11
-1704.678251124999
 21
1892.290572632627
 31
0.0
  0
LINE
  5
12570
330
1A
100
AcDbEntity
  8
ZISSEN1
100
AcDbLine
 10
-1698.378256124999
 20
1893.290572632627
 30
0.0
 11
-1698.378256124999
 21
1892.290572632627
 31
0.0
  0
LINE
  5
12571
330
1A
100
AcDbEntity
  8
ZISSEN1
100
AcDbLine
 10
-1670.378256124999
 20
1894.290582632627
 30
0.0
 11
-1674.678246124999
 21
1894.290582632627
 31
0.0
  0
ARC
  5
12572
330
1A
100
AcDbEntity
  8
ZISSEN1
100
AcDbCircle
 10
-1674.678246124999
 20
1893.290572632627
 30
0.0
 40
1.0
100
AcDbArc
 50
90.0
 51
180.0
  0
LINE
  5
12573
330
1A
100
AcDbEntity
  8
ZISSEN1
100
AcDbLine
 10
-1675.678256124999
 20
1893.290572632627
 30
0.0
 11
-1675.678256124999
 21
1892.290572632627
 31
0.0
  0
ARC
  5
12574
330
1A
100
AcDbEntity
  8
ZISSEN1
100
AcDbCircle
 10
-1670.378256124999
 20
1893.290572632627
 30
0.0
 40
1.0
100
AcDbArc
 50
0.0
 51
90.0
  0
LINE
  5
12575
330
1A
100
AcDbEntity
  8
ZISSEN1
100
AcDbLine
 10
-1669.378246124999
 20
1893.290572632627
 30
0.0
 11
-1669.378246124999
 21
1892.290572632627
 31
0.0
  0
LINE
  5
12576
330
1A
100
AcDbEntity
  8
ZISSEN1
100
AcDbLine
 10
-1657.378246124999
 20
1894.290582632627
 30
0.0
 11
-1661.678256124999
 21
1894.290582632627
 31
0.0
  0
ARC
  5
12577
330
1A
100
AcDbEntity
  8
ZISSEN1
100
AcDbCircle
 10
-1661.678256124999
 20
1893.290572632627
 30
0.0
 40
1.0
100
AcDbArc
 50
90.0
 51
180.0
  0
LINE
  5
12578
330
1A
100
AcDbEntity
  8
ZISSEN1
100
AcDbLine
 10
-1662.678256124999
 20
1892.290572632627
 30
0.0
 11
-1662.678256124999
 21
1893.290572632627
 31
0.0
  0
LINE
  5
12579
330
1A
100
AcDbEntity
  8
ZISSEN1
100
AcDbLine
 10
-1656.378246124999
 20
1892.290572632627
 30
0.0
 11
-1656.378246124999
 21
1893.290572632627
 31
0.0
  0
LINE
  5
1257A
330
1A
100
AcDbEntity
  8
ZISSEN1
100
AcDbLine
 10
-1608.678256124999
 20
1894.290582632627
 30
0.0
 11
-1604.378246124999
 21
1894.290582632627
 31
0.0
  0
LINE
  5
1257B
102
{ACAD_REACTORS
330
12679
330
1267A
330
1267D
102
}
330
1A
100
AcDbEntity
  8
ZISSEN1
100
AcDbLine
 10
-1633.378245851448
 20
1894.293972194467
 30
0.0
 11
-1637.678255851448
 21
1894.293972194467
 31
0.0
  0
ARC
  5
1257C
102
{ACAD_REACTORS
330
12679
330
1267A
330
1267D
102
}
330
1A
100
AcDbEntity
  8
ZISSEN1
100
AcDbCircle
 10
-1637.678255851448
 20
1893.293962194467
 30
0.0
 40
1.0
100
AcDbArc
 50
90.0
 51
180.0
  0
LINE
  5
1257D
102
{ACAD_REACTORS
330
12679
330
1267A
330
1267D
102
}
330
1A
100
AcDbEntity
  8
ZISSEN1
100
AcDbLine
 10
-1638.678255851448
 20
1892.293962194467
 30
0.0
 11
-1638.678255851448
 21
1893.293962194467
 31
0.0
  0
ARC
  5
1257E
102
{ACAD_REACTORS
330
12679
330
1267A
330
1267D
102
}
330
1A
100
AcDbEntity
  8
ZISSEN1
100
AcDbCircle
 10
-1633.378245851448
 20
1893.293962194467
 30
0.0
 40
1.0
100
AcDbArc
 50
0.0
 51
90.0
  0
ARC
  5
1257F
330
1A
100
AcDbEntity
  8
ZISSEN1
100
AcDbCircle
 10
-1608.678256124999
 20
1893.290572632627
 30
0.0
 40
1.0
100
AcDbArc
 50
90.0
 51
180.0
  0
LINE
  5
12580
102
{ACAD_REACTORS
330
12679
330
1267A
330
1267D
102
}
330
1A
100
AcDbEntity
  8
ZISSEN1
100
AcDbLine
 10
-1632.378245851448
 20
1892.293962194467
 30
0.0
 11
-1632.378245851448
 21
1893.293962194467
 31
0.0
  0
LINE
  5
12581
330
1A
100
AcDbEntity
  8
ZISSEN1
100
AcDbLine
 10
-1609.678246124999
 20
1892.290572632627
 30
0.0
 11
-1609.678246124999
 21
1893.290572632627
 31
0.0
  0
ARC
  5
12582
330
1A
100
AcDbEntity
  8
ZISSEN1
100
AcDbCircle
 10
-1596.378246124999
 20
1894.790602632627
 30
0.0
 40
1.0
100
AcDbArc
 50
0.0
 51
90.0
  0
ARC
  5
12583
330
1A
100
AcDbEntity
  8
ZISSEN1
100
AcDbCircle
 10
-1600.678256124999
 20
1894.790602632627
 30
0.0
 40
1.0
100
AcDbArc
 50
90.0
 51
180.0
  0
LINE
  5
12584
330
1A
100
AcDbEntity
  8
ZISSEN1
100
AcDbLine
 10
-1600.678256124999
 20
1894.290582632627
 30
0.0
 11
-1596.378246124999
 21
1894.290582632627
 31
0.0
  0
ARC
  5
12585
330
1A
100
AcDbEntity
  8
ZISSEN1
100
AcDbCircle
 10
-1604.378246124999
 20
1893.290572632627
 30
0.0
 40
1.0
100
AcDbArc
 50
0.0
 51
90.0
  0
ARC
  5
12586
330
1A
100
AcDbEntity
  8
ZISSEN1
100
AcDbCircle
 10
-1600.678256124999
 20
1893.290572632627
 30
0.0
 40
1.0
100
AcDbArc
 50
90.0
 51
180.0
  0
LINE
  5
12587
330
1A
100
AcDbEntity
  8
ZISSEN1
100
AcDbLine
 10
-1601.678256124999
 20
1893.790602632627
 30
0.0
 11
-1601.678256124999
 21
1894.790602632627
 31
0.0
  0
LINE
  5
12588
330
1A
100
AcDbEntity
  8
ZISSEN1
100
AcDbLine
 10
-1601.678256124999
 20
1893.790602632627
 30
0.0
 11
-1603.378246124999
 21
1893.790602632627
 31
0.0
  0
LINE
  5
12589
330
1A
100
AcDbEntity
  8
ZISSEN1
100
AcDbLine
 10
-1603.378246124999
 20
1892.290572632627
 30
0.0
 11
-1603.378246124999
 21
1893.290572632627
 31
0.0
  0
LINE
  5
1258A
330
1A
100
AcDbEntity
  8
ZISSEN1
100
AcDbLine
 10
-1601.678256124999
 20
1892.290572632627
 30
0.0
 11
-1601.678256124999
 21
1893.290572632627
 31
0.0
  0
ARC
  5
1258B
330
1A
100
AcDbEntity
  8
ZISSEN1
100
AcDbCircle
 10
-1596.378246124999
 20
1893.290572632627
 30
0.0
 40
1.0
100
AcDbArc
 50
0.0
 51
90.0
  0
LINE
  5
1258C
330
1A
100
AcDbEntity
  8
ZISSEN1
100
AcDbLine
 10
-1593.528256124999
 20
1889.290612632627
 30
0.0
 11
-1593.028256124999
 21
1889.290612632627
 31
0.0
  0
LINE
  5
1258D
330
1A
100
AcDbEntity
  8
ZISSEN1
100
AcDbLine
 10
-1595.378236124999
 20
1893.790602632627
 30
0.0
 11
-1595.378236124999
 21
1894.790602632627
 31
0.0
  0
LINE
  5
1258E
330
1A
100
AcDbEntity
  8
ZISSEN1
100
AcDbLine
 10
-1592.528256124999
 20
1893.790602632627
 30
0.0
 11
-1595.378236124999
 21
1893.790602632627
 31
0.0
  0
LINE
  5
1258F
330
1A
100
AcDbEntity
  8
ZISSEN1
100
AcDbLine
 10
-1595.378236124999
 20
1892.290572632627
 30
0.0
 11
-1595.378236124999
 21
1893.290572632627
 31
0.0
  0
LINE
  5
12590
330
1A
100
AcDbEntity
  8
ZISSEN1
100
AcDbLine
 10
-1600.678256124999
 20
1895.790612632627
 30
0.0
 11
-1596.378246124999
 21
1895.790612632627
 31
0.0
  0
LINE
  5
12591
330
1A
100
AcDbEntity
  8
ZISSEN1
100
AcDbLine
 10
-1591.528246124999
 20
1684.790573632627
 30
0.0
 11
-1591.528246124999
 21
1804.790572632627
 31
0.0
  0
LINE
  5
12592
330
1A
100
AcDbEntity
  8
ZISSEN1
100
AcDbLine
 10
-1540.528226124999
 20
1804.790572632627
 30
0.0
 11
-1540.528226124999
 21
1684.790560632627
 31
0.0
  0
LINE
  5
12593
330
1A
100
AcDbEntity
  8
ZISSEN1
100
AcDbLine
 10
-1532.528226124999
 20
1790.290552632627
 30
0.0
 11
-1532.528226124999
 21
1756.290542632627
 31
0.0
  0
LINE
  5
12594
330
1A
100
AcDbEntity
  8
ZISSEN1
100
AcDbLine
 10
-1586.528236124999
 20
1757.090542632627
 30
0.0
 11
-1586.528236124999
 21
1789.490562632627
 31
0.0
  0
LINE
  5
12595
330
1A
100
AcDbEntity
  8
ZISSEN1
100
AcDbLine
 10
-1532.028226124999
 20
1757.090542632627
 30
0.0
 11
-1532.028226124999
 21
1789.490562632627
 31
0.0
  0
LINE
  5
12596
330
1A
100
AcDbEntity
  8
ZISSEN1
100
AcDbLine
 10
-1525.328226124999
 20
1757.090542632627
 30
0.0
 11
-1525.328226124999
 21
1789.490562632627
 31
0.0
  0
LINE
  5
12597
330
1A
100
AcDbEntity
  8
ZISSEN1
100
AcDbLine
 10
-1523.528226124999
 20
1756.290542632627
 30
0.0
 11
-1523.528226124999
 21
1790.290552632627
 31
0.0
  0
LINE
  5
12598
330
1A
100
AcDbEntity
  8
ZISSEN1
100
AcDbLine
 10
-1482.528236124999
 20
1783.790572632627
 30
0.0
 11
-1482.528236124999
 21
1684.790573632627
 31
0.0
  0
LINE
  5
12599
330
1A
100
AcDbEntity
  8
ZISSEN1
100
AcDbLine
 10
-1531.321114537967
 20
1674.788395639921
 30
0.0
 11
-1523.778254537967
 21
1674.788395639921
 31
0.0
  0
LINE
  5
1259A
330
1A
100
AcDbEntity
  8
ZISSEN1
100
AcDbLine
 10
-1482.528236124999
 20
1684.790573632627
 30
0.0
 11
-1540.528226124999
 21
1684.790573632627
 31
0.0
  0
LINE
  5
1259B
330
1A
100
AcDbEntity
  8
ZISSEN1
100
AcDbLine
 10
-1523.528226124999
 20
1756.290542632627
 30
0.0
 11
-1532.528226124999
 21
1756.290542632627
 31
0.0
  0
LINE
  5
1259C
330
1A
100
AcDbEntity
  8
ZISSEN1
100
AcDbLine
 10
-1525.328226124999
 20
1757.090542632627
 30
0.0
 11
-1532.028226124999
 21
1757.090542632627
 31
0.0
  0
LINE
  5
1259D
330
1A
100
AcDbEntity
  8
ZISSEN1
100
AcDbLine
 10
-1521.528216124999
 20
1724.290572632627
 30
0.0
 11
-1527.528236124999
 21
1724.290572632627
 31
0.0
  0
LINE
  5
1259E
330
1A
100
AcDbEntity
  8
ZISSEN1
100
AcDbLine
 10
-1527.528236124999
 20
1745.790572632627
 30
0.0
 11
-1521.528216124999
 21
1745.790572632627
 31
0.0
  0
LINE
  5
1259F
330
1A
100
AcDbEntity
  8
ZISSEN1
100
AcDbLine
 10
-1525.028206124999
 20
1699.290571632627
 30
0.0
 11
-1530.528226124999
 21
1699.290571632627
 31
0.0
  0
LINE
  5
125A0
330
1A
100
AcDbEntity
  8
ZISSEN1
100
AcDbLine
 10
-1530.528226124999
 20
1721.290582632627
 30
0.0
 11
-1525.028206124999
 21
1721.290582632627
 31
0.0
  0
ARC
  5
125A1
330
1A
100
AcDbEntity
  8
ZISSEN1
100
AcDbCircle
 10
-1542.528236124999
 20
1720.440572632627
 30
0.0
 40
1.0
100
AcDbArc
 50
90.0
 51
180.0
  0
LINE
  5
125A2
330
1A
100
AcDbEntity
  8
ZISSEN1
100
AcDbLine
 10
-1530.528226124999
 20
1699.290571632627
 30
0.0
 11
-1530.528226124999
 21
1721.290582632627
 31
0.0
  0
LINE
  5
125A3
330
1A
100
AcDbEntity
  8
ZISSEN1
100
AcDbLine
 10
-1577.028256124999
 20
1694.790581632627
 30
0.0
 11
-1577.028256124999
 21
1720.790572632627
 31
0.0
  0
LINE
  5
125A4
330
1A
100
AcDbEntity
  8
ZISSEN1
100
AcDbLine
 10
-1578.828256124999
 20
1694.790581632627
 30
0.0
 11
-1578.828256124999
 21
1720.790572632627
 31
0.0
  0
LINE
  5
125A5
330
1A
100
AcDbEntity
  8
ZISSEN1
100
AcDbLine
 10
-1577.028256124999
 20
1694.790581632627
 30
0.0
 11
-1591.528246124999
 21
1694.790581632627
 31
0.0
  0
LINE
  5
125A6
330
1A
100
AcDbEntity
  8
ZISSEN1
100
AcDbLine
 10
-1591.528246124999
 20
1720.790572632627
 30
0.0
 11
-1577.028256124999
 21
1720.790572632627
 31
0.0
  0
LINE
  5
125A7
330
1A
100
AcDbEntity
  8
ZISSEN1
100
AcDbLine
 10
-1532.028224537967
 20
1675.495504639921
 30
0.0
 11
-1532.028224537967
 21
1684.78839163992
 31
0.0
  0
LINE
  5
125A8
330
1A
100
AcDbEntity
  8
ZISSEN1
100
AcDbLine
 10
-1532.028224537967
 20
1675.495504639921
 30
0.0
 11
-1531.321114537967
 21
1674.788395639921
 31
0.0
  0
LINE
  5
125A9
330
1A
100
AcDbEntity
  8
ZISSEN1
100
AcDbLine
 10
-1542.528236124999
 20
1715.140576632627
 30
0.0
 11
-1540.528226124999
 21
1715.140576632627
 31
0.0
  0
ARC
  5
125AA
330
1A
100
AcDbEntity
  8
ZISSEN1
100
AcDbCircle
 10
-1542.528236124999
 20
1716.140579632627
 30
0.0
 40
1.0
100
AcDbArc
 50
180.0
 51
270.0
  0
LINE
  5
125AB
330
1A
100
AcDbEntity
  8
ZISSEN1
100
AcDbLine
 10
-1543.528236124999
 20
1716.140579632627
 30
0.0
 11
-1543.528236124999
 21
1720.440572632627
 31
0.0
  0
LINE
  5
125AC
330
1A
100
AcDbEntity
  8
ZISSEN1
100
AcDbLine
 10
-1578.828256124999
 20
1724.640582632627
 30
0.0
 11
-1578.828256124999
 21
1765.940562632627
 31
0.0
  0
LINE
  5
125AD
330
1A
100
AcDbEntity
  8
ZISSEN1
100
AcDbLine
 10
-1577.028256124999
 20
1724.640582632627
 30
0.0
 11
-1577.028256124999
 21
1765.940562632627
 31
0.0
  0
LINE
  5
125AE
330
1A
100
AcDbEntity
  8
ZISSEN1
100
AcDbLine
 10
-1591.528246124999
 20
1724.640582632627
 30
0.0
 11
-1577.028256124999
 21
1724.640582632627
 31
0.0
  0
LINE
  5
125AF
330
1A
100
AcDbEntity
  8
ZISSEN1
100
AcDbLine
 10
-1586.528236124999
 20
1765.940562632627
 30
0.0
 11
-1577.028256124999
 21
1765.940562632627
 31
0.0
  0
LINE
  5
125B0
330
1A
100
AcDbEntity
  8
ZISSEN1
100
AcDbLine
 10
-1586.528236124999
 20
1757.090542632627
 30
0.0
 11
-1591.528246124999
 21
1757.090542632627
 31
0.0
  0
LINE
  5
125B1
330
1A
100
AcDbEntity
  8
ZISSEN1
100
AcDbLine
 10
-1527.528236124999
 20
1724.290572632627
 30
0.0
 11
-1527.528236124999
 21
1745.790572632627
 31
0.0
  0
LINE
  5
125B2
330
1A
100
AcDbEntity
  8
ZISSEN1
100
AcDbLine
 10
-1542.528236124999
 20
1721.440572632627
 30
0.0
 11
-1540.528226124999
 21
1721.440572632627
 31
0.0
  0
LINE
  5
125B3
330
1A
100
AcDbEntity
  8
ZISSEN1
100
AcDbLine
 10
-1528.528236124999
 20
1747.790562632627
 30
0.0
 11
-1528.528236124999
 21
1753.790562632627
 31
0.0
  0
LINE
  5
125B4
330
1A
100
AcDbEntity
  8
ZISSEN1
100
AcDbLine
 10
-1532.528226124999
 20
1747.790562632627
 30
0.0
 11
-1532.528226124999
 21
1753.790562632627
 31
0.0
  0
LINE
  5
125B5
330
1A
100
AcDbEntity
  8
ZISSEN1
100
AcDbLine
 10
-1528.528236124999
 20
1747.790562632627
 30
0.0
 11
-1532.528226124999
 21
1747.790562632627
 31
0.0
  0
LINE
  5
125B6
330
1A
100
AcDbEntity
  8
ZISSEN1
100
AcDbLine
 10
-1528.528236124999
 20
1753.790562632627
 30
0.0
 11
-1532.528226124999
 21
1753.790562632627
 31
0.0
  0
LINE
  5
125B7
330
1A
100
AcDbEntity
  8
ZISSEN1
100
AcDbLine
 10
-1511.028256124999
 20
1693.790571632627
 30
0.0
 11
-1511.028256124999
 21
1721.790572632627
 31
0.0
  0
LINE
  5
125B8
330
1A
100
AcDbEntity
  8
ZISSEN1
100
AcDbLine
 10
-1496.528236124999
 20
1693.790571632627
 30
0.0
 11
-1496.528236124999
 21
1721.790572632627
 31
0.0
  0
LINE
  5
125B9
330
1A
100
AcDbEntity
  8
ZISSEN1
100
AcDbLine
 10
-1525.028206124999
 20
1699.290571632627
 30
0.0
 11
-1525.028206124999
 21
1721.290582632627
 31
0.0
  0
LINE
  5
125BA
330
1A
100
AcDbEntity
  8
ZISSEN1
100
AcDbLine
 10
-1494.735354537967
 20
1674.788395639921
 30
0.0
 11
-1499.278244537967
 21
1674.788395639921
 31
0.0
  0
LINE
  5
125BB
330
1A
100
AcDbEntity
  8
ZISSEN1
100
AcDbLine
 10
-1510.578236124999
 20
1694.790575632627
 30
0.0
 11
-1510.578236124999
 21
1720.790572632627
 31
0.0
  0
LINE
  5
125BC
330
1A
100
AcDbEntity
  8
ZISSEN1
100
AcDbLine
 10
-1498.578246124999
 20
1694.790575632627
 30
0.0
 11
-1498.578246124999
 21
1720.790572632627
 31
0.0
  0
LINE
  5
125BD
330
1A
100
AcDbEntity
  8
ZISSEN1
100
AcDbLine
 10
-1496.978226124999
 20
1694.790575632627
 30
0.0
 11
-1496.978226124999
 21
1720.790572632627
 31
0.0
  0
LINE
  5
125BE
330
1A
100
AcDbEntity
  8
ZISSEN1
100
AcDbLine
 10
-1498.578246124999
 20
1694.790575632627
 30
0.0
 11
-1510.578236124999
 21
1694.790575632627
 31
0.0
  0
LINE
  5
125BF
330
1A
100
AcDbEntity
  8
ZISSEN1
100
AcDbLine
 10
-1496.528236124999
 20
1693.790571632627
 30
0.0
 11
-1511.028256124999
 21
1693.790571632627
 31
0.0
  0
LINE
  5
125C0
330
1A
100
AcDbEntity
  8
ZISSEN1
100
AcDbLine
 10
-1519.278244537967
 20
1674.788395639921
 30
0.0
 11
-1503.778264537968
 21
1674.788395639921
 31
0.0
  0
ARC
  5
125C1
330
1A
100
AcDbEntity
  8
ZISSEN1
100
AcDbCircle
 10
-1521.528264537967
 20
1679.788399639921
 30
0.0
 40
2.25
100
AcDbArc
 50
0.0
 51
90.0
  0
LINE
  5
125C2
330
1A
100
AcDbEntity
  8
CL1
100
AcDbLine
 10
-1518.528224537967
 20
1679.788399639921
 30
0.0
 11
-1524.528244537967
 21
1679.788399639921
 31
0.0
  0
ARC
  5
125C3
330
1A
100
AcDbEntity
  8
ZISSEN1
100
AcDbCircle
 10
-1521.528264537967
 20
1679.788399639921
 30
0.0
 40
2.25
100
AcDbArc
 50
90.0
 51
180.0
  0
LINE
  5
125C4
330
1A
100
AcDbEntity
  8
CL1
100
AcDbLine
 10
-1521.528234537967
 20
1682.788397639921
 30
0.0
 11
-1521.528234537967
 21
1676.78840263992
 31
0.0
  0
LINE
  5
125C5
330
1A
100
AcDbEntity
  8
ZISSEN1
100
AcDbLine
 10
-1523.778254537967
 20
1679.788399639921
 30
0.0
 11
-1523.778254537967
 21
1674.788395639921
 31
0.0
  0
LINE
  5
125C6
330
1A
100
AcDbEntity
  8
ZISSEN1
100
AcDbLine
 10
-1519.278244537967
 20
1674.788395639921
 30
0.0
 11
-1519.278244537967
 21
1679.788399639921
 31
0.0
  0
ARC
  5
125C7
330
1A
100
AcDbEntity
  8
ZISSEN1
100
AcDbCircle
 10
-1501.528264537967
 20
1679.788399639921
 30
0.0
 40
2.25
100
AcDbArc
 50
90.0
 51
180.0
  0
LINE
  5
125C8
330
1A
100
AcDbEntity
  8
CL1
100
AcDbLine
 10
-1498.528234537968
 20
1679.788399639921
 30
0.0
 11
-1504.528254537967
 21
1679.788399639921
 31
0.0
  0
LINE
  5
125C9
330
1A
100
AcDbEntity
  8
ZISSEN1
100
AcDbLine
 10
-1503.778264537968
 20
1679.788399639921
 30
0.0
 11
-1503.778264537968
 21
1674.788395639921
 31
0.0
  0
ARC
  5
125CA
330
1A
100
AcDbEntity
  8
ZISSEN1
100
AcDbCircle
 10
-1501.528264537967
 20
1679.788399639921
 30
0.0
 40
2.25
100
AcDbArc
 50
0.0
 51
90.0
  0
LINE
  5
125CB
330
1A
100
AcDbEntity
  8
CL1
100
AcDbLine
 10
-1501.528244537968
 20
1676.78840263992
 30
0.0
 11
-1501.528244537968
 21
1682.03840063992
 31
0.0
  0
LINE
  5
125CC
330
1A
100
AcDbEntity
  8
ZISSEN1
100
AcDbLine
 10
-1499.278244537967
 20
1674.788395639921
 30
0.0
 11
-1499.278244537967
 21
1679.788399639921
 31
0.0
  0
LINE
  5
125CD
330
1A
100
AcDbEntity
  8
ZISSEN1
100
AcDbLine
 10
-1498.578246124999
 20
1694.790575632627
 30
0.0
 11
-1496.978226124999
 21
1694.790575632627
 31
0.0
  0
LINE
  5
125CE
330
1A
100
AcDbEntity
  8
ZISSEN1
100
AcDbLine
 10
-1510.578236124999
 20
1720.790572632627
 30
0.0
 11
-1498.578246124999
 21
1720.790572632627
 31
0.0
  0
LINE
  5
125CF
330
1A
100
AcDbEntity
  8
ZISSEN1
100
AcDbLine
 10
-1498.578246124999
 20
1720.790572632627
 30
0.0
 11
-1496.978226124999
 21
1720.790572632627
 31
0.0
  0
LINE
  5
125D0
330
1A
100
AcDbEntity
  8
ZISSEN1
100
AcDbLine
 10
-1494.028244537967
 20
1675.495504639921
 30
0.0
 11
-1494.028244537967
 21
1684.78839163992
 31
0.0
  0
LINE
  5
125D1
330
1A
100
AcDbEntity
  8
ZISSEN1
100
AcDbLine
 10
-1494.028244537967
 20
1675.495504639921
 30
0.0
 11
-1494.735354537967
 21
1674.788395639921
 31
0.0
  0
LINE
  5
125D2
330
1A
100
AcDbEntity
  8
ZISSEN1
100
AcDbLine
 10
-1479.528256124999
 20
1693.940576632627
 30
0.0
 11
-1479.528256124999
 21
1689.640579632627
 31
0.0
  0
LINE
  5
125D3
330
1A
100
AcDbEntity
  8
ZISSEN1
100
AcDbLine
 10
-1482.528236124999
 20
1688.640576632627
 30
0.0
 11
-1480.528256124999
 21
1688.640576632627
 31
0.0
  0
ARC
  5
125D4
330
1A
100
AcDbEntity
  8
ZISSEN1
100
AcDbCircle
 10
-1480.528256124999
 20
1689.640579632627
 30
0.0
 40
1.0
100
AcDbArc
 50
270.0
 51
0.0
  0
LINE
  5
125D5
330
1A
100
AcDbEntity
  8
ZISSEN1
100
AcDbLine
 10
-1482.528236124999
 20
1694.940579632627
 30
0.0
 11
-1480.528256124999
 21
1694.940579632627
 31
0.0
  0
ARC
  5
125D6
330
1A
100
AcDbEntity
  8
ZISSEN1
100
AcDbCircle
 10
-1480.528256124999
 20
1693.940576632627
 30
0.0
 40
1.0
100
AcDbArc
 50
0.0
 51
90.0
  0
LINE
  5
125D7
330
1A
100
AcDbEntity
  8
ZISSEN1
100
AcDbLine
 10
-1501.078256124999
 20
1765.940562632627
 30
0.0
 11
-1489.078266124999
 21
1765.940562632627
 31
0.0
  0
LINE
  5
125D8
330
1A
100
AcDbEntity
  8
ZISSEN1
100
AcDbLine
 10
-1489.078266124999
 20
1724.640582632627
 30
0.0
 11
-1501.078256124999
 21
1724.640582632627
 31
0.0
  0
LINE
  5
125D9
330
1A
100
AcDbEntity
  8
ZISSEN1
100
AcDbLine
 10
-1487.028256124999
 20
1723.790572632627
 30
0.0
 11
-1501.528246124999
 21
1723.790572632627
 31
0.0
  0
LINE
  5
125DA
330
1A
100
AcDbEntity
  8
ZISSEN1
100
AcDbLine
 10
-1501.528246124999
 20
1766.790562632627
 30
0.0
 11
-1487.028256124999
 21
1766.790562632627
 31
0.0
  0
LINE
  5
125DB
330
1A
100
AcDbEntity
  8
ZISSEN1
100
AcDbLine
 10
-1501.078256124999
 20
1724.640582632627
 30
0.0
 11
-1501.078256124999
 21
1765.940562632627
 31
0.0
  0
LINE
  5
125DC
330
1A
100
AcDbEntity
  8
ZISSEN1
100
AcDbLine
 10
-1501.528246124999
 20
1723.790572632627
 30
0.0
 11
-1501.528246124999
 21
1766.790562632627
 31
0.0
  0
LINE
  5
125DD
330
1A
100
AcDbEntity
  8
ZISSEN1
100
AcDbLine
 10
-1521.528216124999
 20
1724.290572632627
 30
0.0
 11
-1521.528216124999
 21
1745.790572632627
 31
0.0
  0
LINE
  5
125DE
330
1A
100
AcDbEntity
  8
ZISSEN1
100
AcDbLine
 10
-1511.028256124999
 20
1721.790572632627
 30
0.0
 11
-1496.528236124999
 21
1721.790572632627
 31
0.0
  0
LINE
  5
125DF
330
1A
100
AcDbEntity
  8
ZISSEN1
100
AcDbLine
 10
-1487.478246124999
 20
1724.640582632627
 30
0.0
 11
-1487.478246124999
 21
1765.940562632627
 31
0.0
  0
LINE
  5
125E0
330
1A
100
AcDbEntity
  8
ZISSEN1
100
AcDbLine
 10
-1489.078266124999
 20
1724.640582632627
 30
0.0
 11
-1489.078266124999
 21
1765.940562632627
 31
0.0
  0
LINE
  5
125E1
330
1A
100
AcDbEntity
  8
ZISSEN1
100
AcDbLine
 10
-1484.528246124999
 20
1723.790572632627
 30
0.0
 11
-1484.528246124999
 21
1766.790562632627
 31
0.0
  0
LINE
  5
125E2
330
1A
100
AcDbEntity
  8
ZISSEN1
100
AcDbLine
 10
-1487.028256124999
 20
1723.790572632627
 30
0.0
 11
-1487.028256124999
 21
1766.790562632627
 31
0.0
  0
LINE
  5
125E3
330
1A
100
AcDbEntity
  8
ZISSEN1
100
AcDbLine
 10
-1489.078266124999
 20
1724.640582632627
 30
0.0
 11
-1487.478246124999
 21
1724.640582632627
 31
0.0
  0
LINE
  5
125E4
330
1A
100
AcDbEntity
  8
ZISSEN1
100
AcDbLine
 10
-1482.528236124999
 20
1723.790572632627
 30
0.0
 11
-1484.528246124999
 21
1723.790572632627
 31
0.0
  0
LINE
  5
125E5
330
1A
100
AcDbEntity
  8
ZISSEN1
100
AcDbLine
 10
-1489.078266124999
 20
1765.940562632627
 30
0.0
 11
-1487.478246124999
 21
1765.940562632627
 31
0.0
  0
LINE
  5
125E6
330
1A
100
AcDbEntity
  8
ZISSEN1
100
AcDbLine
 10
-1484.528246124999
 20
1766.790562632627
 30
0.0
 11
-1482.528236124999
 21
1766.790562632627
 31
0.0
  0
LINE
  5
125E7
330
1A
100
AcDbEntity
  8
ZISSEN1
100
AcDbLine
 10
-1591.528246124999
 20
1892.290572632627
 30
0.0
 11
-1591.528246124999
 21
1835.790562632627
 31
0.0
  0
LINE
  5
125E8
330
1A
100
AcDbEntity
  8
ZISSEN1
100
AcDbLine
 10
-1531.321116072
 20
1814.791001376942
 30
0.0
 11
-1523.778256072
 21
1814.791001376942
 31
0.0
  0
LINE
  5
125E9
330
1A
100
AcDbEntity
  8
ZISSEN1
100
AcDbLine
 10
-1487.028256124999
 20
1804.790572632627
 30
0.0
 11
-1540.528226124999
 21
1804.790572632627
 31
0.0
  0
LINE
  5
125EA
330
1A
100
AcDbEntity
  8
ZISSEN1
100
AcDbLine
 10
-1532.028226124999
 20
1789.490562632627
 30
0.0
 11
-1525.328226124999
 21
1789.490562632627
 31
0.0
  0
LINE
  5
125EB
330
1A
100
AcDbEntity
  8
ZISSEN1
100
AcDbLine
 10
-1532.528226124999
 20
1790.290552632627
 30
0.0
 11
-1523.528226124999
 21
1790.290552632627
 31
0.0
  0
LINE
  5
125EC
330
1A
100
AcDbEntity
  8
ZISSEN1
100
AcDbLine
 10
-1532.028226072
 20
1814.083891376943
 30
0.0
 11
-1532.028226072
 21
1804.790971376942
 31
0.0
  0
LINE
  5
125ED
330
1A
100
AcDbEntity
  8
ZISSEN1
100
AcDbLine
 10
-1591.528246124999
 20
1789.490562632627
 30
0.0
 11
-1586.528236124999
 21
1789.490562632627
 31
0.0
  0
LINE
  5
125EE
330
1A
100
AcDbEntity
  8
ZISSEN1
100
AcDbLine
 10
-1586.528236124999
 20
1844.290612632627
 30
0.0
 11
-1586.528236124999
 21
1850.990592632627
 31
0.0
  0
LINE
  5
125EF
330
1A
100
AcDbEntity
  8
ZISSEN1
100
AcDbLine
 10
-1591.528246124999
 20
1844.290612632627
 30
0.0
 11
-1586.528236124999
 21
1844.290612632627
 31
0.0
  0
LINE
  5
125F0
330
1A
100
AcDbEntity
  8
ZISSEN1
100
AcDbLine
 10
-1591.528246124999
 20
1850.990592632627
 30
0.0
 11
-1586.528236124999
 21
1850.990592632627
 31
0.0
  0
LINE
  5
125F1
330
1A
100
AcDbEntity
  8
ZISSEN1
100
AcDbLine
 10
-1532.028226072
 20
1814.083891376943
 30
0.0
 11
-1531.321116072
 21
1814.791001376942
 31
0.0
  0
LINE
  5
125F2
330
1A
100
AcDbEntity
  8
ZISSEN1
100
AcDbLine
 10
-1494.028246072
 20
1814.083891376943
 30
0.0
 11
-1494.028246072
 21
1804.790971376942
 31
0.0
  0
LINE
  5
125F3
330
1A
100
AcDbEntity
  8
ZISSEN1
100
AcDbLine
 10
-1523.778256072
 20
1809.290961376943
 30
0.0
 11
-1523.778256072
 21
1814.791001376942
 31
0.0
  0
LINE
  5
125F4
330
1A
100
AcDbEntity
  8
ZISSEN1
100
AcDbLine
 10
-1519.278266072
 20
1809.290961376943
 30
0.0
 11
-1519.278266072
 21
1814.791001376942
 31
0.0
  0
LINE
  5
125F5
330
1A
100
AcDbEntity
  8
ZISSEN1
100
AcDbLine
 10
-1501.528246124999
 20
1804.790572632627
 30
0.0
 11
-1487.028256124999
 21
1804.790572632627
 31
0.0
  0
ARC
  5
125F6
330
1A
100
AcDbEntity
  8
ZISSEN1
100
AcDbCircle
 10
-1521.528236072
 20
1809.290961376943
 30
0.0
 40
2.25
100
AcDbArc
 50
270.0
 51
0.0
  0
LINE
  5
125F7
330
1A
100
AcDbEntity
  8
CL1
100
AcDbLine
 10
-1518.528226072
 20
1809.790981376943
 30
0.0
 11
-1524.528246072
 21
1809.790981376943
 31
0.0
  0
ARC
  5
125F8
330
1A
100
AcDbEntity
  8
ZISSEN1
100
AcDbCircle
 10
-1521.528236072
 20
1809.290961376943
 30
0.0
 40
2.25
100
AcDbArc
 50
180.0
 51
270.0
  0
LINE
  5
125F9
330
1A
100
AcDbEntity
  8
CL1
100
AcDbLine
 10
-1521.528236072
 20
1812.790981376943
 30
0.0
 11
-1521.528236072
 21
1806.790981376942
 31
0.0
  0
CIRCLE
  5
125FA
330
1A
100
AcDbEntity
  8
ZISSEN1
100
AcDbCircle
 10
-1501.528246072
 20
1809.790981376943
 30
0.0
 40
2.25
  0
LINE
  5
125FB
330
1A
100
AcDbEntity
  8
CL1
100
AcDbLine
 10
-1498.528236072
 20
1809.790981376943
 30
0.0
 11
-1504.528256072
 21
1809.790981376943
 31
0.0
  0
LINE
  5
125FC
330
1A
100
AcDbEntity
  8
CL1
100
AcDbLine
 10
-1501.528246072
 20
1806.790981376942
 30
0.0
 11
-1501.528246072
 21
1812.790951376943
 31
0.0
  0
LINE
  5
125FD
330
1A
100
AcDbEntity
  8
ZISSEN1
100
AcDbLine
 10
-1482.528236124999
 20
1783.790572632627
 30
0.0
 11
-1482.528236124999
 21
1793.790582632627
 31
0.0
  0
LINE
  5
125FE
330
1A
100
AcDbEntity
  8
ZISSEN1
100
AcDbLine
 10
-1479.528256124999
 20
1791.940572632627
 30
0.0
 11
-1479.528256124999
 21
1787.640562632627
 31
0.0
  0
LINE
  5
125FF
330
1A
100
AcDbEntity
  8
ZISSEN1
100
AcDbLine
 10
-1482.528236124999
 20
1786.640582632627
 30
0.0
 11
-1480.528256124999
 21
1786.640582632627
 31
0.0
  0
ARC
  5
12600
330
1A
100
AcDbEntity
  8
ZISSEN1
100
AcDbCircle
 10
-1480.528256124999
 20
1787.640562632627
 30
0.0
 40
1.0
100
AcDbArc
 50
270.0
 51
359.9999799999979
  0
LINE
  5
12601
330
1A
100
AcDbEntity
  8
ZISSEN1
100
AcDbLine
 10
-1484.028246124999
 20
1794.790562632627
 30
0.0
 11
-1484.028246124999
 21
1804.790572632627
 31
0.0
  0
LINE
  5
12602
330
1A
100
AcDbEntity
  8
ZISSEN1
100
AcDbLine
 10
-1484.028246124999
 20
1793.790582632627
 30
0.0
 11
-1484.028246124999
 21
1804.790572632627
 31
0.0
  0
LINE
  5
12603
330
1A
100
AcDbEntity
  8
ZISSEN1
100
AcDbLine
 10
-1481.028256124999
 20
1799.940602632627
 30
0.0
 11
-1481.028256124999
 21
1795.640592632627
 31
0.0
  0
ARC
  5
12604
330
1A
100
AcDbEntity
  8
ZISSEN1
100
AcDbCircle
 10
-1482.028256124999
 20
1795.640592632627
 30
0.0
 40
1.0
100
AcDbArc
 50
270.0
 51
0.0
  0
LINE
  5
12605
330
1A
100
AcDbEntity
  8
ZISSEN1
100
AcDbLine
 10
-1482.528236124999
 20
1792.940572632627
 30
0.0
 11
-1480.528256124999
 21
1792.940572632627
 31
0.0
  0
LINE
  5
12606
330
1A
100
AcDbEntity
  8
ZISSEN1
100
AcDbLine
 10
-1484.028246124999
 20
1794.640582632627
 30
0.0
 11
-1482.028256124999
 21
1794.640582632627
 31
0.0
  0
LINE
  5
12607
330
1A
100
AcDbEntity
  8
ZISSEN1
100
AcDbLine
 10
-1482.528236124999
 20
1793.790582632627
 30
0.0
 11
-1484.028246124999
 21
1793.790582632627
 31
0.0
  0
ARC
  5
12608
330
1A
100
AcDbEntity
  8
ZISSEN1
100
AcDbCircle
 10
-1480.528256124999
 20
1791.940572632627
 30
0.0
 40
1.0
100
AcDbArc
 50
0.0
 51
90.0
  0
ARC
  5
12609
330
1A
100
AcDbEntity
  8
ZISSEN1
100
AcDbCircle
 10
-1482.028256124999
 20
1799.940602632627
 30
0.0
 40
1.0
100
AcDbArc
 50
0.0
 51
90.0
  0
LINE
  5
1260A
330
1A
100
AcDbEntity
  8
ZISSEN1
100
AcDbLine
 10
-1484.028246124999
 20
1800.940572632627
 30
0.0
 11
-1482.028256124999
 21
1800.940572632627
 31
0.0
  0
LINE
  5
1260B
330
1A
100
AcDbEntity
  8
ZISSEN1
100
AcDbLine
 10
-1487.028256124999
 20
1804.790572632627
 30
0.0
 11
-1484.028246124999
 21
1804.790572632627
 31
0.0
  0
LINE
  5
1260C
330
1A
100
AcDbEntity
  8
ZISSEN1
100
AcDbLine
 10
-1494.735356072
 20
1814.791001376942
 30
0.0
 11
-1519.278266072
 21
1814.791001376942
 31
0.0
  0
LINE
  5
1260D
330
1A
100
AcDbEntity
  8
ZISSEN1
100
AcDbLine
 10
-1494.735356072
 20
1814.791001376942
 30
0.0
 11
-1494.028246072
 21
1814.083891376943
 31
0.0
  0
LINE
  5
1260E
330
1A
100
AcDbEntity
  8
ZISSEN1
100
AcDbLine
 10
-1577.028256124999
 20
1865.740552632627
 30
0.0
 11
-1577.028256124999
 21
1888.840592632627
 31
0.0
  0
LINE
  5
1260F
330
1A
100
AcDbEntity
  8
ZISSEN1
100
AcDbLine
 10
-1578.828256124999
 20
1875.240552632627
 30
0.0
 11
-1578.828256124999
 21
1888.840592632627
 31
0.0
  0
LINE
  5
12610
330
1A
100
AcDbEntity
  8
ZISSEN1
100
AcDbLine
 10
-1578.828256124999
 20
1865.740552632627
 30
0.0
 11
-1578.828256124999
 21
1875.240552632627
 31
0.0
  0
LINE
  5
12611
330
1A
100
AcDbEntity
  8
ZISSEN1
100
AcDbLine
 10
-1577.028256124999
 20
1865.740552632627
 30
0.0
 11
-1591.528246124999
 21
1865.740552632627
 31
0.0
  0
LINE
  5
12612
330
1A
100
AcDbEntity
  8
ZISSEN1
100
AcDbLine
 10
-1591.528246124999
 20
1875.240552632627
 30
0.0
 11
-1577.028256124999
 21
1875.240552632627
 31
0.0
  0
LINE
  5
12613
330
1A
100
AcDbEntity
  8
ZISSEN1
100
AcDbLine
 10
-1591.528246124999
 20
1888.840592632627
 30
0.0
 11
-1577.028256124999
 21
1888.840592632627
 31
0.0
  0
LINE
  5
12614
330
1A
100
AcDbEntity
  8
ZISSEN1
100
AcDbLine
 10
-1591.528246124999
 20
1892.290572632627
 30
0.0
 11
-1591.528246124999
 21
1892.790602632627
 31
0.0
  0
CIRCLE
  5
12755
330
1A
100
AcDbEntity
  8
ZISSEN1
100
AcDbCircle
 10
-1495.078255840946
 20
1760.540582805207
 30
0.0
 40
2.75
  0
CIRCLE
  5
12756
330
1A
100
AcDbEntity
  8
ZISSEN1
100
AcDbCircle
 10
-1495.078255840946
 20
1752.920582805207
 30
0.0
 40
2.75
  0
CIRCLE
  5
12757
330
1A
100
AcDbEntity
  8
ZISSEN1
100
AcDbCircle
 10
-1495.078255840946
 20
1745.300582805207
 30
0.0
 40
2.75
  0
CIRCLE
  5
12758
330
1A
100
AcDbEntity
  8
ZISSEN1
100
AcDbCircle
 10
-1495.078255840946
 20
1737.680582805207
 30
0.0
 40
2.75
  0
CIRCLE
  5
12759
330
1A
100
AcDbEntity
  8
ZISSEN1
100
AcDbCircle
 10
-1495.078255840946
 20
1730.060582805207
 30
0.0
 40
2.75
  0
LINE
  5
1275A
330
1A
100
AcDbEntity
  8
0
100
AcDbLine
 10
-1489.078255840946
 20
1724.640582805207
 30
0.0
 11
-1489.078255840946
 21
1765.940582805207
 31
0.0
  0
LINE
  5
1275B
330
1A
100
AcDbEntity
  8
0
100
AcDbLine
 10
-1487.478255840946
 20
1724.640582805207
 30
0.0
 11
-1487.478255840946
 21
1765.940582805207
 31
0.0
  0
LINE
  5
1275C
330
1A
100
AcDbEntity
  8
0
100
AcDbLine
 10
-1501.078255840946
 20
1724.640582805207
 30
0.0
 11
-1501.078255840946
 21
1765.940582805207
 31
0.0
  0
LINE
  5
1275D
330
1A
100
AcDbEntity
  8
0
100
AcDbLine
 10
-1501.078255840946
 20
1725.740582805207
 30
0.0
 11
-1489.078255840946
 21
1725.740582805207
 31
0.0
  0
LINE
  5
1275E
330
1A
100
AcDbEntity
  8
0
100
AcDbLine
 10
-1501.078255840946
 20
1726.940582805207
 30
0.0
 11
-1489.078255840946
 21
1726.940582805207
 31
0.0
  0
LINE
  5
1275F
330
1A
100
AcDbEntity
  8
0
100
AcDbLine
 10
-1501.078255840946
 20
1733.340582805207
 30
0.0
 11
-1489.078255840946
 21
1733.340582805207
 31
0.0
  0
LINE
  5
12760
330
1A
100
AcDbEntity
  8
0
100
AcDbLine
 10
-1501.078255840946
 20
1734.540582805207
 30
0.0
 11
-1489.078255840946
 21
1734.540582805207
 31
0.0
  0
LINE
  5
12761
330
1A
100
AcDbEntity
  8
0
100
AcDbLine
 10
-1501.078255840946
 20
1740.940582805207
 30
0.0
 11
-1489.078255840946
 21
1740.940582805207
 31
0.0
  0
LINE
  5
12762
330
1A
100
AcDbEntity
  8
0
100
AcDbLine
 10
-1501.078255840946
 20
1742.140582805207
 30
0.0
 11
-1489.078255840946
 21
1742.140582805207
 31
0.0
  0
LINE
  5
12763
330
1A
100
AcDbEntity
  8
0
100
AcDbLine
 10
-1501.078255840946
 20
1748.540582805207
 30
0.0
 11
-1489.078255840946
 21
1748.540582805207
 31
0.0
  0
LINE
  5
12764
330
1A
100
AcDbEntity
  8
0
100
AcDbLine
 10
-1501.078255840946
 20
1749.740582805207
 30
0.0
 11
-1489.078255840946
 21
1749.740582805207
 31
0.0
  0
LINE
  5
12765
330
1A
100
AcDbEntity
  8
0
100
AcDbLine
 10
-1501.078255840946
 20
1756.140582805207
 30
0.0
 11
-1489.078255840946
 21
1756.140582805207
 31
0.0
  0
LINE
  5
12766
330
1A
100
AcDbEntity
  8
0
100
AcDbLine
 10
-1501.078255840946
 20
1757.340582805207
 30
0.0
 11
-1489.078255840946
 21
1757.340582805207
 31
0.0
  0
LINE
  5
12767
330
1A
100
AcDbEntity
  8
0
100
AcDbLine
 10
-1489.078255840946
 20
1724.640582805207
 30
0.0
 11
-1487.478255840946
 21
1724.640582805207
 31
0.0
  0
LINE
  5
12768
330
1A
100
AcDbEntity
  8
0
100
AcDbLine
 10
-1489.078255840946
 20
1724.640582805207
 30
0.0
 11
-1501.078255840946
 21
1724.640582805207
 31
0.0
  0
LINE
  5
12769
330
1A
100
AcDbEntity
  8
0
100
AcDbLine
 10
-1501.078255840946
 20
1763.740582805207
 30
0.0
 11
-1489.078255840946
 21
1763.740582805207
 31
0.0
  0
LINE
  5
1276A
330
1A
100
AcDbEntity
  8
0
100
AcDbLine
 10
-1501.078255840946
 20
1764.940582805207
 30
0.0
 11
-1489.078255840946
 21
1764.940582805207
 31
0.0
  0
LINE
  5
1276B
330
1A
100
AcDbEntity
  8
0
100
AcDbLine
 10
-1501.078255840946
 20
1765.940582805207
 30
0.0
 11
-1489.078255840946
 21
1765.940582805207
 31
0.0
  0
LINE
  5
1276C
330
1A
100
AcDbEntity
  8
0
100
AcDbLine
 10
-1489.078255840946
 20
1765.940582805207
 30
0.0
 11
-1487.478255840946
 21
1765.940582805207
 31
0.0
  0
LINE
  5
12781
330
1A
100
AcDbEntity
  8
0
100
AcDbLine
 10
-1510.578236298347
 20
1719.765276617168
 30
0.0
 11
-1498.578236298348
 21
1719.765276617168
 31
0.0
  0
LINE
  5
12782
330
1A
100
AcDbEntity
  8
0
100
AcDbLine
 10
-1510.578236298347
 20
1718.565276617168
 30
0.0
 11
-1498.578236298348
 21
1718.565276617168
 31
0.0
  0
LINE
  5
12783
330
1A
100
AcDbEntity
  8
0
100
AcDbLine
 10
-1510.578236298347
 20
1712.165276617168
 30
0.0
 11
-1498.578236298348
 21
1712.165276617168
 31
0.0
  0
LINE
  5
12784
330
1A
100
AcDbEntity
  8
0
100
AcDbLine
 10
-1510.578236298347
 20
1720.790575617679
 30
0.0
 11
-1498.578236298348
 21
1720.790575617679
 31
0.0
  0
LINE
  5
12785
330
1A
100
AcDbEntity
  8
0
100
AcDbLine
 10
-1510.578236298347
 20
1720.790575617679
 30
0.0
 11
-1498.578236298348
 21
1720.790575617679
 31
0.0
  0
LINE
  5
12786
330
1A
100
AcDbEntity
  8
0
100
AcDbLine
 10
-1510.578236298347
 20
1695.765276617168
 30
0.0
 11
-1498.578236298348
 21
1695.765276617168
 31
0.0
  0
LINE
  5
12787
330
1A
100
AcDbEntity
  8
0
100
AcDbLine
 10
-1510.578236298347
 20
1696.965276617168
 30
0.0
 11
-1498.578236298348
 21
1696.965276617168
 31
0.0
  0
LINE
  5
12788
330
1A
100
AcDbEntity
  8
0
100
AcDbLine
 10
-1510.578236298347
 20
1703.365276617168
 30
0.0
 11
-1498.578236298348
 21
1703.365276617168
 31
0.0
  0
LINE
  5
12789
330
1A
100
AcDbEntity
  8
0
100
AcDbLine
 10
-1510.578236298347
 20
1704.565276617168
 30
0.0
 11
-1498.578236298348
 21
1704.565276617168
 31
0.0
  0
LINE
  5
1278A
330
1A
100
AcDbEntity
  8
0
100
AcDbLine
 10
-1510.578236298347
 20
1710.965276617168
 30
0.0
 11
-1498.578236298348
 21
1710.965276617168
 31
0.0
  0
LINE
  5
1278B
330
1A
100
AcDbEntity
  8
0
100
AcDbLine
 10
-1498.578236298348
 20
1694.790575617679
 30
0.0
 11
-1510.578236298347
 21
1694.790575617679
 31
0.0
  0
LINE
  5
1278C
330
1A
100
AcDbEntity
  8
0
100
AcDbLine
 10
-1510.578236298347
 20
1694.790575617679
 30
0.0
 11
-1510.578236298347
 21
1720.790575617679
 31
0.0
  0
CIRCLE
  5
1278D
330
1A
100
AcDbEntity
  8
ZISSEN1
100
AcDbCircle
 10
-1504.578236298347
 20
1715.390575617679
 30
0.0
 40
2.75
  0
CIRCLE
  5
1278E
330
1A
100
AcDbEntity
  8
ZISSEN1
100
AcDbCircle
 10
-1504.578236298347
 20
1700.150575617679
 30
0.0
 40
2.75
  0
CIRCLE
  5
1278F
330
1A
100
AcDbEntity
  8
ZISSEN1
100
AcDbCircle
 10
-1504.578236298347
 20
1707.770575617679
 30
0.0
 40
2.75
  0
LINE
  5
12790
330
1A
100
AcDbEntity
  8
0
100
AcDbLine
 10
-1498.578236298348
 20
1694.790575617679
 30
0.0
 11
-1498.578236298348
 21
1720.790575617679
 31
0.0
  0
LINE
  5
127BE
330
1A
100
AcDbEntity
  8
ZISSEN1
100
AcDbLine
 10
-1492.328255840946
 20
1752.920582805207
 30
0.0
 11
-1492.328255840946
 21
1752.920582805207
 31
0.0
  0
LINE
  5
127C1
330
1A
100
AcDbEntity
  8
ZISSEN1
100
AcDbLine
 10
-1492.328255840946
 20
1752.920582805207
 30
0.0
 11
-1492.328255840946
 21
1752.920582805207
 31
0.0
  0
LINE
  5
127C2
330
1A
100
AcDbEntity
  8
ZISSEN1
100
AcDbLine
 10
-1492.328255840946
 20
1752.920582805207
 30
0.0
 11
-1492.328255840946
 21
1752.920582805207
 31
0.0
  0
LINE
  5
127C3
330
1A
100
AcDbEntity
  8
ZISSEN1
100
AcDbLine
 10
-1492.328255840946
 20
1752.920582805207
 30
0.0
 11
-1492.328255840946
 21
1752.920582805207
 31
0.0
  0
LINE
  5
127C4
330
1A
100
AcDbEntity
  8
ZISSEN1
100
AcDbLine
 10
-1492.328255840946
 20
1752.920582805207
 30
0.0
 11
-1492.328255840946
 21
1752.920582805207
 31
0.0
  0
DIMENSION
  5
12811
330
1A
100
AcDbEntity
  8
ZISSEN1
100
AcDbDimension
  2
*D0
 10
-1473.486144248989
 20
1752.920582805208
 30
0.0
 11
-1476.23614424899
 21
1741.638856916882
 31
0.0
 70
    32
  3
標準スタイル
100
AcDbAlignedDimension
 13
-1495.078255840947
 23
1760.540582805207
 33
0.0
 14
-1495.078255840946
 24
1752.920582805208
 34
0.0
 50
90.0
100
AcDbRotatedDimension
1001
ACAD
1000
DSTYLE
1002
{
1070
    40
1040
1.0
1002
}
  0
LINE
  5
1282F
330
1A
100
AcDbEntity
  8
ZISSEN1
100
AcDbLine
 10
-1708.528247124999
 20
1804.790572632627
 30
0.0
 11
-1711.528245124999
 21
1804.790572632627
 31
0.0
  0
DIMENSION
  5
12845
330
1A
100
AcDbEntity
  8
SUNPOU
100
AcDbDimension
  2
*D1
 10
-1724.279681675353
 20
1804.790572632627
 30
0.0
 11
-1724.279681675354
 21
1809.592757994656
 31
0.0
 70
   160
  1
(10)
  3
標準スタイル
100
AcDbAlignedDimension
 13
-1711.528245124999
 23
1814.790562632627
 33
0.0
 14
-1711.528245124999
 24
1804.790572632627
 34
0.0
 50
90.0
100
AcDbRotatedDimension
1001
ACAD
1000
DSTYLE
1002
{
1070
    40
1040
1.0
1002
}
  0
DIMENSION
  5
1285D
330
1A
100
AcDbEntity
  8
SUNPOU
100
AcDbDimension
  2
*D2
 10
-1724.279681675353
 20
1684.790573632627
 30
0.0
 11
-1724.279681675354
 21
1743.788363500884
 31
0.0
 70
   160
  3
標準スタイル
100
AcDbAlignedDimension
 13
-1711.528245124999
 23
1804.790572632627
 33
0.0
 14
-1708.528247124999
 24
1684.790573632627
 34
0.0
 50
90.0
100
AcDbRotatedDimension
1001
ACAD
1000
DSTYLE
1002
{
1070
    40
1040
1.0
1002
}
  0
DIMENSION
  5
12877
330
1A
100
AcDbEntity
  8
SUNPOU
100
AcDbDimension
  2
*D3
 10
-1724.279681675353
 20
1674.790577632627
 30
0.0
 11
-1727.029681675354
 21
1679.790575632627
 31
0.0
 70
    32
  3
標準スタイル
100
AcDbAlignedDimension
 13
-1709.028247124999
 23
1684.790573632627
 33
0.0
 14
-1711.528245124999
 24
1674.790577632627
 34
0.0
 50
90.0
100
AcDbRotatedDimension
1001
ACAD
1000
DSTYLE
1002
{
1070
    40
1040
1.0
1002
}
  0
DIMENSION
  5
12893
330
1A
100
AcDbEntity
  8
SUNPOU
100
AcDbDimension
  2
*D4
 10
-1591.528246124999
 20
1660.821589677103
 30
0.0
 11
-1656.507384824357
 21
1660.821589677103
 31
0.0
 70
   160
  3
標準スタイル
100
AcDbAlignedDimension
 13
-1711.528245124999
 23
1674.290577632627
 33
0.0
 14
-1591.528246124999
 24
1684.790560632627
 34
0.0
100
AcDbRotatedDimension
1001
ACAD
1000
DSTYLE
1002
{
1070
    40
1040
1.0
1002
}
  0
DIMENSION
  5
128FC
330
1A
100
AcDbEntity
  8
SUNPOU
100
AcDbDimension
  2
*D5
 10
-1708.528247124999
 20
1667.798340425817
 30
0.0
 11
-1719.434336495558
 21
1667.798340425817
 31
0.0
 70
   160
  3
標準スタイル
100
AcDbAlignedDimension
 13
-1711.528245124999
 23
1674.790577632627
 33
0.0
 14
-1708.528247124999
 24
1674.790577632627
 34
0.0
100
AcDbRotatedDimension
1001
ACAD
1000
DSTYLE
1002
{
1070
    40
1040
1.0
1002
}
  0
DIMENSION
  5
12949
330
1A
100
AcDbEntity
  8
SUNPOU
100
AcDbDimension
  2
*D6
 10
-1552.179707004513
 20
1809.790981376943
 30
0.0
 11
-1552.179707004513
 21
1812.290991376942
 31
0.0
 70
   160
  1
(5)
  3
標準スタイル
100
AcDbAlignedDimension
 13
-1531.321116072
 23
1814.791001376942
 33
0.0
 14
-1524.528246072
 24
1809.790981376943
 34
0.0
 50
90.0
100
AcDbRotatedDimension
1001
ACAD
1000
DSTYLE
1002
{
1070
    40
1040
1.0
1002
}
  0
DIMENSION
  5
12958
330
1A
100
AcDbEntity
  8
SUNPOU
100
AcDbDimension
  2
*D7
 10
-1552.179707004513
 20
1679.788399639921
 30
0.0
 11
-1554.929707004514
 21
1744.789690508431
 31
0.0
 70
    32
  3
標準スタイル
100
AcDbAlignedDimension
 13
-1525.028246072
 23
1809.790981376943
 33
0.0
 14
-1524.528244537967
 24
1679.788399639921
 34
0.0
 50
90.0
100
AcDbRotatedDimension
1001
ACAD
1000
DSTYLE
1002
{
1070
    40
1040
1.0
1002
}
  0
DIMENSION
  5
129A0
330
1A
100
AcDbEntity
  8
SUNPOU
100
AcDbDimension
  2
*D8
 10
-1499.278244537967
 20
1668.438748211019
 30
0.0
 11
-1489.071391746089
 21
1668.438748211019
 31
0.0
 70
   160
  3
標準スタイル
100
AcDbAlignedDimension
 13
-1503.778264537968
 23
1674.788395639921
 33
0.0
 14
-1499.278244537967
 24
1674.788395639921
 34
0.0
100
AcDbRotatedDimension
1001
ACAD
1000
DSTYLE
1002
{
1070
    40
1040
1.0
1002
}
  0
DIMENSION
  5
129AF
330
1A
100
AcDbEntity
  8
SUNPOU
100
AcDbDimension
  2
*D9
 10
-1501.528244537968
 20
1660.821589677103
 30
0.0
 11
-1511.528239537967
 21
1663.571589677103
 31
0.0
 70
    32
  3
標準スタイル
100
AcDbAlignedDimension
 13
-1521.528234537967
 23
1676.78840263992
 33
0.0
 14
-1501.528244537968
 24
1676.78840263992
 34
0.0
100
AcDbRotatedDimension
1001
ACAD
1000
DSTYLE
1002
{
1070
    40
1040
1.0
1002
}
  0
DIMENSION
  5
129BC
330
1A
100
AcDbEntity
  8
SUNPOU
100
AcDbDimension
  2
*D10
 10
-1482.528236124999
 20
1660.821589677103
 30
0.0
 11
-1492.028240331483
 21
1660.821589677103
 31
0.0
 70
   160
  3
標準スタイル
100
AcDbAlignedDimension
 13
-1501.528244537968
 23
1676.28840263992
 33
0.0
 14
-1482.528236124999
 24
1684.790573632627
 34
0.0
100
AcDbRotatedDimension
1001
ACAD
1000
DSTYLE
1002
{
1070
    40
1040
1.0
1002
}
  0
DIMENSION
  5
129C9
330
1A
100
AcDbEntity
  8
SUNPOU
100
AcDbDimension
  2
*D11
 10
-1482.528236124999
 20
1653.204431758594
 30
0.0
 11
-1511.528231124999
 21
1653.204431758594
 31
0.0
 70
   160
  3
標準スタイル
100
AcDbAlignedDimension
 13
-1540.528226124999
 23
1684.790560632627
 33
0.0
 14
-1482.528236124999
 24
1684.790573632627
 34
0.0
100
AcDbRotatedDimension
1001
ACAD
1000
DSTYLE
1002
{
1070
    40
1040
1.0
1002
}
  0
DIMENSION
  5
12A00
330
1A
100
AcDbEntity
  8
SUNPOU
100
AcDbDimension
  2
*D12
 10
-1479.528256124999
 20
1644.939823325006
 30
0.0
 11
-1511.528246124999
 21
1644.939823325006
 31
0.0
 70
   160
  1
(64)
  3
標準スタイル
100
AcDbAlignedDimension
 13
-1543.528236124999
 23
1716.140579632627
 33
0.0
 14
-1479.528256124999
 24
1689.640579632627
 34
0.0
100
AcDbRotatedDimension
1001
ACAD
1000
DSTYLE
1002
{
1070
    40
1040
1.0
1002
}
  0
LEADER
  5
12A18
330
1A
100
AcDbEntity
  8
SUNPOU
100
AcDbLeader
  3
標準スタイル
 76
     3
 10
-1500.353605694909
 20
1811.710022800286
 30
0.0
 10
-1494.940068801135
 20
1820.554332047283
 30
0.0
 10
-1481.660237646798
 20
1820.554332047283
 30
0.0
1001
ACAD
1000
DSTYLE
1002
{
1070
     5
1000

1070
    77
1070
     0
1070
   147
1040
1.0
1002
}
  0
MTEXT
  5
12A19
330
1A
100
AcDbEntity
  8
SUNPOU
100
AcDbMText
 10
-1494.832316279105
 20
1824.861482169377
 30
0.0
 40
3.5
 41
8.646499999999999
 71
     1
 72
     5
  1
φ4.5
  7
ゴシック体
1001
ACAD
1000
MTEXTBEGIN
1070
    73
1070
     1
1070
    44
1040
1.0
1070
    74
1070
     0
1000
MTEXTEND
  0
DIMENSION
  5
12B03
330
1A
100
AcDbEntity
  8
SUNPOU
100
AcDbDimension
  2
*D13
 10
-1577.028256124999
 20
1660.821589677103
 30
0.0
 11
-1584.278251124999
 21
1663.864736885224
 31
0.0
 70
    32
  1
(14.5)
  3
標準スタイル
100
AcDbAlignedDimension
 13
-1591.528246124999
 23
1684.790573632627
 33
0.0
 14
-1577.028256124999
 24
1694.790581632627
 34
0.0
100
AcDbRotatedDimension
1001
ACAD
1000
DSTYLE
1002
{
1070
    40
1040
1.0
1002
}
  0
DIMENSION
  5
12CF0
330
1A
100
AcDbEntity
  8
SUNPOU
100
AcDbDimension
  2
*D14
 10
-1552.179707004513
 20
1674.788395639921
 30
0.0
 11
-1552.178982063451
 21
1677.161029640771
 31
0.0
 70
   160
  1
(<>)
  3
標準スタイル
100
AcDbAlignedDimension
 13
-1524.528244537967
 23
1679.788399639921
 33
0.0
 14
-1531.321114537967
 24
1674.788395639921
 34
0.0
 50
90.0
100
AcDbRotatedDimension
1001
ACAD
1000
DSTYLE
1002
{
1070
   287
1070
     4
1070
    40
1040
1.0
1070
   279
1070
     1
1002
}
  0
LINE
  5
12D15
330
1A
100
AcDbEntity
  8
SUNPOU
100
AcDbLine
 10
-1552.178982063451
 20
1677.161029640771
 30
0.0
 11
-1552.178982063451
 21
1677.161029640771
 31
0.0
  0
LINE
  5
12D16
330
1A
100
AcDbEntity
  8
SUNPOU
100
AcDbLine
 10
-1552.178982063451
 20
1677.161029640771
 30
0.0
 11
-1552.178982063451
 21
1677.161029640771
 31
0.0
  0
LINE
  5
12D17
330
1A
100
AcDbEntity
  8
SUNPOU
100
AcDbLine
 10
-1552.178982063451
 20
1677.161029640771
 30
0.0
 11
-1552.178982063451
 21
1677.161029640771
 31
0.0
  0
VIEWPORT
  5
5D8F
330
5D8E
100
AcDbEntity
 67
     1
  8
0
100
AcDbViewport
 10
299.8395320539509
 20
157.6861544032801
 30
0.0
 40
688.9841201495081
 41
314.237268371582
 68
     1
 69
     1
1001
ACAD
1000
MVIEW
1002
{
1070
    16
1010
0.0
1020
0.0
1030
0.0
1010
0.0
1020
0.0
1030
1.0
1040
0.0
1040
314.237268371582
1040
299.8395320539509
1040
157.6861544032801
1040
50.0
1040
0.0
1040
0.0
1070
     0
1070
   100
1070
     1
1070
     0
1070
     0
1070
     0
1070
     0
1070
     0
1040
0.0
1040
0.0
1040
0.0
1040
1.0
1040
1.0
1040
10.0
1040
10.0
1070
     0
1002
{
1002
}
1002
}
  0
VIEWPORT
  5
6001
330
5D8E
100
AcDbEntity
 67
     1
  8
ZISSEN1
100
AcDbViewport
 10
221.7861955525412
 20
157.6960273330388
 30
0.0
 40
385.4999999999997
 41
259.9999999999999
 68
     2
 69
     2
1001
ACAD
1000
MVIEW
1002
{
1070
    16
1010
0.0
1020
0.0
1030
0.0
1010
0.0
1020
0.0
1030
1.0
1040
0.0
1040
259.9999999999999
1040
-1600.349053395649
1040
1770.207339411136
1040
50.0
1040
0.0
1040
0.0
1070
     0
1070
   100
1070
     1
1070
     0
1070
     0
1070
     0
1070
     0
1070
     0
1040
0.0
1040
0.0
1040
0.0
1040
1.0
1040
1.0
1040
10.0
1040
10.0
1070
     0
1002
{
1002
}
1002
}
  0
TEXT
  5
716F
330
5D8E
100
AcDbEntity
 67
     1
  8
SUNPOU
 62
     0
100
AcDbText
 10
374.1863124306944
 20
60.86794705907585
 30
0.0
 40
3.5
  1
縮尺 1/1
  7
ゴシック体
100
AcDbText
  0
ENDSEC
  0
SECTION
  2
OBJECTS
  0
DICTIONARY
  5
C
330
0
100
AcDbDictionary
  3
ACAD_GROUP
350
D
  3
ACAD_LAYOUT
350
5C7D
  3
ACAD_MLINESTYLE
350
E
  3
ACAD_PLOTSETTINGS
350
5C7E
  3
ACAD_PLOTSTYLENAME
350
5C7B
  3
DWGPROPS
350
5E8E
  3
ACDBVARIABLEDICTIONARY
350
12D34
  3
ACDBHEADERROUNDTRIPXREC
350
12D36
  0
DICTIONARY
  5
12D56
330
1A
100
AcDbDictionary
280
     1
  3
ACAD_LAYOUTSELFREF
360
12D57
  0
DICTIONARY
  5
12D58
330
5D8E
100
AcDbDictionary
280
     1
  3
ACAD_LAYOUTSELFREF
360
12D59
  0
DICTIONARY
  5
D
102
{ACAD_REACTORS
330
C
102
}
330
C
100
AcDbDictionary
  3
*A1
350
477D
  3
*A2
350
4C13
  3
*A3
350
4C14
  3
*A4
350
4C15
  3
*A5
350
4C16
  3
*A6
350
4C17
  3
*A7
350
477E
  3
*A8
350
477F
  3
*A9
350
4780
  3
*A10
350
4781
  3
*A11
350
4C0E
  3
*A12
350
4C0F
  3
*A13
350
12679
  3
*A14
350
1267A
  3
*A15
350
1267D
  3
*A16
350
4C10
  3
*A17
350
4C11
  3
*A18
350
4C12
  0
DICTIONARY
  5
5C7D
102
{ACAD_REACTORS
330
C
102
}
330
C
100
AcDbDictionary
  0
DICTIONARY
  5
E
102
{ACAD_REACTORS
330
C
102
}
330
C
100
AcDbDictionary
  3
STANDARD
350
13
  0
DICTIONARY
  5
5C7E
102
{ACAD_REACTORS
330
C
102
}
330
C
100
AcDbDictionary
  0
ACDBDICTIONARYWDFLT
  5
5C7B
102
{ACAD_REACTORS
330
C
102
}
330
C
100
AcDbDictionary
281
     1
  3
Normal
350
5C7C
100
AcDbDictionaryWithDefault
340
5C7C
  0
XRECORD
  5
5E8E
102
{ACAD_REACTORS
330
C
102
}
330
C
100
AcDbXrecord
  1
DWGPROPS COOKIE
  2

  3

  4

  6

  7

  8

  9

300
=
301
=
302
=
303
=
304
=
305
=
306
=
307
=
308
=
309
=
 40
0.586753587962963
 41
2450495.493631365
 42
2453208.662277431
  1

 90
        0
  0
DICTIONARY
  5
12D34
102
{ACAD_REACTORS
330
C
102
}
330
C
100
AcDbDictionary
  3
INDEXCTL
350
12D35
  0
DICTIONARY
  5
12D36
102
{ACAD_REACTORS
330
C
102
}
330
C
100
AcDbDictionary
  3
TSTACKALIGN
350
12D37
  3
TSTACKSIZE
350
12D38
  3
HYPERLINKBASE
350
12D39
  3
STYLESHEET
350
12D3A
  3
LAYOUTDICT
350
12D3B
  3
PLOTSETDICT
350
12D3C
  3
PLOTSTYLNAMDICT
350
12D3D
  3
LWETCUNION
350
12D3E
  3
INSUNITS
350
12D3F
  3
CEPSNTYPE
350
12D40
  3
FINGERPRINTGUID
350
12D41
  3
VERSIONGUID
350
12D42
  3
PSVPSCALE
350
12D43
  3
PUCSORTHOREF
350
12D44
  3
PUCSORTHOVIEW
350
12D45
  3
PUCSBASE
350
12D46
  3
PUCSORGTOP
350
12D47
  3
PUCSORGBOTTOM
350
12D48
  3
PUCSORGLEFT
350
12D49
  3
PUCSORGRIGHT
350
12D4A
  3
PUCSORGFRONT
350
12D4B
  3
PUCSORGBACK
350
12D4C
  3
UCSORTHOREF
350
12D4D
  3
UCSORTHOVIEW
350
12D4E
  3
UCSBASE
350
12D4F
  3
UCSORGTOP
350
12D50
  3
UCSORGBOTTOM
350
12D51
  3
UCSORGLEFT
350
12D52
  3
UCSORGRIGHT
350
12D53
  3
UCSORGFRONT
350
12D54
  3
UCSORGBACK
350
12D55
  0
XRECORD
  5
12D57
102
{ACAD_REACTORS
330
12D56
102
}
330
12D56
100
AcDbXrecord
340
1A
  0
XRECORD
  5
12D59
102
{ACAD_REACTORS
330
12D58
102
}
330
12D58
100
AcDbXrecord
340
5D8E
  0
GROUP
  5
477D
102
{ACAD_REACTORS
330
D
102
}
330
D
100
AcDbGroup
300

 70
     1
 71
     1
  0
GROUP
  5
4C13
102
{ACAD_REACTORS
330
D
102
}
330
D
100
AcDbGroup
300

 70
     1
 71
     1
  0
GROUP
  5
4C14
102
{ACAD_REACTORS
330
D
102
}
330
D
100
AcDbGroup
300

 70
     1
 71
     1
  0
GROUP
  5
4C15
102
{ACAD_REACTORS
330
D
102
}
330
D
100
AcDbGroup
300

 70
     1
 71
     1
  0
GROUP
  5
4C16
102
{ACAD_REACTORS
330
D
102
}
330
D
100
AcDbGroup
300

 70
     1
 71
     1
  0
GROUP
  5
4C17
102
{ACAD_REACTORS
330
D
102
}
330
D
100
AcDbGroup
300

 70
     1
 71
     1
  0
GROUP
  5
477E
102
{ACAD_REACTORS
330
D
102
}
330
D
100
AcDbGroup
300

 70
     1
 71
     1
  0
GROUP
  5
477F
102
{ACAD_REACTORS
330
D
102
}
330
D
100
AcDbGroup
300

 70
     1
 71
     1
  0
GROUP
  5
4780
102
{ACAD_REACTORS
330
D
102
}
330
D
100
AcDbGroup
300

 70
     1
 71
     1
  0
GROUP
  5
4781
102
{ACAD_REACTORS
330
D
102
}
330
D
100
AcDbGroup
300

 70
     1
 71
     1
  0
GROUP
  5
4C0E
102
{ACAD_REACTORS
330
D
102
}
330
D
100
AcDbGroup
300

 70
     1
 71
     1
  0
GROUP
  5
4C0F
102
{ACAD_REACTORS
330
D
102
}
330
D
100
AcDbGroup
300

 70
     1
 71
     1
  0
GROUP
  5
12679
102
{ACAD_REACTORS
330
D
102
}
330
D
100
AcDbGroup
300

 70
     1
 71
     1
340
12580
340
1257E
340
1257D
340
1257C
340
1257B
  0
GROUP
  5
1267A
102
{ACAD_REACTORS
330
D
102
}
330
D
100
AcDbGroup
300

 70
     1
 71
     1
340
1257B
340
12580
340
1257E
340
1257D
340
1257C
  0
GROUP
  5
1267D
102
{ACAD_REACTORS
330
D
102
}
330
D
100
AcDbGroup
300

 70
     1
 71
     1
340
12580
340
1257E
340
1257D
340
1257C
340
1257B
  0
GROUP
  5
4C10
102
{ACAD_REACTORS
330
D
102
}
330
D
100
AcDbGroup
300

 70
     1
 71
     1
  0
GROUP
  5
4C11
102
{ACAD_REACTORS
330
D
102
}
330
D
100
AcDbGroup
300

 70
     1
 71
     1
  0
GROUP
  5
4C12
102
{ACAD_REACTORS
330
D
102
}
330
D
100
AcDbGroup
300

 70
     1
 71
     1
  0
MLINESTYLE
  5
13
102
{ACAD_REACTORS
330
E
102
}
330
E
100
AcDbMlineStyle
  2
STANDARD
 70
     0
  3

 62
     0
 51
90.0
 52
90.0
 71
     2
 49
0.5
 62
   256
  6
BYLAYER
 49
-0.5
 62
   256
  6
BYLAYER
  0
ACDBPLACEHOLDER
  5
5C7C
102
{ACAD_REACTORS
330
5C7B
102
}
330
5C7B
100
AcDbPlaceHolder
280
     0
  0
DICTIONARYVAR
  5
12D35
102
{ACAD_REACTORS
330
12D34
102
}
330
12D34
100
DictionaryVariables
280
     0
  1
-1
  0
XRECORD
  5
12D37
102
{ACAD_REACTORS
330
12D36
102
}
330
12D36
100
AcDbXrecord
 90
        1
  0
XRECORD
  5
12D38
102
{ACAD_REACTORS
330
12D36
102
}
330
12D36
100
AcDbXrecord
 90
       70
  0
XRECORD
  5
12D39
102
{ACAD_REACTORS
330
12D36
102
}
330
12D36
100
AcDbXrecord
  1

  0
XRECORD
  5
12D3A
102
{ACAD_REACTORS
330
12D36
102
}
330
12D36
100
AcDbXrecord
  1

  0
XRECORD
  5
12D3B
102
{ACAD_REACTORS
330
12D36
102
}
330
12D36
100
AcDbXrecord
340
5C7D
  0
XRECORD
  5
12D3C
102
{ACAD_REACTORS
330
12D36
102
}
330
12D36
100
AcDbXrecord
340
5C7E
  0
XRECORD
  5
12D3D
102
{ACAD_REACTORS
330
12D36
102
}
330
12D36
100
AcDbXrecord
340
5C7B
  0
XRECORD
  5
12D3E
102
{ACAD_REACTORS
330
12D36
102
}
330
12D36
100
AcDbXrecord
 90
    10781
  0
XRECORD
  5
12D3F
102
{ACAD_REACTORS
330
12D36
102
}
330
12D36
100
AcDbXrecord
 90
        0
  0
XRECORD
  5
12D40
102
{ACAD_REACTORS
330
12D36
102
}
330
12D36
100
AcDbXrecord
 90
        0
  0
XRECORD
  5
12D41
102
{ACAD_REACTORS
330
12D36
102
}
330
12D36
100
AcDbXrecord
  1
{225A7F0D-DA29-11D8-946A-0000E2416295}
  0
XRECORD
  5
12D42
102
{ACAD_REACTORS
330
12D36
102
}
330
12D36
100
AcDbXrecord
  1
{868C768F-FFD5-444E-81EA-D7198DDA9BBE}
  0
XRECORD
  5
12D43
102
{ACAD_REACTORS
330
12D36
102
}
330
12D36
100
AcDbXrecord
 40
0.0
  0
XRECORD
  5
12D44
102
{ACAD_REACTORS
330
12D36
102
}
330
12D36
100
AcDbXrecord
340
0
  0
XRECORD
  5
12D45
102
{ACAD_REACTORS
330
12D36
102
}
330
12D36
100
AcDbXrecord
 70
     0
  0
XRECORD
  5
12D46
102
{ACAD_REACTORS
330
12D36
102
}
330
12D36
100
AcDbXrecord
340
0
  0
XRECORD
  5
12D47
102
{ACAD_REACTORS
330
12D36
102
}
330
12D36
100
AcDbXrecord
 10
0.0
 20
0.0
 30
0.0
  0
XRECORD
  5
12D48
102
{ACAD_REACTORS
330
12D36
102
}
330
12D36
100
AcDbXrecord
 10
0.0
 20
0.0
 30
0.0
  0
XRECORD
  5
12D49
102
{ACAD_REACTORS
330
12D36
102
}
330
12D36
100
AcDbXrecord
 10
0.0
 20
0.0
 30
0.0
  0
XRECORD
  5
12D4A
102
{ACAD_REACTORS
330
12D36
102
}
330
12D36
100
AcDbXrecord
 10
0.0
 20
0.0
 30
0.0
  0
XRECORD
  5
12D4B
102
{ACAD_REACTORS
330
12D36
102
}
330
12D36
100
AcDbXrecord
 10
0.0
 20
0.0
 30
0.0
  0
XRECORD
  5
12D4C
102
{ACAD_REACTORS
330
12D36
102
}
330
12D36
100
AcDbXrecord
 10
0.0
 20
0.0
 30
0.0
  0
XRECORD
  5
12D4D
102
{ACAD_REACTORS
330
12D36
102
}
330
12D36
100
AcDbXrecord
340
0
  0
XRECORD
  5
12D4E
102
{ACAD_REACTORS
330
12D36
102
}
330
12D36
100
AcDbXrecord
 70
     0
  0
XRECORD
  5
12D4F
102
{ACAD_REACTORS
330
12D36
102
}
330
12D36
100
AcDbXrecord
340
0
  0
XRECORD
  5
12D50
102
{ACAD_REACTORS
330
12D36
102
}
330
12D36
100
AcDbXrecord
 10
0.0
 20
0.0
 30
0.0
  0
XRECORD
  5
12D51
102
{ACAD_REACTORS
330
12D36
102
}
330
12D36
100
AcDbXrecord
 10
0.0
 20
0.0
 30
0.0
  0
XRECORD
  5
12D52
102
{ACAD_REACTORS
330
12D36
102
}
330
12D36
100
AcDbXrecord
 10
0.0
 20
0.0
 30
0.0
  0
XRECORD
  5
12D53
102
{ACAD_REACTORS
330
12D36
102
}
330
12D36
100
AcDbXrecord
 10
0.0
 20
0.0
 30
0.0
  0
XRECORD
  5
12D54
102
{ACAD_REACTORS
330
12D36
102
}
330
12D36
100
AcDbXrecord
 10
0.0
 20
0.0
 30
0.0
  0
XRECORD
  5
12D55
102
{ACAD_REACTORS
330
12D36
102
}
330
12D36
100
AcDbXrecord
 10
0.0
 20
0.0
 30
0.0
  0
ENDSEC
  0
EOF
