  0
SECTION
  2
HEADER
  9
$ACADVER
  1
AC1014
  9
$ACADMAINTVER
 70
     9
  9
$DWGCODEPAGE
  3
ANSI_932
  9
$INSBASE
 10
0.0
 20
0.0
 30
0.0
  9
$EXTMIN
 10
-1205.031871267477
 20
735.8288869728336
 30
0.0
  9
$EXTMAX
 10
-851.5
 20
1110.589185632429
 30
0.0
  9
$LIMMIN
 10
0.0
 20
0.0
  9
$LIMMAX
 10
420.0
 20
297.0
  9
$ORTHOMODE
 70
     1
  9
$REGENMODE
 70
     1
  9
$FILLMODE
 70
     1
  9
$QTEXTMODE
 70
     0
  9
$MIRRTEXT
 70
     1
  9
$DRAGMODE
 70
     2
  9
$LTSCALE
 40
1.0
  9
$OSMODE
 70
    37
  9
$ATTMODE
 70
     1
  9
$TEXTSIZE
 40
2.5
  9
$TRACEWID
 40
1.0
  9
$TEXTSTYLE
  7
ゴシック体
  9
$CLAYER
  8
ZISSEN1
  9
$CELTYPE
  6
BYLAYER
  9
$CECOLOR
 62
   256
  9
$CELTSCALE
 40
1.0
  9
$DELOBJ
 70
     1
  9
$DISPSILH
 70
     0
  9
$DIMSCALE
 40
0.0
  9
$DIMASZ
 40
3.0
  9
$DIMEXO
 40
0.5
  9
$DIMDLI
 40
0.5
  9
$DIMRND
 40
0.0
  9
$DIMDLE
 40
0.0
  9
$DIMEXE
 40
0.5
  9
$DIMTP
 40
0.0
  9
$DIMTM
 40
0.0
  9
$DIMTXT
 40
3.5
  9
$DIMCEN
 40
0.0
  9
$DIMTSZ
 40
0.0
  9
$DIMTOL
 70
     0
  9
$DIMLIM
 70
     0
  9
$DIMTIH
 70
     0
  9
$DIMTOH
 70
     0
  9
$DIMSE1
 70
     0
  9
$DIMSE2
 70
     0
  9
$DIMTAD
 70
     1
  9
$DIMZIN
 70
     8
  9
$DIMBLK
  1

  9
$DIMASO
 70
     1
  9
$DIMSHO
 70
     1
  9
$DIMPOST
  1

  9
$DIMAPOST
  1

  9
$DIMALT
 70
     0
  9
$DIMALTD
 70
     2
  9
$DIMALTF
 40
25.4
  9
$DIMLFAC
 40
1.0
  9
$DIMTOFL
 70
     1
  9
$DIMTVP
 40
0.0
  9
$DIMTIX
 70
     0
  9
$DIMSOXD
 70
     0
  9
$DIMSAH
 70
     0
  9
$DIMBLK1
  1

  9
$DIMBLK2
  1

  9
$DIMSTYLE
  2
標準スタイル
  9
$DIMCLRD
 70
     1
  9
$DIMCLRE
 70
     1
  9
$DIMCLRT
 70
     1
  9
$DIMTFAC
 40
1.0
  9
$DIMGAP
 40
1.0
  9
$DIMJUST
 70
     0
  9
$DIMSD1
 70
     0
  9
$DIMSD2
 70
     0
  9
$DIMTOLJ
 70
     1
  9
$DIMTZIN
 70
     8
  9
$DIMALTZ
 70
     0
  9
$DIMALTTZ
 70
     0
  9
$DIMFIT
 70
     3
  9
$DIMUPT
 70
     0
  9
$DIMUNIT
 70
     2
  9
$DIMDEC
 70
     2
  9
$DIMTDEC
 70
     2
  9
$DIMALTU
 70
     2
  9
$DIMALTTD
 70
     2
  9
$DIMTXSTY
  7
STANDARD
  9
$DIMAUNIT
 70
     0
  9
$LUNITS
 70
     2
  9
$LUPREC
 70
     4
  9
$SKETCHINC
 40
1.0
  9
$FILLETRAD
 40
2.0
  9
$AUNITS
 70
     0
  9
$AUPREC
 70
     0
  9
$MENU
  1
.
  9
$ELEVATION
 40
0.0
  9
$PELEVATION
 40
0.0
  9
$THICKNESS
 40
0.0
  9
$LIMCHECK
 70
     0
  9
$BLIPMODE
 70
     0
  9
$CHAMFERA
 40
1.0
  9
$CHAMFERB
 40
1.0
  9
$CHAMFERC
 40
2.0
  9
$CHAMFERD
 40
0.7853981633974483
  9
$SKPOLY
 70
     0
  9
$TDCREATE
 40
2450495.493631365
  9
$TDUPDATE
 40
2453984.473827118
  9
$TDINDWG
 40
3.5183909375
  9
$TDUSRTIMER
 40
3.5183909375
  9
$USRTIMER
 70
     1
  9
$ANGBASE
 50
0.0
  9
$ANGDIR
 70
     0
  9
$PDMODE
 70
    99
  9
$PDSIZE
 40
0.0
  9
$PLINEWID
 40
0.0
  9
$COORDS
 70
     1
  9
$SPLFRAME
 70
     0
  9
$SPLINETYPE
 70
     6
  9
$SPLINESEGS
 70
     8
  9
$ATTDIA
 70
     0
  9
$ATTREQ
 70
     1
  9
$HANDLING
 70
 10241
  9
$HANDSEED
  5
19803
  9
$SURFTAB1
 70
     6
  9
$SURFTAB2
 70
     6
  9
$SURFTYPE
 70
     6
  9
$SURFU
 70
     6
  9
$SURFV
 70
     6
  9
$UCSNAME
  2

  9
$UCSORG
 10
0.0
 20
0.0
 30
0.0
  9
$UCSXDIR
 10
1.0
 20
0.0
 30
0.0
  9
$UCSYDIR
 10
0.0
 20
1.0
 30
0.0
  9
$PUCSNAME
  2

  9
$PUCSORG
 10
0.0
 20
0.0
 30
0.0
  9
$PUCSXDIR
 10
1.0
 20
0.0
 30
0.0
  9
$PUCSYDIR
 10
0.0
 20
1.0
 30
0.0
  9
$USERI1
 70
     0
  9
$USERI2
 70
     0
  9
$USERI3
 70
     0
  9
$USERI4
 70
     0
  9
$USERI5
 70
     0
  9
$USERR1
 40
0.0
  9
$USERR2
 40
0.0
  9
$USERR3
 40
0.0
  9
$USERR4
 40
0.0
  9
$USERR5
 40
0.0
  9
$WORLDVIEW
 70
     1
  9
$SHADEDGE
 70
     3
  9
$SHADEDIF
 70
    70
  9
$TILEMODE
 70
     1
  9
$MAXACTVP
 70
    16
  9
$PINSBASE
 10
0.0
 20
0.0
 30
0.0
  9
$PLIMCHECK
 70
     0
  9
$PEXTMIN
 10
29.03619555254135
 20
27.69602733303884
 30
0.0
  9
$PEXTMAX
 10
414.5361955525411
 20
287.6960273330388
 30
0.0
  9
$PLIMMIN
 10
15.15433780389673
 20
13.80781516542163
  9
$PLIMMAX
 10
435.1009930773342
 20
310.8184658001872
  9
$UNITMODE
 70
     0
  9
$VISRETAIN
 70
     0
  9
$PLINEGEN
 70
     0
  9
$PSLTSCALE
 70
     1
  9
$TREEDEPTH
 70
  3020
  9
$PICKSTYLE
 70
     1
  9
$CMLSTYLE
  2
STANDARD
  9
$CMLJUST
 70
     0
  9
$CMLSCALE
 40
1.0
  9
$PROXYGRAPHICS
 70
     1
  9
$MEASUREMENT
 70
     0
  0
ENDSEC
  0
SECTION
  2
CLASSES
  0
CLASS
  1
LWPOLYLINE
  2
AcDbPolyline
  3
AutoCAD 2000
 90
        0
280
     0
281
     1
  0
CLASS
  1
HATCH
  2
AcDbHatch
  3
AutoCAD 2000
 90
        0
280
     0
281
     1
  0
CLASS
  1
ACDBDICTIONARYWDFLT
  2
AcDbDictionaryWithDefault
  3
AutoCAD 2000
 90
        0
280
     0
281
     0
  0
CLASS
  1
ACDBPLACEHOLDER
  2
AcDbPlaceHolder
  3
AutoCAD 2000
 90
        0
280
     0
281
     0
  0
CLASS
  1
LAYOUT
  2
AcDbLayout
  3
AutoCAD 2000
 90
        0
280
     0
281
     0
  0
CLASS
  1
DICTIONARYVAR
  2
AcDbDictionaryVar
  3
AutoCAD 2000
 90
        0
280
     0
281
     0
  0
CLASS
  1
LONG_TRANSACTION
  2
AcDbLongTransaction
  3
AutoCAD 2000
 90
        0
280
     0
281
     0
  0
CLASS
  1
LWPOLYLINE
  2
AcDbPolyline
  3
AutoCAD 2000
 90
        0
280
     0
281
     1
  0
CLASS
  1
HATCH
  2
AcDbHatch
  3
AutoCAD 2000
 90
        0
280
     0
281
     1
  0
CLASS
  1
XRECORD
  2
AcDbXrecord
  3
AutoCAD 2000
 90
        0
280
     0
281
     0
  0
ENDSEC
  0
SECTION
  2
TABLES
  0
TABLE
  2
VPORT
  5
8
330
0
100
AcDbSymbolTable
 70
     3
  0
VPORT
  5
1979E
330
8
100
AcDbSymbolTableRecord
100
AcDbViewportTableRecord
  2
*ACTIVE
 70
     0
 10
0.0
 20
0.0
 11
1.0
 21
1.0
 12
-923.0176475210381
 22
919.1834566789331
 13
0.0
 23
0.0
 14
5.0
 24
5.0
 15
0.0
 25
0.0
 16
0.0
 26
0.0
 36
1.0
 17
0.0
 27
0.0
 37
0.0
 40
410.0903018662067
 41
2.192560175054704
 42
50.0
 43
0.0
 44
0.0
 50
0.0
 51
0.0
 71
     0
 72
   100
 73
     1
 74
     0
 75
     0
 76
     0
 77
     0
 78
     0
  0
ENDTAB
  0
TABLE
  2
LTYPE
  5
5
330
0
100
AcDbSymbolTable
 70
     3
  0
LTYPE
  5
14
330
5
100
AcDbSymbolTableRecord
100
AcDbLinetypeTableRecord
  2
BYBLOCK
 70
     0
  3

 72
    65
 73
     0
 40
0.0
  0
LTYPE
  5
15
330
5
100
AcDbSymbolTableRecord
100
AcDbLinetypeTableRecord
  2
BYLAYER
 70
     0
  3

 72
    65
 73
     0
 40
0.0
  0
LTYPE
  5
16
330
5
100
AcDbSymbolTableRecord
100
AcDbLinetypeTableRecord
  2
CONTINUOUS
 70
     0
  3
Solid line
 72
    65
 73
     0
 40
0.0
  0
LTYPE
  5
1956
330
5
100
AcDbSymbolTableRecord
100
AcDbLinetypeTableRecord
  2
CENTERX2
 70
     0
  3
________  __  ________  __  ________  __  _____
 72
    65
 73
     4
 40
4.0
 49
2.5
 74
     0
 49
-0.5
 74
     0
 49
0.5
 74
     0
 49
-0.5
 74
     0
  0
LTYPE
  5
1944A
330
5
100
AcDbSymbolTableRecord
100
AcDbLinetypeTableRecord
  2
DASHEDX2
 70
     0
  3
____  ____  ____  ____  ____  ____  ____  ____ 
 72
    65
 73
     2
 40
1.5
 49
1.0
 74
     0
 49
-0.5
 74
     0
  0
ENDTAB
  0
TABLE
  2
LAYER
  5
2
330
0
100
AcDbSymbolTable
 70
     7
  0
LAYER
  5
F
330
2
100
AcDbSymbolTableRecord
100
AcDbLayerTableRecord
  2
0
 70
     0
 62
     7
  6
CONTINUOUS
  0
LAYER
  5
18F
330
2
100
AcDbSymbolTableRecord
100
AcDbLayerTableRecord
  2
ZISSEN1
 70
     0
 62
     7
  6
CONTINUOUS
  0
LAYER
  5
529
330
2
100
AcDbSymbolTableRecord
100
AcDbLayerTableRecord
  2
SUNPOU
 70
     0
 62
     1
  6
CONTINUOUS
  0
LAYER
  5
195A
330
2
100
AcDbSymbolTableRecord
100
AcDbLayerTableRecord
  2
CL1
 70
     0
 62
   210
  6
CENTERX2
  0
LAYER
  5
3A9B
330
2
100
AcDbSymbolTableRecord
100
AcDbLayerTableRecord
  2
DEFPOINTS
 70
     0
 62
     7
  6
CONTINUOUS
  0
LAYER
  5
1944B
330
2
100
AcDbSymbolTableRecord
100
AcDbLayerTableRecord
  2
KAKURESEN1
 70
     0
 62
     3
  6
DASHEDX2
  0
LAYER
  5
19484
330
2
100
AcDbSymbolTableRecord
100
AcDbLayerTableRecord
  2
SAISEN
 70
     0
 62
     1
  6
CONTINUOUS
  0
ENDTAB
  0
TABLE
  2
STYLE
  5
3
330
0
100
AcDbSymbolTable
 70
     2
  0
STYLE
  5
10
330
3
100
AcDbSymbolTableRecord
100
AcDbTextStyleTableRecord
  2
STANDARD
 70
     0
 40
0.0
 41
1.0
 50
0.0
 71
     0
 42
3.0
  3
txt
  4
BigFont
  0
STYLE
  5
1960
330
3
100
AcDbSymbolTableRecord
100
AcDbTextStyleTableRecord
  2
ゴシック体
 70
     0
 40
0.0
 41
1.0
 50
0.0
 71
     0
 42
2.5
  3
MS Gothic.ttf
  4

1001
ACAD
1000
MS Gothic
1071
    32817
  0
ENDTAB
  0
TABLE
  2
VIEW
  5
6
330
0
100
AcDbSymbolTable
 70
     0
  0
ENDTAB
  0
TABLE
  2
UCS
  5
7
330
0
100
AcDbSymbolTable
 70
     0
  0
ENDTAB
  0
TABLE
  2
APPID
  5
9
330
0
100
AcDbSymbolTable
 70
     5
  0
APPID
  5
11
330
9
100
AcDbSymbolTableRecord
100
AcDbRegAppTableRecord
  2
ACAD
 70
     0
  0
APPID
  5
4005
330
9
100
AcDbSymbolTableRecord
100
AcDbRegAppTableRecord
  2
CONTENTTABDATA
 70
     0
  0
APPID
  5
4006
330
9
100
AcDbSymbolTableRecord
100
AcDbRegAppTableRecord
  2
CONTENTCURRENTTAB
 70
     0
  0
APPID
  5
477B
330
9
100
AcDbSymbolTableRecord
100
AcDbRegAppTableRecord
  2
CONTENTBLOCKDESCRIPTION
 70
     0
  0
APPID
  5
477C
330
9
100
AcDbSymbolTableRecord
100
AcDbRegAppTableRecord
  2
CONTENTBLOCKICON
 70
     0
  0
ENDTAB
  0
TABLE
  2
DIMSTYLE
  5
A
330
0
100
AcDbSymbolTable
 70
     2
  0
DIMSTYLE
105
1D
330
A
100
AcDbSymbolTableRecord
100
AcDbDimStyleTableRecord
  2
STANDARD
 70
     0
  3

  4

  5

  6

  7

 40
1.0
 41
0.18
 42
0.0625
 43
0.38
 44
0.18
 45
0.0
 46
0.0
 47
0.0
 48
0.0
140
0.18
141
0.09
142
0.0
143
25.4
144
1.0
145
0.0
146
1.0
147
0.09
 71
     0
 72
     0
 73
     1
 74
     1
 75
     0
 76
     0
 77
     0
 78
     0
170
     0
171
     2
172
     0
173
     0
174
     0
175
     0
176
     0
177
     0
178
     0
270
     2
271
     4
272
     4
273
     2
274
     2
340
10
275
     0
280
     0
281
     0
282
     0
283
     1
284
     0
285
     0
286
     0
287
     3
288
     0
  0
DIMSTYLE
105
52E
102
{ACAD_REACTORS
330
18054
330
18B6E
330
18B98
330
18BB4
330
18CFD
330
18D0A
330
18D3E
330
18D7D
330
18DBD
330
18EA4
330
18EE7
330
18EF4
330
18F12
330
1902C
330
193E3
330
19499
330
18DB0
330
1974D
330
1975A
102
}
330
A
100
AcDbSymbolTableRecord
100
AcDbDimStyleTableRecord
  2
標準スタイル
 70
     0
  3

  4

  5

  6

  7

 40
0.0
 41
3.0
 42
0.5
 43
0.5
 44
0.5
 45
0.0
 46
0.0
 47
0.0
 48
0.0
140
3.5
141
0.0
142
0.0
143
25.4
144
1.0
145
0.0
146
1.0
147
1.0
 71
     0
 72
     0
 73
     0
 74
     0
 75
     0
 76
     0
 77
     1
 78
     8
170
     0
171
     2
172
     1
173
     0
174
     0
175
     0
176
     1
177
     1
178
     1
270
     2
271
     2
272
     2
273
     2
274
     2
340
10
275
     0
280
     0
281
     0
282
     0
283
     1
284
     8
285
     0
286
     0
287
     3
288
     0
  0
ENDTAB
  0
TABLE
  2
BLOCK_RECORD
  5
1
330
0
100
AcDbSymbolTable
 70
    19
  0
BLOCK_RECORD
  5
1A
102
{ACAD_XDICTIONARY
360
197BF
102
}
330
1
100
AcDbSymbolTableRecord
100
AcDbBlockTableRecord
  2
*MODEL_SPACE
  0
BLOCK_RECORD
  5
15176
102
{ACAD_XDICTIONARY
360
197C1
102
}
330
1
100
AcDbSymbolTableRecord
100
AcDbBlockTableRecord
  2
*PAPER_SPACE
  0
BLOCK_RECORD
  5
18055
330
1
100
AcDbSymbolTableRecord
100
AcDbBlockTableRecord
  2
*D0
  0
BLOCK_RECORD
  5
18B6F
330
1
100
AcDbSymbolTableRecord
100
AcDbBlockTableRecord
  2
*D1
  0
BLOCK_RECORD
  5
18B99
330
1
100
AcDbSymbolTableRecord
100
AcDbBlockTableRecord
  2
*D2
  0
BLOCK_RECORD
  5
18BB5
330
1
100
AcDbSymbolTableRecord
100
AcDbBlockTableRecord
  2
*D3
  0
BLOCK_RECORD
  5
18CFE
330
1
100
AcDbSymbolTableRecord
100
AcDbBlockTableRecord
  2
*D4
  0
BLOCK_RECORD
  5
18D0B
330
1
100
AcDbSymbolTableRecord
100
AcDbBlockTableRecord
  2
*D5
  0
BLOCK_RECORD
  5
18D3F
330
1
100
AcDbSymbolTableRecord
100
AcDbBlockTableRecord
  2
*D6
  0
BLOCK_RECORD
  5
18D7E
330
1
100
AcDbSymbolTableRecord
100
AcDbBlockTableRecord
  2
*D7
  0
BLOCK_RECORD
  5
18DB1
330
1
100
AcDbSymbolTableRecord
100
AcDbBlockTableRecord
  2
*D8
  0
BLOCK_RECORD
  5
18DBE
330
1
100
AcDbSymbolTableRecord
100
AcDbBlockTableRecord
  2
*D9
  0
BLOCK_RECORD
  5
18EA5
330
1
100
AcDbSymbolTableRecord
100
AcDbBlockTableRecord
  2
*D10
  0
BLOCK_RECORD
  5
18EE8
330
1
100
AcDbSymbolTableRecord
100
AcDbBlockTableRecord
  2
*D11
  0
BLOCK_RECORD
  5
18EF5
330
1
100
AcDbSymbolTableRecord
100
AcDbBlockTableRecord
  2
*D12
  0
BLOCK_RECORD
  5
18F13
330
1
100
AcDbSymbolTableRecord
100
AcDbBlockTableRecord
  2
*D13
  0
BLOCK_RECORD
  5
1902D
330
1
100
AcDbSymbolTableRecord
100
AcDbBlockTableRecord
  2
*D14
  0
BLOCK_RECORD
  5
193E4
330
1
100
AcDbSymbolTableRecord
100
AcDbBlockTableRecord
  2
*D15
  0
BLOCK_RECORD
  5
194B3
330
1
100
AcDbSymbolTableRecord
100
AcDbBlockTableRecord
  2
*D16
  0
BLOCK_RECORD
  5
1974E
330
1
100
AcDbSymbolTableRecord
100
AcDbBlockTableRecord
  2
*D17
  0
BLOCK_RECORD
  5
1975B
330
1
100
AcDbSymbolTableRecord
100
AcDbBlockTableRecord
  2
*D18
  0
ENDTAB
  0
ENDSEC
  0
SECTION
  2
BLOCKS
  0
BLOCK
  5
1B
330
1A
100
AcDbEntity
  8
0
100
AcDbBlockBegin
  2
*MODEL_SPACE
 70
     0
 10
0.0
 20
0.0
 30
0.0
  3
*MODEL_SPACE
  1

  0
ENDBLK
  5
1C
330
1A
100
AcDbEntity
  8
0
100
AcDbBlockEnd
  0
BLOCK
  5
1517A
330
15176
100
AcDbEntity
 67
     1
  8
0
100
AcDbBlockBegin
  2
*PAPER_SPACE
 70
     0
 10
0.0
 20
0.0
 30
0.0
  3
*PAPER_SPACE
  1

  0
ENDBLK
  5
1517B
330
15176
100
AcDbEntity
 67
     1
  8
0
100
AcDbBlockEnd
  0
BLOCK
  5
1805F
330
18055
100
AcDbEntity
  8
0
100
AcDbBlockBegin
  2
*D0
 70
     1
 10
0.0
 20
0.0
 30
0.0
  3
*D0
  1

  0
LINE
  5
192D2
330
18055
100
AcDbEntity
  8
SUNPOU
 62
     1
100
AcDbLine
 10
-1073.499999999999
 20
1091.000000004061
 30
0.0
 11
-1085.587172393884
 21
1091.000000004061
 31
0.0
  0
LINE
  5
192D3
330
18055
100
AcDbEntity
  8
SUNPOU
 62
     1
100
AcDbLine
 10
-1073.499999999999
 20
1000.0
 30
0.0
 11
-1085.587172393884
 21
1000.0
 31
0.0
  0
LINE
  5
192D4
330
18055
100
AcDbEntity
  8
SUNPOU
 62
     1
100
AcDbLine
 10
-1085.087172393884
 20
1088.000000004061
 30
0.0
 11
-1085.087172393884
 21
1003.0
 31
0.0
  0
SOLID
  5
192D5
330
18055
100
AcDbEntity
  8
SUNPOU
 62
     1
100
AcDbTrace
 10
-1085.587172393884
 20
1088.000000004061
 30
0.0
 11
-1084.587172393884
 21
1088.000000004061
 31
0.0
 12
-1085.087172393884
 22
1091.000000004061
 32
0.0
 13
-1085.087172393884
 23
1091.000000004061
 33
0.0
  0
SOLID
  5
192D6
330
18055
100
AcDbEntity
  8
SUNPOU
 62
     1
100
AcDbTrace
 10
-1085.587172393884
 20
1003.0
 30
0.0
 11
-1084.587172393884
 21
1003.0
 31
0.0
 12
-1085.087172393884
 22
1000.0
 32
0.0
 13
-1085.087172393884
 23
1000.0
 33
0.0
  0
MTEXT
  5
192D7
330
18055
100
AcDbEntity
  8
SUNPOU
 62
     1
100
AcDbMText
 10
-1087.837172393885
 20
1044.748806093777
 30
0.0
 40
3.5
 41
0.0
 71
     5
 72
     1
  1
\A1;91
 11
0.0000000000000001
 21
1.0
 31
0.0
1001
ACAD
1000
MTEXTBEGIN
1070
    73
1070
     1
1070
    44
1040
1.0
1070
    74
1070
     0
1000
MTEXTEND
  0
POINT
  5
192D8
330
18055
100
AcDbEntity
  8
DEFPOINTS
 62
     0
100
AcDbPoint
 10
-1073.0
 20
1091.000000004061
 30
0.0
  0
POINT
  5
192D9
330
18055
100
AcDbEntity
  8
DEFPOINTS
 62
     0
100
AcDbPoint
 10
-1073.0
 20
1000.0
 30
0.0
  0
POINT
  5
192DA
330
18055
100
AcDbEntity
  8
DEFPOINTS
 62
     0
100
AcDbPoint
 10
-1085.087172393884
 20
1000.0
 30
0.0
  0
ENDBLK
  5
18060
330
18055
100
AcDbEntity
  8
0
100
AcDbBlockEnd
  0
BLOCK
  5
18B79
330
18B6F
100
AcDbEntity
  8
0
100
AcDbBlockBegin
  2
*D1
 70
     1
 10
0.0
 20
0.0
 30
0.0
  3
*D1
  1

  0
LINE
  5
190AA
330
18B6F
100
AcDbEntity
  8
SUNPOU
 62
     1
100
AcDbLine
 10
-1070.5
 20
993.0
 30
0.0
 11
-1096.689513007244
 21
993.0
 31
0.0
  0
LINE
  5
190AB
330
18B6F
100
AcDbEntity
  8
SUNPOU
 62
     1
100
AcDbLine
 10
-1070.500000113727
 20
1097.999999431359
 30
0.0
 11
-1096.689513007244
 21
1097.999999431359
 31
0.0
  0
LINE
  5
190AC
330
18B6F
100
AcDbEntity
  8
SUNPOU
 62
     1
100
AcDbLine
 10
-1096.189513007244
 20
996.0
 30
0.0
 11
-1096.189513007244
 21
1094.999999431359
 31
0.0
  0
SOLID
  5
190AD
330
18B6F
100
AcDbEntity
  8
SUNPOU
 62
     1
100
AcDbTrace
 10
-1096.689513007244
 20
996.0
 30
0.0
 11
-1095.689513007244
 21
996.0
 31
0.0
 12
-1096.189513007244
 22
993.0
 32
0.0
 13
-1096.189513007244
 23
993.0
 33
0.0
  0
SOLID
  5
190AE
330
18B6F
100
AcDbEntity
  8
SUNPOU
 62
     1
100
AcDbTrace
 10
-1096.689513007244
 20
1094.999999431359
 30
0.0
 11
-1095.689513007244
 21
1094.999999431359
 31
0.0
 12
-1096.189513007244
 22
1097.999999431359
 32
0.0
 13
-1096.189513007244
 23
1097.999999431359
 33
0.0
  0
MTEXT
  5
190AF
330
18B6F
100
AcDbEntity
  8
SUNPOU
 62
     1
100
AcDbMText
 10
-1098.939513007244
 20
1045.499999715679
 30
0.0
 40
3.5
 41
0.0
 71
     5
 72
     1
  1
\A1;105
 11
0.0000000000000001
 21
1.0
 31
0.0
1001
ACAD
1000
MTEXTBEGIN
1070
    73
1070
     1
1070
    44
1040
1.0
1070
    74
1070
     0
1000
MTEXTEND
  0
POINT
  5
190B0
330
18B6F
100
AcDbEntity
  8
DEFPOINTS
 62
     0
100
AcDbPoint
 10
-1070.0
 20
993.0
 30
0.0
  0
POINT
  5
190B1
330
18B6F
100
AcDbEntity
  8
DEFPOINTS
 62
     0
100
AcDbPoint
 10
-1070.000000113727
 20
1097.999999431359
 30
0.0
  0
POINT
  5
190B2
330
18B6F
100
AcDbEntity
  8
DEFPOINTS
 62
     0
100
AcDbPoint
 10
-1096.189513007244
 20
1097.999999431359
 30
0.0
  0
ENDBLK
  5
18B7A
330
18B6F
100
AcDbEntity
  8
0
100
AcDbBlockEnd
  0
BLOCK
  5
18BA5
330
18B99
100
AcDbEntity
  8
0
100
AcDbBlockBegin
  2
*D2
 70
     1
 10
0.0
 20
0.0
 30
0.0
  3
*D2
  1

  0
LINE
  5
197C3
330
18B99
100
AcDbEntity
  8
SUNPOU
 62
     1
100
AcDbLine
 10
-1073.499999999999
 20
1000.0
 30
0.0
 11
-1085.587172393884
 21
1000.0
 31
0.0
  0
LINE
  5
197C4
330
18B99
100
AcDbEntity
  8
SUNPOU
 62
     1
100
AcDbLine
 10
-1073.0
 20
993.0
 30
0.0
 11
-1085.587172393884
 21
993.0
 31
0.0
  0
LINE
  5
197C5
330
18B99
100
AcDbEntity
  8
SUNPOU
 62
     1
100
AcDbLine
 10
-1085.087172393884
 20
1003.0
 30
0.0
 11
-1085.087172393884
 21
1006.0
 31
0.0
  0
LINE
  5
197C6
330
18B99
100
AcDbEntity
  8
SUNPOU
 62
     1
100
AcDbLine
 10
-1085.087172393884
 20
990.0
 30
0.0
 11
-1085.087172393884
 21
987.0
 31
0.0
  0
LINE
  5
197C7
330
18B99
100
AcDbEntity
  8
SUNPOU
 62
     1
100
AcDbLine
 10
-1085.087172393884
 20
1000.0
 30
0.0
 11
-1085.087172393884
 21
993.0
 31
0.0
  0
SOLID
  5
197C8
330
18B99
100
AcDbEntity
  8
SUNPOU
 62
     1
100
AcDbTrace
 10
-1085.587172393884
 20
1003.0
 30
0.0
 11
-1084.587172393884
 21
1003.0
 31
0.0
 12
-1085.087172393884
 22
1000.0
 32
0.0
 13
-1085.087172393884
 23
1000.0
 33
0.0
  0
SOLID
  5
197C9
330
18B99
100
AcDbEntity
  8
SUNPOU
 62
     1
100
AcDbTrace
 10
-1085.587172393884
 20
990.0
 30
0.0
 11
-1084.587172393884
 21
990.0
 31
0.0
 12
-1085.087172393884
 22
993.0
 32
0.0
 13
-1085.087172393884
 23
993.0
 33
0.0
  0
MTEXT
  5
197CA
330
18B99
100
AcDbEntity
  8
SUNPOU
 62
     1
100
AcDbMText
 10
-1087.837172393885
 20
996.4999999999999
 30
0.0
 40
3.5
 41
0.0
 71
     5
 72
     1
  1
\A1;7
 11
0.0000000000000001
 21
1.0
 31
0.0
  0
POINT
  5
197CB
330
18B99
100
AcDbEntity
  8
DEFPOINTS
 62
     0
100
AcDbPoint
 10
-1073.0
 20
1000.0
 30
0.0
  0
POINT
  5
197CC
330
18B99
100
AcDbEntity
  8
DEFPOINTS
 62
     0
100
AcDbPoint
 10
-1072.5
 20
993.0
 30
0.0
  0
POINT
  5
197CD
330
18B99
100
AcDbEntity
  8
DEFPOINTS
 62
     0
100
AcDbPoint
 10
-1085.087172393884
 20
993.0
 30
0.0
  0
ENDBLK
  5
18BA6
330
18B99
100
AcDbEntity
  8
0
100
AcDbBlockEnd
  0
BLOCK
  5
18BC1
330
18BB5
100
AcDbEntity
  8
0
100
AcDbBlockBegin
  2
*D3
 70
     1
 10
0.0
 20
0.0
 30
0.0
  3
*D3
  1

  0
LINE
  5
197CE
330
18BB5
100
AcDbEntity
  8
SUNPOU
 62
     1
100
AcDbLine
 10
-1073.499999995938
 20
1091.000000004061
 30
0.0
 11
-1085.587172393884
 21
1091.000000004061
 31
0.0
  0
LINE
  5
197CF
330
18BB5
100
AcDbEntity
  8
SUNPOU
 62
     1
100
AcDbLine
 10
-1073.500000113727
 20
1097.999999415112
 30
0.0
 11
-1085.587172393884
 21
1097.999999415112
 31
0.0
  0
LINE
  5
197D0
330
18BB5
100
AcDbEntity
  8
SUNPOU
 62
     1
100
AcDbLine
 10
-1085.087172393884
 20
1088.000000004061
 30
0.0
 11
-1085.087172393884
 21
1085.000000004061
 31
0.0
  0
LINE
  5
197D1
330
18BB5
100
AcDbEntity
  8
SUNPOU
 62
     1
100
AcDbLine
 10
-1085.087172393884
 20
1100.999999415112
 30
0.0
 11
-1085.087172393884
 21
1103.999999415112
 31
0.0
  0
LINE
  5
197D2
330
18BB5
100
AcDbEntity
  8
SUNPOU
 62
     1
100
AcDbLine
 10
-1085.087172393884
 20
1091.000000004061
 30
0.0
 11
-1085.087172393884
 21
1097.999999415112
 31
0.0
  0
SOLID
  5
197D3
330
18BB5
100
AcDbEntity
  8
SUNPOU
 62
     1
100
AcDbTrace
 10
-1085.587172393884
 20
1088.000000004061
 30
0.0
 11
-1084.587172393884
 21
1088.000000004061
 31
0.0
 12
-1085.087172393884
 22
1091.000000004061
 32
0.0
 13
-1085.087172393884
 23
1091.000000004061
 33
0.0
  0
SOLID
  5
197D4
330
18BB5
100
AcDbEntity
  8
SUNPOU
 62
     1
100
AcDbTrace
 10
-1085.587172393884
 20
1100.999999415112
 30
0.0
 11
-1084.587172393884
 21
1100.999999415112
 31
0.0
 12
-1085.087172393884
 22
1097.999999415112
 32
0.0
 13
-1085.087172393884
 23
1097.999999415112
 33
0.0
  0
MTEXT
  5
197D5
330
18BB5
100
AcDbEntity
  8
SUNPOU
 62
     1
100
AcDbMText
 10
-1087.837172393885
 20
1094.499999709587
 30
0.0
 40
3.5
 41
0.0
 71
     5
 72
     1
  1
\A1;7
 11
0.0000000000000001
 21
1.0
 31
0.0
  0
POINT
  5
197D6
330
18BB5
100
AcDbEntity
  8
DEFPOINTS
 62
     0
100
AcDbPoint
 10
-1072.999999995938
 20
1091.000000004061
 30
0.0
  0
POINT
  5
197D7
330
18BB5
100
AcDbEntity
  8
DEFPOINTS
 62
     0
100
AcDbPoint
 10
-1073.000000113727
 20
1097.999999415112
 30
0.0
  0
POINT
  5
197D8
330
18BB5
100
AcDbEntity
  8
DEFPOINTS
 62
     0
100
AcDbPoint
 10
-1085.087172393884
 20
1097.999999415112
 30
0.0
  0
ENDBLK
  5
18BC2
330
18BB5
100
AcDbEntity
  8
0
100
AcDbBlockEnd
  0
BLOCK
  5
18D08
330
18CFE
100
AcDbEntity
  8
0
100
AcDbBlockBegin
  2
*D4
 70
     1
 10
0.0
 20
0.0
 30
0.0
  3
*D4
  1

  0
LINE
  5
19431
330
18CFE
100
AcDbEntity
  8
SUNPOU
 62
     1
100
AcDbLine
 10
-1000.0
 20
999.5
 30
0.0
 11
-1000.0
 21
986.240312857798
 31
0.0
  0
LINE
  5
19432
330
18CFE
100
AcDbEntity
  8
SUNPOU
 62
     1
100
AcDbLine
 10
-1037.5
 20
991.5
 30
0.0
 11
-1037.5
 21
986.240312857798
 31
0.0
  0
LINE
  5
19433
330
18CFE
100
AcDbEntity
  8
SUNPOU
 62
     1
100
AcDbLine
 10
-1003.0
 20
986.7403128577981
 30
0.0
 11
-1034.5
 21
986.7403128577981
 31
0.0
  0
SOLID
  5
19434
330
18CFE
100
AcDbEntity
  8
SUNPOU
 62
     1
100
AcDbTrace
 10
-1003.0
 20
987.2403128577982
 30
0.0
 11
-1003.0
 21
986.240312857798
 31
0.0
 12
-1000.0
 22
986.7403128577981
 32
0.0
 13
-1000.0
 23
986.7403128577981
 33
0.0
  0
SOLID
  5
19435
330
18CFE
100
AcDbEntity
  8
SUNPOU
 62
     1
100
AcDbTrace
 10
-1034.5
 20
987.2403128577982
 30
0.0
 11
-1034.5
 21
986.240312857798
 31
0.0
 12
-1037.5
 22
986.7403128577981
 32
0.0
 13
-1037.5
 23
986.7403128577981
 33
0.0
  0
MTEXT
  5
19436
330
18CFE
100
AcDbEntity
  8
SUNPOU
 62
     1
100
AcDbMText
 10
-1018.75
 20
989.4903128577981
 30
0.0
 40
3.5
 41
0.0
 71
     5
 72
     1
  1
\A1;37.5
1001
ACAD
1000
MTEXTBEGIN
1070
    73
1070
     1
1070
    44
1040
1.0
1070
    74
1070
     0
1000
MTEXTEND
  0
POINT
  5
19437
330
18CFE
100
AcDbEntity
  8
DEFPOINTS
 62
     0
100
AcDbPoint
 10
-1000.0
 20
1000.0
 30
0.0
  0
POINT
  5
19438
330
18CFE
100
AcDbEntity
  8
DEFPOINTS
 62
     0
100
AcDbPoint
 10
-1037.5
 20
992.0
 30
0.0
  0
POINT
  5
19439
330
18CFE
100
AcDbEntity
  8
DEFPOINTS
 62
     0
100
AcDbPoint
 10
-1037.5
 20
986.7403128577981
 30
0.0
  0
ENDBLK
  5
18D09
330
18CFE
100
AcDbEntity
  8
0
100
AcDbBlockEnd
  0
BLOCK
  5
18D15
330
18D0B
100
AcDbEntity
  8
0
100
AcDbBlockBegin
  2
*D5
 70
     1
 10
0.0
 20
0.0
 30
0.0
  3
*D5
  1

  0
LINE
  5
197D9
330
18D0B
100
AcDbEntity
  8
SUNPOU
 62
     1
100
AcDbLine
 10
-1037.5
 20
991.0
 30
0.0
 11
-1037.5
 21
986.240312857798
 31
0.0
  0
LINE
  5
197DA
330
18D0B
100
AcDbEntity
  8
SUNPOU
 62
     1
100
AcDbLine
 10
-1075.0
 20
1002.5
 30
0.0
 11
-1075.0
 21
986.240312857798
 31
0.0
  0
LINE
  5
197DB
330
18D0B
100
AcDbEntity
  8
SUNPOU
 62
     1
100
AcDbLine
 10
-1040.499999999999
 20
986.7403128577981
 30
0.0
 11
-1072.0
 21
986.7403128577981
 31
0.0
  0
SOLID
  5
197DC
330
18D0B
100
AcDbEntity
  8
SUNPOU
 62
     1
100
AcDbTrace
 10
-1040.499999999999
 20
987.2403128577982
 30
0.0
 11
-1040.499999999999
 21
986.240312857798
 31
0.0
 12
-1037.5
 22
986.7403128577981
 32
0.0
 13
-1037.5
 23
986.7403128577981
 33
0.0
  0
SOLID
  5
197DD
330
18D0B
100
AcDbEntity
  8
SUNPOU
 62
     1
100
AcDbTrace
 10
-1072.0
 20
987.2403128577982
 30
0.0
 11
-1072.0
 21
986.240312857798
 31
0.0
 12
-1075.0
 22
986.7403128577981
 32
0.0
 13
-1075.0
 23
986.7403128577981
 33
0.0
  0
MTEXT
  5
197DE
330
18D0B
100
AcDbEntity
  8
SUNPOU
 62
     1
100
AcDbMText
 10
-1056.25
 20
989.4903128577981
 30
0.0
 40
3.5
 41
0.0
 71
     5
 72
     1
  1
\A1;37.5
  0
POINT
  5
197DF
330
18D0B
100
AcDbEntity
  8
DEFPOINTS
 62
     0
100
AcDbPoint
 10
-1037.5
 20
991.5
 30
0.0
  0
POINT
  5
197E0
330
18D0B
100
AcDbEntity
  8
DEFPOINTS
 62
     0
100
AcDbPoint
 10
-1075.0
 20
1003.0
 30
0.0
  0
POINT
  5
197E1
330
18D0B
100
AcDbEntity
  8
DEFPOINTS
 62
     0
100
AcDbPoint
 10
-1075.0
 20
986.7403128577981
 30
0.0
  0
ENDBLK
  5
18D16
330
18D0B
100
AcDbEntity
  8
0
100
AcDbBlockEnd
  0
BLOCK
  5
18D4B
330
18D3F
100
AcDbEntity
  8
0
100
AcDbBlockBegin
  2
*D6
 70
     1
 10
0.0
 20
0.0
 30
0.0
  3
*D6
  1

  0
LINE
  5
19232
330
18D3F
100
AcDbEntity
  8
SUNPOU
 62
     1
100
AcDbLine
 10
-1039.250000113727
 20
1098.499999955321
 30
0.0
 11
-1039.250000113727
 21
1100.297699703743
 31
0.0
  0
LINE
  5
19233
330
18D3F
100
AcDbEntity
  8
SUNPOU
 62
     1
100
AcDbLine
 10
-1035.750000113727
 20
1098.500000012185
 30
0.0
 11
-1035.750000113727
 21
1100.297699703743
 31
0.0
  0
LINE
  5
19234
330
18D3F
100
AcDbEntity
  8
SUNPOU
 62
     1
100
AcDbLine
 10
-1042.250000113727
 20
1099.797699703744
 30
0.0
 11
-1045.250000113727
 21
1099.797699703744
 31
0.0
  0
LINE
  5
19235
330
18D3F
100
AcDbEntity
  8
SUNPOU
 62
     1
100
AcDbLine
 10
-1032.750000113727
 20
1099.797699703744
 30
0.0
 11
-1029.750000113727
 21
1099.797699703744
 31
0.0
  0
LINE
  5
19236
330
18D3F
100
AcDbEntity
  8
SUNPOU
 62
     1
100
AcDbLine
 10
-1039.250000113727
 20
1099.797699703744
 30
0.0
 11
-1035.750000113727
 21
1099.797699703744
 31
0.0
  0
SOLID
  5
19237
330
18D3F
100
AcDbEntity
  8
SUNPOU
 62
     1
100
AcDbTrace
 10
-1042.250000113727
 20
1100.297699703743
 30
0.0
 11
-1042.250000113727
 21
1099.297699703744
 31
0.0
 12
-1039.250000113727
 22
1099.797699703744
 32
0.0
 13
-1039.250000113727
 23
1099.797699703744
 33
0.0
  0
SOLID
  5
19238
330
18D3F
100
AcDbEntity
  8
SUNPOU
 62
     1
100
AcDbTrace
 10
-1032.750000113727
 20
1100.297699703743
 30
0.0
 11
-1032.750000113727
 21
1099.297699703744
 31
0.0
 12
-1035.750000113727
 22
1099.797699703744
 32
0.0
 13
-1035.750000113727
 23
1099.797699703744
 33
0.0
  0
MTEXT
  5
19239
330
18D3F
100
AcDbEntity
  8
SUNPOU
 62
     1
100
AcDbMText
 10
-1037.500000113728
 20
1102.547699703743
 30
0.0
 40
3.5
 41
0.0
 71
     5
 72
     1
  1
\A1;3.5
1001
ACAD
1000
MTEXTBEGIN
1070
    73
1070
     1
1070
    44
1040
1.0
1070
    74
1070
     0
1000
MTEXTEND
  0
POINT
  5
1923A
330
18D3F
100
AcDbEntity
  8
DEFPOINTS
 62
     0
100
AcDbPoint
 10
-1039.250000113727
 20
1097.999999955321
 30
0.0
  0
POINT
  5
1923B
330
18D3F
100
AcDbEntity
  8
DEFPOINTS
 62
     0
100
AcDbPoint
 10
-1035.750000113727
 20
1098.000000012185
 30
0.0
  0
POINT
  5
1923C
330
18D3F
100
AcDbEntity
  8
DEFPOINTS
 62
     0
100
AcDbPoint
 10
-1035.750000113727
 20
1099.797699703744
 30
0.0
  0
ENDBLK
  5
18D4C
330
18D3F
100
AcDbEntity
  8
0
100
AcDbBlockEnd
  0
BLOCK
  5
18D88
330
18D7E
100
AcDbEntity
  8
0
100
AcDbBlockBegin
  2
*D7
 70
     1
 10
0.0
 20
0.0
 30
0.0
  3
*D7
  1

  0
LINE
  5
1923D
330
18D7E
100
AcDbEntity
  8
SUNPOU
 62
     1
100
AcDbLine
 10
-1075.0
 20
1088.5
 30
0.0
 11
-1075.0
 21
1106.589185632429
 31
0.0
  0
LINE
  5
1923E
330
18D7E
100
AcDbEntity
  8
SUNPOU
 62
     1
100
AcDbLine
 10
-1000.0
 20
1091.5
 30
0.0
 11
-1000.0
 21
1106.589185632429
 31
0.0
  0
LINE
  5
1923F
330
18D7E
100
AcDbEntity
  8
SUNPOU
 62
     1
100
AcDbLine
 10
-1072.0
 20
1106.089185632429
 30
0.0
 11
-1003.0
 21
1106.089185632429
 31
0.0
  0
SOLID
  5
19240
330
18D7E
100
AcDbEntity
  8
SUNPOU
 62
     1
100
AcDbTrace
 10
-1072.0
 20
1106.589185632429
 30
0.0
 11
-1072.0
 21
1105.589185632429
 31
0.0
 12
-1075.0
 22
1106.089185632429
 32
0.0
 13
-1075.0
 23
1106.089185632429
 33
0.0
  0
SOLID
  5
19241
330
18D7E
100
AcDbEntity
  8
SUNPOU
 62
     1
100
AcDbTrace
 10
-1003.0
 20
1106.589185632429
 30
0.0
 11
-1003.0
 21
1105.589185632429
 31
0.0
 12
-1000.0
 22
1106.089185632429
 32
0.0
 13
-1000.0
 23
1106.089185632429
 33
0.0
  0
MTEXT
  5
19242
330
18D7E
100
AcDbEntity
  8
SUNPOU
 62
     1
100
AcDbMText
 10
-1036.49387921048
 20
1108.839185632429
 30
0.0
 40
3.5
 41
0.0
 71
     5
 72
     1
  1
\A1;75
1001
ACAD
1000
MTEXTBEGIN
1070
    73
1070
     1
1070
    44
1040
1.0
1070
    74
1070
     0
1000
MTEXTEND
  0
POINT
  5
19243
330
18D7E
100
AcDbEntity
  8
DEFPOINTS
 62
     0
100
AcDbPoint
 10
-1075.0
 20
1088.0
 30
0.0
  0
POINT
  5
19244
330
18D7E
100
AcDbEntity
  8
DEFPOINTS
 62
     0
100
AcDbPoint
 10
-1000.0
 20
1091.0
 30
0.0
  0
POINT
  5
19245
330
18D7E
100
AcDbEntity
  8
DEFPOINTS
 62
     0
100
AcDbPoint
 10
-1000.0
 20
1106.089185632429
 30
0.0
  0
ENDBLK
  5
18D89
330
18D7E
100
AcDbEntity
  8
0
100
AcDbBlockEnd
  0
BLOCK
  5
18DBB
330
18DB1
100
AcDbEntity
  8
0
100
AcDbBlockBegin
  2
*D8
 70
     1
 10
0.0
 20
0.0
 30
0.0
  3
*D8
  1

  0
LINE
  5
19592
330
18DB1
100
AcDbEntity
  8
SUNPOU
 62
     1
100
AcDbLine
 10
-940.0
 20
1007.5
 30
0.0
 11
-940.0
 21
987.5416290518201
 31
0.0
  0
LINE
  5
19593
330
18DB1
100
AcDbEntity
  8
SUNPOU
 62
     1
100
AcDbLine
 10
-860.5
 20
992.5
 30
0.0
 11
-860.5
 21
987.5416290518201
 31
0.0
  0
LINE
  5
19594
330
18DB1
100
AcDbEntity
  8
SUNPOU
 62
     1
100
AcDbLine
 10
-937.0
 20
988.0416290518201
 30
0.0
 11
-863.4999999999999
 21
988.0416290518201
 31
0.0
  0
SOLID
  5
19595
330
18DB1
100
AcDbEntity
  8
SUNPOU
 62
     1
100
AcDbTrace
 10
-937.0
 20
988.54162905182
 30
0.0
 11
-937.0
 21
987.5416290518201
 31
0.0
 12
-940.0
 22
988.0416290518201
 32
0.0
 13
-940.0
 23
988.0416290518201
 33
0.0
  0
SOLID
  5
19596
330
18DB1
100
AcDbEntity
  8
SUNPOU
 62
     1
100
AcDbTrace
 10
-863.4999999999999
 20
988.54162905182
 30
0.0
 11
-863.4999999999999
 21
987.5416290518201
 31
0.0
 12
-860.5
 22
988.0416290518201
 32
0.0
 13
-860.5
 23
988.0416290518201
 33
0.0
  0
MTEXT
  5
19597
330
18DB1
100
AcDbEntity
  8
SUNPOU
 62
     1
100
AcDbMText
 10
-900.2499999999999
 20
990.7916290518201
 30
0.0
 40
3.5
 41
0.0
 71
     5
 72
     1
  1
\A1;79.5
1001
ACAD
1000
MTEXTBEGIN
1070
    73
1070
     1
1070
    44
1040
1.0
1070
    74
1070
     0
1000
MTEXTEND
  0
POINT
  5
19598
330
18DB1
100
AcDbEntity
  8
DEFPOINTS
 62
     0
100
AcDbPoint
 10
-940.0
 20
1008.0
 30
0.0
  0
POINT
  5
19599
330
18DB1
100
AcDbEntity
  8
DEFPOINTS
 62
     0
100
AcDbPoint
 10
-860.5
 20
993.0
 30
0.0
  0
POINT
  5
1959A
330
18DB1
100
AcDbEntity
  8
DEFPOINTS
 62
     0
100
AcDbPoint
 10
-860.5
 20
988.0416290518201
 30
0.0
  0
ENDBLK
  5
18DBC
330
18DB1
100
AcDbEntity
  8
0
100
AcDbBlockEnd
  0
BLOCK
  5
18DC8
330
18DBE
100
AcDbEntity
  8
0
100
AcDbBlockBegin
  2
*D9
 70
     1
 10
0.0
 20
0.0
 30
0.0
  3
*D9
  1

  0
LINE
  5
192F6
330
18DBE
100
AcDbEntity
  8
SUNPOU
 62
     1
100
AcDbLine
 10
-958.5000011069523
 20
1082.47000101551
 30
0.0
 11
-958.5000011069523
 21
1106.183068686163
 31
0.0
  0
LINE
  5
192F7
330
18DBE
100
AcDbEntity
  8
SUNPOU
 62
     1
100
AcDbLine
 10
-857.5000000000001
 20
1098.5
 30
0.0
 11
-857.5000000000001
 21
1106.183068686163
 31
0.0
  0
LINE
  5
192F8
330
18DBE
100
AcDbEntity
  8
SUNPOU
 62
     1
100
AcDbLine
 10
-955.5000011069523
 20
1105.683068686163
 30
0.0
 11
-860.5
 21
1105.683068686163
 31
0.0
  0
SOLID
  5
192F9
330
18DBE
100
AcDbEntity
  8
SUNPOU
 62
     1
100
AcDbTrace
 10
-955.5000011069523
 20
1106.183068686163
 30
0.0
 11
-955.5000011069523
 21
1105.183068686163
 31
0.0
 12
-958.5000011069523
 22
1105.683068686163
 32
0.0
 13
-958.5000011069523
 23
1105.683068686163
 33
0.0
  0
SOLID
  5
192FA
330
18DBE
100
AcDbEntity
  8
SUNPOU
 62
     1
100
AcDbTrace
 10
-860.5
 20
1106.183068686163
 30
0.0
 11
-860.5
 21
1105.183068686163
 31
0.0
 12
-857.5000000000001
 22
1105.683068686163
 32
0.0
 13
-857.5000000000001
 23
1105.683068686163
 33
0.0
  0
MTEXT
  5
192FB
330
18DBE
100
AcDbEntity
  8
SUNPOU
 62
     1
100
AcDbMText
 10
-908.0000005534762
 20
1108.433068686163
 30
0.0
 40
3.5
 41
0.0
 71
     5
 72
     1
  1
\A1;(101)
1001
ACAD
1000
MTEXTBEGIN
1070
    73
1070
     1
1070
    44
1040
1.0
1070
    74
1070
     0
1000
MTEXTEND
  0
POINT
  5
192FC
330
18DBE
100
AcDbEntity
  8
DEFPOINTS
 62
     0
100
AcDbPoint
 10
-958.5000011069523
 20
1081.97000101551
 30
0.0
  0
POINT
  5
192FD
330
18DBE
100
AcDbEntity
  8
DEFPOINTS
 62
     0
100
AcDbPoint
 10
-857.5000000000001
 20
1098.0
 30
0.0
  0
POINT
  5
192FE
330
18DBE
100
AcDbEntity
  8
DEFPOINTS
 62
     0
100
AcDbPoint
 10
-857.5000000000001
 20
1105.683068686163
 30
0.0
  0
ENDBLK
  5
18DC9
330
18DBE
100
AcDbEntity
  8
0
100
AcDbBlockEnd
  0
BLOCK
  5
18EAF
330
18EA5
100
AcDbEntity
  8
0
100
AcDbBlockBegin
  2
*D10
 70
     1
 10
0.0
 20
0.0
 30
0.0
  3
*D10
  1

  0
LINE
  5
19744
330
18EA5
100
AcDbEntity
  8
SUNPOU
 62
     1
100
AcDbLine
 10
-1011.5
 20
955.4999999999999
 30
0.0
 11
-972.8371634326393
 21
955.4999999999999
 31
0.0
  0
LINE
  5
19745
330
18EA5
100
AcDbEntity
  8
SUNPOU
 62
     1
100
AcDbLine
 10
-1001.5
 20
873.0
 30
0.0
 11
-972.8371634326393
 21
873.0
 31
0.0
  0
LINE
  5
19746
330
18EA5
100
AcDbEntity
  8
SUNPOU
 62
     1
100
AcDbLine
 10
-973.3371634326392
 20
952.5
 30
0.0
 11
-973.3371634326392
 21
876.0
 31
0.0
  0
SOLID
  5
19747
330
18EA5
100
AcDbEntity
  8
SUNPOU
 62
     1
100
AcDbTrace
 10
-973.8371634326393
 20
952.5
 30
0.0
 11
-972.8371634326393
 21
952.5
 31
0.0
 12
-973.3371634326392
 22
955.4999999999999
 32
0.0
 13
-973.3371634326392
 23
955.4999999999999
 33
0.0
  0
SOLID
  5
19748
330
18EA5
100
AcDbEntity
  8
SUNPOU
 62
     1
100
AcDbTrace
 10
-973.8371634326393
 20
876.0
 30
0.0
 11
-972.8371634326393
 21
876.0
 31
0.0
 12
-973.3371634326392
 22
873.0
 32
0.0
 13
-973.3371634326392
 23
873.0
 33
0.0
  0
MTEXT
  5
19749
330
18EA5
100
AcDbEntity
  8
SUNPOU
 62
     1
100
AcDbMText
 10
-976.0871634326395
 20
914.2499999999998
 30
0.0
 40
3.5
 41
0.0
 71
     5
 72
     1
  1
\A1;82.5
 11
0.0000000000000001
 21
1.0
 31
0.0
1001
ACAD
1000
MTEXTBEGIN
1070
    73
1070
     1
1070
    44
1040
1.0
1070
    74
1070
     0
1000
MTEXTEND
  0
POINT
  5
1974A
330
18EA5
100
AcDbEntity
  8
DEFPOINTS
 62
     0
100
AcDbPoint
 10
-1012.0
 20
955.4999999999999
 30
0.0
  0
POINT
  5
1974B
330
18EA5
100
AcDbEntity
  8
DEFPOINTS
 62
     0
100
AcDbPoint
 10
-1002.0
 20
873.0
 30
0.0
  0
POINT
  5
1974C
330
18EA5
100
AcDbEntity
  8
DEFPOINTS
 62
     0
100
AcDbPoint
 10
-973.3371634326392
 20
873.0
 30
0.0
  0
ENDBLK
  5
18EB0
330
18EA5
100
AcDbEntity
  8
0
100
AcDbBlockEnd
  0
BLOCK
  5
18EF2
330
18EE8
100
AcDbEntity
  8
0
100
AcDbBlockBegin
  2
*D11
 70
     1
 10
0.0
 20
0.0
 30
0.0
  3
*D11
  1

  0
LINE
  5
19199
330
18EE8
100
AcDbEntity
  8
SUNPOU
 62
     1
100
AcDbLine
 10
-1075.0
 20
942.5
 30
0.0
 11
-1075.0
 21
864.9575018218063
 31
0.0
  0
LINE
  5
1919A
330
18EE8
100
AcDbEntity
  8
SUNPOU
 62
     1
100
AcDbLine
 10
-1000.0
 20
874.5
 30
0.0
 11
-1000.0
 21
864.9575018218063
 31
0.0
  0
LINE
  5
1919B
330
18EE8
100
AcDbEntity
  8
SUNPOU
 62
     1
100
AcDbLine
 10
-1072.0
 20
865.4575018218062
 30
0.0
 11
-1003.0
 21
865.4575018218062
 31
0.0
  0
SOLID
  5
1919C
330
18EE8
100
AcDbEntity
  8
SUNPOU
 62
     1
100
AcDbTrace
 10
-1072.0
 20
865.9575018218063
 30
0.0
 11
-1072.0
 21
864.9575018218063
 31
0.0
 12
-1075.0
 22
865.4575018218062
 32
0.0
 13
-1075.0
 23
865.4575018218062
 33
0.0
  0
SOLID
  5
1919D
330
18EE8
100
AcDbEntity
  8
SUNPOU
 62
     1
100
AcDbTrace
 10
-1003.0
 20
865.9575018218063
 30
0.0
 11
-1003.0
 21
864.9575018218063
 31
0.0
 12
-1000.0
 22
865.4575018218062
 32
0.0
 13
-1000.0
 23
865.4575018218062
 33
0.0
  0
MTEXT
  5
1919E
330
18EE8
100
AcDbEntity
  8
SUNPOU
 62
     1
100
AcDbMText
 10
-1037.5
 20
868.2075018218062
 30
0.0
 40
3.5
 41
0.0
 71
     5
 72
     1
  1
\A1;75
1001
ACAD
1000
MTEXTBEGIN
1070
    73
1070
     1
1070
    44
1040
1.0
1070
    74
1070
     0
1000
MTEXTEND
  0
POINT
  5
1919F
330
18EE8
100
AcDbEntity
  8
DEFPOINTS
 62
     0
100
AcDbPoint
 10
-1075.0
 20
943.0
 30
0.0
  0
POINT
  5
191A0
330
18EE8
100
AcDbEntity
  8
DEFPOINTS
 62
     0
100
AcDbPoint
 10
-1000.0
 20
875.0
 30
0.0
  0
POINT
  5
191A1
330
18EE8
100
AcDbEntity
  8
DEFPOINTS
 62
     0
100
AcDbPoint
 10
-1000.0
 20
865.4575018218062
 30
0.0
  0
ENDBLK
  5
18EF3
330
18EE8
100
AcDbEntity
  8
0
100
AcDbBlockEnd
  0
BLOCK
  5
18F04
330
18EF5
100
AcDbEntity
  8
0
100
AcDbBlockBegin
  2
*D12
 70
     1
 10
0.0
 20
0.0
 30
0.0
  3
*D12
  1

  0
LINE
  5
197E2
330
18EF5
100
AcDbEntity
  8
SUNPOU
 62
     1
100
AcDbLine
 10
-1000.0
 20
874.5
 30
0.0
 11
-1000.0
 21
864.9575018218063
 31
0.0
  0
LINE
  5
197E3
330
18EF5
100
AcDbEntity
  8
SUNPOU
 62
     1
100
AcDbLine
 10
-998.0
 20
878.5
 30
0.0
 11
-998.0
 21
864.9575018218063
 31
0.0
  0
LINE
  5
197E4
330
18EF5
100
AcDbEntity
  8
SUNPOU
 62
     1
100
AcDbLine
 10
-1003.0
 20
865.4575018218062
 30
0.0
 11
-1006.0
 21
865.4575018218062
 31
0.0
  0
LINE
  5
197E5
330
18EF5
100
AcDbEntity
  8
SUNPOU
 62
     1
100
AcDbLine
 10
-995.0
 20
865.4575018218062
 30
0.0
 11
-992.0
 21
865.4575018218062
 31
0.0
  0
MTEXT
  5
197E6
330
18EF5
100
AcDbEntity
  8
SUNPOU
 62
     1
100
AcDbMText
 10
-992.0
 20
868.2075018218062
 30
0.0
 40
3.5
 41
0.0
 71
     5
 72
     1
  1
\A1;(2)
  0
LINE
  5
197E7
330
18EF5
100
AcDbEntity
  8
SUNPOU
 62
     1
100
AcDbLine
 10
-1000.0
 20
865.4575018218062
 30
0.0
 11
-998.0
 21
865.4575018218062
 31
0.0
  0
SOLID
  5
197E8
330
18EF5
100
AcDbEntity
  8
SUNPOU
 62
     1
100
AcDbTrace
 10
-1003.0
 20
865.9575018218063
 30
0.0
 11
-1003.0
 21
864.9575018218063
 31
0.0
 12
-1000.0
 22
865.4575018218062
 32
0.0
 13
-1000.0
 23
865.4575018218062
 33
0.0
  0
SOLID
  5
197E9
330
18EF5
100
AcDbEntity
  8
SUNPOU
 62
     1
100
AcDbTrace
 10
-995.0
 20
865.9575018218063
 30
0.0
 11
-995.0
 21
864.9575018218063
 31
0.0
 12
-998.0
 22
865.4575018218062
 32
0.0
 13
-998.0
 23
865.4575018218062
 33
0.0
  0
POINT
  5
197EA
330
18EF5
100
AcDbEntity
  8
DEFPOINTS
 62
     0
100
AcDbPoint
 10
-1000.0
 20
875.0
 30
0.0
  0
POINT
  5
197EB
330
18EF5
100
AcDbEntity
  8
DEFPOINTS
 62
     0
100
AcDbPoint
 10
-998.0
 20
879.0
 30
0.0
  0
POINT
  5
197EC
330
18EF5
100
AcDbEntity
  8
DEFPOINTS
 62
     0
100
AcDbPoint
 10
-998.0
 20
865.4575018218062
 30
0.0
  0
ENDBLK
  5
18F05
330
18EF5
100
AcDbEntity
  8
0
100
AcDbBlockEnd
  0
BLOCK
  5
18F1D
330
18F13
100
AcDbEntity
  8
0
100
AcDbBlockBegin
  2
*D13
 70
     1
 10
0.0
 20
0.0
 30
0.0
  3
*D13
  1

  0
LINE
  5
197ED
330
18F13
100
AcDbEntity
  8
SUNPOU
 62
     1
100
AcDbLine
 10
-1075.0
 20
942.5
 30
0.0
 11
-1075.0
 21
864.9575018218063
 31
0.0
  0
LINE
  5
197EE
330
18F13
100
AcDbEntity
  8
SUNPOU
 62
     1
100
AcDbLine
 10
-1077.0
 20
944.0
 30
0.0
 11
-1077.0
 21
864.9575018218063
 31
0.0
  0
LINE
  5
197EF
330
18F13
100
AcDbEntity
  8
SUNPOU
 62
     1
100
AcDbLine
 10
-1072.0
 20
865.4575018218062
 30
0.0
 11
-1069.0
 21
865.4575018218062
 31
0.0
  0
LINE
  5
197F0
330
18F13
100
AcDbEntity
  8
SUNPOU
 62
     1
100
AcDbLine
 10
-1080.0
 20
865.4575018218062
 30
0.0
 11
-1083.0
 21
865.4575018218062
 31
0.0
  0
MTEXT
  5
197F1
330
18F13
100
AcDbEntity
  8
SUNPOU
 62
     1
100
AcDbMText
 10
-1081.856224907727
 20
869.3703159735472
 30
0.0
 40
3.5
 41
0.0
 71
     5
 72
     1
  1
\A1;(2)
  0
LINE
  5
197F2
330
18F13
100
AcDbEntity
  8
SUNPOU
 62
     1
100
AcDbLine
 10
-1075.0
 20
865.4575018218062
 30
0.0
 11
-1077.0
 21
865.4575018218062
 31
0.0
  0
SOLID
  5
197F3
330
18F13
100
AcDbEntity
  8
SUNPOU
 62
     1
100
AcDbTrace
 10
-1072.0
 20
865.9575018218063
 30
0.0
 11
-1072.0
 21
864.9575018218063
 31
0.0
 12
-1075.0
 22
865.4575018218062
 32
0.0
 13
-1075.0
 23
865.4575018218062
 33
0.0
  0
SOLID
  5
197F4
330
18F13
100
AcDbEntity
  8
SUNPOU
 62
     1
100
AcDbTrace
 10
-1080.0
 20
865.9575018218063
 30
0.0
 11
-1080.0
 21
864.9575018218063
 31
0.0
 12
-1077.0
 22
865.4575018218062
 32
0.0
 13
-1077.0
 23
865.4575018218062
 33
0.0
  0
POINT
  5
197F5
330
18F13
100
AcDbEntity
  8
DEFPOINTS
 62
     0
100
AcDbPoint
 10
-1075.0
 20
943.0
 30
0.0
  0
POINT
  5
197F6
330
18F13
100
AcDbEntity
  8
DEFPOINTS
 62
     0
100
AcDbPoint
 10
-1077.0
 20
944.5
 30
0.0
  0
POINT
  5
197F7
330
18F13
100
AcDbEntity
  8
DEFPOINTS
 62
     0
100
AcDbPoint
 10
-1077.0
 20
865.4575018218062
 30
0.0
  0
ENDBLK
  5
18F1E
330
18F13
100
AcDbEntity
  8
0
100
AcDbBlockEnd
  0
BLOCK
  5
1903C
330
1902D
100
AcDbEntity
  8
0
100
AcDbBlockBegin
  2
*D14
 70
     1
 10
0.0
 20
0.0
 30
0.0
  3
*D14
  1

  0
LINE
  5
197F8
330
1902D
100
AcDbEntity
  8
SUNPOU
 62
     1
100
AcDbLine
 10
-860.5
 20
992.5
 30
0.0
 11
-860.5
 21
987.5416290518201
 31
0.0
  0
LINE
  5
197F9
330
1902D
100
AcDbEntity
  8
SUNPOU
 62
     1
100
AcDbLine
 10
-857.5000000000001
 20
992.5
 30
0.0
 11
-857.5000000000001
 21
987.5416290518201
 31
0.0
  0
LINE
  5
197FA
330
1902D
100
AcDbEntity
  8
SUNPOU
 62
     1
100
AcDbLine
 10
-863.4999999999999
 20
988.0416290518201
 30
0.0
 11
-866.5
 21
988.0416290518201
 31
0.0
  0
LINE
  5
197FB
330
1902D
100
AcDbEntity
  8
SUNPOU
 62
     1
100
AcDbLine
 10
-854.4999999999999
 20
988.0416290518201
 30
0.0
 11
-851.5
 21
988.0416290518201
 31
0.0
  0
MTEXT
  5
197FC
330
1902D
100
AcDbEntity
  8
SUNPOU
 62
     1
100
AcDbMText
 10
-854.4999999999999
 20
991.29162905182
 30
0.0
 40
3.5
 41
0.0
 71
     5
 72
     1
  1
\A1;3
  0
LINE
  5
197FD
330
1902D
100
AcDbEntity
  8
SUNPOU
 62
     1
100
AcDbLine
 10
-860.5
 20
988.0416290518201
 30
0.0
 11
-857.5000000000001
 21
988.0416290518201
 31
0.0
  0
SOLID
  5
197FE
330
1902D
100
AcDbEntity
  8
SUNPOU
 62
     1
100
AcDbTrace
 10
-863.4999999999999
 20
988.54162905182
 30
0.0
 11
-863.4999999999999
 21
987.5416290518201
 31
0.0
 12
-860.5
 22
988.0416290518201
 32
0.0
 13
-860.5
 23
988.0416290518201
 33
0.0
  0
SOLID
  5
197FF
330
1902D
100
AcDbEntity
  8
SUNPOU
 62
     1
100
AcDbTrace
 10
-854.4999999999999
 20
988.54162905182
 30
0.0
 11
-854.4999999999999
 21
987.5416290518201
 31
0.0
 12
-857.5000000000001
 22
988.0416290518201
 32
0.0
 13
-857.5000000000001
 23
988.0416290518201
 33
0.0
  0
POINT
  5
19800
330
1902D
100
AcDbEntity
  8
DEFPOINTS
 62
     0
100
AcDbPoint
 10
-860.5
 20
993.0
 30
0.0
  0
POINT
  5
19801
330
1902D
100
AcDbEntity
  8
DEFPOINTS
 62
     0
100
AcDbPoint
 10
-857.5000000000001
 20
993.0
 30
0.0
  0
POINT
  5
19802
330
1902D
100
AcDbEntity
  8
DEFPOINTS
 62
     0
100
AcDbPoint
 10
-857.5000000000001
 20
988.0416290518201
 30
0.0
  0
ENDBLK
  5
1903D
330
1902D
100
AcDbEntity
  8
0
100
AcDbBlockEnd
  0
BLOCK
  5
193EE
330
193E4
100
AcDbEntity
  8
0
100
AcDbBlockBegin
  2
*D15
 70
     1
 10
0.0
 20
0.0
 30
0.0
  3
*D15
  1

  0
LINE
  5
193F9
330
193E4
100
AcDbEntity
  8
SUNPOU
 62
     1
100
AcDbLine
 10
-1033.000000064987
 20
1095.00000004874
 30
0.0
 11
-988.2297965167552
 21
1095.00000004874
 31
0.0
  0
LINE
  5
193FA
330
193E4
100
AcDbEntity
  8
SUNPOU
 62
     1
100
AcDbLine
 10
-1033.0
 20
996.0
 30
0.0
 11
-988.2297965167552
 21
996.0
 31
0.0
  0
LINE
  5
193FB
330
193E4
100
AcDbEntity
  8
SUNPOU
 62
     1
100
AcDbLine
 10
-988.7297965167551
 20
1092.00000004874
 30
0.0
 11
-988.7297965167551
 21
999.0
 31
0.0
  0
SOLID
  5
193FC
330
193E4
100
AcDbEntity
  8
SUNPOU
 62
     1
100
AcDbTrace
 10
-989.2297965167552
 20
1092.00000004874
 30
0.0
 11
-988.2297965167552
 21
1092.00000004874
 31
0.0
 12
-988.7297965167551
 22
1095.00000004874
 32
0.0
 13
-988.7297965167551
 23
1095.00000004874
 33
0.0
  0
SOLID
  5
193FD
330
193E4
100
AcDbEntity
  8
SUNPOU
 62
     1
100
AcDbTrace
 10
-989.2297965167552
 20
999.0
 30
0.0
 11
-988.2297965167552
 21
999.0
 31
0.0
 12
-988.7297965167551
 22
996.0
 32
0.0
 13
-988.7297965167551
 23
996.0
 33
0.0
  0
MTEXT
  5
193FE
330
193E4
100
AcDbEntity
  8
SUNPOU
 62
     1
100
AcDbMText
 10
-991.4797965167553
 20
1045.50000002437
 30
0.0
 40
3.5
 41
0.0
 71
     5
 72
     1
  1
\A1;99(USER取付寸法)
 11
0.0000000000000001
 21
1.0
 31
0.0
1001
ACAD
1000
MTEXTBEGIN
1070
    73
1070
     1
1070
    44
1040
1.0
1070
    74
1070
     0
1000
MTEXTEND
  0
POINT
  5
193FF
330
193E4
100
AcDbEntity
  8
DEFPOINTS
 62
     0
100
AcDbPoint
 10
-1033.500000064987
 20
1095.00000004874
 30
0.0
  0
POINT
  5
19400
330
193E4
100
AcDbEntity
  8
DEFPOINTS
 62
     0
100
AcDbPoint
 10
-1033.5
 20
996.0
 30
0.0
  0
POINT
  5
19401
330
193E4
100
AcDbEntity
  8
DEFPOINTS
 62
     0
100
AcDbPoint
 10
-988.7297965167551
 20
996.0
 30
0.0
  0
ENDBLK
  5
193EF
330
193E4
100
AcDbEntity
  8
0
100
AcDbBlockEnd
  0
BLOCK
  5
194BD
330
194B3
100
AcDbEntity
  8
0
100
AcDbBlockBegin
  2
*D16
 70
     1
 10
0.0
 20
0.0
 30
0.0
  3
*D16
  1

  0
LINE
  5
194EC
330
194B3
100
AcDbEntity
  8
SUNPOU
 62
     1
100
AcDbLine
 10
-1034.5
 20
847.0
 30
0.0
 11
-979.5074753903071
 21
847.0
 31
0.0
  0
LINE
  5
194ED
330
194B3
100
AcDbEntity
  8
SUNPOU
 62
     1
100
AcDbLine
 10
-1034.5
 20
748.0
 30
0.0
 11
-979.5074753903072
 21
748.0
 31
0.0
  0
LINE
  5
194EE
330
194B3
100
AcDbEntity
  8
SUNPOU
 62
     1
100
AcDbLine
 10
-980.0074753903071
 20
844.0
 30
0.0
 11
-980.0074753903073
 21
751.0
 31
0.0
  0
SOLID
  5
194EF
330
194B3
100
AcDbEntity
  8
SUNPOU
 62
     1
100
AcDbTrace
 10
-980.507475390307
 20
844.0
 30
0.0
 11
-979.5074753903071
 21
844.0
 31
0.0
 12
-980.0074753903071
 22
847.0
 32
0.0
 13
-980.0074753903071
 23
847.0
 33
0.0
  0
SOLID
  5
194F0
330
194B3
100
AcDbEntity
  8
SUNPOU
 62
     1
100
AcDbTrace
 10
-980.5074753903072
 20
751.0
 30
0.0
 11
-979.5074753903072
 21
751.0
 31
0.0
 12
-980.0074753903073
 22
748.0
 32
0.0
 13
-980.0074753903073
 23
748.0
 33
0.0
  0
MTEXT
  5
194F1
330
194B3
100
AcDbEntity
  8
SUNPOU
 62
     1
100
AcDbMText
 10
-982.7574753903073
 20
797.4999999999998
 30
0.0
 40
3.5
 41
0.0
 71
     5
 72
     1
  1
\A1;99(USER取付寸法)
 11
0.0000000000000001
 21
1.0
 31
0.0
1001
ACAD
1000
MTEXTBEGIN
1070
    73
1070
     1
1070
    44
1040
1.0
1070
    74
1070
     0
1000
MTEXTEND
  0
POINT
  5
194F2
330
194B3
100
AcDbEntity
  8
DEFPOINTS
 62
     0
100
AcDbPoint
 10
-1035.0
 20
847.0
 30
0.0
  0
POINT
  5
194F3
330
194B3
100
AcDbEntity
  8
DEFPOINTS
 62
     0
100
AcDbPoint
 10
-1035.0
 20
748.0
 30
0.0
  0
POINT
  5
194F4
330
194B3
100
AcDbEntity
  8
DEFPOINTS
 62
     0
100
AcDbPoint
 10
-980.0074753903073
 20
748.0
 30
0.0
  0
ENDBLK
  5
194BE
330
194B3
100
AcDbEntity
  8
0
100
AcDbBlockEnd
  0
BLOCK
  5
19758
330
1974E
100
AcDbEntity
  8
0
100
AcDbBlockBegin
  2
*D17
 70
     1
 10
0.0
 20
0.0
 30
0.0
  3
*D17
  1

  0
LINE
  5
1974F
330
1974E
100
AcDbEntity
  8
ZISSEN1
 62
     1
100
AcDbLine
 10
-999.5
 20
947.4999999999999
 30
0.0
 11
-985.1939035389328
 21
947.4999999999999
 31
0.0
  0
LINE
  5
19750
330
1974E
100
AcDbEntity
  8
ZISSEN1
 62
     1
100
AcDbLine
 10
-1001.5
 20
873.0
 30
0.0
 11
-985.1939035389328
 21
873.0
 31
0.0
  0
LINE
  5
19751
330
1974E
100
AcDbEntity
  8
ZISSEN1
 62
     1
100
AcDbLine
 10
-985.6939035389327
 20
944.5
 30
0.0
 11
-985.6939035389327
 21
876.0
 31
0.0
  0
SOLID
  5
19752
330
1974E
100
AcDbEntity
  8
ZISSEN1
 62
     1
100
AcDbTrace
 10
-986.1939035389328
 20
944.5
 30
0.0
 11
-985.1939035389328
 21
944.5
 31
0.0
 12
-985.6939035389327
 22
947.4999999999999
 32
0.0
 13
-985.6939035389327
 23
947.4999999999999
 33
0.0
  0
SOLID
  5
19753
330
1974E
100
AcDbEntity
  8
ZISSEN1
 62
     1
100
AcDbTrace
 10
-986.1939035389328
 20
876.0
 30
0.0
 11
-985.1939035389328
 21
876.0
 31
0.0
 12
-985.6939035389327
 22
873.0
 32
0.0
 13
-985.6939035389327
 23
873.0
 33
0.0
  0
MTEXT
  5
19754
330
1974E
100
AcDbEntity
  8
ZISSEN1
 62
     1
100
AcDbMText
 10
-988.443903538933
 20
910.2499999999999
 30
0.0
 40
3.5
 41
0.0
 71
     5
 72
     1
  1
\A1;74.5
 11
0.0000000000000001
 21
1.0
 31
0.0
1001
ACAD
1000
MTEXTBEGIN
1070
    73
1070
     1
1070
    44
1040
1.0
1070
    74
1070
     0
1000
MTEXTEND
  0
POINT
  5
19755
330
1974E
100
AcDbEntity
  8
DEFPOINTS
 62
     0
100
AcDbPoint
 10
-1000.0
 20
947.4999999999999
 30
0.0
  0
POINT
  5
19756
330
1974E
100
AcDbEntity
  8
DEFPOINTS
 62
     0
100
AcDbPoint
 10
-1002.0
 20
873.0
 30
0.0
  0
POINT
  5
19757
330
1974E
100
AcDbEntity
  8
DEFPOINTS
 62
     0
100
AcDbPoint
 10
-985.6939035389327
 20
873.0
 30
0.0
  0
ENDBLK
  5
19759
330
1974E
100
AcDbEntity
  8
0
100
AcDbBlockEnd
  0
BLOCK
  5
19767
330
1975B
100
AcDbEntity
  8
0
100
AcDbBlockBegin
  2
*D18
 70
     1
 10
0.0
 20
0.0
 30
0.0
  3
*D18
  1

  0
LINE
  5
19775
330
1975B
100
AcDbEntity
  8
ZISSEN1
 62
     1
100
AcDbLine
 10
-986.1791913416308
 20
947.4967323453597
 30
0.0
 11
-986.1942493384416
 21
947.4967323453597
 31
0.0
  0
LINE
  5
19776
330
1975B
100
AcDbEntity
  8
ZISSEN1
 62
     1
100
AcDbLine
 10
-1010.985287802697
 20
955.4967323453597
 30
0.0
 11
-985.1942493384417
 21
955.4967323453597
 31
0.0
  0
LINE
  5
19777
330
1975B
100
AcDbEntity
  8
ZISSEN1
 62
     1
100
AcDbLine
 10
-985.6942493384417
 20
950.4967323453596
 30
0.0
 11
-985.6942493384417
 21
952.4967323453598
 31
0.0
  0
LINE
  5
19778
330
1975B
100
AcDbEntity
  8
ZISSEN1
 62
     1
100
AcDbLine
 10
-985.6942493384417
 20
955.4967323453597
 30
0.0
 11
-985.6942493384417
 21
967.4967323453598
 31
0.0
  0
SOLID
  5
19779
330
1975B
100
AcDbEntity
  8
ZISSEN1
 62
     1
100
AcDbTrace
 10
-986.1942493384416
 20
950.4967323453596
 30
0.0
 11
-985.1942493384417
 21
950.4967323453596
 31
0.0
 12
-985.6942493384417
 22
947.4967323453597
 32
0.0
 13
-985.6942493384417
 23
947.4967323453597
 33
0.0
  0
SOLID
  5
1977A
330
1975B
100
AcDbEntity
  8
ZISSEN1
 62
     1
100
AcDbTrace
 10
-986.1942493384416
 20
952.4967323453598
 30
0.0
 11
-985.1942493384417
 21
952.4967323453598
 31
0.0
 12
-985.6942493384417
 22
955.4967323453597
 32
0.0
 13
-985.6942493384417
 23
955.4967323453597
 33
0.0
  0
MTEXT
  5
1977B
330
1975B
100
AcDbEntity
  8
ZISSEN1
 62
     1
100
AcDbMText
 10
-988.4442493384419
 20
962.9967323453596
 30
0.0
 40
3.5
 41
0.0
 71
     5
 72
     1
  1
\A1;(8)
 11
0.0000000000000001
 21
1.0
 31
0.0
1001
ACAD
1000
MTEXTBEGIN
1070
    73
1070
     1
1070
    44
1040
1.0
1070
    74
1070
     0
1000
MTEXTEND
  0
POINT
  5
1977C
330
1975B
100
AcDbEntity
  8
DEFPOINTS
 62
     0
100
AcDbPoint
 10
-985.6791913416307
 20
947.4967323453597
 30
0.0
  0
POINT
  5
1977D
330
1975B
100
AcDbEntity
  8
DEFPOINTS
 62
     0
100
AcDbPoint
 10
-1011.485287802698
 20
955.4967323453597
 30
0.0
  0
POINT
  5
1977E
330
1975B
100
AcDbEntity
  8
DEFPOINTS
 62
     0
100
AcDbPoint
 10
-985.6942493384417
 20
955.4967323453597
 30
0.0
  0
ENDBLK
  5
19768
330
1975B
100
AcDbEntity
  8
0
100
AcDbBlockEnd
  0
ENDSEC
  0
SECTION
  2
ENTITIES
  0
MTEXT
  5
5084
330
1A
100
AcDbEntity
  8
0
100
AcDbMText
 10
1985.239088685435
 20
-948.5420423450428
 30
0.0
 40
8.0
 41
0.0
 71
     7
 72
     5
  1

1001
ACAD
1000
MTEXTBEGIN
1070
    73
1070
     1
1070
    44
1040
1.0
1070
    74
1070
     0
1000
MTEXTEND
  0
MTEXT
  5
5085
330
1A
100
AcDbEntity
  8
0
100
AcDbMText
 10
4270.596778580329
 20
22.24825240601649
 30
0.0
 40
8.0
 41
0.0
 71
     7
 72
     5
  1

1001
ACAD
1000
MTEXTBEGIN
1070
    73
1070
     1
1070
    44
1040
1.0
1070
    74
1070
     0
1000
MTEXTEND
  0
MTEXT
  5
5343
330
1A
100
AcDbEntity
  8
SUNPOU
100
AcDbMText
 10
6936.493799262471
 20
9534.359644781135
 30
0.0
 40
10.5
 41
0.0
 71
     1
 72
     5
  1

1001
ACAD
1000
MTEXTBEGIN
1070
    73
1070
     1
1070
    44
1040
1.0
1070
    74
1070
     0
1000
MTEXTEND
  0
MTEXT
  5
544F
330
1A
100
AcDbEntity
  8
0
100
AcDbMText
 10
16317.2832773148
 20
12833.35428897674
 30
0.0
 40
8.0
 41
0.0
 71
     7
 72
     5
  1

1001
ACAD
1000
MTEXTBEGIN
1070
    73
1070
     1
1070
    44
1040
1.0
1070
    74
1070
     0
1000
MTEXTEND
  0
MTEXT
  5
5450
330
1A
100
AcDbEntity
  8
0
100
AcDbMText
 10
18602.64096720969
 20
13804.1445837278
 30
0.0
 40
8.0
 41
0.0
 71
     7
 72
     5
  1

1001
ACAD
1000
MTEXTBEGIN
1070
    73
1070
     1
1070
    44
1040
1.0
1070
    74
1070
     0
1000
MTEXTEND
  0
MTEXT
  5
5451
330
1A
100
AcDbEntity
  8
SUNPOU
100
AcDbMText
 10
21268.53798789184
 20
23316.25597610292
 30
0.0
 40
10.5
 41
0.0
 71
     1
 72
     5
  1

1001
ACAD
1000
MTEXTBEGIN
1070
    73
1070
     1
1070
    44
1040
1.0
1070
    74
1070
     0
1000
MTEXTEND
  0
MTEXT
  5
5452
330
1A
100
AcDbEntity
  8
SUNPOU
100
AcDbMText
 10
13337.6147919559
 20
22369.46284218996
 30
0.0
 40
10.5
 41
0.0
 71
     7
 72
     5
  1

1001
ACAD
1000
MTEXTBEGIN
1070
    73
1070
     1
1070
    44
1040
1.0
1070
    74
1070
     0
1000
MTEXTEND
  0
MTEXT
  5
5453
330
1A
100
AcDbEntity
  8
SUNPOU
100
AcDbMText
 10
16286.59845646867
 20
27270.13891403281
 30
0.0
 40
10.5
 41
0.0
 71
     7
 72
     5
  1

1001
ACAD
1000
MTEXTBEGIN
1070
    73
1070
     1
1070
    44
1040
1.0
1070
    74
1070
     0
1000
MTEXTEND
  0
MTEXT
  5
5454
330
1A
100
AcDbEntity
  8
SUNPOU
100
AcDbMText
 10
20795.67658441924
 20
29706.43966165288
 30
0.0
 40
10.5
 41
0.0
 71
     7
 72
     5
  1

1001
ACAD
1000
MTEXTBEGIN
1070
    73
1070
     1
1070
    44
1040
1.0
1070
    74
1070
     0
1000
MTEXTEND
  0
MTEXT
  5
5455
330
1A
100
AcDbEntity
  8
0
100
AcDbMText
 10
16611.93789220314
 20
14707.52144344448
 30
0.0
 40
8.0
 41
0.0
 71
     7
 72
     5
  1

1001
ACAD
1000
MTEXTBEGIN
1070
    73
1070
     1
1070
    44
1040
1.0
1070
    74
1070
     0
1000
MTEXTEND
  0
MTEXT
  5
5456
330
1A
100
AcDbEntity
  8
0
100
AcDbMText
 10
18897.29558209804
 20
15678.31173819554
 30
0.0
 40
8.0
 41
0.0
 71
     7
 72
     5
  1

1001
ACAD
1000
MTEXTBEGIN
1070
    73
1070
     1
1070
    44
1040
1.0
1070
    74
1070
     0
1000
MTEXTEND
  0
MTEXT
  5
5457
330
1A
100
AcDbEntity
  8
SUNPOU
100
AcDbMText
 10
21563.19260278019
 20
25190.42313057066
 30
0.0
 40
10.5
 41
0.0
 71
     1
 72
     5
  1

1001
ACAD
1000
MTEXTBEGIN
1070
    73
1070
     1
1070
    44
1040
1.0
1070
    74
1070
     0
1000
MTEXTEND
  0
MTEXT
  5
5458
330
1A
100
AcDbEntity
  8
SUNPOU
100
AcDbMText
 10
13632.26940684426
 20
24243.6299966577
 30
0.0
 40
10.5
 41
0.0
 71
     7
 72
     5
  1

1001
ACAD
1000
MTEXTBEGIN
1070
    73
1070
     1
1070
    44
1040
1.0
1070
    74
1070
     0
1000
MTEXTEND
  0
MTEXT
  5
5459
330
1A
100
AcDbEntity
  8
SUNPOU
100
AcDbMText
 10
16581.25307135702
 20
29144.30606850055
 30
0.0
 40
10.5
 41
0.0
 71
     7
 72
     5
  1

1001
ACAD
1000
MTEXTBEGIN
1070
    73
1070
     1
1070
    44
1040
1.0
1070
    74
1070
     0
1000
MTEXTEND
  0
MTEXT
  5
545A
330
1A
100
AcDbEntity
  8
SUNPOU
100
AcDbMText
 10
21090.33119930759
 20
31580.60681612062
 30
0.0
 40
10.5
 41
0.0
 71
     7
 72
     5
  1

1001
ACAD
1000
MTEXTBEGIN
1070
    73
1070
     1
1070
    44
1040
1.0
1070
    74
1070
     0
1000
MTEXTEND
  0
MTEXT
  5
545B
330
1A
100
AcDbEntity
  8
0
100
AcDbMText
 10
22871.60517627167
 20
23974.88367124799
 30
0.0
 40
8.0
 41
0.0
 71
     7
 72
     5
  1

1001
ACAD
1000
MTEXTBEGIN
1070
    73
1070
     1
1070
    44
1040
1.0
1070
    74
1070
     0
1000
MTEXTEND
  0
MTEXT
  5
545C
330
1A
100
AcDbEntity
  8
0
100
AcDbMText
 10
25156.96286616657
 20
24945.67396599906
 30
0.0
 40
8.0
 41
0.0
 71
     7
 72
     5
  1

1001
ACAD
1000
MTEXTBEGIN
1070
    73
1070
     1
1070
    44
1040
1.0
1070
    74
1070
     0
1000
MTEXTEND
  0
MTEXT
  5
545D
330
1A
100
AcDbEntity
  8
SUNPOU
100
AcDbMText
 10
27822.85988684871
 20
34457.78535837418
 30
0.0
 40
10.5
 41
0.0
 71
     1
 72
     5
  1

1001
ACAD
1000
MTEXTBEGIN
1070
    73
1070
     1
1070
    44
1040
1.0
1070
    74
1070
     0
1000
MTEXTEND
  0
MTEXT
  5
545E
330
1A
100
AcDbEntity
  8
SUNPOU
100
AcDbMText
 10
19891.93669091278
 20
33510.99222446122
 30
0.0
 40
10.5
 41
0.0
 71
     7
 72
     5
  1

1001
ACAD
1000
MTEXTBEGIN
1070
    73
1070
     1
1070
    44
1040
1.0
1070
    74
1070
     0
1000
MTEXTEND
  0
MTEXT
  5
545F
330
1A
100
AcDbEntity
  8
SUNPOU
100
AcDbMText
 10
22840.92035542555
 20
38411.66829630407
 30
0.0
 40
10.5
 41
0.0
 71
     7
 72
     5
  1

1001
ACAD
1000
MTEXTBEGIN
1070
    73
1070
     1
1070
    44
1040
1.0
1070
    74
1070
     0
1000
MTEXTEND
  0
MTEXT
  5
5460
330
1A
100
AcDbEntity
  8
SUNPOU
100
AcDbMText
 10
27349.99848337611
 20
40847.96904392415
 30
0.0
 40
10.5
 41
0.0
 71
     7
 72
     5
  1

1001
ACAD
1000
MTEXTBEGIN
1070
    73
1070
     1
1070
    44
1040
1.0
1070
    74
1070
     0
1000
MTEXTEND
  0
MTEXT
  5
55B7
330
1A
100
AcDbEntity
  8
SUNPOU
100
AcDbMText
 10
67424.23923338197
 20
64463.86602884816
 30
0.0
 40
10.5
 41
0.0
 71
     9
 72
     5
  1

1001
ACAD
1000
MTEXTBEGIN
1070
    73
1070
     1
1070
    44
1040
1.0
1070
    74
1070
     0
1000
MTEXTEND
  0
MTEXT
  5
55B8
330
1A
100
AcDbEntity
  8
SUNPOU
100
AcDbMText
 10
76146.40679929998
 20
71879.70056038563
 30
0.0
 40
10.5
 41
0.0
 71
     9
 72
     5
  1

1001
ACAD
1000
MTEXTBEGIN
1070
    73
1070
     1
1070
    44
1040
1.0
1070
    74
1070
     0
1000
MTEXTEND
  0
MTEXT
  5
55B9
330
1A
100
AcDbEntity
  8
SUNPOU
100
AcDbMText
 10
95100.16551662994
 20
89346.27661287766
 30
0.0
 40
10.5
 41
0.0
 71
     9
 72
     5
  1

1001
ACAD
1000
MTEXTBEGIN
1070
    73
1070
     1
1070
    44
1040
1.0
1070
    74
1070
     0
1000
MTEXTEND
  0
MTEXT
  5
55BA
330
1A
100
AcDbEntity
  8
SUNPOU
100
AcDbMText
 10
97043.57276333936
 20
87545.22753299966
 30
0.0
 40
3.5
 41
0.0
 71
     9
 72
     5
  1

1001
ACAD
1000
MTEXTBEGIN
1070
    73
1070
     1
1070
    44
1040
1.0
1070
    74
1070
     0
1000
MTEXTEND
  0
MTEXT
  5
55BB
330
1A
100
AcDbEntity
  8
SUNPOU
100
AcDbMText
 10
128169.752595959
 20
130040.1732006569
 30
0.0
 40
10.5
 41
0.0
 71
     9
 72
     5
  1

1001
ACAD
1000
MTEXTBEGIN
1070
    73
1070
     1
1070
    44
1040
1.0
1070
    74
1070
     0
1000
MTEXTEND
  0
MTEXT
  5
55BC
330
1A
100
AcDbEntity
  8
SUNPOU
100
AcDbMText
 10
130113.1598426684
 20
128239.1241207789
 30
0.0
 40
3.5
 41
0.0
 71
     9
 72
     5
  1

1001
ACAD
1000
MTEXTBEGIN
1070
    73
1070
     1
1070
    44
1040
1.0
1070
    74
1070
     0
1000
MTEXTEND
  0
MTEXT
  5
55BD
330
1A
100
AcDbEntity
  8
SUNPOU
100
AcDbMText
 10
78610.02030175463
 20
75873.33835563206
 30
0.0
 40
10.5
 41
0.0
 71
     9
 72
     5
  1

1001
ACAD
1000
MTEXTBEGIN
1070
    73
1070
     1
1070
    44
1040
1.0
1070
    74
1070
     0
1000
MTEXTEND
  0
MTEXT
  5
55BE
330
1A
100
AcDbEntity
  8
SUNPOU
100
AcDbMText
 10
64662.02020137863
 20
56700.93921651987
 30
0.0
 40
3.5
 41
0.0
 71
     7
 72
     5
  1

1001
ACAD
1000
MTEXTBEGIN
1070
    73
1070
     1
1070
    44
1040
1.0
1070
    74
1070
     0
1000
MTEXTEND
  0
MTEXT
  5
55BF
330
1A
100
AcDbEntity
  8
SUNPOU
100
AcDbMText
 10
45647.18959837178
 20
44463.08794733807
 30
0.0
 40
10.5
 41
0.0
 71
     7
 72
     5
  1

1001
ACAD
1000
MTEXTBEGIN
1070
    73
1070
     1
1070
    44
1040
1.0
1070
    74
1070
     0
1000
MTEXTEND
  0
MTEXT
  5
55C0
330
1A
100
AcDbEntity
  8
SUNPOU
100
AcDbMText
 10
33189.96133342368
 20
28618.15636923965
 30
0.0
 40
35.0
 41
0.0
 71
     9
 72
     5
  1

1001
ACAD
1000
MTEXTBEGIN
1070
    73
1070
     1
1070
    44
1040
1.0
1070
    74
1070
     0
1000
MTEXTEND
  0
MTEXT
  5
55C1
330
1A
100
AcDbEntity
  8
SUNPOU
100
AcDbMText
 10
32098.44639099864
 20
29226.93177928835
 30
0.0
 40
350.0000004171781
 41
0.0
 71
     7
 72
     5
  1

1001
ACAD
1000
MTEXTBEGIN
1070
    73
1070
     1
1070
    44
1040
1.0
1070
    74
1070
     0
1000
MTEXTEND
  0
MTEXT
  5
55C2
330
1A
100
AcDbEntity
  8
0
100
AcDbMText
 10
38142.39714894154
 20
27206.85414142458
 30
0.0
 40
8.0
 41
0.0
 71
     7
 72
     5
  1

1001
ACAD
1000
MTEXTBEGIN
1070
    73
1070
     1
1070
    44
1040
1.0
1070
    74
1070
     0
1000
MTEXTEND
  0
MTEXT
  5
55C3
330
1A
100
AcDbEntity
  8
0
100
AcDbMText
 10
40427.75483883644
 20
28177.64443617564
 30
0.0
 40
8.0
 41
0.0
 71
     7
 72
     5
  1

1001
ACAD
1000
MTEXTBEGIN
1070
    73
1070
     1
1070
    44
1040
1.0
1070
    74
1070
     0
1000
MTEXTEND
  0
MTEXT
  5
55C4
330
1A
100
AcDbEntity
  8
SUNPOU
100
AcDbMText
 10
43093.65185951858
 20
37689.75582855077
 30
0.0
 40
10.5
 41
0.0
 71
     1
 72
     5
  1

1001
ACAD
1000
MTEXTBEGIN
1070
    73
1070
     1
1070
    44
1040
1.0
1070
    74
1070
     0
1000
MTEXTEND
  0
MTEXT
  5
55C5
330
1A
100
AcDbEntity
  8
SUNPOU
100
AcDbMText
 10
35162.72866358265
 20
36742.96269463781
 30
0.0
 40
10.5
 41
0.0
 71
     7
 72
     5
  1

1001
ACAD
1000
MTEXTBEGIN
1070
    73
1070
     1
1070
    44
1040
1.0
1070
    74
1070
     0
1000
MTEXTEND
  0
MTEXT
  5
55C6
330
1A
100
AcDbEntity
  8
SUNPOU
100
AcDbMText
 10
38111.71232809542
 20
41643.63876648066
 30
0.0
 40
10.5
 41
0.0
 71
     7
 72
     5
  1

1001
ACAD
1000
MTEXTBEGIN
1070
    73
1070
     1
1070
    44
1040
1.0
1070
    74
1070
     0
1000
MTEXTEND
  0
MTEXT
  5
55C7
330
1A
100
AcDbEntity
  8
SUNPOU
100
AcDbMText
 10
42620.79045604597
 20
44079.93951410074
 30
0.0
 40
10.5
 41
0.0
 71
     7
 72
     5
  1

1001
ACAD
1000
MTEXTBEGIN
1070
    73
1070
     1
1070
    44
1040
1.0
1070
    74
1070
     0
1000
MTEXTEND
  0
MTEXT
  5
55C8
330
1A
100
AcDbEntity
  8
SUNPOU
100
AcDbMText
 10
26221.62834281429
 20
23077.53566448964
 30
0.0
 40
10.5
 41
0.0
 71
     7
 72
     5
  1

1001
ACAD
1000
MTEXTBEGIN
1070
    73
1070
     1
1070
    44
1040
1.0
1070
    74
1070
     0
1000
MTEXTEND
  0
MTEXT
  5
55C9
330
1A
100
AcDbEntity
  8
SUNPOU
100
AcDbMText
 10
77413.14677671455
 20
68750.51622813789
 30
0.0
 40
10.5
 41
0.0
 71
     9
 72
     5
  1

1001
ACAD
1000
MTEXTBEGIN
1070
    73
1070
     1
1070
    44
1040
1.0
1070
    74
1070
     0
1000
MTEXTEND
  0
MTEXT
  5
55CA
330
1A
100
AcDbEntity
  8
SUNPOU
100
AcDbMText
 10
86135.31434263256
 20
76166.35075967536
 30
0.0
 40
10.5
 41
0.0
 71
     9
 72
     5
  1

1001
ACAD
1000
MTEXTBEGIN
1070
    73
1070
     1
1070
    44
1040
1.0
1070
    74
1070
     0
1000
MTEXTEND
  0
MTEXT
  5
55CB
330
1A
100
AcDbEntity
  8
SUNPOU
100
AcDbMText
 10
105089.0730599625
 20
93632.92681216739
 30
0.0
 40
10.5
 41
0.0
 71
     9
 72
     5
  1

1001
ACAD
1000
MTEXTBEGIN
1070
    73
1070
     1
1070
    44
1040
1.0
1070
    74
1070
     0
1000
MTEXTEND
  0
MTEXT
  5
55CC
330
1A
100
AcDbEntity
  8
SUNPOU
100
AcDbMText
 10
107032.4803066719
 20
91831.8777322894
 30
0.0
 40
3.5
 41
0.0
 71
     9
 72
     5
  1

1001
ACAD
1000
MTEXTBEGIN
1070
    73
1070
     1
1070
    44
1040
1.0
1070
    74
1070
     0
1000
MTEXTEND
  0
MTEXT
  5
55CD
330
1A
100
AcDbEntity
  8
SUNPOU
100
AcDbMText
 10
138158.6601392916
 20
134326.8233999467
 30
0.0
 40
10.5
 41
0.0
 71
     9
 72
     5
  1

1001
ACAD
1000
MTEXTBEGIN
1070
    73
1070
     1
1070
    44
1040
1.0
1070
    74
1070
     0
1000
MTEXTEND
  0
MTEXT
  5
55CE
330
1A
100
AcDbEntity
  8
SUNPOU
100
AcDbMText
 10
140102.067386001
 20
132525.7743200686
 30
0.0
 40
3.5
 41
0.0
 71
     9
 72
     5
  1

1001
ACAD
1000
MTEXTBEGIN
1070
    73
1070
     1
1070
    44
1040
1.0
1070
    74
1070
     0
1000
MTEXTEND
  0
MTEXT
  5
55CF
330
1A
100
AcDbEntity
  8
SUNPOU
100
AcDbMText
 10
88598.92784508721
 20
80159.98855492179
 30
0.0
 40
10.5
 41
0.0
 71
     9
 72
     5
  1

1001
ACAD
1000
MTEXTBEGIN
1070
    73
1070
     1
1070
    44
1040
1.0
1070
    74
1070
     0
1000
MTEXTEND
  0
MTEXT
  5
55D0
330
1A
100
AcDbEntity
  8
SUNPOU
100
AcDbMText
 10
74650.92774471121
 20
60987.5894158096
 30
0.0
 40
3.5
 41
0.0
 71
     7
 72
     5
  1

1001
ACAD
1000
MTEXTBEGIN
1070
    73
1070
     1
1070
    44
1040
1.0
1070
    74
1070
     0
1000
MTEXTEND
  0
MTEXT
  5
55D1
330
1A
100
AcDbEntity
  8
SUNPOU
100
AcDbMText
 10
55636.09714170436
 20
48749.73814662781
 30
0.0
 40
10.5
 41
0.0
 71
     7
 72
     5
  1

1001
ACAD
1000
MTEXTBEGIN
1070
    73
1070
     1
1070
    44
1040
1.0
1070
    74
1070
     0
1000
MTEXTEND
  0
MTEXT
  5
55D2
330
1A
100
AcDbEntity
  8
SUNPOU
100
AcDbMText
 10
43178.86887675626
 20
32904.80656852938
 30
0.0
 40
35.0
 41
0.0
 71
     9
 72
     5
  1

1001
ACAD
1000
MTEXTBEGIN
1070
    73
1070
     1
1070
    44
1040
1.0
1070
    74
1070
     0
1000
MTEXTEND
  0
MTEXT
  5
55D3
330
1A
100
AcDbEntity
  8
SUNPOU
100
AcDbMText
 10
42087.35393433121
 20
33513.58197857809
 30
0.0
 40
350.0000004171781
 41
0.0
 71
     7
 72
     5
  1

1001
ACAD
1000
MTEXTBEGIN
1070
    73
1070
     1
1070
    44
1040
1.0
1070
    74
1070
     0
1000
MTEXTEND
  0
MTEXT
  5
55D4
330
1A
100
AcDbEntity
  8
0
100
AcDbMText
 10
48131.30469227412
 20
31493.50434071431
 30
0.0
 40
8.0
 41
0.0
 71
     7
 72
     5
  1

1001
ACAD
1000
MTEXTBEGIN
1070
    73
1070
     1
1070
    44
1040
1.0
1070
    74
1070
     0
1000
MTEXTEND
  0
MTEXT
  5
55D5
330
1A
100
AcDbEntity
  8
0
100
AcDbMText
 10
50416.66238216901
 20
32464.29463546537
 30
0.0
 40
8.0
 41
0.0
 71
     7
 72
     5
  1

1001
ACAD
1000
MTEXTBEGIN
1070
    73
1070
     1
1070
    44
1040
1.0
1070
    74
1070
     0
1000
MTEXTEND
  0
MTEXT
  5
55D6
330
1A
100
AcDbEntity
  8
SUNPOU
100
AcDbMText
 10
53082.55940285115
 20
41976.4060278405
 30
0.0
 40
10.5
 41
0.0
 71
     1
 72
     5
  1

1001
ACAD
1000
MTEXTBEGIN
1070
    73
1070
     1
1070
    44
1040
1.0
1070
    74
1070
     0
1000
MTEXTEND
  0
MTEXT
  5
55D7
330
1A
100
AcDbEntity
  8
SUNPOU
100
AcDbMText
 10
45151.63620691522
 20
41029.61289392755
 30
0.0
 40
10.5
 41
0.0
 71
     7
 72
     5
  1

1001
ACAD
1000
MTEXTBEGIN
1070
    73
1070
     1
1070
    44
1040
1.0
1070
    74
1070
     0
1000
MTEXTEND
  0
MTEXT
  5
55D8
330
1A
100
AcDbEntity
  8
SUNPOU
100
AcDbMText
 10
48100.61987142798
 20
45930.28896577039
 30
0.0
 40
10.5
 41
0.0
 71
     7
 72
     5
  1

1001
ACAD
1000
MTEXTBEGIN
1070
    73
1070
     1
1070
    44
1040
1.0
1070
    74
1070
     0
1000
MTEXTEND
  0
MTEXT
  5
55D9
330
1A
100
AcDbEntity
  8
SUNPOU
100
AcDbMText
 10
52609.69799937854
 20
48366.58971339046
 30
0.0
 40
10.5
 41
0.0
 71
     7
 72
     5
  1

1001
ACAD
1000
MTEXTBEGIN
1070
    73
1070
     1
1070
    44
1040
1.0
1070
    74
1070
     0
1000
MTEXTEND
  0
MTEXT
  5
55DA
330
1A
100
AcDbEntity
  8
SUNPOU
100
AcDbMText
 10
36210.53588614687
 20
27364.18586377937
 30
0.0
 40
10.5
 41
0.0
 71
     7
 72
     5
  1

1001
ACAD
1000
MTEXTBEGIN
1070
    73
1070
     1
1070
    44
1040
1.0
1070
    74
1070
     0
1000
MTEXTEND
  0
MTEXT
  5
55DB
330
1A
100
AcDbEntity
  8
SUNPOU
100
AcDbMText
 10
38021.29879752181
 20
33691.59985125794
 30
0.0
 40
10.5
 41
0.0
 71
     9
 72
     5
  1

1001
ACAD
1000
MTEXTBEGIN
1070
    73
1070
     1
1070
    44
1040
1.0
1070
    74
1070
     0
1000
MTEXTEND
  0
MTEXT
  5
55DC
330
1A
100
AcDbEntity
  8
SUNPOU
100
AcDbMText
 10
46743.46636343979
 20
41107.43438279541
 30
0.0
 40
10.5
 41
0.0
 71
     9
 72
     5
  1

1001
ACAD
1000
MTEXTBEGIN
1070
    73
1070
     1
1070
    44
1040
1.0
1070
    74
1070
     0
1000
MTEXTEND
  0
MTEXT
  5
55DD
330
1A
100
AcDbEntity
  8
SUNPOU
100
AcDbMText
 10
65697.22508076975
 20
58574.01043528746
 30
0.0
 40
10.5
 41
0.0
 71
     9
 72
     5
  1

1001
ACAD
1000
MTEXTBEGIN
1070
    73
1070
     1
1070
    44
1040
1.0
1070
    74
1070
     0
1000
MTEXTEND
  0
MTEXT
  5
55DE
330
1A
100
AcDbEntity
  8
SUNPOU
100
AcDbMText
 10
67640.63232747917
 20
56772.96135540945
 30
0.0
 40
3.5
 41
0.0
 71
     9
 72
     5
  1

1001
ACAD
1000
MTEXTBEGIN
1070
    73
1070
     1
1070
    44
1040
1.0
1070
    74
1070
     0
1000
MTEXTEND
  0
MTEXT
  5
55DF
330
1A
100
AcDbEntity
  8
SUNPOU
100
AcDbMText
 10
98766.81216009888
 20
99267.9070230668
 30
0.0
 40
10.5
 41
0.0
 71
     9
 72
     5
  1

1001
ACAD
1000
MTEXTBEGIN
1070
    73
1070
     1
1070
    44
1040
1.0
1070
    74
1070
     0
1000
MTEXTEND
  0
MTEXT
  5
55E0
330
1A
100
AcDbEntity
  8
SUNPOU
100
AcDbMText
 10
100710.2194068083
 20
97466.85794318878
 30
0.0
 40
3.5
 41
0.0
 71
     9
 72
     5
  1

1001
ACAD
1000
MTEXTBEGIN
1070
    73
1070
     1
1070
    44
1040
1.0
1070
    74
1070
     0
1000
MTEXTEND
  0
MTEXT
  5
55E1
330
1A
100
AcDbEntity
  8
SUNPOU
100
AcDbMText
 10
49207.07986589444
 20
45101.07217804185
 30
0.0
 40
10.5
 41
0.0
 71
     9
 72
     5
  1

1001
ACAD
1000
MTEXTBEGIN
1070
    73
1070
     1
1070
    44
1040
1.0
1070
    74
1070
     0
1000
MTEXTEND
  0
MTEXT
  5
55E2
330
1A
100
AcDbEntity
  8
SUNPOU
100
AcDbMText
 10
35259.07976551845
 20
25928.67303892964
 30
0.0
 40
3.5
 41
0.0
 71
     7
 72
     5
  1

1001
ACAD
1000
MTEXTBEGIN
1070
    73
1070
     1
1070
    44
1040
1.0
1070
    74
1070
     0
1000
MTEXTEND
  0
MTEXT
  5
55E3
330
1A
100
AcDbEntity
  8
SUNPOU
100
AcDbMText
 10
48951.43044828905
 20
35287.73625995099
 30
0.0
 40
10.5
 41
0.0
 71
     9
 72
     5
  1

1001
ACAD
1000
MTEXTBEGIN
1070
    73
1070
     1
1070
    44
1040
1.0
1070
    74
1070
     0
1000
MTEXTEND
  0
MTEXT
  5
55E4
330
1A
100
AcDbEntity
  8
SUNPOU
100
AcDbMText
 10
57673.59801420702
 20
42703.57079148847
 30
0.0
 40
10.5
 41
0.0
 71
     9
 72
     5
  1

1001
ACAD
1000
MTEXTBEGIN
1070
    73
1070
     1
1070
    44
1040
1.0
1070
    74
1070
     0
1000
MTEXTEND
  0
MTEXT
  5
55E5
330
1A
100
AcDbEntity
  8
SUNPOU
100
AcDbMText
 10
76627.35673153699
 20
60170.14684398051
 30
0.0
 40
10.5
 41
0.0
 71
     9
 72
     5
  1

1001
ACAD
1000
MTEXTBEGIN
1070
    73
1070
     1
1070
    44
1040
1.0
1070
    74
1070
     0
1000
MTEXTEND
  0
MTEXT
  5
55E6
330
1A
100
AcDbEntity
  8
SUNPOU
100
AcDbMText
 10
78570.76397824641
 20
58369.09776410251
 30
0.0
 40
3.5
 41
0.0
 71
     9
 72
     5
  1

1001
ACAD
1000
MTEXTBEGIN
1070
    73
1070
     1
1070
    44
1040
1.0
1070
    74
1070
     0
1000
MTEXTEND
  0
MTEXT
  5
55E7
330
1A
100
AcDbEntity
  8
SUNPOU
100
AcDbMText
 10
109696.9438108661
 20
100864.0434317598
 30
0.0
 40
10.5
 41
0.0
 71
     9
 72
     5
  1

1001
ACAD
1000
MTEXTBEGIN
1070
    73
1070
     1
1070
    44
1040
1.0
1070
    74
1070
     0
1000
MTEXTEND
  0
MTEXT
  5
55E8
330
1A
100
AcDbEntity
  8
SUNPOU
100
AcDbMText
 10
111640.3510575755
 20
99062.99435188183
 30
0.0
 40
3.5
 41
0.0
 71
     9
 72
     5
  1

1001
ACAD
1000
MTEXTBEGIN
1070
    73
1070
     1
1070
    44
1040
1.0
1070
    74
1070
     0
1000
MTEXTEND
  0
MTEXT
  5
55E9
330
1A
100
AcDbEntity
  8
SUNPOU
100
AcDbMText
 10
60137.21151666167
 20
46697.20858673491
 30
0.0
 40
10.5
 41
0.0
 71
     9
 72
     5
  1

1001
ACAD
1000
MTEXTBEGIN
1070
    73
1070
     1
1070
    44
1040
1.0
1070
    74
1070
     0
1000
MTEXTEND
  0
MTEXT
  5
55EA
330
1A
100
AcDbEntity
  8
SUNPOU
100
AcDbMText
 10
46189.21141628568
 20
27524.80944762269
 30
0.0
 40
3.5
 41
0.0
 71
     7
 72
     5
  1

1001
ACAD
1000
MTEXTBEGIN
1070
    73
1070
     1
1070
    44
1040
1.0
1070
    74
1070
     0
1000
MTEXTEND
  0
MTEXT
  5
55EB
330
1A
100
AcDbEntity
  8
SUNPOU
100
AcDbMText
 10
45007.68847015541
 20
38269.57947701874
 30
0.0
 40
10.5
 41
0.0
 71
     9
 72
     5
  1

1001
ACAD
1000
MTEXTBEGIN
1070
    73
1070
     1
1070
    44
1040
1.0
1070
    74
1070
     0
1000
MTEXTEND
  0
MTEXT
  5
55EC
330
1A
100
AcDbEntity
  8
SUNPOU
100
AcDbMText
 10
63961.44718748539
 20
55736.15552951081
 30
0.0
 40
10.5
 41
0.0
 71
     9
 72
     5
  1

1001
ACAD
1000
MTEXTBEGIN
1070
    73
1070
     1
1070
    44
1040
1.0
1070
    74
1070
     0
1000
MTEXTEND
  0
MTEXT
  5
55ED
330
1A
100
AcDbEntity
  8
SUNPOU
100
AcDbMText
 10
65904.85443419479
 20
53935.10644963279
 30
0.0
 40
3.5
 41
0.0
 71
     9
 72
     5
  1

1001
ACAD
1000
MTEXTBEGIN
1070
    73
1070
     1
1070
    44
1040
1.0
1070
    74
1070
     0
1000
MTEXTEND
  0
MTEXT
  5
55EE
330
1A
100
AcDbEntity
  8
SUNPOU
100
AcDbMText
 10
97031.03426681451
 20
96430.05211729015
 30
0.0
 40
10.5
 41
0.0
 71
     9
 72
     5
  1

1001
ACAD
1000
MTEXTBEGIN
1070
    73
1070
     1
1070
    44
1040
1.0
1070
    74
1070
     0
1000
MTEXTEND
  0
MTEXT
  5
55EF
330
1A
100
AcDbEntity
  8
SUNPOU
100
AcDbMText
 10
98974.44151352393
 20
94629.00303741212
 30
0.0
 40
3.5
 41
0.0
 71
     9
 72
     5
  1

1001
ACAD
1000
MTEXTBEGIN
1070
    73
1070
     1
1070
    44
1040
1.0
1070
    74
1070
     0
1000
MTEXTEND
  0
MTEXT
  5
55F0
330
1A
100
AcDbEntity
  8
SUNPOU
100
AcDbMText
 10
47471.30197261006
 20
42263.21727226519
 30
0.0
 40
10.5
 41
0.0
 71
     9
 72
     5
  1

1001
ACAD
1000
MTEXTBEGIN
1070
    73
1070
     1
1070
    44
1040
1.0
1070
    74
1070
     0
1000
MTEXTEND
  0
MTEXT
  5
55F1
330
1A
100
AcDbEntity
  8
SUNPOU
100
AcDbMText
 10
33523.30187223408
 20
23090.81813315298
 30
0.0
 40
3.5
 41
0.0
 71
     7
 72
     5
  1

1001
ACAD
1000
MTEXTBEGIN
1070
    73
1070
     1
1070
    44
1040
1.0
1070
    74
1070
     0
1000
MTEXTEND
  0
MTEXT
  5
55F2
330
1A
100
AcDbEntity
  8
SUNPOU
100
AcDbMText
 10
57959.46254102503
 20
50038.08111611015
 30
0.0
 40
10.5
 41
0.0
 71
     9
 72
     5
  1

1001
ACAD
1000
MTEXTBEGIN
1070
    73
1070
     1
1070
    44
1040
1.0
1070
    74
1070
     0
1000
MTEXTEND
  0
MTEXT
  5
55F3
330
1A
100
AcDbEntity
  8
SUNPOU
100
AcDbMText
 10
76913.22125835503
 20
67504.65716860222
 30
0.0
 40
10.5
 41
0.0
 71
     9
 72
     5
  1

1001
ACAD
1000
MTEXTBEGIN
1070
    73
1070
     1
1070
    44
1040
1.0
1070
    74
1070
     0
1000
MTEXTEND
  0
MTEXT
  5
55F4
330
1A
100
AcDbEntity
  8
SUNPOU
100
AcDbMText
 10
78856.62850506443
 20
65703.6080887242
 30
0.0
 40
3.5
 41
0.0
 71
     9
 72
     5
  1

1001
ACAD
1000
MTEXTBEGIN
1070
    73
1070
     1
1070
    44
1040
1.0
1070
    74
1070
     0
1000
MTEXTEND
  0
MTEXT
  5
55F5
330
1A
100
AcDbEntity
  8
SUNPOU
100
AcDbMText
 10
109982.8083376841
 20
108198.5537563815
 30
0.0
 40
10.5
 41
0.0
 71
     9
 72
     5
  1

1001
ACAD
1000
MTEXTBEGIN
1070
    73
1070
     1
1070
    44
1040
1.0
1070
    74
1070
     0
1000
MTEXTEND
  0
MTEXT
  5
55F6
330
1A
100
AcDbEntity
  8
SUNPOU
100
AcDbMText
 10
111926.2155843935
 20
106397.5046765035
 30
0.0
 40
3.5
 41
0.0
 71
     9
 72
     5
  1

1001
ACAD
1000
MTEXTBEGIN
1070
    73
1070
     1
1070
    44
1040
1.0
1070
    74
1070
     0
1000
MTEXTEND
  0
MTEXT
  5
55F7
330
1A
100
AcDbEntity
  8
SUNPOU
100
AcDbMText
 10
60423.07604347968
 20
54031.71891135659
 30
0.0
 40
10.5
 41
0.0
 71
     9
 72
     5
  1

1001
ACAD
1000
MTEXTBEGIN
1070
    73
1070
     1
1070
    44
1040
1.0
1070
    74
1070
     0
1000
MTEXTEND
  0
MTEXT
  5
55F8
330
1A
100
AcDbEntity
  8
SUNPOU
100
AcDbMText
 10
46475.07594310369
 20
34859.3197722444
 30
0.0
 40
3.5
 41
0.0
 71
     7
 72
     5
  1

1001
ACAD
1000
MTEXTBEGIN
1070
    73
1070
     1
1070
    44
1040
1.0
1070
    74
1070
     0
1000
MTEXTEND
  0
MTEXT
  5
55F9
330
1A
100
AcDbEntity
  8
SUNPOU
100
AcDbMText
 10
74027.35402123588
 20
68370.58278833383
 30
0.0
 40
10.5
 41
0.0
 71
     9
 72
     5
  1

1001
ACAD
1000
MTEXTBEGIN
1070
    73
1070
     1
1070
    44
1040
1.0
1070
    74
1070
     0
1000
MTEXTEND
  0
MTEXT
  5
55FA
330
1A
100
AcDbEntity
  8
SUNPOU
100
AcDbMText
 10
75970.7612679453
 20
66569.53370845583
 30
0.0
 40
3.5
 41
0.0
 71
     9
 72
     5
  1

1001
ACAD
1000
MTEXTBEGIN
1070
    73
1070
     1
1070
    44
1040
1.0
1070
    74
1070
     0
1000
MTEXTEND
  0
MTEXT
  5
55FB
330
1A
100
AcDbEntity
  8
SUNPOU
100
AcDbMText
 10
107096.941100565
 20
109064.4793761132
 30
0.0
 40
10.5
 41
0.0
 71
     9
 72
     5
  1

1001
ACAD
1000
MTEXTBEGIN
1070
    73
1070
     1
1070
    44
1040
1.0
1070
    74
1070
     0
1000
MTEXTEND
  0
MTEXT
  5
55FC
330
1A
100
AcDbEntity
  8
SUNPOU
100
AcDbMText
 10
109040.3483472744
 20
107263.4302962351
 30
0.0
 40
3.5
 41
0.0
 71
     9
 72
     5
  1

1001
ACAD
1000
MTEXTBEGIN
1070
    73
1070
     1
1070
    44
1040
1.0
1070
    74
1070
     0
1000
MTEXTEND
  0
MTEXT
  5
55FD
330
1A
100
AcDbEntity
  8
SUNPOU
100
AcDbMText
 10
105709.1709283621
 20
108141.3777665285
 30
0.0
 40
10.5
 41
0.0
 71
     9
 72
     5
  1

1001
ACAD
1000
MTEXTBEGIN
1070
    73
1070
     1
1070
    44
1040
1.0
1070
    74
1070
     0
1000
MTEXTEND
  0
MTEXT
  5
55FE
330
1A
100
AcDbEntity
  8
SUNPOU
100
AcDbMText
 10
107652.5781750715
 20
106340.3286866505
 30
0.0
 40
3.5
 41
0.0
 71
     9
 72
     5
  1

1001
ACAD
1000
MTEXTBEGIN
1070
    73
1070
     1
1070
    44
1040
1.0
1070
    74
1070
     0
1000
MTEXTEND
  0
MTEXT
  5
55FF
330
1A
100
AcDbEntity
  8
SUNPOU
100
AcDbMText
 10
73193.09268743351
 20
66158.78082845056
 30
0.0
 40
10.5
 41
0.0
 71
     9
 72
     5
  1

1001
ACAD
1000
MTEXTBEGIN
1070
    73
1070
     1
1070
    44
1040
1.0
1070
    74
1070
     0
1000
MTEXTEND
  0
MTEXT
  5
5600
330
1A
100
AcDbEntity
  8
SUNPOU
100
AcDbMText
 10
75916.39889159806
 20
66563.46252003162
 30
0.0
 40
3.5
 41
0.0
 71
     9
 72
     5
  1

1001
ACAD
1000
MTEXTBEGIN
1070
    73
1070
     1
1070
    44
1040
1.0
1070
    74
1070
     0
1000
MTEXTEND
  0
MTEXT
  5
5601
330
1A
100
AcDbEntity
  8
SUNPOU
100
AcDbMText
 10
75124.04436649058
 20
63402.1566819768
 30
0.0
 40
10.5
 41
0.0
 71
     9
 72
     5
  1

1001
ACAD
1000
MTEXTBEGIN
1070
    73
1070
     1
1070
    44
1040
1.0
1070
    74
1070
     0
1000
MTEXTEND
  0
MTEXT
  5
5602
330
1A
100
AcDbEntity
  8
SUNPOU
100
AcDbMText
 10
77067.4516132
 20
61601.1076020988
 30
0.0
 40
3.5
 41
0.0
 71
     9
 72
     5
  1

1001
ACAD
1000
MTEXTBEGIN
1070
    73
1070
     1
1070
    44
1040
1.0
1070
    74
1070
     0
1000
MTEXTEND
  0
MTEXT
  5
5603
330
1A
100
AcDbEntity
  8
SUNPOU
100
AcDbMText
 10
77012.54710378659
 20
61488.33571981449
 30
0.0
 40
3.5
 41
0.0
 71
     9
 72
     5
  1

1001
ACAD
1000
MTEXTBEGIN
1070
    73
1070
     1
1070
    44
1040
1.0
1070
    74
1070
     0
1000
MTEXTEND
  0
MTEXT
  5
5604
330
1A
100
AcDbEntity
  8
SUNPOU
100
AcDbMText
 10
76376.61896736668
 20
60677.01447874797
 30
0.0
 40
3.5
 41
0.0
 71
     9
 72
     5
  1

1001
ACAD
1000
MTEXTBEGIN
1070
    73
1070
     1
1070
    44
1040
1.0
1070
    74
1070
     0
1000
MTEXTEND
  0
MTEXT
  5
5605
330
1A
100
AcDbEntity
  8
SUNPOU
100
AcDbMText
 10
76375.37854794595
 20
60676.76650181047
 30
0.0
 40
10.5
 41
0.0
 71
     9
 72
     5
  1

1001
ACAD
1000
MTEXTBEGIN
1070
    73
1070
     1
1070
    44
1040
1.0
1070
    74
1070
     0
1000
MTEXTEND
  0
MTEXT
  5
5606
330
1A
100
AcDbEntity
  8
SUNPOU
100
AcDbMText
 10
84709.93991079748
 20
78034.0328293557
 30
0.0
 40
10.5
 41
0.0
 71
     9
 72
     5
  1

1001
ACAD
1000
MTEXTBEGIN
1070
    73
1070
     1
1070
    44
1040
1.0
1070
    74
1070
     0
1000
MTEXTEND
  0
MTEXT
  5
5607
330
1A
100
AcDbEntity
  8
SUNPOU
100
AcDbMText
 10
93432.10747671548
 20
85449.86736089315
 30
0.0
 40
10.5
 41
0.0
 71
     9
 72
     5
  1

1001
ACAD
1000
MTEXTBEGIN
1070
    73
1070
     1
1070
    44
1040
1.0
1070
    74
1070
     0
1000
MTEXTEND
  0
MTEXT
  5
5608
330
1A
100
AcDbEntity
  8
SUNPOU
100
AcDbMText
 10
112385.8661940454
 20
102916.4434133851
 30
0.0
 40
10.5
 41
0.0
 71
     9
 72
     5
  1

1001
ACAD
1000
MTEXTBEGIN
1070
    73
1070
     1
1070
    44
1040
1.0
1070
    74
1070
     0
1000
MTEXTEND
  0
MTEXT
  5
5609
330
1A
100
AcDbEntity
  8
SUNPOU
100
AcDbMText
 10
114329.2734407548
 20
101115.3943335072
 30
0.0
 40
3.5
 41
0.0
 71
     9
 72
     5
  1

1001
ACAD
1000
MTEXTBEGIN
1070
    73
1070
     1
1070
    44
1040
1.0
1070
    74
1070
     0
1000
MTEXTEND
  0
MTEXT
  5
560A
330
1A
100
AcDbEntity
  8
SUNPOU
100
AcDbMText
 10
145455.4532733745
 20
143610.3400011645
 30
0.0
 40
10.5
 41
0.0
 71
     9
 72
     5
  1

1001
ACAD
1000
MTEXTBEGIN
1070
    73
1070
     1
1070
    44
1040
1.0
1070
    74
1070
     0
1000
MTEXTEND
  0
MTEXT
  5
560B
330
1A
100
AcDbEntity
  8
SUNPOU
100
AcDbMText
 10
147398.8605200839
 20
141809.2909212864
 30
0.0
 40
3.5
 41
0.0
 71
     9
 72
     5
  1

1001
ACAD
1000
MTEXTBEGIN
1070
    73
1070
     1
1070
    44
1040
1.0
1070
    74
1070
     0
1000
MTEXTEND
  0
MTEXT
  5
560C
330
1A
100
AcDbEntity
  8
SUNPOU
100
AcDbMText
 10
95895.72097917013
 20
89443.5051561396
 30
0.0
 40
10.5
 41
0.0
 71
     9
 72
     5
  1

1001
ACAD
1000
MTEXTBEGIN
1070
    73
1070
     1
1070
    44
1040
1.0
1070
    74
1070
     0
1000
MTEXTEND
  0
MTEXT
  5
560D
330
1A
100
AcDbEntity
  8
SUNPOU
100
AcDbMText
 10
81947.72087879414
 20
70271.1060170274
 30
0.0
 40
3.5
 41
0.0
 71
     7
 72
     5
  1

1001
ACAD
1000
MTEXTBEGIN
1070
    73
1070
     1
1070
    44
1040
1.0
1070
    74
1070
     0
1000
MTEXTEND
  0
MTEXT
  5
560E
330
1A
100
AcDbEntity
  8
SUNPOU
100
AcDbMText
 10
62932.89027578729
 20
58033.25474784561
 30
0.0
 40
10.5
 41
0.0
 71
     7
 72
     5
  1

1001
ACAD
1000
MTEXTBEGIN
1070
    73
1070
     1
1070
    44
1040
1.0
1070
    74
1070
     0
1000
MTEXTEND
  0
MTEXT
  5
560F
330
1A
100
AcDbEntity
  8
SUNPOU
100
AcDbMText
 10
50475.66201083918
 20
42188.32316974719
 30
0.0
 40
35.0
 41
0.0
 71
     9
 72
     5
  1

1001
ACAD
1000
MTEXTBEGIN
1070
    73
1070
     1
1070
    44
1040
1.0
1070
    74
1070
     0
1000
MTEXTEND
  0
MTEXT
  5
5610
330
1A
100
AcDbEntity
  8
SUNPOU
100
AcDbMText
 10
49384.14706841413
 20
42797.0985797959
 30
0.0
 40
350.0000004171781
 41
0.0
 71
     7
 72
     5
  1

1001
ACAD
1000
MTEXTBEGIN
1070
    73
1070
     1
1070
    44
1040
1.0
1070
    74
1070
     0
1000
MTEXTEND
  0
MTEXT
  5
5611
330
1A
100
AcDbEntity
  8
0
100
AcDbMText
 10
55428.09782635704
 20
40777.02094193211
 30
0.0
 40
8.0
 41
0.0
 71
     7
 72
     5
  1

1001
ACAD
1000
MTEXTBEGIN
1070
    73
1070
     1
1070
    44
1040
1.0
1070
    74
1070
     0
1000
MTEXTEND
  0
MTEXT
  5
5612
330
1A
100
AcDbEntity
  8
0
100
AcDbMText
 10
57713.45551625194
 20
41747.81123668317
 30
0.0
 40
8.0
 41
0.0
 71
     7
 72
     5
  1

1001
ACAD
1000
MTEXTBEGIN
1070
    73
1070
     1
1070
    44
1040
1.0
1070
    74
1070
     0
1000
MTEXTEND
  0
MTEXT
  5
5613
330
1A
100
AcDbEntity
  8
SUNPOU
100
AcDbMText
 10
60379.35253693408
 20
51259.9226290583
 30
0.0
 40
10.5
 41
0.0
 71
     1
 72
     5
  1

1001
ACAD
1000
MTEXTBEGIN
1070
    73
1070
     1
1070
    44
1040
1.0
1070
    74
1070
     0
1000
MTEXTEND
  0
MTEXT
  5
5614
330
1A
100
AcDbEntity
  8
SUNPOU
100
AcDbMText
 10
52448.42934099814
 20
50313.12949514535
 30
0.0
 40
10.5
 41
0.0
 71
     7
 72
     5
  1

1001
ACAD
1000
MTEXTBEGIN
1070
    73
1070
     1
1070
    44
1040
1.0
1070
    74
1070
     0
1000
MTEXTEND
  0
MTEXT
  5
5615
330
1A
100
AcDbEntity
  8
SUNPOU
100
AcDbMText
 10
55397.41300551091
 20
55213.80556698819
 30
0.0
 40
10.5
 41
0.0
 71
     7
 72
     5
  1

1001
ACAD
1000
MTEXTBEGIN
1070
    73
1070
     1
1070
    44
1040
1.0
1070
    74
1070
     0
1000
MTEXTEND
  0
MTEXT
  5
5616
330
1A
100
AcDbEntity
  8
SUNPOU
100
AcDbMText
 10
59906.49113346147
 20
57650.10631460826
 30
0.0
 40
10.5
 41
0.0
 71
     7
 72
     5
  1

1001
ACAD
1000
MTEXTBEGIN
1070
    73
1070
     1
1070
    44
1040
1.0
1070
    74
1070
     0
1000
MTEXTEND
  0
MTEXT
  5
5617
330
1A
100
AcDbEntity
  8
SUNPOU
100
AcDbMText
 10
43507.32902022979
 20
36647.70246499718
 30
0.0
 40
10.5
 41
0.0
 71
     7
 72
     5
  1

1001
ACAD
1000
MTEXTBEGIN
1070
    73
1070
     1
1070
    44
1040
1.0
1070
    74
1070
     0
1000
MTEXTEND
  0
MTEXT
  5
5618
330
1A
100
AcDbEntity
  8
SUNPOU
100
AcDbMText
 10
94698.84745413006
 20
82320.68302864542
 30
0.0
 40
10.5
 41
0.0
 71
     9
 72
     5
  1

1001
ACAD
1000
MTEXTBEGIN
1070
    73
1070
     1
1070
    44
1040
1.0
1070
    74
1070
     0
1000
MTEXTEND
  0
MTEXT
  5
5619
330
1A
100
AcDbEntity
  8
SUNPOU
100
AcDbMText
 10
103421.015020048
 20
89736.5175601829
 30
0.0
 40
10.5
 41
0.0
 71
     9
 72
     5
  1

1001
ACAD
1000
MTEXTBEGIN
1070
    73
1070
     1
1070
    44
1040
1.0
1070
    74
1070
     0
1000
MTEXTEND
  0
MTEXT
  5
561A
330
1A
100
AcDbEntity
  8
SUNPOU
100
AcDbMText
 10
122374.773737378
 20
107203.0936126749
 30
0.0
 40
10.5
 41
0.0
 71
     9
 72
     5
  1

1001
ACAD
1000
MTEXTBEGIN
1070
    73
1070
     1
1070
    44
1040
1.0
1070
    74
1070
     0
1000
MTEXTEND
  0
MTEXT
  5
561B
330
1A
100
AcDbEntity
  8
SUNPOU
100
AcDbMText
 10
124318.1809840874
 20
105402.0445327969
 30
0.0
 40
3.5
 41
0.0
 71
     9
 72
     5
  1

1001
ACAD
1000
MTEXTBEGIN
1070
    73
1070
     1
1070
    44
1040
1.0
1070
    74
1070
     0
1000
MTEXTEND
  0
MTEXT
  5
561C
330
1A
100
AcDbEntity
  8
SUNPOU
100
AcDbMText
 10
155444.3608167071
 20
147896.9902004542
 30
0.0
 40
10.5
 41
0.0
 71
     9
 72
     5
  1

1001
ACAD
1000
MTEXTBEGIN
1070
    73
1070
     1
1070
    44
1040
1.0
1070
    74
1070
     0
1000
MTEXTEND
  0
MTEXT
  5
561D
330
1A
100
AcDbEntity
  8
SUNPOU
100
AcDbMText
 10
157387.7680634165
 20
146095.9411205762
 30
0.0
 40
3.5
 41
0.0
 71
     9
 72
     5
  1

1001
ACAD
1000
MTEXTBEGIN
1070
    73
1070
     1
1070
    44
1040
1.0
1070
    74
1070
     0
1000
MTEXTEND
  0
MTEXT
  5
561E
330
1A
100
AcDbEntity
  8
SUNPOU
100
AcDbMText
 10
105884.6285225027
 20
93730.15535542933
 30
0.0
 40
10.5
 41
0.0
 71
     9
 72
     5
  1

1001
ACAD
1000
MTEXTBEGIN
1070
    73
1070
     1
1070
    44
1040
1.0
1070
    74
1070
     0
1000
MTEXTEND
  0
MTEXT
  5
561F
330
1A
100
AcDbEntity
  8
SUNPOU
100
AcDbMText
 10
91936.6284221267
 20
74557.75621631714
 30
0.0
 40
3.5
 41
0.0
 71
     7
 72
     5
  1

1001
ACAD
1000
MTEXTBEGIN
1070
    73
1070
     1
1070
    44
1040
1.0
1070
    74
1070
     0
1000
MTEXTEND
  0
MTEXT
  5
5620
330
1A
100
AcDbEntity
  8
SUNPOU
100
AcDbMText
 10
72921.79781911986
 20
62319.90494713533
 30
0.0
 40
10.5
 41
0.0
 71
     7
 72
     5
  1

1001
ACAD
1000
MTEXTBEGIN
1070
    73
1070
     1
1070
    44
1040
1.0
1070
    74
1070
     0
1000
MTEXTEND
  0
MTEXT
  5
5621
330
1A
100
AcDbEntity
  8
SUNPOU
100
AcDbMText
 10
60464.56955417175
 20
46474.97336903692
 30
0.0
 40
35.0
 41
0.0
 71
     9
 72
     5
  1

1001
ACAD
1000
MTEXTBEGIN
1070
    73
1070
     1
1070
    44
1040
1.0
1070
    74
1070
     0
1000
MTEXTEND
  0
MTEXT
  5
5622
330
1A
100
AcDbEntity
  8
SUNPOU
100
AcDbMText
 10
59373.05461174672
 20
47083.74877908562
 30
0.0
 40
350.0000004171781
 41
0.0
 71
     7
 72
     5
  1

1001
ACAD
1000
MTEXTBEGIN
1070
    73
1070
     1
1070
    44
1040
1.0
1070
    74
1070
     0
1000
MTEXTEND
  0
MTEXT
  5
5623
330
1A
100
AcDbEntity
  8
0
100
AcDbMText
 10
65417.00536968962
 20
45063.67114122186
 30
0.0
 40
8.0
 41
0.0
 71
     7
 72
     5
  1

1001
ACAD
1000
MTEXTBEGIN
1070
    73
1070
     1
1070
    44
1040
1.0
1070
    74
1070
     0
1000
MTEXTEND
  0
MTEXT
  5
5624
330
1A
100
AcDbEntity
  8
0
100
AcDbMText
 10
67702.36305958452
 20
46034.46143597292
 30
0.0
 40
8.0
 41
0.0
 71
     7
 72
     5
  1

1001
ACAD
1000
MTEXTBEGIN
1070
    73
1070
     1
1070
    44
1040
1.0
1070
    74
1070
     0
1000
MTEXTEND
  0
MTEXT
  5
5625
330
1A
100
AcDbEntity
  8
SUNPOU
100
AcDbMText
 10
70368.26008026666
 20
55546.57282834803
 30
0.0
 40
10.5
 41
0.0
 71
     1
 72
     5
  1

1001
ACAD
1000
MTEXTBEGIN
1070
    73
1070
     1
1070
    44
1040
1.0
1070
    74
1070
     0
1000
MTEXTEND
  0
MTEXT
  5
5626
330
1A
100
AcDbEntity
  8
SUNPOU
100
AcDbMText
 10
62437.33688433072
 20
54599.77969443508
 30
0.0
 40
10.5
 41
0.0
 71
     7
 72
     5
  1

1001
ACAD
1000
MTEXTBEGIN
1070
    73
1070
     1
1070
    44
1040
1.0
1070
    74
1070
     0
1000
MTEXTEND
  0
MTEXT
  5
5627
330
1A
100
AcDbEntity
  8
SUNPOU
100
AcDbMText
 10
65386.32054884349
 20
59500.45576627792
 30
0.0
 40
10.5
 41
0.0
 71
     7
 72
     5
  1

1001
ACAD
1000
MTEXTBEGIN
1070
    73
1070
     1
1070
    44
1040
1.0
1070
    74
1070
     0
1000
MTEXTEND
  0
MTEXT
  5
5628
330
1A
100
AcDbEntity
  8
SUNPOU
100
AcDbMText
 10
69895.39867679405
 20
61936.756513898
 30
0.0
 40
10.5
 41
0.0
 71
     7
 72
     5
  1

1001
ACAD
1000
MTEXTBEGIN
1070
    73
1070
     1
1070
    44
1040
1.0
1070
    74
1070
     0
1000
MTEXTEND
  0
MTEXT
  5
5629
330
1A
100
AcDbEntity
  8
SUNPOU
100
AcDbMText
 10
53496.23656356237
 20
40934.35266428691
 30
0.0
 40
10.5
 41
0.0
 71
     7
 72
     5
  1

1001
ACAD
1000
MTEXTBEGIN
1070
    73
1070
     1
1070
    44
1040
1.0
1070
    74
1070
     0
1000
MTEXTEND
  0
MTEXT
  5
562A
330
1A
100
AcDbEntity
  8
SUNPOU
100
AcDbMText
 10
55306.99947493731
 20
47261.76665176547
 30
0.0
 40
10.5
 41
0.0
 71
     9
 72
     5
  1

1001
ACAD
1000
MTEXTBEGIN
1070
    73
1070
     1
1070
    44
1040
1.0
1070
    74
1070
     0
1000
MTEXTEND
  0
MTEXT
  5
562B
330
1A
100
AcDbEntity
  8
SUNPOU
100
AcDbMText
 10
64029.16704085528
 20
54677.60118330295
 30
0.0
 40
10.5
 41
0.0
 71
     9
 72
     5
  1

1001
ACAD
1000
MTEXTBEGIN
1070
    73
1070
     1
1070
    44
1040
1.0
1070
    74
1070
     0
1000
MTEXTEND
  0
MTEXT
  5
562C
330
1A
100
AcDbEntity
  8
SUNPOU
100
AcDbMText
 10
82982.92575818527
 20
72144.17723579499
 30
0.0
 40
10.5
 41
0.0
 71
     9
 72
     5
  1

1001
ACAD
1000
MTEXTBEGIN
1070
    73
1070
     1
1070
    44
1040
1.0
1070
    74
1070
     0
1000
MTEXTEND
  0
MTEXT
  5
562D
330
1A
100
AcDbEntity
  8
SUNPOU
100
AcDbMText
 10
84926.33300489467
 20
70343.12815591698
 30
0.0
 40
3.5
 41
0.0
 71
     9
 72
     5
  1

1001
ACAD
1000
MTEXTBEGIN
1070
    73
1070
     1
1070
    44
1040
1.0
1070
    74
1070
     0
1000
MTEXTEND
  0
MTEXT
  5
562E
330
1A
100
AcDbEntity
  8
SUNPOU
100
AcDbMText
 10
116052.5128375143
 20
112838.0738235743
 30
0.0
 40
10.5
 41
0.0
 71
     9
 72
     5
  1

1001
ACAD
1000
MTEXTBEGIN
1070
    73
1070
     1
1070
    44
1040
1.0
1070
    74
1070
     0
1000
MTEXTEND
  0
MTEXT
  5
562F
330
1A
100
AcDbEntity
  8
SUNPOU
100
AcDbMText
 10
117995.9200842238
 20
111037.0247436963
 30
0.0
 40
3.5
 41
0.0
 71
     9
 72
     5
  1

1001
ACAD
1000
MTEXTBEGIN
1070
    73
1070
     1
1070
    44
1040
1.0
1070
    74
1070
     0
1000
MTEXTEND
  0
MTEXT
  5
5630
330
1A
100
AcDbEntity
  8
SUNPOU
100
AcDbMText
 10
66492.78054330994
 20
58671.23897854939
 30
0.0
 40
10.5
 41
0.0
 71
     9
 72
     5
  1

1001
ACAD
1000
MTEXTBEGIN
1070
    73
1070
     1
1070
    44
1040
1.0
1070
    74
1070
     0
1000
MTEXTEND
  0
MTEXT
  5
5631
330
1A
100
AcDbEntity
  8
SUNPOU
100
AcDbMText
 10
52544.78044293396
 20
39498.83983943717
 30
0.0
 40
3.5
 41
0.0
 71
     7
 72
     5
  1

1001
ACAD
1000
MTEXTBEGIN
1070
    73
1070
     1
1070
    44
1040
1.0
1070
    74
1070
     0
1000
MTEXTEND
  0
MTEXT
  5
5632
330
1A
100
AcDbEntity
  8
SUNPOU
100
AcDbMText
 10
66237.13112570454
 20
48857.90306045851
 30
0.0
 40
10.5
 41
0.0
 71
     9
 72
     5
  1

1001
ACAD
1000
MTEXTBEGIN
1070
    73
1070
     1
1070
    44
1040
1.0
1070
    74
1070
     0
1000
MTEXTEND
  0
MTEXT
  5
5633
330
1A
100
AcDbEntity
  8
SUNPOU
100
AcDbMText
 10
74959.29869162252
 20
56273.737591996
 30
0.0
 40
10.5
 41
0.0
 71
     9
 72
     5
  1

1001
ACAD
1000
MTEXTBEGIN
1070
    73
1070
     1
1070
    44
1040
1.0
1070
    74
1070
     0
1000
MTEXTEND
  0
MTEXT
  5
5634
330
1A
100
AcDbEntity
  8
SUNPOU
100
AcDbMText
 10
93913.0574089525
 20
73740.31364448805
 30
0.0
 40
10.5
 41
0.0
 71
     9
 72
     5
  1

1001
ACAD
1000
MTEXTBEGIN
1070
    73
1070
     1
1070
    44
1040
1.0
1070
    74
1070
     0
1000
MTEXTEND
  0
MTEXT
  5
5635
330
1A
100
AcDbEntity
  8
SUNPOU
100
AcDbMText
 10
95856.46465566192
 20
71939.26456461004
 30
0.0
 40
3.5
 41
0.0
 71
     9
 72
     5
  1

1001
ACAD
1000
MTEXTBEGIN
1070
    73
1070
     1
1070
    44
1040
1.0
1070
    74
1070
     0
1000
MTEXTEND
  0
MTEXT
  5
5636
330
1A
100
AcDbEntity
  8
SUNPOU
100
AcDbMText
 10
126982.6444882816
 20
114434.2102322673
 30
0.0
 40
10.5
 41
0.0
 71
     9
 72
     5
  1

1001
ACAD
1000
MTEXTBEGIN
1070
    73
1070
     1
1070
    44
1040
1.0
1070
    74
1070
     0
1000
MTEXTEND
  0
MTEXT
  5
5637
330
1A
100
AcDbEntity
  8
SUNPOU
100
AcDbMText
 10
128926.051734991
 20
112633.1611523893
 30
0.0
 40
3.5
 41
0.0
 71
     9
 72
     5
  1

1001
ACAD
1000
MTEXTBEGIN
1070
    73
1070
     1
1070
    44
1040
1.0
1070
    74
1070
     0
1000
MTEXTEND
  0
MTEXT
  5
5638
330
1A
100
AcDbEntity
  8
SUNPOU
100
AcDbMText
 10
77422.91219407717
 20
60267.37538724244
 30
0.0
 40
10.5
 41
0.0
 71
     9
 72
     5
  1

1001
ACAD
1000
MTEXTBEGIN
1070
    73
1070
     1
1070
    44
1040
1.0
1070
    74
1070
     0
1000
MTEXTEND
  0
MTEXT
  5
5639
330
1A
100
AcDbEntity
  8
SUNPOU
100
AcDbMText
 10
63474.91209370119
 20
41094.97624813023
 30
0.0
 40
3.5
 41
0.0
 71
     7
 72
     5
  1

1001
ACAD
1000
MTEXTBEGIN
1070
    73
1070
     1
1070
    44
1040
1.0
1070
    74
1070
     0
1000
MTEXTEND
  0
MTEXT
  5
563A
330
1A
100
AcDbEntity
  8
SUNPOU
100
AcDbMText
 10
48117.65086229006
 20
40806.11043916631
 30
0.0
 40
10.5
 41
0.0
 71
     9
 72
     5
  1

1001
ACAD
1000
MTEXTBEGIN
1070
    73
1070
     1
1070
    44
1040
1.0
1070
    74
1070
     0
1000
MTEXTEND
  0
MTEXT
  5
563B
330
1A
100
AcDbEntity
  8
SUNPOU
100
AcDbMText
 10
67071.40957962004
 20
58272.68649165837
 30
0.0
 40
10.5
 41
0.0
 71
     9
 72
     5
  1

1001
ACAD
1000
MTEXTBEGIN
1070
    73
1070
     1
1070
    44
1040
1.0
1070
    74
1070
     0
1000
MTEXTEND
  0
MTEXT
  5
563C
330
1A
100
AcDbEntity
  8
SUNPOU
100
AcDbMText
 10
69014.81682632945
 20
56471.63741178035
 30
0.0
 40
3.5
 41
0.0
 71
     9
 72
     5
  1

1001
ACAD
1000
MTEXTBEGIN
1070
    73
1070
     1
1070
    44
1040
1.0
1070
    74
1070
     0
1000
MTEXTEND
  0
MTEXT
  5
563D
330
1A
100
AcDbEntity
  8
SUNPOU
100
AcDbMText
 10
100140.9966589491
 20
98966.58307943772
 30
0.0
 40
10.5
 41
0.0
 71
     9
 72
     5
  1

1001
ACAD
1000
MTEXTBEGIN
1070
    73
1070
     1
1070
    44
1040
1.0
1070
    74
1070
     0
1000
MTEXTEND
  0
MTEXT
  5
563E
330
1A
100
AcDbEntity
  8
SUNPOU
100
AcDbMText
 10
102084.4039056586
 20
97165.53399955969
 30
0.0
 40
3.5
 41
0.0
 71
     9
 72
     5
  1

1001
ACAD
1000
MTEXTBEGIN
1070
    73
1070
     1
1070
    44
1040
1.0
1070
    74
1070
     0
1000
MTEXTEND
  0
MTEXT
  5
563F
330
1A
100
AcDbEntity
  8
SUNPOU
100
AcDbMText
 10
50581.26436474472
 20
44799.74823441275
 30
0.0
 40
10.5
 41
0.0
 71
     9
 72
     5
  1

1001
ACAD
1000
MTEXTBEGIN
1070
    73
1070
     1
1070
    44
1040
1.0
1070
    74
1070
     0
1000
MTEXTEND
  0
MTEXT
  5
5640
330
1A
100
AcDbEntity
  8
SUNPOU
100
AcDbMText
 10
36633.26426436873
 20
25627.34909530054
 30
0.0
 40
3.5
 41
0.0
 71
     7
 72
     5
  1

1001
ACAD
1000
MTEXTBEGIN
1070
    73
1070
     1
1070
    44
1040
1.0
1070
    74
1070
     0
1000
MTEXTEND
  0
MTEXT
  5
5641
330
1A
100
AcDbEntity
  8
SUNPOU
100
AcDbMText
 10
61069.42493315968
 20
52574.61207825771
 30
0.0
 40
10.5
 41
0.0
 71
     9
 72
     5
  1

1001
ACAD
1000
MTEXTBEGIN
1070
    73
1070
     1
1070
    44
1040
1.0
1070
    74
1070
     0
1000
MTEXTEND
  0
MTEXT
  5
5642
330
1A
100
AcDbEntity
  8
SUNPOU
100
AcDbMText
 10
80023.18365048967
 20
70041.18813074978
 30
0.0
 40
10.5
 41
0.0
 71
     9
 72
     5
  1

1001
ACAD
1000
MTEXTBEGIN
1070
    73
1070
     1
1070
    44
1040
1.0
1070
    74
1070
     0
1000
MTEXTEND
  0
MTEXT
  5
5643
330
1A
100
AcDbEntity
  8
SUNPOU
100
AcDbMText
 10
81966.59089719908
 20
68240.13905087176
 30
0.0
 40
3.5
 41
0.0
 71
     9
 72
     5
  1

1001
ACAD
1000
MTEXTBEGIN
1070
    73
1070
     1
1070
    44
1040
1.0
1070
    74
1070
     0
1000
MTEXTEND
  0
MTEXT
  5
5644
330
1A
100
AcDbEntity
  8
SUNPOU
100
AcDbMText
 10
113092.7707298187
 20
110735.0847185291
 30
0.0
 40
10.5
 41
0.0
 71
     9
 72
     5
  1

1001
ACAD
1000
MTEXTBEGIN
1070
    73
1070
     1
1070
    44
1040
1.0
1070
    74
1070
     0
1000
MTEXTEND
  0
MTEXT
  5
5645
330
1A
100
AcDbEntity
  8
SUNPOU
100
AcDbMText
 10
115036.1779765282
 20
108934.0356386511
 30
0.0
 40
3.5
 41
0.0
 71
     9
 72
     5
  1

1001
ACAD
1000
MTEXTBEGIN
1070
    73
1070
     1
1070
    44
1040
1.0
1070
    74
1070
     0
1000
MTEXTEND
  0
MTEXT
  5
5646
330
1A
100
AcDbEntity
  8
SUNPOU
100
AcDbMText
 10
63533.03843561433
 20
56568.24987350415
 30
0.0
 40
10.5
 41
0.0
 71
     9
 72
     5
  1

1001
ACAD
1000
MTEXTBEGIN
1070
    73
1070
     1
1070
    44
1040
1.0
1070
    74
1070
     0
1000
MTEXTEND
  0
MTEXT
  5
5647
330
1A
100
AcDbEntity
  8
SUNPOU
100
AcDbMText
 10
49585.03833523835
 20
37395.85073439196
 30
0.0
 40
3.5
 41
0.0
 71
     7
 72
     5
  1

1001
ACAD
1000
MTEXTBEGIN
1070
    73
1070
     1
1070
    44
1040
1.0
1070
    74
1070
     0
1000
MTEXTEND
  0
MTEXT
  5
5648
330
1A
100
AcDbEntity
  8
SUNPOU
100
AcDbMText
 10
77137.31641337052
 20
70907.11375048141
 30
0.0
 40
10.5
 41
0.0
 71
     9
 72
     5
  1

1001
ACAD
1000
MTEXTBEGIN
1070
    73
1070
     1
1070
    44
1040
1.0
1070
    74
1070
     0
1000
MTEXTEND
  0
MTEXT
  5
5649
330
1A
100
AcDbEntity
  8
SUNPOU
100
AcDbMText
 10
79080.72366007995
 20
69106.06467060339
 30
0.0
 40
3.5
 41
0.0
 71
     9
 72
     5
  1

1001
ACAD
1000
MTEXTBEGIN
1070
    73
1070
     1
1070
    44
1040
1.0
1070
    74
1070
     0
1000
MTEXTEND
  0
MTEXT
  5
564A
330
1A
100
AcDbEntity
  8
SUNPOU
100
AcDbMText
 10
110206.9034926996
 20
111601.0103382607
 30
0.0
 40
10.5
 41
0.0
 71
     9
 72
     5
  1

1001
ACAD
1000
MTEXTBEGIN
1070
    73
1070
     1
1070
    44
1040
1.0
1070
    74
1070
     0
1000
MTEXTEND
  0
MTEXT
  5
564B
330
1A
100
AcDbEntity
  8
SUNPOU
100
AcDbMText
 10
112150.310739409
 20
109799.9612583827
 30
0.0
 40
3.5
 41
0.0
 71
     9
 72
     5
  1

1001
ACAD
1000
MTEXTBEGIN
1070
    73
1070
     1
1070
    44
1040
1.0
1070
    74
1070
     0
1000
MTEXTEND
  0
MTEXT
  5
564C
330
1A
100
AcDbEntity
  8
SUNPOU
100
AcDbMText
 10
108819.1333204968
 20
110677.9087286761
 30
0.0
 40
10.5
 41
0.0
 71
     9
 72
     5
  1

1001
ACAD
1000
MTEXTBEGIN
1070
    73
1070
     1
1070
    44
1040
1.0
1070
    74
1070
     0
1000
MTEXTEND
  0
MTEXT
  5
564D
330
1A
100
AcDbEntity
  8
SUNPOU
100
AcDbMText
 10
110762.5405672062
 20
108876.8596487981
 30
0.0
 40
3.5
 41
0.0
 71
     9
 72
     5
  1

1001
ACAD
1000
MTEXTBEGIN
1070
    73
1070
     1
1070
    44
1040
1.0
1070
    74
1070
     0
1000
MTEXTEND
  0
MTEXT
  5
564E
330
1A
100
AcDbEntity
  8
SUNPOU
100
AcDbMText
 10
76303.05507956816
 20
68695.31179059812
 30
0.0
 40
10.5
 41
0.0
 71
     9
 72
     5
  1

1001
ACAD
1000
MTEXTBEGIN
1070
    73
1070
     1
1070
    44
1040
1.0
1070
    74
1070
     0
1000
MTEXTEND
  0
MTEXT
  5
564F
330
1A
100
AcDbEntity
  8
SUNPOU
100
AcDbMText
 10
79026.36128373271
 20
69099.99348217918
 30
0.0
 40
3.5
 41
0.0
 71
     9
 72
     5
  1

1001
ACAD
1000
MTEXTBEGIN
1070
    73
1070
     1
1070
    44
1040
1.0
1070
    74
1070
     0
1000
MTEXTEND
  0
MTEXT
  5
5650
330
1A
100
AcDbEntity
  8
SUNPOU
100
AcDbMText
 10
78234.00675862522
 20
65938.68764412436
 30
0.0
 40
10.5
 41
0.0
 71
     9
 72
     5
  1

1001
ACAD
1000
MTEXTBEGIN
1070
    73
1070
     1
1070
    44
1040
1.0
1070
    74
1070
     0
1000
MTEXTEND
  0
MTEXT
  5
5651
330
1A
100
AcDbEntity
  8
SUNPOU
100
AcDbMText
 10
80177.41400533465
 20
64137.63856424636
 30
0.0
 40
3.5
 41
0.0
 71
     9
 72
     5
  1

1001
ACAD
1000
MTEXTBEGIN
1070
    73
1070
     1
1070
    44
1040
1.0
1070
    74
1070
     0
1000
MTEXTEND
  0
MTEXT
  5
5652
330
1A
100
AcDbEntity
  8
SUNPOU
100
AcDbMText
 10
80122.50949592123
 20
64024.86668196205
 30
0.0
 40
3.5
 41
0.0
 71
     9
 72
     5
  1

1001
ACAD
1000
MTEXTBEGIN
1070
    73
1070
     1
1070
    44
1040
1.0
1070
    74
1070
     0
1000
MTEXTEND
  0
MTEXT
  5
5653
330
1A
100
AcDbEntity
  8
SUNPOU
100
AcDbMText
 10
79486.58135950133
 20
63213.54544089553
 30
0.0
 40
3.5
 41
0.0
 71
     9
 72
     5
  1

1001
ACAD
1000
MTEXTBEGIN
1070
    73
1070
     1
1070
    44
1040
1.0
1070
    74
1070
     0
1000
MTEXTEND
  0
MTEXT
  5
5654
330
1A
100
AcDbEntity
  8
SUNPOU
100
AcDbMText
 10
79485.3409400806
 20
63213.29746395804
 30
0.0
 40
10.5
 41
0.0
 71
     9
 72
     5
  1

1001
ACAD
1000
MTEXTBEGIN
1070
    73
1070
     1
1070
    44
1040
1.0
1070
    74
1070
     0
1000
MTEXTEND
  0
MTEXT
  5
5655
330
1A
100
AcDbEntity
  8
SUNPOU
100
AcDbMText
 10
85473.63363627567
 20
80747.76348077064
 30
0.0
 40
10.5
 41
0.0
 71
     9
 72
     5
  1

1001
ACAD
1000
MTEXTBEGIN
1070
    73
1070
     1
1070
    44
1040
1.0
1070
    74
1070
     0
1000
MTEXTEND
  0
MTEXT
  5
5656
330
1A
100
AcDbEntity
  8
SUNPOU
100
AcDbMText
 10
94195.80120219368
 20
88163.59801230809
 30
0.0
 40
10.5
 41
0.0
 71
     9
 72
     5
  1

1001
ACAD
1000
MTEXTBEGIN
1070
    73
1070
     1
1070
    44
1040
1.0
1070
    74
1070
     0
1000
MTEXTEND
  0
MTEXT
  5
5657
330
1A
100
AcDbEntity
  8
SUNPOU
100
AcDbMText
 10
113149.5599195236
 20
105630.1740648001
 30
0.0
 40
10.5
 41
0.0
 71
     9
 72
     5
  1

1001
ACAD
1000
MTEXTBEGIN
1070
    73
1070
     1
1070
    44
1040
1.0
1070
    74
1070
     0
1000
MTEXTEND
  0
MTEXT
  5
5658
330
1A
100
AcDbEntity
  8
SUNPOU
100
AcDbMText
 10
115092.967166233
 20
103829.1249849221
 30
0.0
 40
3.5
 41
0.0
 71
     9
 72
     5
  1

1001
ACAD
1000
MTEXTBEGIN
1070
    73
1070
     1
1070
    44
1040
1.0
1070
    74
1070
     0
1000
MTEXTEND
  0
MTEXT
  5
5659
330
1A
100
AcDbEntity
  8
SUNPOU
100
AcDbMText
 10
146219.1469988527
 20
146324.0706525794
 30
0.0
 40
10.5
 41
0.0
 71
     9
 72
     5
  1

1001
ACAD
1000
MTEXTBEGIN
1070
    73
1070
     1
1070
    44
1040
1.0
1070
    74
1070
     0
1000
MTEXTEND
  0
MTEXT
  5
565A
330
1A
100
AcDbEntity
  8
SUNPOU
100
AcDbMText
 10
148162.5542455621
 20
144523.0215727014
 30
0.0
 40
3.5
 41
0.0
 71
     9
 72
     5
  1

1001
ACAD
1000
MTEXTBEGIN
1070
    73
1070
     1
1070
    44
1040
1.0
1070
    74
1070
     0
1000
MTEXTEND
  0
MTEXT
  5
565B
330
1A
100
AcDbEntity
  8
SUNPOU
100
AcDbMText
 10
96659.41470464833
 20
92157.23580755453
 30
0.0
 40
10.5
 41
0.0
 71
     9
 72
     5
  1

1001
ACAD
1000
MTEXTBEGIN
1070
    73
1070
     1
1070
    44
1040
1.0
1070
    74
1070
     0
1000
MTEXTEND
  0
MTEXT
  5
565C
330
1A
100
AcDbEntity
  8
SUNPOU
100
AcDbMText
 10
82711.41460427234
 20
72984.83666844234
 30
0.0
 40
3.5
 41
0.0
 71
     7
 72
     5
  1

1001
ACAD
1000
MTEXTBEGIN
1070
    73
1070
     1
1070
    44
1040
1.0
1070
    74
1070
     0
1000
MTEXTEND
  0
MTEXT
  5
565D
330
1A
100
AcDbEntity
  8
SUNPOU
100
AcDbMText
 10
63696.58400126548
 20
60746.98539926055
 30
0.0
 40
10.5
 41
0.0
 71
     7
 72
     5
  1

1001
ACAD
1000
MTEXTBEGIN
1070
    73
1070
     1
1070
    44
1040
1.0
1070
    74
1070
     0
1000
MTEXTEND
  0
MTEXT
  5
565E
330
1A
100
AcDbEntity
  8
SUNPOU
100
AcDbMText
 10
51239.35573631738
 20
44902.05382116213
 30
0.0
 40
35.0
 41
0.0
 71
     9
 72
     5
  1

1001
ACAD
1000
MTEXTBEGIN
1070
    73
1070
     1
1070
    44
1040
1.0
1070
    74
1070
     0
1000
MTEXTEND
  0
MTEXT
  5
565F
330
1A
100
AcDbEntity
  8
SUNPOU
100
AcDbMText
 10
50147.84079389233
 20
45510.82923121084
 30
0.0
 40
350.0000004171781
 41
0.0
 71
     7
 72
     5
  1

1001
ACAD
1000
MTEXTBEGIN
1070
    73
1070
     1
1070
    44
1040
1.0
1070
    74
1070
     0
1000
MTEXTEND
  0
MTEXT
  5
5660
330
1A
100
AcDbEntity
  8
0
100
AcDbMText
 10
56191.79155183523
 20
43490.75159334705
 30
0.0
 40
8.0
 41
0.0
 71
     7
 72
     5
  1

1001
ACAD
1000
MTEXTBEGIN
1070
    73
1070
     1
1070
    44
1040
1.0
1070
    74
1070
     0
1000
MTEXTEND
  0
MTEXT
  5
5661
330
1A
100
AcDbEntity
  8
0
100
AcDbMText
 10
58477.14924173013
 20
44461.54188809812
 30
0.0
 40
8.0
 41
0.0
 71
     7
 72
     5
  1

1001
ACAD
1000
MTEXTBEGIN
1070
    73
1070
     1
1070
    44
1040
1.0
1070
    74
1070
     0
1000
MTEXTEND
  0
MTEXT
  5
5662
330
1A
100
AcDbEntity
  8
SUNPOU
100
AcDbMText
 10
61143.04626241227
 20
53973.65328047324
 30
0.0
 40
10.5
 41
0.0
 71
     1
 72
     5
  1

1001
ACAD
1000
MTEXTBEGIN
1070
    73
1070
     1
1070
    44
1040
1.0
1070
    74
1070
     0
1000
MTEXTEND
  0
MTEXT
  5
5663
330
1A
100
AcDbEntity
  8
SUNPOU
100
AcDbMText
 10
53212.12306647634
 20
53026.86014656028
 30
0.0
 40
10.5
 41
0.0
 71
     7
 72
     5
  1

1001
ACAD
1000
MTEXTBEGIN
1070
    73
1070
     1
1070
    44
1040
1.0
1070
    74
1070
     0
1000
MTEXTEND
  0
MTEXT
  5
5664
330
1A
100
AcDbEntity
  8
SUNPOU
100
AcDbMText
 10
56161.1067309891
 20
57927.53621840312
 30
0.0
 40
10.5
 41
0.0
 71
     7
 72
     5
  1

1001
ACAD
1000
MTEXTBEGIN
1070
    73
1070
     1
1070
    44
1040
1.0
1070
    74
1070
     0
1000
MTEXTEND
  0
MTEXT
  5
5665
330
1A
100
AcDbEntity
  8
SUNPOU
100
AcDbMText
 10
60670.18485893966
 20
60363.8369660232
 30
0.0
 40
10.5
 41
0.0
 71
     7
 72
     5
  1

1001
ACAD
1000
MTEXTBEGIN
1070
    73
1070
     1
1070
    44
1040
1.0
1070
    74
1070
     0
1000
MTEXTEND
  0
MTEXT
  5
5666
330
1A
100
AcDbEntity
  8
SUNPOU
100
AcDbMText
 10
44271.02274570799
 20
39361.43311641212
 30
0.0
 40
10.5
 41
0.0
 71
     7
 72
     5
  1

1001
ACAD
1000
MTEXTBEGIN
1070
    73
1070
     1
1070
    44
1040
1.0
1070
    74
1070
     0
1000
MTEXTEND
  0
MTEXT
  5
5667
330
1A
100
AcDbEntity
  8
SUNPOU
100
AcDbMText
 10
95462.54117960824
 20
85034.41368006038
 30
0.0
 40
10.5
 41
0.0
 71
     9
 72
     5
  1

1001
ACAD
1000
MTEXTBEGIN
1070
    73
1070
     1
1070
    44
1040
1.0
1070
    74
1070
     0
1000
MTEXTEND
  0
MTEXT
  5
5668
330
1A
100
AcDbEntity
  8
SUNPOU
100
AcDbMText
 10
104184.7087455262
 20
92450.24821159784
 30
0.0
 40
10.5
 41
0.0
 71
     9
 72
     5
  1

1001
ACAD
1000
MTEXTBEGIN
1070
    73
1070
     1
1070
    44
1040
1.0
1070
    74
1070
     0
1000
MTEXTEND
  0
MTEXT
  5
5669
330
1A
100
AcDbEntity
  8
SUNPOU
100
AcDbMText
 10
123138.4674628562
 20
109916.8242640898
 30
0.0
 40
10.5
 41
0.0
 71
     9
 72
     5
  1

1001
ACAD
1000
MTEXTBEGIN
1070
    73
1070
     1
1070
    44
1040
1.0
1070
    74
1070
     0
1000
MTEXTEND
  0
MTEXT
  5
566A
330
1A
100
AcDbEntity
  8
SUNPOU
100
AcDbMText
 10
125081.8747095656
 20
108115.7751842118
 30
0.0
 40
3.5
 41
0.0
 71
     9
 72
     5
  1

1001
ACAD
1000
MTEXTBEGIN
1070
    73
1070
     1
1070
    44
1040
1.0
1070
    74
1070
     0
1000
MTEXTEND
  0
MTEXT
  5
566B
330
1A
100
AcDbEntity
  8
SUNPOU
100
AcDbMText
 10
156208.0545421853
 20
150610.7208518691
 30
0.0
 40
10.5
 41
0.0
 71
     9
 72
     5
  1

1001
ACAD
1000
MTEXTBEGIN
1070
    73
1070
     1
1070
    44
1040
1.0
1070
    74
1070
     0
1000
MTEXTEND
  0
MTEXT
  5
566C
330
1A
100
AcDbEntity
  8
SUNPOU
100
AcDbMText
 10
158151.4617888947
 20
148809.6717719911
 30
0.0
 40
3.5
 41
0.0
 71
     9
 72
     5
  1

1001
ACAD
1000
MTEXTBEGIN
1070
    73
1070
     1
1070
    44
1040
1.0
1070
    74
1070
     0
1000
MTEXTEND
  0
MTEXT
  5
566D
330
1A
100
AcDbEntity
  8
SUNPOU
100
AcDbMText
 10
106648.3222479809
 20
96443.88600684427
 30
0.0
 40
10.5
 41
0.0
 71
     9
 72
     5
  1

1001
ACAD
1000
MTEXTBEGIN
1070
    73
1070
     1
1070
    44
1040
1.0
1070
    74
1070
     0
1000
MTEXTEND
  0
MTEXT
  5
566E
330
1A
100
AcDbEntity
  8
SUNPOU
100
AcDbMText
 10
92700.3221476049
 20
77271.48686773207
 30
0.0
 40
3.5
 41
0.0
 71
     7
 72
     5
  1

1001
ACAD
1000
MTEXTBEGIN
1070
    73
1070
     1
1070
    44
1040
1.0
1070
    74
1070
     0
1000
MTEXTEND
  0
MTEXT
  5
566F
330
1A
100
AcDbEntity
  8
SUNPOU
100
AcDbMText
 10
73685.49154459806
 20
65033.63559855027
 30
0.0
 40
10.5
 41
0.0
 71
     7
 72
     5
  1

1001
ACAD
1000
MTEXTBEGIN
1070
    73
1070
     1
1070
    44
1040
1.0
1070
    74
1070
     0
1000
MTEXTEND
  0
MTEXT
  5
5670
330
1A
100
AcDbEntity
  8
SUNPOU
100
AcDbMText
 10
61228.26327964995
 20
49188.70402045185
 30
0.0
 40
35.0
 41
0.0
 71
     9
 72
     5
  1

1001
ACAD
1000
MTEXTBEGIN
1070
    73
1070
     1
1070
    44
1040
1.0
1070
    74
1070
     0
1000
MTEXTEND
  0
MTEXT
  5
5671
330
1A
100
AcDbEntity
  8
SUNPOU
100
AcDbMText
 10
60136.74833722491
 20
49797.47943050056
 30
0.0
 40
350.0000004171781
 41
0.0
 71
     7
 72
     5
  1

1001
ACAD
1000
MTEXTBEGIN
1070
    73
1070
     1
1070
    44
1040
1.0
1070
    74
1070
     0
1000
MTEXTEND
  0
MTEXT
  5
5672
330
1A
100
AcDbEntity
  8
0
100
AcDbMText
 10
66180.69909516782
 20
47777.40179263678
 30
0.0
 40
8.0
 41
0.0
 71
     7
 72
     5
  1

1001
ACAD
1000
MTEXTBEGIN
1070
    73
1070
     1
1070
    44
1040
1.0
1070
    74
1070
     0
1000
MTEXTEND
  0
MTEXT
  5
5673
330
1A
100
AcDbEntity
  8
0
100
AcDbMText
 10
68466.05678506271
 20
48748.19208738784
 30
0.0
 40
8.0
 41
0.0
 71
     7
 72
     5
  1

1001
ACAD
1000
MTEXTBEGIN
1070
    73
1070
     1
1070
    44
1040
1.0
1070
    74
1070
     0
1000
MTEXTEND
  0
MTEXT
  5
5674
330
1A
100
AcDbEntity
  8
SUNPOU
100
AcDbMText
 10
71131.95380574485
 20
58260.30347976296
 30
0.0
 40
10.5
 41
0.0
 71
     1
 72
     5
  1

1001
ACAD
1000
MTEXTBEGIN
1070
    73
1070
     1
1070
    44
1040
1.0
1070
    74
1070
     0
1000
MTEXTEND
  0
MTEXT
  5
5675
330
1A
100
AcDbEntity
  8
SUNPOU
100
AcDbMText
 10
63201.03060980891
 20
57313.51034585002
 30
0.0
 40
10.5
 41
0.0
 71
     7
 72
     5
  1

1001
ACAD
1000
MTEXTBEGIN
1070
    73
1070
     1
1070
    44
1040
1.0
1070
    74
1070
     0
1000
MTEXTEND
  0
MTEXT
  5
5676
330
1A
100
AcDbEntity
  8
SUNPOU
100
AcDbMText
 10
66150.01427432169
 20
62214.18641769286
 30
0.0
 40
10.5
 41
0.0
 71
     7
 72
     5
  1

1001
ACAD
1000
MTEXTBEGIN
1070
    73
1070
     1
1070
    44
1040
1.0
1070
    74
1070
     0
1000
MTEXTEND
  0
MTEXT
  5
5677
330
1A
100
AcDbEntity
  8
SUNPOU
100
AcDbMText
 10
70659.09240227225
 20
64650.48716531294
 30
0.0
 40
10.5
 41
0.0
 71
     7
 72
     5
  1

1001
ACAD
1000
MTEXTBEGIN
1070
    73
1070
     1
1070
    44
1040
1.0
1070
    74
1070
     0
1000
MTEXTEND
  0
MTEXT
  5
5678
330
1A
100
AcDbEntity
  8
SUNPOU
100
AcDbMText
 10
54259.93028904056
 20
43648.08331570185
 30
0.0
 40
10.5
 41
0.0
 71
     7
 72
     5
  1

1001
ACAD
1000
MTEXTBEGIN
1070
    73
1070
     1
1070
    44
1040
1.0
1070
    74
1070
     0
1000
MTEXTEND
  0
MTEXT
  5
5679
330
1A
100
AcDbEntity
  8
SUNPOU
100
AcDbMText
 10
56070.69320041551
 20
49975.4973031804
 30
0.0
 40
10.5
 41
0.0
 71
     9
 72
     5
  1

1001
ACAD
1000
MTEXTBEGIN
1070
    73
1070
     1
1070
    44
1040
1.0
1070
    74
1070
     0
1000
MTEXTEND
  0
MTEXT
  5
567A
330
1A
100
AcDbEntity
  8
SUNPOU
100
AcDbMText
 10
64792.86076633348
 20
57391.33183471788
 30
0.0
 40
10.5
 41
0.0
 71
     9
 72
     5
  1

1001
ACAD
1000
MTEXTBEGIN
1070
    73
1070
     1
1070
    44
1040
1.0
1070
    74
1070
     0
1000
MTEXTEND
  0
MTEXT
  5
567B
330
1A
100
AcDbEntity
  8
SUNPOU
100
AcDbMText
 10
83746.61948366345
 20
74857.90788720994
 30
0.0
 40
10.5
 41
0.0
 71
     9
 72
     5
  1

1001
ACAD
1000
MTEXTBEGIN
1070
    73
1070
     1
1070
    44
1040
1.0
1070
    74
1070
     0
1000
MTEXTEND
  0
MTEXT
  5
567C
330
1A
100
AcDbEntity
  8
SUNPOU
100
AcDbMText
 10
85690.02673037287
 20
73056.85880733192
 30
0.0
 40
3.5
 41
0.0
 71
     9
 72
     5
  1

1001
ACAD
1000
MTEXTBEGIN
1070
    73
1070
     1
1070
    44
1040
1.0
1070
    74
1070
     0
1000
MTEXTEND
  0
MTEXT
  5
567D
330
1A
100
AcDbEntity
  8
SUNPOU
100
AcDbMText
 10
116816.2065629925
 20
115551.8044749892
 30
0.0
 40
10.5
 41
0.0
 71
     9
 72
     5
  1

1001
ACAD
1000
MTEXTBEGIN
1070
    73
1070
     1
1070
    44
1040
1.0
1070
    74
1070
     0
1000
MTEXTEND
  0
MTEXT
  5
567E
330
1A
100
AcDbEntity
  8
SUNPOU
100
AcDbMText
 10
118759.613809702
 20
113750.7553951112
 30
0.0
 40
3.5
 41
0.0
 71
     9
 72
     5
  1

1001
ACAD
1000
MTEXTBEGIN
1070
    73
1070
     1
1070
    44
1040
1.0
1070
    74
1070
     0
1000
MTEXTEND
  0
MTEXT
  5
567F
330
1A
100
AcDbEntity
  8
SUNPOU
100
AcDbMText
 10
67256.47426878814
 20
61384.96962996432
 30
0.0
 40
10.5
 41
0.0
 71
     9
 72
     5
  1

1001
ACAD
1000
MTEXTBEGIN
1070
    73
1070
     1
1070
    44
1040
1.0
1070
    74
1070
     0
1000
MTEXTEND
  0
MTEXT
  5
5680
330
1A
100
AcDbEntity
  8
SUNPOU
100
AcDbMText
 10
53308.47416841216
 20
42212.57049085211
 30
0.0
 40
3.5
 41
0.0
 71
     7
 72
     5
  1

1001
ACAD
1000
MTEXTBEGIN
1070
    73
1070
     1
1070
    44
1040
1.0
1070
    74
1070
     0
1000
MTEXTEND
  0
MTEXT
  5
5681
330
1A
100
AcDbEntity
  8
SUNPOU
100
AcDbMText
 10
67000.82485118274
 20
51571.63371187345
 30
0.0
 40
10.5
 41
0.0
 71
     9
 72
     5
  1

1001
ACAD
1000
MTEXTBEGIN
1070
    73
1070
     1
1070
    44
1040
1.0
1070
    74
1070
     0
1000
MTEXTEND
  0
MTEXT
  5
5682
330
1A
100
AcDbEntity
  8
SUNPOU
100
AcDbMText
 10
75722.99241710071
 20
58987.46824341094
 30
0.0
 40
10.5
 41
0.0
 71
     9
 72
     5
  1

1001
ACAD
1000
MTEXTBEGIN
1070
    73
1070
     1
1070
    44
1040
1.0
1070
    74
1070
     0
1000
MTEXTEND
  0
MTEXT
  5
5683
330
1A
100
AcDbEntity
  8
SUNPOU
100
AcDbMText
 10
94676.75113443068
 20
76454.04429590299
 30
0.0
 40
10.5
 41
0.0
 71
     9
 72
     5
  1

1001
ACAD
1000
MTEXTBEGIN
1070
    73
1070
     1
1070
    44
1040
1.0
1070
    74
1070
     0
1000
MTEXTEND
  0
MTEXT
  5
5684
330
1A
100
AcDbEntity
  8
SUNPOU
100
AcDbMText
 10
96620.1583811401
 20
74652.99521602498
 30
0.0
 40
3.5
 41
0.0
 71
     9
 72
     5
  1

1001
ACAD
1000
MTEXTBEGIN
1070
    73
1070
     1
1070
    44
1040
1.0
1070
    74
1070
     0
1000
MTEXTEND
  0
MTEXT
  5
5685
330
1A
100
AcDbEntity
  8
SUNPOU
100
AcDbMText
 10
127746.3382137598
 20
117147.9408836823
 30
0.0
 40
10.5
 41
0.0
 71
     9
 72
     5
  1

1001
ACAD
1000
MTEXTBEGIN
1070
    73
1070
     1
1070
    44
1040
1.0
1070
    74
1070
     0
1000
MTEXTEND
  0
MTEXT
  5
5686
330
1A
100
AcDbEntity
  8
SUNPOU
100
AcDbMText
 10
129689.7454604692
 20
115346.8918038043
 30
0.0
 40
3.5
 41
0.0
 71
     9
 72
     5
  1

1001
ACAD
1000
MTEXTBEGIN
1070
    73
1070
     1
1070
    44
1040
1.0
1070
    74
1070
     0
1000
MTEXTEND
  0
MTEXT
  5
5687
330
1A
100
AcDbEntity
  8
SUNPOU
100
AcDbMText
 10
78186.60591955537
 20
62981.10603865738
 30
0.0
 40
10.5
 41
0.0
 71
     9
 72
     5
  1

1001
ACAD
1000
MTEXTBEGIN
1070
    73
1070
     1
1070
    44
1040
1.0
1070
    74
1070
     0
1000
MTEXTEND
  0
MTEXT
  5
5688
330
1A
100
AcDbEntity
  8
SUNPOU
100
AcDbMText
 10
64238.60581917939
 20
43808.70689954517
 30
0.0
 40
3.5
 41
0.0
 71
     7
 72
     5
  1

1001
ACAD
1000
MTEXTBEGIN
1070
    73
1070
     1
1070
    44
1040
1.0
1070
    74
1070
     0
1000
MTEXTEND
  0
MTEXT
  5
5689
330
1A
100
AcDbEntity
  8
SUNPOU
100
AcDbMText
 10
33428.13481137435
 20
32770.04710035564
 30
0.0
 40
10.5
 41
0.0
 71
     9
 72
     5
  1

1001
ACAD
1000
MTEXTBEGIN
1070
    73
1070
     1
1070
    44
1040
1.0
1070
    74
1070
     0
1000
MTEXTEND
  0
MTEXT
  5
568A
330
1A
100
AcDbEntity
  8
SUNPOU
100
AcDbMText
 10
52381.89352870432
 20
50236.62315284769
 30
0.0
 40
10.5
 41
0.0
 71
     9
 72
     5
  1

1001
ACAD
1000
MTEXTBEGIN
1070
    73
1070
     1
1070
    44
1040
1.0
1070
    74
1070
     0
1000
MTEXTEND
  0
MTEXT
  5
568B
330
1A
100
AcDbEntity
  8
SUNPOU
100
AcDbMText
 10
54325.30077541374
 20
48435.57407296968
 30
0.0
 40
3.5
 41
0.0
 71
     9
 72
     5
  1

1001
ACAD
1000
MTEXTBEGIN
1070
    73
1070
     1
1070
    44
1040
1.0
1070
    74
1070
     0
1000
MTEXTEND
  0
MTEXT
  5
568C
330
1A
100
AcDbEntity
  8
SUNPOU
100
AcDbMText
 10
85451.48060803343
 20
90930.51974062703
 30
0.0
 40
10.5
 41
0.0
 71
     9
 72
     5
  1

1001
ACAD
1000
MTEXTBEGIN
1070
    73
1070
     1
1070
    44
1040
1.0
1070
    74
1070
     0
1000
MTEXTEND
  0
MTEXT
  5
568D
330
1A
100
AcDbEntity
  8
SUNPOU
100
AcDbMText
 10
87394.88785474286
 20
89129.47066074901
 30
0.0
 40
3.5
 41
0.0
 71
     9
 72
     5
  1

1001
ACAD
1000
MTEXTBEGIN
1070
    73
1070
     1
1070
    44
1040
1.0
1070
    74
1070
     0
1000
MTEXTEND
  0
MTEXT
  5
568E
330
1A
100
AcDbEntity
  8
SUNPOU
100
AcDbMText
 10
35891.74831382901
 20
36763.68489560208
 30
0.0
 40
10.5
 41
0.0
 71
     9
 72
     5
  1

1001
ACAD
1000
MTEXTBEGIN
1070
    73
1070
     1
1070
    44
1040
1.0
1070
    74
1070
     0
1000
MTEXTEND
  0
MTEXT
  5
568F
330
1A
100
AcDbEntity
  8
SUNPOU
100
AcDbMText
 10
21943.74821345303
 20
17591.28575648986
 30
0.0
 40
3.5
 41
0.0
 71
     7
 72
     5
  1

1001
ACAD
1000
MTEXTBEGIN
1070
    73
1070
     1
1070
    44
1040
1.0
1070
    74
1070
     0
1000
MTEXTEND
  0
LINE
  5
17F27
330
1A
100
AcDbEntity
  8
ZISSEN1
100
AcDbLine
 10
-1039.25
 20
993.0
 30
0.0
 11
-1039.25
 21
997.0
 31
0.0
  0
LINE
  5
17F28
330
1A
100
AcDbEntity
  8
CL1
100
AcDbLine
 10
-1037.5
 20
992.0
 30
0.0
 11
-1037.5
 21
1000.0
 31
0.0
  0
LINE
  5
17F29
330
1A
100
AcDbEntity
  8
ZISSEN1
100
AcDbLine
 10
-1035.749999999999
 20
993.0
 30
0.0
 11
-1035.749999999999
 21
997.0
 31
0.0
  0
LINE
  5
17F2A
330
1A
100
AcDbEntity
  8
CL1
100
AcDbLine
 10
-1033.5
 20
996.0
 30
0.0
 11
-1042.5
 21
996.0
 31
0.0
  0
LINE
  5
17FB2
330
1A
100
AcDbEntity
  8
ZISSEN1
100
AcDbLine
 10
-967.0
 20
1057.9
 30
0.0
 11
-932.0
 21
1057.9
 31
0.0
  0
LINE
  5
17FB3
330
1A
100
AcDbEntity
  8
ZISSEN1
100
AcDbLine
 10
-967.0
 20
1046.5
 30
0.0
 11
-932.0
 21
1046.5
 31
0.0
  0
LINE
  5
17FD7
330
1A
100
AcDbEntity
  8
ZISSEN1
100
AcDbLine
 10
-967.0
 20
1046.5
 30
0.0
 11
-967.0
 21
1057.9
 31
0.0
  0
MTEXT
  5
18026
330
1A
100
AcDbEntity
  8
ZISSEN1
100
AcDbMText
 10
-1205.031871267477
 20
1092.586947087484
 30
0.0
 40
5.0
 41
107.4391093787423
 71
     1
 72
     5
  1
CD-M582S/ADB5432　　No.SS0001f48
1001
ACAD
1000
MTEXTBEGIN
1070
    73
1070
     1
1070
    44
1040
1.0
1070
    74
1070
     0
1000
MTEXTEND
  0
LINE
  5
18031
330
1A
100
AcDbEntity
  8
ZISSEN1
100
AcDbLine
 10
-1000.0
 20
1000.0
 30
0.0
 11
-1000.0
 21
1091.0
 31
0.0
  0
LINE
  5
18032
330
1A
100
AcDbEntity
  8
ZISSEN1
100
AcDbLine
 10
-1000.0
 20
1091.0
 30
0.0
 11
-1073.0
 21
1091.0
 31
0.0
  0
LINE
  5
18033
330
1A
100
AcDbEntity
  8
ZISSEN1
100
AcDbLine
 10
-1075.0
 20
1088.0
 30
0.0
 11
-1075.0
 21
1003.0
 31
0.0
  0
LINE
  5
18034
330
1A
100
AcDbEntity
  8
ZISSEN1
100
AcDbLine
 10
-1073.0
 20
999.9999994069892
 30
0.0
 11
-1000.0
 21
1000.0
 31
0.0
  0
DIMENSION
  5
18054
330
1A
100
AcDbEntity
  8
SUNPOU
100
AcDbDimension
  2
*D0
 10
-1085.087172393884
 20
1000.0
 30
0.0
 11
-1085.087172393885
 21
1044.748806093777
 31
0.0
 70
   160
  3
標準スタイル
100
AcDbAlignedDimension
 13
-1073.0
 23
1091.000000004061
 33
0.0
 14
-1073.0
 24
1000.0
 34
0.0
 50
90.0
100
AcDbRotatedDimension
1001
ACAD
1000
DSTYLE
1002
{
1070
   340
1005
10
1070
    40
1040
1.0
1002
}
  0
LINE
  5
180C5
330
1A
100
AcDbEntity
  8
ZISSEN1
100
AcDbLine
 10
-1037.134761796576
 20
997.8472070256948
 30
0.0
 11
-1037.134761796576
 21
997.8472070256948
 31
0.0
  0
ARC
  5
180C6
330
1A
100
AcDbEntity
  8
ZISSEN1
100
AcDbCircle
 10
-1037.5
 20
996.7044360864701
 30
0.0
 40
1.774783938112351
100
AcDbArc
 50
9.586426210134035
 51
170.4135737898641
  0
LINE
  5
18832
330
1A
100
AcDbEntity
  8
ZISSEN1
100
AcDbLine
 10
-1031.619999999999
 20
1064.0
 30
0.0
 11
-1031.619999999999
 21
1077.14
 31
0.0
  0
LINE
  5
18833
330
1A
100
AcDbEntity
  8
ZISSEN1
100
AcDbLine
 10
-1031.619999999999
 20
1077.14
 30
0.0
 11
-1016.0
 21
1077.14
 31
0.0
  0
LINE
  5
18834
330
1A
100
AcDbEntity
  8
ZISSEN1
100
AcDbLine
 10
-1016.0
 20
1077.14
 30
0.0
 11
-1016.0
 21
1064.0
 31
0.0
  0
LINE
  5
18835
330
1A
100
AcDbEntity
  8
ZISSEN1
100
AcDbLine
 10
-1016.0
 20
1064.0
 30
0.0
 11
-1031.619999999999
 21
1064.0
 31
0.0
  0
LINE
  5
1883C
330
1A
100
AcDbEntity
  8
ZISSEN1
100
AcDbLine
 10
-1017.000000761502
 20
1077.139999480946
 30
0.0
 11
-1017.000000761502
 21
1063.999999480945
 31
0.0
  0
LINE
  5
18842
330
1A
100
AcDbEntity
  8
ZISSEN1
100
AcDbLine
 10
-1022.120000761502
 20
1077.139999480946
 30
0.0
 11
-1022.120000761502
 21
1063.999999480945
 31
0.0
  0
LINE
  5
18848
330
1A
100
AcDbEntity
  8
ZISSEN1
100
AcDbLine
 10
-1030.620000761502
 20
1077.139999480946
 30
0.0
 11
-1030.620000761502
 21
1063.999999480945
 31
0.0
  0
LINE
  5
1884E
330
1A
100
AcDbEntity
  8
ZISSEN1
100
AcDbLine
 10
-1025.500000761502
 20
1077.139999480946
 30
0.0
 11
-1025.500000761502
 21
1063.999999480945
 31
0.0
  0
LINE
  5
18860
330
1A
100
AcDbEntity
  8
ZISSEN1
100
AcDbLine
 10
-967.0
 20
1050.7
 30
0.0
 11
-972.0
 21
1050.7
 31
0.0
  0
LINE
  5
18861
330
1A
100
AcDbEntity
  8
ZISSEN1
100
AcDbLine
 10
-975.0000000000001
 20
1053.7
 30
0.0
 11
-975.0
 21
1063.6
 31
0.0
  0
LINE
  5
18862
330
1A
100
AcDbEntity
  8
ZISSEN1
100
AcDbLine
 10
-967.0
 20
1053.7
 30
0.0
 11
-970.5
 21
1053.7
 31
0.0
  0
LINE
  5
18863
330
1A
100
AcDbEntity
  8
ZISSEN1
100
AcDbLine
 10
-971.9999999999998
 20
1055.2
 30
0.0
 11
-972.0
 21
1063.6
 31
0.0
  0
ARC
  5
18866
330
1A
100
AcDbEntity
  8
ZISSEN1
100
AcDbCircle
 10
-972.0
 20
1053.7
 30
0.0
 40
3.0
100
AcDbArc
 50
180.0
 51
270.0
  0
ARC
  5
18867
330
1A
100
AcDbEntity
  8
ZISSEN1
100
AcDbCircle
 10
-970.4999999999998
 20
1055.2
 30
0.0
 40
1.5
100
AcDbArc
 50
180.0000000000016
 51
269.9999999999967
  0
LINE
  5
18AE7
330
1A
100
AcDbEntity
  8
ZISSEN1
100
AcDbLine
 10
-1075.0
 20
1003.0
 30
0.0
 11
-1074.0
 21
1003.0
 31
0.0
  0
LINE
  5
18AE8
330
1A
100
AcDbEntity
  8
ZISSEN1
100
AcDbLine
 10
-1074.0
 20
1003.0
 30
0.0
 11
-1074.0
 21
1000.999999398865
 31
0.0
  0
LINE
  5
18AEB
330
1A
100
AcDbEntity
  8
ZISSEN1
100
AcDbLine
 10
-1074.0
 20
1000.999999398865
 30
0.0
 11
-1073.0
 21
999.9999994069892
 31
0.0
  0
LINE
  5
18AEF
330
1A
100
AcDbEntity
  8
ZISSEN1
100
AcDbLine
 10
-1004.0
 20
1000.0
 30
0.0
 11
-1004.0
 21
994.0
 31
0.0
  0
LINE
  5
18AF0
330
1A
100
AcDbEntity
  8
ZISSEN1
100
AcDbLine
 10
-1005.0
 20
993.0
 30
0.0
 11
-1035.749999999999
 21
993.0
 31
0.0
  0
LINE
  5
18AF1
330
1A
100
AcDbEntity
  8
ZISSEN1
100
AcDbLine
 10
-1071.0
 20
994.0
 30
0.0
 11
-1071.0
 21
1000.0
 31
0.0
  0
LINE
  5
18AF2
330
1A
100
AcDbEntity
  8
ZISSEN1
100
AcDbLine
 10
-1039.25
 20
993.0
 30
0.0
 11
-1070.0
 21
993.0
 31
0.0
  0
LINE
  5
18AF6
330
1A
100
AcDbEntity
  8
ZISSEN1
100
AcDbLine
 10
-1075.0
 20
1088.0
 30
0.0
 11
-1074.0
 21
1088.0
 31
0.0
  0
LINE
  5
18AF7
330
1A
100
AcDbEntity
  8
ZISSEN1
100
AcDbLine
 10
-1074.0
 20
1088.0
 30
0.0
 11
-1074.0
 21
1090.0
 31
0.0
  0
LINE
  5
18AF8
330
1A
100
AcDbEntity
  8
ZISSEN1
100
AcDbLine
 10
-1074.0
 20
1090.0
 30
0.0
 11
-1073.0
 21
1091.0
 31
0.0
  0
LINE
  5
18B0A
330
1A
100
AcDbEntity
  8
ZISSEN1
100
AcDbLine
 10
-1039.250000113727
 20
1097.999999955321
 30
0.0
 11
-1070.000000113727
 21
1097.999999431359
 31
0.0
  0
LINE
  5
18B0B
330
1A
100
AcDbEntity
  8
ZISSEN1
100
AcDbLine
 10
-1073.0
 20
1091.0
 30
0.0
 11
-1000.0
 21
1091.00000059301
 31
0.0
  0
LINE
  5
18B0C
330
1A
100
AcDbEntity
  8
ZISSEN1
100
AcDbLine
 10
-1071.000000097481
 20
1096.999999415112
 30
0.0
 11
-1071.0
 21
1090.999999415112
 31
0.0
  0
LINE
  5
18B0E
330
1A
100
AcDbEntity
  8
ZISSEN1
100
AcDbLine
 10
-1005.000000089357
 20
1098.000000511776
 30
0.0
 11
-1035.750000113727
 21
1098.000000012185
 31
0.0
  0
LINE
  5
18B0F
330
1A
100
AcDbEntity
  8
CL1
100
AcDbLine
 10
-1033.500000064987
 20
1095.00000004874
 30
0.0
 11
-1042.500000064987
 21
1094.999999902518
 31
0.0
  0
LINE
  5
18B10
330
1A
100
AcDbEntity
  8
ZISSEN1
100
AcDbLine
 10
-1039.250000113727
 20
1097.999999955321
 30
0.0
 11
-1039.25000004874
 21
1093.999999955321
 31
0.0
  0
ARC
  5
18B11
330
1A
100
AcDbEntity
  8
ZISSEN1
100
AcDbCircle
 10
-1037.500000053543
 20
1094.295563897283
 30
0.0
 40
1.774783938112351
100
AcDbArc
 50
189.5864271410065
 51
350.4135747207477
  0
LINE
  5
18B12
330
1A
100
AcDbEntity
  8
ZISSEN1
100
AcDbLine
 10
-1035.750000113727
 20
1098.000000012185
 30
0.0
 11
-1035.75000004874
 21
1094.000000012185
 31
0.0
  0
LINE
  5
18B13
330
1A
100
AcDbEntity
  8
ZISSEN1
100
AcDbLine
 10
-1037.134761831552
 20
1093.152792963992
 30
0.0
 11
-1037.134761831552
 21
1093.152792963992
 31
0.0
  0
LINE
  5
18B14
330
1A
100
AcDbEntity
  8
CL1
100
AcDbLine
 10
-1037.500000129975
 20
1098.999999983753
 30
0.0
 11
-1037.5
 21
1090.999999983753
 31
0.0
  0
LINE
  5
18B15
330
1A
100
AcDbEntity
  8
ZISSEN1
100
AcDbLine
 10
-1004.0
 20
1091.000000552393
 30
0.0
 11
-1004.000000097481
 21
1097.000000552393
 31
0.0
  0
DIMENSION
  5
18B6E
330
1A
100
AcDbEntity
  8
SUNPOU
100
AcDbDimension
  2
*D1
 10
-1096.189513007244
 20
1097.999999431359
 30
0.0
 11
-1098.939513007244
 21
1045.499999715679
 31
0.0
 70
    32
  3
標準スタイル
100
AcDbAlignedDimension
 13
-1070.0
 23
993.0
 33
0.0
 14
-1070.000000113727
 24
1097.999999431359
 34
0.0
 50
90.0
100
AcDbRotatedDimension
1001
ACAD
1000
DSTYLE
1002
{
1070
    40
1040
1.0
1002
}
  0
DIMENSION
  5
18B98
330
1A
100
AcDbEntity
  8
SUNPOU
100
AcDbDimension
  2
*D2
 10
-1085.087172393884
 20
993.0
 30
0.0
 11
-1087.837172393885
 21
996.4999999999999
 31
0.0
 70
    32
  3
標準スタイル
100
AcDbAlignedDimension
 13
-1073.0
 23
1000.0
 33
0.0
 14
-1072.5
 24
993.0
 34
0.0
 50
90.0
100
AcDbRotatedDimension
1001
ACAD
1000
DSTYLE
1002
{
1070
   287
1070
     4
1070
    40
1040
1.0
1070
   279
1070
     1
1002
}
  0
DIMENSION
  5
18BB4
330
1A
100
AcDbEntity
  8
SUNPOU
100
AcDbDimension
  2
*D3
 10
-1085.087172393884
 20
1097.999999415112
 30
0.0
 11
-1087.837172393885
 21
1094.499999709587
 31
0.0
 70
    32
  3
標準スタイル
100
AcDbAlignedDimension
 13
-1072.999999995938
 23
1091.000000004061
 33
0.0
 14
-1073.000000113727
 24
1097.999999415112
 34
0.0
 50
90.0
100
AcDbRotatedDimension
1001
ACAD
1000
DSTYLE
1002
{
1070
   287
1070
     4
1070
    40
1040
1.0
1070
   279
1070
     1
1002
}
  0
LINE
  5
18C0B
330
1A
100
AcDbEntity
  8
ZISSEN1
100
AcDbLine
 10
-1064.2
 20
1013.010006
 30
0.0
 11
-1058.1
 21
1013.010006
 31
0.0
  0
LINE
  5
18C0C
330
1A
100
AcDbEntity
  8
ZISSEN1
100
AcDbLine
 10
-1058.1
 20
1013.010006
 30
0.0
 11
-1058.1
 21
1019.809995999999
 31
0.0
  0
LINE
  5
18C0D
330
1A
100
AcDbEntity
  8
ZISSEN1
100
AcDbLine
 10
-1064.2
 20
1009.5
 30
0.0
 11
-1064.2
 21
1016.409995999999
 31
0.0
  0
LINE
  5
18C0E
330
1A
100
AcDbEntity
  8
ZISSEN1
100
AcDbLine
 10
-1066.5
 20
1009.5
 30
0.0
 11
-1066.5
 21
1016.409995999999
 31
0.0
  0
LINE
  5
18C0F
330
1A
100
AcDbEntity
  8
ZISSEN1
100
AcDbLine
 10
-1064.399999999999
 20
1009.5
 30
0.0
 11
-1064.399999999999
 21
1016.409995999999
 31
0.0
  0
LINE
  5
18C10
330
1A
100
AcDbEntity
  8
ZISSEN1
100
AcDbLine
 10
-1064.2
 20
1009.5
 30
0.0
 11
-1066.5
 21
1009.5
 31
0.0
  0
LINE
  5
18C11
330
1A
100
AcDbEntity
  8
ZISSEN1
100
AcDbLine
 10
-1064.2
 20
1019.809995999999
 30
0.0
 11
-1058.1
 21
1019.809995999999
 31
0.0
  0
LINE
  5
18C12
330
1A
100
AcDbEntity
  8
ZISSEN1
100
AcDbLine
 10
-1064.2
 20
1023.909995999999
 30
0.0
 11
-1066.5
 21
1023.909995999999
 31
0.0
  0
LINE
  5
18C13
330
1A
100
AcDbEntity
  8
ZISSEN1
100
AcDbLine
 10
-1064.2
 20
1016.999996
 30
0.0
 11
-1066.5
 21
1016.999996
 31
0.0
  0
LINE
  5
18C14
330
1A
100
AcDbEntity
  8
ZISSEN1
100
AcDbLine
 10
-1064.2
 20
1016.409995999999
 30
0.0
 11
-1066.5
 21
1016.409995999999
 31
0.0
  0
LINE
  5
18C16
330
1A
100
AcDbEntity
  8
ZISSEN1
100
AcDbLine
 10
-1064.2
 20
1016.999996
 30
0.0
 11
-1064.2
 21
1023.909995999999
 31
0.0
  0
LINE
  5
18C17
330
1A
100
AcDbEntity
  8
ZISSEN1
100
AcDbLine
 10
-1066.5
 20
1016.999996
 30
0.0
 11
-1066.5
 21
1023.909995999999
 31
0.0
  0
LINE
  5
18C18
330
1A
100
AcDbEntity
  8
ZISSEN1
100
AcDbLine
 10
-1064.399999999999
 20
1016.999996
 30
0.0
 11
-1064.399999999999
 21
1023.909995999999
 31
0.0
  0
LINE
  5
18C21
330
1A
100
AcDbEntity
  8
ZISSEN1
100
AcDbLine
 10
-1058.75001
 20
1024.5
 30
0.0
 11
-1066.5
 21
1024.5
 31
0.0
  0
LINE
  5
18C22
330
1A
100
AcDbEntity
  8
ZISSEN1
100
AcDbLine
 10
-1058.75001
 20
1024.5
 30
0.0
 11
-1058.75001
 21
1041.89997
 31
0.0
  0
LINE
  5
18C23
330
1A
100
AcDbEntity
  8
ZISSEN1
100
AcDbLine
 10
-1058.75001
 20
1041.89997
 30
0.0
 11
-1066.5
 21
1041.89997
 31
0.0
  0
LINE
  5
18C24
330
1A
100
AcDbEntity
  8
ZISSEN1
100
AcDbLine
 10
-1066.5
 20
1041.89997
 30
0.0
 11
-1066.5
 21
1024.5
 31
0.0
  0
LINE
  5
18C2C
330
1A
100
AcDbEntity
  8
ZISSEN1
100
AcDbLine
 10
-1058.750010490363
 20
1066.9
 30
0.0
 11
-1066.500000490363
 21
1066.9
 31
0.0
  0
LINE
  5
18C2D
330
1A
100
AcDbEntity
  8
ZISSEN1
100
AcDbLine
 10
-1058.750010490363
 20
1041.999999691561
 30
0.0
 11
-1066.500000490363
 21
1041.999999691561
 31
0.0
  0
LINE
  5
18C2E
330
1A
100
AcDbEntity
  8
ZISSEN1
100
AcDbLine
 10
-1066.500000490363
 20
1066.9
 30
0.0
 11
-1066.500000490363
 21
1041.999999691561
 31
0.0
  0
LINE
  5
18C2F
330
1A
100
AcDbEntity
  8
ZISSEN1
100
AcDbLine
 10
-1058.750010490363
 20
1066.9
 30
0.0
 11
-1058.750010490363
 21
1041.999999691561
 31
0.0
  0
LWPOLYLINE
  5
18C30
330
1A
100
AcDbEntity
  8
ZISSEN1
100
AcDbPolyline
 90
        4
 70
     1
 43
0.0
 10
-1066.5
 20
1068.0
 10
-1056.800000503878
 20
1068.0
 10
-1056.800000503878
 20
1087.599999999999
 10
-1066.5
 20
1087.599999999999
  0
LWPOLYLINE
  5
18C4D
330
1A
100
AcDbEntity
  8
ZISSEN1
100
AcDbPolyline
 90
        4
 70
     1
 43
0.0
 10
-1046.499998915452
 20
1068.000000021157
 10
-1036.800000490478
 20
1068.0
 10
-1036.800000490478
 20
1087.599999999999
 10
-1046.499998915452
 20
1087.600000021157
  0
LINE
  5
18C4E
330
1A
100
AcDbEntity
  8
ZISSEN1
100
AcDbLine
 10
-1038.750009405816
 20
1066.900000021157
 30
0.0
 11
-1046.499999405816
 21
1066.900000021157
 31
0.0
  0
LINE
  5
18C4F
330
1A
100
AcDbEntity
  8
ZISSEN1
100
AcDbLine
 10
-1038.750009405816
 20
1041.999999712719
 30
0.0
 11
-1046.499999405816
 21
1041.999999712719
 31
0.0
  0
LINE
  5
18C50
330
1A
100
AcDbEntity
  8
ZISSEN1
100
AcDbLine
 10
-1038.750008915452
 20
1041.899970021157
 30
0.0
 11
-1046.499998915452
 21
1041.899970021157
 31
0.0
  0
LINE
  5
18C51
330
1A
100
AcDbEntity
  8
ZISSEN1
100
AcDbLine
 10
-1038.750008915452
 20
1024.500000021157
 30
0.0
 11
-1046.499998915452
 21
1024.500000021157
 31
0.0
  0
LINE
  5
18C52
330
1A
100
AcDbEntity
  8
ZISSEN1
100
AcDbLine
 10
-1044.199998915452
 20
1019.809996021157
 30
0.0
 11
-1038.099998915453
 21
1019.809996021157
 31
0.0
  0
LINE
  5
18C53
330
1A
100
AcDbEntity
  8
ZISSEN1
100
AcDbLine
 10
-1044.199998915452
 20
1013.010006021157
 30
0.0
 11
-1038.099998915453
 21
1013.010006021157
 31
0.0
  0
LINE
  5
18C54
330
1A
100
AcDbEntity
  8
ZISSEN1
100
AcDbLine
 10
-1046.499998915452
 20
1041.899970021157
 30
0.0
 11
-1046.499998915452
 21
1024.500000021157
 31
0.0
  0
LINE
  5
18C55
330
1A
100
AcDbEntity
  8
ZISSEN1
100
AcDbLine
 10
-1044.399998915452
 20
1009.500000021157
 30
0.0
 11
-1044.399998915452
 21
1016.409996021157
 31
0.0
  0
LINE
  5
18C56
330
1A
100
AcDbEntity
  8
ZISSEN1
100
AcDbLine
 10
-1046.499998915452
 20
1009.500000021157
 30
0.0
 11
-1046.499998915452
 21
1016.409996021157
 31
0.0
  0
LINE
  5
18C57
330
1A
100
AcDbEntity
  8
ZISSEN1
100
AcDbLine
 10
-1044.199998915452
 20
1009.500000021157
 30
0.0
 11
-1044.199998915452
 21
1016.409996021157
 31
0.0
  0
LINE
  5
18C58
330
1A
100
AcDbEntity
  8
ZISSEN1
100
AcDbLine
 10
-1044.199998915452
 20
1009.500000021157
 30
0.0
 11
-1046.499998915452
 21
1009.500000021157
 31
0.0
  0
LINE
  5
18C59
330
1A
100
AcDbEntity
  8
ZISSEN1
100
AcDbLine
 10
-1044.399998915452
 20
1016.999996021157
 30
0.0
 11
-1044.399998915452
 21
1023.909996021157
 31
0.0
  0
LINE
  5
18C5A
330
1A
100
AcDbEntity
  8
ZISSEN1
100
AcDbLine
 10
-1046.499998915452
 20
1016.999996021157
 30
0.0
 11
-1046.499998915452
 21
1023.909996021157
 31
0.0
  0
LINE
  5
18C5B
330
1A
100
AcDbEntity
  8
ZISSEN1
100
AcDbLine
 10
-1044.199998915452
 20
1016.999996021157
 30
0.0
 11
-1044.199998915452
 21
1023.909996021157
 31
0.0
  0
LINE
  5
18C5C
330
1A
100
AcDbEntity
  8
ZISSEN1
100
AcDbLine
 10
-1044.199998915452
 20
1016.409996021157
 30
0.0
 11
-1046.499998915452
 21
1016.409996021157
 31
0.0
  0
LINE
  5
18C5D
330
1A
100
AcDbEntity
  8
ZISSEN1
100
AcDbLine
 10
-1044.199998915452
 20
1016.999996021157
 30
0.0
 11
-1046.499998915452
 21
1016.999996021157
 31
0.0
  0
LINE
  5
18C5E
330
1A
100
AcDbEntity
  8
ZISSEN1
100
AcDbLine
 10
-1044.199998915452
 20
1023.909996021157
 30
0.0
 11
-1046.499998915452
 21
1023.909996021157
 31
0.0
  0
LINE
  5
18C60
330
1A
100
AcDbEntity
  8
ZISSEN1
100
AcDbLine
 10
-1046.499999405816
 20
1066.900000021157
 30
0.0
 11
-1046.499999405816
 21
1041.999999712719
 31
0.0
  0
LINE
  5
18C61
330
1A
100
AcDbEntity
  8
ZISSEN1
100
AcDbLine
 10
-1038.750008915452
 20
1024.500000021157
 30
0.0
 11
-1038.750008915452
 21
1041.899970021157
 31
0.0
  0
LINE
  5
18C62
330
1A
100
AcDbEntity
  8
ZISSEN1
100
AcDbLine
 10
-1038.099998915453
 20
1013.010006021157
 30
0.0
 11
-1038.099998915453
 21
1019.809996021157
 31
0.0
  0
LINE
  5
18C63
330
1A
100
AcDbEntity
  8
ZISSEN1
100
AcDbLine
 10
-1038.750009405816
 20
1066.900000021157
 30
0.0
 11
-1038.750009405816
 21
1041.999999712719
 31
0.0
  0
LINE
  5
18C6C
330
1A
100
AcDbEntity
  8
ZISSEN1
100
AcDbLine
 10
-1028.040000351936
 20
1046.49999965158
 30
0.0
 11
-1016.000020351936
 21
1046.49999965158
 31
0.0
  0
LINE
  5
18C6D
330
1A
100
AcDbEntity
  8
ZISSEN1
100
AcDbLine
 10
-1028.040000351936
 20
1046.49999965158
 30
0.0
 11
-1028.034484855827
 21
1057.900004862044
 31
0.0
  0
LINE
  5
18C6E
330
1A
100
AcDbEntity
  8
ZISSEN1
100
AcDbLine
 10
-1016.000020351936
 20
1046.49999965158
 30
0.0
 11
-1015.994504855827
 21
1057.900004862044
 31
0.0
  0
LINE
  5
18C6F
330
1A
100
AcDbEntity
  8
ZISSEN1
100
AcDbLine
 10
-1028.034484855827
 20
1057.900004862044
 30
0.0
 11
-1015.994504855827
 21
1057.900004862044
 31
0.0
  0
LINE
  5
18C78
330
1A
100
AcDbEntity
  8
ZISSEN1
100
AcDbLine
 10
-1012.000006
 20
1008.0
 30
0.0
 11
-1012.000006
 21
1020.6
 31
0.0
  0
LINE
  5
18C79
330
1A
100
AcDbEntity
  8
ZISSEN1
100
AcDbLine
 10
-1021.700011999999
 20
1008.0
 30
0.0
 11
-1012.0
 21
1008.0
 31
0.0
  0
LINE
  5
18C7A
330
1A
100
AcDbEntity
  8
ZISSEN1
100
AcDbLine
 10
-1021.700011999999
 20
1020.6
 30
0.0
 11
-1012.0
 21
1020.6
 31
0.0
  0
LINE
  5
18C7B
330
1A
100
AcDbEntity
  8
ZISSEN1
100
AcDbLine
 10
-1021.700011999999
 20
1020.6
 30
0.0
 11
-1021.700011999999
 21
1008.0
 31
0.0
  0
LINE
  5
18C85
330
1A
100
AcDbEntity
  8
ZISSEN1
100
AcDbLine
 10
-1012.0
 20
1041.9
 30
0.0
 11
-1012.0
 21
1022.0
 31
0.0
  0
LINE
  5
18C86
330
1A
100
AcDbEntity
  8
ZISSEN1
100
AcDbLine
 10
-1019.749989999999
 20
1041.9
 30
0.0
 11
-1019.749989999999
 21
1022.0
 31
0.0
  0
LINE
  5
18C87
330
1A
100
AcDbEntity
  8
ZISSEN1
100
AcDbLine
 10
-1012.0
 20
1041.9
 30
0.0
 11
-1019.749989999999
 21
1041.9
 31
0.0
  0
LINE
  5
18C88
330
1A
100
AcDbEntity
  8
ZISSEN1
100
AcDbLine
 10
-1012.0
 20
1022.0
 30
0.0
 11
-1019.749989999999
 21
1022.0
 31
0.0
  0
LINE
  5
18C92
330
1A
100
AcDbEntity
  8
ZISSEN1
100
AcDbLine
 10
-1046.499999513154
 20
1088.000000275932
 30
0.0
 11
-1047.499999513155
 21
1088.000000275932
 31
0.0
  0
LINE
  5
18C93
330
1A
100
AcDbEntity
  8
ZISSEN1
100
AcDbLine
 10
-1047.499999513155
 20
1088.000000275932
 30
0.0
 11
-1047.499999513155
 21
1006.500000275933
 31
0.0
  0
LINE
  5
18C94
330
1A
100
AcDbEntity
  8
ZISSEN1
100
AcDbLine
 10
-1047.499999513155
 20
1006.500000275933
 30
0.0
 11
-1046.499999513154
 21
1006.500000275933
 31
0.0
  0
LINE
  5
18C95
330
1A
100
AcDbEntity
  8
ZISSEN1
100
AcDbLine
 10
-1046.499999513154
 20
1006.500000275933
 30
0.0
 11
-1046.499999513154
 21
1088.000000275932
 31
0.0
  0
LINE
  5
18C96
330
1A
100
AcDbEntity
  8
ZISSEN1
100
AcDbLine
 10
-1066.5
 20
1088.0
 30
0.0
 11
-1067.5
 21
1088.0
 31
0.0
  0
LINE
  5
18C97
330
1A
100
AcDbEntity
  8
ZISSEN1
100
AcDbLine
 10
-1067.5
 20
1088.0
 30
0.0
 11
-1067.5
 21
1006.499999999999
 31
0.0
  0
LINE
  5
18C98
330
1A
100
AcDbEntity
  8
ZISSEN1
100
AcDbLine
 10
-1067.5
 20
1006.499999999999
 30
0.0
 11
-1066.5
 21
1006.499999999999
 31
0.0
  0
LINE
  5
18C99
330
1A
100
AcDbEntity
  8
ZISSEN1
100
AcDbLine
 10
-1066.5
 20
1006.499999999999
 30
0.0
 11
-1066.5
 21
1088.0
 31
0.0
  0
LINE
  5
18C9F
330
1A
100
AcDbEntity
  8
ZISSEN1
100
AcDbLine
 10
-1028.04
 20
1077.14
 30
0.0
 11
-1028.04
 21
1082.0
 31
0.0
  0
LINE
  5
18CA0
330
1A
100
AcDbEntity
  8
ZISSEN1
100
AcDbLine
 10
-1028.04
 20
1082.0
 30
0.0
 11
-1029.039999999999
 21
1082.0
 31
0.0
  0
LINE
  5
18CA1
330
1A
100
AcDbEntity
  8
ZISSEN1
100
AcDbLine
 10
-1029.039999999999
 20
1082.0
 30
0.0
 11
-1029.039999999999
 21
1077.14
 31
0.0
  0
LINE
  5
18CA2
330
1A
100
AcDbEntity
  8
ZISSEN1
100
AcDbLine
 10
-1029.039999999999
 20
1064.0
 30
0.0
 11
-1029.039999999999
 21
1046.0
 31
0.0
  0
LINE
  5
18CA3
330
1A
100
AcDbEntity
  8
ZISSEN1
100
AcDbLine
 10
-1029.039999999999
 20
1046.0
 30
0.0
 11
-1028.04
 21
1046.0
 31
0.0
  0
LINE
  5
18CA4
330
1A
100
AcDbEntity
  8
ZISSEN1
100
AcDbLine
 10
-1028.04
 20
1046.0
 30
0.0
 11
-1028.04
 21
1064.0
 31
0.0
  0
LINE
  5
18CA5
330
1A
100
AcDbEntity
  8
ZISSEN1
100
AcDbLine
 10
-1012.0
 20
1055.0
 30
0.0
 11
-1011.0
 21
1055.0
 31
0.0
  0
LINE
  5
18CA6
330
1A
100
AcDbEntity
  8
ZISSEN1
100
AcDbLine
 10
-1011.0
 20
1055.0
 30
0.0
 11
-1011.0
 21
1082.0
 31
0.0
  0
LINE
  5
18CA7
330
1A
100
AcDbEntity
  8
ZISSEN1
100
AcDbLine
 10
-1011.0
 20
1082.0
 30
0.0
 11
-1012.0
 21
1082.0
 31
0.0
  0
LINE
  5
18CA8
330
1A
100
AcDbEntity
  8
ZISSEN1
100
AcDbLine
 10
-1012.0
 20
1082.0
 30
0.0
 11
-1012.0
 21
1055.0
 31
0.0
  0
LINE
  5
18CA9
330
1A
100
AcDbEntity
  8
ZISSEN1
100
AcDbLine
 10
-1012.0
 20
1008.0
 30
0.0
 11
-1011.0
 21
1008.0
 31
0.0
  0
LINE
  5
18CAA
330
1A
100
AcDbEntity
  8
ZISSEN1
100
AcDbLine
 10
-1011.0
 20
1008.0
 30
0.0
 11
-1011.0
 21
1043.0
 31
0.0
  0
LINE
  5
18CAB
330
1A
100
AcDbEntity
  8
ZISSEN1
100
AcDbLine
 10
-1011.0
 20
1043.0
 30
0.0
 11
-1012.0
 21
1043.0
 31
0.0
  0
LINE
  5
18CAC
330
1A
100
AcDbEntity
  8
ZISSEN1
100
AcDbLine
 10
-1012.0
 20
1043.0
 30
0.0
 11
-1012.0
 21
1008.0
 31
0.0
  0
LINE
  5
18CAD
330
1A
100
AcDbEntity
  8
ZISSEN1
100
AcDbLine
 10
-1028.04
 20
1006.499999999999
 30
0.0
 11
-1029.039999999999
 21
1006.499999999999
 31
0.0
  0
LINE
  5
18CAE
330
1A
100
AcDbEntity
  8
ZISSEN1
100
AcDbLine
 10
-1029.039999999999
 20
1006.499999999999
 30
0.0
 11
-1029.039999999999
 21
1028.0
 31
0.0
  0
LINE
  5
18CAF
330
1A
100
AcDbEntity
  8
ZISSEN1
100
AcDbLine
 10
-1029.039999999999
 20
1028.0
 30
0.0
 11
-1028.04
 21
1028.0
 31
0.0
  0
LINE
  5
18CB0
330
1A
100
AcDbEntity
  8
ZISSEN1
100
AcDbLine
 10
-1028.04
 20
1028.0
 30
0.0
 11
-1028.04
 21
1006.499999999999
 31
0.0
  0
LWPOLYLINE
  5
18CB4
330
1A
100
AcDbEntity
  8
ZISSEN1
100
AcDbPolyline
 90
        4
 70
     1
 43
0.0
 10
-860.5
 20
993.0
 10
-857.5000000000001
 20
993.0
 10
-857.5000000000001
 20
1098.0
 10
-860.5
 20
1098.0
  0
LINE
  5
18CBE
330
1A
100
AcDbEntity
  8
ZISSEN1
100
AcDbLine
 10
-932.0
 20
1022.000000218636
 30
0.0
 11
-940.0000003456529
 21
1022.000000218636
 31
0.0
  0
LINE
  5
18CBF
330
1A
100
AcDbEntity
  8
ZISSEN1
100
AcDbLine
 10
-932.0
 20
1041.900000218636
 30
0.0
 11
-940.0000003456529
 21
1041.900000218636
 31
0.0
  0
LINE
  5
18CC0
330
1A
100
AcDbEntity
  8
ZISSEN1
100
AcDbLine
 10
-940.0000003456529
 20
1041.900000218636
 30
0.0
 11
-940.0000003456529
 21
1022.000000218636
 31
0.0
  0
LINE
  5
18CC1
330
1A
100
AcDbEntity
  8
ZISSEN1
100
AcDbLine
 10
-946.0
 20
1008.0
 30
0.0
 11
-932.0
 21
1008.0
 31
0.0
  0
LINE
  5
18CC3
330
1A
100
AcDbEntity
  8
ZISSEN1
100
AcDbLine
 10
-932.0
 20
1020.6
 30
0.0
 11
-945.0
 21
1020.6
 31
0.0
  0
LINE
  5
18CC5
330
1A
100
AcDbEntity
  8
ZISSEN1
100
AcDbLine
 10
-932.0
 20
1000.0
 30
0.0
 11
-860.5
 21
1000.0
 31
0.0
  0
LINE
  5
18CC6
330
1A
100
AcDbEntity
  8
ZISSEN1
100
AcDbLine
 10
-860.5
 20
1000.0
 30
0.0
 11
-860.5
 21
1091.0
 31
0.0
  0
LINE
  5
18CC7
330
1A
100
AcDbEntity
  8
ZISSEN1
100
AcDbLine
 10
-860.5
 20
1091.0
 30
0.0
 11
-932.0
 21
1091.0
 31
0.0
  0
LINE
  5
18CC8
330
1A
100
AcDbEntity
  8
ZISSEN1
100
AcDbLine
 10
-932.0
 20
1091.0
 30
0.0
 11
-932.0
 21
1000.0
 31
0.0
  0
ARC
  5
18CDE
330
1A
100
AcDbEntity
  8
ZISSEN1
100
AcDbCircle
 10
-955.5000011069523
 20
1072.07000101551
 30
0.0
 40
3.0
100
AcDbArc
 50
180.0
 51
270.0
  0
LINE
  5
18CDF
330
1A
100
AcDbEntity
  8
ZISSEN1
100
AcDbLine
 10
-950.5
 20
1076.57
 30
0.0
 11
-950.5
 21
1064.57
 31
0.0
  0
LINE
  5
18CE0
330
1A
100
AcDbEntity
  8
ZISSEN1
100
AcDbLine
 10
-934.5
 20
1060.57
 30
0.0
 11
-943.5
 21
1064.57
 31
0.0
  0
LINE
  5
18CE1
330
1A
100
AcDbEntity
  8
ZISSEN1
100
AcDbLine
 10
-934.5
 20
1060.57
 30
0.0
 11
-932.0
 21
1060.57
 31
0.0
  0
LINE
  5
18CE2
330
1A
100
AcDbEntity
  8
ZISSEN1
100
AcDbLine
 10
-950.5
 20
1064.57
 30
0.0
 11
-943.5
 21
1064.57
 31
0.0
  0
LINE
  5
18CE3
330
1A
100
AcDbEntity
  8
ZISSEN1
100
AcDbLine
 10
-943.5
 20
1076.57
 30
0.0
 11
-934.5
 21
1080.57
 31
0.0
  0
LINE
  5
18CE4
330
1A
100
AcDbEntity
  8
ZISSEN1
100
AcDbLine
 10
-932.0
 20
1080.57
 30
0.0
 11
-934.5
 21
1080.57
 31
0.0
  0
LINE
  5
18CE5
330
1A
100
AcDbEntity
  8
ZISSEN1
100
AcDbLine
 10
-934.5
 20
1080.57
 30
0.0
 11
-934.5
 21
1080.57
 31
0.0
  0
LINE
  5
18CE6
330
1A
100
AcDbEntity
  8
ZISSEN1
100
AcDbLine
 10
-955.5000011069523
 20
1073.57000101551
 30
0.0
 11
-955.5000011069523
 21
1081.97000101551
 31
0.0
  0
LINE
  5
18CE7
330
1A
100
AcDbEntity
  8
ZISSEN1
100
AcDbLine
 10
-943.5
 20
1076.57
 30
0.0
 11
-950.5
 21
1076.57
 31
0.0
  0
ARC
  5
18CE8
330
1A
100
AcDbEntity
  8
ZISSEN1
100
AcDbCircle
 10
-954.0000011069523
 20
1073.57000101551
 30
0.0
 40
1.5
100
AcDbArc
 50
180.0
 51
270.0
  0
LINE
  5
18CE9
330
1A
100
AcDbEntity
  8
ZISSEN1
100
AcDbLine
 10
-950.5000011069524
 20
1069.07000101551
 30
0.0
 11
-955.5000011069523
 21
1069.07000101551
 31
0.0
  0
LINE
  5
18CEA
330
1A
100
AcDbEntity
  8
ZISSEN1
100
AcDbLine
 10
-950.5000011069524
 20
1072.07000101551
 30
0.0
 11
-954.0000011069523
 21
1072.07000101551
 31
0.0
  0
LINE
  5
18CEB
330
1A
100
AcDbEntity
  8
ZISSEN1
100
AcDbLine
 10
-958.5000011069523
 20
1072.07000101551
 30
0.0
 11
-958.5000011069523
 21
1081.97000101551
 31
0.0
  0
DIMENSION
  5
18CFD
330
1A
100
AcDbEntity
  8
SUNPOU
100
AcDbDimension
  2
*D4
 10
-1037.5
 20
986.7403128577981
 30
0.0
 11
-1018.75
 21
989.4903128577981
 31
0.0
 70
    32
  3
標準スタイル
100
AcDbAlignedDimension
 13
-1000.0
 23
1000.0
 33
0.0
 14
-1037.5
 24
992.0
 34
0.0
100
AcDbRotatedDimension
1001
ACAD
1000
DSTYLE
1002
{
1070
    40
1040
1.0
1002
}
  0
DIMENSION
  5
18D0A
330
1A
100
AcDbEntity
  8
SUNPOU
100
AcDbDimension
  2
*D5
 10
-1075.0
 20
986.7403128577981
 30
0.0
 11
-1056.25
 21
989.4903128577981
 31
0.0
 70
    32
  3
標準スタイル
100
AcDbAlignedDimension
 13
-1037.5
 23
991.5
 33
0.0
 14
-1075.0
 24
1003.0
 34
0.0
100
AcDbRotatedDimension
1001
ACAD
1000
DSTYLE
1002
{
1070
   287
1070
     4
1070
    40
1040
1.0
1070
   279
1070
     1
1002
}
  0
DIMENSION
  5
18D3E
330
1A
100
AcDbEntity
  8
SUNPOU
100
AcDbDimension
  2
*D6
 10
-1035.750000113727
 20
1099.797699703744
 30
0.0
 11
-1037.500000113728
 21
1099.797699703744
 31
0.0
 70
   160
  3
標準スタイル
100
AcDbAlignedDimension
 13
-1039.250000113727
 23
1097.999999955321
 33
0.0
 14
-1035.750000113727
 24
1098.000000012185
 34
0.0
100
AcDbRotatedDimension
1001
ACAD
1000
DSTYLE
1002
{
1070
    40
1040
1.0
1002
}
  0
LINE
  5
18D79
330
1A
100
AcDbEntity
  8
ZISSEN1
100
AcDbLine
 10
-1005.000000113728
 20
1098.000000536146
 30
0.0
 11
-1004.000000097481
 21
1097.000000552393
 31
0.0
  0
LINE
  5
18D7A
330
1A
100
AcDbEntity
  8
ZISSEN1
100
AcDbLine
 10
-1070.000000113727
 20
1097.999999431359
 30
0.0
 11
-1071.000000097481
 21
1096.999999415112
 31
0.0
  0
LINE
  5
18D7B
330
1A
100
AcDbEntity
  8
ZISSEN1
100
AcDbLine
 10
-1071.0
 20
994.0
 30
0.0
 11
-1070.0
 21
993.0
 31
0.0
  0
LINE
  5
18D7C
330
1A
100
AcDbEntity
  8
ZISSEN1
100
AcDbLine
 10
-1004.0
 20
994.0
 30
0.0
 11
-1005.0
 21
993.0
 31
0.0
  0
DIMENSION
  5
18D7D
330
1A
100
AcDbEntity
  8
SUNPOU
100
AcDbDimension
  2
*D7
 10
-1000.0
 20
1106.089185632429
 30
0.0
 11
-1036.49387921048
 21
1106.089185632429
 31
0.0
 70
   160
  3
標準スタイル
100
AcDbAlignedDimension
 13
-1075.0
 23
1088.0
 33
0.0
 14
-1000.0
 24
1091.0
 34
0.0
100
AcDbRotatedDimension
1001
ACAD
1000
DSTYLE
1002
{
1070
    40
1040
1.0
1002
}
  0
DIMENSION
  5
18DB0
330
1A
100
AcDbEntity
  8
SUNPOU
100
AcDbDimension
  2
*D8
 10
-860.5
 20
988.0416290518201
 30
0.0
 11
-900.2499999999999
 21
990.7916290518201
 31
0.0
 70
    32
  3
標準スタイル
100
AcDbAlignedDimension
 13
-940.0
 23
1008.0
 33
0.0
 14
-860.5
 24
993.0
 34
0.0
100
AcDbRotatedDimension
1001
ACAD
1000
DSTYLE
1002
{
1070
    40
1040
1.0
1002
}
  0
DIMENSION
  5
18DBD
330
1A
100
AcDbEntity
  8
SUNPOU
100
AcDbDimension
  2
*D9
 10
-857.5000000000001
 20
1105.683068686163
 30
0.0
 11
-908.0000005534762
 21
1108.433068686163
 31
0.0
 70
    32
  1
(<>)
  3
標準スタイル
100
AcDbAlignedDimension
 13
-958.5000011069523
 23
1081.97000101551
 33
0.0
 14
-857.5000000000001
 24
1098.0
 34
0.0
100
AcDbRotatedDimension
1001
ACAD
1000
DSTYLE
1002
{
1070
    40
1040
1.0
1002
}
  0
LINE
  5
18DE4
330
1A
100
AcDbEntity
  8
ZISSEN1
100
AcDbLine
 10
-1010.25
 20
1081.0
 30
0.0
 11
-1011.0
 21
1081.0
 31
0.0
  0
LINE
  5
18DE5
330
1A
100
AcDbEntity
  8
ZISSEN1
100
AcDbLine
 10
-1011.0
 20
1081.0
 30
0.0
 11
-1011.0
 21
1080.25
 31
0.0
  0
LINE
  5
18DE6
330
1A
100
AcDbEntity
  8
ZISSEN1
100
AcDbLine
 10
-1011.0
 20
1080.25
 30
0.0
 11
-1010.25
 21
1080.25
 31
0.0
  0
LINE
  5
18DE7
330
1A
100
AcDbEntity
  8
ZISSEN1
100
AcDbLine
 10
-1010.25
 20
1080.25
 30
0.0
 11
-1010.25
 21
1081.0
 31
0.0
  0
SOLID
  5
18DE8
330
1A
100
AcDbEntity
  8
ZISSEN1
100
AcDbTrace
 10
-1011.0
 20
1081.0
 30
0.0
 11
-1010.25
 21
1081.0
 31
0.0
 12
-1011.0
 22
1080.25
 32
0.0
 13
-1010.25
 23
1080.25
 33
0.0
  0
LINE
  5
18DF6
330
1A
100
AcDbEntity
  8
ZISSEN1
100
AcDbLine
 10
-1010.250000214989
 20
1078.99999968781
 30
0.0
 11
-1011.000000214989
 21
1078.99999968781
 31
0.0
  0
SOLID
  5
18DF7
330
1A
100
AcDbEntity
  8
ZISSEN1
100
AcDbTrace
 10
-1011.000000214989
 20
1078.99999968781
 30
0.0
 11
-1010.250000214989
 21
1078.99999968781
 31
0.0
 12
-1011.000000214989
 22
1078.24999968781
 32
0.0
 13
-1010.250000214989
 23
1078.24999968781
 33
0.0
  0
LINE
  5
18DF8
330
1A
100
AcDbEntity
  8
ZISSEN1
100
AcDbLine
 10
-1011.000000214989
 20
1078.24999968781
 30
0.0
 11
-1010.250000214989
 21
1078.24999968781
 31
0.0
  0
LINE
  5
18DF9
330
1A
100
AcDbEntity
  8
ZISSEN1
100
AcDbLine
 10
-1011.000000214989
 20
1078.99999968781
 30
0.0
 11
-1011.000000214989
 21
1078.24999968781
 31
0.0
  0
LINE
  5
18DFA
330
1A
100
AcDbEntity
  8
ZISSEN1
100
AcDbLine
 10
-1010.250000214989
 20
1078.24999968781
 30
0.0
 11
-1010.250000214989
 21
1078.99999968781
 31
0.0
  0
LINE
  5
18E0A
330
1A
100
AcDbEntity
  8
ZISSEN1
100
AcDbLine
 10
-1011.000000429979
 20
1074.250000229134
 30
0.0
 11
-1010.250000429979
 21
1074.250000229134
 31
0.0
  0
SOLID
  5
18E0B
330
1A
100
AcDbEntity
  8
ZISSEN1
100
AcDbTrace
 10
-1011.000000429979
 20
1075.000000229134
 30
0.0
 11
-1010.250000429979
 21
1075.000000229134
 31
0.0
 12
-1011.000000429979
 22
1074.250000229134
 32
0.0
 13
-1010.250000429979
 23
1074.250000229134
 33
0.0
  0
LINE
  5
18E0C
330
1A
100
AcDbEntity
  8
ZISSEN1
100
AcDbLine
 10
-1010.250000429979
 20
1075.000000229134
 30
0.0
 11
-1011.000000429979
 21
1075.000000229134
 31
0.0
  0
SOLID
  5
18E0D
330
1A
100
AcDbEntity
  8
ZISSEN1
100
AcDbTrace
 10
-1011.000000214989
 20
1077.000000541324
 30
0.0
 11
-1010.250000214989
 21
1077.000000541324
 31
0.0
 12
-1011.000000214989
 22
1076.250000541324
 32
0.0
 13
-1010.250000214989
 23
1076.250000541324
 33
0.0
  0
LINE
  5
18E0E
330
1A
100
AcDbEntity
  8
ZISSEN1
100
AcDbLine
 10
-1011.000000214989
 20
1076.250000541324
 30
0.0
 11
-1010.250000214989
 21
1076.250000541324
 31
0.0
  0
LINE
  5
18E0F
330
1A
100
AcDbEntity
  8
ZISSEN1
100
AcDbLine
 10
-1010.250000214989
 20
1077.000000541324
 30
0.0
 11
-1011.000000214989
 21
1077.000000541324
 31
0.0
  0
LINE
  5
18E10
330
1A
100
AcDbEntity
  8
ZISSEN1
100
AcDbLine
 10
-1011.000000429979
 20
1075.000000229134
 30
0.0
 11
-1011.000000429979
 21
1074.250000229134
 31
0.0
  0
LINE
  5
18E11
330
1A
100
AcDbEntity
  8
ZISSEN1
100
AcDbLine
 10
-1011.000000214989
 20
1077.000000541324
 30
0.0
 11
-1011.000000214989
 21
1076.250000541324
 31
0.0
  0
LINE
  5
18E12
330
1A
100
AcDbEntity
  8
ZISSEN1
100
AcDbLine
 10
-1010.250000429979
 20
1074.250000229134
 30
0.0
 11
-1010.250000429979
 21
1075.000000229134
 31
0.0
  0
LINE
  5
18E13
330
1A
100
AcDbEntity
  8
ZISSEN1
100
AcDbLine
 10
-1010.250000214989
 20
1076.250000541324
 30
0.0
 11
-1010.250000214989
 21
1077.000000541324
 31
0.0
  0
LINE
  5
18E2D
330
1A
100
AcDbEntity
  8
ZISSEN1
100
AcDbLine
 10
-1010.249999436366
 20
1067.00000039744
 30
0.0
 11
-1010.999999436366
 21
1067.00000039744
 31
0.0
  0
LINE
  5
18E2E
330
1A
100
AcDbEntity
  8
ZISSEN1
100
AcDbLine
 10
-1010.999999436366
 20
1066.25000039744
 30
0.0
 11
-1010.249999436366
 21
1066.25000039744
 31
0.0
  0
SOLID
  5
18E2F
330
1A
100
AcDbEntity
  8
ZISSEN1
100
AcDbTrace
 10
-1010.999999436366
 20
1067.00000039744
 30
0.0
 11
-1010.249999436366
 21
1067.00000039744
 31
0.0
 12
-1010.999999436366
 22
1066.25000039744
 32
0.0
 13
-1010.249999436366
 23
1066.25000039744
 33
0.0
  0
LINE
  5
18E30
330
1A
100
AcDbEntity
  8
ZISSEN1
100
AcDbLine
 10
-1010.249999651356
 20
1065.00000008525
 30
0.0
 11
-1010.999999651356
 21
1065.00000008525
 31
0.0
  0
SOLID
  5
18E31
330
1A
100
AcDbEntity
  8
ZISSEN1
100
AcDbTrace
 10
-1010.999999651356
 20
1065.00000008525
 30
0.0
 11
-1010.249999651356
 21
1065.00000008525
 31
0.0
 12
-1010.999999651356
 22
1064.25000008525
 32
0.0
 13
-1010.249999651356
 23
1064.25000008525
 33
0.0
  0
LINE
  5
18E32
330
1A
100
AcDbEntity
  8
ZISSEN1
100
AcDbLine
 10
-1010.999999651356
 20
1064.25000008525
 30
0.0
 11
-1010.249999651356
 21
1064.25000008525
 31
0.0
  0
LINE
  5
18E33
330
1A
100
AcDbEntity
  8
ZISSEN1
100
AcDbLine
 10
-1010.999999436366
 20
1068.249999543926
 30
0.0
 11
-1010.249999436366
 21
1068.249999543926
 31
0.0
  0
SOLID
  5
18E34
330
1A
100
AcDbEntity
  8
ZISSEN1
100
AcDbTrace
 10
-1010.999999436366
 20
1068.999999543926
 30
0.0
 11
-1010.249999436366
 21
1068.999999543926
 31
0.0
 12
-1010.999999436366
 22
1068.249999543926
 32
0.0
 13
-1010.249999436366
 23
1068.249999543926
 33
0.0
  0
LINE
  5
18E35
330
1A
100
AcDbEntity
  8
ZISSEN1
100
AcDbLine
 10
-1010.249999436366
 20
1068.999999543926
 30
0.0
 11
-1010.999999436366
 21
1068.999999543926
 31
0.0
  0
SOLID
  5
18E36
330
1A
100
AcDbEntity
  8
ZISSEN1
100
AcDbTrace
 10
-1010.999999221377
 20
1070.999999856115
 30
0.0
 11
-1010.249999221377
 21
1070.999999856115
 31
0.0
 12
-1010.999999221377
 22
1070.249999856115
 32
0.0
 13
-1010.249999221377
 23
1070.249999856115
 33
0.0
  0
LINE
  5
18E37
330
1A
100
AcDbEntity
  8
ZISSEN1
100
AcDbLine
 10
-1010.999999221377
 20
1070.249999856115
 30
0.0
 11
-1010.249999221377
 21
1070.249999856115
 31
0.0
  0
LINE
  5
18E38
330
1A
100
AcDbEntity
  8
ZISSEN1
100
AcDbLine
 10
-1010.249999221377
 20
1070.999999856115
 30
0.0
 11
-1010.999999221377
 21
1070.999999856115
 31
0.0
  0
LINE
  5
18E39
330
1A
100
AcDbEntity
  8
ZISSEN1
100
AcDbLine
 10
-1010.999999436366
 20
1067.00000039744
 30
0.0
 11
-1010.999999436366
 21
1066.25000039744
 31
0.0
  0
LINE
  5
18E3A
330
1A
100
AcDbEntity
  8
ZISSEN1
100
AcDbLine
 10
-1010.999999651356
 20
1065.00000008525
 30
0.0
 11
-1010.999999651356
 21
1064.25000008525
 31
0.0
  0
LINE
  5
18E3B
330
1A
100
AcDbEntity
  8
ZISSEN1
100
AcDbLine
 10
-1010.999999436366
 20
1068.999999543926
 30
0.0
 11
-1010.999999436366
 21
1068.249999543926
 31
0.0
  0
LINE
  5
18E3C
330
1A
100
AcDbEntity
  8
ZISSEN1
100
AcDbLine
 10
-1010.999999221377
 20
1070.999999856115
 30
0.0
 11
-1010.999999221377
 21
1070.249999856115
 31
0.0
  0
LINE
  5
18E3D
330
1A
100
AcDbEntity
  8
ZISSEN1
100
AcDbLine
 10
-1010.249999436366
 20
1066.25000039744
 30
0.0
 11
-1010.249999436366
 21
1067.00000039744
 31
0.0
  0
LINE
  5
18E3E
330
1A
100
AcDbEntity
  8
ZISSEN1
100
AcDbLine
 10
-1010.249999651356
 20
1064.25000008525
 30
0.0
 11
-1010.249999651356
 21
1065.00000008525
 31
0.0
  0
LINE
  5
18E3F
330
1A
100
AcDbEntity
  8
ZISSEN1
100
AcDbLine
 10
-1010.249999436366
 20
1068.249999543926
 30
0.0
 11
-1010.249999436366
 21
1068.999999543926
 31
0.0
  0
LINE
  5
18E40
330
1A
100
AcDbEntity
  8
ZISSEN1
100
AcDbLine
 10
-1010.249999221377
 20
1070.249999856115
 30
0.0
 11
-1010.249999221377
 21
1070.999999856115
 31
0.0
  0
LINE
  5
18E4B
330
1A
100
AcDbEntity
  8
ZISSEN1
100
AcDbLine
 10
-1010.999999866345
 20
1062.250000221874
 30
0.0
 11
-1010.249999866345
 21
1062.250000221874
 31
0.0
  0
SOLID
  5
18E4C
330
1A
100
AcDbEntity
  8
ZISSEN1
100
AcDbTrace
 10
-1010.999999866345
 20
1063.000000221874
 30
0.0
 11
-1010.249999866345
 21
1063.000000221874
 31
0.0
 12
-1010.999999866345
 22
1062.250000221874
 32
0.0
 13
-1010.249999866345
 23
1062.250000221874
 33
0.0
  0
LINE
  5
18E4D
330
1A
100
AcDbEntity
  8
ZISSEN1
100
AcDbLine
 10
-1010.249999866345
 20
1063.000000221874
 30
0.0
 11
-1010.999999866345
 21
1063.000000221874
 31
0.0
  0
LINE
  5
18E4E
330
1A
100
AcDbEntity
  8
ZISSEN1
100
AcDbLine
 10
-1010.999999866345
 20
1063.000000221874
 30
0.0
 11
-1010.999999866345
 21
1062.250000221874
 31
0.0
  0
LINE
  5
18E4F
330
1A
100
AcDbEntity
  8
ZISSEN1
100
AcDbLine
 10
-1010.249999866345
 20
1062.250000221874
 30
0.0
 11
-1010.249999866345
 21
1063.000000221874
 31
0.0
  0
LINE
  5
18E5F
330
1A
100
AcDbEntity
  8
ZISSEN1
100
AcDbLine
 10
-1048.25
 20
1014.659999999999
 30
0.0
 11
-1047.5
 21
1014.659999999999
 31
0.0
  0
SOLID
  5
18E60
330
1A
100
AcDbEntity
  8
ZISSEN1
100
AcDbTrace
 10
-1048.25
 20
1015.409999999999
 30
0.0
 11
-1047.5
 21
1015.409999999999
 31
0.0
 12
-1048.25
 22
1014.659999999999
 32
0.0
 13
-1047.5
 23
1014.659999999999
 33
0.0
  0
LINE
  5
18E61
330
1A
100
AcDbEntity
  8
ZISSEN1
100
AcDbLine
 10
-1047.5
 20
1015.409999999999
 30
0.0
 11
-1048.25
 21
1015.409999999999
 31
0.0
  0
SOLID
  5
18E62
330
1A
100
AcDbEntity
  8
ZISSEN1
100
AcDbTrace
 10
-1048.25
 20
1018.75
 30
0.0
 11
-1047.5
 21
1018.75
 31
0.0
 12
-1048.25
 22
1018.0
 32
0.0
 13
-1047.5
 23
1018.0
 33
0.0
  0
LINE
  5
18E63
330
1A
100
AcDbEntity
  8
ZISSEN1
100
AcDbLine
 10
-1048.25
 20
1018.0
 30
0.0
 11
-1047.5
 21
1018.0
 31
0.0
  0
LINE
  5
18E64
330
1A
100
AcDbEntity
  8
ZISSEN1
100
AcDbLine
 10
-1047.5
 20
1018.75
 30
0.0
 11
-1048.25
 21
1018.75
 31
0.0
  0
LINE
  5
18E65
330
1A
100
AcDbEntity
  8
ZISSEN1
100
AcDbLine
 10
-1048.25
 20
1015.409999999999
 30
0.0
 11
-1048.25
 21
1014.659999999999
 31
0.0
  0
LINE
  5
18E66
330
1A
100
AcDbEntity
  8
ZISSEN1
100
AcDbLine
 10
-1048.25
 20
1018.75
 30
0.0
 11
-1048.25
 21
1018.0
 31
0.0
  0
LINE
  5
18E67
330
1A
100
AcDbEntity
  8
ZISSEN1
100
AcDbLine
 10
-1047.5
 20
1014.659999999999
 30
0.0
 11
-1047.5
 21
1015.409999999999
 31
0.0
  0
LINE
  5
18E68
330
1A
100
AcDbEntity
  8
ZISSEN1
100
AcDbLine
 10
-1047.5
 20
1018.0
 30
0.0
 11
-1047.5
 21
1018.75
 31
0.0
  0
LINE
  5
18E78
330
1A
100
AcDbEntity
  8
ZISSEN1
100
AcDbLine
 10
-1067.5
 20
1018.0
 30
0.0
 11
-1067.5
 21
1018.75
 31
0.0
  0
LINE
  5
18E79
330
1A
100
AcDbEntity
  8
ZISSEN1
100
AcDbLine
 10
-1068.25
 20
1018.75
 30
0.0
 11
-1068.25
 21
1018.0
 31
0.0
  0
LINE
  5
18E7A
330
1A
100
AcDbEntity
  8
ZISSEN1
100
AcDbLine
 10
-1067.5
 20
1018.75
 30
0.0
 11
-1068.25
 21
1018.75
 31
0.0
  0
LINE
  5
18E7B
330
1A
100
AcDbEntity
  8
ZISSEN1
100
AcDbLine
 10
-1068.25
 20
1018.0
 30
0.0
 11
-1067.5
 21
1018.0
 31
0.0
  0
SOLID
  5
18E7C
330
1A
100
AcDbEntity
  8
ZISSEN1
100
AcDbTrace
 10
-1068.25
 20
1018.75
 30
0.0
 11
-1067.5
 21
1018.75
 31
0.0
 12
-1068.25
 22
1018.0
 32
0.0
 13
-1067.5
 23
1018.0
 33
0.0
  0
LINE
  5
18E7D
330
1A
100
AcDbEntity
  8
ZISSEN1
100
AcDbLine
 10
-1067.5
 20
1014.659999999999
 30
0.0
 11
-1067.5
 21
1015.409999999999
 31
0.0
  0
LINE
  5
18E7E
330
1A
100
AcDbEntity
  8
ZISSEN1
100
AcDbLine
 10
-1068.25
 20
1015.409999999999
 30
0.0
 11
-1068.25
 21
1014.659999999999
 31
0.0
  0
LINE
  5
18E7F
330
1A
100
AcDbEntity
  8
ZISSEN1
100
AcDbLine
 10
-1067.5
 20
1015.409999999999
 30
0.0
 11
-1068.25
 21
1015.409999999999
 31
0.0
  0
SOLID
  5
18E80
330
1A
100
AcDbEntity
  8
ZISSEN1
100
AcDbTrace
 10
-1068.25
 20
1015.409999999999
 30
0.0
 11
-1067.5
 21
1015.409999999999
 31
0.0
 12
-1068.25
 22
1014.659999999999
 32
0.0
 13
-1067.5
 23
1014.659999999999
 33
0.0
  0
LINE
  5
18E81
330
1A
100
AcDbEntity
  8
ZISSEN1
100
AcDbLine
 10
-1068.25
 20
1014.659999999999
 30
0.0
 11
-1067.5
 21
1014.659999999999
 31
0.0
  0
LINE
  5
18E87
330
1A
100
AcDbEntity
  8
ZISSEN1
100
AcDbLine
 10
-1075.0
 20
947.4999999999999
 30
0.0
 11
-1000.0
 21
947.4999999999999
 31
0.0
  0
LINE
  5
18E88
330
1A
100
AcDbEntity
  8
ZISSEN1
100
AcDbLine
 10
-1000.0
 20
947.4999999999999
 30
0.0
 11
-1000.0
 21
947.0
 31
0.0
  0
LINE
  5
18E89
330
1A
100
AcDbEntity
  8
ZISSEN1
100
AcDbLine
 10
-1000.0
 20
947.0
 30
0.0
 11
-1074.5
 21
947.0
 31
0.0
  0
LINE
  5
18E8C
330
1A
100
AcDbEntity
  8
ZISSEN1
100
AcDbLine
 10
-1074.5
 20
947.0
 30
0.0
 11
-1074.5
 21
935.0
 31
0.0
  0
LINE
  5
18E8D
330
1A
100
AcDbEntity
  8
ZISSEN1
100
AcDbLine
 10
-1074.5
 20
935.0
 30
0.0
 11
-1075.0
 21
935.0
 31
0.0
  0
LINE
  5
18E8E
330
1A
100
AcDbEntity
  8
ZISSEN1
100
AcDbLine
 10
-1075.0
 20
935.0
 30
0.0
 11
-1075.0
 21
947.4999999999999
 31
0.0
  0
LINE
  5
18E98
330
1A
100
AcDbEntity
  8
ZISSEN1
100
AcDbLine
 10
-1075.0
 20
941.0
 30
0.0
 11
-1075.0
 21
935.0
 31
0.0
  0
LINE
  5
18E99
330
1A
100
AcDbEntity
  8
ZISSEN1
100
AcDbLine
 10
-1075.0
 20
935.0
 30
0.0
 11
-1075.5
 21
935.0
 31
0.0
  0
LINE
  5
18E9A
330
1A
100
AcDbEntity
  8
ZISSEN1
100
AcDbLine
 10
-1077.0
 20
936.5
 30
0.0
 11
-1077.0
 21
939.0
 31
0.0
  0
LINE
  5
18E9B
330
1A
100
AcDbEntity
  8
ZISSEN1
100
AcDbLine
 10
-1075.5
 20
944.5
 30
0.0
 11
-1075.0
 21
944.5
 31
0.0
  0
LINE
  5
18E9C
330
1A
100
AcDbEntity
  8
ZISSEN1
100
AcDbLine
 10
-1075.0
 20
945.0
 30
0.0
 11
-1075.0
 21
939.0
 31
0.0
  0
LINE
  5
18E9D
330
1A
100
AcDbEntity
  8
ZISSEN1
100
AcDbLine
 10
-1075.0
 20
939.0
 30
0.0
 11
-1075.5
 21
939.0
 31
0.0
  0
LINE
  5
18E9E
330
1A
100
AcDbEntity
  8
ZISSEN1
100
AcDbLine
 10
-1077.0
 20
940.4999999999999
 30
0.0
 11
-1077.0
 21
943.0
 31
0.0
  0
ARC
  5
18EA0
330
1A
100
AcDbEntity
  8
ZISSEN1
100
AcDbCircle
 10
-1075.5
 20
936.5
 30
0.0
 40
1.5
100
AcDbArc
 50
180.0
 51
270.0
  0
ARC
  5
18EA1
330
1A
100
AcDbEntity
  8
ZISSEN1
100
AcDbCircle
 10
-1075.5
 20
940.4999999999999
 30
0.0
 40
1.5
100
AcDbArc
 50
180.0
 51
270.0
  0
ARC
  5
18EA2
330
1A
100
AcDbEntity
  8
ZISSEN1
100
AcDbCircle
 10
-1075.5
 20
943.0
 30
0.0
 40
1.5
100
AcDbArc
 50
90.0
 51
180.0
  0
DIMENSION
  5
18EA4
330
1A
100
AcDbEntity
  8
SUNPOU
100
AcDbDimension
  2
*D10
 10
-973.3371634326392
 20
873.0
 30
0.0
 11
-976.0871634326395
 21
914.2499999999998
 31
0.0
 70
    32
  3
標準スタイル
100
AcDbAlignedDimension
 13
-1012.0
 23
955.4999999999999
 33
0.0
 14
-1002.0
 24
873.0
 34
0.0
 50
90.0
100
AcDbRotatedDimension
1001
ACAD
1000
DSTYLE
1002
{
1070
    40
1040
1.0
1002
}
  0
LINE
  5
18EB2
330
1A
100
AcDbEntity
  8
ZISSEN1
100
AcDbLine
 10
-1000.0
 20
876.0
 30
0.0
 11
-1071.5
 21
876.0
 31
0.0
  0
LINE
  5
18EB3
330
1A
100
AcDbEntity
  8
ZISSEN1
100
AcDbLine
 10
-1070.0
 20
876.0
 30
0.0
 11
-1070.0
 21
873.0
 31
0.0
  0
LINE
  5
18EB4
330
1A
100
AcDbEntity
  8
ZISSEN1
100
AcDbLine
 10
-1072.0
 20
873.0
 30
0.0
 11
-1002.0
 21
873.0
 31
0.0
  0
LINE
  5
18EB5
330
1A
100
AcDbEntity
  8
ZISSEN1
100
AcDbLine
 10
-1000.0
 20
875.0
 30
0.0
 11
-1000.0
 21
876.0
 31
0.0
  0
LINE
  5
18EB6
330
1A
100
AcDbEntity
  8
ZISSEN1
100
AcDbLine
 10
-1074.5
 20
947.0
 30
0.0
 11
-1071.5
 21
947.0
 31
0.0
  0
LINE
  5
18EB7
330
1A
100
AcDbEntity
  8
ZISSEN1
100
AcDbLine
 10
-1071.5
 20
947.0
 30
0.0
 11
-1071.5
 21
873.0
 31
0.0
  0
LINE
  5
18EB8
330
1A
100
AcDbEntity
  8
ZISSEN1
100
AcDbLine
 10
-1071.5
 20
873.0
 30
0.0
 11
-1072.5
 21
873.0
 31
0.0
  0
LINE
  5
18EB9
330
1A
100
AcDbEntity
  8
ZISSEN1
100
AcDbLine
 10
-1074.5
 20
875.0
 30
0.0
 11
-1074.5
 21
947.0
 31
0.0
  0
LINE
  5
18EBA
330
1A
100
AcDbEntity
  8
ZISSEN1
100
AcDbLine
 10
-1000.0
 20
878.0
 30
0.0
 11
-999.5
 21
878.0
 31
0.0
  0
LINE
  5
18EBB
330
1A
100
AcDbEntity
  8
ZISSEN1
100
AcDbLine
 10
-998.0
 20
879.0
 30
0.0
 11
-998.0
 21
881.4999999999999
 31
0.0
  0
LINE
  5
18EBC
330
1A
100
AcDbEntity
  8
ZISSEN1
100
AcDbLine
 10
-999.5
 20
883.5
 30
0.0
 11
-1000.0
 21
883.5
 31
0.0
  0
LINE
  5
18EBD
330
1A
100
AcDbEntity
  8
ZISSEN1
100
AcDbLine
 10
-1000.0
 20
884.0
 30
0.0
 11
-1000.0
 21
878.0
 31
0.0
  0
ARC
  5
18EBE
330
1A
100
AcDbEntity
  8
ZISSEN1
100
AcDbCircle
 10
-999.5
 20
882.0
 30
0.0
 40
1.5
100
AcDbArc
 50
0.0
 51
90.0
  0
ARC
  5
18EBF
330
1A
100
AcDbEntity
  8
ZISSEN1
100
AcDbCircle
 10
-999.5
 20
879.4999999999999
 30
0.0
 40
1.5
100
AcDbArc
 50
270.0
 51
0.0
  0
ARC
  5
18EC1
330
1A
100
AcDbEntity
  8
ZISSEN1
100
AcDbCircle
 10
-1002.0
 20
875.0
 30
0.0
 40
2.0
100
AcDbArc
 50
270.0
 51
0.0
  0
ARC
  5
18EC2
330
1A
100
AcDbEntity
  8
ZISSEN1
100
AcDbCircle
 10
-1072.5
 20
875.0
 30
0.0
 40
2.0
100
AcDbArc
 50
180.0
 51
270.0
  0
LINE
  5
18EC3
330
1A
100
AcDbEntity
  8
ZISSEN1
100
AcDbLine
 10
-1071.0
 20
876.0
 30
0.0
 11
-1071.0
 21
873.0
 31
0.0
  0
LINE
  5
18ECA
330
1A
100
AcDbEntity
  8
ZISSEN1
100
AcDbLine
 10
-1005.0
 20
875.9999999039427
 30
0.0
 11
-1005.0
 21
872.9999999039428
 31
0.0
  0
LINE
  5
18ED1
330
1A
100
AcDbEntity
  8
ZISSEN1
100
AcDbLine
 10
-1004.0
 20
875.9999998078855
 30
0.0
 11
-1004.0
 21
872.9999998078856
 31
0.0
  0
LINE
  5
18ED7
330
1A
100
AcDbEntity
  8
ZISSEN1
100
AcDbLine
 10
-1039.25000004763
 20
875.9999998078855
 30
0.0
 11
-1039.25000004763
 21
872.9999998078856
 31
0.0
  0
LINE
  5
18EDD
330
1A
100
AcDbEntity
  8
ZISSEN1
100
AcDbLine
 10
-1035.75000004763
 20
875.9999998078855
 30
0.0
 11
-1035.75000004763
 21
872.9999998078856
 31
0.0
  0
LINE
  5
18EE4
330
1A
100
AcDbEntity
  8
CL1
100
AcDbLine
 10
-1037.499999504224
 20
870.5
 30
0.0
 11
-1037.499999504224
 21
878.5
 31
0.0
  0
DIMENSION
  5
18EE7
330
1A
100
AcDbEntity
  8
SUNPOU
100
AcDbDimension
  2
*D11
 10
-1000.0
 20
865.4575018218062
 30
0.0
 11
-1037.5
 21
865.4575018218062
 31
0.0
 70
   160
  3
標準スタイル
100
AcDbAlignedDimension
 13
-1075.0
 23
943.0
 33
0.0
 14
-1000.0
 24
875.0
 34
0.0
100
AcDbRotatedDimension
1001
ACAD
1000
DSTYLE
1002
{
1070
    40
1040
1.0
1002
}
  0
DIMENSION
  5
18EF4
330
1A
100
AcDbEntity
  8
SUNPOU
100
AcDbDimension
  2
*D12
 10
-998.0
 20
865.4575018218062
 30
0.0
 11
-992.0
 21
865.4575018218062
 31
0.0
 70
   160
  1
(<>)
  3
標準スタイル
100
AcDbAlignedDimension
 13
-1000.0
 23
875.0
 33
0.0
 14
-998.0
 24
879.0
 34
0.0
100
AcDbRotatedDimension
1001
ACAD
1000
DSTYLE
1002
{
1070
   287
1070
     4
1070
    40
1040
1.0
1070
   279
1070
     1
1002
}
  0
LINE
  5
18F06
330
1A
100
AcDbEntity
  8
ZISSEN1
100
AcDbLine
 10
-1066.5
 20
955.4999999999999
 30
0.0
 11
-1056.800000503878
 21
955.5000002579408
 31
0.0
  0
LINE
  5
18F07
330
1A
100
AcDbEntity
  8
ZISSEN1
100
AcDbLine
 10
-1058.75
 20
955.4999999999999
 30
0.0
 11
-1058.75
 21
947.4999999999999
 31
0.0
  0
LINE
  5
18F08
330
1A
100
AcDbEntity
  8
ZISSEN1
100
AcDbLine
 10
-1058.599999999999
 20
947.4999999999999
 30
0.0
 11
-1066.5
 21
947.4999999999999
 31
0.0
  0
LINE
  5
18F09
330
1A
100
AcDbEntity
  8
ZISSEN1
100
AcDbLine
 10
-1066.5
 20
947.4999999999999
 30
0.0
 11
-1066.500000159551
 21
961.5
 31
0.0
  0
LINE
  5
18F0A
330
1A
100
AcDbEntity
  8
ZISSEN1
100
AcDbLine
 10
-1046.499999999999
 20
955.4999999999999
 30
0.0
 11
-1036.800000490478
 21
955.5000002579408
 31
0.0
  0
LINE
  5
18F0B
330
1A
100
AcDbEntity
  8
ZISSEN1
100
AcDbLine
 10
-1038.75
 20
955.4999999999999
 30
0.0
 11
-1038.75
 21
947.4999999999999
 31
0.0
  0
LINE
  5
18F0C
330
1A
100
AcDbEntity
  8
ZISSEN1
100
AcDbLine
 10
-1038.599999999999
 20
947.4999999999999
 30
0.0
 11
-1046.499999999999
 21
947.4999999999999
 31
0.0
  0
LINE
  5
18F0D
330
1A
100
AcDbEntity
  8
ZISSEN1
100
AcDbLine
 10
-1046.499999999999
 20
947.4999999999999
 30
0.0
 11
-1046.500000159551
 21
961.5
 31
0.0
  0
LINE
  5
18F0E
330
1A
100
AcDbEntity
  8
ZISSEN1
100
AcDbLine
 10
-1021.7
 20
961.5
 30
0.0
 11
-1012.0
 21
961.5
 31
0.0
  0
LINE
  5
18F0F
330
1A
100
AcDbEntity
  8
ZISSEN1
100
AcDbLine
 10
-1012.0
 20
961.5
 30
0.0
 11
-1012.0
 21
947.4999999999999
 31
0.0
  0
LINE
  5
18F10
330
1A
100
AcDbEntity
  8
ZISSEN1
100
AcDbLine
 10
-1012.0
 20
947.4999999999999
 30
0.0
 11
-1021.7
 21
947.4999999999999
 31
0.0
  0
LINE
  5
18F11
330
1A
100
AcDbEntity
  8
ZISSEN1
100
AcDbLine
 10
-1021.7
 20
947.4999999999999
 30
0.0
 11
-1021.7
 21
961.5
 31
0.0
  0
DIMENSION
  5
18F12
330
1A
100
AcDbEntity
  8
SUNPOU
100
AcDbDimension
  2
*D13
 10
-1077.0
 20
865.4575018218062
 30
0.0
 11
-1081.856224907727
 21
866.6203159735472
 31
0.0
 70
   160
  1
(<>)
  3
標準スタイル
100
AcDbAlignedDimension
 13
-1075.0
 23
943.0
 33
0.0
 14
-1077.0
 24
944.5
 34
0.0
100
AcDbRotatedDimension
1001
ACAD
1000
DSTYLE
1002
{
1070
   287
1070
     4
1070
    40
1040
1.0
1070
   279
1070
     1
1002
}
  0
LINE
  5
18F44
330
1A
100
AcDbEntity
  8
ZISSEN1
100
AcDbLine
 10
-1071.5
 20
876.0
 30
0.0
 11
-1000.0
 21
876.0
 31
0.0
  0
LINE
  5
18F45
330
1A
100
AcDbEntity
  8
ZISSEN1
100
AcDbLine
 10
-1000.0
 20
876.0
 30
0.0
 11
-1000.0
 21
947.4999999999999
 31
0.0
  0
LINE
  5
18F46
330
1A
100
AcDbEntity
  8
ZISSEN1
100
AcDbLine
 10
-1000.0
 20
947.0
 30
0.0
 11
-1072.0
 21
947.0
 31
0.0
  0
LINE
  5
18FD4
330
1A
100
AcDbEntity
  8
ZISSEN1
100
AcDbLine
 10
-1029.040000484247
 20
1016.999995846761
 30
0.0
 11
-1029.040000484247
 21
1023.909995846761
 31
0.0
  0
LINE
  5
18FD5
330
1A
100
AcDbEntity
  8
ZISSEN1
100
AcDbLine
 10
-1031.140000484247
 20
1013.010005846761
 30
0.0
 11
-1031.140000484247
 21
1016.409995846761
 31
0.0
  0
LINE
  5
18FD6
330
1A
100
AcDbEntity
  8
ZISSEN1
100
AcDbLine
 10
-1029.040000484247
 20
1009.499999846761
 30
0.0
 11
-1029.040000484247
 21
1016.409995846761
 31
0.0
  0
LINE
  5
18FD7
330
1A
100
AcDbEntity
  8
ZISSEN1
100
AcDbLine
 10
-1031.340000484247
 20
1009.499999846761
 30
0.0
 11
-1031.340000484247
 21
1016.409995846761
 31
0.0
  0
LINE
  5
18FD8
330
1A
100
AcDbEntity
  8
ZISSEN1
100
AcDbLine
 10
-1031.140000484247
 20
1009.499999846761
 30
0.0
 11
-1031.140000484247
 21
1016.409995846761
 31
0.0
  0
LINE
  5
18FD9
330
1A
100
AcDbEntity
  8
ZISSEN1
100
AcDbLine
 10
-1029.040000484247
 20
1009.499999846761
 30
0.0
 11
-1031.340000484247
 21
1009.499999846761
 31
0.0
  0
LINE
  5
18FDA
330
1A
100
AcDbEntity
  8
ZISSEN1
100
AcDbLine
 10
-1029.040000484247
 20
1023.909995846761
 30
0.0
 11
-1031.340000484247
 21
1023.909995846761
 31
0.0
  0
LINE
  5
18FDB
330
1A
100
AcDbEntity
  8
ZISSEN1
100
AcDbLine
 10
-1029.040000484247
 20
1016.999995846761
 30
0.0
 11
-1031.340000484247
 21
1016.999995846761
 31
0.0
  0
LINE
  5
18FDC
330
1A
100
AcDbEntity
  8
ZISSEN1
100
AcDbLine
 10
-1029.040000484247
 20
1016.409995846761
 30
0.0
 11
-1031.340000484247
 21
1016.409995846761
 31
0.0
  0
LINE
  5
18FDD
330
1A
100
AcDbEntity
  8
ZISSEN1
100
AcDbLine
 10
-1031.340000484247
 20
1016.999995846761
 30
0.0
 11
-1031.340000484247
 21
1023.909995846761
 31
0.0
  0
LINE
  5
18FDE
330
1A
100
AcDbEntity
  8
ZISSEN1
100
AcDbLine
 10
-1031.140000484247
 20
1016.999995846761
 30
0.0
 11
-1031.140000484247
 21
1023.909995846761
 31
0.0
  0
LINE
  5
18FDF
330
1A
100
AcDbEntity
  8
ZISSEN1
100
AcDbLine
 10
-1031.140000484247
 20
1016.999995846761
 30
0.0
 11
-1031.140000484247
 21
1019.809995846761
 31
0.0
  0
DIMENSION
  5
1902C
330
1A
100
AcDbEntity
  8
SUNPOU
100
AcDbDimension
  2
*D14
 10
-857.5000000000001
 20
988.0416290518201
 30
0.0
 11
-854.4999999999999
 21
988.54162905182
 31
0.0
 70
   160
  3
標準スタイル
100
AcDbAlignedDimension
 13
-860.5
 23
993.0
 33
0.0
 14
-857.5000000000001
 24
993.0
 34
0.0
100
AcDbRotatedDimension
1001
ACAD
1000
DSTYLE
1002
{
1070
   287
1070
     4
1070
    40
1040
1.0
1070
   279
1070
     1
1002
}
  0
LINE
  5
1904F
330
1A
100
AcDbEntity
  8
ZISSEN1
100
AcDbLine
 10
-1036.800000650029
 20
961.5000002579407
 30
0.0
 11
-1036.800000490478
 21
947.5000002579408
 31
0.0
  0
LINE
  5
19056
330
1A
100
AcDbEntity
  8
ZISSEN1
100
AcDbLine
 10
-1056.800000663429
 20
961.5000002579407
 30
0.0
 11
-1056.800000503878
 21
947.5000002579408
 31
0.0
  0
ARC
  5
1905E
330
1A
100
AcDbEntity
  8
ZISSEN1
100
AcDbCircle
 10
-1075.499999571117
 20
938.9999997709795
 30
0.0
 40
1.5
100
AcDbArc
 50
150.0000113314774
 51
180.0
  0
DIMENSION
  5
193E3
330
1A
100
AcDbEntity
  8
SUNPOU
100
AcDbDimension
  2
*D15
 10
-988.7297965167551
 20
996.0
 30
0.0
 11
-991.4797965167553
 21
1045.50000002437
 31
0.0
 70
    32
  1
<>(USER取付寸法)
  3
標準スタイル
100
AcDbAlignedDimension
 13
-1033.500000064987
 23
1095.00000004874
 33
0.0
 14
-1033.5
 24
996.0
 34
0.0
 50
90.0
100
AcDbRotatedDimension
1001
ACAD
1000
DSTYLE
1002
{
1070
    40
1040
1.0
1002
}
  0
MTEXT
  5
19448
330
1A
100
AcDbEntity
  8
SUNPOU
100
AcDbMText
 10
-1051.639341050067
 20
982.9358861072094
 30
0.0
 40
2.5
 41
26.33337298030321
 71
     1
 72
     5
  1
(USER取付寸法)
1001
ACAD
1000
MTEXTBEGIN
1070
    73
1070
     1
1070
    44
1040
1.0
1070
    74
1070
     0
1000
MTEXTEND
  0
CIRCLE
  5
19458
330
1A
100
AcDbEntity
  8
KAKURESEN1
100
AcDbCircle
 10
-1032.0
 20
1037.0
 30
0.0
 40
0.85
  0
CIRCLE
  5
19459
330
1A
100
AcDbEntity
  8
KAKURESEN1
100
AcDbCircle
 10
-1032.0
 20
1037.0
 30
0.0
 40
1.3
  0
CIRCLE
  5
19461
330
1A
100
AcDbEntity
  8
KAKURESEN1
100
AcDbCircle
 10
-1032.0
 20
1031.0
 30
0.0
 40
1.3
  0
CIRCLE
  5
19462
330
1A
100
AcDbEntity
  8
KAKURESEN1
100
AcDbCircle
 10
-1032.0
 20
1031.0
 30
0.0
 40
0.85
  0
LINE
  5
19463
330
1A
100
AcDbEntity
  8
CL1
100
AcDbLine
 10
-1032.0
 20
1040.0
 30
0.0
 11
-1032.0
 21
1028.0
 31
0.0
  0
LINE
  5
19464
330
1A
100
AcDbEntity
  8
CL1
100
AcDbLine
 10
-1035.0
 20
1037.0
 30
0.0
 11
-1029.0
 21
1037.0
 31
0.0
  0
LINE
  5
19465
330
1A
100
AcDbEntity
  8
CL1
100
AcDbLine
 10
-1035.0
 20
1031.0
 30
0.0
 11
-1029.0
 21
1031.0
 31
0.0
  0
DIMENSION
  5
19499
330
1A
100
AcDbEntity
  8
SUNPOU
100
AcDbDimension
  2
*D16
 10
-980.0074753903073
 20
748.0
 30
0.0
 11
-982.7574753903073
 21
797.4999999999998
 31
0.0
 70
    32
  1
<>(USER取付寸法)
  3
標準スタイル
100
AcDbAlignedDimension
 13
-1035.0
 23
847.0
 33
0.0
 14
-1035.0
 24
748.0
 34
0.0
 50
90.0
100
AcDbRotatedDimension
1001
ACAD
1000
DSTYLE
1002
{
1070
    40
1040
1.0
1002
}
  0
LINE
  5
1949A
330
1A
100
AcDbEntity
  8
CL1
100
AcDbLine
 10
-1076.0
 20
797.5
 30
0.0
 11
-999.0
 21
797.5
 31
0.0
  0
LEADER
  5
1949C
330
1A
100
AcDbEntity
  8
SUNPOU
100
AcDbLeader
  3
標準スタイル
 76
     3
 10
-1036.937267111711
 20
746.6095570143159
 30
0.0
 10
-1030.483546481825
 20
735.8288869728336
 30
0.0
 10
-1018.950687579124
 20
735.8288869728336
 30
0.0
1001
ACAD
1000
DSTYLE
1002
{
1070
     5
1000

1070
    77
1070
     0
1070
   147
1040
1.0
1002
}
  0
LINE
  5
1949D
330
1A
100
AcDbEntity
  8
CL1
100
AcDbLine
 10
-1035.0
 20
748.0
 30
0.0
 11
-1040.0
 21
748.0
 31
0.0
  0
CIRCLE
  5
1949F
330
1A
100
AcDbEntity
  8
ZISSEN1
100
AcDbCircle
 10
-1037.5
 20
748.0
 30
0.0
 40
1.0
  0
CIRCLE
  5
194A0
330
1A
100
AcDbEntity
  8
SAISEN
100
AcDbCircle
 10
-1037.5
 20
748.0
 30
0.0
 40
1.5
  0
MTEXT
  5
194A1
330
1A
100
AcDbEntity
  8
SUNPOU
100
AcDbMText
 10
-1028.634074015261
 20
739.1321252038582
 30
0.0
 40
2.5
 41
13.77839999999999
 71
     1
 72
     5
  1
2-M3
1001
ACAD
1000
MTEXTBEGIN
1070
    73
1070
     1
1070
    44
1040
1.0
1070
    74
1070
     0
1000
MTEXTEND
  0
LINE
  5
194A2
330
1A
100
AcDbEntity
  8
CL1
100
AcDbLine
 10
-1037.5
 20
851.0
 30
0.0
 11
-1037.5
 21
744.0
 31
0.0
  0
LINE
  5
194A3
330
1A
100
AcDbEntity
  8
CL1
100
AcDbLine
 10
-1035.0
 20
847.0
 30
0.0
 11
-1040.0
 21
847.0
 31
0.0
  0
CIRCLE
  5
194A5
330
1A
100
AcDbEntity
  8
ZISSEN1
100
AcDbCircle
 10
-1037.5
 20
847.0
 30
0.0
 40
1.0
  0
CIRCLE
  5
194A6
330
1A
100
AcDbEntity
  8
SAISEN
100
AcDbCircle
 10
-1037.5
 20
847.0
 30
0.0
 40
1.5
  0
LINE
  5
194D1
330
1A
100
AcDbEntity
  8
ZISSEN1
100
AcDbLine
 10
-1000.0
 20
850.0
 30
0.0
 11
-1075.0
 21
850.0
 31
0.0
  0
LINE
  5
194D2
330
1A
100
AcDbEntity
  8
ZISSEN1
100
AcDbLine
 10
-1075.0
 20
850.0
 30
0.0
 11
-1075.0
 21
745.0
 31
0.0
  0
LINE
  5
194D3
330
1A
100
AcDbEntity
  8
ZISSEN1
100
AcDbLine
 10
-1075.0
 20
745.0
 30
0.0
 11
-1000.0
 21
745.0
 31
0.0
  0
LINE
  5
194D4
330
1A
100
AcDbEntity
  8
ZISSEN1
100
AcDbLine
 10
-1000.0
 20
745.0
 30
0.0
 11
-1000.0
 21
850.0
 31
0.0
  0
LINE
  5
19578
330
1A
100
AcDbEntity
  8
ZISSEN1
100
AcDbLine
 10
-932.0
 20
1020.6
 30
0.0
 11
-946.0
 21
1020.6
 31
0.0
  0
LINE
  5
19580
330
1A
100
AcDbEntity
  8
ZISSEN1
100
AcDbLine
 10
-946.0
 20
1020.6
 30
0.0
 11
-946.0
 21
1008.0
 31
0.0
  0
LINE
  5
19591
330
1A
100
AcDbEntity
  8
ZISSEN1
100
AcDbLine
 10
-940.0
 20
1020.6
 30
0.0
 11
-940.0
 21
1008.0
 31
0.0
  0
LINE
  5
1959D
330
1A
100
AcDbEntity
  8
ZISSEN1
100
AcDbLine
 10
-937.0
 20
1041.900000218636
 30
0.0
 11
-937.0
 21
1022.000000218636
 31
0.0
  0
LINE
  5
195AE
330
1A
100
AcDbEntity
  8
ZISSEN1
100
AcDbLine
 10
-1021.7
 20
955.4999999999999
 30
0.0
 11
-1012.0
 21
955.4999999999999
 31
0.0
  0
LINE
  5
195AF
330
1A
100
AcDbEntity
  8
ZISSEN1
100
AcDbLine
 10
-1066.5
 20
952.5
 30
0.0
 11
-1058.75
 21
952.5
 31
0.0
  0
LINE
  5
195B0
330
1A
100
AcDbEntity
  8
ZISSEN1
100
AcDbLine
 10
-1046.499999999999
 20
952.5
 30
0.0
 11
-1038.75
 21
952.5
 31
0.0
  0
LINE
  5
195B6
330
1A
100
AcDbEntity
  8
ZISSEN1
100
AcDbLine
 10
-1072.0
 20
947.4999999999999
 30
0.0
 11
-1002.0
 21
947.4999999999999
 31
0.0
  0
DIMENSION
  5
1974D
330
1A
100
AcDbEntity
  8
ZISSEN1
100
AcDbDimension
  2
*D17
 10
-985.6939035389327
 20
873.0
 30
0.0
 11
-988.443903538933
 21
910.2499999999999
 31
0.0
 70
    32
  3
標準スタイル
100
AcDbAlignedDimension
 13
-1000.0
 23
947.4999999999999
 33
0.0
 14
-1002.0
 24
873.0
 34
0.0
 50
90.0
100
AcDbRotatedDimension
1001
ACAD
1000
DSTYLE
1002
{
1070
    40
1040
1.0
1002
}
  0
DIMENSION
  5
1975A
330
1A
100
AcDbEntity
  8
ZISSEN1
100
AcDbDimension
  2
*D18
 10
-985.6942493384417
 20
955.4967323453597
 30
0.0
 11
-988.4442493384419
 21
962.9967323453596
 31
0.0
 70
    32
  1
(<>)
  3
標準スタイル
100
AcDbAlignedDimension
 13
-985.6791913416307
 23
947.4967323453597
 33
0.0
 14
-1011.485287802698
 24
955.4967323453597
 34
0.0
 50
90.0
100
AcDbRotatedDimension
1001
ACAD
1000
DSTYLE
1002
{
1070
    40
1040
1.0
1002
}
  0
LINE
  5
1978D
330
1A
100
AcDbEntity
  8
ZISSEN1
100
AcDbLine
 10
-1066.500000159551
 20
961.5
 30
0.0
 11
-1056.800000663429
 21
961.5000002579407
 31
0.0
  0
LINE
  5
1978F
330
1A
100
AcDbEntity
  8
ZISSEN1
100
AcDbLine
 10
-1046.500000159551
 20
961.5
 30
0.0
 11
-1036.800000650029
 21
961.5000002579407
 31
0.0
  0
VIEWPORT
  5
15177
330
15176
100
AcDbEntity
 67
     1
  8
0
100
AcDbViewport
 10
311.2659795300974
 20
158.786647417673
 30
0.0
 40
606.5428003558022
 41
346.4132748080556
 68
     1
 69
     1
1001
ACAD
1000
MVIEW
1002
{
1070
    16
1010
0.0
1020
0.0
1030
0.0
1010
0.0
1020
0.0
1030
1.0
1040
0.0
1040
346.4132748080556
1040
311.2659795300974
1040
158.786647417673
1040
50.0
1040
0.0
1040
0.0
1070
     0
1070
   100
1070
     1
1070
     0
1070
     0
1070
     0
1070
     0
1070
     0
1040
0.0
1040
0.0
1040
0.0
1040
1.0
1040
1.0
1040
10.0
1040
10.0
1070
     0
1002
{
1002
}
1002
}
  0
VIEWPORT
  5
15178
330
15176
100
AcDbEntity
 67
     1
  8
ZISSEN1
100
AcDbViewport
 10
221.7861955525412
 20
157.6960273330388
 30
0.0
 40
385.4999999999997
 41
259.9999999999999
 68
     2
 69
     2
1001
ACAD
1000
MVIEW
1002
{
1070
    16
1010
0.0
1020
0.0
1030
0.0
1010
0.0
1020
0.0
1030
1.0
1040
0.0
1040
519.9999999748885
1040
-1006.655643603332
1040
933.5713089234431
1040
50.0
1040
0.0
1040
0.0
1070
     0
1070
   100
1070
     1
1070
     0
1070
     0
1070
     0
1070
     0
1070
     0
1040
0.0
1040
0.0
1040
0.0
1040
1.0
1040
1.0
1040
10.0
1040
10.0
1070
     0
1002
{
1002
}
1002
}
  0
TEXT
  5
15179
330
15176
100
AcDbEntity
 67
     1
  8
SUNPOU
 62
     0
100
AcDbText
 10
374.1863124306944
 20
60.86794705907585
 30
0.0
 40
3.5
  1
縮尺 1/2
100
AcDbText
  0
ENDSEC
  0
SECTION
  2
OBJECTS
  0
DICTIONARY
  5
C
330
0
100
AcDbDictionary
  3
ACAD_GROUP
350
D
  3
ACAD_LAYOUT
350
5C7D
  3
ACAD_MLINESTYLE
350
E
  3
ACAD_PLOTSETTINGS
350
5C7E
  3
ACAD_PLOTSTYLENAME
350
5C7B
  3
ACDBVARIABLEDICTIONARY
350
13217
  3
DWGPROPS
350
1979D
  3
ACDBHEADERROUNDTRIPXREC
350
1979F
  0
DICTIONARY
  5
197BF
330
1A
100
AcDbDictionary
280
     1
  3
ACAD_LAYOUTSELFREF
360
197C0
  0
DICTIONARY
  5
197C1
330
15176
100
AcDbDictionary
280
     1
  3
ACAD_LAYOUTSELFREF
360
197C2
  0
DICTIONARY
  5
D
102
{ACAD_REACTORS
330
C
102
}
330
C
100
AcDbDictionary
  3
*A1
350
477D
  3
*A2
350
4C15
  3
*A3
350
4C16
  3
*A4
350
4C17
  3
*A5
350
477E
  3
*A6
350
477F
  3
*A7
350
4780
  3
*A8
350
4781
  3
*A9
350
13853
  3
*A10
350
4C0E
  3
*A11
350
4C0F
  3
*A12
350
4C10
  3
*A13
350
4C11
  3
*A14
350
4C12
  3
*A15
350
4C13
  3
*A16
350
4C14
  0
DICTIONARY
  5
5C7D
102
{ACAD_REACTORS
330
C
102
}
330
C
100
AcDbDictionary
  0
DICTIONARY
  5
E
102
{ACAD_REACTORS
330
C
102
}
330
C
100
AcDbDictionary
  3
STANDARD
350
13
  0
DICTIONARY
  5
5C7E
102
{ACAD_REACTORS
330
C
102
}
330
C
100
AcDbDictionary
  0
ACDBDICTIONARYWDFLT
  5
5C7B
102
{ACAD_REACTORS
330
C
102
}
330
C
100
AcDbDictionary
281
     1
  3
Normal
350
5C7C
100
AcDbDictionaryWithDefault
340
5C7C
  0
DICTIONARY
  5
13217
102
{ACAD_REACTORS
330
C
102
}
330
C
100
AcDbDictionary
  3
INDEXCTL
350
18FBC
  3
SORTENTS
350
13218
  0
XRECORD
  5
1979D
102
{ACAD_REACTORS
330
C
102
}
330
C
100
AcDbXrecord
  1
DWGPROPS COOKIE
  2

  3

  4

  6

  7

  8

  9

300
=
301
=
302
=
303
=
304
=
305
=
306
=
307
=
308
=
309
=
 40
3.518389317129629
 41
2450495.493631365
 42
2453984.473827118
  1

 90
        0
  0
DICTIONARY
  5
1979F
102
{ACAD_REACTORS
330
C
102
}
330
C
100
AcDbDictionary
  3
TSTACKALIGN
350
197A0
  3
TSTACKSIZE
350
197A1
  3
HYPERLINKBASE
350
197A2
  3
STYLESHEET
350
197A3
  3
LAYOUTDICT
350
197A4
  3
PLOTSETDICT
350
197A5
  3
PLOTSTYLNAMDICT
350
197A6
  3
LWETCUNION
350
197A7
  3
INSUNITS
350
197A8
  3
CEPSNTYPE
350
197A9
  3
FINGERPRINTGUID
350
197AA
  3
VERSIONGUID
350
197AB
  3
PSVPSCALE
350
197AC
  3
PUCSORTHOREF
350
197AD
  3
PUCSORTHOVIEW
350
197AE
  3
PUCSBASE
350
197AF
  3
PUCSORGTOP
350
197B0
  3
PUCSORGBOTTOM
350
197B1
  3
PUCSORGLEFT
350
197B2
  3
PUCSORGRIGHT
350
197B3
  3
PUCSORGFRONT
350
197B4
  3
PUCSORGBACK
350
197B5
  3
UCSORTHOREF
350
197B6
  3
UCSORTHOVIEW
350
197B7
  3
UCSBASE
350
197B8
  3
UCSORGTOP
350
197B9
  3
UCSORGBOTTOM
350
197BA
  3
UCSORGLEFT
350
197BB
  3
UCSORGRIGHT
350
197BC
  3
UCSORGFRONT
350
197BD
  3
UCSORGBACK
350
197BE
  0
XRECORD
  5
197C0
102
{ACAD_REACTORS
330
197BF
102
}
330
197BF
100
AcDbXrecord
340
1A
  0
XRECORD
  5
197C2
102
{ACAD_REACTORS
330
197C1
102
}
330
197C1
100
AcDbXrecord
340
15176
  0
GROUP
  5
477D
102
{ACAD_REACTORS
330
D
102
}
330
D
100
AcDbGroup
300

 70
     1
 71
     1
  0
GROUP
  5
4C15
102
{ACAD_REACTORS
330
D
102
}
330
D
100
AcDbGroup
300

 70
     1
 71
     1
  0
GROUP
  5
4C16
102
{ACAD_REACTORS
330
D
102
}
330
D
100
AcDbGroup
300

 70
     1
 71
     1
  0
GROUP
  5
4C17
102
{ACAD_REACTORS
330
D
102
}
330
D
100
AcDbGroup
300

 70
     1
 71
     1
  0
GROUP
  5
477E
102
{ACAD_REACTORS
330
D
102
}
330
D
100
AcDbGroup
300

 70
     1
 71
     1
  0
GROUP
  5
477F
102
{ACAD_REACTORS
330
D
102
}
330
D
100
AcDbGroup
300

 70
     1
 71
     1
  0
GROUP
  5
4780
102
{ACAD_REACTORS
330
D
102
}
330
D
100
AcDbGroup
300

 70
     1
 71
     1
  0
GROUP
  5
4781
102
{ACAD_REACTORS
330
D
102
}
330
D
100
AcDbGroup
300

 70
     1
 71
     1
  0
GROUP
  5
13853
102
{ACAD_REACTORS
330
D
102
}
330
D
100
AcDbGroup
300

 70
     1
 71
     1
  0
GROUP
  5
4C0E
102
{ACAD_REACTORS
330
D
102
}
330
D
100
AcDbGroup
300

 70
     1
 71
     1
  0
GROUP
  5
4C0F
102
{ACAD_REACTORS
330
D
102
}
330
D
100
AcDbGroup
300

 70
     1
 71
     1
  0
GROUP
  5
4C10
102
{ACAD_REACTORS
330
D
102
}
330
D
100
AcDbGroup
300

 70
     1
 71
     1
  0
GROUP
  5
4C11
102
{ACAD_REACTORS
330
D
102
}
330
D
100
AcDbGroup
300

 70
     1
 71
     1
  0
GROUP
  5
4C12
102
{ACAD_REACTORS
330
D
102
}
330
D
100
AcDbGroup
300

 70
     1
 71
     1
  0
GROUP
  5
4C13
102
{ACAD_REACTORS
330
D
102
}
330
D
100
AcDbGroup
300

 70
     1
 71
     1
  0
GROUP
  5
4C14
102
{ACAD_REACTORS
330
D
102
}
330
D
100
AcDbGroup
300

 70
     1
 71
     1
  0
MLINESTYLE
  5
13
102
{ACAD_REACTORS
330
E
102
}
330
E
100
AcDbMlineStyle
  2
STANDARD
 70
     0
  3

 62
     0
 51
90.0
 52
90.0
 71
     2
 49
0.5
 62
   256
  6
BYLAYER
 49
-0.5
 62
   256
  6
BYLAYER
  0
ACDBPLACEHOLDER
  5
5C7C
102
{ACAD_REACTORS
330
5C7B
102
}
330
5C7B
100
AcDbPlaceHolder
280
     0
  0
DICTIONARYVAR
  5
18FBC
102
{ACAD_REACTORS
330
13217
102
}
330
13217
100
DictionaryVariables
280
     0
  1
-1
  0
DICTIONARYVAR
  5
13218
102
{ACAD_REACTORS
330
13217
102
}
330
13217
100
DictionaryVariables
280
     0
  1
96
  0
XRECORD
  5
197A0
102
{ACAD_REACTORS
330
1979F
102
}
330
1979F
100
AcDbXrecord
 90
        1
  0
XRECORD
  5
197A1
102
{ACAD_REACTORS
330
1979F
102
}
330
1979F
100
AcDbXrecord
 90
       70
  0
XRECORD
  5
197A2
102
{ACAD_REACTORS
330
1979F
102
}
330
1979F
100
AcDbXrecord
  1

  0
XRECORD
  5
197A3
102
{ACAD_REACTORS
330
1979F
102
}
330
1979F
100
AcDbXrecord
  1

  0
XRECORD
  5
197A4
102
{ACAD_REACTORS
330
1979F
102
}
330
1979F
100
AcDbXrecord
340
5C7D
  0
XRECORD
  5
197A5
102
{ACAD_REACTORS
330
1979F
102
}
330
1979F
100
AcDbXrecord
340
5C7E
  0
XRECORD
  5
197A6
102
{ACAD_REACTORS
330
1979F
102
}
330
1979F
100
AcDbXrecord
340
5C7B
  0
XRECORD
  5
197A7
102
{ACAD_REACTORS
330
1979F
102
}
330
1979F
100
AcDbXrecord
 90
    10781
  0
XRECORD
  5
197A8
102
{ACAD_REACTORS
330
1979F
102
}
330
1979F
100
AcDbXrecord
 90
        0
  0
XRECORD
  5
197A9
102
{ACAD_REACTORS
330
1979F
102
}
330
1979F
100
AcDbXrecord
 90
        0
  0
XRECORD
  5
197AA
102
{ACAD_REACTORS
330
1979F
102
}
330
1979F
100
AcDbXrecord
  1
{225A7F0D-DA29-11D8-946A-0000E2416295}
  0
XRECORD
  5
197AB
102
{ACAD_REACTORS
330
1979F
102
}
330
1979F
100
AcDbXrecord
  1
{71CCE2A9-94FB-4335-81EB-0CEE94912274}
  0
XRECORD
  5
197AC
102
{ACAD_REACTORS
330
1979F
102
}
330
1979F
100
AcDbXrecord
 40
0.0
  0
XRECORD
  5
197AD
102
{ACAD_REACTORS
330
1979F
102
}
330
1979F
100
AcDbXrecord
340
0
  0
XRECORD
  5
197AE
102
{ACAD_REACTORS
330
1979F
102
}
330
1979F
100
AcDbXrecord
 70
     0
  0
XRECORD
  5
197AF
102
{ACAD_REACTORS
330
1979F
102
}
330
1979F
100
AcDbXrecord
340
0
  0
XRECORD
  5
197B0
102
{ACAD_REACTORS
330
1979F
102
}
330
1979F
100
AcDbXrecord
 10
0.0
 20
0.0
 30
0.0
  0
XRECORD
  5
197B1
102
{ACAD_REACTORS
330
1979F
102
}
330
1979F
100
AcDbXrecord
 10
0.0
 20
0.0
 30
0.0
  0
XRECORD
  5
197B2
102
{ACAD_REACTORS
330
1979F
102
}
330
1979F
100
AcDbXrecord
 10
0.0
 20
0.0
 30
0.0
  0
XRECORD
  5
197B3
102
{ACAD_REACTORS
330
1979F
102
}
330
1979F
100
AcDbXrecord
 10
0.0
 20
0.0
 30
0.0
  0
XRECORD
  5
197B4
102
{ACAD_REACTORS
330
1979F
102
}
330
1979F
100
AcDbXrecord
 10
0.0
 20
0.0
 30
0.0
  0
XRECORD
  5
197B5
102
{ACAD_REACTORS
330
1979F
102
}
330
1979F
100
AcDbXrecord
 10
0.0
 20
0.0
 30
0.0
  0
XRECORD
  5
197B6
102
{ACAD_REACTORS
330
1979F
102
}
330
1979F
100
AcDbXrecord
340
0
  0
XRECORD
  5
197B7
102
{ACAD_REACTORS
330
1979F
102
}
330
1979F
100
AcDbXrecord
 70
     0
  0
XRECORD
  5
197B8
102
{ACAD_REACTORS
330
1979F
102
}
330
1979F
100
AcDbXrecord
340
0
  0
XRECORD
  5
197B9
102
{ACAD_REACTORS
330
1979F
102
}
330
1979F
100
AcDbXrecord
 10
0.0
 20
0.0
 30
0.0
  0
XRECORD
  5
197BA
102
{ACAD_REACTORS
330
1979F
102
}
330
1979F
100
AcDbXrecord
 10
0.0
 20
0.0
 30
0.0
  0
XRECORD
  5
197BB
102
{ACAD_REACTORS
330
1979F
102
}
330
1979F
100
AcDbXrecord
 10
0.0
 20
0.0
 30
0.0
  0
XRECORD
  5
197BC
102
{ACAD_REACTORS
330
1979F
102
}
330
1979F
100
AcDbXrecord
 10
0.0
 20
0.0
 30
0.0
  0
XRECORD
  5
197BD
102
{ACAD_REACTORS
330
1979F
102
}
330
1979F
100
AcDbXrecord
 10
0.0
 20
0.0
 30
0.0
  0
XRECORD
  5
197BE
102
{ACAD_REACTORS
330
1979F
102
}
330
1979F
100
AcDbXrecord
 10
0.0
 20
0.0
 30
0.0
  0
ENDSEC
  0
EOF
