  0
SECTION
  2
HEADER
  9
$ACADVER
  1
AC1014
  9
$ACADMAINTVER
 70
     9
  9
$DWGCODEPAGE
  3
ANSI_932
  9
$INSBASE
 10
0.0
 20
0.0
 30
0.0
  9
$EXTMIN
 10
-1964.867229795864
 20
1599.658465826965
 30
0.0
  9
$EXTMAX
 10
-1687.614321445541
 20
1975.849648386225
 30
0.0
  9
$LIMMIN
 10
0.0
 20
0.0
  9
$LIMMAX
 10
420.0
 20
297.0
  9
$ORTHOMODE
 70
     0
  9
$REGENMODE
 70
     1
  9
$FILLMODE
 70
     1
  9
$QTEXTMODE
 70
     0
  9
$MIRRTEXT
 70
     1
  9
$DRAGMODE
 70
     2
  9
$LTSCALE
 40
1.0
  9
$OSMODE
 70
    37
  9
$ATTMODE
 70
     1
  9
$TEXTSIZE
 40
2.5
  9
$TRACEWID
 40
1.0
  9
$TEXTSTYLE
  7
ゴシック体
  9
$CLAYER
  8
SUNPOU
  9
$CELTYPE
  6
BYLAYER
  9
$CECOLOR
 62
   256
  9
$CELTSCALE
 40
1.0
  9
$DELOBJ
 70
     1
  9
$DISPSILH
 70
     0
  9
$DIMSCALE
 40
0.0
  9
$DIMASZ
 40
3.0
  9
$DIMEXO
 40
0.5
  9
$DIMDLI
 40
0.5
  9
$DIMRND
 40
0.0
  9
$DIMDLE
 40
0.0
  9
$DIMEXE
 40
0.5
  9
$DIMTP
 40
0.0
  9
$DIMTM
 40
0.0
  9
$DIMTXT
 40
3.5
  9
$DIMCEN
 40
0.0
  9
$DIMTSZ
 40
0.0
  9
$DIMTOL
 70
     0
  9
$DIMLIM
 70
     0
  9
$DIMTIH
 70
     0
  9
$DIMTOH
 70
     0
  9
$DIMSE1
 70
     0
  9
$DIMSE2
 70
     0
  9
$DIMTAD
 70
     1
  9
$DIMZIN
 70
     8
  9
$DIMBLK
  1

  9
$DIMASO
 70
     1
  9
$DIMSHO
 70
     1
  9
$DIMPOST
  1

  9
$DIMAPOST
  1

  9
$DIMALT
 70
     0
  9
$DIMALTD
 70
     2
  9
$DIMALTF
 40
25.4
  9
$DIMLFAC
 40
1.0
  9
$DIMTOFL
 70
     1
  9
$DIMTVP
 40
0.0
  9
$DIMTIX
 70
     0
  9
$DIMSOXD
 70
     0
  9
$DIMSAH
 70
     0
  9
$DIMBLK1
  1

  9
$DIMBLK2
  1

  9
$DIMSTYLE
  2
標準スタイル
  9
$DIMCLRD
 70
     1
  9
$DIMCLRE
 70
     1
  9
$DIMCLRT
 70
     1
  9
$DIMTFAC
 40
1.0
  9
$DIMGAP
 40
1.0
  9
$DIMJUST
 70
     0
  9
$DIMSD1
 70
     0
  9
$DIMSD2
 70
     0
  9
$DIMTOLJ
 70
     1
  9
$DIMTZIN
 70
     8
  9
$DIMALTZ
 70
     0
  9
$DIMALTTZ
 70
     0
  9
$DIMFIT
 70
     3
  9
$DIMUPT
 70
     0
  9
$DIMUNIT
 70
     2
  9
$DIMDEC
 70
     2
  9
$DIMTDEC
 70
     2
  9
$DIMALTU
 70
     2
  9
$DIMALTTD
 70
     2
  9
$DIMTXSTY
  7
ゴシック体
  9
$DIMAUNIT
 70
     0
  9
$LUNITS
 70
     2
  9
$LUPREC
 70
     4
  9
$SKETCHINC
 40
1.0
  9
$FILLETRAD
 40
0.0
  9
$AUNITS
 70
     0
  9
$AUPREC
 70
     0
  9
$MENU
  1
.
  9
$ELEVATION
 40
0.0
  9
$PELEVATION
 40
0.0
  9
$THICKNESS
 40
0.0
  9
$LIMCHECK
 70
     0
  9
$BLIPMODE
 70
     0
  9
$CHAMFERA
 40
10.0
  9
$CHAMFERB
 40
10.0
  9
$CHAMFERC
 40
2.0
  9
$CHAMFERD
 40
0.7853981633974483
  9
$SKPOLY
 70
     0
  9
$TDCREATE
 40
2450495.493631365
  9
$TDUPDATE
 40
2453984.406228067
  9
$TDINDWG
 40
1.7771996875
  9
$TDUSRTIMER
 40
1.7771994560
  9
$USRTIMER
 70
     1
  9
$ANGBASE
 50
0.0
  9
$ANGDIR
 70
     0
  9
$PDMODE
 70
    99
  9
$PDSIZE
 40
0.0
  9
$PLINEWID
 40
0.0
  9
$COORDS
 70
     1
  9
$SPLFRAME
 70
     0
  9
$SPLINETYPE
 70
     6
  9
$SPLINESEGS
 70
     8
  9
$ATTDIA
 70
     0
  9
$ATTREQ
 70
     1
  9
$HANDLING
 70
 10241
  9
$HANDSEED
  5
13A3D
  9
$SURFTAB1
 70
     6
  9
$SURFTAB2
 70
     6
  9
$SURFTYPE
 70
     6
  9
$SURFU
 70
     6
  9
$SURFV
 70
     6
  9
$UCSNAME
  2

  9
$UCSORG
 10
0.0
 20
0.0
 30
0.0
  9
$UCSXDIR
 10
1.0
 20
0.0
 30
0.0
  9
$UCSYDIR
 10
0.0
 20
1.0
 30
0.0
  9
$PUCSNAME
  2

  9
$PUCSORG
 10
0.0
 20
0.0
 30
0.0
  9
$PUCSXDIR
 10
1.0
 20
0.0
 30
0.0
  9
$PUCSYDIR
 10
0.0
 20
1.0
 30
0.0
  9
$USERI1
 70
     0
  9
$USERI2
 70
     0
  9
$USERI3
 70
     0
  9
$USERI4
 70
     0
  9
$USERI5
 70
     0
  9
$USERR1
 40
0.0
  9
$USERR2
 40
0.0
  9
$USERR3
 40
0.0
  9
$USERR4
 40
0.0
  9
$USERR5
 40
0.0
  9
$WORLDVIEW
 70
     1
  9
$SHADEDGE
 70
     3
  9
$SHADEDIF
 70
    70
  9
$TILEMODE
 70
     1
  9
$MAXACTVP
 70
    16
  9
$PINSBASE
 10
0.0
 20
0.0
 30
0.0
  9
$PLIMCHECK
 70
     0
  9
$PEXTMIN
 10
29.03619555254133
 20
27.69602733303884
 30
0.0
  9
$PEXTMAX
 10
414.536195552541
 20
287.6960273330388
 30
0.0
  9
$PLIMMIN
 10
11.13088392171084
 20
6.367460636892701
  9
$PLIMMAX
 10
431.0775391951483
 20
303.3781112716583
  9
$UNITMODE
 70
     0
  9
$VISRETAIN
 70
     0
  9
$PLINEGEN
 70
     0
  9
$PSLTSCALE
 70
     1
  9
$TREEDEPTH
 70
  3020
  9
$PICKSTYLE
 70
     1
  9
$CMLSTYLE
  2
STANDARD
  9
$CMLJUST
 70
     0
  9
$CMLSCALE
 40
1.0
  9
$PROXYGRAPHICS
 70
     1
  9
$MEASUREMENT
 70
     1
  0
ENDSEC
  0
SECTION
  2
CLASSES
  0
CLASS
  1
LWPOLYLINE
  2
AcDbPolyline
  3
AutoCAD 2000
 90
        0
280
     0
281
     1
  0
CLASS
  1
HATCH
  2
AcDbHatch
  3
AutoCAD 2000
 90
        0
280
     0
281
     1
  0
CLASS
  1
ACDBDICTIONARYWDFLT
  2
AcDbDictionaryWithDefault
  3
AutoCAD 2000
 90
        0
280
     0
281
     0
  0
CLASS
  1
ACDBPLACEHOLDER
  2
AcDbPlaceHolder
  3
AutoCAD 2000
 90
        0
280
     0
281
     0
  0
CLASS
  1
LAYOUT
  2
AcDbLayout
  3
AutoCAD 2000
 90
        0
280
     0
281
     0
  0
CLASS
  1
DICTIONARYVAR
  2
AcDbDictionaryVar
  3
AutoCAD 2000
 90
        0
280
     0
281
     0
  0
CLASS
  1
LONG_TRANSACTION
  2
AcDbLongTransaction
  3
AutoCAD 2000
 90
        0
280
     0
281
     0
  0
CLASS
  1
LWPOLYLINE
  2
AcDbPolyline
  3
AutoCAD 2000
 90
        0
280
     0
281
     1
  0
CLASS
  1
HATCH
  2
AcDbHatch
  3
AutoCAD 2000
 90
        0
280
     0
281
     1
  0
CLASS
  1
XRECORD
  2
AcDbXrecord
  3
AutoCAD 2000
 90
        0
280
     0
281
     0
  0
ENDSEC
  0
SECTION
  2
TABLES
  0
TABLE
  2
VPORT
  5
8
330
0
100
AcDbSymbolTable
 70
     2
  0
VPORT
  5
13A02
330
8
100
AcDbSymbolTableRecord
100
AcDbViewportTableRecord
  2
*ACTIVE
 70
     0
 10
0.0
 20
0.0
 11
1.0
 21
1.0
 12
-1642.525376018993
 22
1793.56015125471
 13
0.0
 23
0.0
 14
5.0
 24
5.0
 15
0.0
 25
0.0
 16
0.0
 26
0.0
 36
1.0
 17
0.0
 27
0.0
 37
0.0
 40
478.4922032188871
 41
2.192560175054704
 42
50.0
 43
0.0
 44
0.0
 50
0.0
 51
0.0
 71
     0
 72
   100
 73
     1
 74
     0
 75
     0
 76
     0
 77
     0
 78
     0
  0
ENDTAB
  0
TABLE
  2
LTYPE
  5
5
330
0
100
AcDbSymbolTable
 70
    13
  0
LTYPE
  5
14
330
5
100
AcDbSymbolTableRecord
100
AcDbLinetypeTableRecord
  2
BYBLOCK
 70
     0
  3

 72
    65
 73
     0
 40
0.0
  0
LTYPE
  5
15
330
5
100
AcDbSymbolTableRecord
100
AcDbLinetypeTableRecord
  2
BYLAYER
 70
     0
  3

 72
    65
 73
     0
 40
0.0
  0
LTYPE
  5
16
330
5
100
AcDbSymbolTableRecord
100
AcDbLinetypeTableRecord
  2
CONTINUOUS
 70
     0
  3
Solid line
 72
    65
 73
     0
 40
0.0
  0
LTYPE
  5
1956
330
5
100
AcDbSymbolTableRecord
100
AcDbLinetypeTableRecord
  2
CENTERX2
 70
     0
  3
________  __  ________  __  ________  __  _____
 72
    65
 73
     4
 40
4.0
 49
2.5
 74
     0
 49
-0.5
 74
     0
 49
0.5
 74
     0
 49
-0.5
 74
     0
  0
ENDTAB
  0
TABLE
  2
LAYER
  5
2
330
0
100
AcDbSymbolTable
 70
    34
  0
LAYER
  5
F
330
2
100
AcDbSymbolTableRecord
100
AcDbLayerTableRecord
  2
0
 70
     0
 62
     7
  6
CONTINUOUS
  0
LAYER
  5
18F
330
2
100
AcDbSymbolTableRecord
100
AcDbLayerTableRecord
  2
ZISSEN1
 70
     0
 62
     7
  6
CONTINUOUS
  0
LAYER
  5
529
330
2
100
AcDbSymbolTableRecord
100
AcDbLayerTableRecord
  2
SUNPOU
 70
     0
 62
     1
  6
CONTINUOUS
  0
LAYER
  5
195A
330
2
100
AcDbSymbolTableRecord
100
AcDbLayerTableRecord
  2
CL1
 70
     0
 62
   210
  6
CENTERX2
  0
LAYER
  5
3A9B
330
2
100
AcDbSymbolTableRecord
100
AcDbLayerTableRecord
  2
DEFPOINTS
 70
     0
 62
     7
  6
CONTINUOUS
  0
ENDTAB
  0
TABLE
  2
STYLE
  5
3
330
0
100
AcDbSymbolTable
 70
     5
  0
STYLE
  5
10
330
3
100
AcDbSymbolTableRecord
100
AcDbTextStyleTableRecord
  2
STANDARD
 70
     0
 40
0.0
 41
1.0
 50
0.0
 71
     0
 42
3.0
  3
txt
  4
BigFont
  0
STYLE
  5
1960
330
3
100
AcDbSymbolTableRecord
100
AcDbTextStyleTableRecord
  2
ゴシック体
 70
     0
 40
0.0
 41
1.0
 50
0.0
 71
     0
 42
2.5
  3
MS Gothic.ttf
  4

1001
ACAD
1000
MS Gothic
1071
    32817
  0
ENDTAB
  0
TABLE
  2
VIEW
  5
6
330
0
100
AcDbSymbolTable
 70
     0
  0
ENDTAB
  0
TABLE
  2
UCS
  5
7
330
0
100
AcDbSymbolTable
 70
     0
  0
ENDTAB
  0
TABLE
  2
APPID
  5
9
330
0
100
AcDbSymbolTable
 70
     5
  0
APPID
  5
11
330
9
100
AcDbSymbolTableRecord
100
AcDbRegAppTableRecord
  2
ACAD
 70
     0
  0
APPID
  5
4005
330
9
100
AcDbSymbolTableRecord
100
AcDbRegAppTableRecord
  2
CONTENTTABDATA
 70
     0
  0
APPID
  5
4006
330
9
100
AcDbSymbolTableRecord
100
AcDbRegAppTableRecord
  2
CONTENTCURRENTTAB
 70
     0
  0
APPID
  5
477B
330
9
100
AcDbSymbolTableRecord
100
AcDbRegAppTableRecord
  2
CONTENTBLOCKDESCRIPTION
 70
     0
  0
APPID
  5
477C
330
9
100
AcDbSymbolTableRecord
100
AcDbRegAppTableRecord
  2
CONTENTBLOCKICON
 70
     0
  0
ENDTAB
  0
TABLE
  2
DIMSTYLE
  5
A
330
0
100
AcDbSymbolTable
 70
    12
  0
DIMSTYLE
105
1D
330
A
100
AcDbSymbolTableRecord
100
AcDbDimStyleTableRecord
  2
STANDARD
 70
     0
  3

  4

  5

  6

  7

 40
1.0
 41
0.18
 42
0.0625
 43
0.38
 44
0.18
 45
0.0
 46
0.0
 47
0.0
 48
0.0
140
0.18
141
0.09
142
0.0
143
25.4
144
1.0
145
0.0
146
1.0
147
0.09
 71
     0
 72
     0
 73
     1
 74
     1
 75
     0
 76
     0
 77
     0
 78
     0
170
     0
171
     2
172
     0
173
     0
174
     0
175
     0
176
     0
177
     0
178
     0
270
     2
271
     4
272
     4
273
     2
274
     2
340
10
275
     0
280
     0
281
     0
282
     0
283
     1
284
     0
285
     0
286
     0
287
     3
288
     0
  0
DIMSTYLE
105
52E
102
{ACAD_REACTORS
330
13857
330
13871
330
1387D
330
13897
330
138A4
330
138BD
330
138CA
330
138D7
330
138E6
330
138F3
330
138FF
330
1390C
330
1391B
330
13928
330
13935
330
13941
330
13950
330
1395D
330
1396C
330
13979
330
13986
330
13992
330
1399F
102
}
330
A
100
AcDbSymbolTableRecord
100
AcDbDimStyleTableRecord
  2
標準スタイル
 70
     0
  3

  4

  5

  6

  7

 40
0.0
 41
3.0
 42
0.5
 43
0.5
 44
0.5
 45
0.0
 46
0.0
 47
0.0
 48
0.0
140
3.5
141
0.0
142
0.0
143
25.4
144
1.0
145
0.0
146
1.0
147
1.0
 71
     0
 72
     0
 73
     0
 74
     0
 75
     0
 76
     0
 77
     1
 78
     8
170
     0
171
     2
172
     1
173
     0
174
     0
175
     0
176
     1
177
     1
178
     1
270
     2
271
     2
272
     2
273
     2
274
     2
340
1960
275
     0
280
     0
281
     0
282
     0
283
     1
284
     8
285
     0
286
     0
287
     3
288
     0
  0
ENDTAB
  0
TABLE
  2
BLOCK_RECORD
  5
1
330
0
100
AcDbSymbolTable
 70
    47
  0
BLOCK_RECORD
  5
1A
102
{ACAD_XDICTIONARY
360
13A23
102
}
330
1
100
AcDbSymbolTableRecord
100
AcDbBlockTableRecord
  2
*MODEL_SPACE
  0
BLOCK_RECORD
  5
5D8E
102
{ACAD_XDICTIONARY
360
13A25
102
}
330
1
100
AcDbSymbolTableRecord
100
AcDbBlockTableRecord
  2
*PAPER_SPACE
  0
BLOCK_RECORD
  5
13858
330
1
100
AcDbSymbolTableRecord
100
AcDbBlockTableRecord
  2
*D24
  0
BLOCK_RECORD
  5
13872
330
1
100
AcDbSymbolTableRecord
100
AcDbBlockTableRecord
  2
*D25
  0
BLOCK_RECORD
  5
1387E
330
1
100
AcDbSymbolTableRecord
100
AcDbBlockTableRecord
  2
*D26
  0
BLOCK_RECORD
  5
13898
330
1
100
AcDbSymbolTableRecord
100
AcDbBlockTableRecord
  2
*D27
  0
BLOCK_RECORD
  5
138A5
330
1
100
AcDbSymbolTableRecord
100
AcDbBlockTableRecord
  2
*D28
  0
BLOCK_RECORD
  5
138BE
330
1
100
AcDbSymbolTableRecord
100
AcDbBlockTableRecord
  2
*D29
  0
BLOCK_RECORD
  5
138CB
330
1
100
AcDbSymbolTableRecord
100
AcDbBlockTableRecord
  2
*D30
  0
BLOCK_RECORD
  5
138D8
330
1
100
AcDbSymbolTableRecord
100
AcDbBlockTableRecord
  2
*D31
  0
BLOCK_RECORD
  5
138E7
330
1
100
AcDbSymbolTableRecord
100
AcDbBlockTableRecord
  2
*D32
  0
BLOCK_RECORD
  5
138F4
330
1
100
AcDbSymbolTableRecord
100
AcDbBlockTableRecord
  2
*D33
  0
BLOCK_RECORD
  5
13900
330
1
100
AcDbSymbolTableRecord
100
AcDbBlockTableRecord
  2
*D34
  0
BLOCK_RECORD
  5
1390D
330
1
100
AcDbSymbolTableRecord
100
AcDbBlockTableRecord
  2
*D35
  0
BLOCK_RECORD
  5
1391C
330
1
100
AcDbSymbolTableRecord
100
AcDbBlockTableRecord
  2
*D36
  0
BLOCK_RECORD
  5
13929
330
1
100
AcDbSymbolTableRecord
100
AcDbBlockTableRecord
  2
*D37
  0
BLOCK_RECORD
  5
13936
330
1
100
AcDbSymbolTableRecord
100
AcDbBlockTableRecord
  2
*D38
  0
BLOCK_RECORD
  5
13942
330
1
100
AcDbSymbolTableRecord
100
AcDbBlockTableRecord
  2
*D39
  0
BLOCK_RECORD
  5
13951
330
1
100
AcDbSymbolTableRecord
100
AcDbBlockTableRecord
  2
*D40
  0
BLOCK_RECORD
  5
1395E
330
1
100
AcDbSymbolTableRecord
100
AcDbBlockTableRecord
  2
*D41
  0
BLOCK_RECORD
  5
1396D
330
1
100
AcDbSymbolTableRecord
100
AcDbBlockTableRecord
  2
*D42
  0
BLOCK_RECORD
  5
1397A
330
1
100
AcDbSymbolTableRecord
100
AcDbBlockTableRecord
  2
*D43
  0
BLOCK_RECORD
  5
13987
330
1
100
AcDbSymbolTableRecord
100
AcDbBlockTableRecord
  2
*D44
  0
BLOCK_RECORD
  5
13993
330
1
100
AcDbSymbolTableRecord
100
AcDbBlockTableRecord
  2
*D45
  0
BLOCK_RECORD
  5
139A0
330
1
100
AcDbSymbolTableRecord
100
AcDbBlockTableRecord
  2
*D46
  0
ENDTAB
  0
ENDSEC
  0
SECTION
  2
BLOCKS
  0
BLOCK
  5
1B
330
1A
100
AcDbEntity
  8
0
100
AcDbBlockBegin
  2
*MODEL_SPACE
 70
     0
 10
0.0
 20
0.0
 30
0.0
  3
*MODEL_SPACE
  1

  0
ENDBLK
  5
1C
330
1A
100
AcDbEntity
  8
0
100
AcDbBlockEnd
  0
BLOCK
  5
5E60
330
5D8E
100
AcDbEntity
 67
     1
  8
0
100
AcDbBlockBegin
  2
*PAPER_SPACE
 70
     0
 10
0.0
 20
0.0
 30
0.0
  3
*PAPER_SPACE
  1

  0
ENDBLK
  5
5E61
330
5D8E
100
AcDbEntity
 67
     1
  8
0
100
AcDbBlockEnd
  0
BLOCK
  5
13864
330
13858
100
AcDbEntity
  8
0
100
AcDbBlockBegin
  2
*D24
 70
     1
 10
0.0
 20
0.0
 30
0.0
  3
*D24
  1

  0
LINE
  5
13A27
330
13858
100
AcDbEntity
  8
SUNPOU
 62
     1
100
AcDbLine
 10
-1830.478850019063
 20
1969.849648386226
 30
0.0
 11
-1799.919189777455
 21
1969.849648386226
 31
0.0
  0
LINE
  5
13A28
330
13858
100
AcDbEntity
  8
SUNPOU
 62
     1
100
AcDbLine
 10
-1824.478860019063
 20
1966.849638386225
 30
0.0
 11
-1799.919189777455
 21
1966.849638386225
 31
0.0
  0
LINE
  5
13A29
330
13858
100
AcDbEntity
  8
SUNPOU
 62
     1
100
AcDbLine
 10
-1800.419189777455
 20
1972.849648386225
 30
0.0
 11
-1800.419189777455
 21
1975.849648386225
 31
0.0
  0
LINE
  5
13A2A
330
13858
100
AcDbEntity
  8
SUNPOU
 62
     1
100
AcDbLine
 10
-1800.419189777455
 20
1963.849638386226
 30
0.0
 11
-1800.419189777455
 21
1960.849638386226
 31
0.0
  0
MTEXT
  5
13A2B
330
13858
100
AcDbEntity
  8
SUNPOU
 62
     1
100
AcDbMText
 10
-1803.143345737668
 20
1973.751508561448
 30
0.0
 40
3.5
 41
0.0
 71
     5
 72
     1
  1
\A1;3
  7
ゴシック体
 11
0.0000000000000001
 21
1.0
 31
0.0
  0
LINE
  5
13A2C
330
13858
100
AcDbEntity
  8
SUNPOU
 62
     1
100
AcDbLine
 10
-1800.419189777455
 20
1969.849648386226
 30
0.0
 11
-1800.419189777455
 21
1966.849638386225
 31
0.0
  0
SOLID
  5
13A2D
330
13858
100
AcDbEntity
  8
SUNPOU
 62
     1
100
AcDbTrace
 10
-1800.919189777455
 20
1972.849648386225
 30
0.0
 11
-1799.919189777455
 21
1972.849648386225
 31
0.0
 12
-1800.419189777455
 22
1969.849648386226
 32
0.0
 13
-1800.419189777455
 23
1969.849648386226
 33
0.0
  0
SOLID
  5
13A2E
330
13858
100
AcDbEntity
  8
SUNPOU
 62
     1
100
AcDbTrace
 10
-1800.919189777455
 20
1963.849638386226
 30
0.0
 11
-1799.919189777455
 21
1963.849638386226
 31
0.0
 12
-1800.419189777455
 22
1966.849638386225
 32
0.0
 13
-1800.419189777455
 23
1966.849638386225
 33
0.0
  0
POINT
  5
13A2F
330
13858
100
AcDbEntity
  8
DEFPOINTS
 62
     0
100
AcDbPoint
 10
-1830.978850019063
 20
1969.849648386226
 30
0.0
  0
POINT
  5
13A30
330
13858
100
AcDbEntity
  8
DEFPOINTS
 62
     0
100
AcDbPoint
 10
-1824.978860019063
 20
1966.849638386225
 30
0.0
  0
POINT
  5
13A31
330
13858
100
AcDbEntity
  8
DEFPOINTS
 62
     0
100
AcDbPoint
 10
-1800.419189777455
 20
1966.849638386225
 30
0.0
  0
ENDBLK
  5
13865
330
13858
100
AcDbEntity
  8
0
100
AcDbBlockEnd
  0
BLOCK
  5
1387B
330
13872
100
AcDbEntity
  8
0
100
AcDbBlockBegin
  2
*D25
 70
     1
 10
0.0
 20
0.0
 30
0.0
  3
*D25
  1

  0
LINE
  5
13873
330
13872
100
AcDbEntity
  8
SUNPOU
 62
     1
100
AcDbLine
 10
-1824.478860019063
 20
1914.349638386226
 30
0.0
 11
-1799.919189777454
 21
1914.349638386226
 31
0.0
  0
LINE
  5
13874
330
13872
100
AcDbEntity
  8
SUNPOU
 62
     1
100
AcDbLine
 10
-1800.419189777455
 20
1963.849638386226
 30
0.0
 11
-1800.419189777455
 21
1917.349638386226
 31
0.0
  0
SOLID
  5
13875
330
13872
100
AcDbEntity
  8
SUNPOU
 62
     1
100
AcDbTrace
 10
-1800.919189777453
 20
1963.849638386226
 30
0.0
 11
-1799.919189777454
 21
1963.849638386226
 31
0.0
 12
-1800.419189777455
 22
1966.849638386225
 32
0.0
 13
-1800.419189777455
 23
1966.849638386225
 33
0.0
  0
SOLID
  5
13876
330
13872
100
AcDbEntity
  8
SUNPOU
 62
     1
100
AcDbTrace
 10
-1800.919189777453
 20
1917.349638386226
 30
0.0
 11
-1799.919189777454
 21
1917.349638386226
 31
0.0
 12
-1800.419189777455
 22
1914.349638386226
 32
0.0
 13
-1800.419189777455
 23
1914.349638386226
 33
0.0
  0
MTEXT
  5
13877
330
13872
100
AcDbEntity
  8
SUNPOU
 62
     1
100
AcDbMText
 10
-1803.169189777455
 20
1940.599638386225
 30
0.0
 40
3.5
 41
0.0
 71
     5
 72
     1
  1
\A1;52.5
  7
ゴシック体
 11
0.0000000000000001
 21
1.0
 31
0.0
1001
ACAD
1000
MTEXTBEGIN
1070
    73
1070
     1
1070
    44
1040
1.0
1070
    74
1070
     0
1000
MTEXTEND
  0
POINT
  5
13878
330
13872
100
AcDbEntity
  8
DEFPOINTS
 62
     0
100
AcDbPoint
 10
-1800.419189777455
 20
1966.849638386225
 30
0.0
  0
POINT
  5
13879
330
13872
100
AcDbEntity
  8
DEFPOINTS
 62
     0
100
AcDbPoint
 10
-1824.978860019063
 20
1914.349638386226
 30
0.0
  0
POINT
  5
1387A
330
13872
100
AcDbEntity
  8
DEFPOINTS
 62
     0
100
AcDbPoint
 10
-1800.419189777455
 20
1914.349638386226
 30
0.0
  0
ENDBLK
  5
1387C
330
13872
100
AcDbEntity
  8
0
100
AcDbBlockEnd
  0
BLOCK
  5
1388A
330
1387E
100
AcDbEntity
  8
0
100
AcDbBlockBegin
  2
*D26
 70
     1
 10
0.0
 20
0.0
 30
0.0
  3
*D26
  1

  0
LINE
  5
13A32
330
1387E
100
AcDbEntity
  8
SUNPOU
 62
     1
100
AcDbLine
 10
-1899.978856019063
 20
1911.349628386226
 30
0.0
 11
-1799.822736689442
 21
1911.349628386226
 31
0.0
  0
LINE
  5
13A33
330
1387E
100
AcDbEntity
  8
SUNPOU
 62
     1
100
AcDbLine
 10
-1799.919189777455
 20
1914.349638386226
 30
0.0
 11
-1799.822736689442
 21
1914.349638386226
 31
0.0
  0
LINE
  5
13A34
330
1387E
100
AcDbEntity
  8
SUNPOU
 62
     1
100
AcDbLine
 10
-1800.322736689442
 20
1908.349628386226
 30
0.0
 11
-1800.322736689442
 21
1905.349628386225
 31
0.0
  0
LINE
  5
13A35
330
1387E
100
AcDbEntity
  8
SUNPOU
 62
     1
100
AcDbLine
 10
-1800.322736689442
 20
1917.349638386226
 30
0.0
 11
-1800.322736689442
 21
1920.349638386225
 31
0.0
  0
MTEXT
  5
13A36
330
1387E
100
AcDbEntity
  8
SUNPOU
 62
     1
100
AcDbMText
 10
-1802.666642969436
 20
1906.860310928565
 30
0.0
 40
3.5
 41
0.0
 71
     5
 72
     1
  1
\A1;3
  7
ゴシック体
 11
0.0000000000000001
 21
1.0
 31
0.0
  0
LINE
  5
13A37
330
1387E
100
AcDbEntity
  8
SUNPOU
 62
     1
100
AcDbLine
 10
-1800.322736689442
 20
1911.349628386226
 30
0.0
 11
-1800.322736689442
 21
1914.349638386226
 31
0.0
  0
SOLID
  5
13A38
330
1387E
100
AcDbEntity
  8
SUNPOU
 62
     1
100
AcDbTrace
 10
-1800.822736689442
 20
1908.349628386226
 30
0.0
 11
-1799.822736689442
 21
1908.349628386226
 31
0.0
 12
-1800.322736689442
 22
1911.349628386226
 32
0.0
 13
-1800.322736689442
 23
1911.349628386226
 33
0.0
  0
SOLID
  5
13A39
330
1387E
100
AcDbEntity
  8
SUNPOU
 62
     1
100
AcDbTrace
 10
-1800.822736689442
 20
1917.349638386226
 30
0.0
 11
-1799.822736689442
 21
1917.349638386226
 31
0.0
 12
-1800.322736689442
 22
1914.349638386226
 32
0.0
 13
-1800.322736689442
 23
1914.349638386226
 33
0.0
  0
POINT
  5
13A3A
330
1387E
100
AcDbEntity
  8
DEFPOINTS
 62
     0
100
AcDbPoint
 10
-1900.478856019063
 20
1911.349628386226
 30
0.0
  0
POINT
  5
13A3B
330
1387E
100
AcDbEntity
  8
DEFPOINTS
 62
     0
100
AcDbPoint
 10
-1800.419189777455
 20
1914.349638386226
 30
0.0
  0
POINT
  5
13A3C
330
1387E
100
AcDbEntity
  8
DEFPOINTS
 62
     0
100
AcDbPoint
 10
-1800.322736689442
 20
1914.349638386226
 30
0.0
  0
ENDBLK
  5
1388B
330
1387E
100
AcDbEntity
  8
0
100
AcDbBlockEnd
  0
BLOCK
  5
138A2
330
13898
100
AcDbEntity
  8
0
100
AcDbBlockBegin
  2
*D27
 70
     1
 10
0.0
 20
0.0
 30
0.0
  3
*D27
  1

  0
LINE
  5
13899
330
13898
100
AcDbEntity
  8
SUNPOU
 62
     1
100
AcDbLine
 10
-1799.822736689442
 20
1911.349628386226
 30
0.0
 11
-1787.266099354217
 21
1911.349628386226
 31
0.0
  0
LINE
  5
1389A
330
13898
100
AcDbEntity
  8
SUNPOU
 62
     1
100
AcDbLine
 10
-1799.919189777454
 20
1969.849648386226
 30
0.0
 11
-1787.266099354217
 21
1969.849648386226
 31
0.0
  0
LINE
  5
1389B
330
13898
100
AcDbEntity
  8
SUNPOU
 62
     1
100
AcDbLine
 10
-1787.766099354216
 20
1914.349628386226
 30
0.0
 11
-1787.766099354216
 21
1966.849648386226
 31
0.0
  0
SOLID
  5
1389C
330
13898
100
AcDbEntity
  8
SUNPOU
 62
     1
100
AcDbTrace
 10
-1788.266099354216
 20
1914.349628386226
 30
0.0
 11
-1787.266099354217
 21
1914.349628386226
 31
0.0
 12
-1787.766099354216
 22
1911.349628386226
 32
0.0
 13
-1787.766099354216
 23
1911.349628386226
 33
0.0
  0
SOLID
  5
1389D
330
13898
100
AcDbEntity
  8
SUNPOU
 62
     1
100
AcDbTrace
 10
-1788.266099354216
 20
1966.849648386226
 30
0.0
 11
-1787.266099354217
 21
1966.849648386226
 31
0.0
 12
-1787.766099354216
 22
1969.849648386226
 32
0.0
 13
-1787.766099354216
 23
1969.849648386226
 33
0.0
  0
MTEXT
  5
1389E
330
13898
100
AcDbEntity
  8
SUNPOU
 62
     1
100
AcDbMText
 10
-1790.516099354217
 20
1940.599638386225
 30
0.0
 40
3.5
 41
0.0
 71
     5
 72
     1
  1
\A1;58.5
  7
ゴシック体
 11
0.0000000000000001
 21
1.0
 31
0.0
1001
ACAD
1000
MTEXTBEGIN
1070
    73
1070
     1
1070
    44
1040
1.0
1070
    74
1070
     0
1000
MTEXTEND
  0
POINT
  5
1389F
330
13898
100
AcDbEntity
  8
DEFPOINTS
 62
     0
100
AcDbPoint
 10
-1800.322736689442
 20
1911.349628386226
 30
0.0
  0
POINT
  5
138A0
330
13898
100
AcDbEntity
  8
DEFPOINTS
 62
     0
100
AcDbPoint
 10
-1800.419189777455
 20
1969.849648386226
 30
0.0
  0
POINT
  5
138A1
330
13898
100
AcDbEntity
  8
DEFPOINTS
 62
     0
100
AcDbPoint
 10
-1787.766099354216
 20
1969.849648386226
 30
0.0
  0
ENDBLK
  5
138A3
330
13898
100
AcDbEntity
  8
0
100
AcDbBlockEnd
  0
BLOCK
  5
138AF
330
138A5
100
AcDbEntity
  8
0
100
AcDbBlockBegin
  2
*D28
 70
     1
 10
0.0
 20
0.0
 30
0.0
  3
*D28
  1

  0
LINE
  5
138A6
330
138A5
100
AcDbEntity
  8
SUNPOU
 62
     1
100
AcDbLine
 10
-1935.478859019062
 20
1880.038838386226
 30
0.0
 11
-1960.296424502899
 21
1880.038838386226
 31
0.0
  0
LINE
  5
138A7
330
138A5
100
AcDbEntity
  8
SUNPOU
 62
     1
100
AcDbLine
 10
-1931.978859019062
 20
1868.038848386225
 30
0.0
 11
-1960.296424502899
 21
1868.038848386225
 31
0.0
  0
LINE
  5
138A8
330
138A5
100
AcDbEntity
  8
SUNPOU
 62
     1
100
AcDbLine
 10
-1959.7964245029
 20
1877.038838386226
 30
0.0
 11
-1959.7964245029
 21
1871.038848386226
 31
0.0
  0
SOLID
  5
138A9
330
138A5
100
AcDbEntity
  8
SUNPOU
 62
     1
100
AcDbTrace
 10
-1960.296424502899
 20
1877.038838386226
 30
0.0
 11
-1959.2964245029
 21
1877.038838386226
 31
0.0
 12
-1959.7964245029
 22
1880.038838386226
 32
0.0
 13
-1959.7964245029
 23
1880.038838386226
 33
0.0
  0
SOLID
  5
138AA
330
138A5
100
AcDbEntity
  8
SUNPOU
 62
     1
100
AcDbTrace
 10
-1960.296424502899
 20
1871.038848386226
 30
0.0
 11
-1959.2964245029
 21
1871.038848386226
 31
0.0
 12
-1959.7964245029
 22
1868.038848386225
 32
0.0
 13
-1959.7964245029
 23
1868.038848386225
 33
0.0
  0
MTEXT
  5
138AB
330
138A5
100
AcDbEntity
  8
SUNPOU
 62
     1
100
AcDbMText
 10
-1962.5464245029
 20
1874.038843386225
 30
0.0
 40
3.5
 41
0.0
 71
     5
 72
     1
  1
\A1;12
  7
ゴシック体
 11
0.0000000000000001
 21
1.0
 31
0.0
1001
ACAD
1000
MTEXTBEGIN
1070
    73
1070
     1
1070
    44
1040
1.0
1070
    74
1070
     0
1000
MTEXTEND
  0
POINT
  5
138AC
330
138A5
100
AcDbEntity
  8
DEFPOINTS
 62
     0
100
AcDbPoint
 10
-1934.978859019063
 20
1880.038838386226
 30
0.0
  0
POINT
  5
138AD
330
138A5
100
AcDbEntity
  8
DEFPOINTS
 62
     0
100
AcDbPoint
 10
-1931.478859019063
 20
1868.038848386225
 30
0.0
  0
POINT
  5
138AE
330
138A5
100
AcDbEntity
  8
DEFPOINTS
 62
     0
100
AcDbPoint
 10
-1959.7964245029
 20
1868.038848386225
 30
0.0
  0
ENDBLK
  5
138B0
330
138A5
100
AcDbEntity
  8
0
100
AcDbBlockEnd
  0
BLOCK
  5
138C8
330
138BE
100
AcDbEntity
  8
0
100
AcDbBlockBegin
  2
*D29
 70
     1
 10
0.0
 20
0.0
 30
0.0
  3
*D29
  1

  0
LINE
  5
138BF
330
138BE
100
AcDbEntity
  8
SUNPOU
 62
     1
100
AcDbLine
 10
-1960.296424502899
 20
1868.038848386225
 30
0.0
 11
-1960.458600354239
 21
1868.038848386225
 31
0.0
  0
LINE
  5
138C0
330
138BE
100
AcDbEntity
  8
SUNPOU
 62
     1
100
AcDbLine
 10
-1931.978859019062
 20
1648.038820386225
 30
0.0
 11
-1960.458600354239
 21
1648.038820386225
 31
0.0
  0
LINE
  5
138C1
330
138BE
100
AcDbEntity
  8
SUNPOU
 62
     1
100
AcDbLine
 10
-1959.958600354238
 20
1865.038848386225
 30
0.0
 11
-1959.958600354238
 21
1651.038820386226
 31
0.0
  0
SOLID
  5
138C2
330
138BE
100
AcDbEntity
  8
SUNPOU
 62
     1
100
AcDbTrace
 10
-1960.458600354239
 20
1865.038848386225
 30
0.0
 11
-1959.458600354238
 21
1865.038848386225
 31
0.0
 12
-1959.958600354238
 22
1868.038848386225
 32
0.0
 13
-1959.958600354238
 23
1868.038848386225
 33
0.0
  0
SOLID
  5
138C3
330
138BE
100
AcDbEntity
  8
SUNPOU
 62
     1
100
AcDbTrace
 10
-1960.458600354239
 20
1651.038820386226
 30
0.0
 11
-1959.458600354238
 21
1651.038820386226
 31
0.0
 12
-1959.958600354238
 22
1648.038820386225
 32
0.0
 13
-1959.958600354238
 23
1648.038820386225
 33
0.0
  0
MTEXT
  5
138C4
330
138BE
100
AcDbEntity
  8
SUNPOU
 62
     1
100
AcDbMText
 10
-1962.70860035424
 20
1758.038834386226
 30
0.0
 40
3.5
 41
0.0
 71
     5
 72
     1
  1
\A1;220
  7
ゴシック体
 11
0.0000000000000001
 21
1.0
 31
0.0
1001
ACAD
1000
MTEXTBEGIN
1070
    73
1070
     1
1070
    44
1040
1.0
1070
    74
1070
     0
1000
MTEXTEND
  0
POINT
  5
138C5
330
138BE
100
AcDbEntity
  8
DEFPOINTS
 62
     0
100
AcDbPoint
 10
-1959.7964245029
 20
1868.038848386225
 30
0.0
  0
POINT
  5
138C6
330
138BE
100
AcDbEntity
  8
DEFPOINTS
 62
     0
100
AcDbPoint
 10
-1931.478859019063
 20
1648.038820386225
 30
0.0
  0
POINT
  5
138C7
330
138BE
100
AcDbEntity
  8
DEFPOINTS
 62
     0
100
AcDbPoint
 10
-1959.958600354238
 20
1648.038820386225
 30
0.0
  0
ENDBLK
  5
138C9
330
138BE
100
AcDbEntity
  8
0
100
AcDbBlockEnd
  0
BLOCK
  5
138D5
330
138CB
100
AcDbEntity
  8
0
100
AcDbBlockBegin
  2
*D30
 70
     1
 10
0.0
 20
0.0
 30
0.0
  3
*D30
  1

  0
LINE
  5
138CC
330
138CB
100
AcDbEntity
  8
SUNPOU
 62
     1
100
AcDbLine
 10
-1935.478859019062
 20
1636.038818386226
 30
0.0
 11
-1960.458600354239
 21
1636.038818386226
 31
0.0
  0
LINE
  5
138CD
330
138CB
100
AcDbEntity
  8
SUNPOU
 62
     1
100
AcDbLine
 10
-1935.478859019062
 20
1648.038820386225
 30
0.0
 11
-1960.458600354239
 21
1648.038820386225
 31
0.0
  0
LINE
  5
138CE
330
138CB
100
AcDbEntity
  8
SUNPOU
 62
     1
100
AcDbLine
 10
-1959.958600354238
 20
1639.038818386225
 30
0.0
 11
-1959.958600354238
 21
1645.038820386225
 31
0.0
  0
SOLID
  5
138CF
330
138CB
100
AcDbEntity
  8
SUNPOU
 62
     1
100
AcDbTrace
 10
-1960.458600354239
 20
1639.038818386225
 30
0.0
 11
-1959.458600354238
 21
1639.038818386225
 31
0.0
 12
-1959.958600354238
 22
1636.038818386226
 32
0.0
 13
-1959.958600354238
 23
1636.038818386226
 33
0.0
  0
SOLID
  5
138D0
330
138CB
100
AcDbEntity
  8
SUNPOU
 62
     1
100
AcDbTrace
 10
-1960.458600354239
 20
1645.038820386225
 30
0.0
 11
-1959.458600354238
 21
1645.038820386225
 31
0.0
 12
-1959.958600354238
 22
1648.038820386225
 32
0.0
 13
-1959.958600354238
 23
1648.038820386225
 33
0.0
  0
MTEXT
  5
138D1
330
138CB
100
AcDbEntity
  8
SUNPOU
 62
     1
100
AcDbMText
 10
-1962.70860035424
 20
1642.038819386225
 30
0.0
 40
3.5
 41
0.0
 71
     5
 72
     1
  1
\A1;12
  7
ゴシック体
 11
0.0000000000000001
 21
1.0
 31
0.0
1001
ACAD
1000
MTEXTBEGIN
1070
    73
1070
     1
1070
    44
1040
1.0
1070
    74
1070
     0
1000
MTEXTEND
  0
POINT
  5
138D2
330
138CB
100
AcDbEntity
  8
DEFPOINTS
 62
     0
100
AcDbPoint
 10
-1934.978859019063
 20
1636.038818386226
 30
0.0
  0
POINT
  5
138D3
330
138CB
100
AcDbEntity
  8
DEFPOINTS
 62
     0
100
AcDbPoint
 10
-1934.978859019063
 20
1648.038820386225
 30
0.0
  0
POINT
  5
138D4
330
138CB
100
AcDbEntity
  8
DEFPOINTS
 62
     0
100
AcDbPoint
 10
-1959.958600354238
 20
1648.038820386225
 30
0.0
  0
ENDBLK
  5
138D6
330
138CB
100
AcDbEntity
  8
0
100
AcDbBlockEnd
  0
BLOCK
  5
138E4
330
138D8
100
AcDbEntity
  8
0
100
AcDbBlockBegin
  2
*D31
 70
     1
 10
0.0
 20
0.0
 30
0.0
  3
*D31
  1

  0
LINE
  5
138D9
330
138D8
100
AcDbEntity
  8
SUNPOU
 62
     1
100
AcDbLine
 10
-1934.978859019063
 20
1635.538818386225
 30
0.0
 11
-1934.978859019063
 21
1625.970213208725
 31
0.0
  0
LINE
  5
138DA
330
138D8
100
AcDbEntity
  8
SUNPOU
 62
     1
100
AcDbLine
 10
-1931.978861019063
 20
1635.538818386225
 30
0.0
 11
-1931.978861019063
 21
1625.970213208725
 31
0.0
  0
LINE
  5
138DB
330
138D8
100
AcDbEntity
  8
SUNPOU
 62
     1
100
AcDbLine
 10
-1937.978859019063
 20
1626.470213208725
 30
0.0
 11
-1940.978859019063
 21
1626.470213208725
 31
0.0
  0
LINE
  5
138DC
330
138D8
100
AcDbEntity
  8
SUNPOU
 62
     1
100
AcDbLine
 10
-1928.978861019063
 20
1626.470213208725
 30
0.0
 11
-1922.166678277946
 21
1626.470213208725
 31
0.0
  0
LINE
  5
138DD
330
138D8
100
AcDbEntity
  8
SUNPOU
 62
     1
100
AcDbLine
 10
-1934.978859019063
 20
1626.470213208725
 30
0.0
 11
-1931.978861019063
 21
1626.470213208725
 31
0.0
  0
SOLID
  5
138DE
330
138D8
100
AcDbEntity
  8
SUNPOU
 62
     1
100
AcDbTrace
 10
-1937.978859019063
 20
1626.970213208726
 30
0.0
 11
-1937.978859019063
 21
1625.970213208725
 31
0.0
 12
-1934.978859019063
 22
1626.470213208725
 32
0.0
 13
-1934.978859019063
 23
1626.470213208725
 33
0.0
  0
SOLID
  5
138DF
330
138D8
100
AcDbEntity
  8
SUNPOU
 62
     1
100
AcDbTrace
 10
-1928.978861019063
 20
1626.970213208726
 30
0.0
 11
-1928.978861019063
 21
1625.970213208725
 31
0.0
 12
-1931.978861019063
 22
1626.470213208725
 32
0.0
 13
-1931.978861019063
 23
1626.470213208725
 33
0.0
  0
MTEXT
  5
138E0
330
138D8
100
AcDbEntity
  8
SUNPOU
 62
     1
100
AcDbMText
 10
-1924.072769648504
 20
1629.220213208727
 30
0.0
 40
3.5
 41
0.0
 71
     5
 72
     1
  1
\A1;3
  7
ゴシック体
1001
ACAD
1000
MTEXTBEGIN
1070
    73
1070
     1
1070
    44
1040
1.0
1070
    74
1070
     0
1000
MTEXTEND
  0
POINT
  5
138E1
330
138D8
100
AcDbEntity
  8
DEFPOINTS
 62
     0
100
AcDbPoint
 10
-1934.978859019063
 20
1636.038818386226
 30
0.0
  0
POINT
  5
138E2
330
138D8
100
AcDbEntity
  8
DEFPOINTS
 62
     0
100
AcDbPoint
 10
-1931.978861019063
 20
1636.038818386226
 30
0.0
  0
POINT
  5
138E3
330
138D8
100
AcDbEntity
  8
DEFPOINTS
 62
     0
100
AcDbPoint
 10
-1931.978861019063
 20
1626.470213208725
 30
0.0
  0
ENDBLK
  5
138E5
330
138D8
100
AcDbEntity
  8
0
100
AcDbBlockEnd
  0
BLOCK
  5
138F1
330
138E7
100
AcDbEntity
  8
0
100
AcDbBlockBegin
  2
*D32
 70
     1
 10
0.0
 20
0.0
 30
0.0
  3
*D32
  1

  0
LINE
  5
138E8
330
138E7
100
AcDbEntity
  8
SUNPOU
 62
     1
100
AcDbLine
 10
-1934.978859019063
 20
1625.970213208725
 30
0.0
 11
-1934.978859019063
 21
1612.856609875819
 31
0.0
  0
LINE
  5
138E9
330
138E7
100
AcDbEntity
  8
SUNPOU
 62
     1
100
AcDbLine
 10
-1824.978860019063
 20
1647.538820386226
 30
0.0
 11
-1824.978860019063
 21
1612.856609875819
 31
0.0
  0
LINE
  5
138EA
330
138E7
100
AcDbEntity
  8
SUNPOU
 62
     1
100
AcDbLine
 10
-1931.978859019062
 20
1613.356609875819
 30
0.0
 11
-1827.978860019063
 21
1613.356609875819
 31
0.0
  0
SOLID
  5
138EB
330
138E7
100
AcDbEntity
  8
SUNPOU
 62
     1
100
AcDbTrace
 10
-1931.978859019062
 20
1613.85660987582
 30
0.0
 11
-1931.978859019062
 21
1612.856609875819
 31
0.0
 12
-1934.978859019063
 22
1613.356609875819
 32
0.0
 13
-1934.978859019063
 23
1613.356609875819
 33
0.0
  0
SOLID
  5
138EC
330
138E7
100
AcDbEntity
  8
SUNPOU
 62
     1
100
AcDbTrace
 10
-1827.978860019063
 20
1613.85660987582
 30
0.0
 11
-1827.978860019063
 21
1612.856609875819
 31
0.0
 12
-1824.978860019063
 22
1613.356609875819
 32
0.0
 13
-1824.978860019063
 23
1613.356609875819
 33
0.0
  0
MTEXT
  5
138ED
330
138E7
100
AcDbEntity
  8
SUNPOU
 62
     1
100
AcDbMText
 10
-1879.978859519063
 20
1616.106609875819
 30
0.0
 40
3.5
 41
0.0
 71
     5
 72
     1
  1
\A1;110
  7
ゴシック体
1001
ACAD
1000
MTEXTBEGIN
1070
    73
1070
     1
1070
    44
1040
1.0
1070
    74
1070
     0
1000
MTEXTEND
  0
POINT
  5
138EE
330
138E7
100
AcDbEntity
  8
DEFPOINTS
 62
     0
100
AcDbPoint
 10
-1934.978859019063
 20
1626.470213208725
 30
0.0
  0
POINT
  5
138EF
330
138E7
100
AcDbEntity
  8
DEFPOINTS
 62
     0
100
AcDbPoint
 10
-1824.978860019063
 20
1648.038820386225
 30
0.0
  0
POINT
  5
138F0
330
138E7
100
AcDbEntity
  8
DEFPOINTS
 62
     0
100
AcDbPoint
 10
-1824.978860019063
 20
1613.356609875819
 30
0.0
  0
ENDBLK
  5
138F2
330
138E7
100
AcDbEntity
  8
0
100
AcDbBlockEnd
  0
BLOCK
  5
138FD
330
138F4
100
AcDbEntity
  8
0
100
AcDbBlockBegin
  2
*D33
 70
     1
 10
0.0
 20
0.0
 30
0.0
  3
*D33
  1

  0
LINE
  5
138F5
330
138F4
100
AcDbEntity
  8
SUNPOU
 62
     1
100
AcDbLine
 10
-1809.978860019063
 20
1651.038819386226
 30
0.0
 11
-1809.978860019063
 21
1612.856609875819
 31
0.0
  0
LINE
  5
138F6
330
138F4
100
AcDbEntity
  8
SUNPOU
 62
     1
100
AcDbLine
 10
-1812.978860019063
 20
1613.356609875819
 30
0.0
 11
-1821.978860019063
 21
1613.356609875819
 31
0.0
  0
SOLID
  5
138F7
330
138F4
100
AcDbEntity
  8
SUNPOU
 62
     1
100
AcDbTrace
 10
-1812.978860019063
 20
1613.85660987582
 30
0.0
 11
-1812.978860019063
 21
1612.856609875819
 31
0.0
 12
-1809.978860019063
 22
1613.356609875819
 32
0.0
 13
-1809.978860019063
 23
1613.356609875819
 33
0.0
  0
SOLID
  5
138F8
330
138F4
100
AcDbEntity
  8
SUNPOU
 62
     1
100
AcDbTrace
 10
-1821.978860019063
 20
1613.85660987582
 30
0.0
 11
-1821.978860019063
 21
1612.856609875819
 31
0.0
 12
-1824.978860019063
 22
1613.356609875819
 32
0.0
 13
-1824.978860019063
 23
1613.356609875819
 33
0.0
  0
MTEXT
  5
138F9
330
138F4
100
AcDbEntity
  8
SUNPOU
 62
     1
100
AcDbMText
 10
-1817.478860019063
 20
1616.106609875819
 30
0.0
 40
3.5
 41
0.0
 71
     5
 72
     1
  1
\A1;15
  7
ゴシック体
1001
ACAD
1000
MTEXTBEGIN
1070
    73
1070
     1
1070
    44
1040
1.0
1070
    74
1070
     0
1000
MTEXTEND
  0
POINT
  5
138FA
330
138F4
100
AcDbEntity
  8
DEFPOINTS
 62
     0
100
AcDbPoint
 10
-1809.978860019063
 20
1651.538819386225
 30
0.0
  0
POINT
  5
138FB
330
138F4
100
AcDbEntity
  8
DEFPOINTS
 62
     0
100
AcDbPoint
 10
-1824.978860019063
 20
1613.356609875819
 30
0.0
  0
POINT
  5
138FC
330
138F4
100
AcDbEntity
  8
DEFPOINTS
 62
     0
100
AcDbPoint
 10
-1824.978860019063
 20
1613.356609875819
 30
0.0
  0
ENDBLK
  5
138FE
330
138F4
100
AcDbEntity
  8
0
100
AcDbBlockEnd
  0
BLOCK
  5
1390A
330
13900
100
AcDbEntity
  8
0
100
AcDbBlockBegin
  2
*D34
 70
     1
 10
0.0
 20
0.0
 30
0.0
  3
*D34
  1

  0
LINE
  5
13901
330
13900
100
AcDbEntity
  8
SUNPOU
 62
     1
100
AcDbLine
 10
-1934.978859019063
 20
1612.856609875819
 30
0.0
 11
-1934.978859019063
 21
1599.658465826965
 31
0.0
  0
LINE
  5
13902
330
13900
100
AcDbEntity
  8
SUNPOU
 62
     1
100
AcDbLine
 10
-1809.978860019063
 20
1612.35660987582
 30
0.0
 11
-1809.978860019063
 21
1599.658465826965
 31
0.0
  0
LINE
  5
13903
330
13900
100
AcDbEntity
  8
SUNPOU
 62
     1
100
AcDbLine
 10
-1931.978859019062
 20
1600.158465826964
 30
0.0
 11
-1812.978860019063
 21
1600.158465826964
 31
0.0
  0
SOLID
  5
13904
330
13900
100
AcDbEntity
  8
SUNPOU
 62
     1
100
AcDbTrace
 10
-1931.978859019062
 20
1600.658465826966
 30
0.0
 11
-1931.978859019062
 21
1599.658465826965
 31
0.0
 12
-1934.978859019063
 22
1600.158465826964
 32
0.0
 13
-1934.978859019063
 23
1600.158465826964
 33
0.0
  0
SOLID
  5
13905
330
13900
100
AcDbEntity
  8
SUNPOU
 62
     1
100
AcDbTrace
 10
-1812.978860019063
 20
1600.658465826966
 30
0.0
 11
-1812.978860019063
 21
1599.658465826965
 31
0.0
 12
-1809.978860019063
 22
1600.158465826964
 32
0.0
 13
-1809.978860019063
 23
1600.158465826964
 33
0.0
  0
MTEXT
  5
13906
330
13900
100
AcDbEntity
  8
SUNPOU
 62
     1
100
AcDbMText
 10
-1872.478859519063
 20
1602.908465826964
 30
0.0
 40
3.5
 41
0.0
 71
     5
 72
     1
  1
\A1;125
  7
ゴシック体
1001
ACAD
1000
MTEXTBEGIN
1070
    73
1070
     1
1070
    44
1040
1.0
1070
    74
1070
     0
1000
MTEXTEND
  0
POINT
  5
13907
330
13900
100
AcDbEntity
  8
DEFPOINTS
 62
     0
100
AcDbPoint
 10
-1934.978859019063
 20
1613.356609875819
 30
0.0
  0
POINT
  5
13908
330
13900
100
AcDbEntity
  8
DEFPOINTS
 62
     0
100
AcDbPoint
 10
-1809.978860019063
 20
1612.856609875819
 30
0.0
  0
POINT
  5
13909
330
13900
100
AcDbEntity
  8
DEFPOINTS
 62
     0
100
AcDbPoint
 10
-1809.978860019063
 20
1600.158465826964
 30
0.0
  0
ENDBLK
  5
1390B
330
13900
100
AcDbEntity
  8
0
100
AcDbBlockEnd
  0
BLOCK
  5
13919
330
1390D
100
AcDbEntity
  8
0
100
AcDbBlockBegin
  2
*D35
 70
     1
 10
0.0
 20
0.0
 30
0.0
  3
*D35
  1

  0
LINE
  5
1390E
330
1390D
100
AcDbEntity
  8
SUNPOU
 62
     1
100
AcDbLine
 10
-1809.478860019063
 20
1713.309251386226
 30
0.0
 11
-1790.822235193708
 21
1713.309251386226
 31
0.0
  0
LINE
  5
1390F
330
1390D
100
AcDbEntity
  8
SUNPOU
 62
     1
100
AcDbLine
 10
-1809.478860019063
 20
1706.989260386225
 30
0.0
 11
-1790.822235193708
 21
1706.989260386225
 31
0.0
  0
LINE
  5
13910
330
1390D
100
AcDbEntity
  8
SUNPOU
 62
     1
100
AcDbLine
 10
-1791.322235193709
 20
1716.309251386226
 30
0.0
 11
-1791.322235193709
 21
1719.309251386226
 31
0.0
  0
LINE
  5
13911
330
1390D
100
AcDbEntity
  8
SUNPOU
 62
     1
100
AcDbLine
 10
-1791.322235193709
 20
1703.989260386226
 30
0.0
 11
-1791.322235193709
 21
1690.390275614652
 31
0.0
  0
LINE
  5
13912
330
1390D
100
AcDbEntity
  8
SUNPOU
 62
     1
100
AcDbLine
 10
-1791.322235193709
 20
1713.309251386226
 30
0.0
 11
-1791.322235193709
 21
1706.989260386225
 31
0.0
  0
SOLID
  5
13913
330
1390D
100
AcDbEntity
  8
SUNPOU
 62
     1
100
AcDbTrace
 10
-1791.822235193707
 20
1716.309251386226
 30
0.0
 11
-1790.822235193708
 21
1716.309251386226
 31
0.0
 12
-1791.322235193709
 22
1713.309251386226
 32
0.0
 13
-1791.322235193709
 23
1713.309251386226
 33
0.0
  0
SOLID
  5
13914
330
1390D
100
AcDbEntity
  8
SUNPOU
 62
     1
100
AcDbTrace
 10
-1791.822235193707
 20
1703.989260386226
 30
0.0
 11
-1790.822235193708
 21
1703.989260386226
 31
0.0
 12
-1791.322235193709
 22
1706.989260386225
 32
0.0
 13
-1791.322235193709
 23
1706.989260386225
 33
0.0
  0
MTEXT
  5
13915
330
1390D
100
AcDbEntity
  8
SUNPOU
 62
     1
100
AcDbMText
 10
-1794.072235193709
 20
1695.689768000439
 30
0.0
 40
3.5
 41
0.0
 71
     5
 72
     1
  1
\A1;6.32
  7
ゴシック体
 11
0.0000000000000001
 21
1.0
 31
0.0
1001
ACAD
1000
MTEXTBEGIN
1070
    73
1070
     1
1070
    44
1040
1.0
1070
    74
1070
     0
1000
MTEXTEND
  0
POINT
  5
13916
330
1390D
100
AcDbEntity
  8
DEFPOINTS
 62
     0
100
AcDbPoint
 10
-1809.978860019063
 20
1713.309251386226
 30
0.0
  0
POINT
  5
13917
330
1390D
100
AcDbEntity
  8
DEFPOINTS
 62
     0
100
AcDbPoint
 10
-1809.978860019063
 20
1706.989260386225
 30
0.0
  0
POINT
  5
13918
330
1390D
100
AcDbEntity
  8
DEFPOINTS
 62
     0
100
AcDbPoint
 10
-1791.322235193709
 20
1706.989260386225
 30
0.0
  0
ENDBLK
  5
1391A
330
1390D
100
AcDbEntity
  8
0
100
AcDbBlockEnd
  0
BLOCK
  5
13926
330
1391C
100
AcDbEntity
  8
0
100
AcDbBlockBegin
  2
*D36
 70
     1
 10
0.0
 20
0.0
 30
0.0
  3
*D36
  1

  0
LINE
  5
1391D
330
1391C
100
AcDbEntity
  8
SUNPOU
 62
     1
100
AcDbLine
 10
-1824.978860019063
 20
1868.538848386226
 30
0.0
 11
-1824.978860019063
 21
1887.671592205593
 31
0.0
  0
LINE
  5
1391E
330
1391C
100
AcDbEntity
  8
SUNPOU
 62
     1
100
AcDbLine
 10
-1812.978820019063
 20
1862.038798386225
 30
0.0
 11
-1812.978820019063
 21
1887.671592205593
 31
0.0
  0
LINE
  5
1391F
330
1391C
100
AcDbEntity
  8
SUNPOU
 62
     1
100
AcDbLine
 10
-1821.978860019063
 20
1887.171592205594
 30
0.0
 11
-1815.978820019062
 21
1887.171592205594
 31
0.0
  0
SOLID
  5
13920
330
1391C
100
AcDbEntity
  8
SUNPOU
 62
     1
100
AcDbTrace
 10
-1821.978860019063
 20
1887.671592205593
 30
0.0
 11
-1821.978860019063
 21
1886.671592205593
 31
0.0
 12
-1824.978860019063
 22
1887.171592205594
 32
0.0
 13
-1824.978860019063
 23
1887.171592205594
 33
0.0
  0
SOLID
  5
13921
330
1391C
100
AcDbEntity
  8
SUNPOU
 62
     1
100
AcDbTrace
 10
-1815.978820019062
 20
1887.671592205593
 30
0.0
 11
-1815.978820019062
 21
1886.671592205593
 31
0.0
 12
-1812.978820019063
 22
1887.171592205594
 32
0.0
 13
-1812.978820019063
 23
1887.171592205594
 33
0.0
  0
MTEXT
  5
13922
330
1391C
100
AcDbEntity
  8
SUNPOU
 62
     1
100
AcDbMText
 10
-1818.978840019062
 20
1889.921592205594
 30
0.0
 40
3.5
 41
0.0
 71
     5
 72
     1
  1
\A1;12
  7
ゴシック体
1001
ACAD
1000
MTEXTBEGIN
1070
    73
1070
     1
1070
    44
1040
1.0
1070
    74
1070
     0
1000
MTEXTEND
  0
POINT
  5
13923
330
1391C
100
AcDbEntity
  8
DEFPOINTS
 62
     0
100
AcDbPoint
 10
-1824.978860019063
 20
1868.038848386225
 30
0.0
  0
POINT
  5
13924
330
1391C
100
AcDbEntity
  8
DEFPOINTS
 62
     0
100
AcDbPoint
 10
-1812.978820019063
 20
1861.538798386225
 30
0.0
  0
POINT
  5
13925
330
1391C
100
AcDbEntity
  8
DEFPOINTS
 62
     0
100
AcDbPoint
 10
-1812.978820019063
 20
1887.171592205594
 30
0.0
  0
ENDBLK
  5
13927
330
1391C
100
AcDbEntity
  8
0
100
AcDbBlockEnd
  0
BLOCK
  5
13933
330
13929
100
AcDbEntity
  8
0
100
AcDbBlockBegin
  2
*D37
 70
     1
 10
0.0
 20
0.0
 30
0.0
  3
*D37
  1

  0
LINE
  5
1392A
330
13929
100
AcDbEntity
  8
SUNPOU
 62
     1
100
AcDbLine
 10
-1750.100500019063
 20
1868.538848386226
 30
0.0
 11
-1750.100500019063
 21
1887.671592205593
 31
0.0
  0
LINE
  5
1392B
330
13929
100
AcDbEntity
  8
SUNPOU
 62
     1
100
AcDbLine
 10
-1734.100500019063
 20
1877.538828386225
 30
0.0
 11
-1734.100500019063
 21
1887.671592205593
 31
0.0
  0
LINE
  5
1392C
330
13929
100
AcDbEntity
  8
SUNPOU
 62
     1
100
AcDbLine
 10
-1747.100500019063
 20
1887.171592205594
 30
0.0
 11
-1737.100500019063
 21
1887.171592205594
 31
0.0
  0
SOLID
  5
1392D
330
13929
100
AcDbEntity
  8
SUNPOU
 62
     1
100
AcDbTrace
 10
-1747.100500019063
 20
1887.671592205593
 30
0.0
 11
-1747.100500019063
 21
1886.671592205593
 31
0.0
 12
-1750.100500019063
 22
1887.171592205594
 32
0.0
 13
-1750.100500019063
 23
1887.171592205594
 33
0.0
  0
SOLID
  5
1392E
330
13929
100
AcDbEntity
  8
SUNPOU
 62
     1
100
AcDbTrace
 10
-1737.100500019063
 20
1887.671592205593
 30
0.0
 11
-1737.100500019063
 21
1886.671592205593
 31
0.0
 12
-1734.100500019063
 22
1887.171592205594
 32
0.0
 13
-1734.100500019063
 23
1887.171592205594
 33
0.0
  0
MTEXT
  5
1392F
330
13929
100
AcDbEntity
  8
SUNPOU
 62
     1
100
AcDbMText
 10
-1742.100500019063
 20
1889.921592205594
 30
0.0
 40
3.5
 41
0.0
 71
     5
 72
     1
  1
\A1;16
  7
ゴシック体
1001
ACAD
1000
MTEXTBEGIN
1070
    73
1070
     1
1070
    44
1040
1.0
1070
    74
1070
     0
1000
MTEXTEND
  0
POINT
  5
13930
330
13929
100
AcDbEntity
  8
DEFPOINTS
 62
     0
100
AcDbPoint
 10
-1750.100500019063
 20
1868.038848386225
 30
0.0
  0
POINT
  5
13931
330
13929
100
AcDbEntity
  8
DEFPOINTS
 62
     0
100
AcDbPoint
 10
-1734.100500019063
 20
1877.038828386226
 30
0.0
  0
POINT
  5
13932
330
13929
100
AcDbEntity
  8
DEFPOINTS
 62
     0
100
AcDbPoint
 10
-1734.100500019063
 20
1887.171592205594
 30
0.0
  0
ENDBLK
  5
13934
330
13929
100
AcDbEntity
  8
0
100
AcDbBlockEnd
  0
BLOCK
  5
1393F
330
13936
100
AcDbEntity
  8
0
100
AcDbBlockBegin
  2
*D38
 70
     1
 10
0.0
 20
0.0
 30
0.0
  3
*D38
  1

  0
LINE
  5
13937
330
13936
100
AcDbEntity
  8
SUNPOU
 62
     1
100
AcDbLine
 10
-1714.100510019063
 20
1874.538818386225
 30
0.0
 11
-1714.100510019063
 21
1887.671592205593
 31
0.0
  0
LINE
  5
13938
330
13936
100
AcDbEntity
  8
SUNPOU
 62
     1
100
AcDbLine
 10
-1731.100500019063
 20
1887.171592205594
 30
0.0
 11
-1717.100510019063
 21
1887.171592205594
 31
0.0
  0
SOLID
  5
13939
330
13936
100
AcDbEntity
  8
SUNPOU
 62
     1
100
AcDbTrace
 10
-1731.100500019063
 20
1887.671592205593
 30
0.0
 11
-1731.100500019063
 21
1886.671592205593
 31
0.0
 12
-1734.100500019063
 22
1887.171592205594
 32
0.0
 13
-1734.100500019063
 23
1887.171592205594
 33
0.0
  0
SOLID
  5
1393A
330
13936
100
AcDbEntity
  8
SUNPOU
 62
     1
100
AcDbTrace
 10
-1717.100510019063
 20
1887.671592205593
 30
0.0
 11
-1717.100510019063
 21
1886.671592205593
 31
0.0
 12
-1714.100510019063
 22
1887.171592205594
 32
0.0
 13
-1714.100510019063
 23
1887.171592205594
 33
0.0
  0
MTEXT
  5
1393B
330
13936
100
AcDbEntity
  8
SUNPOU
 62
     1
100
AcDbMText
 10
-1724.100505019063
 20
1889.921592205594
 30
0.0
 40
3.5
 41
0.0
 71
     5
 72
     1
  1
\A1;20
  7
ゴシック体
1001
ACAD
1000
MTEXTBEGIN
1070
    73
1070
     1
1070
    44
1040
1.0
1070
    74
1070
     0
1000
MTEXTEND
  0
POINT
  5
1393C
330
13936
100
AcDbEntity
  8
DEFPOINTS
 62
     0
100
AcDbPoint
 10
-1734.100500019063
 20
1887.171592205594
 30
0.0
  0
POINT
  5
1393D
330
13936
100
AcDbEntity
  8
DEFPOINTS
 62
     0
100
AcDbPoint
 10
-1714.100510019063
 20
1874.038818386225
 30
0.0
  0
POINT
  5
1393E
330
13936
100
AcDbEntity
  8
DEFPOINTS
 62
     0
100
AcDbPoint
 10
-1714.100510019063
 20
1887.171592205594
 30
0.0
  0
ENDBLK
  5
13940
330
13936
100
AcDbEntity
  8
0
100
AcDbBlockEnd
  0
BLOCK
  5
1394E
330
13942
100
AcDbEntity
  8
0
100
AcDbBlockBegin
  2
*D39
 70
     1
 10
0.0
 20
0.0
 30
0.0
  3
*D39
  1

  0
LINE
  5
13943
330
13942
100
AcDbEntity
  8
SUNPOU
 62
     1
100
AcDbLine
 10
-1744.686270019063
 20
1880.038838386226
 30
0.0
 11
-1766.450586121661
 21
1880.038838386226
 31
0.0
  0
LINE
  5
13944
330
13942
100
AcDbEntity
  8
SUNPOU
 62
     1
100
AcDbLine
 10
-1734.600500019062
 20
1874.038818386225
 30
0.0
 11
-1766.450586121661
 21
1874.038818386225
 31
0.0
  0
LINE
  5
13945
330
13942
100
AcDbEntity
  8
SUNPOU
 62
     1
100
AcDbLine
 10
-1765.950586121661
 20
1883.038838386226
 30
0.0
 11
-1765.950586121661
 21
1886.038838386226
 31
0.0
  0
LINE
  5
13946
330
13942
100
AcDbEntity
  8
SUNPOU
 62
     1
100
AcDbLine
 10
-1765.950586121661
 20
1871.038818386225
 30
0.0
 11
-1765.950586121661
 21
1868.038818386225
 31
0.0
  0
LINE
  5
13947
330
13942
100
AcDbEntity
  8
SUNPOU
 62
     1
100
AcDbLine
 10
-1765.950586121661
 20
1880.038838386226
 30
0.0
 11
-1765.950586121661
 21
1874.038818386225
 31
0.0
  0
SOLID
  5
13948
330
13942
100
AcDbEntity
  8
SUNPOU
 62
     1
100
AcDbTrace
 10
-1766.450586121661
 20
1883.038838386226
 30
0.0
 11
-1765.45058612166
 21
1883.038838386226
 31
0.0
 12
-1765.950586121661
 22
1880.038838386226
 32
0.0
 13
-1765.950586121661
 23
1880.038838386226
 33
0.0
  0
SOLID
  5
13949
330
13942
100
AcDbEntity
  8
SUNPOU
 62
     1
100
AcDbTrace
 10
-1766.450586121661
 20
1871.038818386225
 30
0.0
 11
-1765.45058612166
 21
1871.038818386225
 31
0.0
 12
-1765.950586121661
 22
1874.038818386225
 32
0.0
 13
-1765.950586121661
 23
1874.038818386225
 33
0.0
  0
MTEXT
  5
1394A
330
13942
100
AcDbEntity
  8
SUNPOU
 62
     1
100
AcDbMText
 10
-1768.700586121661
 20
1877.038828386225
 30
0.0
 40
3.5
 41
0.0
 71
     5
 72
     1
  1
\A1;6
  7
ゴシック体
 11
0.0000000000000001
 21
1.0
 31
0.0
1001
ACAD
1000
MTEXTBEGIN
1070
    73
1070
     1
1070
    44
1040
1.0
1070
    74
1070
     0
1000
MTEXTEND
  0
POINT
  5
1394B
330
13942
100
AcDbEntity
  8
DEFPOINTS
 62
     0
100
AcDbPoint
 10
-1744.186270019063
 20
1880.038838386226
 30
0.0
  0
POINT
  5
1394C
330
13942
100
AcDbEntity
  8
DEFPOINTS
 62
     0
100
AcDbPoint
 10
-1734.100500019063
 20
1874.038818386225
 30
0.0
  0
POINT
  5
1394D
330
13942
100
AcDbEntity
  8
DEFPOINTS
 62
     0
100
AcDbPoint
 10
-1765.950586121661
 20
1874.038818386225
 30
0.0
  0
ENDBLK
  5
1394F
330
13942
100
AcDbEntity
  8
0
100
AcDbBlockEnd
  0
BLOCK
  5
1395B
330
13951
100
AcDbEntity
  8
0
100
AcDbBlockBegin
  2
*D40
 70
     1
 10
0.0
 20
0.0
 30
0.0
  3
*D40
  1

  0
LINE
  5
13952
330
13951
100
AcDbEntity
  8
SUNPOU
 62
     1
100
AcDbLine
 10
-1765.950586121661
 20
1874.038818386225
 30
0.0
 11
-1765.45058612166
 21
1874.038818386225
 31
0.0
  0
LINE
  5
13953
330
13951
100
AcDbEntity
  8
SUNPOU
 62
     1
100
AcDbLine
 10
-1734.600500019062
 20
1642.038819386225
 30
0.0
 11
-1766.450586121661
 21
1642.038819386225
 31
0.0
  0
LINE
  5
13954
330
13951
100
AcDbEntity
  8
SUNPOU
 62
     1
100
AcDbLine
 10
-1765.950586121661
 20
1871.038818386225
 30
0.0
 11
-1765.950586121661
 21
1645.038819386225
 31
0.0
  0
SOLID
  5
13955
330
13951
100
AcDbEntity
  8
SUNPOU
 62
     1
100
AcDbTrace
 10
-1766.450586121661
 20
1871.038818386225
 30
0.0
 11
-1765.45058612166
 21
1871.038818386225
 31
0.0
 12
-1765.950586121661
 22
1874.038818386225
 32
0.0
 13
-1765.950586121661
 23
1874.038818386225
 33
0.0
  0
SOLID
  5
13956
330
13951
100
AcDbEntity
  8
SUNPOU
 62
     1
100
AcDbTrace
 10
-1766.450586121661
 20
1645.038819386225
 30
0.0
 11
-1765.45058612166
 21
1645.038819386225
 31
0.0
 12
-1765.950586121661
 22
1642.038819386225
 32
0.0
 13
-1765.950586121661
 23
1642.038819386225
 33
0.0
  0
MTEXT
  5
13957
330
13951
100
AcDbEntity
  8
SUNPOU
 62
     1
100
AcDbMText
 10
-1768.700586121661
 20
1758.038818886225
 30
0.0
 40
3.5
 41
0.0
 71
     5
 72
     1
  1
\A1;232
  7
ゴシック体
 11
0.0000000000000001
 21
1.0
 31
0.0
1001
ACAD
1000
MTEXTBEGIN
1070
    73
1070
     1
1070
    44
1040
1.0
1070
    74
1070
     0
1000
MTEXTEND
  0
POINT
  5
13958
330
13951
100
AcDbEntity
  8
DEFPOINTS
 62
     0
100
AcDbPoint
 10
-1766.450586121661
 20
1874.038818386225
 30
0.0
  0
POINT
  5
13959
330
13951
100
AcDbEntity
  8
DEFPOINTS
 62
     0
100
AcDbPoint
 10
-1734.100500019063
 20
1642.038819386225
 30
0.0
  0
POINT
  5
1395A
330
13951
100
AcDbEntity
  8
DEFPOINTS
 62
     0
100
AcDbPoint
 10
-1765.950586121661
 20
1642.038819386225
 30
0.0
  0
ENDBLK
  5
1395C
330
13951
100
AcDbEntity
  8
0
100
AcDbBlockEnd
  0
BLOCK
  5
1396A
330
1395E
100
AcDbEntity
  8
0
100
AcDbBlockBegin
  2
*D41
 70
     1
 10
0.0
 20
0.0
 30
0.0
  3
*D41
  1

  0
LINE
  5
1395F
330
1395E
100
AcDbEntity
  8
SUNPOU
 62
     1
100
AcDbLine
 10
-1735.100500019063
 20
1642.038819386225
 30
0.0
 11
-1766.450586121661
 21
1642.038819386225
 31
0.0
  0
LINE
  5
13960
330
1395E
100
AcDbEntity
  8
SUNPOU
 62
     1
100
AcDbLine
 10
-1744.686270019063
 20
1636.038818386226
 30
0.0
 11
-1766.450586121661
 21
1636.038818386226
 31
0.0
  0
LINE
  5
13961
330
1395E
100
AcDbEntity
  8
SUNPOU
 62
     1
100
AcDbLine
 10
-1765.950586121661
 20
1645.038819386225
 30
0.0
 11
-1765.950586121661
 21
1648.038819386226
 31
0.0
  0
LINE
  5
13962
330
1395E
100
AcDbEntity
  8
SUNPOU
 62
     1
100
AcDbLine
 10
-1765.950586121661
 20
1633.038818386225
 30
0.0
 11
-1765.950586121661
 21
1630.038818386225
 31
0.0
  0
LINE
  5
13963
330
1395E
100
AcDbEntity
  8
SUNPOU
 62
     1
100
AcDbLine
 10
-1765.950586121661
 20
1642.038819386225
 30
0.0
 11
-1765.950586121661
 21
1636.038818386226
 31
0.0
  0
SOLID
  5
13964
330
1395E
100
AcDbEntity
  8
SUNPOU
 62
     1
100
AcDbTrace
 10
-1766.450586121661
 20
1645.038819386225
 30
0.0
 11
-1765.45058612166
 21
1645.038819386225
 31
0.0
 12
-1765.950586121661
 22
1642.038819386225
 32
0.0
 13
-1765.950586121661
 23
1642.038819386225
 33
0.0
  0
SOLID
  5
13965
330
1395E
100
AcDbEntity
  8
SUNPOU
 62
     1
100
AcDbTrace
 10
-1766.450586121661
 20
1633.038818386225
 30
0.0
 11
-1765.45058612166
 21
1633.038818386225
 31
0.0
 12
-1765.950586121661
 22
1636.038818386226
 32
0.0
 13
-1765.950586121661
 23
1636.038818386226
 33
0.0
  0
MTEXT
  5
13966
330
1395E
100
AcDbEntity
  8
SUNPOU
 62
     1
100
AcDbMText
 10
-1768.700586121661
 20
1639.038818886225
 30
0.0
 40
3.5
 41
0.0
 71
     5
 72
     1
  1
\A1;6
  7
ゴシック体
 11
0.0000000000000001
 21
1.0
 31
0.0
1001
ACAD
1000
MTEXTBEGIN
1070
    73
1070
     1
1070
    44
1040
1.0
1070
    74
1070
     0
1000
MTEXTEND
  0
POINT
  5
13967
330
1395E
100
AcDbEntity
  8
DEFPOINTS
 62
     0
100
AcDbPoint
 10
-1734.600500019062
 20
1642.038819386225
 30
0.0
  0
POINT
  5
13968
330
1395E
100
AcDbEntity
  8
DEFPOINTS
 62
     0
100
AcDbPoint
 10
-1744.186270019063
 20
1636.038818386226
 30
0.0
  0
POINT
  5
13969
330
1395E
100
AcDbEntity
  8
DEFPOINTS
 62
     0
100
AcDbPoint
 10
-1765.950586121661
 20
1636.038818386226
 30
0.0
  0
ENDBLK
  5
1396B
330
1395E
100
AcDbEntity
  8
0
100
AcDbBlockEnd
  0
BLOCK
  5
13977
330
1396D
100
AcDbEntity
  8
0
100
AcDbBlockBegin
  2
*D42
 70
     1
 10
0.0
 20
0.0
 30
0.0
  3
*D42
  1

  0
LINE
  5
1396E
330
1396D
100
AcDbEntity
  8
SUNPOU
 62
     1
100
AcDbLine
 10
-1750.100500019063
 20
1647.538820386226
 30
0.0
 11
-1750.100500019063
 21
1612.856609875819
 31
0.0
  0
LINE
  5
1396F
330
1396D
100
AcDbEntity
  8
SUNPOU
 62
     1
100
AcDbLine
 10
-1734.100500019063
 20
1638.538815386225
 30
0.0
 11
-1734.100500019063
 21
1612.856609875819
 31
0.0
  0
LINE
  5
13970
330
1396D
100
AcDbEntity
  8
SUNPOU
 62
     1
100
AcDbLine
 10
-1747.100500019063
 20
1613.356609875819
 30
0.0
 11
-1737.100500019063
 21
1613.356609875819
 31
0.0
  0
SOLID
  5
13971
330
1396D
100
AcDbEntity
  8
SUNPOU
 62
     1
100
AcDbTrace
 10
-1747.100500019063
 20
1613.85660987582
 30
0.0
 11
-1747.100500019063
 21
1612.856609875819
 31
0.0
 12
-1750.100500019063
 22
1613.356609875819
 32
0.0
 13
-1750.100500019063
 23
1613.356609875819
 33
0.0
  0
SOLID
  5
13972
330
1396D
100
AcDbEntity
  8
SUNPOU
 62
     1
100
AcDbTrace
 10
-1737.100500019063
 20
1613.85660987582
 30
0.0
 11
-1737.100500019063
 21
1612.856609875819
 31
0.0
 12
-1734.100500019063
 22
1613.356609875819
 32
0.0
 13
-1734.100500019063
 23
1613.356609875819
 33
0.0
  0
MTEXT
  5
13973
330
1396D
100
AcDbEntity
  8
SUNPOU
 62
     1
100
AcDbMText
 10
-1742.100500019063
 20
1616.106609875819
 30
0.0
 40
3.5
 41
0.0
 71
     5
 72
     1
  1
\A1;16
  7
ゴシック体
1001
ACAD
1000
MTEXTBEGIN
1070
    73
1070
     1
1070
    44
1040
1.0
1070
    74
1070
     0
1000
MTEXTEND
  0
POINT
  5
13974
330
1396D
100
AcDbEntity
  8
DEFPOINTS
 62
     0
100
AcDbPoint
 10
-1750.100500019063
 20
1648.038820386225
 30
0.0
  0
POINT
  5
13975
330
1396D
100
AcDbEntity
  8
DEFPOINTS
 62
     0
100
AcDbPoint
 10
-1734.100500019063
 20
1639.038815386225
 30
0.0
  0
POINT
  5
13976
330
1396D
100
AcDbEntity
  8
DEFPOINTS
 62
     0
100
AcDbPoint
 10
-1734.100500019063
 20
1613.356609875819
 30
0.0
  0
ENDBLK
  5
13978
330
1396D
100
AcDbEntity
  8
0
100
AcDbBlockEnd
  0
BLOCK
  5
13984
330
1397A
100
AcDbEntity
  8
0
100
AcDbBlockBegin
  2
*D43
 70
     1
 10
0.0
 20
0.0
 30
0.0
  3
*D43
  1

  0
LINE
  5
1397B
330
1397A
100
AcDbEntity
  8
SUNPOU
 62
     1
100
AcDbLine
 10
-1734.100500019063
 20
1613.85660987582
 30
0.0
 11
-1734.100500019063
 21
1614.015564500007
 31
0.0
  0
LINE
  5
1397C
330
1397A
100
AcDbEntity
  8
SUNPOU
 62
     1
100
AcDbLine
 10
-1714.100510019063
 20
1641.538825386225
 30
0.0
 11
-1714.100510019063
 21
1613.015564500008
 31
0.0
  0
LINE
  5
1397D
330
1397A
100
AcDbEntity
  8
SUNPOU
 62
     1
100
AcDbLine
 10
-1731.100500019063
 20
1613.515564500008
 30
0.0
 11
-1717.100510019063
 21
1613.515564500008
 31
0.0
  0
SOLID
  5
1397E
330
1397A
100
AcDbEntity
  8
SUNPOU
 62
     1
100
AcDbTrace
 10
-1731.100500019063
 20
1614.015564500007
 30
0.0
 11
-1731.100500019063
 21
1613.015564500008
 31
0.0
 12
-1734.100500019063
 22
1613.515564500008
 32
0.0
 13
-1734.100500019063
 23
1613.515564500008
 33
0.0
  0
SOLID
  5
1397F
330
1397A
100
AcDbEntity
  8
SUNPOU
 62
     1
100
AcDbTrace
 10
-1717.100510019063
 20
1614.015564500007
 30
0.0
 11
-1717.100510019063
 21
1613.015564500008
 31
0.0
 12
-1714.100510019063
 22
1613.515564500008
 32
0.0
 13
-1714.100510019063
 23
1613.515564500008
 33
0.0
  0
MTEXT
  5
13980
330
1397A
100
AcDbEntity
  8
SUNPOU
 62
     1
100
AcDbMText
 10
-1724.100505019063
 20
1616.265564500007
 30
0.0
 40
3.5
 41
0.0
 71
     5
 72
     1
  1
\A1;20
  7
ゴシック体
1001
ACAD
1000
MTEXTBEGIN
1070
    73
1070
     1
1070
    44
1040
1.0
1070
    74
1070
     0
1000
MTEXTEND
  0
POINT
  5
13981
330
1397A
100
AcDbEntity
  8
DEFPOINTS
 62
     0
100
AcDbPoint
 10
-1734.100500019063
 20
1613.356609875819
 30
0.0
  0
POINT
  5
13982
330
1397A
100
AcDbEntity
  8
DEFPOINTS
 62
     0
100
AcDbPoint
 10
-1714.100510019063
 20
1642.038825386226
 30
0.0
  0
POINT
  5
13983
330
1397A
100
AcDbEntity
  8
DEFPOINTS
 62
     0
100
AcDbPoint
 10
-1714.100510019063
 20
1613.515564500008
 30
0.0
  0
ENDBLK
  5
13985
330
1397A
100
AcDbEntity
  8
0
100
AcDbBlockEnd
  0
BLOCK
  5
13990
330
13987
100
AcDbEntity
  8
0
100
AcDbBlockBegin
  2
*D44
 70
     1
 10
0.0
 20
0.0
 30
0.0
  3
*D44
  1

  0
LINE
  5
13988
330
13987
100
AcDbEntity
  8
SUNPOU
 62
     1
100
AcDbLine
 10
-1697.600500019063
 20
1647.538820386226
 30
0.0
 11
-1697.600500019063
 21
1613.015564500008
 31
0.0
  0
LINE
  5
13989
330
13987
100
AcDbEntity
  8
SUNPOU
 62
     1
100
AcDbLine
 10
-1711.100510019063
 20
1613.515564500008
 30
0.0
 11
-1700.600500019063
 21
1613.515564500008
 31
0.0
  0
SOLID
  5
1398A
330
13987
100
AcDbEntity
  8
SUNPOU
 62
     1
100
AcDbTrace
 10
-1711.100510019063
 20
1614.015564500007
 30
0.0
 11
-1711.100510019063
 21
1613.015564500008
 31
0.0
 12
-1714.100510019063
 22
1613.515564500008
 32
0.0
 13
-1714.100510019063
 23
1613.515564500008
 33
0.0
  0
SOLID
  5
1398B
330
13987
100
AcDbEntity
  8
SUNPOU
 62
     1
100
AcDbTrace
 10
-1700.600500019063
 20
1614.015564500007
 30
0.0
 11
-1700.600500019063
 21
1613.015564500008
 31
0.0
 12
-1697.600500019063
 22
1613.515564500008
 32
0.0
 13
-1697.600500019063
 23
1613.515564500008
 33
0.0
  0
MTEXT
  5
1398C
330
13987
100
AcDbEntity
  8
SUNPOU
 62
     1
100
AcDbMText
 10
-1705.850505019063
 20
1616.265564500007
 30
0.0
 40
3.5
 41
0.0
 71
     5
 72
     1
  1
\A1;16.5
  7
ゴシック体
1001
ACAD
1000
MTEXTBEGIN
1070
    73
1070
     1
1070
    44
1040
1.0
1070
    74
1070
     0
1000
MTEXTEND
  0
POINT
  5
1398D
330
13987
100
AcDbEntity
  8
DEFPOINTS
 62
     0
100
AcDbPoint
 10
-1714.100510019063
 20
1613.515564500008
 30
0.0
  0
POINT
  5
1398E
330
13987
100
AcDbEntity
  8
DEFPOINTS
 62
     0
100
AcDbPoint
 10
-1697.600500019063
 20
1648.038820386225
 30
0.0
  0
POINT
  5
1398F
330
13987
100
AcDbEntity
  8
DEFPOINTS
 62
     0
100
AcDbPoint
 10
-1697.600500019063
 20
1613.515564500008
 30
0.0
  0
ENDBLK
  5
13991
330
13987
100
AcDbEntity
  8
0
100
AcDbBlockEnd
  0
BLOCK
  5
1399D
330
13993
100
AcDbEntity
  8
0
100
AcDbBlockBegin
  2
*D45
 70
     1
 10
0.0
 20
0.0
 30
0.0
  3
*D45
  1

  0
LINE
  5
13994
330
13993
100
AcDbEntity
  8
SUNPOU
 62
     1
100
AcDbLine
 10
-1750.100500019063
 20
1612.856609875819
 30
0.0
 11
-1750.100500019063
 21
1599.658465826965
 31
0.0
  0
LINE
  5
13995
330
13993
100
AcDbEntity
  8
SUNPOU
 62
     1
100
AcDbLine
 10
-1697.600500019063
 20
1612.515564500008
 30
0.0
 11
-1697.600500019063
 21
1599.658465826965
 31
0.0
  0
LINE
  5
13996
330
13993
100
AcDbEntity
  8
SUNPOU
 62
     1
100
AcDbLine
 10
-1747.100500019063
 20
1600.158465826964
 30
0.0
 11
-1700.600500019063
 21
1600.158465826964
 31
0.0
  0
SOLID
  5
13997
330
13993
100
AcDbEntity
  8
SUNPOU
 62
     1
100
AcDbTrace
 10
-1747.100500019063
 20
1600.658465826966
 30
0.0
 11
-1747.100500019063
 21
1599.658465826965
 31
0.0
 12
-1750.100500019063
 22
1600.158465826964
 32
0.0
 13
-1750.100500019063
 23
1600.158465826964
 33
0.0
  0
SOLID
  5
13998
330
13993
100
AcDbEntity
  8
SUNPOU
 62
     1
100
AcDbTrace
 10
-1700.600500019063
 20
1600.658465826966
 30
0.0
 11
-1700.600500019063
 21
1599.658465826965
 31
0.0
 12
-1697.600500019063
 22
1600.158465826964
 32
0.0
 13
-1697.600500019063
 23
1600.158465826964
 33
0.0
  0
MTEXT
  5
13999
330
13993
100
AcDbEntity
  8
SUNPOU
 62
     1
100
AcDbMText
 10
-1723.850500019063
 20
1602.908465826964
 30
0.0
 40
3.5
 41
0.0
 71
     5
 72
     1
  1
\A1;52.5
  7
ゴシック体
1001
ACAD
1000
MTEXTBEGIN
1070
    73
1070
     1
1070
    44
1040
1.0
1070
    74
1070
     0
1000
MTEXTEND
  0
POINT
  5
1399A
330
13993
100
AcDbEntity
  8
DEFPOINTS
 62
     0
100
AcDbPoint
 10
-1750.100500019063
 20
1613.356609875819
 30
0.0
  0
POINT
  5
1399B
330
13993
100
AcDbEntity
  8
DEFPOINTS
 62
     0
100
AcDbPoint
 10
-1697.600500019063
 20
1613.015564500008
 30
0.0
  0
POINT
  5
1399C
330
13993
100
AcDbEntity
  8
DEFPOINTS
 62
     0
100
AcDbPoint
 10
-1697.600500019063
 20
1600.158465826964
 30
0.0
  0
ENDBLK
  5
1399E
330
13993
100
AcDbEntity
  8
0
100
AcDbBlockEnd
  0
BLOCK
  5
139AC
330
139A0
100
AcDbEntity
  8
0
100
AcDbBlockBegin
  2
*D46
 70
     1
 10
0.0
 20
0.0
 30
0.0
  3
*D46
  1

  0
LINE
  5
139A1
330
139A0
100
AcDbEntity
  8
SUNPOU
 62
     1
100
AcDbLine
 10
-1736.350490019063
 20
1635.538818386225
 30
0.0
 11
-1736.350490019063
 21
1625.970213208725
 31
0.0
  0
LINE
  5
139A2
330
139A0
100
AcDbEntity
  8
SUNPOU
 62
     1
100
AcDbLine
 10
-1731.850500019063
 20
1635.538818386225
 30
0.0
 11
-1731.850500019063
 21
1625.970213208725
 31
0.0
  0
LINE
  5
139A3
330
139A0
100
AcDbEntity
  8
SUNPOU
 62
     1
100
AcDbLine
 10
-1739.350490019063
 20
1626.470213208725
 30
0.0
 11
-1742.350490019063
 21
1626.470213208725
 31
0.0
  0
LINE
  5
139A4
330
139A0
100
AcDbEntity
  8
SUNPOU
 62
     1
100
AcDbLine
 10
-1728.850500019063
 20
1626.470213208725
 30
0.0
 11
-1717.436794435307
 21
1626.470213208725
 31
0.0
  0
LINE
  5
139A5
330
139A0
100
AcDbEntity
  8
SUNPOU
 62
     1
100
AcDbLine
 10
-1736.350490019063
 20
1626.470213208725
 30
0.0
 11
-1731.850500019063
 21
1626.470213208725
 31
0.0
  0
SOLID
  5
139A6
330
139A0
100
AcDbEntity
  8
SUNPOU
 62
     1
100
AcDbTrace
 10
-1739.350490019063
 20
1626.970213208726
 30
0.0
 11
-1739.350490019063
 21
1625.970213208725
 31
0.0
 12
-1736.350490019063
 22
1626.470213208725
 32
0.0
 13
-1736.350490019063
 23
1626.470213208725
 33
0.0
  0
SOLID
  5
139A7
330
139A0
100
AcDbEntity
  8
SUNPOU
 62
     1
100
AcDbTrace
 10
-1728.850500019063
 20
1626.970213208726
 30
0.0
 11
-1728.850500019063
 21
1625.970213208725
 31
0.0
 12
-1731.850500019063
 22
1626.470213208725
 32
0.0
 13
-1731.850500019063
 23
1626.470213208725
 33
0.0
  0
MTEXT
  5
139A8
330
139A0
100
AcDbEntity
  8
SUNPOU
 62
     1
100
AcDbMText
 10
-1721.643647227185
 20
1629.220213208727
 30
0.0
 40
3.5
 41
0.0
 71
     5
 72
     1
  1
\A1;4.5
  7
ゴシック体
1001
ACAD
1000
MTEXTBEGIN
1070
    73
1070
     1
1070
    44
1040
1.0
1070
    74
1070
     0
1000
MTEXTEND
  0
POINT
  5
139A9
330
139A0
100
AcDbEntity
  8
DEFPOINTS
 62
     0
100
AcDbPoint
 10
-1736.350490019063
 20
1636.038818386226
 30
0.0
  0
POINT
  5
139AA
330
139A0
100
AcDbEntity
  8
DEFPOINTS
 62
     0
100
AcDbPoint
 10
-1731.850500019063
 20
1636.038818386226
 30
0.0
  0
POINT
  5
139AB
330
139A0
100
AcDbEntity
  8
DEFPOINTS
 62
     0
100
AcDbPoint
 10
-1731.850500019063
 20
1626.470213208725
 30
0.0
  0
ENDBLK
  5
139AD
330
139A0
100
AcDbEntity
  8
0
100
AcDbBlockEnd
  0
ENDSEC
  0
SECTION
  2
ENTITIES
  0
MTEXT
  5
5084
330
1A
100
AcDbEntity
  8
0
100
AcDbMText
 10
1985.239088685434
 20
-948.5420423450428
 30
0.0
 40
8.0
 41
0.0
 71
     7
 72
     5
  1

1001
ACAD
1000
MTEXTBEGIN
1070
    73
1070
     1
1070
    44
1040
1.0
1070
    74
1070
     0
1000
MTEXTEND
  0
MTEXT
  5
5085
330
1A
100
AcDbEntity
  8
0
100
AcDbMText
 10
4270.596778580329
 20
22.24825240601648
 30
0.0
 40
8.0
 41
0.0
 71
     7
 72
     5
  1

1001
ACAD
1000
MTEXTBEGIN
1070
    73
1070
     1
1070
    44
1040
1.0
1070
    74
1070
     0
1000
MTEXTEND
  0
MTEXT
  5
5343
330
1A
100
AcDbEntity
  8
SUNPOU
100
AcDbMText
 10
6936.493799262471
 20
9534.359644781137
 30
0.0
 40
10.5
 41
0.0
 71
     1
 72
     5
  1

1001
ACAD
1000
MTEXTBEGIN
1070
    73
1070
     1
1070
    44
1040
1.0
1070
    74
1070
     0
1000
MTEXTEND
  0
MTEXT
  5
544F
330
1A
100
AcDbEntity
  8
0
100
AcDbMText
 10
16317.2832773148
 20
12833.35428897674
 30
0.0
 40
8.0
 41
0.0
 71
     7
 72
     5
  1

1001
ACAD
1000
MTEXTBEGIN
1070
    73
1070
     1
1070
    44
1040
1.0
1070
    74
1070
     0
1000
MTEXTEND
  0
MTEXT
  5
5450
330
1A
100
AcDbEntity
  8
0
100
AcDbMText
 10
18602.64096720968
 20
13804.1445837278
 30
0.0
 40
8.0
 41
0.0
 71
     7
 72
     5
  1

1001
ACAD
1000
MTEXTBEGIN
1070
    73
1070
     1
1070
    44
1040
1.0
1070
    74
1070
     0
1000
MTEXTEND
  0
MTEXT
  5
5451
330
1A
100
AcDbEntity
  8
SUNPOU
100
AcDbMText
 10
21268.53798789184
 20
23316.25597610292
 30
0.0
 40
10.5
 41
0.0
 71
     1
 72
     5
  1

1001
ACAD
1000
MTEXTBEGIN
1070
    73
1070
     1
1070
    44
1040
1.0
1070
    74
1070
     0
1000
MTEXTEND
  0
MTEXT
  5
5452
330
1A
100
AcDbEntity
  8
SUNPOU
100
AcDbMText
 10
13337.6147919559
 20
22369.46284218996
 30
0.0
 40
10.5
 41
0.0
 71
     7
 72
     5
  1

1001
ACAD
1000
MTEXTBEGIN
1070
    73
1070
     1
1070
    44
1040
1.0
1070
    74
1070
     0
1000
MTEXTEND
  0
MTEXT
  5
5453
330
1A
100
AcDbEntity
  8
SUNPOU
100
AcDbMText
 10
16286.59845646867
 20
27270.1389140328
 30
0.0
 40
10.5
 41
0.0
 71
     7
 72
     5
  1

1001
ACAD
1000
MTEXTBEGIN
1070
    73
1070
     1
1070
    44
1040
1.0
1070
    74
1070
     0
1000
MTEXTEND
  0
MTEXT
  5
5454
330
1A
100
AcDbEntity
  8
SUNPOU
100
AcDbMText
 10
20795.67658441924
 20
29706.43966165288
 30
0.0
 40
10.5
 41
0.0
 71
     7
 72
     5
  1

1001
ACAD
1000
MTEXTBEGIN
1070
    73
1070
     1
1070
    44
1040
1.0
1070
    74
1070
     0
1000
MTEXTEND
  0
MTEXT
  5
5455
330
1A
100
AcDbEntity
  8
0
100
AcDbMText
 10
16611.93789220313
 20
14707.52144344448
 30
0.0
 40
8.0
 41
0.0
 71
     7
 72
     5
  1

1001
ACAD
1000
MTEXTBEGIN
1070
    73
1070
     1
1070
    44
1040
1.0
1070
    74
1070
     0
1000
MTEXTEND
  0
MTEXT
  5
5456
330
1A
100
AcDbEntity
  8
0
100
AcDbMText
 10
18897.29558209803
 20
15678.31173819554
 30
0.0
 40
8.0
 41
0.0
 71
     7
 72
     5
  1

1001
ACAD
1000
MTEXTBEGIN
1070
    73
1070
     1
1070
    44
1040
1.0
1070
    74
1070
     0
1000
MTEXTEND
  0
MTEXT
  5
5457
330
1A
100
AcDbEntity
  8
SUNPOU
100
AcDbMText
 10
21563.19260278019
 20
25190.42313057066
 30
0.0
 40
10.5
 41
0.0
 71
     1
 72
     5
  1

1001
ACAD
1000
MTEXTBEGIN
1070
    73
1070
     1
1070
    44
1040
1.0
1070
    74
1070
     0
1000
MTEXTEND
  0
MTEXT
  5
5458
330
1A
100
AcDbEntity
  8
SUNPOU
100
AcDbMText
 10
13632.26940684425
 20
24243.6299966577
 30
0.0
 40
10.5
 41
0.0
 71
     7
 72
     5
  1

1001
ACAD
1000
MTEXTBEGIN
1070
    73
1070
     1
1070
    44
1040
1.0
1070
    74
1070
     0
1000
MTEXTEND
  0
MTEXT
  5
5459
330
1A
100
AcDbEntity
  8
SUNPOU
100
AcDbMText
 10
16581.25307135702
 20
29144.30606850055
 30
0.0
 40
10.5
 41
0.0
 71
     7
 72
     5
  1

1001
ACAD
1000
MTEXTBEGIN
1070
    73
1070
     1
1070
    44
1040
1.0
1070
    74
1070
     0
1000
MTEXTEND
  0
MTEXT
  5
545A
330
1A
100
AcDbEntity
  8
SUNPOU
100
AcDbMText
 10
21090.33119930759
 20
31580.60681612062
 30
0.0
 40
10.5
 41
0.0
 71
     7
 72
     5
  1

1001
ACAD
1000
MTEXTBEGIN
1070
    73
1070
     1
1070
    44
1040
1.0
1070
    74
1070
     0
1000
MTEXTEND
  0
MTEXT
  5
545B
330
1A
100
AcDbEntity
  8
0
100
AcDbMText
 10
22871.60517627166
 20
23974.88367124799
 30
0.0
 40
8.0
 41
0.0
 71
     7
 72
     5
  1

1001
ACAD
1000
MTEXTBEGIN
1070
    73
1070
     1
1070
    44
1040
1.0
1070
    74
1070
     0
1000
MTEXTEND
  0
MTEXT
  5
545C
330
1A
100
AcDbEntity
  8
0
100
AcDbMText
 10
25156.96286616656
 20
24945.67396599905
 30
0.0
 40
8.0
 41
0.0
 71
     7
 72
     5
  1

1001
ACAD
1000
MTEXTBEGIN
1070
    73
1070
     1
1070
    44
1040
1.0
1070
    74
1070
     0
1000
MTEXTEND
  0
MTEXT
  5
545D
330
1A
100
AcDbEntity
  8
SUNPOU
100
AcDbMText
 10
27822.85988684871
 20
34457.78535837418
 30
0.0
 40
10.5
 41
0.0
 71
     1
 72
     5
  1

1001
ACAD
1000
MTEXTBEGIN
1070
    73
1070
     1
1070
    44
1040
1.0
1070
    74
1070
     0
1000
MTEXTEND
  0
MTEXT
  5
545E
330
1A
100
AcDbEntity
  8
SUNPOU
100
AcDbMText
 10
19891.93669091278
 20
33510.99222446122
 30
0.0
 40
10.5
 41
0.0
 71
     7
 72
     5
  1

1001
ACAD
1000
MTEXTBEGIN
1070
    73
1070
     1
1070
    44
1040
1.0
1070
    74
1070
     0
1000
MTEXTEND
  0
MTEXT
  5
545F
330
1A
100
AcDbEntity
  8
SUNPOU
100
AcDbMText
 10
22840.92035542555
 20
38411.66829630406
 30
0.0
 40
10.5
 41
0.0
 71
     7
 72
     5
  1

1001
ACAD
1000
MTEXTBEGIN
1070
    73
1070
     1
1070
    44
1040
1.0
1070
    74
1070
     0
1000
MTEXTEND
  0
MTEXT
  5
5460
330
1A
100
AcDbEntity
  8
SUNPOU
100
AcDbMText
 10
27349.99848337611
 20
40847.96904392415
 30
0.0
 40
10.5
 41
0.0
 71
     7
 72
     5
  1

1001
ACAD
1000
MTEXTBEGIN
1070
    73
1070
     1
1070
    44
1040
1.0
1070
    74
1070
     0
1000
MTEXTEND
  0
MTEXT
  5
55B7
330
1A
100
AcDbEntity
  8
SUNPOU
100
AcDbMText
 10
67424.23923338197
 20
64463.86602884816
 30
0.0
 40
10.5
 41
0.0
 71
     9
 72
     5
  1

1001
ACAD
1000
MTEXTBEGIN
1070
    73
1070
     1
1070
    44
1040
1.0
1070
    74
1070
     0
1000
MTEXTEND
  0
MTEXT
  5
55B8
330
1A
100
AcDbEntity
  8
SUNPOU
100
AcDbMText
 10
76146.40679929998
 20
71879.70056038563
 30
0.0
 40
10.5
 41
0.0
 71
     9
 72
     5
  1

1001
ACAD
1000
MTEXTBEGIN
1070
    73
1070
     1
1070
    44
1040
1.0
1070
    74
1070
     0
1000
MTEXTEND
  0
MTEXT
  5
55B9
330
1A
100
AcDbEntity
  8
SUNPOU
100
AcDbMText
 10
95100.16551662994
 20
89346.27661287766
 30
0.0
 40
10.5
 41
0.0
 71
     9
 72
     5
  1

1001
ACAD
1000
MTEXTBEGIN
1070
    73
1070
     1
1070
    44
1040
1.0
1070
    74
1070
     0
1000
MTEXTEND
  0
MTEXT
  5
55BA
330
1A
100
AcDbEntity
  8
SUNPOU
100
AcDbMText
 10
97043.57276333935
 20
87545.22753299966
 30
0.0
 40
3.5
 41
0.0
 71
     9
 72
     5
  1

1001
ACAD
1000
MTEXTBEGIN
1070
    73
1070
     1
1070
    44
1040
1.0
1070
    74
1070
     0
1000
MTEXTEND
  0
MTEXT
  5
55BB
330
1A
100
AcDbEntity
  8
SUNPOU
100
AcDbMText
 10
128169.7525959589
 20
130040.1732006569
 30
0.0
 40
10.5
 41
0.0
 71
     9
 72
     5
  1

1001
ACAD
1000
MTEXTBEGIN
1070
    73
1070
     1
1070
    44
1040
1.0
1070
    74
1070
     0
1000
MTEXTEND
  0
MTEXT
  5
55BC
330
1A
100
AcDbEntity
  8
SUNPOU
100
AcDbMText
 10
130113.1598426684
 20
128239.1241207789
 30
0.0
 40
3.5
 41
0.0
 71
     9
 72
     5
  1

1001
ACAD
1000
MTEXTBEGIN
1070
    73
1070
     1
1070
    44
1040
1.0
1070
    74
1070
     0
1000
MTEXTEND
  0
MTEXT
  5
55BD
330
1A
100
AcDbEntity
  8
SUNPOU
100
AcDbMText
 10
78610.02030175463
 20
75873.33835563206
 30
0.0
 40
10.5
 41
0.0
 71
     9
 72
     5
  1

1001
ACAD
1000
MTEXTBEGIN
1070
    73
1070
     1
1070
    44
1040
1.0
1070
    74
1070
     0
1000
MTEXTEND
  0
MTEXT
  5
55BE
330
1A
100
AcDbEntity
  8
SUNPOU
100
AcDbMText
 10
64662.02020137862
 20
56700.93921651987
 30
0.0
 40
3.5
 41
0.0
 71
     7
 72
     5
  1

1001
ACAD
1000
MTEXTBEGIN
1070
    73
1070
     1
1070
    44
1040
1.0
1070
    74
1070
     0
1000
MTEXTEND
  0
MTEXT
  5
55BF
330
1A
100
AcDbEntity
  8
SUNPOU
100
AcDbMText
 10
45647.18959837177
 20
44463.08794733806
 30
0.0
 40
10.5
 41
0.0
 71
     7
 72
     5
  1

1001
ACAD
1000
MTEXTBEGIN
1070
    73
1070
     1
1070
    44
1040
1.0
1070
    74
1070
     0
1000
MTEXTEND
  0
MTEXT
  5
55C0
330
1A
100
AcDbEntity
  8
SUNPOU
100
AcDbMText
 10
33189.96133342368
 20
28618.15636923965
 30
0.0
 40
35.0
 41
0.0
 71
     9
 72
     5
  1

1001
ACAD
1000
MTEXTBEGIN
1070
    73
1070
     1
1070
    44
1040
1.0
1070
    74
1070
     0
1000
MTEXTEND
  0
MTEXT
  5
55C1
330
1A
100
AcDbEntity
  8
SUNPOU
100
AcDbMText
 10
32098.44639099864
 20
29226.93177928834
 30
0.0
 40
350.0000004171781
 41
0.0
 71
     7
 72
     5
  1

1001
ACAD
1000
MTEXTBEGIN
1070
    73
1070
     1
1070
    44
1040
1.0
1070
    74
1070
     0
1000
MTEXTEND
  0
MTEXT
  5
55C2
330
1A
100
AcDbEntity
  8
0
100
AcDbMText
 10
38142.39714894154
 20
27206.85414142458
 30
0.0
 40
8.0
 41
0.0
 71
     7
 72
     5
  1

1001
ACAD
1000
MTEXTBEGIN
1070
    73
1070
     1
1070
    44
1040
1.0
1070
    74
1070
     0
1000
MTEXTEND
  0
MTEXT
  5
55C3
330
1A
100
AcDbEntity
  8
0
100
AcDbMText
 10
40427.75483883644
 20
28177.64443617564
 30
0.0
 40
8.0
 41
0.0
 71
     7
 72
     5
  1

1001
ACAD
1000
MTEXTBEGIN
1070
    73
1070
     1
1070
    44
1040
1.0
1070
    74
1070
     0
1000
MTEXTEND
  0
MTEXT
  5
55C4
330
1A
100
AcDbEntity
  8
SUNPOU
100
AcDbMText
 10
43093.65185951858
 20
37689.75582855077
 30
0.0
 40
10.5
 41
0.0
 71
     1
 72
     5
  1

1001
ACAD
1000
MTEXTBEGIN
1070
    73
1070
     1
1070
    44
1040
1.0
1070
    74
1070
     0
1000
MTEXTEND
  0
MTEXT
  5
55C5
330
1A
100
AcDbEntity
  8
SUNPOU
100
AcDbMText
 10
35162.72866358265
 20
36742.96269463781
 30
0.0
 40
10.5
 41
0.0
 71
     7
 72
     5
  1

1001
ACAD
1000
MTEXTBEGIN
1070
    73
1070
     1
1070
    44
1040
1.0
1070
    74
1070
     0
1000
MTEXTEND
  0
MTEXT
  5
55C6
330
1A
100
AcDbEntity
  8
SUNPOU
100
AcDbMText
 10
38111.71232809542
 20
41643.63876648065
 30
0.0
 40
10.5
 41
0.0
 71
     7
 72
     5
  1

1001
ACAD
1000
MTEXTBEGIN
1070
    73
1070
     1
1070
    44
1040
1.0
1070
    74
1070
     0
1000
MTEXTEND
  0
MTEXT
  5
55C7
330
1A
100
AcDbEntity
  8
SUNPOU
100
AcDbMText
 10
42620.79045604596
 20
44079.93951410074
 30
0.0
 40
10.5
 41
0.0
 71
     7
 72
     5
  1

1001
ACAD
1000
MTEXTBEGIN
1070
    73
1070
     1
1070
    44
1040
1.0
1070
    74
1070
     0
1000
MTEXTEND
  0
MTEXT
  5
55C8
330
1A
100
AcDbEntity
  8
SUNPOU
100
AcDbMText
 10
26221.62834281429
 20
23077.53566448964
 30
0.0
 40
10.5
 41
0.0
 71
     7
 72
     5
  1

1001
ACAD
1000
MTEXTBEGIN
1070
    73
1070
     1
1070
    44
1040
1.0
1070
    74
1070
     0
1000
MTEXTEND
  0
MTEXT
  5
55C9
330
1A
100
AcDbEntity
  8
SUNPOU
100
AcDbMText
 10
77413.14677671455
 20
68750.51622813789
 30
0.0
 40
10.5
 41
0.0
 71
     9
 72
     5
  1

1001
ACAD
1000
MTEXTBEGIN
1070
    73
1070
     1
1070
    44
1040
1.0
1070
    74
1070
     0
1000
MTEXTEND
  0
MTEXT
  5
55CA
330
1A
100
AcDbEntity
  8
SUNPOU
100
AcDbMText
 10
86135.31434263256
 20
76166.35075967536
 30
0.0
 40
10.5
 41
0.0
 71
     9
 72
     5
  1

1001
ACAD
1000
MTEXTBEGIN
1070
    73
1070
     1
1070
    44
1040
1.0
1070
    74
1070
     0
1000
MTEXTEND
  0
MTEXT
  5
55CB
330
1A
100
AcDbEntity
  8
SUNPOU
100
AcDbMText
 10
105089.0730599624
 20
93632.92681216739
 30
0.0
 40
10.5
 41
0.0
 71
     9
 72
     5
  1

1001
ACAD
1000
MTEXTBEGIN
1070
    73
1070
     1
1070
    44
1040
1.0
1070
    74
1070
     0
1000
MTEXTEND
  0
MTEXT
  5
55CC
330
1A
100
AcDbEntity
  8
SUNPOU
100
AcDbMText
 10
107032.4803066718
 20
91831.87773228938
 30
0.0
 40
3.5
 41
0.0
 71
     9
 72
     5
  1

1001
ACAD
1000
MTEXTBEGIN
1070
    73
1070
     1
1070
    44
1040
1.0
1070
    74
1070
     0
1000
MTEXTEND
  0
MTEXT
  5
55CD
330
1A
100
AcDbEntity
  8
SUNPOU
100
AcDbMText
 10
138158.6601392916
 20
134326.8233999467
 30
0.0
 40
10.5
 41
0.0
 71
     9
 72
     5
  1

1001
ACAD
1000
MTEXTBEGIN
1070
    73
1070
     1
1070
    44
1040
1.0
1070
    74
1070
     0
1000
MTEXTEND
  0
MTEXT
  5
55CE
330
1A
100
AcDbEntity
  8
SUNPOU
100
AcDbMText
 10
140102.067386001
 20
132525.7743200686
 30
0.0
 40
3.5
 41
0.0
 71
     9
 72
     5
  1

1001
ACAD
1000
MTEXTBEGIN
1070
    73
1070
     1
1070
    44
1040
1.0
1070
    74
1070
     0
1000
MTEXTEND
  0
MTEXT
  5
55CF
330
1A
100
AcDbEntity
  8
SUNPOU
100
AcDbMText
 10
88598.92784508721
 20
80159.98855492179
 30
0.0
 40
10.5
 41
0.0
 71
     9
 72
     5
  1

1001
ACAD
1000
MTEXTBEGIN
1070
    73
1070
     1
1070
    44
1040
1.0
1070
    74
1070
     0
1000
MTEXTEND
  0
MTEXT
  5
55D0
330
1A
100
AcDbEntity
  8
SUNPOU
100
AcDbMText
 10
74650.92774471121
 20
60987.58941580959
 30
0.0
 40
3.5
 41
0.0
 71
     7
 72
     5
  1

1001
ACAD
1000
MTEXTBEGIN
1070
    73
1070
     1
1070
    44
1040
1.0
1070
    74
1070
     0
1000
MTEXTEND
  0
MTEXT
  5
55D1
330
1A
100
AcDbEntity
  8
SUNPOU
100
AcDbMText
 10
55636.09714170436
 20
48749.73814662781
 30
0.0
 40
10.5
 41
0.0
 71
     7
 72
     5
  1

1001
ACAD
1000
MTEXTBEGIN
1070
    73
1070
     1
1070
    44
1040
1.0
1070
    74
1070
     0
1000
MTEXTEND
  0
MTEXT
  5
55D2
330
1A
100
AcDbEntity
  8
SUNPOU
100
AcDbMText
 10
43178.86887675626
 20
32904.80656852937
 30
0.0
 40
35.0
 41
0.0
 71
     9
 72
     5
  1

1001
ACAD
1000
MTEXTBEGIN
1070
    73
1070
     1
1070
    44
1040
1.0
1070
    74
1070
     0
1000
MTEXTEND
  0
MTEXT
  5
55D3
330
1A
100
AcDbEntity
  8
SUNPOU
100
AcDbMText
 10
42087.3539343312
 20
33513.58197857808
 30
0.0
 40
350.0000004171781
 41
0.0
 71
     7
 72
     5
  1

1001
ACAD
1000
MTEXTBEGIN
1070
    73
1070
     1
1070
    44
1040
1.0
1070
    74
1070
     0
1000
MTEXTEND
  0
MTEXT
  5
55D4
330
1A
100
AcDbEntity
  8
0
100
AcDbMText
 10
48131.30469227412
 20
31493.50434071431
 30
0.0
 40
8.0
 41
0.0
 71
     7
 72
     5
  1

1001
ACAD
1000
MTEXTBEGIN
1070
    73
1070
     1
1070
    44
1040
1.0
1070
    74
1070
     0
1000
MTEXTEND
  0
MTEXT
  5
55D5
330
1A
100
AcDbEntity
  8
0
100
AcDbMText
 10
50416.66238216901
 20
32464.29463546537
 30
0.0
 40
8.0
 41
0.0
 71
     7
 72
     5
  1

1001
ACAD
1000
MTEXTBEGIN
1070
    73
1070
     1
1070
    44
1040
1.0
1070
    74
1070
     0
1000
MTEXTEND
  0
MTEXT
  5
55D6
330
1A
100
AcDbEntity
  8
SUNPOU
100
AcDbMText
 10
53082.55940285115
 20
41976.4060278405
 30
0.0
 40
10.5
 41
0.0
 71
     1
 72
     5
  1

1001
ACAD
1000
MTEXTBEGIN
1070
    73
1070
     1
1070
    44
1040
1.0
1070
    74
1070
     0
1000
MTEXTEND
  0
MTEXT
  5
55D7
330
1A
100
AcDbEntity
  8
SUNPOU
100
AcDbMText
 10
45151.63620691521
 20
41029.61289392755
 30
0.0
 40
10.5
 41
0.0
 71
     7
 72
     5
  1

1001
ACAD
1000
MTEXTBEGIN
1070
    73
1070
     1
1070
    44
1040
1.0
1070
    74
1070
     0
1000
MTEXTEND
  0
MTEXT
  5
55D8
330
1A
100
AcDbEntity
  8
SUNPOU
100
AcDbMText
 10
48100.61987142798
 20
45930.28896577039
 30
0.0
 40
10.5
 41
0.0
 71
     7
 72
     5
  1

1001
ACAD
1000
MTEXTBEGIN
1070
    73
1070
     1
1070
    44
1040
1.0
1070
    74
1070
     0
1000
MTEXTEND
  0
MTEXT
  5
55D9
330
1A
100
AcDbEntity
  8
SUNPOU
100
AcDbMText
 10
52609.69799937853
 20
48366.58971339046
 30
0.0
 40
10.5
 41
0.0
 71
     7
 72
     5
  1

1001
ACAD
1000
MTEXTBEGIN
1070
    73
1070
     1
1070
    44
1040
1.0
1070
    74
1070
     0
1000
MTEXTEND
  0
MTEXT
  5
55DA
330
1A
100
AcDbEntity
  8
SUNPOU
100
AcDbMText
 10
36210.53588614687
 20
27364.18586377937
 30
0.0
 40
10.5
 41
0.0
 71
     7
 72
     5
  1

1001
ACAD
1000
MTEXTBEGIN
1070
    73
1070
     1
1070
    44
1040
1.0
1070
    74
1070
     0
1000
MTEXTEND
  0
MTEXT
  5
55DB
330
1A
100
AcDbEntity
  8
SUNPOU
100
AcDbMText
 10
38021.29879752181
 20
33691.59985125794
 30
0.0
 40
10.5
 41
0.0
 71
     9
 72
     5
  1

1001
ACAD
1000
MTEXTBEGIN
1070
    73
1070
     1
1070
    44
1040
1.0
1070
    74
1070
     0
1000
MTEXTEND
  0
MTEXT
  5
55DC
330
1A
100
AcDbEntity
  8
SUNPOU
100
AcDbMText
 10
46743.46636343979
 20
41107.4343827954
 30
0.0
 40
10.5
 41
0.0
 71
     9
 72
     5
  1

1001
ACAD
1000
MTEXTBEGIN
1070
    73
1070
     1
1070
    44
1040
1.0
1070
    74
1070
     0
1000
MTEXTEND
  0
MTEXT
  5
55DD
330
1A
100
AcDbEntity
  8
SUNPOU
100
AcDbMText
 10
65697.22508076974
 20
58574.01043528746
 30
0.0
 40
10.5
 41
0.0
 71
     9
 72
     5
  1

1001
ACAD
1000
MTEXTBEGIN
1070
    73
1070
     1
1070
    44
1040
1.0
1070
    74
1070
     0
1000
MTEXTEND
  0
MTEXT
  5
55DE
330
1A
100
AcDbEntity
  8
SUNPOU
100
AcDbMText
 10
67640.63232747917
 20
56772.96135540945
 30
0.0
 40
3.5
 41
0.0
 71
     9
 72
     5
  1

1001
ACAD
1000
MTEXTBEGIN
1070
    73
1070
     1
1070
    44
1040
1.0
1070
    74
1070
     0
1000
MTEXTEND
  0
MTEXT
  5
55DF
330
1A
100
AcDbEntity
  8
SUNPOU
100
AcDbMText
 10
98766.81216009886
 20
99267.9070230668
 30
0.0
 40
10.5
 41
0.0
 71
     9
 72
     5
  1

1001
ACAD
1000
MTEXTBEGIN
1070
    73
1070
     1
1070
    44
1040
1.0
1070
    74
1070
     0
1000
MTEXTEND
  0
MTEXT
  5
55E0
330
1A
100
AcDbEntity
  8
SUNPOU
100
AcDbMText
 10
100710.2194068083
 20
97466.85794318876
 30
0.0
 40
3.5
 41
0.0
 71
     9
 72
     5
  1

1001
ACAD
1000
MTEXTBEGIN
1070
    73
1070
     1
1070
    44
1040
1.0
1070
    74
1070
     0
1000
MTEXTEND
  0
MTEXT
  5
55E1
330
1A
100
AcDbEntity
  8
SUNPOU
100
AcDbMText
 10
49207.07986589443
 20
45101.07217804184
 30
0.0
 40
10.5
 41
0.0
 71
     9
 72
     5
  1

1001
ACAD
1000
MTEXTBEGIN
1070
    73
1070
     1
1070
    44
1040
1.0
1070
    74
1070
     0
1000
MTEXTEND
  0
MTEXT
  5
55E2
330
1A
100
AcDbEntity
  8
SUNPOU
100
AcDbMText
 10
35259.07976551845
 20
25928.67303892964
 30
0.0
 40
3.5
 41
0.0
 71
     7
 72
     5
  1

1001
ACAD
1000
MTEXTBEGIN
1070
    73
1070
     1
1070
    44
1040
1.0
1070
    74
1070
     0
1000
MTEXTEND
  0
MTEXT
  5
55E3
330
1A
100
AcDbEntity
  8
SUNPOU
100
AcDbMText
 10
48951.43044828905
 20
35287.73625995099
 30
0.0
 40
10.5
 41
0.0
 71
     9
 72
     5
  1

1001
ACAD
1000
MTEXTBEGIN
1070
    73
1070
     1
1070
    44
1040
1.0
1070
    74
1070
     0
1000
MTEXTEND
  0
MTEXT
  5
55E4
330
1A
100
AcDbEntity
  8
SUNPOU
100
AcDbMText
 10
57673.59801420702
 20
42703.57079148847
 30
0.0
 40
10.5
 41
0.0
 71
     9
 72
     5
  1

1001
ACAD
1000
MTEXTBEGIN
1070
    73
1070
     1
1070
    44
1040
1.0
1070
    74
1070
     0
1000
MTEXTEND
  0
MTEXT
  5
55E5
330
1A
100
AcDbEntity
  8
SUNPOU
100
AcDbMText
 10
76627.35673153699
 20
60170.14684398051
 30
0.0
 40
10.5
 41
0.0
 71
     9
 72
     5
  1

1001
ACAD
1000
MTEXTBEGIN
1070
    73
1070
     1
1070
    44
1040
1.0
1070
    74
1070
     0
1000
MTEXTEND
  0
MTEXT
  5
55E6
330
1A
100
AcDbEntity
  8
SUNPOU
100
AcDbMText
 10
78570.76397824641
 20
58369.09776410251
 30
0.0
 40
3.5
 41
0.0
 71
     9
 72
     5
  1

1001
ACAD
1000
MTEXTBEGIN
1070
    73
1070
     1
1070
    44
1040
1.0
1070
    74
1070
     0
1000
MTEXTEND
  0
MTEXT
  5
55E7
330
1A
100
AcDbEntity
  8
SUNPOU
100
AcDbMText
 10
109696.943810866
 20
100864.0434317598
 30
0.0
 40
10.5
 41
0.0
 71
     9
 72
     5
  1

1001
ACAD
1000
MTEXTBEGIN
1070
    73
1070
     1
1070
    44
1040
1.0
1070
    74
1070
     0
1000
MTEXTEND
  0
MTEXT
  5
55E8
330
1A
100
AcDbEntity
  8
SUNPOU
100
AcDbMText
 10
111640.3510575755
 20
99062.99435188183
 30
0.0
 40
3.5
 41
0.0
 71
     9
 72
     5
  1

1001
ACAD
1000
MTEXTBEGIN
1070
    73
1070
     1
1070
    44
1040
1.0
1070
    74
1070
     0
1000
MTEXTEND
  0
MTEXT
  5
55E9
330
1A
100
AcDbEntity
  8
SUNPOU
100
AcDbMText
 10
60137.21151666167
 20
46697.20858673491
 30
0.0
 40
10.5
 41
0.0
 71
     9
 72
     5
  1

1001
ACAD
1000
MTEXTBEGIN
1070
    73
1070
     1
1070
    44
1040
1.0
1070
    74
1070
     0
1000
MTEXTEND
  0
MTEXT
  5
55EA
330
1A
100
AcDbEntity
  8
SUNPOU
100
AcDbMText
 10
46189.21141628568
 20
27524.80944762269
 30
0.0
 40
3.5
 41
0.0
 71
     7
 72
     5
  1

1001
ACAD
1000
MTEXTBEGIN
1070
    73
1070
     1
1070
    44
1040
1.0
1070
    74
1070
     0
1000
MTEXTEND
  0
MTEXT
  5
55EB
330
1A
100
AcDbEntity
  8
SUNPOU
100
AcDbMText
 10
45007.68847015541
 20
38269.57947701873
 30
0.0
 40
10.5
 41
0.0
 71
     9
 72
     5
  1

1001
ACAD
1000
MTEXTBEGIN
1070
    73
1070
     1
1070
    44
1040
1.0
1070
    74
1070
     0
1000
MTEXTEND
  0
MTEXT
  5
55EC
330
1A
100
AcDbEntity
  8
SUNPOU
100
AcDbMText
 10
63961.44718748539
 20
55736.15552951081
 30
0.0
 40
10.5
 41
0.0
 71
     9
 72
     5
  1

1001
ACAD
1000
MTEXTBEGIN
1070
    73
1070
     1
1070
    44
1040
1.0
1070
    74
1070
     0
1000
MTEXTEND
  0
MTEXT
  5
55ED
330
1A
100
AcDbEntity
  8
SUNPOU
100
AcDbMText
 10
65904.85443419479
 20
53935.10644963278
 30
0.0
 40
3.5
 41
0.0
 71
     9
 72
     5
  1

1001
ACAD
1000
MTEXTBEGIN
1070
    73
1070
     1
1070
    44
1040
1.0
1070
    74
1070
     0
1000
MTEXTEND
  0
MTEXT
  5
55EE
330
1A
100
AcDbEntity
  8
SUNPOU
100
AcDbMText
 10
97031.03426681453
 20
96430.05211729015
 30
0.0
 40
10.5
 41
0.0
 71
     9
 72
     5
  1

1001
ACAD
1000
MTEXTBEGIN
1070
    73
1070
     1
1070
    44
1040
1.0
1070
    74
1070
     0
1000
MTEXTEND
  0
MTEXT
  5
55EF
330
1A
100
AcDbEntity
  8
SUNPOU
100
AcDbMText
 10
98974.44151352393
 20
94629.00303741212
 30
0.0
 40
3.5
 41
0.0
 71
     9
 72
     5
  1

1001
ACAD
1000
MTEXTBEGIN
1070
    73
1070
     1
1070
    44
1040
1.0
1070
    74
1070
     0
1000
MTEXTEND
  0
MTEXT
  5
55F0
330
1A
100
AcDbEntity
  8
SUNPOU
100
AcDbMText
 10
47471.30197261006
 20
42263.21727226519
 30
0.0
 40
10.5
 41
0.0
 71
     9
 72
     5
  1

1001
ACAD
1000
MTEXTBEGIN
1070
    73
1070
     1
1070
    44
1040
1.0
1070
    74
1070
     0
1000
MTEXTEND
  0
MTEXT
  5
55F1
330
1A
100
AcDbEntity
  8
SUNPOU
100
AcDbMText
 10
33523.30187223408
 20
23090.81813315298
 30
0.0
 40
3.5
 41
0.0
 71
     7
 72
     5
  1

1001
ACAD
1000
MTEXTBEGIN
1070
    73
1070
     1
1070
    44
1040
1.0
1070
    74
1070
     0
1000
MTEXTEND
  0
MTEXT
  5
55F2
330
1A
100
AcDbEntity
  8
SUNPOU
100
AcDbMText
 10
57959.46254102503
 20
50038.08111611014
 30
0.0
 40
10.5
 41
0.0
 71
     9
 72
     5
  1

1001
ACAD
1000
MTEXTBEGIN
1070
    73
1070
     1
1070
    44
1040
1.0
1070
    74
1070
     0
1000
MTEXTEND
  0
MTEXT
  5
55F3
330
1A
100
AcDbEntity
  8
SUNPOU
100
AcDbMText
 10
76913.22125835503
 20
67504.65716860222
 30
0.0
 40
10.5
 41
0.0
 71
     9
 72
     5
  1

1001
ACAD
1000
MTEXTBEGIN
1070
    73
1070
     1
1070
    44
1040
1.0
1070
    74
1070
     0
1000
MTEXTEND
  0
MTEXT
  5
55F4
330
1A
100
AcDbEntity
  8
SUNPOU
100
AcDbMText
 10
78856.62850506443
 20
65703.6080887242
 30
0.0
 40
3.5
 41
0.0
 71
     9
 72
     5
  1

1001
ACAD
1000
MTEXTBEGIN
1070
    73
1070
     1
1070
    44
1040
1.0
1070
    74
1070
     0
1000
MTEXTEND
  0
MTEXT
  5
55F5
330
1A
100
AcDbEntity
  8
SUNPOU
100
AcDbMText
 10
109982.8083376841
 20
108198.5537563815
 30
0.0
 40
10.5
 41
0.0
 71
     9
 72
     5
  1

1001
ACAD
1000
MTEXTBEGIN
1070
    73
1070
     1
1070
    44
1040
1.0
1070
    74
1070
     0
1000
MTEXTEND
  0
MTEXT
  5
55F6
330
1A
100
AcDbEntity
  8
SUNPOU
100
AcDbMText
 10
111926.2155843934
 20
106397.5046765035
 30
0.0
 40
3.5
 41
0.0
 71
     9
 72
     5
  1

1001
ACAD
1000
MTEXTBEGIN
1070
    73
1070
     1
1070
    44
1040
1.0
1070
    74
1070
     0
1000
MTEXTEND
  0
MTEXT
  5
55F7
330
1A
100
AcDbEntity
  8
SUNPOU
100
AcDbMText
 10
60423.07604347968
 20
54031.71891135658
 30
0.0
 40
10.5
 41
0.0
 71
     9
 72
     5
  1

1001
ACAD
1000
MTEXTBEGIN
1070
    73
1070
     1
1070
    44
1040
1.0
1070
    74
1070
     0
1000
MTEXTEND
  0
MTEXT
  5
55F8
330
1A
100
AcDbEntity
  8
SUNPOU
100
AcDbMText
 10
46475.07594310369
 20
34859.3197722444
 30
0.0
 40
3.5
 41
0.0
 71
     7
 72
     5
  1

1001
ACAD
1000
MTEXTBEGIN
1070
    73
1070
     1
1070
    44
1040
1.0
1070
    74
1070
     0
1000
MTEXTEND
  0
MTEXT
  5
55F9
330
1A
100
AcDbEntity
  8
SUNPOU
100
AcDbMText
 10
74027.35402123588
 20
68370.58278833383
 30
0.0
 40
10.5
 41
0.0
 71
     9
 72
     5
  1

1001
ACAD
1000
MTEXTBEGIN
1070
    73
1070
     1
1070
    44
1040
1.0
1070
    74
1070
     0
1000
MTEXTEND
  0
MTEXT
  5
55FA
330
1A
100
AcDbEntity
  8
SUNPOU
100
AcDbMText
 10
75970.7612679453
 20
66569.53370845583
 30
0.0
 40
3.5
 41
0.0
 71
     9
 72
     5
  1

1001
ACAD
1000
MTEXTBEGIN
1070
    73
1070
     1
1070
    44
1040
1.0
1070
    74
1070
     0
1000
MTEXTEND
  0
MTEXT
  5
55FB
330
1A
100
AcDbEntity
  8
SUNPOU
100
AcDbMText
 10
107096.941100565
 20
109064.4793761132
 30
0.0
 40
10.5
 41
0.0
 71
     9
 72
     5
  1

1001
ACAD
1000
MTEXTBEGIN
1070
    73
1070
     1
1070
    44
1040
1.0
1070
    74
1070
     0
1000
MTEXTEND
  0
MTEXT
  5
55FC
330
1A
100
AcDbEntity
  8
SUNPOU
100
AcDbMText
 10
109040.3483472744
 20
107263.430296235
 30
0.0
 40
3.5
 41
0.0
 71
     9
 72
     5
  1

1001
ACAD
1000
MTEXTBEGIN
1070
    73
1070
     1
1070
    44
1040
1.0
1070
    74
1070
     0
1000
MTEXTEND
  0
MTEXT
  5
55FD
330
1A
100
AcDbEntity
  8
SUNPOU
100
AcDbMText
 10
105709.1709283621
 20
108141.3777665285
 30
0.0
 40
10.5
 41
0.0
 71
     9
 72
     5
  1

1001
ACAD
1000
MTEXTBEGIN
1070
    73
1070
     1
1070
    44
1040
1.0
1070
    74
1070
     0
1000
MTEXTEND
  0
MTEXT
  5
55FE
330
1A
100
AcDbEntity
  8
SUNPOU
100
AcDbMText
 10
107652.5781750715
 20
106340.3286866505
 30
0.0
 40
3.5
 41
0.0
 71
     9
 72
     5
  1

1001
ACAD
1000
MTEXTBEGIN
1070
    73
1070
     1
1070
    44
1040
1.0
1070
    74
1070
     0
1000
MTEXTEND
  0
MTEXT
  5
55FF
330
1A
100
AcDbEntity
  8
SUNPOU
100
AcDbMText
 10
73193.09268743351
 20
66158.78082845057
 30
0.0
 40
10.5
 41
0.0
 71
     9
 72
     5
  1

1001
ACAD
1000
MTEXTBEGIN
1070
    73
1070
     1
1070
    44
1040
1.0
1070
    74
1070
     0
1000
MTEXTEND
  0
MTEXT
  5
5600
330
1A
100
AcDbEntity
  8
SUNPOU
100
AcDbMText
 10
75916.39889159807
 20
66563.46252003162
 30
0.0
 40
3.5
 41
0.0
 71
     9
 72
     5
  1

1001
ACAD
1000
MTEXTBEGIN
1070
    73
1070
     1
1070
    44
1040
1.0
1070
    74
1070
     0
1000
MTEXTEND
  0
MTEXT
  5
5601
330
1A
100
AcDbEntity
  8
SUNPOU
100
AcDbMText
 10
75124.04436649058
 20
63402.1566819768
 30
0.0
 40
10.5
 41
0.0
 71
     9
 72
     5
  1

1001
ACAD
1000
MTEXTBEGIN
1070
    73
1070
     1
1070
    44
1040
1.0
1070
    74
1070
     0
1000
MTEXTEND
  0
MTEXT
  5
5602
330
1A
100
AcDbEntity
  8
SUNPOU
100
AcDbMText
 10
77067.4516132
 20
61601.1076020988
 30
0.0
 40
3.5
 41
0.0
 71
     9
 72
     5
  1

1001
ACAD
1000
MTEXTBEGIN
1070
    73
1070
     1
1070
    44
1040
1.0
1070
    74
1070
     0
1000
MTEXTEND
  0
MTEXT
  5
5603
330
1A
100
AcDbEntity
  8
SUNPOU
100
AcDbMText
 10
77012.54710378659
 20
61488.33571981449
 30
0.0
 40
3.5
 41
0.0
 71
     9
 72
     5
  1

1001
ACAD
1000
MTEXTBEGIN
1070
    73
1070
     1
1070
    44
1040
1.0
1070
    74
1070
     0
1000
MTEXTEND
  0
MTEXT
  5
5604
330
1A
100
AcDbEntity
  8
SUNPOU
100
AcDbMText
 10
76376.61896736668
 20
60677.01447874798
 30
0.0
 40
3.5
 41
0.0
 71
     9
 72
     5
  1

1001
ACAD
1000
MTEXTBEGIN
1070
    73
1070
     1
1070
    44
1040
1.0
1070
    74
1070
     0
1000
MTEXTEND
  0
MTEXT
  5
5605
330
1A
100
AcDbEntity
  8
SUNPOU
100
AcDbMText
 10
76375.37854794595
 20
60676.76650181048
 30
0.0
 40
10.5
 41
0.0
 71
     9
 72
     5
  1

1001
ACAD
1000
MTEXTBEGIN
1070
    73
1070
     1
1070
    44
1040
1.0
1070
    74
1070
     0
1000
MTEXTEND
  0
MTEXT
  5
5606
330
1A
100
AcDbEntity
  8
SUNPOU
100
AcDbMText
 10
84709.93991079748
 20
78034.0328293557
 30
0.0
 40
10.5
 41
0.0
 71
     9
 72
     5
  1

1001
ACAD
1000
MTEXTBEGIN
1070
    73
1070
     1
1070
    44
1040
1.0
1070
    74
1070
     0
1000
MTEXTEND
  0
MTEXT
  5
5607
330
1A
100
AcDbEntity
  8
SUNPOU
100
AcDbMText
 10
93432.10747671546
 20
85449.86736089315
 30
0.0
 40
10.5
 41
0.0
 71
     9
 72
     5
  1

1001
ACAD
1000
MTEXTBEGIN
1070
    73
1070
     1
1070
    44
1040
1.0
1070
    74
1070
     0
1000
MTEXTEND
  0
MTEXT
  5
5608
330
1A
100
AcDbEntity
  8
SUNPOU
100
AcDbMText
 10
112385.8661940454
 20
102916.4434133851
 30
0.0
 40
10.5
 41
0.0
 71
     9
 72
     5
  1

1001
ACAD
1000
MTEXTBEGIN
1070
    73
1070
     1
1070
    44
1040
1.0
1070
    74
1070
     0
1000
MTEXTEND
  0
MTEXT
  5
5609
330
1A
100
AcDbEntity
  8
SUNPOU
100
AcDbMText
 10
114329.2734407548
 20
101115.3943335072
 30
0.0
 40
3.5
 41
0.0
 71
     9
 72
     5
  1

1001
ACAD
1000
MTEXTBEGIN
1070
    73
1070
     1
1070
    44
1040
1.0
1070
    74
1070
     0
1000
MTEXTEND
  0
MTEXT
  5
560A
330
1A
100
AcDbEntity
  8
SUNPOU
100
AcDbMText
 10
145455.4532733745
 20
143610.3400011645
 30
0.0
 40
10.5
 41
0.0
 71
     9
 72
     5
  1

1001
ACAD
1000
MTEXTBEGIN
1070
    73
1070
     1
1070
    44
1040
1.0
1070
    74
1070
     0
1000
MTEXTEND
  0
MTEXT
  5
560B
330
1A
100
AcDbEntity
  8
SUNPOU
100
AcDbMText
 10
147398.8605200839
 20
141809.2909212864
 30
0.0
 40
3.5
 41
0.0
 71
     9
 72
     5
  1

1001
ACAD
1000
MTEXTBEGIN
1070
    73
1070
     1
1070
    44
1040
1.0
1070
    74
1070
     0
1000
MTEXTEND
  0
MTEXT
  5
560C
330
1A
100
AcDbEntity
  8
SUNPOU
100
AcDbMText
 10
95895.72097917011
 20
89443.50515613962
 30
0.0
 40
10.5
 41
0.0
 71
     9
 72
     5
  1

1001
ACAD
1000
MTEXTBEGIN
1070
    73
1070
     1
1070
    44
1040
1.0
1070
    74
1070
     0
1000
MTEXTEND
  0
MTEXT
  5
560D
330
1A
100
AcDbEntity
  8
SUNPOU
100
AcDbMText
 10
81947.72087879414
 20
70271.1060170274
 30
0.0
 40
3.5
 41
0.0
 71
     7
 72
     5
  1

1001
ACAD
1000
MTEXTBEGIN
1070
    73
1070
     1
1070
    44
1040
1.0
1070
    74
1070
     0
1000
MTEXTEND
  0
MTEXT
  5
560E
330
1A
100
AcDbEntity
  8
SUNPOU
100
AcDbMText
 10
62932.89027578729
 20
58033.25474784561
 30
0.0
 40
10.5
 41
0.0
 71
     7
 72
     5
  1

1001
ACAD
1000
MTEXTBEGIN
1070
    73
1070
     1
1070
    44
1040
1.0
1070
    74
1070
     0
1000
MTEXTEND
  0
MTEXT
  5
560F
330
1A
100
AcDbEntity
  8
SUNPOU
100
AcDbMText
 10
50475.66201083918
 20
42188.32316974718
 30
0.0
 40
35.0
 41
0.0
 71
     9
 72
     5
  1

1001
ACAD
1000
MTEXTBEGIN
1070
    73
1070
     1
1070
    44
1040
1.0
1070
    74
1070
     0
1000
MTEXTEND
  0
MTEXT
  5
5610
330
1A
100
AcDbEntity
  8
SUNPOU
100
AcDbMText
 10
49384.14706841413
 20
42797.0985797959
 30
0.0
 40
350.0000004171781
 41
0.0
 71
     7
 72
     5
  1

1001
ACAD
1000
MTEXTBEGIN
1070
    73
1070
     1
1070
    44
1040
1.0
1070
    74
1070
     0
1000
MTEXTEND
  0
MTEXT
  5
5611
330
1A
100
AcDbEntity
  8
0
100
AcDbMText
 10
55428.09782635704
 20
40777.0209419321
 30
0.0
 40
8.0
 41
0.0
 71
     7
 72
     5
  1

1001
ACAD
1000
MTEXTBEGIN
1070
    73
1070
     1
1070
    44
1040
1.0
1070
    74
1070
     0
1000
MTEXTEND
  0
MTEXT
  5
5612
330
1A
100
AcDbEntity
  8
0
100
AcDbMText
 10
57713.45551625193
 20
41747.81123668316
 30
0.0
 40
8.0
 41
0.0
 71
     7
 72
     5
  1

1001
ACAD
1000
MTEXTBEGIN
1070
    73
1070
     1
1070
    44
1040
1.0
1070
    74
1070
     0
1000
MTEXTEND
  0
MTEXT
  5
5613
330
1A
100
AcDbEntity
  8
SUNPOU
100
AcDbMText
 10
60379.35253693407
 20
51259.9226290583
 30
0.0
 40
10.5
 41
0.0
 71
     1
 72
     5
  1

1001
ACAD
1000
MTEXTBEGIN
1070
    73
1070
     1
1070
    44
1040
1.0
1070
    74
1070
     0
1000
MTEXTEND
  0
MTEXT
  5
5614
330
1A
100
AcDbEntity
  8
SUNPOU
100
AcDbMText
 10
52448.42934099813
 20
50313.12949514535
 30
0.0
 40
10.5
 41
0.0
 71
     7
 72
     5
  1

1001
ACAD
1000
MTEXTBEGIN
1070
    73
1070
     1
1070
    44
1040
1.0
1070
    74
1070
     0
1000
MTEXTEND
  0
MTEXT
  5
5615
330
1A
100
AcDbEntity
  8
SUNPOU
100
AcDbMText
 10
55397.4130055109
 20
55213.80556698819
 30
0.0
 40
10.5
 41
0.0
 71
     7
 72
     5
  1

1001
ACAD
1000
MTEXTBEGIN
1070
    73
1070
     1
1070
    44
1040
1.0
1070
    74
1070
     0
1000
MTEXTEND
  0
MTEXT
  5
5616
330
1A
100
AcDbEntity
  8
SUNPOU
100
AcDbMText
 10
59906.49113346147
 20
57650.10631460826
 30
0.0
 40
10.5
 41
0.0
 71
     7
 72
     5
  1

1001
ACAD
1000
MTEXTBEGIN
1070
    73
1070
     1
1070
    44
1040
1.0
1070
    74
1070
     0
1000
MTEXTEND
  0
MTEXT
  5
5617
330
1A
100
AcDbEntity
  8
SUNPOU
100
AcDbMText
 10
43507.32902022978
 20
36647.70246499718
 30
0.0
 40
10.5
 41
0.0
 71
     7
 72
     5
  1

1001
ACAD
1000
MTEXTBEGIN
1070
    73
1070
     1
1070
    44
1040
1.0
1070
    74
1070
     0
1000
MTEXTEND
  0
MTEXT
  5
5618
330
1A
100
AcDbEntity
  8
SUNPOU
100
AcDbMText
 10
94698.84745413006
 20
82320.68302864544
 30
0.0
 40
10.5
 41
0.0
 71
     9
 72
     5
  1

1001
ACAD
1000
MTEXTBEGIN
1070
    73
1070
     1
1070
    44
1040
1.0
1070
    74
1070
     0
1000
MTEXTEND
  0
MTEXT
  5
5619
330
1A
100
AcDbEntity
  8
SUNPOU
100
AcDbMText
 10
103421.015020048
 20
89736.5175601829
 30
0.0
 40
10.5
 41
0.0
 71
     9
 72
     5
  1

1001
ACAD
1000
MTEXTBEGIN
1070
    73
1070
     1
1070
    44
1040
1.0
1070
    74
1070
     0
1000
MTEXTEND
  0
MTEXT
  5
561A
330
1A
100
AcDbEntity
  8
SUNPOU
100
AcDbMText
 10
122374.773737378
 20
107203.0936126749
 30
0.0
 40
10.5
 41
0.0
 71
     9
 72
     5
  1

1001
ACAD
1000
MTEXTBEGIN
1070
    73
1070
     1
1070
    44
1040
1.0
1070
    74
1070
     0
1000
MTEXTEND
  0
MTEXT
  5
561B
330
1A
100
AcDbEntity
  8
SUNPOU
100
AcDbMText
 10
124318.1809840874
 20
105402.0445327969
 30
0.0
 40
3.5
 41
0.0
 71
     9
 72
     5
  1

1001
ACAD
1000
MTEXTBEGIN
1070
    73
1070
     1
1070
    44
1040
1.0
1070
    74
1070
     0
1000
MTEXTEND
  0
MTEXT
  5
561C
330
1A
100
AcDbEntity
  8
SUNPOU
100
AcDbMText
 10
155444.3608167071
 20
147896.9902004542
 30
0.0
 40
10.5
 41
0.0
 71
     9
 72
     5
  1

1001
ACAD
1000
MTEXTBEGIN
1070
    73
1070
     1
1070
    44
1040
1.0
1070
    74
1070
     0
1000
MTEXTEND
  0
MTEXT
  5
561D
330
1A
100
AcDbEntity
  8
SUNPOU
100
AcDbMText
 10
157387.7680634165
 20
146095.9411205762
 30
0.0
 40
3.5
 41
0.0
 71
     9
 72
     5
  1

1001
ACAD
1000
MTEXTBEGIN
1070
    73
1070
     1
1070
    44
1040
1.0
1070
    74
1070
     0
1000
MTEXTEND
  0
MTEXT
  5
561E
330
1A
100
AcDbEntity
  8
SUNPOU
100
AcDbMText
 10
105884.6285225027
 20
93730.15535542933
 30
0.0
 40
10.5
 41
0.0
 71
     9
 72
     5
  1

1001
ACAD
1000
MTEXTBEGIN
1070
    73
1070
     1
1070
    44
1040
1.0
1070
    74
1070
     0
1000
MTEXTEND
  0
MTEXT
  5
561F
330
1A
100
AcDbEntity
  8
SUNPOU
100
AcDbMText
 10
91936.6284221267
 20
74557.75621631714
 30
0.0
 40
3.5
 41
0.0
 71
     7
 72
     5
  1

1001
ACAD
1000
MTEXTBEGIN
1070
    73
1070
     1
1070
    44
1040
1.0
1070
    74
1070
     0
1000
MTEXTEND
  0
MTEXT
  5
5620
330
1A
100
AcDbEntity
  8
SUNPOU
100
AcDbMText
 10
72921.79781911986
 20
62319.90494713532
 30
0.0
 40
10.5
 41
0.0
 71
     7
 72
     5
  1

1001
ACAD
1000
MTEXTBEGIN
1070
    73
1070
     1
1070
    44
1040
1.0
1070
    74
1070
     0
1000
MTEXTEND
  0
MTEXT
  5
5621
330
1A
100
AcDbEntity
  8
SUNPOU
100
AcDbMText
 10
60464.56955417175
 20
46474.97336903692
 30
0.0
 40
35.0
 41
0.0
 71
     9
 72
     5
  1

1001
ACAD
1000
MTEXTBEGIN
1070
    73
1070
     1
1070
    44
1040
1.0
1070
    74
1070
     0
1000
MTEXTEND
  0
MTEXT
  5
5622
330
1A
100
AcDbEntity
  8
SUNPOU
100
AcDbMText
 10
59373.05461174673
 20
47083.74877908561
 30
0.0
 40
350.0000004171781
 41
0.0
 71
     7
 72
     5
  1

1001
ACAD
1000
MTEXTBEGIN
1070
    73
1070
     1
1070
    44
1040
1.0
1070
    74
1070
     0
1000
MTEXTEND
  0
MTEXT
  5
5623
330
1A
100
AcDbEntity
  8
0
100
AcDbMText
 10
65417.00536968963
 20
45063.67114122186
 30
0.0
 40
8.0
 41
0.0
 71
     7
 72
     5
  1

1001
ACAD
1000
MTEXTBEGIN
1070
    73
1070
     1
1070
    44
1040
1.0
1070
    74
1070
     0
1000
MTEXTEND
  0
MTEXT
  5
5624
330
1A
100
AcDbEntity
  8
0
100
AcDbMText
 10
67702.36305958452
 20
46034.46143597292
 30
0.0
 40
8.0
 41
0.0
 71
     7
 72
     5
  1

1001
ACAD
1000
MTEXTBEGIN
1070
    73
1070
     1
1070
    44
1040
1.0
1070
    74
1070
     0
1000
MTEXTEND
  0
MTEXT
  5
5625
330
1A
100
AcDbEntity
  8
SUNPOU
100
AcDbMText
 10
70368.26008026666
 20
55546.57282834803
 30
0.0
 40
10.5
 41
0.0
 71
     1
 72
     5
  1

1001
ACAD
1000
MTEXTBEGIN
1070
    73
1070
     1
1070
    44
1040
1.0
1070
    74
1070
     0
1000
MTEXTEND
  0
MTEXT
  5
5626
330
1A
100
AcDbEntity
  8
SUNPOU
100
AcDbMText
 10
62437.33688433072
 20
54599.77969443507
 30
0.0
 40
10.5
 41
0.0
 71
     7
 72
     5
  1

1001
ACAD
1000
MTEXTBEGIN
1070
    73
1070
     1
1070
    44
1040
1.0
1070
    74
1070
     0
1000
MTEXTEND
  0
MTEXT
  5
5627
330
1A
100
AcDbEntity
  8
SUNPOU
100
AcDbMText
 10
65386.32054884348
 20
59500.45576627792
 30
0.0
 40
10.5
 41
0.0
 71
     7
 72
     5
  1

1001
ACAD
1000
MTEXTBEGIN
1070
    73
1070
     1
1070
    44
1040
1.0
1070
    74
1070
     0
1000
MTEXTEND
  0
MTEXT
  5
5628
330
1A
100
AcDbEntity
  8
SUNPOU
100
AcDbMText
 10
69895.39867679405
 20
61936.756513898
 30
0.0
 40
10.5
 41
0.0
 71
     7
 72
     5
  1

1001
ACAD
1000
MTEXTBEGIN
1070
    73
1070
     1
1070
    44
1040
1.0
1070
    74
1070
     0
1000
MTEXTEND
  0
MTEXT
  5
5629
330
1A
100
AcDbEntity
  8
SUNPOU
100
AcDbMText
 10
53496.23656356237
 20
40934.35266428691
 30
0.0
 40
10.5
 41
0.0
 71
     7
 72
     5
  1

1001
ACAD
1000
MTEXTBEGIN
1070
    73
1070
     1
1070
    44
1040
1.0
1070
    74
1070
     0
1000
MTEXTEND
  0
MTEXT
  5
562A
330
1A
100
AcDbEntity
  8
SUNPOU
100
AcDbMText
 10
55306.99947493731
 20
47261.76665176546
 30
0.0
 40
10.5
 41
0.0
 71
     9
 72
     5
  1

1001
ACAD
1000
MTEXTBEGIN
1070
    73
1070
     1
1070
    44
1040
1.0
1070
    74
1070
     0
1000
MTEXTEND
  0
MTEXT
  5
562B
330
1A
100
AcDbEntity
  8
SUNPOU
100
AcDbMText
 10
64029.16704085527
 20
54677.60118330295
 30
0.0
 40
10.5
 41
0.0
 71
     9
 72
     5
  1

1001
ACAD
1000
MTEXTBEGIN
1070
    73
1070
     1
1070
    44
1040
1.0
1070
    74
1070
     0
1000
MTEXTEND
  0
MTEXT
  5
562C
330
1A
100
AcDbEntity
  8
SUNPOU
100
AcDbMText
 10
82982.92575818527
 20
72144.17723579499
 30
0.0
 40
10.5
 41
0.0
 71
     9
 72
     5
  1

1001
ACAD
1000
MTEXTBEGIN
1070
    73
1070
     1
1070
    44
1040
1.0
1070
    74
1070
     0
1000
MTEXTEND
  0
MTEXT
  5
562D
330
1A
100
AcDbEntity
  8
SUNPOU
100
AcDbMText
 10
84926.33300489467
 20
70343.12815591697
 30
0.0
 40
3.5
 41
0.0
 71
     9
 72
     5
  1

1001
ACAD
1000
MTEXTBEGIN
1070
    73
1070
     1
1070
    44
1040
1.0
1070
    74
1070
     0
1000
MTEXTEND
  0
MTEXT
  5
562E
330
1A
100
AcDbEntity
  8
SUNPOU
100
AcDbMText
 10
116052.5128375142
 20
112838.0738235742
 30
0.0
 40
10.5
 41
0.0
 71
     9
 72
     5
  1

1001
ACAD
1000
MTEXTBEGIN
1070
    73
1070
     1
1070
    44
1040
1.0
1070
    74
1070
     0
1000
MTEXTEND
  0
MTEXT
  5
562F
330
1A
100
AcDbEntity
  8
SUNPOU
100
AcDbMText
 10
117995.9200842238
 20
111037.0247436963
 30
0.0
 40
3.5
 41
0.0
 71
     9
 72
     5
  1

1001
ACAD
1000
MTEXTBEGIN
1070
    73
1070
     1
1070
    44
1040
1.0
1070
    74
1070
     0
1000
MTEXTEND
  0
MTEXT
  5
5630
330
1A
100
AcDbEntity
  8
SUNPOU
100
AcDbMText
 10
66492.78054330994
 20
58671.23897854939
 30
0.0
 40
10.5
 41
0.0
 71
     9
 72
     5
  1

1001
ACAD
1000
MTEXTBEGIN
1070
    73
1070
     1
1070
    44
1040
1.0
1070
    74
1070
     0
1000
MTEXTEND
  0
MTEXT
  5
5631
330
1A
100
AcDbEntity
  8
SUNPOU
100
AcDbMText
 10
52544.78044293397
 20
39498.83983943717
 30
0.0
 40
3.5
 41
0.0
 71
     7
 72
     5
  1

1001
ACAD
1000
MTEXTBEGIN
1070
    73
1070
     1
1070
    44
1040
1.0
1070
    74
1070
     0
1000
MTEXTEND
  0
MTEXT
  5
5632
330
1A
100
AcDbEntity
  8
SUNPOU
100
AcDbMText
 10
66237.13112570454
 20
48857.90306045851
 30
0.0
 40
10.5
 41
0.0
 71
     9
 72
     5
  1

1001
ACAD
1000
MTEXTBEGIN
1070
    73
1070
     1
1070
    44
1040
1.0
1070
    74
1070
     0
1000
MTEXTEND
  0
MTEXT
  5
5633
330
1A
100
AcDbEntity
  8
SUNPOU
100
AcDbMText
 10
74959.29869162253
 20
56273.73759199599
 30
0.0
 40
10.5
 41
0.0
 71
     9
 72
     5
  1

1001
ACAD
1000
MTEXTBEGIN
1070
    73
1070
     1
1070
    44
1040
1.0
1070
    74
1070
     0
1000
MTEXTEND
  0
MTEXT
  5
5634
330
1A
100
AcDbEntity
  8
SUNPOU
100
AcDbMText
 10
93913.0574089525
 20
73740.31364448805
 30
0.0
 40
10.5
 41
0.0
 71
     9
 72
     5
  1

1001
ACAD
1000
MTEXTBEGIN
1070
    73
1070
     1
1070
    44
1040
1.0
1070
    74
1070
     0
1000
MTEXTEND
  0
MTEXT
  5
5635
330
1A
100
AcDbEntity
  8
SUNPOU
100
AcDbMText
 10
95856.46465566192
 20
71939.26456461004
 30
0.0
 40
3.5
 41
0.0
 71
     9
 72
     5
  1

1001
ACAD
1000
MTEXTBEGIN
1070
    73
1070
     1
1070
    44
1040
1.0
1070
    74
1070
     0
1000
MTEXTEND
  0
MTEXT
  5
5636
330
1A
100
AcDbEntity
  8
SUNPOU
100
AcDbMText
 10
126982.6444882816
 20
114434.2102322673
 30
0.0
 40
10.5
 41
0.0
 71
     9
 72
     5
  1

1001
ACAD
1000
MTEXTBEGIN
1070
    73
1070
     1
1070
    44
1040
1.0
1070
    74
1070
     0
1000
MTEXTEND
  0
MTEXT
  5
5637
330
1A
100
AcDbEntity
  8
SUNPOU
100
AcDbMText
 10
128926.051734991
 20
112633.1611523893
 30
0.0
 40
3.5
 41
0.0
 71
     9
 72
     5
  1

1001
ACAD
1000
MTEXTBEGIN
1070
    73
1070
     1
1070
    44
1040
1.0
1070
    74
1070
     0
1000
MTEXTEND
  0
MTEXT
  5
5638
330
1A
100
AcDbEntity
  8
SUNPOU
100
AcDbMText
 10
77422.91219407717
 20
60267.37538724244
 30
0.0
 40
10.5
 41
0.0
 71
     9
 72
     5
  1

1001
ACAD
1000
MTEXTBEGIN
1070
    73
1070
     1
1070
    44
1040
1.0
1070
    74
1070
     0
1000
MTEXTEND
  0
MTEXT
  5
5639
330
1A
100
AcDbEntity
  8
SUNPOU
100
AcDbMText
 10
63474.91209370119
 20
41094.97624813023
 30
0.0
 40
3.5
 41
0.0
 71
     7
 72
     5
  1

1001
ACAD
1000
MTEXTBEGIN
1070
    73
1070
     1
1070
    44
1040
1.0
1070
    74
1070
     0
1000
MTEXTEND
  0
MTEXT
  5
563A
330
1A
100
AcDbEntity
  8
SUNPOU
100
AcDbMText
 10
48117.65086229006
 20
40806.11043916631
 30
0.0
 40
10.5
 41
0.0
 71
     9
 72
     5
  1

1001
ACAD
1000
MTEXTBEGIN
1070
    73
1070
     1
1070
    44
1040
1.0
1070
    74
1070
     0
1000
MTEXTEND
  0
MTEXT
  5
563B
330
1A
100
AcDbEntity
  8
SUNPOU
100
AcDbMText
 10
67071.40957962004
 20
58272.68649165838
 30
0.0
 40
10.5
 41
0.0
 71
     9
 72
     5
  1

1001
ACAD
1000
MTEXTBEGIN
1070
    73
1070
     1
1070
    44
1040
1.0
1070
    74
1070
     0
1000
MTEXTEND
  0
MTEXT
  5
563C
330
1A
100
AcDbEntity
  8
SUNPOU
100
AcDbMText
 10
69014.81682632945
 20
56471.63741178035
 30
0.0
 40
3.5
 41
0.0
 71
     9
 72
     5
  1

1001
ACAD
1000
MTEXTBEGIN
1070
    73
1070
     1
1070
    44
1040
1.0
1070
    74
1070
     0
1000
MTEXTEND
  0
MTEXT
  5
563D
330
1A
100
AcDbEntity
  8
SUNPOU
100
AcDbMText
 10
100140.9966589491
 20
98966.58307943773
 30
0.0
 40
10.5
 41
0.0
 71
     9
 72
     5
  1

1001
ACAD
1000
MTEXTBEGIN
1070
    73
1070
     1
1070
    44
1040
1.0
1070
    74
1070
     0
1000
MTEXTEND
  0
MTEXT
  5
563E
330
1A
100
AcDbEntity
  8
SUNPOU
100
AcDbMText
 10
102084.4039056586
 20
97165.53399955968
 30
0.0
 40
3.5
 41
0.0
 71
     9
 72
     5
  1

1001
ACAD
1000
MTEXTBEGIN
1070
    73
1070
     1
1070
    44
1040
1.0
1070
    74
1070
     0
1000
MTEXTEND
  0
MTEXT
  5
563F
330
1A
100
AcDbEntity
  8
SUNPOU
100
AcDbMText
 10
50581.26436474472
 20
44799.74823441275
 30
0.0
 40
10.5
 41
0.0
 71
     9
 72
     5
  1

1001
ACAD
1000
MTEXTBEGIN
1070
    73
1070
     1
1070
    44
1040
1.0
1070
    74
1070
     0
1000
MTEXTEND
  0
MTEXT
  5
5640
330
1A
100
AcDbEntity
  8
SUNPOU
100
AcDbMText
 10
36633.26426436873
 20
25627.34909530054
 30
0.0
 40
3.5
 41
0.0
 71
     7
 72
     5
  1

1001
ACAD
1000
MTEXTBEGIN
1070
    73
1070
     1
1070
    44
1040
1.0
1070
    74
1070
     0
1000
MTEXTEND
  0
MTEXT
  5
5641
330
1A
100
AcDbEntity
  8
SUNPOU
100
AcDbMText
 10
61069.42493315968
 20
52574.61207825771
 30
0.0
 40
10.5
 41
0.0
 71
     9
 72
     5
  1

1001
ACAD
1000
MTEXTBEGIN
1070
    73
1070
     1
1070
    44
1040
1.0
1070
    74
1070
     0
1000
MTEXTEND
  0
MTEXT
  5
5642
330
1A
100
AcDbEntity
  8
SUNPOU
100
AcDbMText
 10
80023.18365048967
 20
70041.18813074978
 30
0.0
 40
10.5
 41
0.0
 71
     9
 72
     5
  1

1001
ACAD
1000
MTEXTBEGIN
1070
    73
1070
     1
1070
    44
1040
1.0
1070
    74
1070
     0
1000
MTEXTEND
  0
MTEXT
  5
5643
330
1A
100
AcDbEntity
  8
SUNPOU
100
AcDbMText
 10
81966.59089719908
 20
68240.13905087176
 30
0.0
 40
3.5
 41
0.0
 71
     9
 72
     5
  1

1001
ACAD
1000
MTEXTBEGIN
1070
    73
1070
     1
1070
    44
1040
1.0
1070
    74
1070
     0
1000
MTEXTEND
  0
MTEXT
  5
5644
330
1A
100
AcDbEntity
  8
SUNPOU
100
AcDbMText
 10
113092.7707298186
 20
110735.0847185291
 30
0.0
 40
10.5
 41
0.0
 71
     9
 72
     5
  1

1001
ACAD
1000
MTEXTBEGIN
1070
    73
1070
     1
1070
    44
1040
1.0
1070
    74
1070
     0
1000
MTEXTEND
  0
MTEXT
  5
5645
330
1A
100
AcDbEntity
  8
SUNPOU
100
AcDbMText
 10
115036.1779765282
 20
108934.0356386511
 30
0.0
 40
3.5
 41
0.0
 71
     9
 72
     5
  1

1001
ACAD
1000
MTEXTBEGIN
1070
    73
1070
     1
1070
    44
1040
1.0
1070
    74
1070
     0
1000
MTEXTEND
  0
MTEXT
  5
5646
330
1A
100
AcDbEntity
  8
SUNPOU
100
AcDbMText
 10
63533.03843561432
 20
56568.24987350415
 30
0.0
 40
10.5
 41
0.0
 71
     9
 72
     5
  1

1001
ACAD
1000
MTEXTBEGIN
1070
    73
1070
     1
1070
    44
1040
1.0
1070
    74
1070
     0
1000
MTEXTEND
  0
MTEXT
  5
5647
330
1A
100
AcDbEntity
  8
SUNPOU
100
AcDbMText
 10
49585.03833523835
 20
37395.85073439196
 30
0.0
 40
3.5
 41
0.0
 71
     7
 72
     5
  1

1001
ACAD
1000
MTEXTBEGIN
1070
    73
1070
     1
1070
    44
1040
1.0
1070
    74
1070
     0
1000
MTEXTEND
  0
MTEXT
  5
5648
330
1A
100
AcDbEntity
  8
SUNPOU
100
AcDbMText
 10
77137.31641337052
 20
70907.11375048141
 30
0.0
 40
10.5
 41
0.0
 71
     9
 72
     5
  1

1001
ACAD
1000
MTEXTBEGIN
1070
    73
1070
     1
1070
    44
1040
1.0
1070
    74
1070
     0
1000
MTEXTEND
  0
MTEXT
  5
5649
330
1A
100
AcDbEntity
  8
SUNPOU
100
AcDbMText
 10
79080.72366007995
 20
69106.06467060339
 30
0.0
 40
3.5
 41
0.0
 71
     9
 72
     5
  1

1001
ACAD
1000
MTEXTBEGIN
1070
    73
1070
     1
1070
    44
1040
1.0
1070
    74
1070
     0
1000
MTEXTEND
  0
MTEXT
  5
564A
330
1A
100
AcDbEntity
  8
SUNPOU
100
AcDbMText
 10
110206.9034926996
 20
111601.0103382607
 30
0.0
 40
10.5
 41
0.0
 71
     9
 72
     5
  1

1001
ACAD
1000
MTEXTBEGIN
1070
    73
1070
     1
1070
    44
1040
1.0
1070
    74
1070
     0
1000
MTEXTEND
  0
MTEXT
  5
564B
330
1A
100
AcDbEntity
  8
SUNPOU
100
AcDbMText
 10
112150.310739409
 20
109799.9612583826
 30
0.0
 40
3.5
 41
0.0
 71
     9
 72
     5
  1

1001
ACAD
1000
MTEXTBEGIN
1070
    73
1070
     1
1070
    44
1040
1.0
1070
    74
1070
     0
1000
MTEXTEND
  0
MTEXT
  5
564C
330
1A
100
AcDbEntity
  8
SUNPOU
100
AcDbMText
 10
108819.1333204967
 20
110677.9087286761
 30
0.0
 40
10.5
 41
0.0
 71
     9
 72
     5
  1

1001
ACAD
1000
MTEXTBEGIN
1070
    73
1070
     1
1070
    44
1040
1.0
1070
    74
1070
     0
1000
MTEXTEND
  0
MTEXT
  5
564D
330
1A
100
AcDbEntity
  8
SUNPOU
100
AcDbMText
 10
110762.5405672062
 20
108876.8596487981
 30
0.0
 40
3.5
 41
0.0
 71
     9
 72
     5
  1

1001
ACAD
1000
MTEXTBEGIN
1070
    73
1070
     1
1070
    44
1040
1.0
1070
    74
1070
     0
1000
MTEXTEND
  0
MTEXT
  5
564E
330
1A
100
AcDbEntity
  8
SUNPOU
100
AcDbMText
 10
76303.05507956816
 20
68695.31179059812
 30
0.0
 40
10.5
 41
0.0
 71
     9
 72
     5
  1

1001
ACAD
1000
MTEXTBEGIN
1070
    73
1070
     1
1070
    44
1040
1.0
1070
    74
1070
     0
1000
MTEXTEND
  0
MTEXT
  5
564F
330
1A
100
AcDbEntity
  8
SUNPOU
100
AcDbMText
 10
79026.36128373271
 20
69099.99348217918
 30
0.0
 40
3.5
 41
0.0
 71
     9
 72
     5
  1

1001
ACAD
1000
MTEXTBEGIN
1070
    73
1070
     1
1070
    44
1040
1.0
1070
    74
1070
     0
1000
MTEXTEND
  0
MTEXT
  5
5650
330
1A
100
AcDbEntity
  8
SUNPOU
100
AcDbMText
 10
78234.00675862522
 20
65938.68764412436
 30
0.0
 40
10.5
 41
0.0
 71
     9
 72
     5
  1

1001
ACAD
1000
MTEXTBEGIN
1070
    73
1070
     1
1070
    44
1040
1.0
1070
    74
1070
     0
1000
MTEXTEND
  0
MTEXT
  5
5651
330
1A
100
AcDbEntity
  8
SUNPOU
100
AcDbMText
 10
80177.41400533465
 20
64137.63856424636
 30
0.0
 40
3.5
 41
0.0
 71
     9
 72
     5
  1

1001
ACAD
1000
MTEXTBEGIN
1070
    73
1070
     1
1070
    44
1040
1.0
1070
    74
1070
     0
1000
MTEXTEND
  0
MTEXT
  5
5652
330
1A
100
AcDbEntity
  8
SUNPOU
100
AcDbMText
 10
80122.50949592122
 20
64024.86668196204
 30
0.0
 40
3.5
 41
0.0
 71
     9
 72
     5
  1

1001
ACAD
1000
MTEXTBEGIN
1070
    73
1070
     1
1070
    44
1040
1.0
1070
    74
1070
     0
1000
MTEXTEND
  0
MTEXT
  5
5653
330
1A
100
AcDbEntity
  8
SUNPOU
100
AcDbMText
 10
79486.58135950133
 20
63213.54544089553
 30
0.0
 40
3.5
 41
0.0
 71
     9
 72
     5
  1

1001
ACAD
1000
MTEXTBEGIN
1070
    73
1070
     1
1070
    44
1040
1.0
1070
    74
1070
     0
1000
MTEXTEND
  0
MTEXT
  5
5654
330
1A
100
AcDbEntity
  8
SUNPOU
100
AcDbMText
 10
79485.3409400806
 20
63213.29746395804
 30
0.0
 40
10.5
 41
0.0
 71
     9
 72
     5
  1

1001
ACAD
1000
MTEXTBEGIN
1070
    73
1070
     1
1070
    44
1040
1.0
1070
    74
1070
     0
1000
MTEXTEND
  0
MTEXT
  5
5655
330
1A
100
AcDbEntity
  8
SUNPOU
100
AcDbMText
 10
85473.63363627567
 20
80747.76348077064
 30
0.0
 40
10.5
 41
0.0
 71
     9
 72
     5
  1

1001
ACAD
1000
MTEXTBEGIN
1070
    73
1070
     1
1070
    44
1040
1.0
1070
    74
1070
     0
1000
MTEXTEND
  0
MTEXT
  5
5656
330
1A
100
AcDbEntity
  8
SUNPOU
100
AcDbMText
 10
94195.80120219368
 20
88163.59801230808
 30
0.0
 40
10.5
 41
0.0
 71
     9
 72
     5
  1

1001
ACAD
1000
MTEXTBEGIN
1070
    73
1070
     1
1070
    44
1040
1.0
1070
    74
1070
     0
1000
MTEXTEND
  0
MTEXT
  5
5657
330
1A
100
AcDbEntity
  8
SUNPOU
100
AcDbMText
 10
113149.5599195236
 20
105630.1740648001
 30
0.0
 40
10.5
 41
0.0
 71
     9
 72
     5
  1

1001
ACAD
1000
MTEXTBEGIN
1070
    73
1070
     1
1070
    44
1040
1.0
1070
    74
1070
     0
1000
MTEXTEND
  0
MTEXT
  5
5658
330
1A
100
AcDbEntity
  8
SUNPOU
100
AcDbMText
 10
115092.967166233
 20
103829.1249849221
 30
0.0
 40
3.5
 41
0.0
 71
     9
 72
     5
  1

1001
ACAD
1000
MTEXTBEGIN
1070
    73
1070
     1
1070
    44
1040
1.0
1070
    74
1070
     0
1000
MTEXTEND
  0
MTEXT
  5
5659
330
1A
100
AcDbEntity
  8
SUNPOU
100
AcDbMText
 10
146219.1469988527
 20
146324.0706525794
 30
0.0
 40
10.5
 41
0.0
 71
     9
 72
     5
  1

1001
ACAD
1000
MTEXTBEGIN
1070
    73
1070
     1
1070
    44
1040
1.0
1070
    74
1070
     0
1000
MTEXTEND
  0
MTEXT
  5
565A
330
1A
100
AcDbEntity
  8
SUNPOU
100
AcDbMText
 10
148162.5542455621
 20
144523.0215727014
 30
0.0
 40
3.5
 41
0.0
 71
     9
 72
     5
  1

1001
ACAD
1000
MTEXTBEGIN
1070
    73
1070
     1
1070
    44
1040
1.0
1070
    74
1070
     0
1000
MTEXTEND
  0
MTEXT
  5
565B
330
1A
100
AcDbEntity
  8
SUNPOU
100
AcDbMText
 10
96659.41470464833
 20
92157.23580755453
 30
0.0
 40
10.5
 41
0.0
 71
     9
 72
     5
  1

1001
ACAD
1000
MTEXTBEGIN
1070
    73
1070
     1
1070
    44
1040
1.0
1070
    74
1070
     0
1000
MTEXTEND
  0
MTEXT
  5
565C
330
1A
100
AcDbEntity
  8
SUNPOU
100
AcDbMText
 10
82711.41460427234
 20
72984.83666844234
 30
0.0
 40
3.5
 41
0.0
 71
     7
 72
     5
  1

1001
ACAD
1000
MTEXTBEGIN
1070
    73
1070
     1
1070
    44
1040
1.0
1070
    74
1070
     0
1000
MTEXTEND
  0
MTEXT
  5
565D
330
1A
100
AcDbEntity
  8
SUNPOU
100
AcDbMText
 10
63696.58400126548
 20
60746.98539926055
 30
0.0
 40
10.5
 41
0.0
 71
     7
 72
     5
  1

1001
ACAD
1000
MTEXTBEGIN
1070
    73
1070
     1
1070
    44
1040
1.0
1070
    74
1070
     0
1000
MTEXTEND
  0
MTEXT
  5
565E
330
1A
100
AcDbEntity
  8
SUNPOU
100
AcDbMText
 10
51239.35573631738
 20
44902.05382116213
 30
0.0
 40
35.0
 41
0.0
 71
     9
 72
     5
  1

1001
ACAD
1000
MTEXTBEGIN
1070
    73
1070
     1
1070
    44
1040
1.0
1070
    74
1070
     0
1000
MTEXTEND
  0
MTEXT
  5
565F
330
1A
100
AcDbEntity
  8
SUNPOU
100
AcDbMText
 10
50147.84079389233
 20
45510.82923121084
 30
0.0
 40
350.0000004171781
 41
0.0
 71
     7
 72
     5
  1

1001
ACAD
1000
MTEXTBEGIN
1070
    73
1070
     1
1070
    44
1040
1.0
1070
    74
1070
     0
1000
MTEXTEND
  0
MTEXT
  5
5660
330
1A
100
AcDbEntity
  8
0
100
AcDbMText
 10
56191.79155183523
 20
43490.75159334705
 30
0.0
 40
8.0
 41
0.0
 71
     7
 72
     5
  1

1001
ACAD
1000
MTEXTBEGIN
1070
    73
1070
     1
1070
    44
1040
1.0
1070
    74
1070
     0
1000
MTEXTEND
  0
MTEXT
  5
5661
330
1A
100
AcDbEntity
  8
0
100
AcDbMText
 10
58477.14924173012
 20
44461.54188809812
 30
0.0
 40
8.0
 41
0.0
 71
     7
 72
     5
  1

1001
ACAD
1000
MTEXTBEGIN
1070
    73
1070
     1
1070
    44
1040
1.0
1070
    74
1070
     0
1000
MTEXTEND
  0
MTEXT
  5
5662
330
1A
100
AcDbEntity
  8
SUNPOU
100
AcDbMText
 10
61143.04626241227
 20
53973.65328047324
 30
0.0
 40
10.5
 41
0.0
 71
     1
 72
     5
  1

1001
ACAD
1000
MTEXTBEGIN
1070
    73
1070
     1
1070
    44
1040
1.0
1070
    74
1070
     0
1000
MTEXTEND
  0
MTEXT
  5
5663
330
1A
100
AcDbEntity
  8
SUNPOU
100
AcDbMText
 10
53212.12306647633
 20
53026.86014656028
 30
0.0
 40
10.5
 41
0.0
 71
     7
 72
     5
  1

1001
ACAD
1000
MTEXTBEGIN
1070
    73
1070
     1
1070
    44
1040
1.0
1070
    74
1070
     0
1000
MTEXTEND
  0
MTEXT
  5
5664
330
1A
100
AcDbEntity
  8
SUNPOU
100
AcDbMText
 10
56161.10673098909
 20
57927.53621840312
 30
0.0
 40
10.5
 41
0.0
 71
     7
 72
     5
  1

1001
ACAD
1000
MTEXTBEGIN
1070
    73
1070
     1
1070
    44
1040
1.0
1070
    74
1070
     0
1000
MTEXTEND
  0
MTEXT
  5
5665
330
1A
100
AcDbEntity
  8
SUNPOU
100
AcDbMText
 10
60670.18485893966
 20
60363.8369660232
 30
0.0
 40
10.5
 41
0.0
 71
     7
 72
     5
  1

1001
ACAD
1000
MTEXTBEGIN
1070
    73
1070
     1
1070
    44
1040
1.0
1070
    74
1070
     0
1000
MTEXTEND
  0
MTEXT
  5
5666
330
1A
100
AcDbEntity
  8
SUNPOU
100
AcDbMText
 10
44271.02274570799
 20
39361.43311641211
 30
0.0
 40
10.5
 41
0.0
 71
     7
 72
     5
  1

1001
ACAD
1000
MTEXTBEGIN
1070
    73
1070
     1
1070
    44
1040
1.0
1070
    74
1070
     0
1000
MTEXTEND
  0
MTEXT
  5
5667
330
1A
100
AcDbEntity
  8
SUNPOU
100
AcDbMText
 10
95462.54117960824
 20
85034.41368006038
 30
0.0
 40
10.5
 41
0.0
 71
     9
 72
     5
  1

1001
ACAD
1000
MTEXTBEGIN
1070
    73
1070
     1
1070
    44
1040
1.0
1070
    74
1070
     0
1000
MTEXTEND
  0
MTEXT
  5
5668
330
1A
100
AcDbEntity
  8
SUNPOU
100
AcDbMText
 10
104184.7087455262
 20
92450.24821159784
 30
0.0
 40
10.5
 41
0.0
 71
     9
 72
     5
  1

1001
ACAD
1000
MTEXTBEGIN
1070
    73
1070
     1
1070
    44
1040
1.0
1070
    74
1070
     0
1000
MTEXTEND
  0
MTEXT
  5
5669
330
1A
100
AcDbEntity
  8
SUNPOU
100
AcDbMText
 10
123138.4674628562
 20
109916.8242640898
 30
0.0
 40
10.5
 41
0.0
 71
     9
 72
     5
  1

1001
ACAD
1000
MTEXTBEGIN
1070
    73
1070
     1
1070
    44
1040
1.0
1070
    74
1070
     0
1000
MTEXTEND
  0
MTEXT
  5
566A
330
1A
100
AcDbEntity
  8
SUNPOU
100
AcDbMText
 10
125081.8747095656
 20
108115.7751842118
 30
0.0
 40
3.5
 41
0.0
 71
     9
 72
     5
  1

1001
ACAD
1000
MTEXTBEGIN
1070
    73
1070
     1
1070
    44
1040
1.0
1070
    74
1070
     0
1000
MTEXTEND
  0
MTEXT
  5
566B
330
1A
100
AcDbEntity
  8
SUNPOU
100
AcDbMText
 10
156208.0545421853
 20
150610.7208518691
 30
0.0
 40
10.5
 41
0.0
 71
     9
 72
     5
  1

1001
ACAD
1000
MTEXTBEGIN
1070
    73
1070
     1
1070
    44
1040
1.0
1070
    74
1070
     0
1000
MTEXTEND
  0
MTEXT
  5
566C
330
1A
100
AcDbEntity
  8
SUNPOU
100
AcDbMText
 10
158151.4617888947
 20
148809.6717719911
 30
0.0
 40
3.5
 41
0.0
 71
     9
 72
     5
  1

1001
ACAD
1000
MTEXTBEGIN
1070
    73
1070
     1
1070
    44
1040
1.0
1070
    74
1070
     0
1000
MTEXTEND
  0
MTEXT
  5
566D
330
1A
100
AcDbEntity
  8
SUNPOU
100
AcDbMText
 10
106648.3222479809
 20
96443.88600684427
 30
0.0
 40
10.5
 41
0.0
 71
     9
 72
     5
  1

1001
ACAD
1000
MTEXTBEGIN
1070
    73
1070
     1
1070
    44
1040
1.0
1070
    74
1070
     0
1000
MTEXTEND
  0
MTEXT
  5
566E
330
1A
100
AcDbEntity
  8
SUNPOU
100
AcDbMText
 10
92700.3221476049
 20
77271.48686773207
 30
0.0
 40
3.5
 41
0.0
 71
     7
 72
     5
  1

1001
ACAD
1000
MTEXTBEGIN
1070
    73
1070
     1
1070
    44
1040
1.0
1070
    74
1070
     0
1000
MTEXTEND
  0
MTEXT
  5
566F
330
1A
100
AcDbEntity
  8
SUNPOU
100
AcDbMText
 10
73685.49154459807
 20
65033.63559855027
 30
0.0
 40
10.5
 41
0.0
 71
     7
 72
     5
  1

1001
ACAD
1000
MTEXTBEGIN
1070
    73
1070
     1
1070
    44
1040
1.0
1070
    74
1070
     0
1000
MTEXTEND
  0
MTEXT
  5
5670
330
1A
100
AcDbEntity
  8
SUNPOU
100
AcDbMText
 10
61228.26327964995
 20
49188.70402045184
 30
0.0
 40
35.0
 41
0.0
 71
     9
 72
     5
  1

1001
ACAD
1000
MTEXTBEGIN
1070
    73
1070
     1
1070
    44
1040
1.0
1070
    74
1070
     0
1000
MTEXTEND
  0
MTEXT
  5
5671
330
1A
100
AcDbEntity
  8
SUNPOU
100
AcDbMText
 10
60136.74833722491
 20
49797.47943050056
 30
0.0
 40
350.0000004171781
 41
0.0
 71
     7
 72
     5
  1

1001
ACAD
1000
MTEXTBEGIN
1070
    73
1070
     1
1070
    44
1040
1.0
1070
    74
1070
     0
1000
MTEXTEND
  0
MTEXT
  5
5672
330
1A
100
AcDbEntity
  8
0
100
AcDbMText
 10
66180.69909516782
 20
47777.40179263677
 30
0.0
 40
8.0
 41
0.0
 71
     7
 72
     5
  1

1001
ACAD
1000
MTEXTBEGIN
1070
    73
1070
     1
1070
    44
1040
1.0
1070
    74
1070
     0
1000
MTEXTEND
  0
MTEXT
  5
5673
330
1A
100
AcDbEntity
  8
0
100
AcDbMText
 10
68466.05678506271
 20
48748.19208738784
 30
0.0
 40
8.0
 41
0.0
 71
     7
 72
     5
  1

1001
ACAD
1000
MTEXTBEGIN
1070
    73
1070
     1
1070
    44
1040
1.0
1070
    74
1070
     0
1000
MTEXTEND
  0
MTEXT
  5
5674
330
1A
100
AcDbEntity
  8
SUNPOU
100
AcDbMText
 10
71131.95380574485
 20
58260.30347976296
 30
0.0
 40
10.5
 41
0.0
 71
     1
 72
     5
  1

1001
ACAD
1000
MTEXTBEGIN
1070
    73
1070
     1
1070
    44
1040
1.0
1070
    74
1070
     0
1000
MTEXTEND
  0
MTEXT
  5
5675
330
1A
100
AcDbEntity
  8
SUNPOU
100
AcDbMText
 10
63201.03060980891
 20
57313.51034585003
 30
0.0
 40
10.5
 41
0.0
 71
     7
 72
     5
  1

1001
ACAD
1000
MTEXTBEGIN
1070
    73
1070
     1
1070
    44
1040
1.0
1070
    74
1070
     0
1000
MTEXTEND
  0
MTEXT
  5
5676
330
1A
100
AcDbEntity
  8
SUNPOU
100
AcDbMText
 10
66150.01427432169
 20
62214.18641769286
 30
0.0
 40
10.5
 41
0.0
 71
     7
 72
     5
  1

1001
ACAD
1000
MTEXTBEGIN
1070
    73
1070
     1
1070
    44
1040
1.0
1070
    74
1070
     0
1000
MTEXTEND
  0
MTEXT
  5
5677
330
1A
100
AcDbEntity
  8
SUNPOU
100
AcDbMText
 10
70659.09240227225
 20
64650.48716531294
 30
0.0
 40
10.5
 41
0.0
 71
     7
 72
     5
  1

1001
ACAD
1000
MTEXTBEGIN
1070
    73
1070
     1
1070
    44
1040
1.0
1070
    74
1070
     0
1000
MTEXTEND
  0
MTEXT
  5
5678
330
1A
100
AcDbEntity
  8
SUNPOU
100
AcDbMText
 10
54259.93028904056
 20
43648.08331570185
 30
0.0
 40
10.5
 41
0.0
 71
     7
 72
     5
  1

1001
ACAD
1000
MTEXTBEGIN
1070
    73
1070
     1
1070
    44
1040
1.0
1070
    74
1070
     0
1000
MTEXTEND
  0
MTEXT
  5
5679
330
1A
100
AcDbEntity
  8
SUNPOU
100
AcDbMText
 10
56070.69320041551
 20
49975.4973031804
 30
0.0
 40
10.5
 41
0.0
 71
     9
 72
     5
  1

1001
ACAD
1000
MTEXTBEGIN
1070
    73
1070
     1
1070
    44
1040
1.0
1070
    74
1070
     0
1000
MTEXTEND
  0
MTEXT
  5
567A
330
1A
100
AcDbEntity
  8
SUNPOU
100
AcDbMText
 10
64792.86076633347
 20
57391.33183471787
 30
0.0
 40
10.5
 41
0.0
 71
     9
 72
     5
  1

1001
ACAD
1000
MTEXTBEGIN
1070
    73
1070
     1
1070
    44
1040
1.0
1070
    74
1070
     0
1000
MTEXTEND
  0
MTEXT
  5
567B
330
1A
100
AcDbEntity
  8
SUNPOU
100
AcDbMText
 10
83746.61948366345
 20
74857.90788720994
 30
0.0
 40
10.5
 41
0.0
 71
     9
 72
     5
  1

1001
ACAD
1000
MTEXTBEGIN
1070
    73
1070
     1
1070
    44
1040
1.0
1070
    74
1070
     0
1000
MTEXTEND
  0
MTEXT
  5
567C
330
1A
100
AcDbEntity
  8
SUNPOU
100
AcDbMText
 10
85690.02673037287
 20
73056.85880733192
 30
0.0
 40
3.5
 41
0.0
 71
     9
 72
     5
  1

1001
ACAD
1000
MTEXTBEGIN
1070
    73
1070
     1
1070
    44
1040
1.0
1070
    74
1070
     0
1000
MTEXTEND
  0
MTEXT
  5
567D
330
1A
100
AcDbEntity
  8
SUNPOU
100
AcDbMText
 10
116816.2065629925
 20
115551.8044749892
 30
0.0
 40
10.5
 41
0.0
 71
     9
 72
     5
  1

1001
ACAD
1000
MTEXTBEGIN
1070
    73
1070
     1
1070
    44
1040
1.0
1070
    74
1070
     0
1000
MTEXTEND
  0
MTEXT
  5
567E
330
1A
100
AcDbEntity
  8
SUNPOU
100
AcDbMText
 10
118759.6138097019
 20
113750.7553951111
 30
0.0
 40
3.5
 41
0.0
 71
     9
 72
     5
  1

1001
ACAD
1000
MTEXTBEGIN
1070
    73
1070
     1
1070
    44
1040
1.0
1070
    74
1070
     0
1000
MTEXTEND
  0
MTEXT
  5
567F
330
1A
100
AcDbEntity
  8
SUNPOU
100
AcDbMText
 10
67256.47426878814
 20
61384.96962996432
 30
0.0
 40
10.5
 41
0.0
 71
     9
 72
     5
  1

1001
ACAD
1000
MTEXTBEGIN
1070
    73
1070
     1
1070
    44
1040
1.0
1070
    74
1070
     0
1000
MTEXTEND
  0
MTEXT
  5
5680
330
1A
100
AcDbEntity
  8
SUNPOU
100
AcDbMText
 10
53308.47416841216
 20
42212.57049085211
 30
0.0
 40
3.5
 41
0.0
 71
     7
 72
     5
  1

1001
ACAD
1000
MTEXTBEGIN
1070
    73
1070
     1
1070
    44
1040
1.0
1070
    74
1070
     0
1000
MTEXTEND
  0
MTEXT
  5
5681
330
1A
100
AcDbEntity
  8
SUNPOU
100
AcDbMText
 10
67000.82485118274
 20
51571.63371187344
 30
0.0
 40
10.5
 41
0.0
 71
     9
 72
     5
  1

1001
ACAD
1000
MTEXTBEGIN
1070
    73
1070
     1
1070
    44
1040
1.0
1070
    74
1070
     0
1000
MTEXTEND
  0
MTEXT
  5
5682
330
1A
100
AcDbEntity
  8
SUNPOU
100
AcDbMText
 10
75722.99241710071
 20
58987.46824341094
 30
0.0
 40
10.5
 41
0.0
 71
     9
 72
     5
  1

1001
ACAD
1000
MTEXTBEGIN
1070
    73
1070
     1
1070
    44
1040
1.0
1070
    74
1070
     0
1000
MTEXTEND
  0
MTEXT
  5
5683
330
1A
100
AcDbEntity
  8
SUNPOU
100
AcDbMText
 10
94676.75113443068
 20
76454.04429590299
 30
0.0
 40
10.5
 41
0.0
 71
     9
 72
     5
  1

1001
ACAD
1000
MTEXTBEGIN
1070
    73
1070
     1
1070
    44
1040
1.0
1070
    74
1070
     0
1000
MTEXTEND
  0
MTEXT
  5
5684
330
1A
100
AcDbEntity
  8
SUNPOU
100
AcDbMText
 10
96620.1583811401
 20
74652.99521602497
 30
0.0
 40
3.5
 41
0.0
 71
     9
 72
     5
  1

1001
ACAD
1000
MTEXTBEGIN
1070
    73
1070
     1
1070
    44
1040
1.0
1070
    74
1070
     0
1000
MTEXTEND
  0
MTEXT
  5
5685
330
1A
100
AcDbEntity
  8
SUNPOU
100
AcDbMText
 10
127746.3382137598
 20
117147.9408836822
 30
0.0
 40
10.5
 41
0.0
 71
     9
 72
     5
  1

1001
ACAD
1000
MTEXTBEGIN
1070
    73
1070
     1
1070
    44
1040
1.0
1070
    74
1070
     0
1000
MTEXTEND
  0
MTEXT
  5
5686
330
1A
100
AcDbEntity
  8
SUNPOU
100
AcDbMText
 10
129689.7454604692
 20
115346.8918038042
 30
0.0
 40
3.5
 41
0.0
 71
     9
 72
     5
  1

1001
ACAD
1000
MTEXTBEGIN
1070
    73
1070
     1
1070
    44
1040
1.0
1070
    74
1070
     0
1000
MTEXTEND
  0
MTEXT
  5
5687
330
1A
100
AcDbEntity
  8
SUNPOU
100
AcDbMText
 10
78186.60591955537
 20
62981.10603865737
 30
0.0
 40
10.5
 41
0.0
 71
     9
 72
     5
  1

1001
ACAD
1000
MTEXTBEGIN
1070
    73
1070
     1
1070
    44
1040
1.0
1070
    74
1070
     0
1000
MTEXTEND
  0
MTEXT
  5
5688
330
1A
100
AcDbEntity
  8
SUNPOU
100
AcDbMText
 10
64238.60581917939
 20
43808.70689954517
 30
0.0
 40
3.5
 41
0.0
 71
     7
 72
     5
  1

1001
ACAD
1000
MTEXTBEGIN
1070
    73
1070
     1
1070
    44
1040
1.0
1070
    74
1070
     0
1000
MTEXTEND
  0
MTEXT
  5
5689
330
1A
100
AcDbEntity
  8
SUNPOU
100
AcDbMText
 10
33428.13481137435
 20
32770.04710035563
 30
0.0
 40
10.5
 41
0.0
 71
     9
 72
     5
  1

1001
ACAD
1000
MTEXTBEGIN
1070
    73
1070
     1
1070
    44
1040
1.0
1070
    74
1070
     0
1000
MTEXTEND
  0
MTEXT
  5
568A
330
1A
100
AcDbEntity
  8
SUNPOU
100
AcDbMText
 10
52381.89352870431
 20
50236.62315284768
 30
0.0
 40
10.5
 41
0.0
 71
     9
 72
     5
  1

1001
ACAD
1000
MTEXTBEGIN
1070
    73
1070
     1
1070
    44
1040
1.0
1070
    74
1070
     0
1000
MTEXTEND
  0
MTEXT
  5
568B
330
1A
100
AcDbEntity
  8
SUNPOU
100
AcDbMText
 10
54325.30077541374
 20
48435.57407296968
 30
0.0
 40
3.5
 41
0.0
 71
     9
 72
     5
  1

1001
ACAD
1000
MTEXTBEGIN
1070
    73
1070
     1
1070
    44
1040
1.0
1070
    74
1070
     0
1000
MTEXTEND
  0
MTEXT
  5
568C
330
1A
100
AcDbEntity
  8
SUNPOU
100
AcDbMText
 10
85451.48060803342
 20
90930.51974062703
 30
0.0
 40
10.5
 41
0.0
 71
     9
 72
     5
  1

1001
ACAD
1000
MTEXTBEGIN
1070
    73
1070
     1
1070
    44
1040
1.0
1070
    74
1070
     0
1000
MTEXTEND
  0
MTEXT
  5
568D
330
1A
100
AcDbEntity
  8
SUNPOU
100
AcDbMText
 10
87394.88785474286
 20
89129.47066074901
 30
0.0
 40
3.5
 41
0.0
 71
     9
 72
     5
  1

1001
ACAD
1000
MTEXTBEGIN
1070
    73
1070
     1
1070
    44
1040
1.0
1070
    74
1070
     0
1000
MTEXTEND
  0
MTEXT
  5
568E
330
1A
100
AcDbEntity
  8
SUNPOU
100
AcDbMText
 10
35891.74831382901
 20
36763.68489560208
 30
0.0
 40
10.5
 41
0.0
 71
     9
 72
     5
  1

1001
ACAD
1000
MTEXTBEGIN
1070
    73
1070
     1
1070
    44
1040
1.0
1070
    74
1070
     0
1000
MTEXTEND
  0
MTEXT
  5
568F
330
1A
100
AcDbEntity
  8
SUNPOU
100
AcDbMText
 10
21943.74821345303
 20
17591.28575648985
 30
0.0
 40
3.5
 41
0.0
 71
     7
 72
     5
  1

1001
ACAD
1000
MTEXTBEGIN
1070
    73
1070
     1
1070
    44
1040
1.0
1070
    74
1070
     0
1000
MTEXTEND
  0
MTEXT
  5
11D07
330
1A
100
AcDbEntity
  8
ZISSEN1
100
AcDbMText
 10
-1766.564730141634
 20
1935.684636016623
 30
0.0
 40
5.0
 41
171.8538
 71
     1
 72
     5
  1
AD-5610　　No.SS0001f36
  7
ゴシック体
1001
ACAD
1000
MTEXTBEGIN
1070
    73
1070
     1
1070
    44
1040
1.0
1070
    74
1070
     0
1000
MTEXTEND
  0
LINE
  5
13791
330
1A
100
AcDbEntity
  8
ZISSEN1
100
AcDbLine
 10
-1934.978859019063
 20
1636.038818386226
 30
0.0
 11
-1934.978859019063
 21
1880.038838386226
 31
0.0
  0
LINE
  5
13792
330
1A
100
AcDbEntity
  8
ZISSEN1
100
AcDbLine
 10
-1931.478859019063
 20
1868.038848386225
 30
0.0
 11
-1931.478859019063
 21
1648.038820386225
 31
0.0
  0
LINE
  5
13793
330
1A
100
AcDbEntity
  8
ZISSEN1
100
AcDbLine
 10
-1824.978860019063
 20
1868.038848386225
 30
0.0
 11
-1824.978860019063
 21
1648.038820386225
 31
0.0
  0
CIRCLE
  5
13794
330
1A
100
AcDbEntity
  8
ZISSEN1
100
AcDbCircle
 10
-1901.478860019063
 20
1676.038813386226
 30
0.0
 40
3.0
  0
CIRCLE
  5
13795
330
1A
100
AcDbEntity
  8
ZISSEN1
100
AcDbCircle
 10
-1901.478860019063
 20
1730.038818386225
 30
0.0
 40
3.0
  0
LINE
  5
13796
330
1A
100
AcDbEntity
  8
ZISSEN1
100
AcDbLine
 10
-1824.978860019063
 20
1648.038820386225
 30
0.0
 11
-1931.478859019063
 21
1648.038820386225
 31
0.0
  0
LINE
  5
13797
330
1A
100
AcDbEntity
  8
CL1
100
AcDbLine
 10
-1928.478862019063
 20
1642.038819386225
 30
0.0
 11
-1937.978856019063
 21
1642.038819386225
 31
0.0
  0
LINE
  5
13798
330
1A
100
AcDbEntity
  8
ZISSEN1
100
AcDbLine
 10
-1931.978861019063
 20
1650.538816386225
 30
0.0
 11
-1931.978861019063
 21
1636.038818386226
 31
0.0
  0
LINE
  5
13799
330
1A
100
AcDbEntity
  8
ZISSEN1
100
AcDbLine
 10
-1931.978861019063
 20
1636.038818386226
 30
0.0
 11
-1934.978859019063
 21
1636.038818386226
 31
0.0
  0
LINE
  5
1379A
330
1A
100
AcDbEntity
  8
ZISSEN1
100
AcDbLine
 10
-1931.978861019063
 20
1637.453035386226
 30
0.0
 11
-1934.978859019063
 21
1637.453035386226
 31
0.0
  0
LINE
  5
1379B
330
1A
100
AcDbEntity
  8
ZISSEN1
100
AcDbLine
 10
-1931.978861019063
 20
1636.038818386226
 30
0.0
 11
-1934.978859019063
 21
1636.038818386226
 31
0.0
  0
LINE
  5
1379C
330
1A
100
AcDbEntity
  8
ZISSEN1
100
AcDbLine
 10
-1931.978861019063
 20
1650.538816386225
 30
0.0
 11
-1931.478859019063
 21
1650.538816386225
 31
0.0
  0
LINE
  5
1379D
330
1A
100
AcDbEntity
  8
ZISSEN1
100
AcDbLine
 10
-1931.478859019063
 20
1648.038820386225
 30
0.0
 11
-1931.978861019063
 21
1648.038820386225
 31
0.0
  0
LINE
  5
1379E
330
1A
100
AcDbEntity
  8
ZISSEN1
100
AcDbLine
 10
-1931.978861019063
 20
1650.538816386225
 30
0.0
 11
-1934.978859019063
 21
1650.538816386225
 31
0.0
  0
LINE
  5
1379F
330
1A
100
AcDbEntity
  8
ZISSEN1
100
AcDbLine
 10
-1809.978860019063
 20
1706.989260386225
 30
0.0
 11
-1809.978860019063
 21
1651.538819386225
 31
0.0
  0
LINE
  5
137A0
330
1A
100
AcDbEntity
  8
ZISSEN1
100
AcDbLine
 10
-1809.978860019063
 20
1651.538819386225
 30
0.0
 11
-1824.978860019063
 21
1651.538819386225
 31
0.0
  0
LINE
  5
137A1
330
1A
100
AcDbEntity
  8
ZISSEN1
100
AcDbLine
 10
-1809.978860019063
 20
1715.538813386226
 30
0.0
 11
-1824.978860019063
 21
1715.538813386226
 31
0.0
  0
ARC
  5
137A2
330
1A
100
AcDbEntity
  8
ZISSEN1
100
AcDbCircle
 10
-1813.978820019062
 20
1711.149256386226
 30
0.0
 40
2.0
100
AcDbArc
 50
0.0
 51
90.0
  0
ARC
  5
137A3
330
1A
100
AcDbEntity
  8
ZISSEN1
100
AcDbCircle
 10
-1813.978820019062
 20
1709.149243386226
 30
0.0
 40
2.0
100
AcDbArc
 50
270.0
 51
0.0
  0
LINE
  5
137A4
330
1A
100
AcDbEntity
  8
ZISSEN1
100
AcDbLine
 10
-1814.978830019063
 20
1706.989260386225
 30
0.0
 11
-1809.978860019063
 21
1706.989260386225
 31
0.0
  0
LINE
  5
137A5
330
1A
100
AcDbEntity
  8
ZISSEN1
100
AcDbLine
 10
-1814.978830019063
 20
1713.309251386226
 30
0.0
 11
-1809.978860019063
 21
1713.309251386226
 31
0.0
  0
LINE
  5
137A6
330
1A
100
AcDbEntity
  8
ZISSEN1
100
AcDbLine
 10
-1814.978830019063
 20
1707.149236386225
 30
0.0
 11
-1814.978830019063
 21
1713.149256386226
 31
0.0
  0
LINE
  5
137A7
330
1A
100
AcDbEntity
  8
ZISSEN1
100
AcDbLine
 10
-1814.978830019063
 20
1713.309251386226
 30
0.0
 11
-1814.978830019063
 21
1706.989260386225
 31
0.0
  0
LINE
  5
137A8
330
1A
100
AcDbEntity
  8
ZISSEN1
100
AcDbLine
 10
-1813.978820019062
 20
1707.149236386225
 30
0.0
 11
-1814.978830019063
 21
1707.149236386225
 31
0.0
  0
LINE
  5
137A9
330
1A
100
AcDbEntity
  8
ZISSEN1
100
AcDbLine
 10
-1813.978820019062
 20
1713.149256386226
 30
0.0
 11
-1814.978830019063
 21
1713.149256386226
 31
0.0
  0
LINE
  5
137AA
330
1A
100
AcDbEntity
  8
ZISSEN1
100
AcDbLine
 10
-1811.978820019063
 20
1711.149256386226
 30
0.0
 11
-1811.978820019063
 21
1709.149243386226
 31
0.0
  0
LINE
  5
137AB
330
1A
100
AcDbEntity
  8
ZISSEN1
100
AcDbLine
 10
-1809.978860019063
 20
1715.538813386226
 30
0.0
 11
-1809.978860019063
 21
1713.309251386226
 31
0.0
  0
LINE
  5
137AC
330
1A
100
AcDbEntity
  8
ZISSEN1
100
AcDbLine
 10
-1931.978861019063
 20
1921.849638386225
 30
0.0
 11
-1931.978861019063
 21
1962.349648386225
 31
0.0
  0
LINE
  5
137AD
330
1A
100
AcDbEntity
  8
ZISSEN1
100
AcDbLine
 10
-1934.978859019063
 20
1919.556728386225
 30
0.0
 11
-1934.978859019063
 21
1964.642518386225
 31
0.0
  0
LINE
  5
137AE
330
1A
100
AcDbEntity
  8
ZISSEN1
100
AcDbLine
 10
-1931.478859019063
 20
1961.849618386225
 30
0.0
 11
-1931.478859019063
 21
1914.349638386226
 31
0.0
  0
LINE
  5
137AF
330
1A
100
AcDbEntity
  8
ZISSEN1
100
AcDbLine
 10
-1826.978870019063
 20
1915.849618386226
 30
0.0
 11
-1826.978870019063
 21
1962.349648386225
 31
0.0
  0
LINE
  5
137B0
330
1A
100
AcDbEntity
  8
ZISSEN1
100
AcDbLine
 10
-1826.478860019063
 20
1965.349658386226
 30
0.0
 11
-1826.478860019063
 21
1915.849618386226
 31
0.0
  0
LINE
  5
137B1
330
1A
100
AcDbEntity
  8
ZISSEN1
100
AcDbLine
 10
-1824.978860019063
 20
1914.349638386226
 30
0.0
 11
-1824.978860019063
 21
1966.849638386225
 31
0.0
  0
ARC
  5
137B2
330
1A
100
AcDbEntity
  8
ZISSEN1
100
AcDbCircle
 10
-1902.478863019063
 20
1913.349628386226
 30
0.0
 40
2.0
100
AcDbArc
 50
180.0
 51
270.0
  0
CIRCLE
  5
137B3
330
1A
100
AcDbEntity
  8
ZISSEN1
100
AcDbCircle
 10
-1901.478860019063
 20
1789.038808386226
 30
0.0
 40
3.0
  0
LINE
  5
137B4
330
1A
100
AcDbEntity
  8
ZISSEN1
100
AcDbLine
 10
-1904.478869019063
 20
1914.349638386226
 30
0.0
 11
-1898.478850019063
 21
1914.349638386226
 31
0.0
  0
LINE
  5
137B5
330
1A
100
AcDbEntity
  8
ZISSEN1
100
AcDbLine
 10
-1931.978861019063
 20
1915.849638386226
 30
0.0
 11
-1824.978860019063
 21
1915.849638386226
 31
0.0
  0
LINE
  5
137B6
330
1A
100
AcDbEntity
  8
ZISSEN1
100
AcDbLine
 10
-1824.978860019063
 20
1868.038848386225
 30
0.0
 11
-1931.478859019063
 21
1868.038848386225
 31
0.0
  0
LINE
  5
137B7
330
1A
100
AcDbEntity
  8
ZISSEN1
100
AcDbLine
 10
-1931.978861019063
 20
1914.349638386226
 30
0.0
 11
-1824.978860019063
 21
1914.349638386226
 31
0.0
  0
LINE
  5
137B8
330
1A
100
AcDbEntity
  8
ZISSEN1
100
AcDbLine
 10
-1931.978861019063
 20
1880.038838386226
 30
0.0
 11
-1931.978861019063
 21
1865.538818386225
 31
0.0
  0
LINE
  5
137B9
330
1A
100
AcDbEntity
  8
ZISSEN1
100
AcDbLine
 10
-1931.978861019063
 20
1865.538818386225
 30
0.0
 11
-1931.478859019063
 21
1865.538818386225
 31
0.0
  0
LINE
  5
137BA
330
1A
100
AcDbEntity
  8
ZISSEN1
100
AcDbLine
 10
-1934.978859019063
 20
1865.538818386225
 30
0.0
 11
-1931.978861019063
 21
1865.538818386225
 31
0.0
  0
LINE
  5
137BB
330
1A
100
AcDbEntity
  8
CL1
100
AcDbLine
 10
-1928.478862019063
 20
1874.038818386225
 30
0.0
 11
-1937.978856019063
 21
1874.038818386225
 31
0.0
  0
LINE
  5
137BC
330
1A
100
AcDbEntity
  8
ZISSEN1
100
AcDbLine
 10
-1931.478859019063
 20
1868.038848386225
 30
0.0
 11
-1931.978861019063
 21
1868.038848386225
 31
0.0
  0
LINE
  5
137BD
330
1A
100
AcDbEntity
  8
ZISSEN1
100
AcDbLine
 10
-1931.978873019063
 20
1878.624618386225
 30
0.0
 11
-1934.978846019063
 21
1878.624618386225
 31
0.0
  0
LINE
  5
137BE
330
1A
100
AcDbEntity
  8
ZISSEN1
100
AcDbLine
 10
-1934.978859019063
 20
1880.038838386226
 30
0.0
 11
-1931.978861019063
 21
1880.038838386226
 31
0.0
  0
LINE
  5
137BF
330
1A
100
AcDbEntity
  8
CL1
100
AcDbLine
 10
-1937.978856019063
 20
1930.349608386225
 30
0.0
 11
-1928.978863019063
 21
1930.349608386225
 31
0.0
  0
LINE
  5
137C0
330
1A
100
AcDbEntity
  8
ZISSEN1
100
AcDbLine
 10
-1931.978861019063
 20
1921.849638386225
 30
0.0
 11
-1931.978861019063
 21
1918.849628386226
 31
0.0
  0
LINE
  5
137C1
330
1A
100
AcDbEntity
  8
ZISSEN1
100
AcDbLine
 10
-1934.978859019063
 20
1916.556748386226
 30
0.0
 11
-1934.978859019063
 21
1919.556728386225
 31
0.0
  0
LINE
  5
137C2
330
1A
100
AcDbEntity
  8
ZISSEN1
100
AcDbLine
 10
-1931.978861019063
 20
1918.849628386226
 30
0.0
 11
-1934.978859019063
 21
1918.849628386226
 31
0.0
  0
LINE
  5
137C3
330
1A
100
AcDbEntity
  8
ZISSEN1
100
AcDbLine
 10
-1931.978861019063
 20
1914.349638386226
 30
0.0
 11
-1931.978861019063
 21
1915.849638386226
 31
0.0
  0
LINE
  5
137C4
330
1A
100
AcDbEntity
  8
ZISSEN1
100
AcDbLine
 10
-1934.271753019062
 20
1915.849638386226
 30
0.0
 11
-1934.978859019063
 21
1916.556748386226
 31
0.0
  0
LINE
  5
137C5
330
1A
100
AcDbEntity
  8
ZISSEN1
100
AcDbLine
 10
-1934.271753019062
 20
1915.849638386226
 30
0.0
 11
-1931.978861019063
 21
1915.849638386226
 31
0.0
  0
LINE
  5
137C6
330
1A
100
AcDbEntity
  8
ZISSEN1
100
AcDbLine
 10
-1931.978861019063
 20
1918.849628386226
 30
0.0
 11
-1931.478859019063
 21
1918.849628386226
 31
0.0
  0
LINE
  5
137C7
330
1A
100
AcDbEntity
  8
ZISSEN1
100
AcDbLine
 10
-1934.978859019063
 20
1928.099588386225
 30
0.0
 11
-1931.978861019063
 21
1928.099588386225
 31
0.0
  0
LINE
  5
137C8
330
1A
100
AcDbEntity
  8
ZISSEN1
100
AcDbLine
 10
-1934.978859019063
 20
1932.599578386225
 30
0.0
 11
-1931.978861019063
 21
1932.599578386225
 31
0.0
  0
LINE
  5
137C9
330
1A
100
AcDbEntity
  8
ZISSEN1
100
AcDbLine
 10
-1904.478869019063
 20
1913.349628386226
 30
0.0
 11
-1904.478869019063
 21
1914.349638386226
 31
0.0
  0
LINE
  5
137CA
330
1A
100
AcDbEntity
  8
ZISSEN1
100
AcDbLine
 10
-1823.978860019063
 20
1844.256958386226
 30
0.0
 11
-1823.978860019063
 21
1842.256958386226
 31
0.0
  0
LINE
  5
137CB
330
1A
100
AcDbEntity
  8
ZISSEN1
100
AcDbLine
 10
-1812.978820019063
 20
1829.538808386226
 30
0.0
 11
-1824.978860019063
 21
1829.538808386226
 31
0.0
  0
LINE
  5
137CC
330
1A
100
AcDbEntity
  8
ZISSEN1
100
AcDbLine
 10
-1812.978820019063
 20
1842.256958386226
 30
0.0
 11
-1824.978860019063
 21
1842.256958386226
 31
0.0
  0
LINE
  5
137CD
330
1A
100
AcDbEntity
  8
ZISSEN1
100
AcDbLine
 10
-1823.978860019063
 20
1829.538808386226
 30
0.0
 11
-1823.978860019063
 21
1825.538858386225
 31
0.0
  0
LINE
  5
137CE
330
1A
100
AcDbEntity
  8
ZISSEN1
100
AcDbLine
 10
-1823.978860019063
 20
1825.538858386225
 30
0.0
 11
-1824.978860019063
 21
1825.538858386225
 31
0.0
  0
LINE
  5
137CF
330
1A
100
AcDbEntity
  8
ZISSEN1
100
AcDbLine
 10
-1812.978820019063
 20
1842.256958386226
 30
0.0
 11
-1812.978820019063
 21
1829.538808386226
 31
0.0
  0
LINE
  5
137D0
330
1A
100
AcDbEntity
  8
ZISSEN1
100
AcDbLine
 10
-1812.978820019063
 20
1844.256958386226
 30
0.0
 11
-1824.978860019063
 21
1844.256958386226
 31
0.0
  0
LINE
  5
137D1
330
1A
100
AcDbEntity
  8
ZISSEN1
100
AcDbLine
 10
-1812.978820019063
 20
1861.538798386225
 30
0.0
 11
-1824.978860019063
 21
1861.538798386225
 31
0.0
  0
LINE
  5
137D2
330
1A
100
AcDbEntity
  8
ZISSEN1
100
AcDbLine
 10
-1823.978860019063
 20
1864.538858386226
 30
0.0
 11
-1824.978860019063
 21
1864.538858386226
 31
0.0
  0
LINE
  5
137D3
330
1A
100
AcDbEntity
  8
ZISSEN1
100
AcDbLine
 10
-1823.978860019063
 20
1864.538858386226
 30
0.0
 11
-1823.978860019063
 21
1861.538798386225
 31
0.0
  0
LINE
  5
137D4
330
1A
100
AcDbEntity
  8
ZISSEN1
100
AcDbLine
 10
-1812.978820019063
 20
1861.538798386225
 30
0.0
 11
-1812.978820019063
 21
1844.256958386226
 31
0.0
  0
ARC
  5
137D5
330
1A
100
AcDbEntity
  8
ZISSEN1
100
AcDbCircle
 10
-1900.478856019063
 20
1913.349628386226
 30
0.0
 40
2.0
100
AcDbArc
 50
270.0
 51
0.0
  0
LINE
  5
137D6
330
1A
100
AcDbEntity
  8
ZISSEN1
100
AcDbLine
 10
-1900.478856019063
 20
1911.349628386226
 30
0.0
 11
-1902.478863019063
 21
1911.349628386226
 31
0.0
  0
LINE
  5
137D7
330
1A
100
AcDbEntity
  8
ZISSEN1
100
AcDbLine
 10
-1898.478850019063
 20
1913.349628386226
 30
0.0
 11
-1898.478850019063
 21
1914.349638386226
 31
0.0
  0
LINE
  5
137D8
330
1A
100
AcDbEntity
  8
ZISSEN1
100
AcDbLine
 10
-1826.978870019063
 20
1915.849618386226
 30
0.0
 11
-1826.478860019063
 21
1915.849618386226
 31
0.0
  0
LINE
  5
137D9
330
1A
100
AcDbEntity
  8
ZISSEN1
100
AcDbLine
 10
-1824.978910019063
 20
1954.949638386225
 30
0.0
 11
-1809.978910019063
 21
1954.949638386225
 31
0.0
  0
LINE
  5
137DA
330
1A
100
AcDbEntity
  8
ZISSEN1
100
AcDbLine
 10
-1824.978910019063
 20
1943.249638386225
 30
0.0
 11
-1809.978910019063
 21
1943.249638386225
 31
0.0
  0
LINE
  5
137DB
330
1A
100
AcDbEntity
  8
ZISSEN1
100
AcDbLine
 10
-1824.978910019063
 20
1954.949638386225
 30
0.0
 11
-1823.978860019063
 21
1954.949638386225
 31
0.0
  0
LINE
  5
137DC
330
1A
100
AcDbEntity
  8
ZISSEN1
100
AcDbLine
 10
-1824.978860019063
 20
1954.949638386225
 30
0.0
 11
-1823.978860019063
 21
1954.949638386225
 31
0.0
  0
LINE
  5
137DD
330
1A
100
AcDbEntity
  8
ZISSEN1
100
AcDbLine
 10
-1824.978860019063
 20
1956.549628386225
 30
0.0
 11
-1823.978860019063
 21
1956.549628386225
 31
0.0
  0
LINE
  5
137DE
330
1A
100
AcDbEntity
  8
ZISSEN1
100
AcDbLine
 10
-1823.978860019063
 20
1956.549628386225
 30
0.0
 11
-1823.978860019063
 21
1954.949638386225
 31
0.0
  0
LINE
  5
137DF
330
1A
100
AcDbEntity
  8
ZISSEN1
100
AcDbLine
 10
-1810.478910019062
 20
1943.249638386225
 30
0.0
 11
-1810.478910019062
 21
1954.949638386225
 31
0.0
  0
LINE
  5
137E0
330
1A
100
AcDbEntity
  8
ZISSEN1
100
AcDbLine
 10
-1809.978910019063
 20
1943.249638386225
 30
0.0
 11
-1809.978910019063
 21
1954.949638386225
 31
0.0
  0
LINE
  5
137E1
330
1A
100
AcDbEntity
  8
ZISSEN1
100
AcDbLine
 10
-1931.478859019063
 20
1961.849618386225
 30
0.0
 11
-1826.978870019063
 21
1961.849618386225
 31
0.0
  0
LINE
  5
137E2
330
1A
100
AcDbEntity
  8
ZISSEN1
100
AcDbLine
 10
-1931.978861019063
 20
1962.349648386225
 30
0.0
 11
-1826.978870019063
 21
1962.349648386225
 31
0.0
  0
LINE
  5
137E3
330
1A
100
AcDbEntity
  8
ZISSEN1
100
AcDbLine
 10
-1934.271750019063
 20
1965.349658386226
 30
0.0
 11
-1826.978870019063
 21
1965.349658386226
 31
0.0
  0
LINE
  5
137E4
330
1A
100
AcDbEntity
  8
ZISSEN1
100
AcDbLine
 10
-1934.978859019063
 20
1964.642518386225
 30
0.0
 11
-1934.271750019063
 21
1965.349658386226
 31
0.0
  0
LINE
  5
137E5
330
1A
100
AcDbEntity
  8
ZISSEN1
100
AcDbLine
 10
-1931.978861019063
 20
1962.349648386225
 30
0.0
 11
-1934.978859019063
 21
1962.349648386225
 31
0.0
  0
ARC
  5
137E6
330
1A
100
AcDbEntity
  8
ZISSEN1
100
AcDbCircle
 10
-1838.978860019063
 20
1966.349658386225
 30
0.0
 40
2.0
100
AcDbArc
 50
0.0
 51
90.0
  0
LINE
  5
137E7
330
1A
100
AcDbEntity
  8
ZISSEN1
100
AcDbLine
 10
-1842.978870019063
 20
1965.349658386226
 30
0.0
 11
-1836.978850019063
 21
1965.349658386226
 31
0.0
  0
ARC
  5
137E8
330
1A
100
AcDbEntity
  8
ZISSEN1
100
AcDbCircle
 10
-1840.978860019063
 20
1966.349658386225
 30
0.0
 40
2.0
100
AcDbArc
 50
90.0
 51
180.0
  0
LINE
  5
137E9
330
1A
100
AcDbEntity
  8
ZISSEN1
100
AcDbLine
 10
-1842.978870019063
 20
1966.349658386225
 30
0.0
 11
-1842.978870019063
 21
1965.349658386226
 31
0.0
  0
LINE
  5
137EA
330
1A
100
AcDbEntity
  8
ZISSEN1
100
AcDbLine
 10
-1838.978860019063
 20
1968.349668386226
 30
0.0
 11
-1840.978860019063
 21
1968.349668386226
 31
0.0
  0
ARC
  5
137EB
330
1A
100
AcDbEntity
  8
ZISSEN1
100
AcDbCircle
 10
-1830.978850019063
 20
1967.849638386226
 30
0.0
 40
2.0
100
AcDbArc
 50
0.0
 51
90.0
  0
LINE
  5
137EC
330
1A
100
AcDbEntity
  8
ZISSEN1
100
AcDbLine
 10
-1835.978860019063
 20
1965.349658386226
 30
0.0
 11
-1826.978870019063
 21
1965.349658386226
 31
0.0
  0
LINE
  5
137ED
330
1A
100
AcDbEntity
  8
ZISSEN1
100
AcDbLine
 10
-1835.978860019063
 20
1966.849638386225
 30
0.0
 11
-1824.978860019063
 21
1966.849638386225
 31
0.0
  0
ARC
  5
137EE
330
1A
100
AcDbEntity
  8
ZISSEN1
100
AcDbCircle
 10
-1832.978860019063
 20
1967.849638386226
 30
0.0
 40
2.0
100
AcDbArc
 50
90.0
 51
180.0
  0
LINE
  5
137EF
330
1A
100
AcDbEntity
  8
ZISSEN1
100
AcDbLine
 10
-1834.978870019063
 20
1966.849638386225
 30
0.0
 11
-1828.978850019063
 21
1966.849638386225
 31
0.0
  0
LINE
  5
137F0
330
1A
100
AcDbEntity
  8
ZISSEN1
100
AcDbLine
 10
-1834.978870019063
 20
1967.849638386226
 30
0.0
 11
-1834.978870019063
 21
1966.849638386225
 31
0.0
  0
LINE
  5
137F1
330
1A
100
AcDbEntity
  8
ZISSEN1
100
AcDbLine
 10
-1836.978850019063
 20
1966.349658386225
 30
0.0
 11
-1836.978850019063
 21
1965.349658386226
 31
0.0
  0
LINE
  5
137F2
330
1A
100
AcDbEntity
  8
ZISSEN1
100
AcDbLine
 10
-1835.978860019063
 20
1965.349658386226
 30
0.0
 11
-1835.978860019063
 21
1966.849638386225
 31
0.0
  0
LINE
  5
137F3
330
1A
100
AcDbEntity
  8
ZISSEN1
100
AcDbLine
 10
-1828.978850019063
 20
1967.849638386226
 30
0.0
 11
-1828.978850019063
 21
1966.849638386225
 31
0.0
  0
LINE
  5
137F4
330
1A
100
AcDbEntity
  8
ZISSEN1
100
AcDbLine
 10
-1830.978850019063
 20
1969.849648386226
 30
0.0
 11
-1832.978860019063
 21
1969.849648386226
 31
0.0
  0
LINE
  5
137F5
330
1A
100
AcDbEntity
  8
ZISSEN1
100
AcDbLine
 10
-1826.978870019063
 20
1962.349648386225
 30
0.0
 11
-1826.978870019063
 21
1965.349658386226
 31
0.0
  0
LINE
  5
137F6
330
1A
100
AcDbEntity
  8
ZISSEN1
100
AcDbLine
 10
-1826.978870019063
 20
1965.349658386226
 30
0.0
 11
-1826.478860019063
 21
1965.349658386226
 31
0.0
  0
LINE
  5
137F7
330
1A
100
AcDbEntity
  8
ZISSEN1
100
AcDbLine
 10
-1719.100500019063
 20
1811.038818386226
 30
0.0
 11
-1719.100500019063
 21
1765.538818386225
 31
0.0
  0
LINE
  5
137F8
330
1A
100
AcDbEntity
  8
ZISSEN1
100
AcDbLine
 10
-1711.100500019063
 20
1811.038818386226
 30
0.0
 11
-1711.100500019063
 21
1765.538818386225
 31
0.0
  0
LINE
  5
137F9
330
1A
100
AcDbEntity
  8
ZISSEN1
100
AcDbLine
 10
-1697.600500019063
 20
1868.038848386225
 30
0.0
 11
-1697.600500019063
 21
1648.038820386225
 31
0.0
  0
LINE
  5
137FA
330
1A
100
AcDbEntity
  8
ZISSEN1
100
AcDbLine
 10
-1750.100500019063
 20
1648.038820386225
 30
0.0
 11
-1750.100500019063
 21
1868.038848386225
 31
0.0
  0
LINE
  5
137FB
330
1A
100
AcDbEntity
  8
ZISSEN1
100
AcDbLine
 10
-1709.700530019063
 20
1716.038821386225
 30
0.0
 11
-1709.700530019063
 21
1651.038818386225
 31
0.0
  0
LINE
  5
137FC
330
1A
100
AcDbEntity
  8
ZISSEN1
100
AcDbLine
 10
-1721.400480019062
 20
1715.538819386225
 30
0.0
 11
-1721.400480019062
 21
1651.538825386225
 31
0.0
  0
LINE
  5
137FD
330
1A
100
AcDbEntity
  8
ZISSEN1
100
AcDbLine
 10
-1707.900510019063
 20
1716.038821386225
 30
0.0
 11
-1707.900510019063
 21
1651.038818386225
 31
0.0
  0
LINE
  5
137FE
330
1A
100
AcDbEntity
  8
ZISSEN1
100
AcDbLine
 10
-1721.900500019063
 20
1716.038821386225
 30
0.0
 11
-1721.900500019063
 21
1651.038818386225
 31
0.0
  0
LINE
  5
137FF
330
1A
100
AcDbEntity
  8
ZISSEN1
100
AcDbLine
 10
-1703.514730019063
 20
1636.038818386226
 30
0.0
 11
-1711.850510019063
 21
1636.038818386226
 31
0.0
  0
LINE
  5
13800
330
1A
100
AcDbEntity
  8
ZISSEN1
100
AcDbLine
 10
-1750.100500019063
 20
1648.038820386225
 30
0.0
 11
-1697.600500019063
 21
1648.038820386225
 31
0.0
  0
LINE
  5
13801
330
1A
100
AcDbEntity
  8
ZISSEN1
100
AcDbLine
 10
-1744.186270019063
 20
1636.038818386226
 30
0.0
 11
-1736.350490019063
 21
1636.038818386226
 31
0.0
  0
LINE
  5
13802
330
1A
100
AcDbEntity
  8
ZISSEN1
100
AcDbLine
 10
-1745.600490019063
 20
1637.453031386225
 30
0.0
 11
-1745.600490019063
 21
1648.038820386225
 31
0.0
  0
LINE
  5
13803
330
1A
100
AcDbEntity
  8
ZISSEN1
100
AcDbLine
 10
-1745.600490019063
 20
1637.453031386225
 30
0.0
 11
-1744.186270019063
 21
1636.038818386226
 31
0.0
  0
LINE
  5
13804
330
1A
100
AcDbEntity
  8
ZISSEN1
100
AcDbLine
 10
-1753.100510019063
 20
1677.038816386225
 30
0.0
 11
-1753.100510019063
 21
1675.038810386225
 31
0.0
  0
LINE
  5
13805
330
1A
100
AcDbEntity
  8
ZISSEN1
100
AcDbLine
 10
-1750.100500019063
 20
1673.038803386226
 30
0.0
 11
-1750.100500019063
 21
1679.038823386226
 31
0.0
  0
LINE
  5
13806
330
1A
100
AcDbEntity
  8
ZISSEN1
100
AcDbLine
 10
-1751.100510019063
 20
1673.038803386226
 30
0.0
 11
-1750.100500019063
 21
1673.038803386226
 31
0.0
  0
ARC
  5
13807
330
1A
100
AcDbEntity
  8
ZISSEN1
100
AcDbCircle
 10
-1751.100510019063
 20
1675.038810386225
 30
0.0
 40
2.0
100
AcDbArc
 50
180.0
 51
270.0
  0
LINE
  5
13808
330
1A
100
AcDbEntity
  8
ZISSEN1
100
AcDbLine
 10
-1751.100510019063
 20
1679.038823386226
 30
0.0
 11
-1750.100500019063
 21
1679.038823386226
 31
0.0
  0
ARC
  5
13809
330
1A
100
AcDbEntity
  8
ZISSEN1
100
AcDbCircle
 10
-1751.100510019063
 20
1677.038816386225
 30
0.0
 40
2.0
100
AcDbArc
 50
90.0
 51
180.0
  0
LINE
  5
1380A
330
1A
100
AcDbEntity
  8
ZISSEN1
100
AcDbLine
 10
-1731.850500019063
 20
1636.038818386226
 30
0.0
 11
-1716.350500019063
 21
1636.038818386226
 31
0.0
  0
LINE
  5
1380B
330
1A
100
AcDbEntity
  8
CL1
100
AcDbLine
 10
-1734.100500019063
 20
1645.038816386225
 30
0.0
 11
-1734.100500019063
 21
1639.038815386225
 31
0.0
  0
LINE
  5
1380C
330
1A
100
AcDbEntity
  8
ZISSEN1
100
AcDbLine
 10
-1731.850500019063
 20
1642.038819386225
 30
0.0
 11
-1731.850500019063
 21
1636.038818386226
 31
0.0
  0
LINE
  5
1380D
330
1A
100
AcDbEntity
  8
ZISSEN1
100
AcDbLine
 10
-1736.350490019063
 20
1642.038819386225
 30
0.0
 11
-1736.350490019063
 21
1636.038818386226
 31
0.0
  0
ARC
  5
1380E
330
1A
100
AcDbEntity
  8
ZISSEN1
100
AcDbCircle
 10
-1734.100500019063
 20
1642.038819386225
 30
0.0
 40
2.25
100
AcDbArc
 50
0.0
 51
180.0
  0
LINE
  5
1380F
330
1A
100
AcDbEntity
  8
CL1
100
AcDbLine
 10
-1737.100510019063
 20
1642.038819386225
 30
0.0
 11
-1731.100490019063
 21
1642.038819386225
 31
0.0
  0
ARC
  5
13810
330
1A
100
AcDbEntity
  8
ZISSEN1
100
AcDbCircle
 10
-1714.100510019063
 20
1642.038825386226
 30
0.0
 40
2.25
100
AcDbArc
 50
0.0
 51
180.0
  0
LINE
  5
13811
330
1A
100
AcDbEntity
  8
CL1
100
AcDbLine
 10
-1717.100520019063
 20
1642.038825386226
 30
0.0
 11
-1711.100500019063
 21
1642.038825386226
 31
0.0
  0
LINE
  5
13812
330
1A
100
AcDbEntity
  8
CL1
100
AcDbLine
 10
-1714.100510019063
 20
1645.038810386226
 30
0.0
 11
-1714.100510019063
 21
1639.038815386225
 31
0.0
  0
LINE
  5
13813
330
1A
100
AcDbEntity
  8
ZISSEN1
100
AcDbLine
 10
-1716.350500019063
 20
1642.038825386226
 30
0.0
 11
-1716.350500019063
 21
1636.038830386225
 31
0.0
  0
LINE
  5
13814
330
1A
100
AcDbEntity
  8
ZISSEN1
100
AcDbLine
 10
-1711.850510019063
 20
1642.038825386226
 30
0.0
 11
-1711.850510019063
 21
1636.038830386225
 31
0.0
  0
LINE
  5
13815
330
1A
100
AcDbEntity
  8
ZISSEN1
100
AcDbLine
 10
-1721.400480019062
 20
1651.538825386225
 30
0.0
 11
-1709.700530019063
 21
1651.538825386225
 31
0.0
  0
LINE
  5
13816
330
1A
100
AcDbEntity
  8
ZISSEN1
100
AcDbLine
 10
-1721.900500019063
 20
1651.038821386226
 30
0.0
 11
-1707.900510019063
 21
1651.038821386226
 31
0.0
  0
LINE
  5
13817
330
1A
100
AcDbEntity
  8
ZISSEN1
100
AcDbLine
 10
-1708.100490019063
 20
1652.038821386225
 30
0.0
 11
-1709.700530019063
 21
1652.038821386225
 31
0.0
  0
LINE
  5
13818
330
1A
100
AcDbEntity
  8
ZISSEN1
100
AcDbLine
 10
-1702.100520019063
 20
1637.453031386225
 30
0.0
 11
-1702.100520019063
 21
1648.038820386225
 31
0.0
  0
LINE
  5
13819
330
1A
100
AcDbEntity
  8
ZISSEN1
100
AcDbLine
 10
-1702.100520019063
 20
1637.453031386225
 30
0.0
 11
-1703.514730019063
 21
1636.038818386226
 31
0.0
  0
ARC
  5
1381A
330
1A
100
AcDbEntity
  8
ZISSEN1
100
AcDbCircle
 10
-1751.100510019063
 20
1729.038808386225
 30
0.0
 40
2.0
100
AcDbArc
 50
180.0
 51
270.0
  0
LINE
  5
1381B
330
1A
100
AcDbEntity
  8
ZISSEN1
100
AcDbLine
 10
-1750.100500019063
 20
1727.038808386225
 30
0.0
 11
-1750.100500019063
 21
1733.038828386225
 31
0.0
  0
LINE
  5
1381C
330
1A
100
AcDbEntity
  8
ZISSEN1
100
AcDbLine
 10
-1751.100510019063
 20
1727.038808386225
 30
0.0
 11
-1750.100500019063
 21
1727.038808386225
 31
0.0
  0
LINE
  5
1381D
330
1A
100
AcDbEntity
  8
ZISSEN1
100
AcDbLine
 10
-1721.400480019062
 20
1715.538819386225
 30
0.0
 11
-1709.700530019063
 21
1715.538819386225
 31
0.0
  0
LINE
  5
1381E
330
1A
100
AcDbEntity
  8
ZISSEN1
100
AcDbLine
 10
-1708.100490019063
 20
1715.038824386225
 30
0.0
 11
-1709.700530019063
 21
1715.038824386225
 31
0.0
  0
LINE
  5
1381F
330
1A
100
AcDbEntity
  8
ZISSEN1
100
AcDbLine
 10
-1721.900500019063
 20
1716.038821386225
 30
0.0
 11
-1707.900510019063
 21
1716.038821386225
 31
0.0
  0
ARC
  5
13820
330
1A
100
AcDbEntity
  8
ZISSEN1
100
AcDbCircle
 10
-1751.100510019063
 20
1731.038818386226
 30
0.0
 40
2.0
100
AcDbArc
 50
90.0
 51
180.0
  0
LINE
  5
13821
330
1A
100
AcDbEntity
  8
ZISSEN1
100
AcDbLine
 10
-1751.100510019063
 20
1733.038828386225
 30
0.0
 11
-1750.100500019063
 21
1733.038828386225
 31
0.0
  0
LINE
  5
13822
330
1A
100
AcDbEntity
  8
ZISSEN1
100
AcDbLine
 10
-1753.100510019063
 20
1731.038818386226
 30
0.0
 11
-1753.100510019063
 21
1729.038808386225
 31
0.0
  0
LINE
  5
13823
330
1A
100
AcDbEntity
  8
ZISSEN1
100
AcDbLine
 10
-1719.100500019063
 20
1765.538818386225
 30
0.0
 11
-1711.100500019063
 21
1765.538818386225
 31
0.0
  0
LINE
  5
13824
330
1A
100
AcDbEntity
  8
ZISSEN1
100
AcDbLine
 10
-1694.600490019062
 20
1711.538868386226
 30
0.0
 11
-1694.600490019062
 21
1709.538862386225
 31
0.0
  0
LINE
  5
13825
330
1A
100
AcDbEntity
  8
ZISSEN1
100
AcDbLine
 10
-1697.600500019063
 20
1707.538855386225
 30
0.0
 11
-1697.600500019063
 21
1713.538875386225
 31
0.0
  0
ARC
  5
13826
330
1A
100
AcDbEntity
  8
ZISSEN1
100
AcDbCircle
 10
-1696.600500019063
 20
1709.538862386225
 30
0.0
 40
2.0
100
AcDbArc
 50
270.0
 51
0.0
  0
LINE
  5
13827
330
1A
100
AcDbEntity
  8
ZISSEN1
100
AcDbLine
 10
-1696.600500019063
 20
1707.538855386225
 30
0.0
 11
-1697.600500019063
 21
1707.538855386225
 31
0.0
  0
ARC
  5
13828
330
1A
100
AcDbEntity
  8
ZISSEN1
100
AcDbCircle
 10
-1696.600500019063
 20
1711.538868386226
 30
0.0
 40
2.0
100
AcDbArc
 50
0.0
 51
90.0
  0
LINE
  5
13829
330
1A
100
AcDbEntity
  8
ZISSEN1
100
AcDbLine
 10
-1696.600500019063
 20
1713.538875386225
 30
0.0
 11
-1697.600500019063
 21
1713.538875386225
 31
0.0
  0
ARC
  5
1382A
330
1A
100
AcDbEntity
  8
ZISSEN1
100
AcDbCircle
 10
-1751.100510019063
 20
1790.038808386225
 30
0.0
 40
2.0
100
AcDbArc
 50
90.0
 51
180.0
  0
LINE
  5
1382B
330
1A
100
AcDbEntity
  8
ZISSEN1
100
AcDbLine
 10
-1750.100500019063
 20
1786.038798386226
 30
0.0
 11
-1750.100500019063
 21
1792.038818386225
 31
0.0
  0
LINE
  5
1382C
330
1A
100
AcDbEntity
  8
ZISSEN1
100
AcDbLine
 10
-1751.100510019063
 20
1786.038798386226
 30
0.0
 11
-1750.100500019063
 21
1786.038798386226
 31
0.0
  0
ARC
  5
1382D
330
1A
100
AcDbEntity
  8
ZISSEN1
100
AcDbCircle
 10
-1751.100510019063
 20
1788.038808386225
 30
0.0
 40
2.0
100
AcDbArc
 50
180.0
 51
270.0
  0
LINE
  5
1382E
330
1A
100
AcDbEntity
  8
ZISSEN1
100
AcDbLine
 10
-1753.100510019063
 20
1790.038808386225
 30
0.0
 11
-1753.100510019063
 21
1788.038808386225
 31
0.0
  0
LINE
  5
1382F
330
1A
100
AcDbEntity
  8
ZISSEN1
100
AcDbLine
 10
-1751.100510019063
 20
1792.038818386225
 30
0.0
 11
-1750.100500019063
 21
1792.038818386225
 31
0.0
  0
LINE
  5
13830
330
1A
100
AcDbEntity
  8
ZISSEN1
100
AcDbLine
 10
-1719.100500019063
 20
1811.038818386226
 30
0.0
 11
-1711.100500019063
 21
1811.038818386226
 31
0.0
  0
LINE
  5
13831
330
1A
100
AcDbEntity
  8
ZISSEN1
100
AcDbLine
 10
-1709.700530019063
 20
1825.038818386225
 30
0.0
 11
-1709.700530019063
 21
1865.038808386225
 31
0.0
  0
LINE
  5
13832
330
1A
100
AcDbEntity
  8
ZISSEN1
100
AcDbLine
 10
-1708.100510019063
 20
1865.038808386225
 30
0.0
 11
-1708.100510019063
 21
1825.038818386225
 31
0.0
  0
LINE
  5
13833
330
1A
100
AcDbEntity
  8
ZISSEN1
100
AcDbLine
 10
-1719.100520019063
 20
1862.538808386226
 30
0.0
 11
-1719.100520019063
 21
1827.538808386225
 31
0.0
  0
LINE
  5
13834
330
1A
100
AcDbEntity
  8
ZISSEN1
100
AcDbLine
 10
-1718.110520019063
 20
1842.256958386226
 30
0.0
 11
-1718.110520019063
 21
1829.538808386226
 31
0.0
  0
LINE
  5
13835
330
1A
100
AcDbEntity
  8
ZISSEN1
100
AcDbLine
 10
-1718.110520019063
 20
1829.538808386226
 30
0.0
 11
-1709.700530019063
 21
1829.538808386226
 31
0.0
  0
LINE
  5
13836
330
1A
100
AcDbEntity
  8
ZISSEN1
100
AcDbLine
 10
-1719.100520019063
 20
1827.538808386225
 30
0.0
 11
-1710.100520019063
 21
1827.538808386225
 31
0.0
  0
LINE
  5
13837
330
1A
100
AcDbEntity
  8
ZISSEN1
100
AcDbLine
 10
-1710.100520019063
 20
1827.538808386225
 30
0.0
 11
-1710.100520019063
 21
1825.038818386225
 31
0.0
  0
LINE
  5
13838
330
1A
100
AcDbEntity
  8
ZISSEN1
100
AcDbLine
 10
-1710.100520019063
 20
1825.038818386225
 30
0.0
 11
-1708.100510019063
 21
1825.038818386225
 31
0.0
  0
LINE
  5
13839
330
1A
100
AcDbEntity
  8
ZISSEN1
100
AcDbLine
 10
-1718.110520019063
 20
1842.256958386226
 30
0.0
 11
-1709.700530019063
 21
1842.256958386226
 31
0.0
  0
LINE
  5
1383A
330
1A
100
AcDbEntity
  8
ZISSEN1
100
AcDbLine
 10
-1718.110520019063
 20
1861.538798386225
 30
0.0
 11
-1718.110520019063
 21
1844.256958386226
 31
0.0
  0
LINE
  5
1383B
330
1A
100
AcDbEntity
  8
ZISSEN1
100
AcDbLine
 10
-1718.110520019063
 20
1844.256958386226
 30
0.0
 11
-1709.700530019063
 21
1844.256958386226
 31
0.0
  0
LINE
  5
1383C
330
1A
100
AcDbEntity
  8
ZISSEN1
100
AcDbLine
 10
-1718.110520019063
 20
1861.538798386225
 30
0.0
 11
-1709.700530019063
 21
1861.538798386225
 31
0.0
  0
LINE
  5
1383D
330
1A
100
AcDbEntity
  8
ZISSEN1
100
AcDbLine
 10
-1710.100520019063
 20
1862.538808386226
 30
0.0
 11
-1719.100520019063
 21
1862.538808386226
 31
0.0
  0
LINE
  5
1383E
330
1A
100
AcDbEntity
  8
ZISSEN1
100
AcDbLine
 10
-1710.100520019063
 20
1865.038808386225
 30
0.0
 11
-1708.100510019063
 21
1865.038808386225
 31
0.0
  0
LINE
  5
1383F
330
1A
100
AcDbEntity
  8
ZISSEN1
100
AcDbLine
 10
-1710.100520019063
 20
1865.038808386225
 30
0.0
 11
-1710.100520019063
 21
1862.538808386226
 31
0.0
  0
ARC
  5
13840
330
1A
100
AcDbEntity
  8
ZISSEN1
100
AcDbCircle
 10
-1696.600500019063
 20
1862.038848386226
 30
0.0
 40
2.0
100
AcDbArc
 50
270.0
 51
0.0
  0
LINE
  5
13841
330
1A
100
AcDbEntity
  8
ZISSEN1
100
AcDbLine
 10
-1697.600500019063
 20
1860.038848386226
 30
0.0
 11
-1697.600500019063
 21
1866.038868386225
 31
0.0
  0
LINE
  5
13842
330
1A
100
AcDbEntity
  8
ZISSEN1
100
AcDbLine
 10
-1696.600500019063
 20
1860.038848386226
 30
0.0
 11
-1697.600500019063
 21
1860.038848386226
 31
0.0
  0
ARC
  5
13843
330
1A
100
AcDbEntity
  8
ZISSEN1
100
AcDbCircle
 10
-1696.600500019063
 20
1864.038858386225
 30
0.0
 40
2.0
100
AcDbArc
 50
0.0
 51
90.0
  0
LINE
  5
13844
330
1A
100
AcDbEntity
  8
ZISSEN1
100
AcDbLine
 10
-1696.600500019063
 20
1866.038868386225
 30
0.0
 11
-1697.600500019063
 21
1866.038868386225
 31
0.0
  0
LINE
  5
13845
330
1A
100
AcDbEntity
  8
ZISSEN1
100
AcDbLine
 10
-1694.600490019062
 20
1864.038858386225
 30
0.0
 11
-1694.600490019062
 21
1862.038848386226
 31
0.0
  0
LINE
  5
13846
330
1A
100
AcDbEntity
  8
ZISSEN1
100
AcDbLine
 10
-1703.514730019063
 20
1880.038838386226
 30
0.0
 11
-1731.850500019063
 21
1880.038838386226
 31
0.0
  0
LINE
  5
13847
330
1A
100
AcDbEntity
  8
ZISSEN1
100
AcDbLine
 10
-1750.100500019063
 20
1868.038848386225
 30
0.0
 11
-1697.600500019063
 21
1868.038848386225
 31
0.0
  0
LINE
  5
13848
330
1A
100
AcDbEntity
  8
ZISSEN1
100
AcDbLine
 10
-1744.186270019063
 20
1880.038838386226
 30
0.0
 11
-1736.350490019063
 21
1880.038838386226
 31
0.0
  0
LINE
  5
13849
330
1A
100
AcDbEntity
  8
ZISSEN1
100
AcDbLine
 10
-1745.600490019063
 20
1878.624618386225
 30
0.0
 11
-1745.600490019063
 21
1868.038848386225
 31
0.0
  0
LINE
  5
1384A
330
1A
100
AcDbEntity
  8
ZISSEN1
100
AcDbLine
 10
-1745.600490019063
 20
1878.624618386225
 30
0.0
 11
-1744.186270019063
 21
1880.038838386226
 31
0.0
  0
LINE
  5
1384B
330
1A
100
AcDbEntity
  8
ZISSEN1
100
AcDbLine
 10
-1731.850500019063
 20
1874.038818386225
 30
0.0
 11
-1731.850500019063
 21
1880.038838386226
 31
0.0
  0
LINE
  5
1384C
330
1A
100
AcDbEntity
  8
ZISSEN1
100
AcDbLine
 10
-1736.350490019063
 20
1874.038818386225
 30
0.0
 11
-1736.350490019063
 21
1880.038838386226
 31
0.0
  0
ARC
  5
1384D
330
1A
100
AcDbEntity
  8
ZISSEN1
100
AcDbCircle
 10
-1734.100500019063
 20
1874.038818386225
 30
0.0
 40
2.25
100
AcDbArc
 50
180.0
 51
0.0
  0
LINE
  5
1384E
330
1A
100
AcDbEntity
  8
CL1
100
AcDbLine
 10
-1734.100500019063
 20
1871.038808386225
 30
0.0
 11
-1734.100500019063
 21
1877.038828386226
 31
0.0
  0
LINE
  5
1384F
330
1A
100
AcDbEntity
  8
CL1
100
AcDbLine
 10
-1737.100510019063
 20
1874.038818386225
 30
0.0
 11
-1731.100490019063
 21
1874.038818386225
 31
0.0
  0
CIRCLE
  5
13850
330
1A
100
AcDbEntity
  8
ZISSEN1
100
AcDbCircle
 10
-1714.100510019063
 20
1874.038818386225
 30
0.0
 40
2.25
  0
LINE
  5
13851
330
1A
100
AcDbEntity
  8
CL1
100
AcDbLine
 10
-1717.100520019063
 20
1874.038818386225
 30
0.0
 11
-1711.100500019063
 21
1874.038818386225
 31
0.0
  0
LINE
  5
13852
330
1A
100
AcDbEntity
  8
CL1
100
AcDbLine
 10
-1714.100510019063
 20
1871.038808386225
 30
0.0
 11
-1714.100510019063
 21
1877.038828386226
 31
0.0
  0
LINE
  5
13853
330
1A
100
AcDbEntity
  8
ZISSEN1
100
AcDbLine
 10
-1702.100520019063
 20
1878.624618386225
 30
0.0
 11
-1702.100520019063
 21
1868.038848386225
 31
0.0
  0
LINE
  5
13854
330
1A
100
AcDbEntity
  8
ZISSEN1
100
AcDbLine
 10
-1703.514730019063
 20
1880.038838386226
 30
0.0
 11
-1702.100520019063
 21
1878.624618386225
 31
0.0
  0
DIMENSION
  5
13857
330
1A
100
AcDbEntity
  8
SUNPOU
100
AcDbDimension
  2
*D24
 10
-1800.419189777455
 20
1966.849638386225
 30
0.0
 11
-1803.143345737668
 21
1973.751508561448
 31
0.0
 70
   160
  3
標準スタイル
100
AcDbAlignedDimension
 13
-1830.978850019063
 23
1969.849648386226
 33
0.0
 14
-1824.978860019063
 24
1966.849638386225
 34
0.0
 50
90.0
100
AcDbRotatedDimension
1001
ACAD
1000
DSTYLE
1002
{
1070
   287
1070
     5
1070
    40
1040
1.0
1070
   279
1070
     2
1002
}
  0
DIMENSION
  5
13871
330
1A
100
AcDbEntity
  8
SUNPOU
100
AcDbDimension
  2
*D25
 10
-1800.419189777455
 20
1914.349638386226
 30
0.0
 11
-1803.169189777455
 21
1940.599638386225
 31
0.0
 70
    32
  3
標準スタイル
100
AcDbAlignedDimension
 13
-1800.419189777455
 23
1966.849638386225
 33
0.0
 14
-1824.978860019063
 24
1914.349638386226
 34
0.0
 50
90.0
100
AcDbRotatedDimension
1001
ACAD
1000
DSTYLE
1002
{
1070
    40
1040
1.0
1002
}
  0
DIMENSION
  5
1387D
330
1A
100
AcDbEntity
  8
SUNPOU
100
AcDbDimension
  2
*D26
 10
-1800.322736689442
 20
1914.349638386226
 30
0.0
 11
-1802.666642969436
 21
1906.860310928565
 31
0.0
 70
   160
  3
標準スタイル
100
AcDbAlignedDimension
 13
-1900.478856019063
 23
1911.349628386226
 33
0.0
 14
-1800.419189777455
 24
1914.349638386226
 34
0.0
 50
90.0
100
AcDbRotatedDimension
1001
ACAD
1000
DSTYLE
1002
{
1070
   287
1070
     5
1070
    40
1040
1.0
1070
   279
1070
     2
1002
}
  0
DIMENSION
  5
13897
330
1A
100
AcDbEntity
  8
SUNPOU
100
AcDbDimension
  2
*D27
 10
-1787.766099354216
 20
1969.849648386226
 30
0.0
 11
-1790.516099354217
 21
1940.599638386225
 31
0.0
 70
    32
  3
標準スタイル
100
AcDbAlignedDimension
 13
-1800.322736689442
 23
1911.349628386226
 33
0.0
 14
-1800.419189777455
 24
1969.849648386226
 34
0.0
 50
90.0
100
AcDbRotatedDimension
1001
ACAD
1000
DSTYLE
1002
{
1070
    40
1040
1.0
1002
}
  0
DIMENSION
  5
138A4
330
1A
100
AcDbEntity
  8
SUNPOU
100
AcDbDimension
  2
*D28
 10
-1959.7964245029
 20
1868.038848386225
 30
0.0
 11
-1962.5464245029
 21
1874.038843386225
 31
0.0
 70
    32
  3
標準スタイル
100
AcDbAlignedDimension
 13
-1934.978859019063
 23
1880.038838386226
 33
0.0
 14
-1931.478859019063
 24
1868.038848386225
 34
0.0
 50
90.0
100
AcDbRotatedDimension
1001
ACAD
1000
DSTYLE
1002
{
1070
    40
1040
1.0
1002
}
  0
DIMENSION
  5
138BD
330
1A
100
AcDbEntity
  8
SUNPOU
100
AcDbDimension
  2
*D29
 10
-1959.958600354238
 20
1648.038820386225
 30
0.0
 11
-1962.70860035424
 21
1758.038834386226
 31
0.0
 70
    32
  3
標準スタイル
100
AcDbAlignedDimension
 13
-1959.7964245029
 23
1868.038848386225
 33
0.0
 14
-1931.478859019063
 24
1648.038820386225
 34
0.0
 50
90.0
100
AcDbRotatedDimension
1001
ACAD
1000
DSTYLE
1002
{
1070
    40
1040
1.0
1002
}
  0
DIMENSION
  5
138CA
330
1A
100
AcDbEntity
  8
SUNPOU
100
AcDbDimension
  2
*D30
 10
-1959.958600354238
 20
1648.038820386225
 30
0.0
 11
-1962.70860035424
 21
1642.038819386225
 31
0.0
 70
    32
  3
標準スタイル
100
AcDbAlignedDimension
 13
-1934.978859019063
 23
1636.038818386226
 33
0.0
 14
-1934.978859019063
 24
1648.038820386225
 34
0.0
 50
90.0
100
AcDbRotatedDimension
1001
ACAD
1000
DSTYLE
1002
{
1070
    40
1040
1.0
1002
}
  0
DIMENSION
  5
138D7
330
1A
100
AcDbEntity
  8
SUNPOU
100
AcDbDimension
  2
*D31
 10
-1931.978861019063
 20
1626.470213208725
 30
0.0
 11
-1924.072769648504
 21
1629.220213208727
 31
0.0
 70
    32
  3
標準スタイル
100
AcDbAlignedDimension
 13
-1934.978859019063
 23
1636.038818386226
 33
0.0
 14
-1931.978861019063
 24
1636.038818386226
 34
0.0
100
AcDbRotatedDimension
1001
ACAD
1000
DSTYLE
1002
{
1070
    40
1040
1.0
1002
}
  0
DIMENSION
  5
138E6
330
1A
100
AcDbEntity
  8
SUNPOU
100
AcDbDimension
  2
*D32
 10
-1824.978860019063
 20
1613.356609875819
 30
0.0
 11
-1879.978859519063
 21
1616.106609875819
 31
0.0
 70
    32
  3
標準スタイル
100
AcDbAlignedDimension
 13
-1934.978859019063
 23
1626.470213208725
 33
0.0
 14
-1824.978860019063
 24
1648.038820386225
 34
0.0
100
AcDbRotatedDimension
1001
ACAD
1000
DSTYLE
1002
{
1070
    40
1040
1.0
1002
}
  0
DIMENSION
  5
138F3
330
1A
100
AcDbEntity
  8
SUNPOU
100
AcDbDimension
  2
*D33
 10
-1824.978860019063
 20
1613.356609875819
 30
0.0
 11
-1817.478860019063
 21
1616.106609875819
 31
0.0
 70
    32
  3
標準スタイル
100
AcDbAlignedDimension
 13
-1809.978860019063
 23
1651.538819386225
 33
0.0
 14
-1824.978860019063
 24
1613.356609875819
 34
0.0
100
AcDbRotatedDimension
1001
ACAD
1000
DSTYLE
1002
{
1070
    40
1040
1.0
1002
}
  0
DIMENSION
  5
138FF
330
1A
100
AcDbEntity
  8
SUNPOU
100
AcDbDimension
  2
*D34
 10
-1809.978860019063
 20
1600.158465826964
 30
0.0
 11
-1872.478859519063
 21
1602.908465826964
 31
0.0
 70
    32
  3
標準スタイル
100
AcDbAlignedDimension
 13
-1934.978859019063
 23
1613.356609875819
 33
0.0
 14
-1809.978860019063
 24
1612.856609875819
 34
0.0
100
AcDbRotatedDimension
1001
ACAD
1000
DSTYLE
1002
{
1070
    40
1040
1.0
1002
}
  0
DIMENSION
  5
1390C
330
1A
100
AcDbEntity
  8
SUNPOU
100
AcDbDimension
  2
*D35
 10
-1791.322235193709
 20
1706.989260386225
 30
0.0
 11
-1794.072235193709
 21
1695.689768000439
 31
0.0
 70
    32
  3
標準スタイル
100
AcDbAlignedDimension
 13
-1809.978860019063
 23
1713.309251386226
 33
0.0
 14
-1809.978860019063
 24
1706.989260386225
 34
0.0
 50
90.0
100
AcDbRotatedDimension
1001
ACAD
1000
DSTYLE
1002
{
1070
    40
1040
1.0
1002
}
  0
DIMENSION
  5
1391B
330
1A
100
AcDbEntity
  8
SUNPOU
100
AcDbDimension
  2
*D36
 10
-1812.978820019063
 20
1887.171592205594
 30
0.0
 11
-1818.978840019062
 21
1889.921592205594
 31
0.0
 70
    32
  3
標準スタイル
100
AcDbAlignedDimension
 13
-1824.978860019063
 23
1868.038848386225
 33
0.0
 14
-1812.978820019063
 24
1861.538798386225
 34
0.0
100
AcDbRotatedDimension
1001
ACAD
1000
DSTYLE
1002
{
1070
    40
1040
1.0
1002
}
  0
DIMENSION
  5
13928
330
1A
100
AcDbEntity
  8
SUNPOU
100
AcDbDimension
  2
*D37
 10
-1734.100500019063
 20
1887.171592205594
 30
0.0
 11
-1742.100500019063
 21
1889.921592205594
 31
0.0
 70
    32
  3
標準スタイル
100
AcDbAlignedDimension
 13
-1750.100500019063
 23
1868.038848386225
 33
0.0
 14
-1734.100500019063
 24
1877.038828386226
 34
0.0
100
AcDbRotatedDimension
1001
ACAD
1000
DSTYLE
1002
{
1070
    40
1040
1.0
1002
}
  0
DIMENSION
  5
13935
330
1A
100
AcDbEntity
  8
SUNPOU
100
AcDbDimension
  2
*D38
 10
-1714.100510019063
 20
1887.171592205594
 30
0.0
 11
-1724.100505019063
 21
1889.921592205594
 31
0.0
 70
    32
  3
標準スタイル
100
AcDbAlignedDimension
 13
-1734.100500019063
 23
1887.171592205594
 33
0.0
 14
-1714.100510019063
 24
1874.038818386225
 34
0.0
100
AcDbRotatedDimension
1001
ACAD
1000
DSTYLE
1002
{
1070
    40
1040
1.0
1002
}
  0
DIMENSION
  5
13941
330
1A
100
AcDbEntity
  8
SUNPOU
100
AcDbDimension
  2
*D39
 10
-1765.950586121661
 20
1874.038818386225
 30
0.0
 11
-1768.700586121661
 21
1877.038828386225
 31
0.0
 70
    32
  3
標準スタイル
100
AcDbAlignedDimension
 13
-1744.186270019063
 23
1880.038838386226
 33
0.0
 14
-1734.100500019063
 24
1874.038818386225
 34
0.0
 50
90.0
100
AcDbRotatedDimension
1001
ACAD
1000
DSTYLE
1002
{
1070
    40
1040
1.0
1002
}
  0
DIMENSION
  5
13950
330
1A
100
AcDbEntity
  8
SUNPOU
100
AcDbDimension
  2
*D40
 10
-1765.950586121661
 20
1642.038819386225
 30
0.0
 11
-1768.700586121661
 21
1758.038818886225
 31
0.0
 70
    32
  3
標準スタイル
100
AcDbAlignedDimension
 13
-1766.450586121661
 23
1874.038818386225
 33
0.0
 14
-1734.100500019063
 24
1642.038819386225
 34
0.0
 50
90.0
100
AcDbRotatedDimension
1001
ACAD
1000
DSTYLE
1002
{
1070
    40
1040
1.0
1002
}
  0
DIMENSION
  5
1395D
330
1A
100
AcDbEntity
  8
SUNPOU
100
AcDbDimension
  2
*D41
 10
-1765.950586121661
 20
1636.038818386226
 30
0.0
 11
-1768.700586121661
 21
1639.038818886225
 31
0.0
 70
    32
  3
標準スタイル
100
AcDbAlignedDimension
 13
-1734.600500019062
 23
1642.038819386225
 33
0.0
 14
-1744.186270019063
 24
1636.038818386226
 34
0.0
 50
90.0
100
AcDbRotatedDimension
1001
ACAD
1000
DSTYLE
1002
{
1070
    40
1040
1.0
1002
}
  0
DIMENSION
  5
1396C
330
1A
100
AcDbEntity
  8
SUNPOU
100
AcDbDimension
  2
*D42
 10
-1734.100500019063
 20
1613.356609875819
 30
0.0
 11
-1742.100500019063
 21
1616.106609875819
 31
0.0
 70
    32
  3
標準スタイル
100
AcDbAlignedDimension
 13
-1750.100500019063
 23
1648.038820386225
 33
0.0
 14
-1734.100500019063
 24
1639.038815386225
 34
0.0
100
AcDbRotatedDimension
1001
ACAD
1000
DSTYLE
1002
{
1070
    40
1040
1.0
1002
}
  0
DIMENSION
  5
13979
330
1A
100
AcDbEntity
  8
SUNPOU
100
AcDbDimension
  2
*D43
 10
-1714.100510019063
 20
1613.515564500008
 30
0.0
 11
-1724.100505019063
 21
1616.265564500007
 31
0.0
 70
    32
  3
標準スタイル
100
AcDbAlignedDimension
 13
-1734.100500019063
 23
1613.356609875819
 33
0.0
 14
-1714.100510019063
 24
1642.038825386226
 34
0.0
100
AcDbRotatedDimension
1001
ACAD
1000
DSTYLE
1002
{
1070
    40
1040
1.0
1002
}
  0
DIMENSION
  5
13986
330
1A
100
AcDbEntity
  8
SUNPOU
100
AcDbDimension
  2
*D44
 10
-1697.600500019063
 20
1613.515564500008
 30
0.0
 11
-1705.850505019063
 21
1616.265564500007
 31
0.0
 70
    32
  3
標準スタイル
100
AcDbAlignedDimension
 13
-1714.100510019063
 23
1613.515564500008
 33
0.0
 14
-1697.600500019063
 24
1648.038820386225
 34
0.0
100
AcDbRotatedDimension
1001
ACAD
1000
DSTYLE
1002
{
1070
    40
1040
1.0
1002
}
  0
DIMENSION
  5
13992
330
1A
100
AcDbEntity
  8
SUNPOU
100
AcDbDimension
  2
*D45
 10
-1697.600500019063
 20
1600.158465826964
 30
0.0
 11
-1723.850500019063
 21
1602.908465826964
 31
0.0
 70
    32
  3
標準スタイル
100
AcDbAlignedDimension
 13
-1750.100500019063
 23
1613.356609875819
 33
0.0
 14
-1697.600500019063
 24
1613.015564500008
 34
0.0
100
AcDbRotatedDimension
1001
ACAD
1000
DSTYLE
1002
{
1070
    40
1040
1.0
1002
}
  0
DIMENSION
  5
1399F
330
1A
100
AcDbEntity
  8
SUNPOU
100
AcDbDimension
  2
*D46
 10
-1731.850500019063
 20
1626.470213208725
 30
0.0
 11
-1721.643647227185
 21
1629.220213208727
 31
0.0
 70
    32
  3
標準スタイル
100
AcDbAlignedDimension
 13
-1736.350490019063
 23
1636.038818386226
 33
0.0
 14
-1731.850500019063
 24
1636.038818386226
 34
0.0
100
AcDbRotatedDimension
1001
ACAD
1000
DSTYLE
1002
{
1070
    40
1040
1.0
1002
}
  0
MTEXT
  5
139AE
330
1A
100
AcDbEntity
  8
SUNPOU
100
AcDbMText
 10
-1775.433871422669
 20
1969.389222683687
 30
0.0
 40
3.5
 41
27.7729
 71
     1
 72
     5
  1
端子台カバー
  7
ゴシック体
1001
ACAD
1000
MTEXTBEGIN
1070
    73
1070
     1
1070
    44
1040
1.0
1070
    74
1070
     0
1000
MTEXTEND
  0
LINE
  5
139AF
330
1A
100
AcDbEntity
  8
SUNPOU
100
AcDbLine
 10
-1776.069890672851
 20
1964.941061315859
 30
0.0
 11
-1746.109682632622
 21
1964.941061315859
 31
0.0
  0
MTEXT
  5
139B2
330
1A
100
AcDbEntity
  8
SUNPOU
100
AcDbMText
 10
-1699.168470097533
 20
1898.218636781044
 30
0.0
 40
3.5
 41
24.3808
 71
     1
 72
     5
  1
φ4.5
  7
ゴシック体
1001
ACAD
1000
MTEXTBEGIN
1070
    73
1070
     1
1070
    44
1040
1.0
1070
    74
1070
     0
1000
MTEXTEND
  0
LINE
  5
139B3
330
1A
100
AcDbEntity
  8
SUNPOU
100
AcDbLine
 10
-1699.293626324353
 20
1893.982292716859
 30
0.0
 11
-1687.614321445541
 21
1893.982292716859
 31
0.0
  0
LEADER
  5
139DD
330
1A
100
AcDbEntity
  8
SUNPOU
100
AcDbLeader
  3
標準スタイル
 76
     2
 10
-1809.978910019063
 20
1949.099638386226
 30
0.0
 10
-1776.069890672851
 20
1964.941061315859
 30
0.0
1001
ACAD
1000
DSTYLE
1002
{
1070
     5
1000

1070
    77
1070
     0
1070
   147
1040
1.0
1002
}
  0
LEADER
  5
139E2
330
1A
100
AcDbEntity
  8
SUNPOU
100
AcDbLeader
  3
標準スタイル
 76
     2
 10
-1712.759263716116
 20
1875.845350521239
 30
0.0
 10
-1699.293626324353
 20
1893.982292716859
 30
0.0
1001
ACAD
1000
DSTYLE
1002
{
1070
     5
1000

1070
    77
1070
     0
1070
   147
1040
1.0
1002
}
  0
VIEWPORT
  5
5D8F
330
5D8E
100
AcDbEntity
 67
     1
  8
0
100
AcDbViewport
 10
314.8136955744726
 20
365.1353145443453
 30
0.0
 40
597.9671966072611
 41
682.2551259162634
 68
     1
 69
     1
1001
ACAD
1000
MVIEW
1002
{
1070
    16
1010
0.0
1020
0.0
1030
0.0
1010
0.0
1020
0.0
1030
1.0
1040
0.0
1040
682.2551259162634
1040
314.8136955744726
1040
365.1353145443453
1040
50.0
1040
0.0
1040
0.0
1070
     0
1070
   100
1070
     1
1070
     0
1070
     0
1070
     0
1070
     0
1070
     0
1040
0.0
1040
0.0
1040
0.0
1040
1.0
1040
1.0
1040
10.0
1040
10.0
1070
     0
1002
{
1002
}
1002
}
  0
VIEWPORT
  5
6001
330
5D8E
100
AcDbEntity
 67
     1
  8
ZISSEN1
100
AcDbViewport
 10
221.7861955525411
 20
157.6960273330388
 30
0.0
 40
385.4999999999997
 41
259.9999999999999
 68
     2
 69
     2
1001
ACAD
1000
MVIEW
1002
{
1070
    16
1010
0.0
1020
0.0
1030
0.0
1010
0.0
1020
0.0
1030
1.0
1040
0.0
1040
519.9999999999999
1040
-1826.332570758882
1040
1787.754057106596
1040
50.0
1040
0.0
1040
0.0
1070
     0
1070
   100
1070
     1
1070
     0
1070
     0
1070
     0
1070
     0
1070
     0
1040
0.0
1040
0.0
1040
0.0
1040
1.0
1040
1.0
1040
10.0
1040
10.0
1070
     0
1002
{
1002
}
1002
}
  0
TEXT
  5
716F
330
5D8E
100
AcDbEntity
 67
     1
  8
SUNPOU
 62
     0
100
AcDbText
 10
374.1863124306943
 20
60.86794705907585
 30
0.0
 40
3.5
  1
縮尺 1/2
  7
ゴシック体
100
AcDbText
  0
ENDSEC
  0
SECTION
  2
OBJECTS
  0
DICTIONARY
  5
C
330
0
100
AcDbDictionary
  3
ACAD_GROUP
350
D
  3
ACAD_LAYOUT
350
5C7D
  3
ACAD_MLINESTYLE
350
E
  3
ACAD_PLOTSETTINGS
350
5C7E
  3
ACAD_PLOTSTYLENAME
350
5C7B
  3
DWGPROPS
350
5E8E
  3
ACDBVARIABLEDICTIONARY
350
139F8
  3
ACDBHEADERROUNDTRIPXREC
350
13A03
  0
DICTIONARY
  5
13A23
330
1A
100
AcDbDictionary
280
     1
  3
ACAD_LAYOUTSELFREF
360
13A24
  0
DICTIONARY
  5
13A25
330
5D8E
100
AcDbDictionary
280
     1
  3
ACAD_LAYOUTSELFREF
360
13A26
  0
DICTIONARY
  5
D
102
{ACAD_REACTORS
330
C
102
}
330
C
100
AcDbDictionary
  3
*A1
350
477D
  3
*A2
350
4C0E
  3
*A3
350
4C0F
  3
*A4
350
4C10
  3
*A5
350
4C11
  3
*A6
350
4C12
  3
*A7
350
4C13
  3
*A8
350
4C14
  3
*A9
350
4C15
  3
*A10
350
4C16
  3
*A11
350
4C17
  3
*A12
350
477E
  3
*A13
350
477F
  3
*A14
350
4780
  3
*A15
350
4781
  0
DICTIONARY
  5
5C7D
102
{ACAD_REACTORS
330
C
102
}
330
C
100
AcDbDictionary
  0
DICTIONARY
  5
E
102
{ACAD_REACTORS
330
C
102
}
330
C
100
AcDbDictionary
  3
STANDARD
350
13
  0
DICTIONARY
  5
5C7E
102
{ACAD_REACTORS
330
C
102
}
330
C
100
AcDbDictionary
  0
ACDBDICTIONARYWDFLT
  5
5C7B
102
{ACAD_REACTORS
330
C
102
}
330
C
100
AcDbDictionary
281
     1
  3
Normal
350
5C7C
100
AcDbDictionaryWithDefault
340
5C7C
  0
XRECORD
  5
5E8E
102
{ACAD_REACTORS
330
C
102
}
330
C
100
AcDbXrecord
  1
DWGPROPS COOKIE
  2

  3

  4

  6

  7

  8

  9

300
=
301
=
302
=
303
=
304
=
305
=
306
=
307
=
308
=
309
=
 40
0.586753587962963
 41
2450495.493631364
 42
2453208.662277431
  1

 90
        0
  0
DICTIONARY
  5
139F8
102
{ACAD_REACTORS
330
C
102
}
330
C
100
AcDbDictionary
  3
INDEXCTL
350
139F9
  0
DICTIONARY
  5
13A03
102
{ACAD_REACTORS
330
C
102
}
330
C
100
AcDbDictionary
  3
TSTACKALIGN
350
13A04
  3
TSTACKSIZE
350
13A05
  3
HYPERLINKBASE
350
13A06
  3
STYLESHEET
350
13A07
  3
LAYOUTDICT
350
13A08
  3
PLOTSETDICT
350
13A09
  3
PLOTSTYLNAMDICT
350
13A0A
  3
LWETCUNION
350
13A0B
  3
INSUNITS
350
13A0C
  3
CEPSNTYPE
350
13A0D
  3
FINGERPRINTGUID
350
13A0E
  3
VERSIONGUID
350
13A0F
  3
PSVPSCALE
350
13A10
  3
PUCSORTHOREF
350
13A11
  3
PUCSORTHOVIEW
350
13A12
  3
PUCSBASE
350
13A13
  3
PUCSORGTOP
350
13A14
  3
PUCSORGBOTTOM
350
13A15
  3
PUCSORGLEFT
350
13A16
  3
PUCSORGRIGHT
350
13A17
  3
PUCSORGFRONT
350
13A18
  3
PUCSORGBACK
350
13A19
  3
UCSORTHOREF
350
13A1A
  3
UCSORTHOVIEW
350
13A1B
  3
UCSBASE
350
13A1C
  3
UCSORGTOP
350
13A1D
  3
UCSORGBOTTOM
350
13A1E
  3
UCSORGLEFT
350
13A1F
  3
UCSORGRIGHT
350
13A20
  3
UCSORGFRONT
350
13A21
  3
UCSORGBACK
350
13A22
  0
XRECORD
  5
13A24
102
{ACAD_REACTORS
330
13A23
102
}
330
13A23
100
AcDbXrecord
340
1A
  0
XRECORD
  5
13A26
102
{ACAD_REACTORS
330
13A25
102
}
330
13A25
100
AcDbXrecord
340
5D8E
  0
GROUP
  5
477D
102
{ACAD_REACTORS
330
D
102
}
330
D
100
AcDbGroup
300

 70
     1
 71
     1
  0
GROUP
  5
4C0E
102
{ACAD_REACTORS
330
D
102
}
330
D
100
AcDbGroup
300

 70
     1
 71
     1
  0
GROUP
  5
4C0F
102
{ACAD_REACTORS
330
D
102
}
330
D
100
AcDbGroup
300

 70
     1
 71
     1
  0
GROUP
  5
4C10
102
{ACAD_REACTORS
330
D
102
}
330
D
100
AcDbGroup
300

 70
     1
 71
     1
  0
GROUP
  5
4C11
102
{ACAD_REACTORS
330
D
102
}
330
D
100
AcDbGroup
300

 70
     1
 71
     1
  0
GROUP
  5
4C12
102
{ACAD_REACTORS
330
D
102
}
330
D
100
AcDbGroup
300

 70
     1
 71
     1
  0
GROUP
  5
4C13
102
{ACAD_REACTORS
330
D
102
}
330
D
100
AcDbGroup
300

 70
     1
 71
     1
  0
GROUP
  5
4C14
102
{ACAD_REACTORS
330
D
102
}
330
D
100
AcDbGroup
300

 70
     1
 71
     1
  0
GROUP
  5
4C15
102
{ACAD_REACTORS
330
D
102
}
330
D
100
AcDbGroup
300

 70
     1
 71
     1
  0
GROUP
  5
4C16
102
{ACAD_REACTORS
330
D
102
}
330
D
100
AcDbGroup
300

 70
     1
 71
     1
  0
GROUP
  5
4C17
102
{ACAD_REACTORS
330
D
102
}
330
D
100
AcDbGroup
300

 70
     1
 71
     1
  0
GROUP
  5
477E
102
{ACAD_REACTORS
330
D
102
}
330
D
100
AcDbGroup
300

 70
     1
 71
     1
  0
GROUP
  5
477F
102
{ACAD_REACTORS
330
D
102
}
330
D
100
AcDbGroup
300

 70
     1
 71
     1
  0
GROUP
  5
4780
102
{ACAD_REACTORS
330
D
102
}
330
D
100
AcDbGroup
300

 70
     1
 71
     1
  0
GROUP
  5
4781
102
{ACAD_REACTORS
330
D
102
}
330
D
100
AcDbGroup
300

 70
     1
 71
     1
  0
MLINESTYLE
  5
13
102
{ACAD_REACTORS
330
E
102
}
330
E
100
AcDbMlineStyle
  2
STANDARD
 70
     0
  3

 62
     0
 51
90.0
 52
90.0
 71
     2
 49
0.5
 62
   256
  6
BYLAYER
 49
-0.5
 62
   256
  6
BYLAYER
  0
ACDBPLACEHOLDER
  5
5C7C
102
{ACAD_REACTORS
330
5C7B
102
}
330
5C7B
100
AcDbPlaceHolder
280
     0
  0
DICTIONARYVAR
  5
139F9
102
{ACAD_REACTORS
330
139F8
102
}
330
139F8
100
DictionaryVariables
280
     0
  1
-1
  0
XRECORD
  5
13A04
102
{ACAD_REACTORS
330
13A03
102
}
330
13A03
100
AcDbXrecord
 90
        1
  0
XRECORD
  5
13A05
102
{ACAD_REACTORS
330
13A03
102
}
330
13A03
100
AcDbXrecord
 90
       70
  0
XRECORD
  5
13A06
102
{ACAD_REACTORS
330
13A03
102
}
330
13A03
100
AcDbXrecord
  1

  0
XRECORD
  5
13A07
102
{ACAD_REACTORS
330
13A03
102
}
330
13A03
100
AcDbXrecord
  1

  0
XRECORD
  5
13A08
102
{ACAD_REACTORS
330
13A03
102
}
330
13A03
100
AcDbXrecord
340
5C7D
  0
XRECORD
  5
13A09
102
{ACAD_REACTORS
330
13A03
102
}
330
13A03
100
AcDbXrecord
340
5C7E
  0
XRECORD
  5
13A0A
102
{ACAD_REACTORS
330
13A03
102
}
330
13A03
100
AcDbXrecord
340
5C7B
  0
XRECORD
  5
13A0B
102
{ACAD_REACTORS
330
13A03
102
}
330
13A03
100
AcDbXrecord
 90
    10781
  0
XRECORD
  5
13A0C
102
{ACAD_REACTORS
330
13A03
102
}
330
13A03
100
AcDbXrecord
 90
        0
  0
XRECORD
  5
13A0D
102
{ACAD_REACTORS
330
13A03
102
}
330
13A03
100
AcDbXrecord
 90
        0
  0
XRECORD
  5
13A0E
102
{ACAD_REACTORS
330
13A03
102
}
330
13A03
100
AcDbXrecord
  1
{225A7F0D-DA29-11D8-946A-0000E2416295}
  0
XRECORD
  5
13A0F
102
{ACAD_REACTORS
330
13A03
102
}
330
13A03
100
AcDbXrecord
  1
{A9AEF9E1-5148-4E06-92C0-457E452B4728}
  0
XRECORD
  5
13A10
102
{ACAD_REACTORS
330
13A03
102
}
330
13A03
100
AcDbXrecord
 40
0.0
  0
XRECORD
  5
13A11
102
{ACAD_REACTORS
330
13A03
102
}
330
13A03
100
AcDbXrecord
340
0
  0
XRECORD
  5
13A12
102
{ACAD_REACTORS
330
13A03
102
}
330
13A03
100
AcDbXrecord
 70
     0
  0
XRECORD
  5
13A13
102
{ACAD_REACTORS
330
13A03
102
}
330
13A03
100
AcDbXrecord
340
0
  0
XRECORD
  5
13A14
102
{ACAD_REACTORS
330
13A03
102
}
330
13A03
100
AcDbXrecord
 10
0.0
 20
0.0
 30
0.0
  0
XRECORD
  5
13A15
102
{ACAD_REACTORS
330
13A03
102
}
330
13A03
100
AcDbXrecord
 10
0.0
 20
0.0
 30
0.0
  0
XRECORD
  5
13A16
102
{ACAD_REACTORS
330
13A03
102
}
330
13A03
100
AcDbXrecord
 10
0.0
 20
0.0
 30
0.0
  0
XRECORD
  5
13A17
102
{ACAD_REACTORS
330
13A03
102
}
330
13A03
100
AcDbXrecord
 10
0.0
 20
0.0
 30
0.0
  0
XRECORD
  5
13A18
102
{ACAD_REACTORS
330
13A03
102
}
330
13A03
100
AcDbXrecord
 10
0.0
 20
0.0
 30
0.0
  0
XRECORD
  5
13A19
102
{ACAD_REACTORS
330
13A03
102
}
330
13A03
100
AcDbXrecord
 10
0.0
 20
0.0
 30
0.0
  0
XRECORD
  5
13A1A
102
{ACAD_REACTORS
330
13A03
102
}
330
13A03
100
AcDbXrecord
340
0
  0
XRECORD
  5
13A1B
102
{ACAD_REACTORS
330
13A03
102
}
330
13A03
100
AcDbXrecord
 70
     0
  0
XRECORD
  5
13A1C
102
{ACAD_REACTORS
330
13A03
102
}
330
13A03
100
AcDbXrecord
340
0
  0
XRECORD
  5
13A1D
102
{ACAD_REACTORS
330
13A03
102
}
330
13A03
100
AcDbXrecord
 10
0.0
 20
0.0
 30
0.0
  0
XRECORD
  5
13A1E
102
{ACAD_REACTORS
330
13A03
102
}
330
13A03
100
AcDbXrecord
 10
0.0
 20
0.0
 30
0.0
  0
XRECORD
  5
13A1F
102
{ACAD_REACTORS
330
13A03
102
}
330
13A03
100
AcDbXrecord
 10
0.0
 20
0.0
 30
0.0
  0
XRECORD
  5
13A20
102
{ACAD_REACTORS
330
13A03
102
}
330
13A03
100
AcDbXrecord
 10
0.0
 20
0.0
 30
0.0
  0
XRECORD
  5
13A21
102
{ACAD_REACTORS
330
13A03
102
}
330
13A03
100
AcDbXrecord
 10
0.0
 20
0.0
 30
0.0
  0
XRECORD
  5
13A22
102
{ACAD_REACTORS
330
13A03
102
}
330
13A03
100
AcDbXrecord
 10
0.0
 20
0.0
 30
0.0
  0
ENDSEC
  0
EOF
