  0
SECTION
  2
HEADER
  9
$ACADVER
  1
AC1014
  9
$ACADMAINTVER
 70
     9
  9
$DWGCODEPAGE
  3
ANSI_932
  9
$INSBASE
 10
0.0
 20
0.0
 30
0.0
  9
$EXTMIN
 10
-1548.731257934246
 20
1437.057042328405
 30
0.0
  9
$EXTMAX
 10
-1261.215852930805
 20
1677.697777822014
 30
0.0
  9
$LIMMIN
 10
0.0
 20
0.0
  9
$LIMMAX
 10
420.0
 20
297.0
  9
$ORTHOMODE
 70
     1
  9
$REGENMODE
 70
     1
  9
$FILLMODE
 70
     1
  9
$QTEXTMODE
 70
     0
  9
$MIRRTEXT
 70
     1
  9
$DRAGMODE
 70
     2
  9
$LTSCALE
 40
1.0
  9
$OSMODE
 70
    37
  9
$ATTMODE
 70
     1
  9
$TEXTSIZE
 40
2.5
  9
$TRACEWID
 40
1.0
  9
$TEXTSTYLE
  7
ゴシック体
  9
$CLAYER
  8
SUNPOU
  9
$CELTYPE
  6
BYLAYER
  9
$CECOLOR
 62
   256
  9
$CELTSCALE
 40
1.0
  9
$DELOBJ
 70
     1
  9
$DISPSILH
 70
     0
  9
$DIMSCALE
 40
0.0
  9
$DIMASZ
 40
3.0
  9
$DIMEXO
 40
0.5
  9
$DIMDLI
 40
0.5
  9
$DIMRND
 40
0.0
  9
$DIMDLE
 40
0.0
  9
$DIMEXE
 40
0.5
  9
$DIMTP
 40
0.0
  9
$DIMTM
 40
0.0
  9
$DIMTXT
 40
3.5
  9
$DIMCEN
 40
0.0
  9
$DIMTSZ
 40
0.0
  9
$DIMTOL
 70
     0
  9
$DIMLIM
 70
     0
  9
$DIMTIH
 70
     0
  9
$DIMTOH
 70
     0
  9
$DIMSE1
 70
     0
  9
$DIMSE2
 70
     0
  9
$DIMTAD
 70
     1
  9
$DIMZIN
 70
     8
  9
$DIMBLK
  1

  9
$DIMASO
 70
     1
  9
$DIMSHO
 70
     1
  9
$DIMPOST
  1

  9
$DIMAPOST
  1

  9
$DIMALT
 70
     0
  9
$DIMALTD
 70
     2
  9
$DIMALTF
 40
25.4
  9
$DIMLFAC
 40
1.0
  9
$DIMTOFL
 70
     1
  9
$DIMTVP
 40
0.0
  9
$DIMTIX
 70
     0
  9
$DIMSOXD
 70
     0
  9
$DIMSAH
 70
     0
  9
$DIMBLK1
  1

  9
$DIMBLK2
  1

  9
$DIMSTYLE
  2
標準スタイル
  9
$DIMCLRD
 70
     1
  9
$DIMCLRE
 70
     1
  9
$DIMCLRT
 70
     1
  9
$DIMTFAC
 40
1.0
  9
$DIMGAP
 40
1.0
  9
$DIMJUST
 70
     0
  9
$DIMSD1
 70
     0
  9
$DIMSD2
 70
     0
  9
$DIMTOLJ
 70
     1
  9
$DIMTZIN
 70
     8
  9
$DIMALTZ
 70
     0
  9
$DIMALTTZ
 70
     0
  9
$DIMFIT
 70
     3
  9
$DIMUPT
 70
     0
  9
$DIMUNIT
 70
     2
  9
$DIMDEC
 70
     2
  9
$DIMTDEC
 70
     2
  9
$DIMALTU
 70
     2
  9
$DIMALTTD
 70
     2
  9
$DIMTXSTY
  7
ゴシック体
  9
$DIMAUNIT
 70
     0
  9
$LUNITS
 70
     2
  9
$LUPREC
 70
     4
  9
$SKETCHINC
 40
1.0
  9
$FILLETRAD
 40
0.0
  9
$AUNITS
 70
     0
  9
$AUPREC
 70
     0
  9
$MENU
  1
.
  9
$ELEVATION
 40
0.0
  9
$PELEVATION
 40
0.0
  9
$THICKNESS
 40
0.0
  9
$LIMCHECK
 70
     0
  9
$BLIPMODE
 70
     0
  9
$CHAMFERA
 40
10.0
  9
$CHAMFERB
 40
10.0
  9
$CHAMFERC
 40
2.0
  9
$CHAMFERD
 40
0.7853981633974483
  9
$SKPOLY
 70
     0
  9
$TDCREATE
 40
2450495.493631365
  9
$TDUPDATE
 40
2453984.426055880
  9
$TDINDWG
 40
1.5620012500
  9
$TDUSRTIMER
 40
1.5620007870
  9
$USRTIMER
 70
     1
  9
$ANGBASE
 50
0.0
  9
$ANGDIR
 70
     0
  9
$PDMODE
 70
    99
  9
$PDSIZE
 40
0.0
  9
$PLINEWID
 40
0.0
  9
$COORDS
 70
     1
  9
$SPLFRAME
 70
     0
  9
$SPLINETYPE
 70
     6
  9
$SPLINESEGS
 70
     8
  9
$ATTDIA
 70
     0
  9
$ATTREQ
 70
     1
  9
$HANDLING
 70
 10241
  9
$HANDSEED
  5
1146C
  9
$SURFTAB1
 70
     6
  9
$SURFTAB2
 70
     6
  9
$SURFTYPE
 70
     6
  9
$SURFU
 70
     6
  9
$SURFV
 70
     6
  9
$UCSNAME
  2

  9
$UCSORG
 10
0.0
 20
0.0
 30
0.0
  9
$UCSXDIR
 10
1.0
 20
0.0
 30
0.0
  9
$UCSYDIR
 10
0.0
 20
1.0
 30
0.0
  9
$PUCSNAME
  2

  9
$PUCSORG
 10
0.0
 20
0.0
 30
0.0
  9
$PUCSXDIR
 10
1.0
 20
0.0
 30
0.0
  9
$PUCSYDIR
 10
0.0
 20
1.0
 30
0.0
  9
$USERI1
 70
     0
  9
$USERI2
 70
     0
  9
$USERI3
 70
     0
  9
$USERI4
 70
     0
  9
$USERI5
 70
     0
  9
$USERR1
 40
0.0
  9
$USERR2
 40
0.0
  9
$USERR3
 40
0.0
  9
$USERR4
 40
0.0
  9
$USERR5
 40
0.0
  9
$WORLDVIEW
 70
     1
  9
$SHADEDGE
 70
     3
  9
$SHADEDIF
 70
    70
  9
$TILEMODE
 70
     1
  9
$MAXACTVP
 70
    16
  9
$PINSBASE
 10
0.0
 20
0.0
 30
0.0
  9
$PLIMCHECK
 70
     0
  9
$PEXTMIN
 10
29.03619555254121
 20
27.69602733303884
 30
0.0
  9
$PEXTMAX
 10
414.5361955525409
 20
287.6960273330388
 30
0.0
  9
$PLIMMIN
 10
15.14082890028157
 20
13.81565218284106
  9
$PLIMMAX
 10
435.0874841737191
 20
310.8263028176066
  9
$UNITMODE
 70
     0
  9
$VISRETAIN
 70
     0
  9
$PLINEGEN
 70
     0
  9
$PSLTSCALE
 70
     1
  9
$TREEDEPTH
 70
  3020
  9
$PICKSTYLE
 70
     1
  9
$CMLSTYLE
  2
STANDARD
  9
$CMLJUST
 70
     0
  9
$CMLSCALE
 40
1.0
  9
$PROXYGRAPHICS
 70
     1
  9
$MEASUREMENT
 70
     1
  0
ENDSEC
  0
SECTION
  2
CLASSES
  0
CLASS
  1
LWPOLYLINE
  2
AcDbPolyline
  3
AutoCAD 2000
 90
        0
280
     0
281
     1
  0
CLASS
  1
HATCH
  2
AcDbHatch
  3
AutoCAD 2000
 90
        0
280
     0
281
     1
  0
CLASS
  1
ACDBDICTIONARYWDFLT
  2
AcDbDictionaryWithDefault
  3
AutoCAD 2000
 90
        0
280
     0
281
     0
  0
CLASS
  1
ACDBPLACEHOLDER
  2
AcDbPlaceHolder
  3
AutoCAD 2000
 90
        0
280
     0
281
     0
  0
CLASS
  1
LAYOUT
  2
AcDbLayout
  3
AutoCAD 2000
 90
        0
280
     0
281
     0
  0
CLASS
  1
DICTIONARYVAR
  2
AcDbDictionaryVar
  3
AutoCAD 2000
 90
        0
280
     0
281
     0
  0
CLASS
  1
LONG_TRANSACTION
  2
AcDbLongTransaction
  3
AutoCAD 2000
 90
        0
280
     0
281
     0
  0
CLASS
  1
LWPOLYLINE
  2
AcDbPolyline
  3
AutoCAD 2000
 90
        0
280
     0
281
     1
  0
CLASS
  1
HATCH
  2
AcDbHatch
  3
AutoCAD 2000
 90
        0
280
     0
281
     1
  0
CLASS
  1
XRECORD
  2
AcDbXrecord
  3
AutoCAD 2000
 90
        0
280
     0
281
     0
  0
ENDSEC
  0
SECTION
  2
TABLES
  0
TABLE
  2
VPORT
  5
8
330
0
100
AcDbSymbolTable
 70
     2
  0
VPORT
  5
11447
330
8
100
AcDbSymbolTableRecord
100
AcDbViewportTableRecord
  2
*ACTIVE
 70
     0
 10
0.0
 20
0.0
 11
1.0
 21
1.0
 12
-1330.483969099168
 22
1562.732837196264
 13
0.0
 23
0.0
 14
5.0
 24
5.0
 15
0.0
 25
0.0
 16
0.0
 26
0.0
 36
1.0
 17
0.0
 27
0.0
 37
0.0
 40
279.615750675138
 41
2.192560175054704
 42
50.0
 43
0.0
 44
0.0
 50
0.0
 51
0.0
 71
     0
 72
   100
 73
     1
 74
     0
 75
     0
 76
     0
 77
     0
 78
     0
  0
ENDTAB
  0
TABLE
  2
LTYPE
  5
5
330
0
100
AcDbSymbolTable
 70
    13
  0
LTYPE
  5
14
330
5
100
AcDbSymbolTableRecord
100
AcDbLinetypeTableRecord
  2
BYBLOCK
 70
     0
  3

 72
    65
 73
     0
 40
0.0
  0
LTYPE
  5
15
330
5
100
AcDbSymbolTableRecord
100
AcDbLinetypeTableRecord
  2
BYLAYER
 70
     0
  3

 72
    65
 73
     0
 40
0.0
  0
LTYPE
  5
16
330
5
100
AcDbSymbolTableRecord
100
AcDbLinetypeTableRecord
  2
CONTINUOUS
 70
     0
  3
Solid line
 72
    65
 73
     0
 40
0.0
  0
LTYPE
  5
1956
330
5
100
AcDbSymbolTableRecord
100
AcDbLinetypeTableRecord
  2
CENTERX2
 70
     0
  3
________  __  ________  __  ________  __  _____
 72
    65
 73
     4
 40
4.0
 49
2.5
 74
     0
 49
-0.5
 74
     0
 49
0.5
 74
     0
 49
-0.5
 74
     0
  0
LTYPE
  5
1958
330
5
100
AcDbSymbolTableRecord
100
AcDbLinetypeTableRecord
  2
PHANTOMX2
 70
     0
  3
____________    ____    ____    ____________   
 72
    65
 73
     6
 40
5.0
 49
2.5
 74
     0
 49
-0.5
 74
     0
 49
0.5
 74
     0
 49
-0.5
 74
     0
 49
0.5
 74
     0
 49
-0.5
 74
     0
  0
ENDTAB
  0
TABLE
  2
LAYER
  5
2
330
0
100
AcDbSymbolTable
 70
    33
  0
LAYER
  5
F
330
2
100
AcDbSymbolTableRecord
100
AcDbLayerTableRecord
  2
0
 70
     0
 62
     7
  6
CONTINUOUS
  0
LAYER
  5
18F
330
2
100
AcDbSymbolTableRecord
100
AcDbLayerTableRecord
  2
ZISSEN1
 70
     0
 62
     7
  6
CONTINUOUS
  0
LAYER
  5
529
330
2
100
AcDbSymbolTableRecord
100
AcDbLayerTableRecord
  2
SUNPOU
 70
     0
 62
     1
  6
CONTINUOUS
  0
LAYER
  5
195A
330
2
100
AcDbSymbolTableRecord
100
AcDbLayerTableRecord
  2
CL1
 70
     0
 62
   210
  6
CENTERX2
  0
LAYER
  5
195C
330
2
100
AcDbSymbolTableRecord
100
AcDbLayerTableRecord
  2
SOUZOUSEN
 70
     0
 62
     5
  6
PHANTOMX2
  0
LAYER
  5
3A9B
330
2
100
AcDbSymbolTableRecord
100
AcDbLayerTableRecord
  2
DEFPOINTS
 70
     0
 62
     7
  6
CONTINUOUS
  0
ENDTAB
  0
TABLE
  2
STYLE
  5
3
330
0
100
AcDbSymbolTable
 70
     5
  0
STYLE
  5
10
330
3
100
AcDbSymbolTableRecord
100
AcDbTextStyleTableRecord
  2
STANDARD
 70
     0
 40
0.0
 41
1.0
 50
0.0
 71
     0
 42
3.0
  3
txt
  4
BigFont
  0
STYLE
  5
1960
330
3
100
AcDbSymbolTableRecord
100
AcDbTextStyleTableRecord
  2
ゴシック体
 70
     0
 40
0.0
 41
1.0
 50
0.0
 71
     0
 42
2.5
  3
MS Gothic.ttf
  4

1001
ACAD
1000
MS Gothic
1071
    32817
  0
ENDTAB
  0
TABLE
  2
VIEW
  5
6
330
0
100
AcDbSymbolTable
 70
     0
  0
ENDTAB
  0
TABLE
  2
UCS
  5
7
330
0
100
AcDbSymbolTable
 70
     0
  0
ENDTAB
  0
TABLE
  2
APPID
  5
9
330
0
100
AcDbSymbolTable
 70
     5
  0
APPID
  5
11
330
9
100
AcDbSymbolTableRecord
100
AcDbRegAppTableRecord
  2
ACAD
 70
     0
  0
APPID
  5
4005
330
9
100
AcDbSymbolTableRecord
100
AcDbRegAppTableRecord
  2
CONTENTTABDATA
 70
     0
  0
APPID
  5
4006
330
9
100
AcDbSymbolTableRecord
100
AcDbRegAppTableRecord
  2
CONTENTCURRENTTAB
 70
     0
  0
APPID
  5
477B
330
9
100
AcDbSymbolTableRecord
100
AcDbRegAppTableRecord
  2
CONTENTBLOCKDESCRIPTION
 70
     0
  0
APPID
  5
477C
330
9
100
AcDbSymbolTableRecord
100
AcDbRegAppTableRecord
  2
CONTENTBLOCKICON
 70
     0
  0
ENDTAB
  0
TABLE
  2
DIMSTYLE
  5
A
330
0
100
AcDbSymbolTable
 70
    12
  0
DIMSTYLE
105
1D
330
A
100
AcDbSymbolTableRecord
100
AcDbDimStyleTableRecord
  2
STANDARD
 70
     0
  3

  4

  5

  6

  7

 40
1.0
 41
0.18
 42
0.0625
 43
0.38
 44
0.18
 45
0.0
 46
0.0
 47
0.0
 48
0.0
140
0.18
141
0.09
142
0.0
143
25.4
144
1.0
145
0.0
146
1.0
147
0.09
 71
     0
 72
     0
 73
     1
 74
     1
 75
     0
 76
     0
 77
     0
 78
     0
170
     0
171
     2
172
     0
173
     0
174
     0
175
     0
176
     0
177
     0
178
     0
270
     2
271
     4
272
     4
273
     2
274
     2
340
10
275
     0
280
     0
281
     0
282
     0
283
     1
284
     0
285
     0
286
     0
287
     3
288
     0
  0
DIMSTYLE
105
52E
102
{ACAD_REACTORS
330
1111C
330
11148
330
1115E
330
11174
330
11181
330
1118E
330
1119B
330
111AA
330
111D1
330
11280
330
1129C
330
112AA
330
112B9
330
112C6
330
112D3
330
112E2
330
112EF
330
112FC
330
11312
330
11386
102
}
330
A
100
AcDbSymbolTableRecord
100
AcDbDimStyleTableRecord
  2
標準スタイル
 70
     0
  3

  4

  5

  6

  7

 40
0.0
 41
3.0
 42
0.5
 43
0.5
 44
0.5
 45
0.0
 46
0.0
 47
0.0
 48
0.0
140
3.5
141
0.0
142
0.0
143
25.4
144
1.0
145
0.0
146
1.0
147
1.0
 71
     0
 72
     0
 73
     0
 74
     0
 75
     0
 76
     0
 77
     1
 78
     8
170
     0
171
     2
172
     1
173
     0
174
     0
175
     0
176
     1
177
     1
178
     1
270
     2
271
     2
272
     2
273
     2
274
     2
340
1960
275
     0
280
     0
281
     0
282
     0
283
     1
284
     8
285
     0
286
     0
287
     3
288
     0
  0
ENDTAB
  0
TABLE
  2
BLOCK_RECORD
  5
1
330
0
100
AcDbSymbolTable
 70
    44
  0
BLOCK_RECORD
  5
1A
102
{ACAD_XDICTIONARY
360
11468
102
}
330
1
100
AcDbSymbolTableRecord
100
AcDbBlockTableRecord
  2
*MODEL_SPACE
  0
BLOCK_RECORD
  5
5D8E
102
{ACAD_XDICTIONARY
360
1146A
102
}
330
1
100
AcDbSymbolTableRecord
100
AcDbBlockTableRecord
  2
*PAPER_SPACE
  0
BLOCK_RECORD
  5
1111D
330
1
100
AcDbSymbolTableRecord
100
AcDbBlockTableRecord
  2
*D24
  0
BLOCK_RECORD
  5
11149
330
1
100
AcDbSymbolTableRecord
100
AcDbBlockTableRecord
  2
*D25
  0
BLOCK_RECORD
  5
1115F
330
1
100
AcDbSymbolTableRecord
100
AcDbBlockTableRecord
  2
*D26
  0
BLOCK_RECORD
  5
11175
330
1
100
AcDbSymbolTableRecord
100
AcDbBlockTableRecord
  2
*D27
  0
BLOCK_RECORD
  5
11182
330
1
100
AcDbSymbolTableRecord
100
AcDbBlockTableRecord
  2
*D28
  0
BLOCK_RECORD
  5
1118F
330
1
100
AcDbSymbolTableRecord
100
AcDbBlockTableRecord
  2
*D29
  0
BLOCK_RECORD
  5
1119C
330
1
100
AcDbSymbolTableRecord
100
AcDbBlockTableRecord
  2
*D30
  0
BLOCK_RECORD
  5
111AB
330
1
100
AcDbSymbolTableRecord
100
AcDbBlockTableRecord
  2
*D31
  0
BLOCK_RECORD
  5
111D2
330
1
100
AcDbSymbolTableRecord
100
AcDbBlockTableRecord
  2
*D32
  0
BLOCK_RECORD
  5
11281
330
1
100
AcDbSymbolTableRecord
100
AcDbBlockTableRecord
  2
*D33
  0
BLOCK_RECORD
  5
1129D
330
1
100
AcDbSymbolTableRecord
100
AcDbBlockTableRecord
  2
*D34
  0
BLOCK_RECORD
  5
112AB
330
1
100
AcDbSymbolTableRecord
100
AcDbBlockTableRecord
  2
*D35
  0
BLOCK_RECORD
  5
112BA
330
1
100
AcDbSymbolTableRecord
100
AcDbBlockTableRecord
  2
*D36
  0
BLOCK_RECORD
  5
112C7
330
1
100
AcDbSymbolTableRecord
100
AcDbBlockTableRecord
  2
*D37
  0
BLOCK_RECORD
  5
112D4
330
1
100
AcDbSymbolTableRecord
100
AcDbBlockTableRecord
  2
*D38
  0
BLOCK_RECORD
  5
112E3
330
1
100
AcDbSymbolTableRecord
100
AcDbBlockTableRecord
  2
*D39
  0
BLOCK_RECORD
  5
112F0
330
1
100
AcDbSymbolTableRecord
100
AcDbBlockTableRecord
  2
*D40
  0
BLOCK_RECORD
  5
112FD
330
1
100
AcDbSymbolTableRecord
100
AcDbBlockTableRecord
  2
*D41
  0
BLOCK_RECORD
  5
11313
330
1
100
AcDbSymbolTableRecord
100
AcDbBlockTableRecord
  2
*D42
  0
BLOCK_RECORD
  5
11387
330
1
100
AcDbSymbolTableRecord
100
AcDbBlockTableRecord
  2
*D43
  0
ENDTAB
  0
ENDSEC
  0
SECTION
  2
BLOCKS
  0
BLOCK
  5
1B
330
1A
100
AcDbEntity
  8
0
100
AcDbBlockBegin
  2
*MODEL_SPACE
 70
     0
 10
0.0
 20
0.0
 30
0.0
  3
*MODEL_SPACE
  1

  0
ENDBLK
  5
1C
330
1A
100
AcDbEntity
  8
0
100
AcDbBlockEnd
  0
BLOCK
  5
5E60
330
5D8E
100
AcDbEntity
 67
     1
  8
0
100
AcDbBlockBegin
  2
*PAPER_SPACE
 70
     0
 10
0.0
 20
0.0
 30
0.0
  3
*PAPER_SPACE
  1

  0
ENDBLK
  5
5E61
330
5D8E
100
AcDbEntity
 67
     1
  8
0
100
AcDbBlockEnd
  0
BLOCK
  5
11127
330
1111D
100
AcDbEntity
  8
0
100
AcDbBlockBegin
  2
*D24
 70
     1
 10
0.0
 20
0.0
 30
0.0
  3
*D24
  1

  0
LINE
  5
113CB
330
1111D
100
AcDbEntity
  8
SUNPOU
 62
     1
100
AcDbLine
 10
-1536.578693829248
 20
1630.522159789822
 30
0.0
 11
-1543.778117058737
 21
1630.522159789822
 31
0.0
  0
LINE
  5
113CC
330
1111D
100
AcDbEntity
  8
SUNPOU
 62
     1
100
AcDbLine
 10
-1536.578693829248
 20
1560.522149789822
 30
0.0
 11
-1543.778117058737
 21
1560.522149789822
 31
0.0
  0
LINE
  5
113CD
330
1111D
100
AcDbEntity
  8
SUNPOU
 62
     1
100
AcDbLine
 10
-1543.278117058735
 20
1627.522159789822
 30
0.0
 11
-1543.278117058735
 21
1563.522149789822
 31
0.0
  0
SOLID
  5
113CE
330
1111D
100
AcDbEntity
  8
SUNPOU
 62
     1
100
AcDbTrace
 10
-1543.778117058737
 20
1627.522159789822
 30
0.0
 11
-1542.778117058736
 21
1627.522159789822
 31
0.0
 12
-1543.278117058735
 22
1630.522159789822
 32
0.0
 13
-1543.278117058735
 23
1630.522159789822
 33
0.0
  0
SOLID
  5
113CF
330
1111D
100
AcDbEntity
  8
SUNPOU
 62
     1
100
AcDbTrace
 10
-1543.778117058737
 20
1563.522149789822
 30
0.0
 11
-1542.778117058736
 21
1563.522149789822
 31
0.0
 12
-1543.278117058735
 22
1560.522149789822
 32
0.0
 13
-1543.278117058735
 23
1560.522149789822
 33
0.0
  0
MTEXT
  5
113D0
330
1111D
100
AcDbEntity
  8
SUNPOU
 62
     1
100
AcDbMText
 10
-1546.028117058735
 20
1595.522154789819
 30
0.0
 40
3.5
 41
0.0
 71
     5
 72
     1
  1
\A1;70
  7
ゴシック体
 11
0.0000000000000001
 21
1.0
 31
0.0
1001
ACAD
1000
MTEXTBEGIN
1070
    73
1070
     1
1070
    44
1040
1.0
1070
    74
1070
     0
1000
MTEXTEND
  0
POINT
  5
113D1
330
1111D
100
AcDbEntity
  8
DEFPOINTS
 62
     0
100
AcDbPoint
 10
-1536.078693829248
 20
1630.522159789822
 30
0.0
  0
POINT
  5
113D2
330
1111D
100
AcDbEntity
  8
DEFPOINTS
 62
     0
100
AcDbPoint
 10
-1536.078693829248
 20
1560.522149789822
 30
0.0
  0
POINT
  5
113D3
330
1111D
100
AcDbEntity
  8
DEFPOINTS
 62
     0
100
AcDbPoint
 10
-1543.278117058735
 20
1560.522149789822
 30
0.0
  0
ENDBLK
  5
11128
330
1111D
100
AcDbEntity
  8
0
100
AcDbBlockEnd
  0
BLOCK
  5
11153
330
11149
100
AcDbEntity
  8
0
100
AcDbBlockBegin
  2
*D25
 70
     1
 10
0.0
 20
0.0
 30
0.0
  3
*D25
  1

  0
LINE
  5
113C2
330
11149
100
AcDbEntity
  8
SUNPOU
 62
     1
100
AcDbLine
 10
-1536.578693829248
 20
1560.522149789822
 30
0.0
 11
-1543.825166563688
 21
1560.522149789822
 31
0.0
  0
LINE
  5
113C3
330
11149
100
AcDbEntity
  8
SUNPOU
 62
     1
100
AcDbLine
 10
-1531.773094829248
 20
1548.822139789822
 30
0.0
 11
-1543.825166563688
 21
1548.822139789822
 31
0.0
  0
LINE
  5
113C4
330
11149
100
AcDbEntity
  8
SUNPOU
 62
     1
100
AcDbLine
 10
-1543.325166563688
 20
1557.522149789822
 30
0.0
 11
-1543.325166563688
 21
1551.822139789822
 31
0.0
  0
SOLID
  5
113C5
330
11149
100
AcDbEntity
  8
SUNPOU
 62
     1
100
AcDbTrace
 10
-1543.825166563688
 20
1557.522149789822
 30
0.0
 11
-1542.825166563688
 21
1557.522149789822
 31
0.0
 12
-1543.325166563688
 22
1560.522149789822
 32
0.0
 13
-1543.325166563688
 23
1560.522149789822
 33
0.0
  0
SOLID
  5
113C6
330
11149
100
AcDbEntity
  8
SUNPOU
 62
     1
100
AcDbTrace
 10
-1543.825166563688
 20
1551.822139789822
 30
0.0
 11
-1542.825166563688
 21
1551.822139789822
 31
0.0
 12
-1543.325166563688
 22
1548.822139789822
 32
0.0
 13
-1543.325166563688
 23
1548.822139789822
 33
0.0
  0
MTEXT
  5
113C7
330
11149
100
AcDbEntity
  8
SUNPOU
 62
     1
100
AcDbMText
 10
-1546.36831377181
 20
1554.672144789821
 30
0.0
 40
3.5
 41
0.0
 71
     5
 72
     1
  1
\A1;(11.7)
  7
ゴシック体
 11
0.0000000000000001
 21
1.0
 31
0.0
1001
ACAD
1000
MTEXTBEGIN
1070
    73
1070
     1
1070
    44
1040
1.0
1070
    74
1070
     0
1000
MTEXTEND
  0
POINT
  5
113C8
330
11149
100
AcDbEntity
  8
DEFPOINTS
 62
     0
100
AcDbPoint
 10
-1536.078693829248
 20
1560.522149789822
 30
0.0
  0
POINT
  5
113C9
330
11149
100
AcDbEntity
  8
DEFPOINTS
 62
     0
100
AcDbPoint
 10
-1531.273094829248
 20
1548.822139789822
 30
0.0
  0
POINT
  5
113CA
330
11149
100
AcDbEntity
  8
DEFPOINTS
 62
     0
100
AcDbPoint
 10
-1543.325166563688
 20
1548.822139789822
 30
0.0
  0
ENDBLK
  5
11154
330
11149
100
AcDbEntity
  8
0
100
AcDbBlockEnd
  0
BLOCK
  5
11169
330
1115F
100
AcDbEntity
  8
0
100
AcDbBlockBegin
  2
*D26
 70
     1
 10
0.0
 20
0.0
 30
0.0
  3
*D26
  1

  0
LINE
  5
1116B
330
1115F
100
AcDbEntity
  8
SUNPOU
 62
     1
100
AcDbLine
 10
-1507.923094829248
 20
1534.022139789822
 30
0.0
 11
-1472.843610202715
 21
1534.022139789822
 31
0.0
  0
LINE
  5
1116C
330
1115F
100
AcDbEntity
  8
SUNPOU
 62
     1
100
AcDbLine
 10
-1484.473094829248
 20
1550.022139789822
 30
0.0
 11
-1472.843610202715
 21
1550.022139789822
 31
0.0
  0
LINE
  5
1116D
330
1115F
100
AcDbEntity
  8
SUNPOU
 62
     1
100
AcDbLine
 10
-1473.343610202713
 20
1537.022139789822
 30
0.0
 11
-1473.343610202713
 21
1547.022139789822
 31
0.0
  0
SOLID
  5
1116E
330
1115F
100
AcDbEntity
  8
SUNPOU
 62
     1
100
AcDbTrace
 10
-1473.843610202715
 20
1537.022139789822
 30
0.0
 11
-1472.843610202715
 21
1537.022139789822
 31
0.0
 12
-1473.343610202715
 22
1534.022139789822
 32
0.0
 13
-1473.343610202715
 23
1534.022139789822
 33
0.0
  0
SOLID
  5
1116F
330
1115F
100
AcDbEntity
  8
SUNPOU
 62
     1
100
AcDbTrace
 10
-1473.843610202715
 20
1547.022139789822
 30
0.0
 11
-1472.843610202715
 21
1547.022139789822
 31
0.0
 12
-1473.343610202713
 22
1550.022139789822
 32
0.0
 13
-1473.343610202713
 23
1550.022139789822
 33
0.0
  0
MTEXT
  5
11170
330
1115F
100
AcDbEntity
  8
SUNPOU
 62
     1
100
AcDbMText
 10
-1476.386757410837
 20
1542.022139789819
 30
0.0
 40
3.5
 41
0.0
 71
     5
 72
     1
  1
\A1;(16)
  7
ゴシック体
 11
0.0000000000000001
 21
1.0
 31
0.0
1001
ACAD
1000
MTEXTBEGIN
1070
    73
1070
     1
1070
    44
1040
1.0
1070
    74
1070
     0
1000
MTEXTEND
  0
POINT
  5
11171
330
1115F
100
AcDbEntity
  8
DEFPOINTS
 62
     0
100
AcDbPoint
 10
-1508.423094829248
 20
1534.022139789822
 30
0.0
  0
POINT
  5
11172
330
1115F
100
AcDbEntity
  8
DEFPOINTS
 62
     0
100
AcDbPoint
 10
-1484.973094829248
 20
1550.022139789822
 30
0.0
  0
POINT
  5
11173
330
1115F
100
AcDbEntity
  8
DEFPOINTS
 62
     0
100
AcDbPoint
 10
-1473.343610202713
 20
1550.022139789822
 30
0.0
  0
ENDBLK
  5
1116A
330
1115F
100
AcDbEntity
  8
0
100
AcDbBlockEnd
  0
BLOCK
  5
1117F
330
11175
100
AcDbEntity
  8
0
100
AcDbBlockBegin
  2
*D27
 70
     1
 10
0.0
 20
0.0
 30
0.0
  3
*D27
  1

  0
LINE
  5
11176
330
11175
100
AcDbEntity
  8
SUNPOU
 62
     1
100
AcDbLine
 10
-1306.086374829248
 20
1635.522149789822
 30
0.0
 11
-1433.342435751747
 21
1635.522149789822
 31
0.0
  0
LINE
  5
11177
330
11175
100
AcDbEntity
  8
SUNPOU
 62
     1
100
AcDbLine
 10
-1419.730484829248
 20
1555.522139789822
 30
0.0
 11
-1433.342435751747
 21
1555.522139789822
 31
0.0
  0
LINE
  5
11178
330
11175
100
AcDbEntity
  8
SUNPOU
 62
     1
100
AcDbLine
 10
-1432.842435751747
 20
1632.522149789822
 30
0.0
 11
-1432.842435751747
 21
1558.522139789822
 31
0.0
  0
SOLID
  5
11179
330
11175
100
AcDbEntity
  8
SUNPOU
 62
     1
100
AcDbTrace
 10
-1433.342435751747
 20
1632.522149789822
 30
0.0
 11
-1432.342435751747
 21
1632.522149789822
 31
0.0
 12
-1432.842435751747
 22
1635.522149789822
 32
0.0
 13
-1432.842435751747
 23
1635.522149789822
 33
0.0
  0
SOLID
  5
1117A
330
11175
100
AcDbEntity
  8
SUNPOU
 62
     1
100
AcDbTrace
 10
-1433.342435751747
 20
1558.522139789822
 30
0.0
 11
-1432.342435751747
 21
1558.522139789822
 31
0.0
 12
-1432.842435751747
 22
1555.522139789822
 32
0.0
 13
-1432.842435751747
 23
1555.522139789822
 33
0.0
  0
MTEXT
  5
1117B
330
11175
100
AcDbEntity
  8
SUNPOU
 62
     1
100
AcDbMText
 10
-1435.592435751748
 20
1595.522144789822
 30
0.0
 40
3.5
 41
0.0
 71
     5
 72
     1
  1
\A1;80
  7
ゴシック体
 11
0.0000000000000001
 21
1.0
 31
0.0
1001
ACAD
1000
MTEXTBEGIN
1070
    73
1070
     1
1070
    44
1040
1.0
1070
    74
1070
     0
1000
MTEXTEND
  0
POINT
  5
1117C
330
11175
100
AcDbEntity
  8
DEFPOINTS
 62
     0
100
AcDbPoint
 10
-1305.586374829248
 20
1635.522149789822
 30
0.0
  0
POINT
  5
1117D
330
11175
100
AcDbEntity
  8
DEFPOINTS
 62
     0
100
AcDbPoint
 10
-1419.230484829248
 20
1555.522139789822
 30
0.0
  0
POINT
  5
1117E
330
11175
100
AcDbEntity
  8
DEFPOINTS
 62
     0
100
AcDbPoint
 10
-1432.842435751747
 20
1555.522139789822
 30
0.0
  0
ENDBLK
  5
11180
330
11175
100
AcDbEntity
  8
0
100
AcDbBlockEnd
  0
BLOCK
  5
1118C
330
11182
100
AcDbEntity
  8
0
100
AcDbBlockBegin
  2
*D28
 70
     1
 10
0.0
 20
0.0
 30
0.0
  3
*D28
  1

  0
LINE
  5
11183
330
11182
100
AcDbEntity
  8
SUNPOU
 62
     1
100
AcDbLine
 10
-1415.592014829248
 20
1561.282129789822
 30
0.0
 11
-1415.592014829248
 21
1663.961093327863
 31
0.0
  0
LINE
  5
11184
330
11182
100
AcDbEntity
  8
SUNPOU
 62
     1
100
AcDbLine
 10
-1295.592014829248
 20
1642.015039789822
 30
0.0
 11
-1295.592014829248
 21
1663.961093327863
 31
0.0
  0
LINE
  5
11185
330
11182
100
AcDbEntity
  8
SUNPOU
 62
     1
100
AcDbLine
 10
-1412.592014829248
 20
1663.461093327863
 30
0.0
 11
-1298.592014829248
 21
1663.461093327863
 31
0.0
  0
SOLID
  5
11186
330
11182
100
AcDbEntity
  8
SUNPOU
 62
     1
100
AcDbTrace
 10
-1412.592014829248
 20
1663.961093327863
 30
0.0
 11
-1412.592014829248
 21
1662.961093327863
 31
0.0
 12
-1415.592014829248
 22
1663.461093327863
 32
0.0
 13
-1415.592014829248
 23
1663.461093327863
 33
0.0
  0
SOLID
  5
11187
330
11182
100
AcDbEntity
  8
SUNPOU
 62
     1
100
AcDbTrace
 10
-1298.592014829248
 20
1663.961093327863
 30
0.0
 11
-1298.592014829248
 21
1662.961093327863
 31
0.0
 12
-1295.592014829248
 22
1663.461093327863
 32
0.0
 13
-1295.592014829248
 23
1663.461093327863
 33
0.0
  0
MTEXT
  5
11188
330
11182
100
AcDbEntity
  8
SUNPOU
 62
     1
100
AcDbMText
 10
-1355.592014829248
 20
1666.211093327863
 30
0.0
 40
3.5
 41
0.0
 71
     5
 72
     1
  1
\A1;120
  7
ゴシック体
1001
ACAD
1000
MTEXTBEGIN
1070
    73
1070
     1
1070
    44
1040
1.0
1070
    74
1070
     0
1000
MTEXTEND
  0
POINT
  5
11189
330
11182
100
AcDbEntity
  8
DEFPOINTS
 62
     0
100
AcDbPoint
 10
-1415.592014829248
 20
1560.782129789822
 30
0.0
  0
POINT
  5
1118A
330
11182
100
AcDbEntity
  8
DEFPOINTS
 62
     0
100
AcDbPoint
 10
-1295.592014829248
 20
1641.515039789822
 30
0.0
  0
POINT
  5
1118B
330
11182
100
AcDbEntity
  8
DEFPOINTS
 62
     0
100
AcDbPoint
 10
-1295.592014829248
 20
1663.461093327863
 30
0.0
  0
ENDBLK
  5
1118D
330
11182
100
AcDbEntity
  8
0
100
AcDbBlockEnd
  0
BLOCK
  5
11199
330
1118F
100
AcDbEntity
  8
0
100
AcDbBlockBegin
  2
*D29
 70
     1
 10
0.0
 20
0.0
 30
0.0
  3
*D29
  1

  0
LINE
  5
11190
330
1118F
100
AcDbEntity
  8
SUNPOU
 62
     1
100
AcDbLine
 10
-1412.091994829248
 20
1560.398809789822
 30
0.0
 11
-1412.091994829248
 21
1651.793461704047
 31
0.0
  0
LINE
  5
11191
330
1118F
100
AcDbEntity
  8
SUNPOU
 62
     1
100
AcDbLine
 10
-1299.092024829248
 20
1641.522139789822
 30
0.0
 11
-1299.092024829248
 21
1651.793461704047
 31
0.0
  0
LINE
  5
11192
330
1118F
100
AcDbEntity
  8
SUNPOU
 62
     1
100
AcDbLine
 10
-1409.091994829248
 20
1651.293461704049
 30
0.0
 11
-1302.092024829248
 21
1651.293461704049
 31
0.0
  0
SOLID
  5
11193
330
1118F
100
AcDbEntity
  8
SUNPOU
 62
     1
100
AcDbTrace
 10
-1409.091994829248
 20
1651.793461704047
 30
0.0
 11
-1409.091994829248
 21
1650.793461704049
 31
0.0
 12
-1412.091994829248
 22
1651.293461704049
 32
0.0
 13
-1412.091994829248
 23
1651.293461704049
 33
0.0
  0
SOLID
  5
11194
330
1118F
100
AcDbEntity
  8
SUNPOU
 62
     1
100
AcDbTrace
 10
-1302.092024829248
 20
1651.793461704047
 30
0.0
 11
-1302.092024829248
 21
1650.793461704049
 31
0.0
 12
-1299.092024829248
 22
1651.293461704049
 32
0.0
 13
-1299.092024829248
 23
1651.293461704049
 33
0.0
  0
MTEXT
  5
11195
330
1118F
100
AcDbEntity
  8
SUNPOU
 62
     1
100
AcDbMText
 10
-1355.592009829248
 20
1654.043461704048
 30
0.0
 40
3.5
 41
0.0
 71
     5
 72
     1
  1
\A1;113
  7
ゴシック体
1001
ACAD
1000
MTEXTBEGIN
1070
    73
1070
     1
1070
    44
1040
1.0
1070
    74
1070
     0
1000
MTEXTEND
  0
POINT
  5
11196
330
1118F
100
AcDbEntity
  8
DEFPOINTS
 62
     0
100
AcDbPoint
 10
-1412.091994829248
 20
1559.898809789822
 30
0.0
  0
POINT
  5
11197
330
1118F
100
AcDbEntity
  8
DEFPOINTS
 62
     0
100
AcDbPoint
 10
-1299.092024829248
 20
1641.022139789822
 30
0.0
  0
POINT
  5
11198
330
1118F
100
AcDbEntity
  8
DEFPOINTS
 62
     0
100
AcDbPoint
 10
-1299.092024829248
 20
1651.293461704049
 30
0.0
  0
ENDBLK
  5
1119A
330
1118F
100
AcDbEntity
  8
0
100
AcDbBlockEnd
  0
BLOCK
  5
111A8
330
1119C
100
AcDbEntity
  8
0
100
AcDbBlockBegin
  2
*D30
 70
     1
 10
0.0
 20
0.0
 30
0.0
  3
*D30
  1

  0
LINE
  5
1119D
330
1119C
100
AcDbEntity
  8
SUNPOU
 62
     1
100
AcDbLine
 10
-1295.092014829248
 20
1637.772139789822
 30
0.0
 11
-1285.589735071114
 21
1637.772139789822
 31
0.0
  0
LINE
  5
1119E
330
1119C
100
AcDbEntity
  8
SUNPOU
 62
     1
100
AcDbLine
 10
-1295.092014829248
 20
1633.272149789822
 30
0.0
 11
-1285.589735071114
 21
1633.272149789822
 31
0.0
  0
LINE
  5
1119F
330
1119C
100
AcDbEntity
  8
SUNPOU
 62
     1
100
AcDbLine
 10
-1286.089735071114
 20
1640.772139789822
 30
0.0
 11
-1286.089735071114
 21
1643.772139789822
 31
0.0
  0
LINE
  5
111A0
330
1119C
100
AcDbEntity
  8
SUNPOU
 62
     1
100
AcDbLine
 10
-1286.089735071114
 20
1630.272149789822
 30
0.0
 11
-1286.089735071114
 21
1618.858444206066
 31
0.0
  0
LINE
  5
111A1
330
1119C
100
AcDbEntity
  8
SUNPOU
 62
     1
100
AcDbLine
 10
-1286.089735071114
 20
1637.772139789822
 30
0.0
 11
-1286.089735071114
 21
1633.272149789822
 31
0.0
  0
SOLID
  5
111A2
330
1119C
100
AcDbEntity
  8
SUNPOU
 62
     1
100
AcDbTrace
 10
-1286.589735071114
 20
1640.772139789822
 30
0.0
 11
-1285.589735071114
 21
1640.772139789822
 31
0.0
 12
-1286.089735071114
 22
1637.772139789822
 32
0.0
 13
-1286.089735071114
 23
1637.772139789822
 33
0.0
  0
SOLID
  5
111A3
330
1119C
100
AcDbEntity
  8
SUNPOU
 62
     1
100
AcDbTrace
 10
-1286.589735071114
 20
1630.272149789822
 30
0.0
 11
-1285.589735071114
 21
1630.272149789822
 31
0.0
 12
-1286.089735071114
 22
1633.272149789822
 32
0.0
 13
-1286.089735071114
 23
1633.272149789822
 33
0.0
  0
MTEXT
  5
111A4
330
1119C
100
AcDbEntity
  8
SUNPOU
 62
     1
100
AcDbMText
 10
-1288.839735071115
 20
1623.065296997943
 30
0.0
 40
3.5
 41
0.0
 71
     5
 72
     1
  1
\A1;4.5
  7
ゴシック体
 11
0.0000000000000001
 21
1.0
 31
0.0
1001
ACAD
1000
MTEXTBEGIN
1070
    73
1070
     1
1070
    44
1040
1.0
1070
    74
1070
     0
1000
MTEXTEND
  0
POINT
  5
111A5
330
1119C
100
AcDbEntity
  8
DEFPOINTS
 62
     0
100
AcDbPoint
 10
-1295.592014829248
 20
1637.772139789822
 30
0.0
  0
POINT
  5
111A6
330
1119C
100
AcDbEntity
  8
DEFPOINTS
 62
     0
100
AcDbPoint
 10
-1295.592014829248
 20
1633.272149789822
 30
0.0
  0
POINT
  5
111A7
330
1119C
100
AcDbEntity
  8
DEFPOINTS
 62
     0
100
AcDbPoint
 10
-1286.089735071114
 20
1633.272149789822
 30
0.0
  0
ENDBLK
  5
111A9
330
1119C
100
AcDbEntity
  8
0
100
AcDbBlockEnd
  0
BLOCK
  5
111B5
330
111AB
100
AcDbEntity
  8
0
100
AcDbBlockBegin
  2
*D31
 70
     1
 10
0.0
 20
0.0
 30
0.0
  3
*D31
  1

  0
LINE
  5
111AC
330
111AB
100
AcDbEntity
  8
SUNPOU
 62
     1
100
AcDbLine
 10
-1295.799114829248
 20
1642.222149789822
 30
0.0
 11
-1274.054587992911
 21
1642.222149789822
 31
0.0
  0
LINE
  5
111AD
330
111AB
100
AcDbEntity
  8
SUNPOU
 62
     1
100
AcDbLine
 10
-1295.799114829248
 20
1628.822149789822
 30
0.0
 11
-1274.054587992911
 21
1628.822149789822
 31
0.0
  0
LINE
  5
111AE
330
111AB
100
AcDbEntity
  8
SUNPOU
 62
     1
100
AcDbLine
 10
-1274.55458799291
 20
1639.222149789822
 30
0.0
 11
-1274.55458799291
 21
1631.822149789822
 31
0.0
  0
SOLID
  5
111AF
330
111AB
100
AcDbEntity
  8
SUNPOU
 62
     1
100
AcDbTrace
 10
-1275.054587992911
 20
1639.222149789822
 30
0.0
 11
-1274.054587992911
 21
1639.222149789822
 31
0.0
 12
-1274.55458799291
 22
1642.222149789822
 32
0.0
 13
-1274.55458799291
 23
1642.222149789822
 33
0.0
  0
SOLID
  5
111B0
330
111AB
100
AcDbEntity
  8
SUNPOU
 62
     1
100
AcDbTrace
 10
-1275.054587992911
 20
1631.822149789822
 30
0.0
 11
-1274.054587992911
 21
1631.822149789822
 31
0.0
 12
-1274.55458799291
 22
1628.822149789822
 32
0.0
 13
-1274.55458799291
 23
1628.822149789822
 33
0.0
  0
MTEXT
  5
111B1
330
111AB
100
AcDbEntity
  8
SUNPOU
 62
     1
100
AcDbMText
 10
-1277.304587992911
 20
1635.522149789822
 30
0.0
 40
3.5
 41
0.0
 71
     5
 72
     1
  1
\A1;13.4
  7
ゴシック体
 11
0.0000000000000001
 21
1.0
 31
0.0
1001
ACAD
1000
MTEXTBEGIN
1070
    73
1070
     1
1070
    44
1040
1.0
1070
    74
1070
     0
1000
MTEXTEND
  0
POINT
  5
111B2
330
111AB
100
AcDbEntity
  8
DEFPOINTS
 62
     0
100
AcDbPoint
 10
-1296.299114829248
 20
1642.222149789822
 30
0.0
  0
POINT
  5
111B3
330
111AB
100
AcDbEntity
  8
DEFPOINTS
 62
     0
100
AcDbPoint
 10
-1296.299114829248
 20
1628.822149789822
 30
0.0
  0
POINT
  5
111B4
330
111AB
100
AcDbEntity
  8
DEFPOINTS
 62
     0
100
AcDbPoint
 10
-1274.55458799291
 20
1628.822149789822
 30
0.0
  0
ENDBLK
  5
111B6
330
111AB
100
AcDbEntity
  8
0
100
AcDbBlockEnd
  0
BLOCK
  5
111DC
330
111D2
100
AcDbEntity
  8
0
100
AcDbBlockBegin
  2
*D32
 70
     1
 10
0.0
 20
0.0
 30
0.0
  3
*D32
  1

  0
LINE
  5
11277
330
111D2
100
AcDbEntity
  8
SUNPOU
 62
     1
100
AcDbLine
 10
-1407.592004829248
 20
1548.322139789822
 30
0.0
 11
-1407.592004829248
 21
1524.550019192134
 31
0.0
  0
LINE
  5
11278
330
111D2
100
AcDbEntity
  8
SUNPOU
 62
     1
100
AcDbLine
 10
-1303.592
 20
1548.322153596066
 30
0.0
 11
-1303.592
 21
1524.550019192134
 31
0.0
  0
LINE
  5
11279
330
111D2
100
AcDbEntity
  8
SUNPOU
 62
     1
100
AcDbLine
 10
-1404.592004829248
 20
1525.050019192134
 30
0.0
 11
-1306.591999999999
 21
1525.050019192134
 31
0.0
  0
SOLID
  5
1127A
330
111D2
100
AcDbEntity
  8
SUNPOU
 62
     1
100
AcDbTrace
 10
-1404.592004829248
 20
1525.550019192134
 30
0.0
 11
-1404.592004829248
 21
1524.550019192134
 31
0.0
 12
-1407.592004829248
 22
1525.050019192134
 32
0.0
 13
-1407.592004829248
 23
1525.050019192134
 33
0.0
  0
SOLID
  5
1127B
330
111D2
100
AcDbEntity
  8
SUNPOU
 62
     1
100
AcDbTrace
 10
-1306.591999999999
 20
1525.550019192134
 30
0.0
 11
-1306.591999999999
 21
1524.550019192134
 31
0.0
 12
-1303.592
 22
1525.050019192134
 32
0.0
 13
-1303.592
 23
1525.050019192134
 33
0.0
  0
MTEXT
  5
1127C
330
111D2
100
AcDbEntity
  8
SUNPOU
 62
     1
100
AcDbMText
 10
-1355.592002414623
 20
1527.800019192134
 30
0.0
 40
3.5
 41
0.0
 71
     5
 72
     1
  1
\A1;104
  7
ゴシック体
1001
ACAD
1000
MTEXTBEGIN
1070
    73
1070
     1
1070
    44
1040
1.0
1070
    74
1070
     0
1000
MTEXTEND
  0
POINT
  5
1127D
330
111D2
100
AcDbEntity
  8
DEFPOINTS
 62
     0
100
AcDbPoint
 10
-1407.592004829248
 20
1548.822139789822
 30
0.0
  0
POINT
  5
1127E
330
111D2
100
AcDbEntity
  8
DEFPOINTS
 62
     0
100
AcDbPoint
 10
-1303.592
 20
1548.822153596066
 30
0.0
  0
POINT
  5
1127F
330
111D2
100
AcDbEntity
  8
DEFPOINTS
 62
     0
100
AcDbPoint
 10
-1303.592
 20
1525.050019192134
 30
0.0
  0
ENDBLK
  5
111DD
330
111D2
100
AcDbEntity
  8
0
100
AcDbBlockEnd
  0
BLOCK
  5
1128D
330
11281
100
AcDbEntity
  8
0
100
AcDbBlockBegin
  2
*D33
 70
     1
 10
0.0
 20
0.0
 30
0.0
  3
*D33
  1

  0
LINE
  5
11282
330
11281
100
AcDbEntity
  8
SUNPOU
 62
     1
100
AcDbLine
 10
-1295.592014829248
 20
1629.029249789822
 30
0.0
 11
-1295.592014829248
 21
1524.550019192134
 31
0.0
  0
LINE
  5
11283
330
11281
100
AcDbEntity
  8
SUNPOU
 62
     1
100
AcDbLine
 10
-1303.592
 20
1547.822153596066
 30
0.0
 11
-1303.592
 21
1524.550019192134
 31
0.0
  0
LINE
  5
11284
330
11281
100
AcDbEntity
  8
SUNPOU
 62
     1
100
AcDbLine
 10
-1292.592014829248
 20
1525.050019192134
 30
0.0
 11
-1289.592014829248
 21
1525.050019192134
 31
0.0
  0
LINE
  5
11285
330
11281
100
AcDbEntity
  8
SUNPOU
 62
     1
100
AcDbLine
 10
-1306.591999999999
 20
1525.050019192134
 30
0.0
 11
-1309.592
 21
1525.050019192134
 31
0.0
  0
LINE
  5
11286
330
11281
100
AcDbEntity
  8
SUNPOU
 62
     1
100
AcDbLine
 10
-1295.592014829248
 20
1525.050019192134
 30
0.0
 11
-1303.592
 21
1525.050019192134
 31
0.0
  0
SOLID
  5
11287
330
11281
100
AcDbEntity
  8
SUNPOU
 62
     1
100
AcDbTrace
 10
-1292.592014829248
 20
1525.550019192134
 30
0.0
 11
-1292.592014829248
 21
1524.550019192134
 31
0.0
 12
-1295.592014829248
 22
1525.050019192134
 32
0.0
 13
-1295.592014829248
 23
1525.050019192134
 33
0.0
  0
SOLID
  5
11288
330
11281
100
AcDbEntity
  8
SUNPOU
 62
     1
100
AcDbTrace
 10
-1306.591999999999
 20
1525.550019192134
 30
0.0
 11
-1306.591999999999
 21
1524.550019192134
 31
0.0
 12
-1303.592
 22
1525.050019192134
 32
0.0
 13
-1303.592
 23
1525.050019192134
 33
0.0
  0
MTEXT
  5
11289
330
11281
100
AcDbEntity
  8
SUNPOU
 62
     1
100
AcDbMText
 10
-1299.592007414624
 20
1527.800019192134
 30
0.0
 40
3.5
 41
0.0
 71
     5
 72
     1
  1
\A1;8
  7
ゴシック体
1001
ACAD
1000
MTEXTBEGIN
1070
    73
1070
     1
1070
    44
1040
1.0
1070
    74
1070
     0
1000
MTEXTEND
  0
POINT
  5
1128A
330
11281
100
AcDbEntity
  8
DEFPOINTS
 62
     0
100
AcDbPoint
 10
-1295.592014829248
 20
1629.529249789822
 30
0.0
  0
POINT
  5
1128B
330
11281
100
AcDbEntity
  8
DEFPOINTS
 62
     0
100
AcDbPoint
 10
-1303.592
 20
1548.322153596066
 30
0.0
  0
POINT
  5
1128C
330
11281
100
AcDbEntity
  8
DEFPOINTS
 62
     0
100
AcDbPoint
 10
-1303.592
 20
1525.050019192134
 30
0.0
  0
ENDBLK
  5
1128E
330
11281
100
AcDbEntity
  8
0
100
AcDbBlockEnd
  0
BLOCK
  5
112A7
330
1129D
100
AcDbEntity
  8
0
100
AcDbBlockBegin
  2
*D34
 70
     1
 10
0.0
 20
0.0
 30
0.0
  3
*D34
  1

  0
LINE
  5
1129E
330
1129D
100
AcDbEntity
  8
SUNPOU
 62
     1
100
AcDbLine
 10
-1415.592014829248
 20
1549.029249789822
 30
0.0
 11
-1415.592014829248
 21
1524.550019192134
 31
0.0
  0
LINE
  5
1129F
330
1129D
100
AcDbEntity
  8
SUNPOU
 62
     1
100
AcDbLine
 10
-1407.592004829248
 20
1548.322139789822
 30
0.0
 11
-1407.592004829248
 21
1524.550019192134
 31
0.0
  0
LINE
  5
112A0
330
1129D
100
AcDbEntity
  8
SUNPOU
 62
     1
100
AcDbLine
 10
-1412.592014829248
 20
1525.050019192134
 30
0.0
 11
-1410.592004829248
 21
1525.050019192134
 31
0.0
  0
SOLID
  5
112A1
330
1129D
100
AcDbEntity
  8
SUNPOU
 62
     1
100
AcDbTrace
 10
-1412.592014829248
 20
1525.550019192134
 30
0.0
 11
-1412.592014829248
 21
1524.550019192134
 31
0.0
 12
-1415.592014829248
 22
1525.050019192134
 32
0.0
 13
-1415.592014829248
 23
1525.050019192134
 33
0.0
  0
SOLID
  5
112A2
330
1129D
100
AcDbEntity
  8
SUNPOU
 62
     1
100
AcDbTrace
 10
-1410.592004829248
 20
1525.550019192134
 30
0.0
 11
-1410.592004829248
 21
1524.550019192134
 31
0.0
 12
-1407.592004829248
 22
1525.050019192134
 32
0.0
 13
-1407.592004829248
 23
1525.050019192134
 33
0.0
  0
MTEXT
  5
112A3
330
1129D
100
AcDbEntity
  8
SUNPOU
 62
     1
100
AcDbMText
 10
-1411.592009829248
 20
1527.800019192134
 30
0.0
 40
3.5
 41
0.0
 71
     5
 72
     1
  1
\A1;8
  7
ゴシック体
1001
ACAD
1000
MTEXTBEGIN
1070
    73
1070
     1
1070
    44
1040
1.0
1070
    74
1070
     0
1000
MTEXTEND
  0
POINT
  5
112A4
330
1129D
100
AcDbEntity
  8
DEFPOINTS
 62
     0
100
AcDbPoint
 10
-1415.592014829248
 20
1549.529249789822
 30
0.0
  0
POINT
  5
112A5
330
1129D
100
AcDbEntity
  8
DEFPOINTS
 62
     0
100
AcDbPoint
 10
-1407.592004829248
 20
1548.822139789822
 30
0.0
  0
POINT
  5
112A6
330
1129D
100
AcDbEntity
  8
DEFPOINTS
 62
     0
100
AcDbPoint
 10
-1407.592004829248
 20
1525.050019192134
 30
0.0
  0
ENDBLK
  5
112A8
330
1129D
100
AcDbEntity
  8
0
100
AcDbBlockEnd
  0
BLOCK
  5
112B7
330
112AB
100
AcDbEntity
  8
0
100
AcDbBlockBegin
  2
*D35
 70
     1
 10
0.0
 20
0.0
 30
0.0
  3
*D35
  1

  0
LINE
  5
112AC
330
112AB
100
AcDbEntity
  8
SUNPOU
 62
     1
100
AcDbLine
 10
-1295.092014829248
 20
1456.074791169749
 30
0.0
 11
-1287.622854949252
 21
1456.074791169749
 31
0.0
  0
LINE
  5
112AD
330
112AB
100
AcDbEntity
  8
SUNPOU
 62
     1
100
AcDbLine
 10
-1295.092014829248
 20
1455.073488789822
 30
0.0
 11
-1287.622854949252
 21
1455.073488789822
 31
0.0
  0
LINE
  5
112AE
330
112AB
100
AcDbEntity
  8
SUNPOU
 62
     1
100
AcDbLine
 10
-1288.122854949252
 20
1459.074791169749
 30
0.0
 11
-1288.122854949252
 21
1462.074791169749
 31
0.0
  0
LINE
  5
112AF
330
112AB
100
AcDbEntity
  8
SUNPOU
 62
     1
100
AcDbLine
 10
-1288.122854949252
 20
1452.073488789822
 30
0.0
 11
-1288.122854949252
 21
1446.13186442434
 31
0.0
  0
LINE
  5
112B0
330
112AB
100
AcDbEntity
  8
SUNPOU
 62
     1
100
AcDbLine
 10
-1288.122854949252
 20
1456.074791169749
 30
0.0
 11
-1288.122854949252
 21
1455.073488789822
 31
0.0
  0
SOLID
  5
112B1
330
112AB
100
AcDbEntity
  8
SUNPOU
 62
     1
100
AcDbTrace
 10
-1288.622854949252
 20
1459.074791169749
 30
0.0
 11
-1287.622854949252
 21
1459.074791169749
 31
0.0
 12
-1288.122854949252
 22
1456.074791169749
 32
0.0
 13
-1288.122854949252
 23
1456.074791169749
 33
0.0
  0
SOLID
  5
112B2
330
112AB
100
AcDbEntity
  8
SUNPOU
 62
     1
100
AcDbTrace
 10
-1288.622854949252
 20
1452.073488789822
 30
0.0
 11
-1287.622854949252
 21
1452.073488789822
 31
0.0
 12
-1288.122854949252
 22
1455.073488789822
 32
0.0
 13
-1288.122854949252
 23
1455.073488789822
 33
0.0
  0
MTEXT
  5
112B3
330
112AB
100
AcDbEntity
  8
SUNPOU
 62
     1
100
AcDbMText
 10
-1290.872854949252
 20
1447.602676607081
 30
0.0
 40
3.5
 41
0.0
 71
     5
 72
     1
  1
\A1;1
  7
ゴシック体
 11
0.0000000000000001
 21
1.0
 31
0.0
1001
ACAD
1000
MTEXTBEGIN
1070
    73
1070
     1
1070
    44
1040
1.0
1070
    74
1070
     0
1000
MTEXTEND
  0
POINT
  5
112B4
330
112AB
100
AcDbEntity
  8
DEFPOINTS
 62
     0
100
AcDbPoint
 10
-1295.592014829248
 20
1456.074791169749
 30
0.0
  0
POINT
  5
112B5
330
112AB
100
AcDbEntity
  8
DEFPOINTS
 62
     0
100
AcDbPoint
 10
-1295.592014829248
 20
1455.073488789822
 30
0.0
  0
POINT
  5
112B6
330
112AB
100
AcDbEntity
  8
DEFPOINTS
 62
     0
100
AcDbPoint
 10
-1288.122854949252
 20
1455.073488789822
 30
0.0
  0
ENDBLK
  5
112B8
330
112AB
100
AcDbEntity
  8
0
100
AcDbBlockEnd
  0
BLOCK
  5
112C4
330
112BA
100
AcDbEntity
  8
0
100
AcDbBlockBegin
  2
*D36
 70
     1
 10
0.0
 20
0.0
 30
0.0
  3
*D36
  1

  0
LINE
  5
112BB
330
112BA
100
AcDbEntity
  8
SUNPOU
 62
     1
100
AcDbLine
 10
-1295.799114829248
 20
1642.222149789822
 30
0.0
 11
-1261.215852930805
 21
1642.222149789822
 31
0.0
  0
LINE
  5
112BC
330
112BA
100
AcDbEntity
  8
SUNPOU
 62
     1
100
AcDbLine
 10
-1303.091999999999
 20
1548.822153596066
 30
0.0
 11
-1261.215852930805
 21
1548.822153596066
 31
0.0
  0
LINE
  5
112BD
330
112BA
100
AcDbEntity
  8
SUNPOU
 62
     1
100
AcDbLine
 10
-1261.715852930805
 20
1639.222149789822
 30
0.0
 11
-1261.715852930805
 21
1551.822153596066
 31
0.0
  0
SOLID
  5
112BE
330
112BA
100
AcDbEntity
  8
SUNPOU
 62
     1
100
AcDbTrace
 10
-1262.215852930804
 20
1639.222149789822
 30
0.0
 11
-1261.215852930805
 21
1639.222149789822
 31
0.0
 12
-1261.715852930805
 22
1642.222149789822
 32
0.0
 13
-1261.715852930805
 23
1642.222149789822
 33
0.0
  0
SOLID
  5
112BF
330
112BA
100
AcDbEntity
  8
SUNPOU
 62
     1
100
AcDbTrace
 10
-1262.215852930804
 20
1551.822153596066
 30
0.0
 11
-1261.215852930805
 21
1551.822153596066
 31
0.0
 12
-1261.715852930805
 22
1548.822153596066
 32
0.0
 13
-1261.715852930805
 23
1548.822153596066
 33
0.0
  0
MTEXT
  5
112C0
330
112BA
100
AcDbEntity
  8
SUNPOU
 62
     1
100
AcDbMText
 10
-1264.465852930805
 20
1595.522151692944
 30
0.0
 40
3.5
 41
0.0
 71
     5
 72
     1
  1
\A1;93.4
  7
ゴシック体
 11
0.0000000000000001
 21
1.0
 31
0.0
1001
ACAD
1000
MTEXTBEGIN
1070
    73
1070
     1
1070
    44
1040
1.0
1070
    74
1070
     0
1000
MTEXTEND
  0
POINT
  5
112C1
330
112BA
100
AcDbEntity
  8
DEFPOINTS
 62
     0
100
AcDbPoint
 10
-1296.299114829248
 20
1642.222149789822
 30
0.0
  0
POINT
  5
112C2
330
112BA
100
AcDbEntity
  8
DEFPOINTS
 62
     0
100
AcDbPoint
 10
-1303.592
 20
1548.822153596066
 30
0.0
  0
POINT
  5
112C3
330
112BA
100
AcDbEntity
  8
DEFPOINTS
 62
     0
100
AcDbPoint
 10
-1261.715852930805
 20
1548.822153596066
 30
0.0
  0
ENDBLK
  5
112C5
330
112BA
100
AcDbEntity
  8
0
100
AcDbBlockEnd
  0
BLOCK
  5
112D1
330
112C7
100
AcDbEntity
  8
0
100
AcDbBlockBegin
  2
*D37
 70
     1
 10
0.0
 20
0.0
 30
0.0
  3
*D37
  1

  0
LINE
  5
113D4
330
112C7
100
AcDbEntity
  8
SUNPOU
 62
     1
100
AcDbLine
 10
-1303.092014829248
 20
1501.373493789822
 30
0.0
 11
-1285.589735071114
 21
1501.373493789822
 31
0.0
  0
LINE
  5
113D5
330
112C7
100
AcDbEntity
  8
SUNPOU
 62
     1
100
AcDbLine
 10
-1295.092014829248
 20
1455.073488789822
 30
0.0
 11
-1285.589735071114
 21
1455.073488789822
 31
0.0
  0
LINE
  5
113D6
330
112C7
100
AcDbEntity
  8
SUNPOU
 62
     1
100
AcDbLine
 10
-1286.089735071114
 20
1498.373493789822
 30
0.0
 11
-1286.089735071114
 21
1458.073488789822
 31
0.0
  0
SOLID
  5
113D7
330
112C7
100
AcDbEntity
  8
SUNPOU
 62
     1
100
AcDbTrace
 10
-1286.589735071114
 20
1498.373493789822
 30
0.0
 11
-1285.589735071114
 21
1498.373493789822
 31
0.0
 12
-1286.089735071114
 22
1501.373493789822
 32
0.0
 13
-1286.089735071114
 23
1501.373493789822
 33
0.0
  0
SOLID
  5
113D8
330
112C7
100
AcDbEntity
  8
SUNPOU
 62
     1
100
AcDbTrace
 10
-1286.589735071114
 20
1458.073488789822
 30
0.0
 11
-1285.589735071114
 21
1458.073488789822
 31
0.0
 12
-1286.089735071114
 22
1455.073488789822
 32
0.0
 13
-1286.089735071114
 23
1455.073488789822
 33
0.0
  0
MTEXT
  5
113D9
330
112C7
100
AcDbEntity
  8
SUNPOU
 62
     1
100
AcDbMText
 10
-1288.839735071115
 20
1478.223491289822
 30
0.0
 40
3.5
 41
0.0
 71
     5
 72
     1
  1
\A1;46.3
  7
ゴシック体
 11
0.0000000000000001
 21
1.0
 31
0.0
1001
ACAD
1000
MTEXTBEGIN
1070
    73
1070
     1
1070
    44
1040
1.0
1070
    74
1070
     0
1000
MTEXTEND
  0
POINT
  5
113DA
330
112C7
100
AcDbEntity
  8
DEFPOINTS
 62
     0
100
AcDbPoint
 10
-1303.592014829248
 20
1501.373493789822
 30
0.0
  0
POINT
  5
113DB
330
112C7
100
AcDbEntity
  8
DEFPOINTS
 62
     0
100
AcDbPoint
 10
-1295.592014829248
 20
1455.073488789822
 30
0.0
  0
POINT
  5
113DC
330
112C7
100
AcDbEntity
  8
DEFPOINTS
 62
     0
100
AcDbPoint
 10
-1286.089735071114
 20
1455.073488789822
 30
0.0
  0
ENDBLK
  5
112D2
330
112C7
100
AcDbEntity
  8
0
100
AcDbBlockEnd
  0
BLOCK
  5
112E0
330
112D4
100
AcDbEntity
  8
0
100
AcDbBlockBegin
  2
*D38
 70
     1
 10
0.0
 20
0.0
 30
0.0
  3
*D38
  1

  0
LINE
  5
1141A
330
112D4
100
AcDbEntity
  8
SUNPOU
 62
     1
100
AcDbLine
 10
-1314.592004829248
 20
1502.373493789822
 30
0.0
 11
-1285.589735071114
 21
1502.373493789822
 31
0.0
  0
LINE
  5
1141B
330
112D4
100
AcDbEntity
  8
SUNPOU
 62
     1
100
AcDbLine
 10
-1302.592014829248
 20
1501.373493789822
 30
0.0
 11
-1285.589735071114
 21
1501.373493789822
 31
0.0
  0
LINE
  5
1141C
330
112D4
100
AcDbEntity
  8
SUNPOU
 62
     1
100
AcDbLine
 10
-1286.089735071114
 20
1498.373493789822
 30
0.0
 11
-1286.089735071114
 21
1495.373493789822
 31
0.0
  0
LINE
  5
1141D
330
112D4
100
AcDbEntity
  8
SUNPOU
 62
     1
100
AcDbLine
 10
-1286.089735071114
 20
1505.373493789822
 30
0.0
 11
-1286.089735071114
 21
1511.315118155303
 31
0.0
  0
LINE
  5
1141E
330
112D4
100
AcDbEntity
  8
SUNPOU
 62
     1
100
AcDbLine
 10
-1286.089735071114
 20
1501.373493789822
 30
0.0
 11
-1286.089735071114
 21
1502.373493789822
 31
0.0
  0
SOLID
  5
1141F
330
112D4
100
AcDbEntity
  8
SUNPOU
 62
     1
100
AcDbTrace
 10
-1286.589735071114
 20
1498.373493789822
 30
0.0
 11
-1285.589735071114
 21
1498.373493789822
 31
0.0
 12
-1286.089735071114
 22
1501.373493789822
 32
0.0
 13
-1286.089735071114
 23
1501.373493789822
 33
0.0
  0
SOLID
  5
11420
330
112D4
100
AcDbEntity
  8
SUNPOU
 62
     1
100
AcDbTrace
 10
-1286.589735071114
 20
1505.373493789822
 30
0.0
 11
-1285.589735071114
 21
1505.373493789822
 31
0.0
 12
-1286.089735071114
 22
1502.373493789822
 32
0.0
 13
-1286.089735071114
 23
1502.373493789822
 33
0.0
  0
MTEXT
  5
11421
330
112D4
100
AcDbEntity
  8
SUNPOU
 62
     1
100
AcDbMText
 10
-1288.839735071115
 20
1509.844305972563
 30
0.0
 40
3.5
 41
0.0
 71
     5
 72
     1
  1
\A1;1
  7
ゴシック体
 11
0.0000000000000001
 21
1.0
 31
0.0
1001
ACAD
1000
MTEXTBEGIN
1070
    73
1070
     1
1070
    44
1040
1.0
1070
    74
1070
     0
1000
MTEXTEND
  0
POINT
  5
11422
330
112D4
100
AcDbEntity
  8
DEFPOINTS
 62
     0
100
AcDbPoint
 10
-1315.092004829248
 20
1502.373493789822
 30
0.0
  0
POINT
  5
11423
330
112D4
100
AcDbEntity
  8
DEFPOINTS
 62
     0
100
AcDbPoint
 10
-1303.092014829248
 20
1501.373493789822
 30
0.0
  0
POINT
  5
11424
330
112D4
100
AcDbEntity
  8
DEFPOINTS
 62
     0
100
AcDbPoint
 10
-1286.089735071114
 20
1501.373493789822
 30
0.0
  0
ENDBLK
  5
112E1
330
112D4
100
AcDbEntity
  8
0
100
AcDbBlockEnd
  0
BLOCK
  5
112ED
330
112E3
100
AcDbEntity
  8
0
100
AcDbBlockBegin
  2
*D39
 70
     1
 10
0.0
 20
0.0
 30
0.0
  3
*D39
  1

  0
LINE
  5
11331
330
112E3
100
AcDbEntity
  8
SUNPOU
 62
     1
100
AcDbLine
 10
-1343.092014829248
 20
1446.549170789822
 30
0.0
 11
-1343.092014829248
 21
1437.057042328405
 31
0.0
  0
LINE
  5
11332
330
112E3
100
AcDbEntity
  8
SUNPOU
 62
     1
100
AcDbLine
 10
-1303.592014829248
 20
1454.573488789822
 30
0.0
 11
-1303.592014829248
 21
1437.057042328405
 31
0.0
  0
LINE
  5
11333
330
112E3
100
AcDbEntity
  8
SUNPOU
 62
     1
100
AcDbLine
 10
-1340.092014829248
 20
1437.557042328405
 30
0.0
 11
-1306.592014829248
 21
1437.557042328405
 31
0.0
  0
SOLID
  5
11334
330
112E3
100
AcDbEntity
  8
SUNPOU
 62
     1
100
AcDbTrace
 10
-1340.092014829248
 20
1438.057042328405
 30
0.0
 11
-1340.092014829248
 21
1437.057042328405
 31
0.0
 12
-1343.092014829248
 22
1437.557042328405
 32
0.0
 13
-1343.092014829248
 23
1437.557042328405
 33
0.0
  0
SOLID
  5
11335
330
112E3
100
AcDbEntity
  8
SUNPOU
 62
     1
100
AcDbTrace
 10
-1306.592014829248
 20
1438.057042328405
 30
0.0
 11
-1306.592014829248
 21
1437.057042328405
 31
0.0
 12
-1303.592014829248
 22
1437.557042328405
 32
0.0
 13
-1303.592014829248
 23
1437.557042328405
 33
0.0
  0
MTEXT
  5
11336
330
112E3
100
AcDbEntity
  8
SUNPOU
 62
     1
100
AcDbMText
 10
-1323.342014829248
 20
1440.600189536525
 30
0.0
 40
3.5
 41
0.0
 71
     5
 72
     1
  1
\A1;(39.5)
  7
ゴシック体
1001
ACAD
1000
MTEXTBEGIN
1070
    73
1070
     1
1070
    44
1040
1.0
1070
    74
1070
     0
1000
MTEXTEND
  0
POINT
  5
11337
330
112E3
100
AcDbEntity
  8
DEFPOINTS
 62
     0
100
AcDbPoint
 10
-1343.092014829248
 20
1447.049170789822
 30
0.0
  0
POINT
  5
11338
330
112E3
100
AcDbEntity
  8
DEFPOINTS
 62
     0
100
AcDbPoint
 10
-1303.592014829248
 20
1455.073488789822
 30
0.0
  0
POINT
  5
11339
330
112E3
100
AcDbEntity
  8
DEFPOINTS
 62
     0
100
AcDbPoint
 10
-1303.592014829248
 20
1437.557042328405
 30
0.0
  0
ENDBLK
  5
112EE
330
112E3
100
AcDbEntity
  8
0
100
AcDbBlockEnd
  0
BLOCK
  5
112FA
330
112F0
100
AcDbEntity
  8
0
100
AcDbBlockBegin
  2
*D40
 70
     1
 10
0.0
 20
0.0
 30
0.0
  3
*D40
  1

  0
LINE
  5
112F1
330
112F0
100
AcDbEntity
  8
SUNPOU
 62
     1
100
AcDbLine
 10
-1368.092004829247
 20
1446.549170789822
 30
0.0
 11
-1368.092004829247
 21
1437.057042328405
 31
0.0
  0
LINE
  5
112F2
330
112F0
100
AcDbEntity
  8
SUNPOU
 62
     1
100
AcDbLine
 10
-1343.092014829248
 20
1446.049170789822
 30
0.0
 11
-1343.092014829248
 21
1437.057042328405
 31
0.0
  0
LINE
  5
112F3
330
112F0
100
AcDbEntity
  8
SUNPOU
 62
     1
100
AcDbLine
 10
-1365.092004829248
 20
1437.557042328405
 30
0.0
 11
-1346.092014829248
 21
1437.557042328405
 31
0.0
  0
SOLID
  5
112F4
330
112F0
100
AcDbEntity
  8
SUNPOU
 62
     1
100
AcDbTrace
 10
-1365.092004829248
 20
1438.057042328405
 30
0.0
 11
-1365.092004829248
 21
1437.057042328405
 31
0.0
 12
-1368.092004829247
 22
1437.557042328405
 32
0.0
 13
-1368.092004829247
 23
1437.557042328405
 33
0.0
  0
SOLID
  5
112F5
330
112F0
100
AcDbEntity
  8
SUNPOU
 62
     1
100
AcDbTrace
 10
-1346.092014829248
 20
1438.057042328405
 30
0.0
 11
-1346.092014829248
 21
1437.057042328405
 31
0.0
 12
-1343.092014829248
 22
1437.557042328405
 32
0.0
 13
-1343.092014829248
 23
1437.557042328405
 33
0.0
  0
MTEXT
  5
112F6
330
112F0
100
AcDbEntity
  8
SUNPOU
 62
     1
100
AcDbMText
 10
-1355.592009829248
 20
1440.307042328405
 30
0.0
 40
3.5
 41
0.0
 71
     5
 72
     1
  1
\A1;25
  7
ゴシック体
1001
ACAD
1000
MTEXTBEGIN
1070
    73
1070
     1
1070
    44
1040
1.0
1070
    74
1070
     0
1000
MTEXTEND
  0
POINT
  5
112F7
330
112F0
100
AcDbEntity
  8
DEFPOINTS
 62
     0
100
AcDbPoint
 10
-1368.092004829247
 20
1447.049170789822
 30
0.0
  0
POINT
  5
112F8
330
112F0
100
AcDbEntity
  8
DEFPOINTS
 62
     0
100
AcDbPoint
 10
-1343.092014829248
 20
1446.549170789822
 30
0.0
  0
POINT
  5
112F9
330
112F0
100
AcDbEntity
  8
DEFPOINTS
 62
     0
100
AcDbPoint
 10
-1343.092014829248
 20
1437.557042328405
 30
0.0
  0
ENDBLK
  5
112FB
330
112F0
100
AcDbEntity
  8
0
100
AcDbBlockEnd
  0
BLOCK
  5
11307
330
112FD
100
AcDbEntity
  8
0
100
AcDbBlockBegin
  2
*D41
 70
     1
 10
0.0
 20
0.0
 30
0.0
  3
*D41
  1

  0
LINE
  5
11328
330
112FD
100
AcDbEntity
  8
SUNPOU
 62
     1
100
AcDbLine
 10
-1407.592004829248
 20
1455.5735
 30
0.0
 11
-1407.592004829248
 21
1437.057042328405
 31
0.0
  0
LINE
  5
11329
330
112FD
100
AcDbEntity
  8
SUNPOU
 62
     1
100
AcDbLine
 10
-1368.092004829247
 20
1446.049170789822
 30
0.0
 11
-1368.092004829247
 21
1437.057042328405
 31
0.0
  0
LINE
  5
1132A
330
112FD
100
AcDbEntity
  8
SUNPOU
 62
     1
100
AcDbLine
 10
-1404.592004829248
 20
1437.557042328405
 30
0.0
 11
-1371.092004829248
 21
1437.557042328405
 31
0.0
  0
SOLID
  5
1132B
330
112FD
100
AcDbEntity
  8
SUNPOU
 62
     1
100
AcDbTrace
 10
-1404.592004829248
 20
1438.057042328405
 30
0.0
 11
-1404.592004829248
 21
1437.057042328405
 31
0.0
 12
-1407.592004829248
 22
1437.557042328405
 32
0.0
 13
-1407.592004829248
 23
1437.557042328405
 33
0.0
  0
SOLID
  5
1132C
330
112FD
100
AcDbEntity
  8
SUNPOU
 62
     1
100
AcDbTrace
 10
-1371.092004829248
 20
1438.057042328405
 30
0.0
 11
-1371.092004829248
 21
1437.057042328405
 31
0.0
 12
-1368.092004829247
 22
1437.557042328405
 32
0.0
 13
-1368.092004829247
 23
1437.557042328405
 33
0.0
  0
MTEXT
  5
1132D
330
112FD
100
AcDbEntity
  8
SUNPOU
 62
     1
100
AcDbMText
 10
-1387.842004829248
 20
1440.600189536525
 30
0.0
 40
3.5
 41
0.0
 71
     5
 72
     1
  1
\A1;(39.5)
  7
ゴシック体
1001
ACAD
1000
MTEXTBEGIN
1070
    73
1070
     1
1070
    44
1040
1.0
1070
    74
1070
     0
1000
MTEXTEND
  0
POINT
  5
1132E
330
112FD
100
AcDbEntity
  8
DEFPOINTS
 62
     0
100
AcDbPoint
 10
-1407.592004829248
 20
1456.0735
 30
0.0
  0
POINT
  5
1132F
330
112FD
100
AcDbEntity
  8
DEFPOINTS
 62
     0
100
AcDbPoint
 10
-1368.092004829247
 20
1446.549170789822
 30
0.0
  0
POINT
  5
11330
330
112FD
100
AcDbEntity
  8
DEFPOINTS
 62
     0
100
AcDbPoint
 10
-1368.092004829247
 20
1437.557042328405
 30
0.0
  0
ENDBLK
  5
11308
330
112FD
100
AcDbEntity
  8
0
100
AcDbBlockEnd
  0
BLOCK
  5
1131D
330
11313
100
AcDbEntity
  8
0
100
AcDbBlockBegin
  2
*D42
 70
     1
 10
0.0
 20
0.0
 30
0.0
  3
*D42
  1

  0
LINE
  5
1131F
330
11313
100
AcDbEntity
  8
SUNPOU
 62
     1
100
AcDbLine
 10
-1423.592014829248
 20
1469.173489789822
 30
0.0
 11
-1423.592014829248
 21
1437.057042328405
 31
0.0
  0
LINE
  5
11320
330
11313
100
AcDbEntity
  8
SUNPOU
 62
     1
100
AcDbLine
 10
-1407.592004829248
 20
1454.573488789822
 30
0.0
 11
-1407.592004829248
 21
1437.057042328405
 31
0.0
  0
LINE
  5
11321
330
11313
100
AcDbEntity
  8
SUNPOU
 62
     1
100
AcDbLine
 10
-1420.592014829248
 20
1437.557042328405
 30
0.0
 11
-1410.592004829248
 21
1437.557042328405
 31
0.0
  0
SOLID
  5
11322
330
11313
100
AcDbEntity
  8
SUNPOU
 62
     1
100
AcDbTrace
 10
-1420.592014829248
 20
1438.057042328405
 30
0.0
 11
-1420.592014829248
 21
1437.057042328405
 31
0.0
 12
-1423.592014829248
 22
1437.557042328405
 32
0.0
 13
-1423.592014829248
 23
1437.557042328405
 33
0.0
  0
SOLID
  5
11323
330
11313
100
AcDbEntity
  8
SUNPOU
 62
     1
100
AcDbTrace
 10
-1410.592004829248
 20
1438.057042328405
 30
0.0
 11
-1410.592004829248
 21
1437.057042328405
 31
0.0
 12
-1407.592004829248
 22
1437.557042328405
 32
0.0
 13
-1407.592004829248
 23
1437.557042328405
 33
0.0
  0
MTEXT
  5
11324
330
11313
100
AcDbEntity
  8
SUNPOU
 62
     1
100
AcDbMText
 10
-1415.592009829248
 20
1440.600189536525
 30
0.0
 40
3.5
 41
0.0
 71
     5
 72
     1
  1
\A1;(16)
  7
ゴシック体
1001
ACAD
1000
MTEXTBEGIN
1070
    73
1070
     1
1070
    44
1040
1.0
1070
    74
1070
     0
1000
MTEXTEND
  0
POINT
  5
11325
330
11313
100
AcDbEntity
  8
DEFPOINTS
 62
     0
100
AcDbPoint
 10
-1423.592014829248
 20
1469.673489789822
 30
0.0
  0
POINT
  5
11326
330
11313
100
AcDbEntity
  8
DEFPOINTS
 62
     0
100
AcDbPoint
 10
-1407.592004829248
 20
1455.073488789822
 30
0.0
  0
POINT
  5
11327
330
11313
100
AcDbEntity
  8
DEFPOINTS
 62
     0
100
AcDbPoint
 10
-1407.592004829248
 20
1437.557042328405
 30
0.0
  0
ENDBLK
  5
1131E
330
11313
100
AcDbEntity
  8
0
100
AcDbBlockEnd
  0
BLOCK
  5
11391
330
11387
100
AcDbEntity
  8
0
100
AcDbBlockBegin
  2
*D43
 70
     1
 10
0.0
 20
0.0
 30
0.0
  3
*D43
  1

  0
LINE
  5
113A6
330
11387
100
AcDbEntity
  8
SUNPOU
 62
     1
100
AcDbLine
 10
-1531.773094829248
 20
1642.222149789822
 30
0.0
 11
-1543.706717300199
 21
1642.222149789822
 31
0.0
  0
LINE
  5
113A7
330
11387
100
AcDbEntity
  8
SUNPOU
 62
     1
100
AcDbLine
 10
-1536.578693829248
 20
1630.522159789822
 30
0.0
 11
-1543.706717300199
 21
1630.522159789822
 31
0.0
  0
LINE
  5
113A8
330
11387
100
AcDbEntity
  8
SUNPOU
 62
     1
100
AcDbLine
 10
-1543.206717300199
 20
1639.222149789822
 30
0.0
 11
-1543.206717300199
 21
1633.522159789822
 31
0.0
  0
SOLID
  5
113A9
330
11387
100
AcDbEntity
  8
SUNPOU
 62
     1
100
AcDbTrace
 10
-1543.706717300199
 20
1639.222149789822
 30
0.0
 11
-1542.706717300199
 21
1639.222149789822
 31
0.0
 12
-1543.206717300199
 22
1642.222149789822
 32
0.0
 13
-1543.206717300199
 23
1642.222149789822
 33
0.0
  0
SOLID
  5
113AA
330
11387
100
AcDbEntity
  8
SUNPOU
 62
     1
100
AcDbTrace
 10
-1543.706717300199
 20
1633.522159789822
 30
0.0
 11
-1542.706717300199
 21
1633.522159789822
 31
0.0
 12
-1543.206717300199
 22
1630.522159789822
 32
0.0
 13
-1543.206717300199
 23
1630.522159789822
 33
0.0
  0
MTEXT
  5
113AB
330
11387
100
AcDbEntity
  8
SUNPOU
 62
     1
100
AcDbMText
 10
-1546.249864508321
 20
1636.372154789819
 30
0.0
 40
3.5
 41
0.0
 71
     5
 72
     1
  1
\A1;(11.7)
  7
ゴシック体
 11
0.0000000000000001
 21
1.0
 31
0.0
1001
ACAD
1000
MTEXTBEGIN
1070
    73
1070
     1
1070
    44
1040
1.0
1070
    74
1070
     0
1000
MTEXTEND
  0
POINT
  5
113AC
330
11387
100
AcDbEntity
  8
DEFPOINTS
 62
     0
100
AcDbPoint
 10
-1531.273094829248
 20
1642.222149789822
 30
0.0
  0
POINT
  5
113AD
330
11387
100
AcDbEntity
  8
DEFPOINTS
 62
     0
100
AcDbPoint
 10
-1536.078693829248
 20
1630.522159789822
 30
0.0
  0
POINT
  5
113AE
330
11387
100
AcDbEntity
  8
DEFPOINTS
 62
     0
100
AcDbPoint
 10
-1543.206717300199
 20
1630.522159789822
 30
0.0
  0
ENDBLK
  5
11392
330
11387
100
AcDbEntity
  8
0
100
AcDbBlockEnd
  0
ENDSEC
  0
SECTION
  2
ENTITIES
  0
MTEXT
  5
5084
330
1A
100
AcDbEntity
  8
0
100
AcDbMText
 10
1985.239088685434
 20
-948.5420423450428
 30
0.0
 40
8.0
 41
0.0
 71
     7
 72
     5
  1

1001
ACAD
1000
MTEXTBEGIN
1070
    73
1070
     1
1070
    44
1040
1.0
1070
    74
1070
     0
1000
MTEXTEND
  0
MTEXT
  5
5085
330
1A
100
AcDbEntity
  8
0
100
AcDbMText
 10
4270.596778580329
 20
22.24825240601647
 30
0.0
 40
8.0
 41
0.0
 71
     7
 72
     5
  1

1001
ACAD
1000
MTEXTBEGIN
1070
    73
1070
     1
1070
    44
1040
1.0
1070
    74
1070
     0
1000
MTEXTEND
  0
MTEXT
  5
5343
330
1A
100
AcDbEntity
  8
SUNPOU
100
AcDbMText
 10
6936.493799262471
 20
9534.359644781137
 30
0.0
 40
10.5
 41
0.0
 71
     1
 72
     5
  1

1001
ACAD
1000
MTEXTBEGIN
1070
    73
1070
     1
1070
    44
1040
1.0
1070
    74
1070
     0
1000
MTEXTEND
  0
MTEXT
  5
544F
330
1A
100
AcDbEntity
  8
0
100
AcDbMText
 10
16317.2832773148
 20
12833.35428897674
 30
0.0
 40
8.0
 41
0.0
 71
     7
 72
     5
  1

1001
ACAD
1000
MTEXTBEGIN
1070
    73
1070
     1
1070
    44
1040
1.0
1070
    74
1070
     0
1000
MTEXTEND
  0
MTEXT
  5
5450
330
1A
100
AcDbEntity
  8
0
100
AcDbMText
 10
18602.64096720968
 20
13804.1445837278
 30
0.0
 40
8.0
 41
0.0
 71
     7
 72
     5
  1

1001
ACAD
1000
MTEXTBEGIN
1070
    73
1070
     1
1070
    44
1040
1.0
1070
    74
1070
     0
1000
MTEXTEND
  0
MTEXT
  5
5451
330
1A
100
AcDbEntity
  8
SUNPOU
100
AcDbMText
 10
21268.53798789184
 20
23316.25597610292
 30
0.0
 40
10.5
 41
0.0
 71
     1
 72
     5
  1

1001
ACAD
1000
MTEXTBEGIN
1070
    73
1070
     1
1070
    44
1040
1.0
1070
    74
1070
     0
1000
MTEXTEND
  0
MTEXT
  5
5452
330
1A
100
AcDbEntity
  8
SUNPOU
100
AcDbMText
 10
13337.6147919559
 20
22369.46284218996
 30
0.0
 40
10.5
 41
0.0
 71
     7
 72
     5
  1

1001
ACAD
1000
MTEXTBEGIN
1070
    73
1070
     1
1070
    44
1040
1.0
1070
    74
1070
     0
1000
MTEXTEND
  0
MTEXT
  5
5453
330
1A
100
AcDbEntity
  8
SUNPOU
100
AcDbMText
 10
16286.59845646867
 20
27270.13891403279
 30
0.0
 40
10.5
 41
0.0
 71
     7
 72
     5
  1

1001
ACAD
1000
MTEXTBEGIN
1070
    73
1070
     1
1070
    44
1040
1.0
1070
    74
1070
     0
1000
MTEXTEND
  0
MTEXT
  5
5454
330
1A
100
AcDbEntity
  8
SUNPOU
100
AcDbMText
 10
20795.67658441924
 20
29706.43966165288
 30
0.0
 40
10.5
 41
0.0
 71
     7
 72
     5
  1

1001
ACAD
1000
MTEXTBEGIN
1070
    73
1070
     1
1070
    44
1040
1.0
1070
    74
1070
     0
1000
MTEXTEND
  0
MTEXT
  5
5455
330
1A
100
AcDbEntity
  8
0
100
AcDbMText
 10
16611.93789220313
 20
14707.52144344448
 30
0.0
 40
8.0
 41
0.0
 71
     7
 72
     5
  1

1001
ACAD
1000
MTEXTBEGIN
1070
    73
1070
     1
1070
    44
1040
1.0
1070
    74
1070
     0
1000
MTEXTEND
  0
MTEXT
  5
5456
330
1A
100
AcDbEntity
  8
0
100
AcDbMText
 10
18897.29558209803
 20
15678.31173819554
 30
0.0
 40
8.0
 41
0.0
 71
     7
 72
     5
  1

1001
ACAD
1000
MTEXTBEGIN
1070
    73
1070
     1
1070
    44
1040
1.0
1070
    74
1070
     0
1000
MTEXTEND
  0
MTEXT
  5
5457
330
1A
100
AcDbEntity
  8
SUNPOU
100
AcDbMText
 10
21563.19260278019
 20
25190.42313057066
 30
0.0
 40
10.5
 41
0.0
 71
     1
 72
     5
  1

1001
ACAD
1000
MTEXTBEGIN
1070
    73
1070
     1
1070
    44
1040
1.0
1070
    74
1070
     0
1000
MTEXTEND
  0
MTEXT
  5
5458
330
1A
100
AcDbEntity
  8
SUNPOU
100
AcDbMText
 10
13632.26940684425
 20
24243.6299966577
 30
0.0
 40
10.5
 41
0.0
 71
     7
 72
     5
  1

1001
ACAD
1000
MTEXTBEGIN
1070
    73
1070
     1
1070
    44
1040
1.0
1070
    74
1070
     0
1000
MTEXTEND
  0
MTEXT
  5
5459
330
1A
100
AcDbEntity
  8
SUNPOU
100
AcDbMText
 10
16581.25307135702
 20
29144.30606850055
 30
0.0
 40
10.5
 41
0.0
 71
     7
 72
     5
  1

1001
ACAD
1000
MTEXTBEGIN
1070
    73
1070
     1
1070
    44
1040
1.0
1070
    74
1070
     0
1000
MTEXTEND
  0
MTEXT
  5
545A
330
1A
100
AcDbEntity
  8
SUNPOU
100
AcDbMText
 10
21090.33119930759
 20
31580.60681612062
 30
0.0
 40
10.5
 41
0.0
 71
     7
 72
     5
  1

1001
ACAD
1000
MTEXTBEGIN
1070
    73
1070
     1
1070
    44
1040
1.0
1070
    74
1070
     0
1000
MTEXTEND
  0
MTEXT
  5
545B
330
1A
100
AcDbEntity
  8
0
100
AcDbMText
 10
22871.60517627166
 20
23974.88367124799
 30
0.0
 40
8.0
 41
0.0
 71
     7
 72
     5
  1

1001
ACAD
1000
MTEXTBEGIN
1070
    73
1070
     1
1070
    44
1040
1.0
1070
    74
1070
     0
1000
MTEXTEND
  0
MTEXT
  5
545C
330
1A
100
AcDbEntity
  8
0
100
AcDbMText
 10
25156.96286616655
 20
24945.67396599904
 30
0.0
 40
8.0
 41
0.0
 71
     7
 72
     5
  1

1001
ACAD
1000
MTEXTBEGIN
1070
    73
1070
     1
1070
    44
1040
1.0
1070
    74
1070
     0
1000
MTEXTEND
  0
MTEXT
  5
545D
330
1A
100
AcDbEntity
  8
SUNPOU
100
AcDbMText
 10
27822.85988684871
 20
34457.78535837418
 30
0.0
 40
10.5
 41
0.0
 71
     1
 72
     5
  1

1001
ACAD
1000
MTEXTBEGIN
1070
    73
1070
     1
1070
    44
1040
1.0
1070
    74
1070
     0
1000
MTEXTEND
  0
MTEXT
  5
545E
330
1A
100
AcDbEntity
  8
SUNPOU
100
AcDbMText
 10
19891.93669091278
 20
33510.99222446122
 30
0.0
 40
10.5
 41
0.0
 71
     7
 72
     5
  1

1001
ACAD
1000
MTEXTBEGIN
1070
    73
1070
     1
1070
    44
1040
1.0
1070
    74
1070
     0
1000
MTEXTEND
  0
MTEXT
  5
545F
330
1A
100
AcDbEntity
  8
SUNPOU
100
AcDbMText
 10
22840.92035542555
 20
38411.66829630406
 30
0.0
 40
10.5
 41
0.0
 71
     7
 72
     5
  1

1001
ACAD
1000
MTEXTBEGIN
1070
    73
1070
     1
1070
    44
1040
1.0
1070
    74
1070
     0
1000
MTEXTEND
  0
MTEXT
  5
5460
330
1A
100
AcDbEntity
  8
SUNPOU
100
AcDbMText
 10
27349.99848337611
 20
40847.96904392415
 30
0.0
 40
10.5
 41
0.0
 71
     7
 72
     5
  1

1001
ACAD
1000
MTEXTBEGIN
1070
    73
1070
     1
1070
    44
1040
1.0
1070
    74
1070
     0
1000
MTEXTEND
  0
MTEXT
  5
55B7
330
1A
100
AcDbEntity
  8
SUNPOU
100
AcDbMText
 10
67424.23923338197
 20
64463.86602884816
 30
0.0
 40
10.5
 41
0.0
 71
     9
 72
     5
  1

1001
ACAD
1000
MTEXTBEGIN
1070
    73
1070
     1
1070
    44
1040
1.0
1070
    74
1070
     0
1000
MTEXTEND
  0
MTEXT
  5
55B8
330
1A
100
AcDbEntity
  8
SUNPOU
100
AcDbMText
 10
76146.40679929998
 20
71879.70056038563
 30
0.0
 40
10.5
 41
0.0
 71
     9
 72
     5
  1

1001
ACAD
1000
MTEXTBEGIN
1070
    73
1070
     1
1070
    44
1040
1.0
1070
    74
1070
     0
1000
MTEXTEND
  0
MTEXT
  5
55B9
330
1A
100
AcDbEntity
  8
SUNPOU
100
AcDbMText
 10
95100.16551662994
 20
89346.27661287766
 30
0.0
 40
10.5
 41
0.0
 71
     9
 72
     5
  1

1001
ACAD
1000
MTEXTBEGIN
1070
    73
1070
     1
1070
    44
1040
1.0
1070
    74
1070
     0
1000
MTEXTEND
  0
MTEXT
  5
55BA
330
1A
100
AcDbEntity
  8
SUNPOU
100
AcDbMText
 10
97043.57276333935
 20
87545.22753299966
 30
0.0
 40
3.5
 41
0.0
 71
     9
 72
     5
  1

1001
ACAD
1000
MTEXTBEGIN
1070
    73
1070
     1
1070
    44
1040
1.0
1070
    74
1070
     0
1000
MTEXTEND
  0
MTEXT
  5
55BB
330
1A
100
AcDbEntity
  8
SUNPOU
100
AcDbMText
 10
128169.7525959589
 20
130040.1732006569
 30
0.0
 40
10.5
 41
0.0
 71
     9
 72
     5
  1

1001
ACAD
1000
MTEXTBEGIN
1070
    73
1070
     1
1070
    44
1040
1.0
1070
    74
1070
     0
1000
MTEXTEND
  0
MTEXT
  5
55BC
330
1A
100
AcDbEntity
  8
SUNPOU
100
AcDbMText
 10
130113.1598426684
 20
128239.1241207789
 30
0.0
 40
3.5
 41
0.0
 71
     9
 72
     5
  1

1001
ACAD
1000
MTEXTBEGIN
1070
    73
1070
     1
1070
    44
1040
1.0
1070
    74
1070
     0
1000
MTEXTEND
  0
MTEXT
  5
55BD
330
1A
100
AcDbEntity
  8
SUNPOU
100
AcDbMText
 10
78610.02030175463
 20
75873.33835563206
 30
0.0
 40
10.5
 41
0.0
 71
     9
 72
     5
  1

1001
ACAD
1000
MTEXTBEGIN
1070
    73
1070
     1
1070
    44
1040
1.0
1070
    74
1070
     0
1000
MTEXTEND
  0
MTEXT
  5
55BE
330
1A
100
AcDbEntity
  8
SUNPOU
100
AcDbMText
 10
64662.02020137862
 20
56700.93921651987
 30
0.0
 40
3.5
 41
0.0
 71
     7
 72
     5
  1

1001
ACAD
1000
MTEXTBEGIN
1070
    73
1070
     1
1070
    44
1040
1.0
1070
    74
1070
     0
1000
MTEXTEND
  0
MTEXT
  5
55BF
330
1A
100
AcDbEntity
  8
SUNPOU
100
AcDbMText
 10
45647.18959837176
 20
44463.08794733806
 30
0.0
 40
10.5
 41
0.0
 71
     7
 72
     5
  1

1001
ACAD
1000
MTEXTBEGIN
1070
    73
1070
     1
1070
    44
1040
1.0
1070
    74
1070
     0
1000
MTEXTEND
  0
MTEXT
  5
55C0
330
1A
100
AcDbEntity
  8
SUNPOU
100
AcDbMText
 10
33189.96133342368
 20
28618.15636923965
 30
0.0
 40
35.0
 41
0.0
 71
     9
 72
     5
  1

1001
ACAD
1000
MTEXTBEGIN
1070
    73
1070
     1
1070
    44
1040
1.0
1070
    74
1070
     0
1000
MTEXTEND
  0
MTEXT
  5
55C1
330
1A
100
AcDbEntity
  8
SUNPOU
100
AcDbMText
 10
32098.44639099864
 20
29226.93177928834
 30
0.0
 40
350.0000004171781
 41
0.0
 71
     7
 72
     5
  1

1001
ACAD
1000
MTEXTBEGIN
1070
    73
1070
     1
1070
    44
1040
1.0
1070
    74
1070
     0
1000
MTEXTEND
  0
MTEXT
  5
55C2
330
1A
100
AcDbEntity
  8
0
100
AcDbMText
 10
38142.39714894154
 20
27206.85414142458
 30
0.0
 40
8.0
 41
0.0
 71
     7
 72
     5
  1

1001
ACAD
1000
MTEXTBEGIN
1070
    73
1070
     1
1070
    44
1040
1.0
1070
    74
1070
     0
1000
MTEXTEND
  0
MTEXT
  5
55C3
330
1A
100
AcDbEntity
  8
0
100
AcDbMText
 10
40427.75483883644
 20
28177.64443617564
 30
0.0
 40
8.0
 41
0.0
 71
     7
 72
     5
  1

1001
ACAD
1000
MTEXTBEGIN
1070
    73
1070
     1
1070
    44
1040
1.0
1070
    74
1070
     0
1000
MTEXTEND
  0
MTEXT
  5
55C4
330
1A
100
AcDbEntity
  8
SUNPOU
100
AcDbMText
 10
43093.65185951858
 20
37689.75582855077
 30
0.0
 40
10.5
 41
0.0
 71
     1
 72
     5
  1

1001
ACAD
1000
MTEXTBEGIN
1070
    73
1070
     1
1070
    44
1040
1.0
1070
    74
1070
     0
1000
MTEXTEND
  0
MTEXT
  5
55C5
330
1A
100
AcDbEntity
  8
SUNPOU
100
AcDbMText
 10
35162.72866358265
 20
36742.96269463781
 30
0.0
 40
10.5
 41
0.0
 71
     7
 72
     5
  1

1001
ACAD
1000
MTEXTBEGIN
1070
    73
1070
     1
1070
    44
1040
1.0
1070
    74
1070
     0
1000
MTEXTEND
  0
MTEXT
  5
55C6
330
1A
100
AcDbEntity
  8
SUNPOU
100
AcDbMText
 10
38111.71232809542
 20
41643.63876648065
 30
0.0
 40
10.5
 41
0.0
 71
     7
 72
     5
  1

1001
ACAD
1000
MTEXTBEGIN
1070
    73
1070
     1
1070
    44
1040
1.0
1070
    74
1070
     0
1000
MTEXTEND
  0
MTEXT
  5
55C7
330
1A
100
AcDbEntity
  8
SUNPOU
100
AcDbMText
 10
42620.79045604596
 20
44079.93951410074
 30
0.0
 40
10.5
 41
0.0
 71
     7
 72
     5
  1

1001
ACAD
1000
MTEXTBEGIN
1070
    73
1070
     1
1070
    44
1040
1.0
1070
    74
1070
     0
1000
MTEXTEND
  0
MTEXT
  5
55C8
330
1A
100
AcDbEntity
  8
SUNPOU
100
AcDbMText
 10
26221.62834281429
 20
23077.53566448964
 30
0.0
 40
10.5
 41
0.0
 71
     7
 72
     5
  1

1001
ACAD
1000
MTEXTBEGIN
1070
    73
1070
     1
1070
    44
1040
1.0
1070
    74
1070
     0
1000
MTEXTEND
  0
MTEXT
  5
55C9
330
1A
100
AcDbEntity
  8
SUNPOU
100
AcDbMText
 10
77413.14677671455
 20
68750.51622813789
 30
0.0
 40
10.5
 41
0.0
 71
     9
 72
     5
  1

1001
ACAD
1000
MTEXTBEGIN
1070
    73
1070
     1
1070
    44
1040
1.0
1070
    74
1070
     0
1000
MTEXTEND
  0
MTEXT
  5
55CA
330
1A
100
AcDbEntity
  8
SUNPOU
100
AcDbMText
 10
86135.31434263256
 20
76166.35075967536
 30
0.0
 40
10.5
 41
0.0
 71
     9
 72
     5
  1

1001
ACAD
1000
MTEXTBEGIN
1070
    73
1070
     1
1070
    44
1040
1.0
1070
    74
1070
     0
1000
MTEXTEND
  0
MTEXT
  5
55CB
330
1A
100
AcDbEntity
  8
SUNPOU
100
AcDbMText
 10
105089.0730599624
 20
93632.92681216739
 30
0.0
 40
10.5
 41
0.0
 71
     9
 72
     5
  1

1001
ACAD
1000
MTEXTBEGIN
1070
    73
1070
     1
1070
    44
1040
1.0
1070
    74
1070
     0
1000
MTEXTEND
  0
MTEXT
  5
55CC
330
1A
100
AcDbEntity
  8
SUNPOU
100
AcDbMText
 10
107032.4803066718
 20
91831.87773228937
 30
0.0
 40
3.5
 41
0.0
 71
     9
 72
     5
  1

1001
ACAD
1000
MTEXTBEGIN
1070
    73
1070
     1
1070
    44
1040
1.0
1070
    74
1070
     0
1000
MTEXTEND
  0
MTEXT
  5
55CD
330
1A
100
AcDbEntity
  8
SUNPOU
100
AcDbMText
 10
138158.6601392916
 20
134326.8233999467
 30
0.0
 40
10.5
 41
0.0
 71
     9
 72
     5
  1

1001
ACAD
1000
MTEXTBEGIN
1070
    73
1070
     1
1070
    44
1040
1.0
1070
    74
1070
     0
1000
MTEXTEND
  0
MTEXT
  5
55CE
330
1A
100
AcDbEntity
  8
SUNPOU
100
AcDbMText
 10
140102.067386001
 20
132525.7743200686
 30
0.0
 40
3.5
 41
0.0
 71
     9
 72
     5
  1

1001
ACAD
1000
MTEXTBEGIN
1070
    73
1070
     1
1070
    44
1040
1.0
1070
    74
1070
     0
1000
MTEXTEND
  0
MTEXT
  5
55CF
330
1A
100
AcDbEntity
  8
SUNPOU
100
AcDbMText
 10
88598.92784508721
 20
80159.98855492179
 30
0.0
 40
10.5
 41
0.0
 71
     9
 72
     5
  1

1001
ACAD
1000
MTEXTBEGIN
1070
    73
1070
     1
1070
    44
1040
1.0
1070
    74
1070
     0
1000
MTEXTEND
  0
MTEXT
  5
55D0
330
1A
100
AcDbEntity
  8
SUNPOU
100
AcDbMText
 10
74650.92774471121
 20
60987.58941580959
 30
0.0
 40
3.5
 41
0.0
 71
     7
 72
     5
  1

1001
ACAD
1000
MTEXTBEGIN
1070
    73
1070
     1
1070
    44
1040
1.0
1070
    74
1070
     0
1000
MTEXTEND
  0
MTEXT
  5
55D1
330
1A
100
AcDbEntity
  8
SUNPOU
100
AcDbMText
 10
55636.09714170436
 20
48749.73814662781
 30
0.0
 40
10.5
 41
0.0
 71
     7
 72
     5
  1

1001
ACAD
1000
MTEXTBEGIN
1070
    73
1070
     1
1070
    44
1040
1.0
1070
    74
1070
     0
1000
MTEXTEND
  0
MTEXT
  5
55D2
330
1A
100
AcDbEntity
  8
SUNPOU
100
AcDbMText
 10
43178.86887675626
 20
32904.80656852937
 30
0.0
 40
35.0
 41
0.0
 71
     9
 72
     5
  1

1001
ACAD
1000
MTEXTBEGIN
1070
    73
1070
     1
1070
    44
1040
1.0
1070
    74
1070
     0
1000
MTEXTEND
  0
MTEXT
  5
55D3
330
1A
100
AcDbEntity
  8
SUNPOU
100
AcDbMText
 10
42087.3539343312
 20
33513.58197857808
 30
0.0
 40
350.0000004171781
 41
0.0
 71
     7
 72
     5
  1

1001
ACAD
1000
MTEXTBEGIN
1070
    73
1070
     1
1070
    44
1040
1.0
1070
    74
1070
     0
1000
MTEXTEND
  0
MTEXT
  5
55D4
330
1A
100
AcDbEntity
  8
0
100
AcDbMText
 10
48131.30469227412
 20
31493.50434071431
 30
0.0
 40
8.0
 41
0.0
 71
     7
 72
     5
  1

1001
ACAD
1000
MTEXTBEGIN
1070
    73
1070
     1
1070
    44
1040
1.0
1070
    74
1070
     0
1000
MTEXTEND
  0
MTEXT
  5
55D5
330
1A
100
AcDbEntity
  8
0
100
AcDbMText
 10
50416.66238216901
 20
32464.29463546537
 30
0.0
 40
8.0
 41
0.0
 71
     7
 72
     5
  1

1001
ACAD
1000
MTEXTBEGIN
1070
    73
1070
     1
1070
    44
1040
1.0
1070
    74
1070
     0
1000
MTEXTEND
  0
MTEXT
  5
55D6
330
1A
100
AcDbEntity
  8
SUNPOU
100
AcDbMText
 10
53082.55940285115
 20
41976.4060278405
 30
0.0
 40
10.5
 41
0.0
 71
     1
 72
     5
  1

1001
ACAD
1000
MTEXTBEGIN
1070
    73
1070
     1
1070
    44
1040
1.0
1070
    74
1070
     0
1000
MTEXTEND
  0
MTEXT
  5
55D7
330
1A
100
AcDbEntity
  8
SUNPOU
100
AcDbMText
 10
45151.63620691521
 20
41029.61289392755
 30
0.0
 40
10.5
 41
0.0
 71
     7
 72
     5
  1

1001
ACAD
1000
MTEXTBEGIN
1070
    73
1070
     1
1070
    44
1040
1.0
1070
    74
1070
     0
1000
MTEXTEND
  0
MTEXT
  5
55D8
330
1A
100
AcDbEntity
  8
SUNPOU
100
AcDbMText
 10
48100.61987142798
 20
45930.28896577039
 30
0.0
 40
10.5
 41
0.0
 71
     7
 72
     5
  1

1001
ACAD
1000
MTEXTBEGIN
1070
    73
1070
     1
1070
    44
1040
1.0
1070
    74
1070
     0
1000
MTEXTEND
  0
MTEXT
  5
55D9
330
1A
100
AcDbEntity
  8
SUNPOU
100
AcDbMText
 10
52609.69799937853
 20
48366.58971339046
 30
0.0
 40
10.5
 41
0.0
 71
     7
 72
     5
  1

1001
ACAD
1000
MTEXTBEGIN
1070
    73
1070
     1
1070
    44
1040
1.0
1070
    74
1070
     0
1000
MTEXTEND
  0
MTEXT
  5
55DA
330
1A
100
AcDbEntity
  8
SUNPOU
100
AcDbMText
 10
36210.53588614687
 20
27364.18586377937
 30
0.0
 40
10.5
 41
0.0
 71
     7
 72
     5
  1

1001
ACAD
1000
MTEXTBEGIN
1070
    73
1070
     1
1070
    44
1040
1.0
1070
    74
1070
     0
1000
MTEXTEND
  0
MTEXT
  5
55DB
330
1A
100
AcDbEntity
  8
SUNPOU
100
AcDbMText
 10
38021.29879752181
 20
33691.59985125794
 30
0.0
 40
10.5
 41
0.0
 71
     9
 72
     5
  1

1001
ACAD
1000
MTEXTBEGIN
1070
    73
1070
     1
1070
    44
1040
1.0
1070
    74
1070
     0
1000
MTEXTEND
  0
MTEXT
  5
55DC
330
1A
100
AcDbEntity
  8
SUNPOU
100
AcDbMText
 10
46743.46636343979
 20
41107.4343827954
 30
0.0
 40
10.5
 41
0.0
 71
     9
 72
     5
  1

1001
ACAD
1000
MTEXTBEGIN
1070
    73
1070
     1
1070
    44
1040
1.0
1070
    74
1070
     0
1000
MTEXTEND
  0
MTEXT
  5
55DD
330
1A
100
AcDbEntity
  8
SUNPOU
100
AcDbMText
 10
65697.22508076974
 20
58574.01043528746
 30
0.0
 40
10.5
 41
0.0
 71
     9
 72
     5
  1

1001
ACAD
1000
MTEXTBEGIN
1070
    73
1070
     1
1070
    44
1040
1.0
1070
    74
1070
     0
1000
MTEXTEND
  0
MTEXT
  5
55DE
330
1A
100
AcDbEntity
  8
SUNPOU
100
AcDbMText
 10
67640.63232747917
 20
56772.96135540945
 30
0.0
 40
3.5
 41
0.0
 71
     9
 72
     5
  1

1001
ACAD
1000
MTEXTBEGIN
1070
    73
1070
     1
1070
    44
1040
1.0
1070
    74
1070
     0
1000
MTEXTEND
  0
MTEXT
  5
55DF
330
1A
100
AcDbEntity
  8
SUNPOU
100
AcDbMText
 10
98766.81216009886
 20
99267.9070230668
 30
0.0
 40
10.5
 41
0.0
 71
     9
 72
     5
  1

1001
ACAD
1000
MTEXTBEGIN
1070
    73
1070
     1
1070
    44
1040
1.0
1070
    74
1070
     0
1000
MTEXTEND
  0
MTEXT
  5
55E0
330
1A
100
AcDbEntity
  8
SUNPOU
100
AcDbMText
 10
100710.2194068083
 20
97466.85794318876
 30
0.0
 40
3.5
 41
0.0
 71
     9
 72
     5
  1

1001
ACAD
1000
MTEXTBEGIN
1070
    73
1070
     1
1070
    44
1040
1.0
1070
    74
1070
     0
1000
MTEXTEND
  0
MTEXT
  5
55E1
330
1A
100
AcDbEntity
  8
SUNPOU
100
AcDbMText
 10
49207.07986589443
 20
45101.07217804184
 30
0.0
 40
10.5
 41
0.0
 71
     9
 72
     5
  1

1001
ACAD
1000
MTEXTBEGIN
1070
    73
1070
     1
1070
    44
1040
1.0
1070
    74
1070
     0
1000
MTEXTEND
  0
MTEXT
  5
55E2
330
1A
100
AcDbEntity
  8
SUNPOU
100
AcDbMText
 10
35259.07976551845
 20
25928.67303892964
 30
0.0
 40
3.5
 41
0.0
 71
     7
 72
     5
  1

1001
ACAD
1000
MTEXTBEGIN
1070
    73
1070
     1
1070
    44
1040
1.0
1070
    74
1070
     0
1000
MTEXTEND
  0
MTEXT
  5
55E3
330
1A
100
AcDbEntity
  8
SUNPOU
100
AcDbMText
 10
48951.43044828905
 20
35287.73625995099
 30
0.0
 40
10.5
 41
0.0
 71
     9
 72
     5
  1

1001
ACAD
1000
MTEXTBEGIN
1070
    73
1070
     1
1070
    44
1040
1.0
1070
    74
1070
     0
1000
MTEXTEND
  0
MTEXT
  5
55E4
330
1A
100
AcDbEntity
  8
SUNPOU
100
AcDbMText
 10
57673.59801420702
 20
42703.57079148847
 30
0.0
 40
10.5
 41
0.0
 71
     9
 72
     5
  1

1001
ACAD
1000
MTEXTBEGIN
1070
    73
1070
     1
1070
    44
1040
1.0
1070
    74
1070
     0
1000
MTEXTEND
  0
MTEXT
  5
55E5
330
1A
100
AcDbEntity
  8
SUNPOU
100
AcDbMText
 10
76627.35673153699
 20
60170.14684398051
 30
0.0
 40
10.5
 41
0.0
 71
     9
 72
     5
  1

1001
ACAD
1000
MTEXTBEGIN
1070
    73
1070
     1
1070
    44
1040
1.0
1070
    74
1070
     0
1000
MTEXTEND
  0
MTEXT
  5
55E6
330
1A
100
AcDbEntity
  8
SUNPOU
100
AcDbMText
 10
78570.76397824641
 20
58369.09776410251
 30
0.0
 40
3.5
 41
0.0
 71
     9
 72
     5
  1

1001
ACAD
1000
MTEXTBEGIN
1070
    73
1070
     1
1070
    44
1040
1.0
1070
    74
1070
     0
1000
MTEXTEND
  0
MTEXT
  5
55E7
330
1A
100
AcDbEntity
  8
SUNPOU
100
AcDbMText
 10
109696.943810866
 20
100864.0434317598
 30
0.0
 40
10.5
 41
0.0
 71
     9
 72
     5
  1

1001
ACAD
1000
MTEXTBEGIN
1070
    73
1070
     1
1070
    44
1040
1.0
1070
    74
1070
     0
1000
MTEXTEND
  0
MTEXT
  5
55E8
330
1A
100
AcDbEntity
  8
SUNPOU
100
AcDbMText
 10
111640.3510575755
 20
99062.99435188183
 30
0.0
 40
3.5
 41
0.0
 71
     9
 72
     5
  1

1001
ACAD
1000
MTEXTBEGIN
1070
    73
1070
     1
1070
    44
1040
1.0
1070
    74
1070
     0
1000
MTEXTEND
  0
MTEXT
  5
55E9
330
1A
100
AcDbEntity
  8
SUNPOU
100
AcDbMText
 10
60137.21151666167
 20
46697.20858673491
 30
0.0
 40
10.5
 41
0.0
 71
     9
 72
     5
  1

1001
ACAD
1000
MTEXTBEGIN
1070
    73
1070
     1
1070
    44
1040
1.0
1070
    74
1070
     0
1000
MTEXTEND
  0
MTEXT
  5
55EA
330
1A
100
AcDbEntity
  8
SUNPOU
100
AcDbMText
 10
46189.21141628568
 20
27524.80944762269
 30
0.0
 40
3.5
 41
0.0
 71
     7
 72
     5
  1

1001
ACAD
1000
MTEXTBEGIN
1070
    73
1070
     1
1070
    44
1040
1.0
1070
    74
1070
     0
1000
MTEXTEND
  0
MTEXT
  5
55EB
330
1A
100
AcDbEntity
  8
SUNPOU
100
AcDbMText
 10
45007.68847015541
 20
38269.57947701873
 30
0.0
 40
10.5
 41
0.0
 71
     9
 72
     5
  1

1001
ACAD
1000
MTEXTBEGIN
1070
    73
1070
     1
1070
    44
1040
1.0
1070
    74
1070
     0
1000
MTEXTEND
  0
MTEXT
  5
55EC
330
1A
100
AcDbEntity
  8
SUNPOU
100
AcDbMText
 10
63961.44718748539
 20
55736.15552951081
 30
0.0
 40
10.5
 41
0.0
 71
     9
 72
     5
  1

1001
ACAD
1000
MTEXTBEGIN
1070
    73
1070
     1
1070
    44
1040
1.0
1070
    74
1070
     0
1000
MTEXTEND
  0
MTEXT
  5
55ED
330
1A
100
AcDbEntity
  8
SUNPOU
100
AcDbMText
 10
65904.85443419479
 20
53935.10644963278
 30
0.0
 40
3.5
 41
0.0
 71
     9
 72
     5
  1

1001
ACAD
1000
MTEXTBEGIN
1070
    73
1070
     1
1070
    44
1040
1.0
1070
    74
1070
     0
1000
MTEXTEND
  0
MTEXT
  5
55EE
330
1A
100
AcDbEntity
  8
SUNPOU
100
AcDbMText
 10
97031.03426681453
 20
96430.05211729015
 30
0.0
 40
10.5
 41
0.0
 71
     9
 72
     5
  1

1001
ACAD
1000
MTEXTBEGIN
1070
    73
1070
     1
1070
    44
1040
1.0
1070
    74
1070
     0
1000
MTEXTEND
  0
MTEXT
  5
55EF
330
1A
100
AcDbEntity
  8
SUNPOU
100
AcDbMText
 10
98974.44151352393
 20
94629.00303741212
 30
0.0
 40
3.5
 41
0.0
 71
     9
 72
     5
  1

1001
ACAD
1000
MTEXTBEGIN
1070
    73
1070
     1
1070
    44
1040
1.0
1070
    74
1070
     0
1000
MTEXTEND
  0
MTEXT
  5
55F0
330
1A
100
AcDbEntity
  8
SUNPOU
100
AcDbMText
 10
47471.30197261006
 20
42263.21727226519
 30
0.0
 40
10.5
 41
0.0
 71
     9
 72
     5
  1

1001
ACAD
1000
MTEXTBEGIN
1070
    73
1070
     1
1070
    44
1040
1.0
1070
    74
1070
     0
1000
MTEXTEND
  0
MTEXT
  5
55F1
330
1A
100
AcDbEntity
  8
SUNPOU
100
AcDbMText
 10
33523.30187223408
 20
23090.81813315298
 30
0.0
 40
3.5
 41
0.0
 71
     7
 72
     5
  1

1001
ACAD
1000
MTEXTBEGIN
1070
    73
1070
     1
1070
    44
1040
1.0
1070
    74
1070
     0
1000
MTEXTEND
  0
MTEXT
  5
55F2
330
1A
100
AcDbEntity
  8
SUNPOU
100
AcDbMText
 10
57959.46254102503
 20
50038.08111611014
 30
0.0
 40
10.5
 41
0.0
 71
     9
 72
     5
  1

1001
ACAD
1000
MTEXTBEGIN
1070
    73
1070
     1
1070
    44
1040
1.0
1070
    74
1070
     0
1000
MTEXTEND
  0
MTEXT
  5
55F3
330
1A
100
AcDbEntity
  8
SUNPOU
100
AcDbMText
 10
76913.22125835503
 20
67504.65716860222
 30
0.0
 40
10.5
 41
0.0
 71
     9
 72
     5
  1

1001
ACAD
1000
MTEXTBEGIN
1070
    73
1070
     1
1070
    44
1040
1.0
1070
    74
1070
     0
1000
MTEXTEND
  0
MTEXT
  5
55F4
330
1A
100
AcDbEntity
  8
SUNPOU
100
AcDbMText
 10
78856.62850506443
 20
65703.6080887242
 30
0.0
 40
3.5
 41
0.0
 71
     9
 72
     5
  1

1001
ACAD
1000
MTEXTBEGIN
1070
    73
1070
     1
1070
    44
1040
1.0
1070
    74
1070
     0
1000
MTEXTEND
  0
MTEXT
  5
55F5
330
1A
100
AcDbEntity
  8
SUNPOU
100
AcDbMText
 10
109982.8083376841
 20
108198.5537563815
 30
0.0
 40
10.5
 41
0.0
 71
     9
 72
     5
  1

1001
ACAD
1000
MTEXTBEGIN
1070
    73
1070
     1
1070
    44
1040
1.0
1070
    74
1070
     0
1000
MTEXTEND
  0
MTEXT
  5
55F6
330
1A
100
AcDbEntity
  8
SUNPOU
100
AcDbMText
 10
111926.2155843933
 20
106397.5046765035
 30
0.0
 40
3.5
 41
0.0
 71
     9
 72
     5
  1

1001
ACAD
1000
MTEXTBEGIN
1070
    73
1070
     1
1070
    44
1040
1.0
1070
    74
1070
     0
1000
MTEXTEND
  0
MTEXT
  5
55F7
330
1A
100
AcDbEntity
  8
SUNPOU
100
AcDbMText
 10
60423.07604347968
 20
54031.71891135658
 30
0.0
 40
10.5
 41
0.0
 71
     9
 72
     5
  1

1001
ACAD
1000
MTEXTBEGIN
1070
    73
1070
     1
1070
    44
1040
1.0
1070
    74
1070
     0
1000
MTEXTEND
  0
MTEXT
  5
55F8
330
1A
100
AcDbEntity
  8
SUNPOU
100
AcDbMText
 10
46475.07594310369
 20
34859.3197722444
 30
0.0
 40
3.5
 41
0.0
 71
     7
 72
     5
  1

1001
ACAD
1000
MTEXTBEGIN
1070
    73
1070
     1
1070
    44
1040
1.0
1070
    74
1070
     0
1000
MTEXTEND
  0
MTEXT
  5
55F9
330
1A
100
AcDbEntity
  8
SUNPOU
100
AcDbMText
 10
74027.35402123588
 20
68370.58278833383
 30
0.0
 40
10.5
 41
0.0
 71
     9
 72
     5
  1

1001
ACAD
1000
MTEXTBEGIN
1070
    73
1070
     1
1070
    44
1040
1.0
1070
    74
1070
     0
1000
MTEXTEND
  0
MTEXT
  5
55FA
330
1A
100
AcDbEntity
  8
SUNPOU
100
AcDbMText
 10
75970.7612679453
 20
66569.53370845583
 30
0.0
 40
3.5
 41
0.0
 71
     9
 72
     5
  1

1001
ACAD
1000
MTEXTBEGIN
1070
    73
1070
     1
1070
    44
1040
1.0
1070
    74
1070
     0
1000
MTEXTEND
  0
MTEXT
  5
55FB
330
1A
100
AcDbEntity
  8
SUNPOU
100
AcDbMText
 10
107096.941100565
 20
109064.4793761132
 30
0.0
 40
10.5
 41
0.0
 71
     9
 72
     5
  1

1001
ACAD
1000
MTEXTBEGIN
1070
    73
1070
     1
1070
    44
1040
1.0
1070
    74
1070
     0
1000
MTEXTEND
  0
MTEXT
  5
55FC
330
1A
100
AcDbEntity
  8
SUNPOU
100
AcDbMText
 10
109040.3483472744
 20
107263.430296235
 30
0.0
 40
3.5
 41
0.0
 71
     9
 72
     5
  1

1001
ACAD
1000
MTEXTBEGIN
1070
    73
1070
     1
1070
    44
1040
1.0
1070
    74
1070
     0
1000
MTEXTEND
  0
MTEXT
  5
55FD
330
1A
100
AcDbEntity
  8
SUNPOU
100
AcDbMText
 10
105709.1709283621
 20
108141.3777665285
 30
0.0
 40
10.5
 41
0.0
 71
     9
 72
     5
  1

1001
ACAD
1000
MTEXTBEGIN
1070
    73
1070
     1
1070
    44
1040
1.0
1070
    74
1070
     0
1000
MTEXTEND
  0
MTEXT
  5
55FE
330
1A
100
AcDbEntity
  8
SUNPOU
100
AcDbMText
 10
107652.5781750715
 20
106340.3286866505
 30
0.0
 40
3.5
 41
0.0
 71
     9
 72
     5
  1

1001
ACAD
1000
MTEXTBEGIN
1070
    73
1070
     1
1070
    44
1040
1.0
1070
    74
1070
     0
1000
MTEXTEND
  0
MTEXT
  5
55FF
330
1A
100
AcDbEntity
  8
SUNPOU
100
AcDbMText
 10
73193.09268743351
 20
66158.78082845057
 30
0.0
 40
10.5
 41
0.0
 71
     9
 72
     5
  1

1001
ACAD
1000
MTEXTBEGIN
1070
    73
1070
     1
1070
    44
1040
1.0
1070
    74
1070
     0
1000
MTEXTEND
  0
MTEXT
  5
5600
330
1A
100
AcDbEntity
  8
SUNPOU
100
AcDbMText
 10
75916.39889159807
 20
66563.46252003162
 30
0.0
 40
3.5
 41
0.0
 71
     9
 72
     5
  1

1001
ACAD
1000
MTEXTBEGIN
1070
    73
1070
     1
1070
    44
1040
1.0
1070
    74
1070
     0
1000
MTEXTEND
  0
MTEXT
  5
5601
330
1A
100
AcDbEntity
  8
SUNPOU
100
AcDbMText
 10
75124.04436649058
 20
63402.1566819768
 30
0.0
 40
10.5
 41
0.0
 71
     9
 72
     5
  1

1001
ACAD
1000
MTEXTBEGIN
1070
    73
1070
     1
1070
    44
1040
1.0
1070
    74
1070
     0
1000
MTEXTEND
  0
MTEXT
  5
5602
330
1A
100
AcDbEntity
  8
SUNPOU
100
AcDbMText
 10
77067.4516132
 20
61601.1076020988
 30
0.0
 40
3.5
 41
0.0
 71
     9
 72
     5
  1

1001
ACAD
1000
MTEXTBEGIN
1070
    73
1070
     1
1070
    44
1040
1.0
1070
    74
1070
     0
1000
MTEXTEND
  0
MTEXT
  5
5603
330
1A
100
AcDbEntity
  8
SUNPOU
100
AcDbMText
 10
77012.54710378659
 20
61488.33571981449
 30
0.0
 40
3.5
 41
0.0
 71
     9
 72
     5
  1

1001
ACAD
1000
MTEXTBEGIN
1070
    73
1070
     1
1070
    44
1040
1.0
1070
    74
1070
     0
1000
MTEXTEND
  0
MTEXT
  5
5604
330
1A
100
AcDbEntity
  8
SUNPOU
100
AcDbMText
 10
76376.61896736668
 20
60677.01447874798
 30
0.0
 40
3.5
 41
0.0
 71
     9
 72
     5
  1

1001
ACAD
1000
MTEXTBEGIN
1070
    73
1070
     1
1070
    44
1040
1.0
1070
    74
1070
     0
1000
MTEXTEND
  0
MTEXT
  5
5605
330
1A
100
AcDbEntity
  8
SUNPOU
100
AcDbMText
 10
76375.37854794595
 20
60676.76650181048
 30
0.0
 40
10.5
 41
0.0
 71
     9
 72
     5
  1

1001
ACAD
1000
MTEXTBEGIN
1070
    73
1070
     1
1070
    44
1040
1.0
1070
    74
1070
     0
1000
MTEXTEND
  0
MTEXT
  5
5606
330
1A
100
AcDbEntity
  8
SUNPOU
100
AcDbMText
 10
84709.93991079748
 20
78034.0328293557
 30
0.0
 40
10.5
 41
0.0
 71
     9
 72
     5
  1

1001
ACAD
1000
MTEXTBEGIN
1070
    73
1070
     1
1070
    44
1040
1.0
1070
    74
1070
     0
1000
MTEXTEND
  0
MTEXT
  5
5607
330
1A
100
AcDbEntity
  8
SUNPOU
100
AcDbMText
 10
93432.10747671546
 20
85449.86736089315
 30
0.0
 40
10.5
 41
0.0
 71
     9
 72
     5
  1

1001
ACAD
1000
MTEXTBEGIN
1070
    73
1070
     1
1070
    44
1040
1.0
1070
    74
1070
     0
1000
MTEXTEND
  0
MTEXT
  5
5608
330
1A
100
AcDbEntity
  8
SUNPOU
100
AcDbMText
 10
112385.8661940454
 20
102916.4434133851
 30
0.0
 40
10.5
 41
0.0
 71
     9
 72
     5
  1

1001
ACAD
1000
MTEXTBEGIN
1070
    73
1070
     1
1070
    44
1040
1.0
1070
    74
1070
     0
1000
MTEXTEND
  0
MTEXT
  5
5609
330
1A
100
AcDbEntity
  8
SUNPOU
100
AcDbMText
 10
114329.2734407548
 20
101115.3943335072
 30
0.0
 40
3.5
 41
0.0
 71
     9
 72
     5
  1

1001
ACAD
1000
MTEXTBEGIN
1070
    73
1070
     1
1070
    44
1040
1.0
1070
    74
1070
     0
1000
MTEXTEND
  0
MTEXT
  5
560A
330
1A
100
AcDbEntity
  8
SUNPOU
100
AcDbMText
 10
145455.4532733745
 20
143610.3400011645
 30
0.0
 40
10.5
 41
0.0
 71
     9
 72
     5
  1

1001
ACAD
1000
MTEXTBEGIN
1070
    73
1070
     1
1070
    44
1040
1.0
1070
    74
1070
     0
1000
MTEXTEND
  0
MTEXT
  5
560B
330
1A
100
AcDbEntity
  8
SUNPOU
100
AcDbMText
 10
147398.8605200839
 20
141809.2909212864
 30
0.0
 40
3.5
 41
0.0
 71
     9
 72
     5
  1

1001
ACAD
1000
MTEXTBEGIN
1070
    73
1070
     1
1070
    44
1040
1.0
1070
    74
1070
     0
1000
MTEXTEND
  0
MTEXT
  5
560C
330
1A
100
AcDbEntity
  8
SUNPOU
100
AcDbMText
 10
95895.72097917011
 20
89443.50515613962
 30
0.0
 40
10.5
 41
0.0
 71
     9
 72
     5
  1

1001
ACAD
1000
MTEXTBEGIN
1070
    73
1070
     1
1070
    44
1040
1.0
1070
    74
1070
     0
1000
MTEXTEND
  0
MTEXT
  5
560D
330
1A
100
AcDbEntity
  8
SUNPOU
100
AcDbMText
 10
81947.72087879414
 20
70271.1060170274
 30
0.0
 40
3.5
 41
0.0
 71
     7
 72
     5
  1

1001
ACAD
1000
MTEXTBEGIN
1070
    73
1070
     1
1070
    44
1040
1.0
1070
    74
1070
     0
1000
MTEXTEND
  0
MTEXT
  5
560E
330
1A
100
AcDbEntity
  8
SUNPOU
100
AcDbMText
 10
62932.89027578729
 20
58033.25474784561
 30
0.0
 40
10.5
 41
0.0
 71
     7
 72
     5
  1

1001
ACAD
1000
MTEXTBEGIN
1070
    73
1070
     1
1070
    44
1040
1.0
1070
    74
1070
     0
1000
MTEXTEND
  0
MTEXT
  5
560F
330
1A
100
AcDbEntity
  8
SUNPOU
100
AcDbMText
 10
50475.66201083918
 20
42188.32316974718
 30
0.0
 40
35.0
 41
0.0
 71
     9
 72
     5
  1

1001
ACAD
1000
MTEXTBEGIN
1070
    73
1070
     1
1070
    44
1040
1.0
1070
    74
1070
     0
1000
MTEXTEND
  0
MTEXT
  5
5610
330
1A
100
AcDbEntity
  8
SUNPOU
100
AcDbMText
 10
49384.14706841413
 20
42797.0985797959
 30
0.0
 40
350.0000004171781
 41
0.0
 71
     7
 72
     5
  1

1001
ACAD
1000
MTEXTBEGIN
1070
    73
1070
     1
1070
    44
1040
1.0
1070
    74
1070
     0
1000
MTEXTEND
  0
MTEXT
  5
5611
330
1A
100
AcDbEntity
  8
0
100
AcDbMText
 10
55428.09782635704
 20
40777.0209419321
 30
0.0
 40
8.0
 41
0.0
 71
     7
 72
     5
  1

1001
ACAD
1000
MTEXTBEGIN
1070
    73
1070
     1
1070
    44
1040
1.0
1070
    74
1070
     0
1000
MTEXTEND
  0
MTEXT
  5
5612
330
1A
100
AcDbEntity
  8
0
100
AcDbMText
 10
57713.45551625192
 20
41747.81123668316
 30
0.0
 40
8.0
 41
0.0
 71
     7
 72
     5
  1

1001
ACAD
1000
MTEXTBEGIN
1070
    73
1070
     1
1070
    44
1040
1.0
1070
    74
1070
     0
1000
MTEXTEND
  0
MTEXT
  5
5613
330
1A
100
AcDbEntity
  8
SUNPOU
100
AcDbMText
 10
60379.35253693407
 20
51259.9226290583
 30
0.0
 40
10.5
 41
0.0
 71
     1
 72
     5
  1

1001
ACAD
1000
MTEXTBEGIN
1070
    73
1070
     1
1070
    44
1040
1.0
1070
    74
1070
     0
1000
MTEXTEND
  0
MTEXT
  5
5614
330
1A
100
AcDbEntity
  8
SUNPOU
100
AcDbMText
 10
52448.42934099813
 20
50313.12949514535
 30
0.0
 40
10.5
 41
0.0
 71
     7
 72
     5
  1

1001
ACAD
1000
MTEXTBEGIN
1070
    73
1070
     1
1070
    44
1040
1.0
1070
    74
1070
     0
1000
MTEXTEND
  0
MTEXT
  5
5615
330
1A
100
AcDbEntity
  8
SUNPOU
100
AcDbMText
 10
55397.4130055109
 20
55213.80556698819
 30
0.0
 40
10.5
 41
0.0
 71
     7
 72
     5
  1

1001
ACAD
1000
MTEXTBEGIN
1070
    73
1070
     1
1070
    44
1040
1.0
1070
    74
1070
     0
1000
MTEXTEND
  0
MTEXT
  5
5616
330
1A
100
AcDbEntity
  8
SUNPOU
100
AcDbMText
 10
59906.49113346147
 20
57650.10631460826
 30
0.0
 40
10.5
 41
0.0
 71
     7
 72
     5
  1

1001
ACAD
1000
MTEXTBEGIN
1070
    73
1070
     1
1070
    44
1040
1.0
1070
    74
1070
     0
1000
MTEXTEND
  0
MTEXT
  5
5617
330
1A
100
AcDbEntity
  8
SUNPOU
100
AcDbMText
 10
43507.32902022977
 20
36647.70246499718
 30
0.0
 40
10.5
 41
0.0
 71
     7
 72
     5
  1

1001
ACAD
1000
MTEXTBEGIN
1070
    73
1070
     1
1070
    44
1040
1.0
1070
    74
1070
     0
1000
MTEXTEND
  0
MTEXT
  5
5618
330
1A
100
AcDbEntity
  8
SUNPOU
100
AcDbMText
 10
94698.84745413006
 20
82320.68302864544
 30
0.0
 40
10.5
 41
0.0
 71
     9
 72
     5
  1

1001
ACAD
1000
MTEXTBEGIN
1070
    73
1070
     1
1070
    44
1040
1.0
1070
    74
1070
     0
1000
MTEXTEND
  0
MTEXT
  5
5619
330
1A
100
AcDbEntity
  8
SUNPOU
100
AcDbMText
 10
103421.015020048
 20
89736.5175601829
 30
0.0
 40
10.5
 41
0.0
 71
     9
 72
     5
  1

1001
ACAD
1000
MTEXTBEGIN
1070
    73
1070
     1
1070
    44
1040
1.0
1070
    74
1070
     0
1000
MTEXTEND
  0
MTEXT
  5
561A
330
1A
100
AcDbEntity
  8
SUNPOU
100
AcDbMText
 10
122374.773737378
 20
107203.0936126749
 30
0.0
 40
10.5
 41
0.0
 71
     9
 72
     5
  1

1001
ACAD
1000
MTEXTBEGIN
1070
    73
1070
     1
1070
    44
1040
1.0
1070
    74
1070
     0
1000
MTEXTEND
  0
MTEXT
  5
561B
330
1A
100
AcDbEntity
  8
SUNPOU
100
AcDbMText
 10
124318.1809840874
 20
105402.0445327969
 30
0.0
 40
3.5
 41
0.0
 71
     9
 72
     5
  1

1001
ACAD
1000
MTEXTBEGIN
1070
    73
1070
     1
1070
    44
1040
1.0
1070
    74
1070
     0
1000
MTEXTEND
  0
MTEXT
  5
561C
330
1A
100
AcDbEntity
  8
SUNPOU
100
AcDbMText
 10
155444.3608167071
 20
147896.9902004542
 30
0.0
 40
10.5
 41
0.0
 71
     9
 72
     5
  1

1001
ACAD
1000
MTEXTBEGIN
1070
    73
1070
     1
1070
    44
1040
1.0
1070
    74
1070
     0
1000
MTEXTEND
  0
MTEXT
  5
561D
330
1A
100
AcDbEntity
  8
SUNPOU
100
AcDbMText
 10
157387.7680634165
 20
146095.9411205762
 30
0.0
 40
3.5
 41
0.0
 71
     9
 72
     5
  1

1001
ACAD
1000
MTEXTBEGIN
1070
    73
1070
     1
1070
    44
1040
1.0
1070
    74
1070
     0
1000
MTEXTEND
  0
MTEXT
  5
561E
330
1A
100
AcDbEntity
  8
SUNPOU
100
AcDbMText
 10
105884.6285225027
 20
93730.15535542933
 30
0.0
 40
10.5
 41
0.0
 71
     9
 72
     5
  1

1001
ACAD
1000
MTEXTBEGIN
1070
    73
1070
     1
1070
    44
1040
1.0
1070
    74
1070
     0
1000
MTEXTEND
  0
MTEXT
  5
561F
330
1A
100
AcDbEntity
  8
SUNPOU
100
AcDbMText
 10
91936.6284221267
 20
74557.75621631714
 30
0.0
 40
3.5
 41
0.0
 71
     7
 72
     5
  1

1001
ACAD
1000
MTEXTBEGIN
1070
    73
1070
     1
1070
    44
1040
1.0
1070
    74
1070
     0
1000
MTEXTEND
  0
MTEXT
  5
5620
330
1A
100
AcDbEntity
  8
SUNPOU
100
AcDbMText
 10
72921.79781911986
 20
62319.90494713532
 30
0.0
 40
10.5
 41
0.0
 71
     7
 72
     5
  1

1001
ACAD
1000
MTEXTBEGIN
1070
    73
1070
     1
1070
    44
1040
1.0
1070
    74
1070
     0
1000
MTEXTEND
  0
MTEXT
  5
5621
330
1A
100
AcDbEntity
  8
SUNPOU
100
AcDbMText
 10
60464.56955417175
 20
46474.97336903692
 30
0.0
 40
35.0
 41
0.0
 71
     9
 72
     5
  1

1001
ACAD
1000
MTEXTBEGIN
1070
    73
1070
     1
1070
    44
1040
1.0
1070
    74
1070
     0
1000
MTEXTEND
  0
MTEXT
  5
5622
330
1A
100
AcDbEntity
  8
SUNPOU
100
AcDbMText
 10
59373.05461174673
 20
47083.74877908561
 30
0.0
 40
350.0000004171781
 41
0.0
 71
     7
 72
     5
  1

1001
ACAD
1000
MTEXTBEGIN
1070
    73
1070
     1
1070
    44
1040
1.0
1070
    74
1070
     0
1000
MTEXTEND
  0
MTEXT
  5
5623
330
1A
100
AcDbEntity
  8
0
100
AcDbMText
 10
65417.00536968963
 20
45063.67114122186
 30
0.0
 40
8.0
 41
0.0
 71
     7
 72
     5
  1

1001
ACAD
1000
MTEXTBEGIN
1070
    73
1070
     1
1070
    44
1040
1.0
1070
    74
1070
     0
1000
MTEXTEND
  0
MTEXT
  5
5624
330
1A
100
AcDbEntity
  8
0
100
AcDbMText
 10
67702.36305958452
 20
46034.46143597292
 30
0.0
 40
8.0
 41
0.0
 71
     7
 72
     5
  1

1001
ACAD
1000
MTEXTBEGIN
1070
    73
1070
     1
1070
    44
1040
1.0
1070
    74
1070
     0
1000
MTEXTEND
  0
MTEXT
  5
5625
330
1A
100
AcDbEntity
  8
SUNPOU
100
AcDbMText
 10
70368.26008026666
 20
55546.57282834803
 30
0.0
 40
10.5
 41
0.0
 71
     1
 72
     5
  1

1001
ACAD
1000
MTEXTBEGIN
1070
    73
1070
     1
1070
    44
1040
1.0
1070
    74
1070
     0
1000
MTEXTEND
  0
MTEXT
  5
5626
330
1A
100
AcDbEntity
  8
SUNPOU
100
AcDbMText
 10
62437.33688433072
 20
54599.77969443507
 30
0.0
 40
10.5
 41
0.0
 71
     7
 72
     5
  1

1001
ACAD
1000
MTEXTBEGIN
1070
    73
1070
     1
1070
    44
1040
1.0
1070
    74
1070
     0
1000
MTEXTEND
  0
MTEXT
  5
5627
330
1A
100
AcDbEntity
  8
SUNPOU
100
AcDbMText
 10
65386.32054884347
 20
59500.45576627792
 30
0.0
 40
10.5
 41
0.0
 71
     7
 72
     5
  1

1001
ACAD
1000
MTEXTBEGIN
1070
    73
1070
     1
1070
    44
1040
1.0
1070
    74
1070
     0
1000
MTEXTEND
  0
MTEXT
  5
5628
330
1A
100
AcDbEntity
  8
SUNPOU
100
AcDbMText
 10
69895.39867679405
 20
61936.756513898
 30
0.0
 40
10.5
 41
0.0
 71
     7
 72
     5
  1

1001
ACAD
1000
MTEXTBEGIN
1070
    73
1070
     1
1070
    44
1040
1.0
1070
    74
1070
     0
1000
MTEXTEND
  0
MTEXT
  5
5629
330
1A
100
AcDbEntity
  8
SUNPOU
100
AcDbMText
 10
53496.23656356237
 20
40934.35266428691
 30
0.0
 40
10.5
 41
0.0
 71
     7
 72
     5
  1

1001
ACAD
1000
MTEXTBEGIN
1070
    73
1070
     1
1070
    44
1040
1.0
1070
    74
1070
     0
1000
MTEXTEND
  0
MTEXT
  5
562A
330
1A
100
AcDbEntity
  8
SUNPOU
100
AcDbMText
 10
55306.99947493731
 20
47261.76665176546
 30
0.0
 40
10.5
 41
0.0
 71
     9
 72
     5
  1

1001
ACAD
1000
MTEXTBEGIN
1070
    73
1070
     1
1070
    44
1040
1.0
1070
    74
1070
     0
1000
MTEXTEND
  0
MTEXT
  5
562B
330
1A
100
AcDbEntity
  8
SUNPOU
100
AcDbMText
 10
64029.16704085527
 20
54677.60118330295
 30
0.0
 40
10.5
 41
0.0
 71
     9
 72
     5
  1

1001
ACAD
1000
MTEXTBEGIN
1070
    73
1070
     1
1070
    44
1040
1.0
1070
    74
1070
     0
1000
MTEXTEND
  0
MTEXT
  5
562C
330
1A
100
AcDbEntity
  8
SUNPOU
100
AcDbMText
 10
82982.92575818527
 20
72144.17723579499
 30
0.0
 40
10.5
 41
0.0
 71
     9
 72
     5
  1

1001
ACAD
1000
MTEXTBEGIN
1070
    73
1070
     1
1070
    44
1040
1.0
1070
    74
1070
     0
1000
MTEXTEND
  0
MTEXT
  5
562D
330
1A
100
AcDbEntity
  8
SUNPOU
100
AcDbMText
 10
84926.33300489467
 20
70343.12815591697
 30
0.0
 40
3.5
 41
0.0
 71
     9
 72
     5
  1

1001
ACAD
1000
MTEXTBEGIN
1070
    73
1070
     1
1070
    44
1040
1.0
1070
    74
1070
     0
1000
MTEXTEND
  0
MTEXT
  5
562E
330
1A
100
AcDbEntity
  8
SUNPOU
100
AcDbMText
 10
116052.5128375142
 20
112838.0738235742
 30
0.0
 40
10.5
 41
0.0
 71
     9
 72
     5
  1

1001
ACAD
1000
MTEXTBEGIN
1070
    73
1070
     1
1070
    44
1040
1.0
1070
    74
1070
     0
1000
MTEXTEND
  0
MTEXT
  5
562F
330
1A
100
AcDbEntity
  8
SUNPOU
100
AcDbMText
 10
117995.9200842238
 20
111037.0247436963
 30
0.0
 40
3.5
 41
0.0
 71
     9
 72
     5
  1

1001
ACAD
1000
MTEXTBEGIN
1070
    73
1070
     1
1070
    44
1040
1.0
1070
    74
1070
     0
1000
MTEXTEND
  0
MTEXT
  5
5630
330
1A
100
AcDbEntity
  8
SUNPOU
100
AcDbMText
 10
66492.78054330994
 20
58671.23897854939
 30
0.0
 40
10.5
 41
0.0
 71
     9
 72
     5
  1

1001
ACAD
1000
MTEXTBEGIN
1070
    73
1070
     1
1070
    44
1040
1.0
1070
    74
1070
     0
1000
MTEXTEND
  0
MTEXT
  5
5631
330
1A
100
AcDbEntity
  8
SUNPOU
100
AcDbMText
 10
52544.78044293397
 20
39498.83983943717
 30
0.0
 40
3.5
 41
0.0
 71
     7
 72
     5
  1

1001
ACAD
1000
MTEXTBEGIN
1070
    73
1070
     1
1070
    44
1040
1.0
1070
    74
1070
     0
1000
MTEXTEND
  0
MTEXT
  5
5632
330
1A
100
AcDbEntity
  8
SUNPOU
100
AcDbMText
 10
66237.13112570454
 20
48857.90306045851
 30
0.0
 40
10.5
 41
0.0
 71
     9
 72
     5
  1

1001
ACAD
1000
MTEXTBEGIN
1070
    73
1070
     1
1070
    44
1040
1.0
1070
    74
1070
     0
1000
MTEXTEND
  0
MTEXT
  5
5633
330
1A
100
AcDbEntity
  8
SUNPOU
100
AcDbMText
 10
74959.29869162253
 20
56273.73759199598
 30
0.0
 40
10.5
 41
0.0
 71
     9
 72
     5
  1

1001
ACAD
1000
MTEXTBEGIN
1070
    73
1070
     1
1070
    44
1040
1.0
1070
    74
1070
     0
1000
MTEXTEND
  0
MTEXT
  5
5634
330
1A
100
AcDbEntity
  8
SUNPOU
100
AcDbMText
 10
93913.0574089525
 20
73740.31364448805
 30
0.0
 40
10.5
 41
0.0
 71
     9
 72
     5
  1

1001
ACAD
1000
MTEXTBEGIN
1070
    73
1070
     1
1070
    44
1040
1.0
1070
    74
1070
     0
1000
MTEXTEND
  0
MTEXT
  5
5635
330
1A
100
AcDbEntity
  8
SUNPOU
100
AcDbMText
 10
95856.46465566192
 20
71939.26456461004
 30
0.0
 40
3.5
 41
0.0
 71
     9
 72
     5
  1

1001
ACAD
1000
MTEXTBEGIN
1070
    73
1070
     1
1070
    44
1040
1.0
1070
    74
1070
     0
1000
MTEXTEND
  0
MTEXT
  5
5636
330
1A
100
AcDbEntity
  8
SUNPOU
100
AcDbMText
 10
126982.6444882816
 20
114434.2102322673
 30
0.0
 40
10.5
 41
0.0
 71
     9
 72
     5
  1

1001
ACAD
1000
MTEXTBEGIN
1070
    73
1070
     1
1070
    44
1040
1.0
1070
    74
1070
     0
1000
MTEXTEND
  0
MTEXT
  5
5637
330
1A
100
AcDbEntity
  8
SUNPOU
100
AcDbMText
 10
128926.051734991
 20
112633.1611523893
 30
0.0
 40
3.5
 41
0.0
 71
     9
 72
     5
  1

1001
ACAD
1000
MTEXTBEGIN
1070
    73
1070
     1
1070
    44
1040
1.0
1070
    74
1070
     0
1000
MTEXTEND
  0
MTEXT
  5
5638
330
1A
100
AcDbEntity
  8
SUNPOU
100
AcDbMText
 10
77422.91219407717
 20
60267.37538724244
 30
0.0
 40
10.5
 41
0.0
 71
     9
 72
     5
  1

1001
ACAD
1000
MTEXTBEGIN
1070
    73
1070
     1
1070
    44
1040
1.0
1070
    74
1070
     0
1000
MTEXTEND
  0
MTEXT
  5
5639
330
1A
100
AcDbEntity
  8
SUNPOU
100
AcDbMText
 10
63474.91209370119
 20
41094.97624813023
 30
0.0
 40
3.5
 41
0.0
 71
     7
 72
     5
  1

1001
ACAD
1000
MTEXTBEGIN
1070
    73
1070
     1
1070
    44
1040
1.0
1070
    74
1070
     0
1000
MTEXTEND
  0
MTEXT
  5
563A
330
1A
100
AcDbEntity
  8
SUNPOU
100
AcDbMText
 10
48117.65086229006
 20
40806.11043916631
 30
0.0
 40
10.5
 41
0.0
 71
     9
 72
     5
  1

1001
ACAD
1000
MTEXTBEGIN
1070
    73
1070
     1
1070
    44
1040
1.0
1070
    74
1070
     0
1000
MTEXTEND
  0
MTEXT
  5
563B
330
1A
100
AcDbEntity
  8
SUNPOU
100
AcDbMText
 10
67071.40957962004
 20
58272.68649165838
 30
0.0
 40
10.5
 41
0.0
 71
     9
 72
     5
  1

1001
ACAD
1000
MTEXTBEGIN
1070
    73
1070
     1
1070
    44
1040
1.0
1070
    74
1070
     0
1000
MTEXTEND
  0
MTEXT
  5
563C
330
1A
100
AcDbEntity
  8
SUNPOU
100
AcDbMText
 10
69014.81682632945
 20
56471.63741178035
 30
0.0
 40
3.5
 41
0.0
 71
     9
 72
     5
  1

1001
ACAD
1000
MTEXTBEGIN
1070
    73
1070
     1
1070
    44
1040
1.0
1070
    74
1070
     0
1000
MTEXTEND
  0
MTEXT
  5
563D
330
1A
100
AcDbEntity
  8
SUNPOU
100
AcDbMText
 10
100140.9966589491
 20
98966.58307943773
 30
0.0
 40
10.5
 41
0.0
 71
     9
 72
     5
  1

1001
ACAD
1000
MTEXTBEGIN
1070
    73
1070
     1
1070
    44
1040
1.0
1070
    74
1070
     0
1000
MTEXTEND
  0
MTEXT
  5
563E
330
1A
100
AcDbEntity
  8
SUNPOU
100
AcDbMText
 10
102084.4039056586
 20
97165.53399955968
 30
0.0
 40
3.5
 41
0.0
 71
     9
 72
     5
  1

1001
ACAD
1000
MTEXTBEGIN
1070
    73
1070
     1
1070
    44
1040
1.0
1070
    74
1070
     0
1000
MTEXTEND
  0
MTEXT
  5
563F
330
1A
100
AcDbEntity
  8
SUNPOU
100
AcDbMText
 10
50581.26436474472
 20
44799.74823441275
 30
0.0
 40
10.5
 41
0.0
 71
     9
 72
     5
  1

1001
ACAD
1000
MTEXTBEGIN
1070
    73
1070
     1
1070
    44
1040
1.0
1070
    74
1070
     0
1000
MTEXTEND
  0
MTEXT
  5
5640
330
1A
100
AcDbEntity
  8
SUNPOU
100
AcDbMText
 10
36633.26426436873
 20
25627.34909530054
 30
0.0
 40
3.5
 41
0.0
 71
     7
 72
     5
  1

1001
ACAD
1000
MTEXTBEGIN
1070
    73
1070
     1
1070
    44
1040
1.0
1070
    74
1070
     0
1000
MTEXTEND
  0
MTEXT
  5
5641
330
1A
100
AcDbEntity
  8
SUNPOU
100
AcDbMText
 10
61069.42493315968
 20
52574.61207825771
 30
0.0
 40
10.5
 41
0.0
 71
     9
 72
     5
  1

1001
ACAD
1000
MTEXTBEGIN
1070
    73
1070
     1
1070
    44
1040
1.0
1070
    74
1070
     0
1000
MTEXTEND
  0
MTEXT
  5
5642
330
1A
100
AcDbEntity
  8
SUNPOU
100
AcDbMText
 10
80023.18365048967
 20
70041.18813074978
 30
0.0
 40
10.5
 41
0.0
 71
     9
 72
     5
  1

1001
ACAD
1000
MTEXTBEGIN
1070
    73
1070
     1
1070
    44
1040
1.0
1070
    74
1070
     0
1000
MTEXTEND
  0
MTEXT
  5
5643
330
1A
100
AcDbEntity
  8
SUNPOU
100
AcDbMText
 10
81966.59089719908
 20
68240.13905087176
 30
0.0
 40
3.5
 41
0.0
 71
     9
 72
     5
  1

1001
ACAD
1000
MTEXTBEGIN
1070
    73
1070
     1
1070
    44
1040
1.0
1070
    74
1070
     0
1000
MTEXTEND
  0
MTEXT
  5
5644
330
1A
100
AcDbEntity
  8
SUNPOU
100
AcDbMText
 10
113092.7707298186
 20
110735.0847185291
 30
0.0
 40
10.5
 41
0.0
 71
     9
 72
     5
  1

1001
ACAD
1000
MTEXTBEGIN
1070
    73
1070
     1
1070
    44
1040
1.0
1070
    74
1070
     0
1000
MTEXTEND
  0
MTEXT
  5
5645
330
1A
100
AcDbEntity
  8
SUNPOU
100
AcDbMText
 10
115036.1779765282
 20
108934.0356386511
 30
0.0
 40
3.5
 41
0.0
 71
     9
 72
     5
  1

1001
ACAD
1000
MTEXTBEGIN
1070
    73
1070
     1
1070
    44
1040
1.0
1070
    74
1070
     0
1000
MTEXTEND
  0
MTEXT
  5
5646
330
1A
100
AcDbEntity
  8
SUNPOU
100
AcDbMText
 10
63533.03843561432
 20
56568.24987350415
 30
0.0
 40
10.5
 41
0.0
 71
     9
 72
     5
  1

1001
ACAD
1000
MTEXTBEGIN
1070
    73
1070
     1
1070
    44
1040
1.0
1070
    74
1070
     0
1000
MTEXTEND
  0
MTEXT
  5
5647
330
1A
100
AcDbEntity
  8
SUNPOU
100
AcDbMText
 10
49585.03833523835
 20
37395.85073439196
 30
0.0
 40
3.5
 41
0.0
 71
     7
 72
     5
  1

1001
ACAD
1000
MTEXTBEGIN
1070
    73
1070
     1
1070
    44
1040
1.0
1070
    74
1070
     0
1000
MTEXTEND
  0
MTEXT
  5
5648
330
1A
100
AcDbEntity
  8
SUNPOU
100
AcDbMText
 10
77137.31641337052
 20
70907.11375048141
 30
0.0
 40
10.5
 41
0.0
 71
     9
 72
     5
  1

1001
ACAD
1000
MTEXTBEGIN
1070
    73
1070
     1
1070
    44
1040
1.0
1070
    74
1070
     0
1000
MTEXTEND
  0
MTEXT
  5
5649
330
1A
100
AcDbEntity
  8
SUNPOU
100
AcDbMText
 10
79080.72366007995
 20
69106.06467060339
 30
0.0
 40
3.5
 41
0.0
 71
     9
 72
     5
  1

1001
ACAD
1000
MTEXTBEGIN
1070
    73
1070
     1
1070
    44
1040
1.0
1070
    74
1070
     0
1000
MTEXTEND
  0
MTEXT
  5
564A
330
1A
100
AcDbEntity
  8
SUNPOU
100
AcDbMText
 10
110206.9034926996
 20
111601.0103382607
 30
0.0
 40
10.5
 41
0.0
 71
     9
 72
     5
  1

1001
ACAD
1000
MTEXTBEGIN
1070
    73
1070
     1
1070
    44
1040
1.0
1070
    74
1070
     0
1000
MTEXTEND
  0
MTEXT
  5
564B
330
1A
100
AcDbEntity
  8
SUNPOU
100
AcDbMText
 10
112150.310739409
 20
109799.9612583826
 30
0.0
 40
3.5
 41
0.0
 71
     9
 72
     5
  1

1001
ACAD
1000
MTEXTBEGIN
1070
    73
1070
     1
1070
    44
1040
1.0
1070
    74
1070
     0
1000
MTEXTEND
  0
MTEXT
  5
564C
330
1A
100
AcDbEntity
  8
SUNPOU
100
AcDbMText
 10
108819.1333204967
 20
110677.9087286761
 30
0.0
 40
10.5
 41
0.0
 71
     9
 72
     5
  1

1001
ACAD
1000
MTEXTBEGIN
1070
    73
1070
     1
1070
    44
1040
1.0
1070
    74
1070
     0
1000
MTEXTEND
  0
MTEXT
  5
564D
330
1A
100
AcDbEntity
  8
SUNPOU
100
AcDbMText
 10
110762.5405672062
 20
108876.8596487981
 30
0.0
 40
3.5
 41
0.0
 71
     9
 72
     5
  1

1001
ACAD
1000
MTEXTBEGIN
1070
    73
1070
     1
1070
    44
1040
1.0
1070
    74
1070
     0
1000
MTEXTEND
  0
MTEXT
  5
564E
330
1A
100
AcDbEntity
  8
SUNPOU
100
AcDbMText
 10
76303.05507956816
 20
68695.31179059812
 30
0.0
 40
10.5
 41
0.0
 71
     9
 72
     5
  1

1001
ACAD
1000
MTEXTBEGIN
1070
    73
1070
     1
1070
    44
1040
1.0
1070
    74
1070
     0
1000
MTEXTEND
  0
MTEXT
  5
564F
330
1A
100
AcDbEntity
  8
SUNPOU
100
AcDbMText
 10
79026.36128373271
 20
69099.99348217918
 30
0.0
 40
3.5
 41
0.0
 71
     9
 72
     5
  1

1001
ACAD
1000
MTEXTBEGIN
1070
    73
1070
     1
1070
    44
1040
1.0
1070
    74
1070
     0
1000
MTEXTEND
  0
MTEXT
  5
5650
330
1A
100
AcDbEntity
  8
SUNPOU
100
AcDbMText
 10
78234.00675862522
 20
65938.68764412436
 30
0.0
 40
10.5
 41
0.0
 71
     9
 72
     5
  1

1001
ACAD
1000
MTEXTBEGIN
1070
    73
1070
     1
1070
    44
1040
1.0
1070
    74
1070
     0
1000
MTEXTEND
  0
MTEXT
  5
5651
330
1A
100
AcDbEntity
  8
SUNPOU
100
AcDbMText
 10
80177.41400533465
 20
64137.63856424636
 30
0.0
 40
3.5
 41
0.0
 71
     9
 72
     5
  1

1001
ACAD
1000
MTEXTBEGIN
1070
    73
1070
     1
1070
    44
1040
1.0
1070
    74
1070
     0
1000
MTEXTEND
  0
MTEXT
  5
5652
330
1A
100
AcDbEntity
  8
SUNPOU
100
AcDbMText
 10
80122.50949592122
 20
64024.86668196204
 30
0.0
 40
3.5
 41
0.0
 71
     9
 72
     5
  1

1001
ACAD
1000
MTEXTBEGIN
1070
    73
1070
     1
1070
    44
1040
1.0
1070
    74
1070
     0
1000
MTEXTEND
  0
MTEXT
  5
5653
330
1A
100
AcDbEntity
  8
SUNPOU
100
AcDbMText
 10
79486.58135950133
 20
63213.54544089553
 30
0.0
 40
3.5
 41
0.0
 71
     9
 72
     5
  1

1001
ACAD
1000
MTEXTBEGIN
1070
    73
1070
     1
1070
    44
1040
1.0
1070
    74
1070
     0
1000
MTEXTEND
  0
MTEXT
  5
5654
330
1A
100
AcDbEntity
  8
SUNPOU
100
AcDbMText
 10
79485.3409400806
 20
63213.29746395804
 30
0.0
 40
10.5
 41
0.0
 71
     9
 72
     5
  1

1001
ACAD
1000
MTEXTBEGIN
1070
    73
1070
     1
1070
    44
1040
1.0
1070
    74
1070
     0
1000
MTEXTEND
  0
MTEXT
  5
5655
330
1A
100
AcDbEntity
  8
SUNPOU
100
AcDbMText
 10
85473.63363627567
 20
80747.76348077064
 30
0.0
 40
10.5
 41
0.0
 71
     9
 72
     5
  1

1001
ACAD
1000
MTEXTBEGIN
1070
    73
1070
     1
1070
    44
1040
1.0
1070
    74
1070
     0
1000
MTEXTEND
  0
MTEXT
  5
5656
330
1A
100
AcDbEntity
  8
SUNPOU
100
AcDbMText
 10
94195.80120219368
 20
88163.59801230806
 30
0.0
 40
10.5
 41
0.0
 71
     9
 72
     5
  1

1001
ACAD
1000
MTEXTBEGIN
1070
    73
1070
     1
1070
    44
1040
1.0
1070
    74
1070
     0
1000
MTEXTEND
  0
MTEXT
  5
5657
330
1A
100
AcDbEntity
  8
SUNPOU
100
AcDbMText
 10
113149.5599195236
 20
105630.1740648001
 30
0.0
 40
10.5
 41
0.0
 71
     9
 72
     5
  1

1001
ACAD
1000
MTEXTBEGIN
1070
    73
1070
     1
1070
    44
1040
1.0
1070
    74
1070
     0
1000
MTEXTEND
  0
MTEXT
  5
5658
330
1A
100
AcDbEntity
  8
SUNPOU
100
AcDbMText
 10
115092.967166233
 20
103829.1249849221
 30
0.0
 40
3.5
 41
0.0
 71
     9
 72
     5
  1

1001
ACAD
1000
MTEXTBEGIN
1070
    73
1070
     1
1070
    44
1040
1.0
1070
    74
1070
     0
1000
MTEXTEND
  0
MTEXT
  5
5659
330
1A
100
AcDbEntity
  8
SUNPOU
100
AcDbMText
 10
146219.1469988527
 20
146324.0706525794
 30
0.0
 40
10.5
 41
0.0
 71
     9
 72
     5
  1

1001
ACAD
1000
MTEXTBEGIN
1070
    73
1070
     1
1070
    44
1040
1.0
1070
    74
1070
     0
1000
MTEXTEND
  0
MTEXT
  5
565A
330
1A
100
AcDbEntity
  8
SUNPOU
100
AcDbMText
 10
148162.5542455621
 20
144523.0215727014
 30
0.0
 40
3.5
 41
0.0
 71
     9
 72
     5
  1

1001
ACAD
1000
MTEXTBEGIN
1070
    73
1070
     1
1070
    44
1040
1.0
1070
    74
1070
     0
1000
MTEXTEND
  0
MTEXT
  5
565B
330
1A
100
AcDbEntity
  8
SUNPOU
100
AcDbMText
 10
96659.41470464833
 20
92157.23580755453
 30
0.0
 40
10.5
 41
0.0
 71
     9
 72
     5
  1

1001
ACAD
1000
MTEXTBEGIN
1070
    73
1070
     1
1070
    44
1040
1.0
1070
    74
1070
     0
1000
MTEXTEND
  0
MTEXT
  5
565C
330
1A
100
AcDbEntity
  8
SUNPOU
100
AcDbMText
 10
82711.41460427234
 20
72984.83666844234
 30
0.0
 40
3.5
 41
0.0
 71
     7
 72
     5
  1

1001
ACAD
1000
MTEXTBEGIN
1070
    73
1070
     1
1070
    44
1040
1.0
1070
    74
1070
     0
1000
MTEXTEND
  0
MTEXT
  5
565D
330
1A
100
AcDbEntity
  8
SUNPOU
100
AcDbMText
 10
63696.58400126548
 20
60746.98539926055
 30
0.0
 40
10.5
 41
0.0
 71
     7
 72
     5
  1

1001
ACAD
1000
MTEXTBEGIN
1070
    73
1070
     1
1070
    44
1040
1.0
1070
    74
1070
     0
1000
MTEXTEND
  0
MTEXT
  5
565E
330
1A
100
AcDbEntity
  8
SUNPOU
100
AcDbMText
 10
51239.35573631738
 20
44902.05382116213
 30
0.0
 40
35.0
 41
0.0
 71
     9
 72
     5
  1

1001
ACAD
1000
MTEXTBEGIN
1070
    73
1070
     1
1070
    44
1040
1.0
1070
    74
1070
     0
1000
MTEXTEND
  0
MTEXT
  5
565F
330
1A
100
AcDbEntity
  8
SUNPOU
100
AcDbMText
 10
50147.84079389233
 20
45510.82923121084
 30
0.0
 40
350.0000004171781
 41
0.0
 71
     7
 72
     5
  1

1001
ACAD
1000
MTEXTBEGIN
1070
    73
1070
     1
1070
    44
1040
1.0
1070
    74
1070
     0
1000
MTEXTEND
  0
MTEXT
  5
5660
330
1A
100
AcDbEntity
  8
0
100
AcDbMText
 10
56191.79155183523
 20
43490.75159334705
 30
0.0
 40
8.0
 41
0.0
 71
     7
 72
     5
  1

1001
ACAD
1000
MTEXTBEGIN
1070
    73
1070
     1
1070
    44
1040
1.0
1070
    74
1070
     0
1000
MTEXTEND
  0
MTEXT
  5
5661
330
1A
100
AcDbEntity
  8
0
100
AcDbMText
 10
58477.14924173012
 20
44461.54188809812
 30
0.0
 40
8.0
 41
0.0
 71
     7
 72
     5
  1

1001
ACAD
1000
MTEXTBEGIN
1070
    73
1070
     1
1070
    44
1040
1.0
1070
    74
1070
     0
1000
MTEXTEND
  0
MTEXT
  5
5662
330
1A
100
AcDbEntity
  8
SUNPOU
100
AcDbMText
 10
61143.04626241227
 20
53973.65328047324
 30
0.0
 40
10.5
 41
0.0
 71
     1
 72
     5
  1

1001
ACAD
1000
MTEXTBEGIN
1070
    73
1070
     1
1070
    44
1040
1.0
1070
    74
1070
     0
1000
MTEXTEND
  0
MTEXT
  5
5663
330
1A
100
AcDbEntity
  8
SUNPOU
100
AcDbMText
 10
53212.12306647632
 20
53026.86014656028
 30
0.0
 40
10.5
 41
0.0
 71
     7
 72
     5
  1

1001
ACAD
1000
MTEXTBEGIN
1070
    73
1070
     1
1070
    44
1040
1.0
1070
    74
1070
     0
1000
MTEXTEND
  0
MTEXT
  5
5664
330
1A
100
AcDbEntity
  8
SUNPOU
100
AcDbMText
 10
56161.10673098909
 20
57927.53621840312
 30
0.0
 40
10.5
 41
0.0
 71
     7
 72
     5
  1

1001
ACAD
1000
MTEXTBEGIN
1070
    73
1070
     1
1070
    44
1040
1.0
1070
    74
1070
     0
1000
MTEXTEND
  0
MTEXT
  5
5665
330
1A
100
AcDbEntity
  8
SUNPOU
100
AcDbMText
 10
60670.18485893966
 20
60363.8369660232
 30
0.0
 40
10.5
 41
0.0
 71
     7
 72
     5
  1

1001
ACAD
1000
MTEXTBEGIN
1070
    73
1070
     1
1070
    44
1040
1.0
1070
    74
1070
     0
1000
MTEXTEND
  0
MTEXT
  5
5666
330
1A
100
AcDbEntity
  8
SUNPOU
100
AcDbMText
 10
44271.02274570799
 20
39361.43311641211
 30
0.0
 40
10.5
 41
0.0
 71
     7
 72
     5
  1

1001
ACAD
1000
MTEXTBEGIN
1070
    73
1070
     1
1070
    44
1040
1.0
1070
    74
1070
     0
1000
MTEXTEND
  0
MTEXT
  5
5667
330
1A
100
AcDbEntity
  8
SUNPOU
100
AcDbMText
 10
95462.54117960824
 20
85034.41368006038
 30
0.0
 40
10.5
 41
0.0
 71
     9
 72
     5
  1

1001
ACAD
1000
MTEXTBEGIN
1070
    73
1070
     1
1070
    44
1040
1.0
1070
    74
1070
     0
1000
MTEXTEND
  0
MTEXT
  5
5668
330
1A
100
AcDbEntity
  8
SUNPOU
100
AcDbMText
 10
104184.7087455262
 20
92450.24821159784
 30
0.0
 40
10.5
 41
0.0
 71
     9
 72
     5
  1

1001
ACAD
1000
MTEXTBEGIN
1070
    73
1070
     1
1070
    44
1040
1.0
1070
    74
1070
     0
1000
MTEXTEND
  0
MTEXT
  5
5669
330
1A
100
AcDbEntity
  8
SUNPOU
100
AcDbMText
 10
123138.4674628562
 20
109916.8242640898
 30
0.0
 40
10.5
 41
0.0
 71
     9
 72
     5
  1

1001
ACAD
1000
MTEXTBEGIN
1070
    73
1070
     1
1070
    44
1040
1.0
1070
    74
1070
     0
1000
MTEXTEND
  0
MTEXT
  5
566A
330
1A
100
AcDbEntity
  8
SUNPOU
100
AcDbMText
 10
125081.8747095656
 20
108115.7751842118
 30
0.0
 40
3.5
 41
0.0
 71
     9
 72
     5
  1

1001
ACAD
1000
MTEXTBEGIN
1070
    73
1070
     1
1070
    44
1040
1.0
1070
    74
1070
     0
1000
MTEXTEND
  0
MTEXT
  5
566B
330
1A
100
AcDbEntity
  8
SUNPOU
100
AcDbMText
 10
156208.0545421853
 20
150610.7208518691
 30
0.0
 40
10.5
 41
0.0
 71
     9
 72
     5
  1

1001
ACAD
1000
MTEXTBEGIN
1070
    73
1070
     1
1070
    44
1040
1.0
1070
    74
1070
     0
1000
MTEXTEND
  0
MTEXT
  5
566C
330
1A
100
AcDbEntity
  8
SUNPOU
100
AcDbMText
 10
158151.4617888947
 20
148809.6717719911
 30
0.0
 40
3.5
 41
0.0
 71
     9
 72
     5
  1

1001
ACAD
1000
MTEXTBEGIN
1070
    73
1070
     1
1070
    44
1040
1.0
1070
    74
1070
     0
1000
MTEXTEND
  0
MTEXT
  5
566D
330
1A
100
AcDbEntity
  8
SUNPOU
100
AcDbMText
 10
106648.3222479809
 20
96443.88600684427
 30
0.0
 40
10.5
 41
0.0
 71
     9
 72
     5
  1

1001
ACAD
1000
MTEXTBEGIN
1070
    73
1070
     1
1070
    44
1040
1.0
1070
    74
1070
     0
1000
MTEXTEND
  0
MTEXT
  5
566E
330
1A
100
AcDbEntity
  8
SUNPOU
100
AcDbMText
 10
92700.3221476049
 20
77271.48686773207
 30
0.0
 40
3.5
 41
0.0
 71
     7
 72
     5
  1

1001
ACAD
1000
MTEXTBEGIN
1070
    73
1070
     1
1070
    44
1040
1.0
1070
    74
1070
     0
1000
MTEXTEND
  0
MTEXT
  5
566F
330
1A
100
AcDbEntity
  8
SUNPOU
100
AcDbMText
 10
73685.49154459807
 20
65033.63559855027
 30
0.0
 40
10.5
 41
0.0
 71
     7
 72
     5
  1

1001
ACAD
1000
MTEXTBEGIN
1070
    73
1070
     1
1070
    44
1040
1.0
1070
    74
1070
     0
1000
MTEXTEND
  0
MTEXT
  5
5670
330
1A
100
AcDbEntity
  8
SUNPOU
100
AcDbMText
 10
61228.26327964995
 20
49188.70402045183
 30
0.0
 40
35.0
 41
0.0
 71
     9
 72
     5
  1

1001
ACAD
1000
MTEXTBEGIN
1070
    73
1070
     1
1070
    44
1040
1.0
1070
    74
1070
     0
1000
MTEXTEND
  0
MTEXT
  5
5671
330
1A
100
AcDbEntity
  8
SUNPOU
100
AcDbMText
 10
60136.74833722491
 20
49797.47943050056
 30
0.0
 40
350.0000004171781
 41
0.0
 71
     7
 72
     5
  1

1001
ACAD
1000
MTEXTBEGIN
1070
    73
1070
     1
1070
    44
1040
1.0
1070
    74
1070
     0
1000
MTEXTEND
  0
MTEXT
  5
5672
330
1A
100
AcDbEntity
  8
0
100
AcDbMText
 10
66180.69909516782
 20
47777.40179263677
 30
0.0
 40
8.0
 41
0.0
 71
     7
 72
     5
  1

1001
ACAD
1000
MTEXTBEGIN
1070
    73
1070
     1
1070
    44
1040
1.0
1070
    74
1070
     0
1000
MTEXTEND
  0
MTEXT
  5
5673
330
1A
100
AcDbEntity
  8
0
100
AcDbMText
 10
68466.05678506271
 20
48748.19208738784
 30
0.0
 40
8.0
 41
0.0
 71
     7
 72
     5
  1

1001
ACAD
1000
MTEXTBEGIN
1070
    73
1070
     1
1070
    44
1040
1.0
1070
    74
1070
     0
1000
MTEXTEND
  0
MTEXT
  5
5674
330
1A
100
AcDbEntity
  8
SUNPOU
100
AcDbMText
 10
71131.95380574485
 20
58260.30347976296
 30
0.0
 40
10.5
 41
0.0
 71
     1
 72
     5
  1

1001
ACAD
1000
MTEXTBEGIN
1070
    73
1070
     1
1070
    44
1040
1.0
1070
    74
1070
     0
1000
MTEXTEND
  0
MTEXT
  5
5675
330
1A
100
AcDbEntity
  8
SUNPOU
100
AcDbMText
 10
63201.03060980891
 20
57313.51034585003
 30
0.0
 40
10.5
 41
0.0
 71
     7
 72
     5
  1

1001
ACAD
1000
MTEXTBEGIN
1070
    73
1070
     1
1070
    44
1040
1.0
1070
    74
1070
     0
1000
MTEXTEND
  0
MTEXT
  5
5676
330
1A
100
AcDbEntity
  8
SUNPOU
100
AcDbMText
 10
66150.01427432169
 20
62214.18641769286
 30
0.0
 40
10.5
 41
0.0
 71
     7
 72
     5
  1

1001
ACAD
1000
MTEXTBEGIN
1070
    73
1070
     1
1070
    44
1040
1.0
1070
    74
1070
     0
1000
MTEXTEND
  0
MTEXT
  5
5677
330
1A
100
AcDbEntity
  8
SUNPOU
100
AcDbMText
 10
70659.09240227225
 20
64650.48716531294
 30
0.0
 40
10.5
 41
0.0
 71
     7
 72
     5
  1

1001
ACAD
1000
MTEXTBEGIN
1070
    73
1070
     1
1070
    44
1040
1.0
1070
    74
1070
     0
1000
MTEXTEND
  0
MTEXT
  5
5678
330
1A
100
AcDbEntity
  8
SUNPOU
100
AcDbMText
 10
54259.93028904056
 20
43648.08331570185
 30
0.0
 40
10.5
 41
0.0
 71
     7
 72
     5
  1

1001
ACAD
1000
MTEXTBEGIN
1070
    73
1070
     1
1070
    44
1040
1.0
1070
    74
1070
     0
1000
MTEXTEND
  0
MTEXT
  5
5679
330
1A
100
AcDbEntity
  8
SUNPOU
100
AcDbMText
 10
56070.69320041551
 20
49975.4973031804
 30
0.0
 40
10.5
 41
0.0
 71
     9
 72
     5
  1

1001
ACAD
1000
MTEXTBEGIN
1070
    73
1070
     1
1070
    44
1040
1.0
1070
    74
1070
     0
1000
MTEXTEND
  0
MTEXT
  5
567A
330
1A
100
AcDbEntity
  8
SUNPOU
100
AcDbMText
 10
64792.86076633347
 20
57391.33183471787
 30
0.0
 40
10.5
 41
0.0
 71
     9
 72
     5
  1

1001
ACAD
1000
MTEXTBEGIN
1070
    73
1070
     1
1070
    44
1040
1.0
1070
    74
1070
     0
1000
MTEXTEND
  0
MTEXT
  5
567B
330
1A
100
AcDbEntity
  8
SUNPOU
100
AcDbMText
 10
83746.61948366345
 20
74857.90788720994
 30
0.0
 40
10.5
 41
0.0
 71
     9
 72
     5
  1

1001
ACAD
1000
MTEXTBEGIN
1070
    73
1070
     1
1070
    44
1040
1.0
1070
    74
1070
     0
1000
MTEXTEND
  0
MTEXT
  5
567C
330
1A
100
AcDbEntity
  8
SUNPOU
100
AcDbMText
 10
85690.02673037287
 20
73056.85880733192
 30
0.0
 40
3.5
 41
0.0
 71
     9
 72
     5
  1

1001
ACAD
1000
MTEXTBEGIN
1070
    73
1070
     1
1070
    44
1040
1.0
1070
    74
1070
     0
1000
MTEXTEND
  0
MTEXT
  5
567D
330
1A
100
AcDbEntity
  8
SUNPOU
100
AcDbMText
 10
116816.2065629925
 20
115551.8044749892
 30
0.0
 40
10.5
 41
0.0
 71
     9
 72
     5
  1

1001
ACAD
1000
MTEXTBEGIN
1070
    73
1070
     1
1070
    44
1040
1.0
1070
    74
1070
     0
1000
MTEXTEND
  0
MTEXT
  5
567E
330
1A
100
AcDbEntity
  8
SUNPOU
100
AcDbMText
 10
118759.6138097019
 20
113750.7553951111
 30
0.0
 40
3.5
 41
0.0
 71
     9
 72
     5
  1

1001
ACAD
1000
MTEXTBEGIN
1070
    73
1070
     1
1070
    44
1040
1.0
1070
    74
1070
     0
1000
MTEXTEND
  0
MTEXT
  5
567F
330
1A
100
AcDbEntity
  8
SUNPOU
100
AcDbMText
 10
67256.47426878814
 20
61384.96962996432
 30
0.0
 40
10.5
 41
0.0
 71
     9
 72
     5
  1

1001
ACAD
1000
MTEXTBEGIN
1070
    73
1070
     1
1070
    44
1040
1.0
1070
    74
1070
     0
1000
MTEXTEND
  0
MTEXT
  5
5680
330
1A
100
AcDbEntity
  8
SUNPOU
100
AcDbMText
 10
53308.47416841216
 20
42212.57049085211
 30
0.0
 40
3.5
 41
0.0
 71
     7
 72
     5
  1

1001
ACAD
1000
MTEXTBEGIN
1070
    73
1070
     1
1070
    44
1040
1.0
1070
    74
1070
     0
1000
MTEXTEND
  0
MTEXT
  5
5681
330
1A
100
AcDbEntity
  8
SUNPOU
100
AcDbMText
 10
67000.82485118274
 20
51571.63371187343
 30
0.0
 40
10.5
 41
0.0
 71
     9
 72
     5
  1

1001
ACAD
1000
MTEXTBEGIN
1070
    73
1070
     1
1070
    44
1040
1.0
1070
    74
1070
     0
1000
MTEXTEND
  0
MTEXT
  5
5682
330
1A
100
AcDbEntity
  8
SUNPOU
100
AcDbMText
 10
75722.99241710071
 20
58987.46824341094
 30
0.0
 40
10.5
 41
0.0
 71
     9
 72
     5
  1

1001
ACAD
1000
MTEXTBEGIN
1070
    73
1070
     1
1070
    44
1040
1.0
1070
    74
1070
     0
1000
MTEXTEND
  0
MTEXT
  5
5683
330
1A
100
AcDbEntity
  8
SUNPOU
100
AcDbMText
 10
94676.75113443068
 20
76454.04429590299
 30
0.0
 40
10.5
 41
0.0
 71
     9
 72
     5
  1

1001
ACAD
1000
MTEXTBEGIN
1070
    73
1070
     1
1070
    44
1040
1.0
1070
    74
1070
     0
1000
MTEXTEND
  0
MTEXT
  5
5684
330
1A
100
AcDbEntity
  8
SUNPOU
100
AcDbMText
 10
96620.1583811401
 20
74652.99521602497
 30
0.0
 40
3.5
 41
0.0
 71
     9
 72
     5
  1

1001
ACAD
1000
MTEXTBEGIN
1070
    73
1070
     1
1070
    44
1040
1.0
1070
    74
1070
     0
1000
MTEXTEND
  0
MTEXT
  5
5685
330
1A
100
AcDbEntity
  8
SUNPOU
100
AcDbMText
 10
127746.3382137598
 20
117147.9408836822
 30
0.0
 40
10.5
 41
0.0
 71
     9
 72
     5
  1

1001
ACAD
1000
MTEXTBEGIN
1070
    73
1070
     1
1070
    44
1040
1.0
1070
    74
1070
     0
1000
MTEXTEND
  0
MTEXT
  5
5686
330
1A
100
AcDbEntity
  8
SUNPOU
100
AcDbMText
 10
129689.7454604692
 20
115346.8918038041
 30
0.0
 40
3.5
 41
0.0
 71
     9
 72
     5
  1

1001
ACAD
1000
MTEXTBEGIN
1070
    73
1070
     1
1070
    44
1040
1.0
1070
    74
1070
     0
1000
MTEXTEND
  0
MTEXT
  5
5687
330
1A
100
AcDbEntity
  8
SUNPOU
100
AcDbMText
 10
78186.60591955537
 20
62981.10603865737
 30
0.0
 40
10.5
 41
0.0
 71
     9
 72
     5
  1

1001
ACAD
1000
MTEXTBEGIN
1070
    73
1070
     1
1070
    44
1040
1.0
1070
    74
1070
     0
1000
MTEXTEND
  0
MTEXT
  5
5688
330
1A
100
AcDbEntity
  8
SUNPOU
100
AcDbMText
 10
64238.60581917939
 20
43808.70689954517
 30
0.0
 40
3.5
 41
0.0
 71
     7
 72
     5
  1

1001
ACAD
1000
MTEXTBEGIN
1070
    73
1070
     1
1070
    44
1040
1.0
1070
    74
1070
     0
1000
MTEXTEND
  0
MTEXT
  5
5689
330
1A
100
AcDbEntity
  8
SUNPOU
100
AcDbMText
 10
33428.13481137435
 20
32770.04710035563
 30
0.0
 40
10.5
 41
0.0
 71
     9
 72
     5
  1

1001
ACAD
1000
MTEXTBEGIN
1070
    73
1070
     1
1070
    44
1040
1.0
1070
    74
1070
     0
1000
MTEXTEND
  0
MTEXT
  5
568A
330
1A
100
AcDbEntity
  8
SUNPOU
100
AcDbMText
 10
52381.89352870431
 20
50236.62315284768
 30
0.0
 40
10.5
 41
0.0
 71
     9
 72
     5
  1

1001
ACAD
1000
MTEXTBEGIN
1070
    73
1070
     1
1070
    44
1040
1.0
1070
    74
1070
     0
1000
MTEXTEND
  0
MTEXT
  5
568B
330
1A
100
AcDbEntity
  8
SUNPOU
100
AcDbMText
 10
54325.30077541374
 20
48435.57407296968
 30
0.0
 40
3.5
 41
0.0
 71
     9
 72
     5
  1

1001
ACAD
1000
MTEXTBEGIN
1070
    73
1070
     1
1070
    44
1040
1.0
1070
    74
1070
     0
1000
MTEXTEND
  0
MTEXT
  5
568C
330
1A
100
AcDbEntity
  8
SUNPOU
100
AcDbMText
 10
85451.48060803342
 20
90930.51974062703
 30
0.0
 40
10.5
 41
0.0
 71
     9
 72
     5
  1

1001
ACAD
1000
MTEXTBEGIN
1070
    73
1070
     1
1070
    44
1040
1.0
1070
    74
1070
     0
1000
MTEXTEND
  0
MTEXT
  5
568D
330
1A
100
AcDbEntity
  8
SUNPOU
100
AcDbMText
 10
87394.88785474286
 20
89129.47066074901
 30
0.0
 40
3.5
 41
0.0
 71
     9
 72
     5
  1

1001
ACAD
1000
MTEXTBEGIN
1070
    73
1070
     1
1070
    44
1040
1.0
1070
    74
1070
     0
1000
MTEXTEND
  0
MTEXT
  5
568E
330
1A
100
AcDbEntity
  8
SUNPOU
100
AcDbMText
 10
35891.74831382901
 20
36763.68489560208
 30
0.0
 40
10.5
 41
0.0
 71
     9
 72
     5
  1

1001
ACAD
1000
MTEXTBEGIN
1070
    73
1070
     1
1070
    44
1040
1.0
1070
    74
1070
     0
1000
MTEXTEND
  0
MTEXT
  5
568F
330
1A
100
AcDbEntity
  8
SUNPOU
100
AcDbMText
 10
21943.74821345303
 20
17591.28575648985
 30
0.0
 40
3.5
 41
0.0
 71
     7
 72
     5
  1

1001
ACAD
1000
MTEXTBEGIN
1070
    73
1070
     1
1070
    44
1040
1.0
1070
    74
1070
     0
1000
MTEXTEND
  0
LINE
  5
10B16
330
1A
100
AcDbEntity
  8
SOUZOUSEN
100
AcDbLine
 10
-1411.591994829248
 20
1469.673489789822
 30
0.0
 11
-1423.592014829248
 21
1469.673489789822
 31
0.0
  0
LINE
  5
10B17
330
1A
100
AcDbEntity
  8
SOUZOUSEN
100
AcDbLine
 10
-1411.591994829248
 20
1477.923492789822
 30
0.0
 11
-1423.592014829248
 21
1477.923492789822
 31
0.0
  0
LINE
  5
10B18
330
1A
100
AcDbEntity
  8
SOUZOUSEN
100
AcDbLine
 10
-1411.591994829248
 20
1630.262149789822
 30
0.0
 11
-1423.592014829248
 21
1630.262149789822
 31
0.0
  0
LINE
  5
10B19
330
1A
100
AcDbEntity
  8
SOUZOUSEN
100
AcDbLine
 10
-1411.591994829248
 20
1560.782129789822
 30
0.0
 11
-1423.592014829248
 21
1560.782129789822
 31
0.0
  0
LINE
  5
10B1B
330
1A
100
AcDbEntity
  8
ZISSEN1
100
AcDbLine
 10
-1521.273084829248
 20
1558.022139789822
 30
0.0
 11
-1521.273084829248
 21
1550.022139789822
 31
0.0
  0
LINE
  5
10B1C
330
1A
100
AcDbEntity
  8
ZISSEN1
100
AcDbLine
 10
-1530.073094829248
 20
1564.222139789822
 30
0.0
 11
-1530.073094829248
 21
1550.022139789822
 31
0.0
  0
LINE
  5
10B1D
330
1A
100
AcDbEntity
  8
ZISSEN1
100
AcDbLine
 10
-1531.273094829248
 20
1642.222149789822
 30
0.0
 11
-1531.273094829248
 21
1548.822139789822
 31
0.0
  0
LINE
  5
10B1E
330
1A
100
AcDbEntity
  8
ZISSEN1
100
AcDbLine
 10
-1504.673094829248
 20
1641.022139789822
 30
0.0
 11
-1504.673094829248
 21
1550.022139789822
 31
0.0
  0
LINE
  5
10B1F
330
1A
100
AcDbEntity
  8
SOUZOUSEN
100
AcDbLine
 10
-1487.473094829248
 20
1536.022139789822
 30
0.0
 11
-1500.073094829247
 21
1536.022139789822
 31
0.0
  0
LINE
  5
10B21
330
1A
100
AcDbEntity
  8
ZISSEN1
100
AcDbLine
 10
-1484.973094829248
 20
1550.022139789822
 30
0.0
 11
-1504.673094829248
 21
1550.022139789822
 31
0.0
  0
LINE
  5
10B23
330
1A
100
AcDbEntity
  8
ZISSEN1
100
AcDbLine
 10
-1506.273114829248
 20
1550.022139789822
 30
0.0
 11
-1530.073094829248
 21
1550.022139789822
 31
0.0
  0
LINE
  5
10B24
330
1A
100
AcDbEntity
  8
ZISSEN1
100
AcDbLine
 10
-1506.273114829248
 20
1548.822139789822
 30
0.0
 11
-1531.273094829248
 21
1548.822139789822
 31
0.0
  0
LINE
  5
10B25
330
1A
100
AcDbEntity
  8
ZISSEN1
100
AcDbLine
 10
-1530.073084829248
 20
1553.272149789822
 30
0.0
 11
-1531.273094829248
 21
1553.272149789822
 31
0.0
  0
LINE
  5
10B26
330
1A
100
AcDbEntity
  8
ZISSEN1
100
AcDbLine
 10
-1519.273094829248
 20
1550.022139789822
 30
0.0
 11
-1504.673094829248
 21
1550.022139789822
 31
0.0
  0
LINE
  5
10B27
330
1A
100
AcDbEntity
  8
SOUZOUSEN
100
AcDbLine
 10
-1516.673094829248
 20
1546.022139789822
 30
0.0
 11
-1516.673094829248
 21
1534.022139789822
 31
0.0
  0
LINE
  5
10B28
330
1A
100
AcDbEntity
  8
SOUZOUSEN
100
AcDbLine
 10
-1508.423094829248
 20
1546.022139789822
 30
0.0
 11
-1508.423094829248
 21
1534.022139789822
 31
0.0
  0
LINE
  5
10B29
330
1A
100
AcDbEntity
  8
SOUZOUSEN
100
AcDbLine
 10
-1508.423094829248
 20
1534.022139789822
 30
0.0
 11
-1516.673094829248
 21
1534.022139789822
 31
0.0
  0
LINE
  5
10B2A
330
1A
100
AcDbEntity
  8
ZISSEN1
100
AcDbLine
 10
-1508.423094829248
 20
1546.022139789822
 30
0.0
 11
-1516.673094829248
 21
1546.022139789822
 31
0.0
  0
LINE
  5
10B2B
330
1A
100
AcDbEntity
  8
ZISSEN1
100
AcDbLine
 10
-1516.673094829248
 20
1548.822139789822
 30
0.0
 11
-1516.673094829248
 21
1546.022139789822
 31
0.0
  0
LINE
  5
10B2C
330
1A
100
AcDbEntity
  8
ZISSEN1
100
AcDbLine
 10
-1508.423094829248
 20
1548.822139789822
 30
0.0
 11
-1508.423094829248
 21
1546.022139789822
 31
0.0
  0
LINE
  5
10B2D
330
1A
100
AcDbEntity
  8
ZISSEN1
100
AcDbLine
 10
-1506.273094829248
 20
1550.022139789822
 30
0.0
 11
-1506.273094829248
 21
1548.822139789822
 31
0.0
  0
LINE
  5
10B2E
330
1A
100
AcDbEntity
  8
SOUZOUSEN
100
AcDbLine
 10
-1500.073094829247
 20
1545.022129789822
 30
0.0
 11
-1500.073094829247
 21
1536.022139789822
 31
0.0
  0
LINE
  5
10B30
330
1A
100
AcDbEntity
  8
ZISSEN1
100
AcDbLine
 10
-1491.773104829248
 20
1545.022129789822
 30
0.0
 11
-1500.073094829247
 21
1545.022129789822
 31
0.0
  0
LINE
  5
10B31
330
1A
100
AcDbEntity
  8
ZISSEN1
100
AcDbLine
 10
-1500.073094829247
 20
1550.022139789822
 30
0.0
 11
-1500.073094829247
 21
1545.022129789822
 31
0.0
  0
LINE
  5
10B32
330
1A
100
AcDbEntity
  8
ZISSEN1
100
AcDbLine
 10
-1491.773104829248
 20
1550.022139789822
 30
0.0
 11
-1491.773104829248
 21
1545.022129789822
 31
0.0
  0
LINE
  5
10B33
330
1A
100
AcDbEntity
  8
SOUZOUSEN
100
AcDbLine
 10
-1423.592014829248
 20
1477.923492789822
 30
0.0
 11
-1423.592014829248
 21
1469.673489789822
 31
0.0
  0
LINE
  5
10B34
330
1A
100
AcDbEntity
  8
SOUZOUSEN
100
AcDbLine
 10
-1487.473094829248
 20
1545.022129789822
 30
0.0
 11
-1487.473094829248
 21
1538.022139789822
 31
0.0
  0
LINE
  5
10B35
330
1A
100
AcDbEntity
  8
SOUZOUSEN
100
AcDbLine
 10
-1487.473094829248
 20
1538.022139789822
 30
0.0
 11
-1487.473094829248
 21
1536.022139789822
 31
0.0
  0
LINE
  5
10B36
330
1A
100
AcDbEntity
  8
ZISSEN1
100
AcDbLine
 10
-1484.973094829248
 20
1641.022139789822
 30
0.0
 11
-1504.673094829248
 21
1641.022139789822
 31
0.0
  0
LINE
  5
10B37
330
1A
100
AcDbEntity
  8
ZISSEN1
100
AcDbLine
 10
-1493.973104829248
 20
1594.022019789822
 30
0.0
 11
-1484.973094829248
 21
1594.022019789822
 31
0.0
  0
LINE
  5
10B38
330
1A
100
AcDbEntity
  8
ZISSEN1
100
AcDbLine
 10
-1493.973104829248
 20
1592.022029789822
 30
0.0
 11
-1484.973094829248
 21
1592.022029789822
 31
0.0
  0
LINE
  5
10B39
330
1A
100
AcDbEntity
  8
ZISSEN1
100
AcDbLine
 10
-1493.973104829248
 20
1590.022029789822
 30
0.0
 11
-1484.973094829248
 21
1590.022029789822
 31
0.0
  0
LINE
  5
10B3A
330
1A
100
AcDbEntity
  8
ZISSEN1
100
AcDbLine
 10
-1493.973104829248
 20
1588.022039789822
 30
0.0
 11
-1484.973094829248
 21
1588.022039789822
 31
0.0
  0
LINE
  5
10B3B
330
1A
100
AcDbEntity
  8
ZISSEN1
100
AcDbLine
 10
-1493.973104829248
 20
1586.022049789822
 30
0.0
 11
-1484.973094829248
 21
1586.022049789822
 31
0.0
  0
LINE
  5
10B3C
330
1A
100
AcDbEntity
  8
ZISSEN1
100
AcDbLine
 10
-1493.973104829248
 20
1584.022049789822
 30
0.0
 11
-1484.973094829248
 21
1584.022049789822
 31
0.0
  0
LINE
  5
10B3D
330
1A
100
AcDbEntity
  8
ZISSEN1
100
AcDbLine
 10
-1493.973104829248
 20
1582.022059789822
 30
0.0
 11
-1484.973094829248
 21
1582.022059789822
 31
0.0
  0
LINE
  5
10B3E
330
1A
100
AcDbEntity
  8
ZISSEN1
100
AcDbLine
 10
-1493.973104829248
 20
1580.022059789822
 30
0.0
 11
-1484.973094829248
 21
1580.022059789822
 31
0.0
  0
LINE
  5
10B3F
330
1A
100
AcDbEntity
  8
ZISSEN1
100
AcDbLine
 10
-1493.973104829248
 20
1578.022069789822
 30
0.0
 11
-1484.973094829248
 21
1578.022069789822
 31
0.0
  0
LINE
  5
10B40
330
1A
100
AcDbEntity
  8
ZISSEN1
100
AcDbLine
 10
-1493.973104829248
 20
1576.022079789822
 30
0.0
 11
-1484.973094829248
 21
1576.022079789822
 31
0.0
  0
LINE
  5
10B41
330
1A
100
AcDbEntity
  8
ZISSEN1
100
AcDbLine
 10
-1493.973104829248
 20
1574.022079789822
 30
0.0
 11
-1484.973094829248
 21
1574.022079789822
 31
0.0
  0
LINE
  5
10B42
330
1A
100
AcDbEntity
  8
ZISSEN1
100
AcDbLine
 10
-1493.973104829248
 20
1572.022089789822
 30
0.0
 11
-1484.973094829248
 21
1572.022089789822
 31
0.0
  0
LINE
  5
10B43
330
1A
100
AcDbEntity
  8
ZISSEN1
100
AcDbLine
 10
-1493.973104829248
 20
1570.022089789822
 30
0.0
 11
-1484.973094829248
 21
1570.022089789822
 31
0.0
  0
LINE
  5
10B44
330
1A
100
AcDbEntity
  8
ZISSEN1
100
AcDbLine
 10
-1493.973104829248
 20
1568.022099789822
 30
0.0
 11
-1484.973094829248
 21
1568.022099789822
 31
0.0
  0
LINE
  5
10B45
330
1A
100
AcDbEntity
  8
ZISSEN1
100
AcDbLine
 10
-1493.973104829248
 20
1566.022099789822
 30
0.0
 11
-1484.973094829248
 21
1566.022099789822
 31
0.0
  0
LINE
  5
10B46
330
1A
100
AcDbEntity
  8
ZISSEN1
100
AcDbLine
 10
-1493.973104829248
 20
1564.022109789822
 30
0.0
 11
-1484.973094829248
 21
1564.022109789822
 31
0.0
  0
LINE
  5
10B47
330
1A
100
AcDbEntity
  8
ZISSEN1
100
AcDbLine
 10
-1493.973104829248
 20
1562.022119789822
 30
0.0
 11
-1484.973094829248
 21
1562.022119789822
 31
0.0
  0
LINE
  5
10B48
330
1A
100
AcDbEntity
  8
ZISSEN1
100
AcDbLine
 10
-1493.973104829248
 20
1560.022119789822
 30
0.0
 11
-1484.973094829248
 21
1560.022119789822
 31
0.0
  0
LINE
  5
10B49
330
1A
100
AcDbEntity
  8
ZISSEN1
100
AcDbLine
 10
-1493.973104829248
 20
1558.02212978982
 30
0.0
 11
-1484.973094829248
 21
1558.02212978982
 31
0.0
  0
LINE
  5
10B4A
330
1A
100
AcDbEntity
  8
ZISSEN1
100
AcDbLine
 10
-1493.973104829248
 20
1556.022129789822
 30
0.0
 11
-1484.973094829248
 21
1556.022129789822
 31
0.0
  0
LINE
  5
10B4B
330
1A
100
AcDbEntity
  8
ZISSEN1
100
AcDbLine
 10
-1515.673074829248
 20
1568.231699789822
 30
0.0
 11
-1515.673074829248
 21
1622.812569789822
 31
0.0
  0
LINE
  5
10B4C
330
1A
100
AcDbEntity
  8
ZISSEN1
100
AcDbLine
 10
-1509.423094829248
 20
1570.980269789822
 30
0.0
 11
-1509.423094829248
 21
1620.064009789822
 31
0.0
  0
LINE
  5
10B4D
330
1A
100
AcDbEntity
  8
ZISSEN1
100
AcDbLine
 10
-1516.673084829248
 20
1624.762099789822
 30
0.0
 11
-1516.673084829248
 21
1566.282129789822
 31
0.0
  0
LINE
  5
10B4E
330
1A
100
AcDbEntity
  8
ZISSEN1
100
AcDbLine
 10
-1508.423094829248
 20
1630.262149789822
 30
0.0
 11
-1508.423094829248
 21
1560.782129789822
 31
0.0
  0
LINE
  5
10B4F
330
1A
100
AcDbEntity
  8
ZISSEN1
100
AcDbLine
 10
-1518.273084829248
 20
1633.022139789822
 30
0.0
 11
-1518.273084829248
 21
1558.022139789822
 31
0.0
  0
LINE
  5
10B50
330
1A
100
AcDbEntity
  8
ZISSEN1
100
AcDbLine
 10
-1516.673094829248
 20
1633.022139789822
 30
0.0
 11
-1516.673094829248
 21
1558.022139789822
 31
0.0
  0
LINE
  5
10B51
330
1A
100
AcDbEntity
  8
ZISSEN1
100
AcDbLine
 10
-1521.273084829248
 20
1564.929249789822
 30
0.0
 11
-1521.273084829248
 21
1641.022139789822
 31
0.0
  0
LINE
  5
10B52
330
1A
100
AcDbEntity
  8
ZISSEN1
100
AcDbLine
 10
-1507.873084829248
 20
1633.022139789822
 30
0.0
 11
-1507.873084829248
 21
1558.022139789822
 31
0.0
  0
LINE
  5
10B53
330
1A
100
AcDbEntity
  8
ZISSEN1
100
AcDbLine
 10
-1521.980194829248
 20
1564.222139789822
 30
0.0
 11
-1531.273094829248
 21
1564.222139789822
 31
0.0
  0
LINE
  5
10B54
330
1A
100
AcDbEntity
  8
CL1
100
AcDbLine
 10
-1525.334674829248
 20
1560.522149789822
 30
0.0
 11
-1536.078693829248
 21
1560.522149789822
 31
0.0
  0
LINE
  5
10B55
330
1A
100
AcDbEntity
  8
CL1
100
AcDbLine
 10
-1525.334674829248
 20
1555.522139789822
 30
0.0
 11
-1536.078693829248
 21
1555.522139789822
 31
0.0
  0
LINE
  5
10B56
330
1A
100
AcDbEntity
  8
ZISSEN1
100
AcDbLine
 10
-1530.073074829248
 20
1557.772139789822
 30
0.0
 11
-1531.273094829248
 21
1557.772139789822
 31
0.0
  0
LINE
  5
10B57
330
1A
100
AcDbEntity
  8
ZISSEN1
100
AcDbLine
 10
-1530.073084829248
 20
1562.222149789822
 30
0.0
 11
-1531.273084829248
 21
1562.222149789822
 31
0.0
  0
ARC
  5
10B58
330
1A
100
AcDbEntity
  8
ZISSEN1
100
AcDbCircle
 10
-1493.973104829248
 20
1577.022139789822
 30
0.0
 40
1.0
100
AcDbArc
 50
90.0
 51
270.0
  0
LINE
  5
10B59
330
1A
100
AcDbEntity
  8
ZISSEN1
100
AcDbLine
 10
-1512.923084829248
 20
1566.282129789822
 30
0.0
 11
-1512.923084829248
 21
1560.782129789822
 31
0.0
  0
LINE
  5
10B5A
330
1A
100
AcDbEntity
  8
ZISSEN1
100
AcDbLine
 10
-1516.423064829248
 20
1566.282129789822
 30
0.0
 11
-1516.423064829248
 21
1560.782129789822
 31
0.0
  0
LINE
  5
10B5B
330
1A
100
AcDbEntity
  8
ZISSEN1
100
AcDbLine
 10
-1509.423094829248
 20
1566.282129789822
 30
0.0
 11
-1509.423094829248
 21
1560.782129789822
 31
0.0
  0
LINE
  5
10B5C
330
1A
100
AcDbEntity
  8
ZISSEN1
100
AcDbLine
 10
-1516.423064829248
 20
1560.782129789822
 30
0.0
 11
-1512.423054829248
 21
1560.782129789822
 31
0.0
  0
LINE
  5
10B5D
330
1A
100
AcDbEntity
  8
ZISSEN1
100
AcDbLine
 10
-1519.273094829248
 20
1558.022139789822
 30
0.0
 11
-1507.873084829248
 21
1558.022139789822
 31
0.0
  0
LINE
  5
10B5E
330
1A
100
AcDbEntity
  8
ZISSEN1
100
AcDbLine
 10
-1517.273084829248
 20
1559.022139789822
 30
0.0
 11
-1518.273084829248
 21
1559.022139789822
 31
0.0
  0
LINE
  5
10B5F
330
1A
100
AcDbEntity
  8
ZISSEN1
100
AcDbLine
 10
-1517.273084829248
 20
1558.022139789822
 30
0.0
 11
-1519.273084829248
 21
1558.022139789822
 31
0.0
  0
LINE
  5
10B60
330
1A
100
AcDbEntity
  8
ZISSEN1
100
AcDbLine
 10
-1519.273094829248
 20
1558.022139789822
 30
0.0
 11
-1521.273084829248
 21
1558.022139789822
 31
0.0
  0
LINE
  5
10B61
330
1A
100
AcDbEntity
  8
ZISSEN1
100
AcDbLine
 10
-1517.273084829248
 20
1559.022139789822
 30
0.0
 11
-1516.673094829248
 21
1559.022139789822
 31
0.0
  0
LINE
  5
10B62
330
1A
100
AcDbEntity
  8
ZISSEN1
100
AcDbLine
 10
-1521.980194829248
 20
1564.222139789822
 30
0.0
 11
-1521.273084829248
 21
1564.929249789822
 31
0.0
  0
LINE
  5
10B63
330
1A
100
AcDbEntity
  8
ZISSEN1
100
AcDbLine
 10
-1508.423094829248
 20
1560.782129789822
 30
0.0
 11
-1512.423054829248
 21
1560.782129789822
 31
0.0
  0
LINE
  5
10B64
330
1A
100
AcDbEntity
  8
ZISSEN1
100
AcDbLine
 10
-1514.822924829248
 20
1567.705149789822
 30
0.0
 11
-1509.949644829248
 21
1570.130109789822
 31
0.0
  0
LINE
  5
10B65
330
1A
100
AcDbEntity
  8
ZISSEN1
100
AcDbLine
 10
-1508.423094829248
 20
1566.282129789822
 30
0.0
 11
-1516.673084829248
 21
1566.282129789822
 31
0.0
  0
LINE
  5
10B66
330
1A
100
AcDbEntity
  8
ZISSEN1
100
AcDbLine
 10
-1515.673074829248
 20
1568.231699789822
 30
0.0
 11
-1514.822924829248
 21
1567.705149789822
 31
0.0
  0
LINE
  5
10B67
330
1A
100
AcDbEntity
  8
ZISSEN1
100
AcDbLine
 10
-1509.423094829248
 20
1570.980269789822
 30
0.0
 11
-1509.949644829248
 21
1570.130109789822
 31
0.0
  0
ARC
  5
10B68
330
1A
100
AcDbEntity
  8
ZISSEN1
100
AcDbCircle
 10
-1493.973104829248
 20
1565.022139789822
 30
0.0
 40
1.0
100
AcDbArc
 50
90.0
 51
270.0
  0
ARC
  5
10B69
330
1A
100
AcDbEntity
  8
ZISSEN1
100
AcDbCircle
 10
-1493.973104829248
 20
1557.022139789822
 30
0.0
 40
1.0
100
AcDbArc
 50
90.0
 51
270.0
  0
ARC
  5
10B6A
330
1A
100
AcDbEntity
  8
ZISSEN1
100
AcDbCircle
 10
-1493.973104829248
 20
1561.022139789822
 30
0.0
 40
1.0
100
AcDbArc
 50
90.0
 51
270.0
  0
ARC
  5
10B6B
330
1A
100
AcDbEntity
  8
ZISSEN1
100
AcDbCircle
 10
-1493.973104829248
 20
1569.022139789822
 30
0.0
 40
1.0
100
AcDbArc
 50
90.0
 51
270.0
  0
ARC
  5
10B6C
330
1A
100
AcDbEntity
  8
ZISSEN1
100
AcDbCircle
 10
-1493.973104829248
 20
1573.022139789822
 30
0.0
 40
1.0
100
AcDbArc
 50
90.0
 51
270.0
  0
ARC
  5
10B6D
330
1A
100
AcDbEntity
  8
ZISSEN1
100
AcDbCircle
 10
-1493.973104829248
 20
1589.022139789822
 30
0.0
 40
1.0
100
AcDbArc
 50
90.0
 51
270.0
  0
ARC
  5
10B6E
330
1A
100
AcDbEntity
  8
ZISSEN1
100
AcDbCircle
 10
-1493.973104829248
 20
1581.022139789822
 30
0.0
 40
1.0
100
AcDbArc
 50
90.0
 51
270.0
  0
ARC
  5
10B6F
330
1A
100
AcDbEntity
  8
ZISSEN1
100
AcDbCircle
 10
-1493.973104829248
 20
1585.022139789822
 30
0.0
 40
1.0
100
AcDbArc
 50
89.20745799999686
 51
270.0
  0
ARC
  5
10B70
330
1A
100
AcDbEntity
  8
ZISSEN1
100
AcDbCircle
 10
-1493.973104829248
 20
1593.022139789822
 30
0.0
 40
1.0
100
AcDbArc
 50
90.0
 51
270.0
  0
LINE
  5
10B71
330
1A
100
AcDbEntity
  8
ZISSEN1
100
AcDbLine
 10
-1531.273094829248
 20
1642.222149789822
 30
0.0
 11
-1519.273094829248
 21
1642.222149789822
 31
0.0
  0
LINE
  5
10B72
330
1A
100
AcDbEntity
  8
ZISSEN1
100
AcDbLine
 10
-1521.980204829248
 20
1640.72213978982
 30
0.0
 11
-1531.273094829248
 21
1640.72213978982
 31
0.0
  0
LINE
  5
10B73
330
1A
100
AcDbEntity
  8
ZISSEN1
100
AcDbLine
 10
-1519.273094829248
 20
1641.022139789822
 30
0.0
 11
-1530.073094829248
 21
1641.022139789822
 31
0.0
  0
LINE
  5
10B74
330
1A
100
AcDbEntity
  8
CL1
100
AcDbLine
 10
-1525.334674829248
 20
1630.522159789822
 30
0.0
 11
-1536.078693829248
 21
1630.522159789822
 31
0.0
  0
LINE
  5
10B75
330
1A
100
AcDbEntity
  8
CL1
100
AcDbLine
 10
-1525.334664829248
 20
1635.522149789822
 30
0.0
 11
-1536.078693829248
 21
1635.522149789822
 31
0.0
  0
LINE
  5
10B76
330
1A
100
AcDbEntity
  8
ZISSEN1
100
AcDbLine
 10
-1530.073094829248
 20
1641.022139789822
 30
0.0
 11
-1530.073094829248
 21
1640.72213978982
 31
0.0
  0
LINE
  5
10B77
330
1A
100
AcDbEntity
  8
ZISSEN1
100
AcDbLine
 10
-1509.949644829248
 20
1620.914119789822
 30
0.0
 11
-1514.822924829248
 21
1623.339129789822
 31
0.0
  0
LINE
  5
10B78
330
1A
100
AcDbEntity
  8
ZISSEN1
100
AcDbLine
 10
-1515.673074829248
 20
1622.812569789822
 30
0.0
 11
-1514.822924829248
 21
1623.339129789822
 31
0.0
  0
LINE
  5
10B79
330
1A
100
AcDbEntity
  8
ZISSEN1
100
AcDbLine
 10
-1509.423094829248
 20
1620.064009789822
 30
0.0
 11
-1509.949644829248
 21
1620.914119789822
 31
0.0
  0
LINE
  5
10B7A
330
1A
100
AcDbEntity
  8
ZISSEN1
100
AcDbLine
 10
-1519.273094829248
 20
1641.022139789822
 30
0.0
 11
-1504.673094829248
 21
1641.022139789822
 31
0.0
  0
LINE
  5
10B7B
330
1A
100
AcDbEntity
  8
ZISSEN1
100
AcDbLine
 10
-1512.423054829248
 20
1630.262149789822
 30
0.0
 11
-1516.423064829248
 21
1630.262149789822
 31
0.0
  0
LINE
  5
10B7C
330
1A
100
AcDbEntity
  8
ZISSEN1
100
AcDbLine
 10
-1508.423094829248
 20
1624.762099789822
 30
0.0
 11
-1516.673084829248
 21
1624.762099789822
 31
0.0
  0
LINE
  5
10B7D
330
1A
100
AcDbEntity
  8
ZISSEN1
100
AcDbLine
 10
-1519.273094829248
 20
1633.022139789822
 30
0.0
 11
-1507.873084829248
 21
1633.022139789822
 31
0.0
  0
LINE
  5
10B7E
330
1A
100
AcDbEntity
  8
ZISSEN1
100
AcDbLine
 10
-1516.423064829248
 20
1630.262149789822
 30
0.0
 11
-1516.423064829248
 21
1624.762099789822
 31
0.0
  0
LINE
  5
10B7F
330
1A
100
AcDbEntity
  8
ZISSEN1
100
AcDbLine
 10
-1517.273084829248
 20
1632.022139789822
 30
0.0
 11
-1518.273084829248
 21
1632.022139789822
 31
0.0
  0
LINE
  5
10B80
330
1A
100
AcDbEntity
  8
ZISSEN1
100
AcDbLine
 10
-1517.273084829248
 20
1633.022139789822
 30
0.0
 11
-1519.273084829248
 21
1633.022139789822
 31
0.0
  0
LINE
  5
10B81
330
1A
100
AcDbEntity
  8
ZISSEN1
100
AcDbLine
 10
-1519.273094829248
 20
1633.022139789822
 30
0.0
 11
-1521.273094829248
 21
1633.022139789822
 31
0.0
  0
LINE
  5
10B82
330
1A
100
AcDbEntity
  8
ZISSEN1
100
AcDbLine
 10
-1517.273084829248
 20
1632.022139789822
 30
0.0
 11
-1516.673094829248
 21
1632.022139789822
 31
0.0
  0
LINE
  5
10B83
330
1A
100
AcDbEntity
  8
ZISSEN1
100
AcDbLine
 10
-1512.923084829248
 20
1630.262149789822
 30
0.0
 11
-1512.923084829248
 21
1624.762099789822
 31
0.0
  0
LINE
  5
10B84
330
1A
100
AcDbEntity
  8
ZISSEN1
100
AcDbLine
 10
-1509.423094829248
 20
1630.262149789822
 30
0.0
 11
-1509.423094829248
 21
1624.762099789822
 31
0.0
  0
LINE
  5
10B85
330
1A
100
AcDbEntity
  8
ZISSEN1
100
AcDbLine
 10
-1508.423094829248
 20
1630.262149789822
 30
0.0
 11
-1512.423054829248
 21
1630.262149789822
 31
0.0
  0
LINE
  5
10B86
330
1A
100
AcDbEntity
  8
ZISSEN1
100
AcDbLine
 10
-1519.273094829248
 20
1642.222149789822
 30
0.0
 11
-1519.273094829248
 21
1641.022139789822
 31
0.0
  0
LINE
  5
10B87
330
1A
100
AcDbEntity
  8
ZISSEN1
100
AcDbLine
 10
-1521.980204829248
 20
1640.72213978982
 30
0.0
 11
-1521.273094829248
 21
1640.015039789822
 31
0.0
  0
LINE
  5
10B88
330
1A
100
AcDbEntity
  8
SOUZOUSEN
100
AcDbLine
 10
-1423.592014829248
 20
1630.262149789822
 30
0.0
 11
-1423.592014829248
 21
1560.782129789822
 31
0.0
  0
LINE
  5
10B8B
330
1A
100
AcDbEntity
  8
ZISSEN1
100
AcDbLine
 10
-1483.973094829248
 20
1615.522129789821
 30
0.0
 11
-1483.973094829248
 21
1611.522129789822
 31
0.0
  0
LINE
  5
10B8C
330
1A
100
AcDbEntity
  8
ZISSEN1
100
AcDbLine
 10
-1483.973094829248
 20
1607.022119789822
 30
0.0
 11
-1483.973094829248
 21
1603.02212978982
 31
0.0
  0
LINE
  5
10B8D
330
1A
100
AcDbEntity
  8
ZISSEN1
100
AcDbLine
 10
-1483.973094829248
 20
1603.02212978982
 30
0.0
 11
-1484.973094829248
 21
1603.02212978982
 31
0.0
  0
LINE
  5
10B8E
330
1A
100
AcDbEntity
  8
ZISSEN1
100
AcDbLine
 10
-1483.973094829248
 20
1607.022119789822
 30
0.0
 11
-1484.973094829248
 21
1607.022119789822
 31
0.0
  0
LINE
  5
10B8F
330
1A
100
AcDbEntity
  8
ZISSEN1
100
AcDbLine
 10
-1483.973094829248
 20
1611.522129789822
 30
0.0
 11
-1484.973094829248
 21
1611.522129789822
 31
0.0
  0
LINE
  5
10B90
330
1A
100
AcDbEntity
  8
ZISSEN1
100
AcDbLine
 10
-1483.973094829248
 20
1615.522129789821
 30
0.0
 11
-1484.973094829248
 21
1615.522129789821
 31
0.0
  0
ARC
  5
10B92
330
1A
100
AcDbEntity
  8
ZISSEN1
100
AcDbCircle
 10
-1410.592014829248
 20
1555.522139789822
 30
0.0
 40
2.25
100
AcDbArc
 50
270.0
 51
90.0
  0
LINE
  5
10B93
330
1A
100
AcDbEntity
  8
ZISSEN1
100
AcDbLine
 10
-1378.591934829248
 20
1559.022139789822
 30
0.0
 11
-1378.591934829248
 21
1550.186749789822
 31
0.0
  0
LINE
  5
10B94
330
1A
100
AcDbEntity
  8
CL1
100
AcDbLine
 10
-1412.091994829248
 20
1559.898809789822
 30
0.0
 11
-1412.091994829248
 21
1550.386739789822
 31
0.0
  0
LINE
  5
10B95
330
1A
100
AcDbEntity
  8
ZISSEN1
100
AcDbLine
 10
-1356.591864829248
 20
1559.022139789822
 30
0.0
 11
-1356.591864829248
 21
1550.186749789822
 31
0.0
  0
LINE
  5
10B96
330
1A
100
AcDbEntity
  8
ZISSEN1
100
AcDbLine
 10
-1358.591874829248
 20
1559.022139789822
 30
0.0
 11
-1358.591874829248
 21
1550.186749789822
 31
0.0
  0
LINE
  5
10B97
330
1A
100
AcDbEntity
  8
ZISSEN1
100
AcDbLine
 10
-1360.591874829248
 20
1559.022139789822
 30
0.0
 11
-1360.591874829248
 21
1550.186749789822
 31
0.0
  0
LINE
  5
10B98
330
1A
100
AcDbEntity
  8
ZISSEN1
100
AcDbLine
 10
-1362.591884829248
 20
1559.022139789822
 30
0.0
 11
-1362.591884829248
 21
1550.186749789822
 31
0.0
  0
LINE
  5
10B99
330
1A
100
AcDbEntity
  8
ZISSEN1
100
AcDbLine
 10
-1364.591894829248
 20
1559.022139789822
 30
0.0
 11
-1364.591894829248
 21
1550.186749789822
 31
0.0
  0
LINE
  5
10B9A
330
1A
100
AcDbEntity
  8
ZISSEN1
100
AcDbLine
 10
-1366.591894829248
 20
1559.022139789822
 30
0.0
 11
-1366.591894829248
 21
1550.186749789822
 31
0.0
  0
LINE
  5
10B9B
330
1A
100
AcDbEntity
  8
ZISSEN1
100
AcDbLine
 10
-1368.591904829248
 20
1559.022139789822
 30
0.0
 11
-1368.591904829248
 21
1550.186749789822
 31
0.0
  0
LINE
  5
10B9C
330
1A
100
AcDbEntity
  8
ZISSEN1
100
AcDbLine
 10
-1370.591914829248
 20
1559.022139789822
 30
0.0
 11
-1370.591914829248
 21
1550.186749789822
 31
0.0
  0
LINE
  5
10B9D
330
1A
100
AcDbEntity
  8
ZISSEN1
100
AcDbLine
 10
-1372.591914829248
 20
1559.022139789822
 30
0.0
 11
-1372.591914829248
 21
1550.186749789822
 31
0.0
  0
LINE
  5
10B9E
330
1A
100
AcDbEntity
  8
ZISSEN1
100
AcDbLine
 10
-1374.591924829248
 20
1559.022139789822
 30
0.0
 11
-1374.591924829248
 21
1550.186749789822
 31
0.0
  0
LINE
  5
10B9F
330
1A
100
AcDbEntity
  8
ZISSEN1
100
AcDbLine
 10
-1376.591934829248
 20
1559.022139789822
 30
0.0
 11
-1376.591934829248
 21
1550.186749789822
 31
0.0
  0
LINE
  5
10BA0
330
1A
100
AcDbEntity
  8
ZISSEN1
100
AcDbLine
 10
-1380.591944829248
 20
1559.022139789822
 30
0.0
 11
-1380.591944829248
 21
1550.186749789822
 31
0.0
  0
LINE
  5
10BA1
330
1A
100
AcDbEntity
  8
ZISSEN1
100
AcDbLine
 10
-1382.591954829248
 20
1559.022139789822
 30
0.0
 11
-1382.591954829248
 21
1550.186749789822
 31
0.0
  0
LINE
  5
10BA2
330
1A
100
AcDbEntity
  8
ZISSEN1
100
AcDbLine
 10
-1303.592014829248
 20
1641.022139789822
 30
0.0
 11
-1303.592014829248
 21
1550.022139789822
 31
0.0
  0
LINE
  5
10BA3
330
1A
100
AcDbEntity
  8
ZISSEN1
100
AcDbLine
 10
-1407.592004829248
 20
1641.022139789822
 30
0.0
 11
-1407.592004829248
 21
1550.022139789822
 31
0.0
  0
LINE
  5
10BA4
330
1A
100
AcDbEntity
  8
CL1
100
AcDbLine
 10
-1343.092014829248
 20
1462.454575789822
 30
0.0
 11
-1343.092014829248
 21
1447.049170789822
 31
0.0
  0
LINE
  5
10BA5
330
1A
100
AcDbEntity
  8
CL1
100
AcDbLine
 10
-1368.092004829247
 20
1462.454575789822
 30
0.0
 11
-1368.092004829247
 21
1447.049170789822
 31
0.0
  0
LINE
  5
10BA6
330
1A
100
AcDbEntity
  8
CL1
100
AcDbLine
 10
-1299.092024829248
 20
1462.454575789822
 30
0.0
 11
-1299.092024829248
 21
1447.049170789822
 31
0.0
  0
LINE
  5
10BA7
330
1A
100
AcDbEntity
  8
CL1
100
AcDbLine
 10
-1412.091994829248
 20
1462.454575789822
 30
0.0
 11
-1412.091994829248
 21
1447.049170789822
 31
0.0
  0
LINE
  5
10BA8
330
1A
100
AcDbEntity
  8
ZISSEN1
100
AcDbLine
 10
-1407.592004829248
 20
1465.2735
 30
0.0
 11
-1407.592004829248
 21
1456.0735
 31
0.0
  0
LINE
  5
10BA9
330
1A
100
AcDbEntity
  8
ZISSEN1
100
AcDbLine
 10
-1303.592014829248
 20
1465.073490789822
 30
0.0
 11
-1303.592014829248
 21
1455.073488789822
 31
0.0
  0
LINE
  5
10BAA
330
1A
100
AcDbEntity
  8
ZISSEN1
100
AcDbLine
 10
-1415.592014829248
 20
1455.073488789822
 30
0.0
 11
-1295.592014829248
 21
1455.073488789822
 31
0.0
  0
LINE
  5
10BAB
330
1A
100
AcDbEntity
  8
ZISSEN1
100
AcDbLine
 10
-1415.591868364209
 20
1456.074787416623
 30
0.0
 11
-1407.591858364209
 21
1456.074787416623
 31
0.0
  0
LINE
  5
10BAC
330
1A
100
AcDbEntity
  8
ZISSEN1
100
AcDbLine
 10
-1415.592014829248
 20
1456.0735
 30
0.0
 11
-1415.592014829248
 21
1455.073488789822
 31
0.0
  0
LINE
  5
10BAD
330
1A
100
AcDbEntity
  8
ZISSEN1
100
AcDbLine
 10
-1303.592014829248
 20
1456.074791169749
 30
0.0
 11
-1295.592014829248
 21
1456.074791169749
 31
0.0
  0
LINE
  5
10BAE
330
1A
100
AcDbEntity
  8
ZISSEN1
100
AcDbLine
 10
-1295.592014829248
 20
1456.074791169749
 30
0.0
 11
-1295.592014829248
 21
1455.073494789822
 31
0.0
  0
ARC
  5
10BAF
330
1A
100
AcDbEntity
  8
ZISSEN1
100
AcDbCircle
 10
-1357.592014829248
 20
1492.373495789822
 30
0.0
 40
1.0
100
AcDbArc
 50
180.0
 51
0.0
  0
LINE
  5
10BB1
330
1A
100
AcDbEntity
  8
ZISSEN1
100
AcDbLine
 10
-1388.972014829248
 20
1546.022139789822
 30
0.0
 11
-1353.492034829248
 21
1546.022139789822
 31
0.0
  0
LINE
  5
10BB2
330
1A
100
AcDbEntity
  8
ZISSEN1
100
AcDbLine
 10
-1328.301574829248
 20
1470.673486789822
 30
0.0
 11
-1382.882444829248
 21
1470.673486789822
 31
0.0
  0
LINE
  5
10BB3
330
1A
100
AcDbEntity
  8
ZISSEN1
100
AcDbLine
 10
-1331.050134829248
 20
1476.923495789822
 30
0.0
 11
-1380.133884829248
 21
1476.923495789822
 31
0.0
  0
LINE
  5
10BB4
330
1A
100
AcDbEntity
  8
ZISSEN1
100
AcDbLine
 10
-1384.831974829248
 20
1469.673489789822
 30
0.0
 11
-1326.351994829248
 21
1469.673489789822
 31
0.0
  0
LINE
  5
10BB5
330
1A
100
AcDbEntity
  8
ZISSEN1
100
AcDbLine
 10
-1390.332014829247
 20
1477.923492789822
 30
0.0
 11
-1320.852004829248
 21
1477.923492789822
 31
0.0
  0
LINE
  5
10BB6
330
1A
100
AcDbEntity
  8
ZISSEN1
100
AcDbLine
 10
-1386.092014829248
 20
1486.273491789822
 30
0.0
 11
-1314.092024829248
 21
1486.273491789822
 31
0.0
  0
LINE
  5
10BB7
330
1A
100
AcDbEntity
  8
ZISSEN1
100
AcDbLine
 10
-1391.592004829248
 20
1469.673489789822
 30
0.0
 11
-1319.592014829248
 21
1469.673489789822
 31
0.0
  0
LINE
  5
10BB8
330
1A
100
AcDbEntity
  8
ZISSEN1
100
AcDbLine
 10
-1391.592004829248
 20
1468.073488789822
 30
0.0
 11
-1319.592014829248
 21
1468.073488789822
 31
0.0
  0
LINE
  5
10BB9
330
1A
100
AcDbEntity
  8
ZISSEN1
100
AcDbLine
 10
-1398.592004829248
 20
1466.073487789822
 30
0.0
 11
-1312.592014829248
 21
1466.073487789822
 31
0.0
  0
LINE
  5
10BBA
330
1A
100
AcDbEntity
  8
ZISSEN1
100
AcDbLine
 10
-1391.592004829248
 20
1478.473489789822
 30
0.0
 11
-1319.592014829248
 21
1478.473489789822
 31
0.0
  0
LINE
  5
10BBB
330
1A
100
AcDbEntity
  8
ZISSEN1
100
AcDbLine
 10
-1386.592014829248
 20
1484.673489789822
 30
0.0
 11
-1313.592024829248
 21
1484.673489789822
 31
0.0
  0
LINE
  5
10BBC
330
1A
100
AcDbEntity
  8
ZISSEN1
100
AcDbLine
 10
-1386.592014829248
 20
1486.673490789822
 30
0.0
 11
-1354.592034829248
 21
1486.673490789822
 31
0.0
  0
LINE
  5
10BBD
330
1A
100
AcDbEntity
  8
ZISSEN1
100
AcDbLine
 10
-1387.884884829247
 20
1481.673492789822
 30
0.0
 11
-1303.592014829248
 21
1481.673492789822
 31
0.0
  0
LINE
  5
10BBE
330
1A
100
AcDbEntity
  8
ZISSEN1
100
AcDbLine
 10
-1407.592004829248
 20
1501.373493789822
 30
0.0
 11
-1303.592014829248
 21
1501.373493789822
 31
0.0
  0
LINE
  5
10BBF
330
1A
100
AcDbEntity
  8
ZISSEN1
100
AcDbLine
 10
-1407.592004829248
 20
1550.022139789822
 30
0.0
 11
-1303.592014829248
 21
1550.022139789822
 31
0.0
  0
LINE
  5
10BC0
330
1A
100
AcDbEntity
  8
ZISSEN1
100
AcDbLine
 10
-1405.212004829248
 20
1487.273494789822
 30
0.0
 11
-1389.972014829248
 21
1487.273494789822
 31
0.0
  0
LINE
  5
10BC1
330
1A
100
AcDbEntity
  8
ZISSEN1
100
AcDbLine
 10
-1405.212004829248
 20
1493.573485789822
 30
0.0
 11
-1389.972014829248
 21
1493.573485789822
 31
0.0
  0
LINE
  5
10BC2
330
1A
100
AcDbEntity
  8
ZISSEN1
100
AcDbLine
 10
-1406.212014829248
 20
1494.573488789822
 30
0.0
 11
-1388.972014829248
 21
1494.573488789822
 31
0.0
  0
LINE
  5
10BC3
330
1A
100
AcDbEntity
  8
ZISSEN1
100
AcDbLine
 10
-1406.212014829248
 20
1486.273491789822
 30
0.0
 11
-1388.972014829248
 21
1486.273491789822
 31
0.0
  0
LINE
  5
10BC4
330
1A
100
AcDbEntity
  8
ZISSEN1
100
AcDbLine
 10
-1388.591994829248
 20
1486.273491789822
 30
0.0
 11
-1406.092004829248
 21
1486.273491789822
 31
0.0
  0
LINE
  5
10BC5
330
1A
100
AcDbEntity
  8
ZISSEN1
100
AcDbLine
 10
-1388.591994829248
 20
1484.673489789822
 30
0.0
 11
-1406.092004829248
 21
1484.673489789822
 31
0.0
  0
LINE
  5
10BC6
330
1A
100
AcDbEntity
  8
ZISSEN1
100
AcDbLine
 10
-1406.592004829248
 20
1497.373493789822
 30
0.0
 11
-1388.591994829248
 21
1497.373493789822
 31
0.0
  0
LINE
  5
10BC7
330
1A
100
AcDbEntity
  8
ZISSEN1
100
AcDbLine
 10
-1393.555734829248
 20
1481.673492789822
 30
0.0
 11
-1387.884884829247
 21
1481.673492789822
 31
0.0
  0
LINE
  5
10BC8
330
1A
100
AcDbEntity
  8
ZISSEN1
100
AcDbLine
 10
-1406.592004829248
 20
1497.373493789822
 30
0.0
 11
-1406.592004829248
 21
1481.673492789822
 31
0.0
  0
LINE
  5
10BC9
330
1A
100
AcDbEntity
  8
ZISSEN1
100
AcDbLine
 10
-1407.592004829248
 20
1501.373493789822
 30
0.0
 11
-1407.592004829248
 21
1481.673492789822
 31
0.0
  0
LINE
  5
10BCA
330
1A
100
AcDbEntity
  8
ZISSEN1
100
AcDbLine
 10
-1407.592004829248
 20
1479.366381789822
 30
0.0
 11
-1406.884894829248
 21
1480.073490789822
 31
0.0
  0
LINE
  5
10BCB
330
1A
100
AcDbEntity
  8
ZISSEN1
100
AcDbLine
 10
-1407.592004829248
 20
1481.673492789822
 30
0.0
 11
-1393.555734829248
 21
1481.673492789822
 31
0.0
  0
LINE
  5
10BCC
330
1A
100
AcDbEntity
  8
ZISSEN1
100
AcDbLine
 10
-1411.591994829248
 20
1477.923498789822
 30
0.0
 11
-1411.591994829248
 21
1469.673489789822
 31
0.0
  0
LINE
  5
10BCD
330
1A
100
AcDbEntity
  8
ZISSEN1
100
AcDbLine
 10
-1407.592004829248
 20
1479.366381789822
 30
0.0
 11
-1407.592004829248
 21
1465.073490789822
 31
0.0
  0
LINE
  5
10BCE
330
1A
100
AcDbEntity
  8
ZISSEN1
100
AcDbLine
 10
-1407.592004829248
 20
1469.673489789822
 30
0.0
 11
-1411.591994829248
 21
1469.673489789822
 31
0.0
  0
LINE
  5
10BCF
330
1A
100
AcDbEntity
  8
ZISSEN1
100
AcDbLine
 10
-1407.592004829248
 20
1477.923492789822
 30
0.0
 11
-1411.591994829248
 21
1477.923492789822
 31
0.0
  0
LINE
  5
10BD0
330
1A
100
AcDbEntity
  8
ZISSEN1
100
AcDbLine
 10
-1407.592004829248
 20
1479.366381789822
 30
0.0
 11
-1407.592004829248
 21
1481.673492789822
 31
0.0
  0
CIRCLE
  5
10BD1
330
1A
100
AcDbEntity
  8
ZISSEN1
100
AcDbCircle
 10
-1402.592014829248
 20
1473.673490789822
 30
0.0
 40
2.0
  0
LINE
  5
10BD2
330
1A
100
AcDbEntity
  8
ZISSEN1
100
AcDbLine
 10
-1398.592004829248
 20
1479.366381789822
 30
0.0
 11
-1398.592004829248
 21
1466.073487789822
 31
0.0
  0
LINE
  5
10BD3
330
1A
100
AcDbEntity
  8
ZISSEN1
100
AcDbLine
 10
-1391.592004829248
 20
1478.473489789822
 30
0.0
 11
-1391.592004829248
 21
1470.073488789822
 31
0.0
  0
LINE
  5
10BD4
330
1A
100
AcDbEntity
  8
ZISSEN1
100
AcDbLine
 10
-1391.592004829248
 20
1466.073487789822
 30
0.0
 11
-1391.592004829248
 21
1468.073488789822
 31
0.0
  0
LINE
  5
10BD5
330
1A
100
AcDbEntity
  8
ZISSEN1
100
AcDbLine
 10
-1391.592004829248
 20
1469.673489789822
 30
0.0
 11
-1397.092024829247
 21
1469.673489789822
 31
0.0
  0
LINE
  5
10BD6
330
1A
100
AcDbEntity
  8
ZISSEN1
100
AcDbLine
 10
-1397.592024829248
 20
1468.073488789822
 30
0.0
 11
-1391.592004829248
 21
1468.073488789822
 31
0.0
  0
LINE
  5
10BD7
330
1A
100
AcDbEntity
  8
ZISSEN1
100
AcDbLine
 10
-1397.592024829248
 20
1470.073488789822
 30
0.0
 11
-1391.592004829248
 21
1470.073488789822
 31
0.0
  0
LINE
  5
10BD8
330
1A
100
AcDbEntity
  8
ZISSEN1
100
AcDbLine
 10
-1397.092024829247
 20
1469.673489789822
 30
0.0
 11
-1397.092024829247
 21
1468.073488789822
 31
0.0
  0
LINE
  5
10BD9
330
1A
100
AcDbEntity
  8
ZISSEN1
100
AcDbLine
 10
-1397.592024829248
 20
1470.073488789822
 30
0.0
 11
-1397.592024829248
 21
1468.073488789822
 31
0.0
  0
LINE
  5
10BDA
330
1A
100
AcDbEntity
  8
ZISSEN1
100
AcDbLine
 10
-1399.299114829248
 20
1480.073490789822
 30
0.0
 11
-1398.592004829248
 21
1479.366381789822
 31
0.0
  0
LINE
  5
10BDB
330
1A
100
AcDbEntity
  8
ZISSEN1
100
AcDbLine
 10
-1399.299114829248
 20
1480.073490789822
 30
0.0
 11
-1406.884894829248
 21
1480.073490789822
 31
0.0
  0
LINE
  5
10BDC
330
1A
100
AcDbEntity
  8
ZISSEN1
100
AcDbLine
 10
-1405.212004829248
 20
1493.573485789822
 30
0.0
 11
-1405.212004829248
 21
1487.273494789822
 31
0.0
  0
LINE
  5
10BDD
330
1A
100
AcDbEntity
  8
ZISSEN1
100
AcDbLine
 10
-1406.212014829248
 20
1494.573488789822
 30
0.0
 11
-1406.212014829248
 21
1486.273491789822
 31
0.0
  0
LINE
  5
10BDE
330
1A
100
AcDbEntity
  8
ZISSEN1
100
AcDbLine
 10
-1406.092004829248
 20
1486.273491789822
 30
0.0
 11
-1406.092004829248
 21
1484.673489789822
 31
0.0
  0
LINE
  5
10BE0
330
1A
100
AcDbEntity
  8
ZISSEN1
100
AcDbLine
 10
-1406.592004829248
 20
1497.373493789822
 30
0.0
 11
-1406.592004829248
 21
1501.373493789822
 31
0.0
  0
LINE
  5
10BE1
330
1A
100
AcDbEntity
  8
ZISSEN1
100
AcDbLine
 10
-1391.092004829248
 20
1502.373493789822
 30
0.0
 11
-1391.092004829248
 21
1501.373496789822
 31
0.0
  0
LINE
  5
10BE2
330
1A
100
AcDbEntity
  8
ZISSEN1
100
AcDbLine
 10
-1395.092014829248
 20
1502.373493789822
 30
0.0
 11
-1395.092014829248
 21
1501.373496789822
 31
0.0
  0
LINE
  5
10BE3
330
1A
100
AcDbEntity
  8
ZISSEN1
100
AcDbLine
 10
-1395.092014829248
 20
1502.373493789822
 30
0.0
 11
-1391.092004829248
 21
1502.373493789822
 31
0.0
  0
LINE
  5
10BE4
330
1A
100
AcDbEntity
  8
ZISSEN1
100
AcDbLine
 10
-1388.591994829248
 20
1482.380600789822
 30
0.0
 11
-1388.591994829248
 21
1497.373493789822
 31
0.0
  0
LINE
  5
10BE5
330
1A
100
AcDbEntity
  8
ZISSEN1
100
AcDbLine
 10
-1390.332014829247
 20
1473.923491789822
 30
0.0
 11
-1390.332014829247
 21
1469.923490789822
 31
0.0
  0
LINE
  5
10BE6
330
1A
100
AcDbEntity
  8
ZISSEN1
100
AcDbLine
 10
-1380.983984829248
 20
1476.396949789822
 30
0.0
 11
-1383.408994829248
 21
1471.523634789822
 31
0.0
  0
LINE
  5
10BE7
330
1A
100
AcDbEntity
  8
ZISSEN1
100
AcDbLine
 10
-1384.831974829248
 20
1477.923492789822
 30
0.0
 11
-1384.831974829248
 21
1469.673489789822
 31
0.0
  0
LINE
  5
10BE8
330
1A
100
AcDbEntity
  8
ZISSEN1
100
AcDbLine
 10
-1390.332014829247
 20
1469.923490789822
 30
0.0
 11
-1384.831974829248
 21
1469.923490789822
 31
0.0
  0
LINE
  5
10BE9
330
1A
100
AcDbEntity
  8
ZISSEN1
100
AcDbLine
 10
-1382.882444829248
 20
1470.673486789822
 30
0.0
 11
-1383.408994829248
 21
1471.523634789822
 31
0.0
  0
LINE
  5
10BEA
330
1A
100
AcDbEntity
  8
ZISSEN1
100
AcDbLine
 10
-1390.332014829247
 20
1473.423489789822
 30
0.0
 11
-1384.831974829248
 21
1473.423489789822
 31
0.0
  0
LINE
  5
10BEB
330
1A
100
AcDbEntity
  8
ZISSEN1
100
AcDbLine
 10
-1390.332014829247
 20
1476.923488789822
 30
0.0
 11
-1384.831974829248
 21
1476.923488789822
 31
0.0
  0
LINE
  5
10BEC
330
1A
100
AcDbEntity
  8
ZISSEN1
100
AcDbLine
 10
-1390.332014829247
 20
1477.923492789822
 30
0.0
 11
-1390.332014829247
 21
1473.923491789822
 31
0.0
  0
LINE
  5
10BED
330
1A
100
AcDbEntity
  8
ZISSEN1
100
AcDbLine
 10
-1387.884884829247
 20
1481.673492789822
 30
0.0
 11
-1388.591994829248
 21
1482.380600789822
 31
0.0
  0
LINE
  5
10BEE
330
1A
100
AcDbEntity
  8
ZISSEN1
100
AcDbLine
 10
-1380.133884829248
 20
1476.923495789822
 30
0.0
 11
-1380.983984829248
 21
1476.396949789822
 31
0.0
  0
ARC
  5
10BEF
330
1A
100
AcDbEntity
  8
ZISSEN1
100
AcDbCircle
 10
-1373.591974829248
 20
1492.373495789822
 30
0.0
 40
1.0
100
AcDbArc
 50
180.0
 51
0.0
  0
LINE
  5
10BF0
330
1A
100
AcDbEntity
  8
ZISSEN1
100
AcDbLine
 10
-1374.591974829248
 20
1492.373495789822
 30
0.0
 11
-1374.591974829248
 21
1501.373493789822
 31
0.0
  0
LINE
  5
10BF1
330
1A
100
AcDbEntity
  8
ZISSEN1
100
AcDbLine
 10
-1376.591954829248
 20
1492.373495789822
 30
0.0
 11
-1376.591954829248
 21
1501.373493789822
 31
0.0
  0
LINE
  5
10BF2
330
1A
100
AcDbEntity
  8
ZISSEN1
100
AcDbLine
 10
-1378.591964829248
 20
1492.373495789822
 30
0.0
 11
-1378.591964829248
 21
1501.373493789822
 31
0.0
  0
LINE
  5
10BF3
330
1A
100
AcDbEntity
  8
ZISSEN1
100
AcDbLine
 10
-1380.591944829248
 20
1492.373495789822
 30
0.0
 11
-1380.591944829248
 21
1501.373493789822
 31
0.0
  0
LINE
  5
10BF4
330
1A
100
AcDbEntity
  8
ZISSEN1
100
AcDbLine
 10
-1382.591954829248
 20
1492.373495789822
 30
0.0
 11
-1382.591954829248
 21
1501.373493789822
 31
0.0
  0
ARC
  5
10BF5
330
1A
100
AcDbEntity
  8
ZISSEN1
100
AcDbCircle
 10
-1381.591944829247
 20
1492.373495789822
 30
0.0
 40
1.0
100
AcDbArc
 50
180.0
 51
0.0
  0
LINE
  5
10BF6
330
1A
100
AcDbEntity
  8
ZISSEN1
100
AcDbLine
 10
-1389.972014829248
 20
1493.573485789822
 30
0.0
 11
-1389.972014829248
 21
1487.273494789822
 31
0.0
  0
LINE
  5
10BF7
330
1A
100
AcDbEntity
  8
ZISSEN1
100
AcDbLine
 10
-1388.972014829248
 20
1494.573488789822
 30
0.0
 11
-1388.972014829248
 21
1486.273491789822
 31
0.0
  0
LINE
  5
10BF8
330
1A
100
AcDbEntity
  8
ZISSEN1
100
AcDbLine
 10
-1386.092014829248
 20
1486.273491789822
 30
0.0
 11
-1386.592014829248
 21
1486.273491789822
 31
0.0
  0
LINE
  5
10BF9
330
1A
100
AcDbEntity
  8
ZISSEN1
100
AcDbLine
 10
-1386.092014829248
 20
1486.273491789822
 30
0.0
 11
-1386.092014829248
 21
1484.673489789822
 31
0.0
  0
LINE
  5
10BFA
330
1A
100
AcDbEntity
  8
ZISSEN1
100
AcDbLine
 10
-1386.592014829248
 20
1486.673490789822
 30
0.0
 11
-1386.592014829248
 21
1484.673489789822
 31
0.0
  0
ARC
  5
10BFB
330
1A
100
AcDbEntity
  8
ZISSEN1
100
AcDbCircle
 10
-1377.591954829248
 20
1492.373495789822
 30
0.0
 40
1.0
100
AcDbArc
 50
180.0
 51
0.0
  0
LINE
  5
10BFC
330
1A
100
AcDbEntity
  8
ZISSEN1
100
AcDbLine
 10
-1376.092004829247
 20
1502.373500789822
 30
0.0
 11
-1376.092004829247
 21
1501.373496789822
 31
0.0
  0
LINE
  5
10BFD
330
1A
100
AcDbEntity
  8
ZISSEN1
100
AcDbLine
 10
-1380.092014829248
 20
1502.373493789822
 30
0.0
 11
-1380.092014829248
 21
1501.373496789822
 31
0.0
  0
LINE
  5
10BFE
330
1A
100
AcDbEntity
  8
ZISSEN1
100
AcDbLine
 10
-1380.092014829248
 20
1502.373493789822
 30
0.0
 11
-1376.092004829247
 21
1502.373493789822
 31
0.0
  0
LINE
  5
10BFF
330
1A
100
AcDbEntity
  8
ZISSEN1
100
AcDbLine
 10
-1372.591964829248
 20
1492.373495789822
 30
0.0
 11
-1372.591964829248
 21
1501.373493789822
 31
0.0
  0
LINE
  5
10C00
330
1A
100
AcDbEntity
  8
ZISSEN1
100
AcDbLine
 10
-1370.591984829248
 20
1492.373495789822
 30
0.0
 11
-1370.591984829248
 21
1501.373493789822
 31
0.0
  0
LINE
  5
10C01
330
1A
100
AcDbEntity
  8
ZISSEN1
100
AcDbLine
 10
-1358.592024829248
 20
1492.373495789822
 30
0.0
 11
-1358.592024829248
 21
1501.373493789822
 31
0.0
  0
LINE
  5
10C02
330
1A
100
AcDbEntity
  8
ZISSEN1
100
AcDbLine
 10
-1360.592004829248
 20
1492.373495789822
 30
0.0
 11
-1360.592004829248
 21
1501.373493789822
 31
0.0
  0
LINE
  5
10C03
330
1A
100
AcDbEntity
  8
ZISSEN1
100
AcDbLine
 10
-1362.592004829248
 20
1492.373495789822
 30
0.0
 11
-1362.592004829248
 21
1501.373493789822
 31
0.0
  0
LINE
  5
10C04
330
1A
100
AcDbEntity
  8
ZISSEN1
100
AcDbLine
 10
-1364.591994829248
 20
1492.373495789822
 30
0.0
 11
-1364.591994829248
 21
1501.373493789822
 31
0.0
  0
LINE
  5
10C05
330
1A
100
AcDbEntity
  8
ZISSEN1
100
AcDbLine
 10
-1366.591994829248
 20
1492.373495789822
 30
0.0
 11
-1366.591994829248
 21
1501.373493789822
 31
0.0
  0
LINE
  5
10C06
330
1A
100
AcDbEntity
  8
ZISSEN1
100
AcDbLine
 10
-1368.591974829248
 20
1492.373495789822
 30
0.0
 11
-1368.591974829248
 21
1501.373493789822
 31
0.0
  0
ARC
  5
10C07
330
1A
100
AcDbEntity
  8
ZISSEN1
100
AcDbCircle
 10
-1365.591994829248
 20
1492.373495789822
 30
0.0
 40
1.0
100
AcDbArc
 50
180.0
 51
359.9998399999968
  0
ARC
  5
10C08
330
1A
100
AcDbEntity
  8
ZISSEN1
100
AcDbCircle
 10
-1369.591984829248
 20
1492.373495789822
 30
0.0
 40
1.0
100
AcDbArc
 50
180.0
 51
0.0
  0
ARC
  5
10C09
330
1A
100
AcDbEntity
  8
ZISSEN1
100
AcDbCircle
 10
-1361.592004829248
 20
1492.373495789822
 30
0.0
 40
1.0
100
AcDbArc
 50
180.0
 51
0.0
  0
LINE
  5
10C0A
330
1A
100
AcDbEntity
  8
ZISSEN1
100
AcDbLine
 10
-1368.592004829248
 20
1502.373493789822
 30
0.0
 11
-1368.592004829248
 21
1501.373496789822
 31
0.0
  0
LINE
  5
10C0B
330
1A
100
AcDbEntity
  8
ZISSEN1
100
AcDbLine
 10
-1372.592014829248
 20
1502.373493789822
 30
0.0
 11
-1372.592014829248
 21
1501.373496789822
 31
0.0
  0
LINE
  5
10C0C
330
1A
100
AcDbEntity
  8
ZISSEN1
100
AcDbLine
 10
-1372.592014829248
 20
1502.373493789822
 30
0.0
 11
-1368.592004829248
 21
1502.373493789822
 31
0.0
  0
LINE
  5
10C0D
330
1A
100
AcDbEntity
  8
SOUZOUSEN
100
AcDbLine
 10
-1406.212014829248
 20
1536.022139789822
 30
0.0
 11
-1388.972014829248
 21
1536.022139789822
 31
0.0
  0
LINE
  5
10C0E
330
1A
100
AcDbEntity
  8
ZISSEN1
100
AcDbLine
 10
-1406.212014829248
 20
1545.022129789822
 30
0.0
 11
-1388.972014829248
 21
1545.022129789822
 31
0.0
  0
LINE
  5
10C0F
330
1A
100
AcDbEntity
  8
ZISSEN1
100
AcDbLine
 10
-1407.592004829248
 20
1548.822139789822
 30
0.0
 11
-1406.212014829248
 21
1548.822139789822
 31
0.0
  0
LINE
  5
10C10
330
1A
100
AcDbEntity
  8
ZISSEN1
100
AcDbLine
 10
-1410.592014829248
 20
1553.272149789822
 30
0.0
 11
-1415.592014829248
 21
1553.272149789822
 31
0.0
  0
LINE
  5
10C11
330
1A
100
AcDbEntity
  8
ZISSEN1
100
AcDbLine
 10
-1414.884904829247
 20
1548.822139789822
 30
0.0
 11
-1415.592014829248
 21
1549.529249789822
 31
0.0
  0
LINE
  5
10C12
330
1A
100
AcDbEntity
  8
ZISSEN1
100
AcDbLine
 10
-1415.592014829248
 20
1553.272149789822
 30
0.0
 11
-1415.592014829248
 21
1549.529249789822
 31
0.0
  0
LINE
  5
10C13
330
1A
100
AcDbEntity
  8
ZISSEN1
100
AcDbLine
 10
-1414.884904829247
 20
1548.822139789822
 30
0.0
 11
-1407.592004829248
 21
1548.822139789822
 31
0.0
  0
LINE
  5
10C14
330
1A
100
AcDbEntity
  8
ZISSEN1
100
AcDbLine
 10
-1407.592004829248
 20
1550.022139789822
 30
0.0
 11
-1407.592004829248
 21
1548.822139789822
 31
0.0
  0
LINE
  5
10C15
330
1A
100
AcDbEntity
  8
SOUZOUSEN
100
AcDbLine
 10
-1406.212014829248
 20
1545.022129789822
 30
0.0
 11
-1406.212014829248
 21
1536.022139789822
 31
0.0
  0
LINE
  5
10C16
330
1A
100
AcDbEntity
  8
ZISSEN1
100
AcDbLine
 10
-1406.212014829248
 20
1545.022129789822
 30
0.0
 11
-1406.212014829248
 21
1550.022139789822
 31
0.0
  0
LINE
  5
10C17
330
1A
100
AcDbEntity
  8
ZISSEN1
100
AcDbLine
 10
-1388.972014829248
 20
1545.022129789822
 30
0.0
 11
-1388.972014829248
 21
1534.022139789822
 31
0.0
  0
LINE
  5
10C18
330
1A
100
AcDbEntity
  8
ZISSEN1
100
AcDbLine
 10
-1388.972014829248
 20
1545.022129789822
 30
0.0
 11
-1388.972014829248
 21
1550.022139789822
 31
0.0
  0
CIRCLE
  5
10C19
330
1A
100
AcDbEntity
  8
ZISSEN1
100
AcDbCircle
 10
-1325.297034829248
 20
1492.573482789822
 30
0.0
 40
2.4999999
  0
LINE
  5
10C1A
330
1A
100
AcDbEntity
  8
ZISSEN1
100
AcDbLine
 10
-1327.592014829248
 20
1502.373493789822
 30
0.0
 11
-1323.592004829248
 21
1502.373493789822
 31
0.0
  0
LINE
  5
10C1B
330
1A
100
AcDbEntity
  8
ZISSEN1
100
AcDbLine
 10
-1326.351994829248
 20
1473.423489789822
 30
0.0
 11
-1320.852004829248
 21
1473.423489789822
 31
0.0
  0
LINE
  5
10C1C
330
1A
100
AcDbEntity
  8
ZISSEN1
100
AcDbLine
 10
-1326.351994829248
 20
1469.923490789822
 30
0.0
 11
-1320.852004829248
 21
1469.923490789822
 31
0.0
  0
LINE
  5
10C1D
330
1A
100
AcDbEntity
  8
ZISSEN1
100
AcDbLine
 10
-1326.351994829248
 20
1476.923488789822
 30
0.0
 11
-1320.852004829248
 21
1476.923488789822
 31
0.0
  0
LINE
  5
10C1E
330
1A
100
AcDbEntity
  8
ZISSEN1
100
AcDbLine
 10
-1323.399144829248
 20
1498.873473789822
 30
0.0
 11
-1344.975184829248
 21
1498.873473789822
 31
0.0
  0
LINE
  5
10C1F
330
1A
100
AcDbEntity
  8
ZISSEN1
100
AcDbLine
 10
-1344.975184829248
 20
1486.273491789822
 30
0.0
 11
-1322.692044829248
 21
1486.273491789822
 31
0.0
  0
LINE
  5
10C20
330
1A
100
AcDbEntity
  8
ZISSEN1
100
AcDbLine
 10
-1354.592034829248
 20
1500.373490789822
 30
0.0
 11
-1321.592024829248
 21
1500.373490789822
 31
0.0
  0
LINE
  5
10C21
330
1A
100
AcDbEntity
  8
ZISSEN1
100
AcDbLine
 10
-1346.222034829248
 20
1486.273491789822
 30
0.0
 11
-1346.222034829248
 21
1482.773479789821
 31
0.0
  0
LINE
  5
10C22
330
1A
100
AcDbEntity
  8
ZISSEN1
100
AcDbLine
 10
-1329.962044829248
 20
1486.273491789822
 30
0.0
 11
-1329.962044829248
 21
1482.773479789821
 31
0.0
  0
LINE
  5
10C23
330
1A
100
AcDbEntity
  8
ZISSEN1
100
AcDbLine
 10
-1344.975184829248
 20
1482.773479789821
 30
0.0
 11
-1329.962044829248
 21
1482.773479789821
 31
0.0
  0
LINE
  5
10C24
330
1A
100
AcDbEntity
  8
ZISSEN1
100
AcDbLine
 10
-1344.975184829248
 20
1482.773479789821
 30
0.0
 11
-1346.222034829248
 21
1482.773479789821
 31
0.0
  0
LINE
  5
10C25
330
1A
100
AcDbEntity
  8
ZISSEN1
100
AcDbLine
 10
-1327.775024829247
 20
1471.523634789822
 30
0.0
 11
-1330.199984829248
 21
1476.396949789822
 31
0.0
  0
LINE
  5
10C26
330
1A
100
AcDbEntity
  8
ZISSEN1
100
AcDbLine
 10
-1326.351994829248
 20
1477.923492789822
 30
0.0
 11
-1326.351994829248
 21
1469.673489789822
 31
0.0
  0
LINE
  5
10C27
330
1A
100
AcDbEntity
  8
ZISSEN1
100
AcDbLine
 10
-1328.301574829248
 20
1470.673486789822
 30
0.0
 11
-1327.775024829247
 21
1471.523634789822
 31
0.0
  0
LINE
  5
10C28
330
1A
100
AcDbEntity
  8
ZISSEN1
100
AcDbLine
 10
-1331.050134829248
 20
1476.923495789822
 30
0.0
 11
-1330.199984829248
 21
1476.396949789822
 31
0.0
  0
LINE
  5
10C29
330
1A
100
AcDbEntity
  8
ZISSEN1
100
AcDbLine
 10
-1342.592014829248
 20
1502.373493789822
 30
0.0
 11
-1338.592004829248
 21
1502.373493789822
 31
0.0
  0
LINE
  5
10C2A
330
1A
100
AcDbEntity
  8
ZISSEN1
100
AcDbLine
 10
-1344.975184829248
 20
1488.663487789822
 30
0.0
 11
-1329.962044829248
 21
1488.663487789822
 31
0.0
  0
LINE
  5
10C2B
330
1A
100
AcDbEntity
  8
ZISSEN1
100
AcDbLine
 10
-1344.975184829248
 20
1496.483476789822
 30
0.0
 11
-1329.962044829248
 21
1496.483476789822
 31
0.0
  0
LINE
  5
10C2C
330
1A
100
AcDbEntity
  8
ZISSEN1
100
AcDbLine
 10
-1346.222034829248
 20
1496.483476789822
 30
0.0
 11
-1346.222034829248
 21
1488.663487789822
 31
0.0
  0
LINE
  5
10C2D
330
1A
100
AcDbEntity
  8
ZISSEN1
100
AcDbLine
 10
-1353.492034829248
 20
1498.166364789822
 30
0.0
 11
-1353.492034829248
 21
1486.273491789822
 31
0.0
  0
LINE
  5
10C2E
330
1A
100
AcDbEntity
  8
ZISSEN1
100
AcDbLine
 10
-1354.592034829248
 20
1500.373490789822
 30
0.0
 11
-1354.592034829248
 21
1486.673490789822
 31
0.0
  0
LINE
  5
10C2F
330
1A
100
AcDbEntity
  8
ZISSEN1
100
AcDbLine
 10
-1356.592014829248
 20
1492.373495789822
 30
0.0
 11
-1356.592014829248
 21
1501.373493789822
 31
0.0
  0
CIRCLE
  5
10C30
330
1A
100
AcDbEntity
  8
ZISSEN1
100
AcDbCircle
 10
-1350.887044829248
 20
1492.573482789822
 30
0.0
 40
2.4999999
  0
LINE
  5
10C31
330
1A
100
AcDbEntity
  8
ZISSEN1
100
AcDbLine
 10
-1344.975184829248
 20
1486.273491789822
 30
0.0
 11
-1353.492034829248
 21
1486.273491789822
 31
0.0
  0
LINE
  5
10C32
330
1A
100
AcDbEntity
  8
ZISSEN1
100
AcDbLine
 10
-1344.975184829248
 20
1488.663487789822
 30
0.0
 11
-1346.222034829248
 21
1488.663487789822
 31
0.0
  0
LINE
  5
10C33
330
1A
100
AcDbEntity
  8
ZISSEN1
100
AcDbLine
 10
-1350.092014829248
 20
1502.373493789822
 30
0.0
 11
-1346.092004829248
 21
1502.373493789822
 31
0.0
  0
LINE
  5
10C34
330
1A
100
AcDbEntity
  8
ZISSEN1
100
AcDbLine
 10
-1352.784924829248
 20
1498.873473789822
 30
0.0
 11
-1344.975184829248
 21
1498.873473789822
 31
0.0
  0
LINE
  5
10C35
330
1A
100
AcDbEntity
  8
ZISSEN1
100
AcDbLine
 10
-1350.092014829248
 20
1502.373493789822
 30
0.0
 11
-1350.092014829248
 21
1501.373496789822
 31
0.0
  0
LINE
  5
10C36
330
1A
100
AcDbEntity
  8
ZISSEN1
100
AcDbLine
 10
-1353.592004829248
 20
1502.373493789822
 30
0.0
 11
-1353.592004829248
 21
1501.373490789822
 31
0.0
  0
LINE
  5
10C37
330
1A
100
AcDbEntity
  8
ZISSEN1
100
AcDbLine
 10
-1357.592014829248
 20
1502.373493789822
 30
0.0
 11
-1357.592014829248
 21
1501.373496789822
 31
0.0
  0
LINE
  5
10C38
330
1A
100
AcDbEntity
  8
ZISSEN1
100
AcDbLine
 10
-1353.492034829248
 20
1498.166364789822
 30
0.0
 11
-1352.784924829248
 21
1498.873473789822
 31
0.0
  0
LINE
  5
10C39
330
1A
100
AcDbEntity
  8
ZISSEN1
100
AcDbLine
 10
-1357.592014829248
 20
1502.373493789822
 30
0.0
 11
-1353.592004829248
 21
1502.373493789822
 31
0.0
  0
LINE
  5
10C3A
330
1A
100
AcDbEntity
  8
ZISSEN1
100
AcDbLine
 10
-1342.592014829248
 20
1502.373493789822
 30
0.0
 11
-1342.592014829248
 21
1501.373496789822
 31
0.0
  0
LINE
  5
10C3B
330
1A
100
AcDbEntity
  8
ZISSEN1
100
AcDbLine
 10
-1346.092004829248
 20
1502.373493789822
 30
0.0
 11
-1346.092004829248
 21
1501.373496789822
 31
0.0
  0
LINE
  5
10C3C
330
1A
100
AcDbEntity
  8
ZISSEN1
100
AcDbLine
 10
-1344.975184829248
 20
1496.483476789822
 30
0.0
 11
-1346.222034829248
 21
1496.483476789822
 31
0.0
  0
LINE
  5
10C3D
330
1A
100
AcDbEntity
  8
ZISSEN1
100
AcDbLine
 10
-1329.962044829248
 20
1496.483476789822
 30
0.0
 11
-1329.962044829248
 21
1488.663487789822
 31
0.0
  0
LINE
  5
10C3E
330
1A
100
AcDbEntity
  8
ZISSEN1
100
AcDbLine
 10
-1335.092014829248
 20
1502.373493789822
 30
0.0
 11
-1331.092004829248
 21
1502.373493789822
 31
0.0
  0
LINE
  5
10C3F
330
1A
100
AcDbEntity
  8
ZISSEN1
100
AcDbLine
 10
-1335.092014829248
 20
1502.373493789822
 30
0.0
 11
-1335.092014829248
 21
1501.373496789822
 31
0.0
  0
LINE
  5
10C40
330
1A
100
AcDbEntity
  8
ZISSEN1
100
AcDbLine
 10
-1338.592004829248
 20
1502.373493789822
 30
0.0
 11
-1338.592004829248
 21
1501.373496789822
 31
0.0
  0
LINE
  5
10C41
330
1A
100
AcDbEntity
  8
ZISSEN1
100
AcDbLine
 10
-1327.592014829248
 20
1502.373493789822
 30
0.0
 11
-1327.592014829248
 21
1501.373496789822
 31
0.0
  0
LINE
  5
10C42
330
1A
100
AcDbEntity
  8
ZISSEN1
100
AcDbLine
 10
-1331.092004829248
 20
1502.373493789822
 30
0.0
 11
-1331.092004829248
 21
1501.373496789822
 31
0.0
  0
LINE
  5
10C43
330
1A
100
AcDbEntity
  8
ZISSEN1
100
AcDbLine
 10
-1303.592014829248
 20
1501.373493789822
 30
0.0
 11
-1303.592014829248
 21
1481.673492789822
 31
0.0
  0
CIRCLE
  5
10C44
330
1A
100
AcDbEntity
  8
ZISSEN1
100
AcDbCircle
 10
-1308.592004829248
 20
1473.673490789822
 30
0.0
 40
2.0
  0
LINE
  5
10C45
330
1A
100
AcDbEntity
  8
ZISSEN1
100
AcDbLine
 10
-1304.299124829248
 20
1480.073490789822
 30
0.0
 11
-1311.884904829248
 21
1480.073490789822
 31
0.0
  0
LINE
  5
10C46
330
1A
100
AcDbEntity
  8
ZISSEN1
100
AcDbLine
 10
-1320.852004829248
 20
1469.923490789822
 30
0.0
 11
-1320.852004829248
 21
1473.923491789822
 31
0.0
  0
LINE
  5
10C47
330
1A
100
AcDbEntity
  8
ZISSEN1
100
AcDbLine
 10
-1312.592014829248
 20
1479.366381789822
 30
0.0
 11
-1312.592014829248
 21
1466.073487789822
 31
0.0
  0
LINE
  5
10C48
330
1A
100
AcDbEntity
  8
ZISSEN1
100
AcDbLine
 10
-1319.592014829248
 20
1478.473489789822
 30
0.0
 11
-1319.592014829248
 21
1470.073488789822
 31
0.0
  0
LINE
  5
10C49
330
1A
100
AcDbEntity
  8
ZISSEN1
100
AcDbLine
 10
-1319.592014829248
 20
1469.673489789822
 30
0.0
 11
-1314.092024829248
 21
1469.673489789822
 31
0.0
  0
LINE
  5
10C4A
330
1A
100
AcDbEntity
  8
ZISSEN1
100
AcDbLine
 10
-1319.592014829248
 20
1470.073488789822
 30
0.0
 11
-1313.592024829248
 21
1470.073488789822
 31
0.0
  0
LINE
  5
10C4B
330
1A
100
AcDbEntity
  8
ZISSEN1
100
AcDbLine
 10
-1319.592014829248
 20
1468.073488789822
 30
0.0
 11
-1313.592024829248
 21
1468.073488789822
 31
0.0
  0
LINE
  5
10C4C
330
1A
100
AcDbEntity
  8
ZISSEN1
100
AcDbLine
 10
-1319.592014829248
 20
1466.073487789822
 30
0.0
 11
-1319.592014829248
 21
1468.073488789822
 31
0.0
  0
LINE
  5
10C4D
330
1A
100
AcDbEntity
  8
ZISSEN1
100
AcDbLine
 10
-1314.092024829248
 20
1469.673489789822
 30
0.0
 11
-1314.092024829248
 21
1468.073488789822
 31
0.0
  0
LINE
  5
10C4E
330
1A
100
AcDbEntity
  8
ZISSEN1
100
AcDbLine
 10
-1313.592024829248
 20
1470.073488789822
 30
0.0
 11
-1313.592024829248
 21
1468.073488789822
 31
0.0
  0
LINE
  5
10C4F
330
1A
100
AcDbEntity
  8
ZISSEN1
100
AcDbLine
 10
-1320.852004829248
 20
1477.923492789822
 30
0.0
 11
-1320.852004829248
 21
1473.923491789822
 31
0.0
  0
LINE
  5
10C50
330
1A
100
AcDbEntity
  8
ZISSEN1
100
AcDbLine
 10
-1312.592014829248
 20
1479.366381789822
 30
0.0
 11
-1311.884904829248
 21
1480.073490789822
 31
0.0
  0
LINE
  5
10C51
330
1A
100
AcDbEntity
  8
ZISSEN1
100
AcDbLine
 10
-1303.592014829248
 20
1479.366381789822
 30
0.0
 11
-1303.592014829248
 21
1465.073490789822
 31
0.0
  0
LINE
  5
10C52
330
1A
100
AcDbEntity
  8
ZISSEN1
100
AcDbLine
 10
-1303.592014829248
 20
1479.366381789822
 30
0.0
 11
-1303.592014829248
 21
1481.673492789822
 31
0.0
  0
LINE
  5
10C53
330
1A
100
AcDbEntity
  8
ZISSEN1
100
AcDbLine
 10
-1303.592014829248
 20
1479.366381789822
 30
0.0
 11
-1304.299124829248
 21
1480.073490789822
 31
0.0
  0
LINE
  5
10C54
330
1A
100
AcDbEntity
  8
ZISSEN1
100
AcDbLine
 10
-1322.692044829248
 20
1498.166364789822
 30
0.0
 11
-1322.692044829248
 21
1486.273491789822
 31
0.0
  0
LINE
  5
10C55
330
1A
100
AcDbEntity
  8
ZISSEN1
100
AcDbLine
 10
-1321.592024829248
 20
1500.373490789822
 30
0.0
 11
-1321.592024829248
 21
1486.673490789822
 31
0.0
  0
LINE
  5
10C56
330
1A
100
AcDbEntity
  8
ZISSEN1
100
AcDbLine
 10
-1321.592024829248
 20
1486.673490789822
 30
0.0
 11
-1313.592024829248
 21
1486.673490789822
 31
0.0
  0
LINE
  5
10C57
330
1A
100
AcDbEntity
  8
ZISSEN1
100
AcDbLine
 10
-1314.092024829248
 20
1486.273491789822
 30
0.0
 11
-1314.092024829248
 21
1484.673489789822
 31
0.0
  0
LINE
  5
10C58
330
1A
100
AcDbEntity
  8
ZISSEN1
100
AcDbLine
 10
-1313.592024829248
 20
1486.673490789822
 30
0.0
 11
-1313.592024829248
 21
1484.673489789822
 31
0.0
  0
LINE
  5
10C59
330
1A
100
AcDbEntity
  8
ZISSEN1
100
AcDbLine
 10
-1323.592004829248
 20
1502.373493789822
 30
0.0
 11
-1323.592004829248
 21
1501.373496789822
 31
0.0
  0
LINE
  5
10C5A
330
1A
100
AcDbEntity
  8
ZISSEN1
100
AcDbLine
 10
-1323.399144829248
 20
1498.873473789822
 30
0.0
 11
-1322.692044829248
 21
1498.166364789822
 31
0.0
  0
LINE
  5
10C5D
330
1A
100
AcDbEntity
  8
ZISSEN1
100
AcDbLine
 10
-1353.492034829248
 20
1544.222139789822
 30
0.0
 11
-1322.692044829248
 21
1544.222139789822
 31
0.0
  0
LINE
  5
10C5E
330
1A
100
AcDbEntity
  8
ZISSEN1
100
AcDbLine
 10
-1353.492034829248
 20
1544.622149789822
 30
0.0
 11
-1322.797054829248
 21
1544.622149789822
 31
0.0
  0
LINE
  5
10C5F
330
1A
100
AcDbEntity
  8
ZISSEN1
100
AcDbLine
 10
-1327.797024829248
 20
1539.022139789822
 30
0.0
 11
-1322.797054829248
 21
1539.022139789822
 31
0.0
  0
LINE
  5
10C60
330
1A
100
AcDbEntity
  8
ZISSEN1
100
AcDbLine
 10
-1346.222034829248
 20
1539.022139789822
 30
0.0
 11
-1329.962044829248
 21
1539.022139789822
 31
0.0
  0
LINE
  5
10C61
330
1A
100
AcDbEntity
  8
ZISSEN1
100
AcDbLine
 10
-1346.222034829248
 20
1539.022139789822
 30
0.0
 11
-1346.222034829248
 21
1544.222139789822
 31
0.0
  0
LINE
  5
10C62
330
1A
100
AcDbEntity
  8
ZISSEN1
100
AcDbLine
 10
-1348.387034829248
 20
1539.022139789822
 30
0.0
 11
-1348.387034829248
 21
1544.222139789822
 31
0.0
  0
LINE
  5
10C63
330
1A
100
AcDbEntity
  8
ZISSEN1
100
AcDbLine
 10
-1353.387044829248
 20
1539.022139789822
 30
0.0
 11
-1353.387044829248
 21
1544.222139789822
 31
0.0
  0
LINE
  5
10C64
330
1A
100
AcDbEntity
  8
ZISSEN1
100
AcDbLine
 10
-1353.387044829248
 20
1539.022139789822
 30
0.0
 11
-1348.387034829248
 21
1539.022139789822
 31
0.0
  0
LINE
  5
10C66
330
1A
100
AcDbEntity
  8
ZISSEN1
100
AcDbLine
 10
-1353.492034829248
 20
1544.222139789822
 30
0.0
 11
-1353.492034829248
 21
1550.022139789822
 31
0.0
  0
LINE
  5
10C67
330
1A
100
AcDbEntity
  8
ZISSEN1
100
AcDbLine
 10
-1329.962044829248
 20
1539.022139789822
 30
0.0
 11
-1329.962044829248
 21
1544.222139789822
 31
0.0
  0
LINE
  5
10C68
330
1A
100
AcDbEntity
  8
ZISSEN1
100
AcDbLine
 10
-1327.797024829248
 20
1539.022139789822
 30
0.0
 11
-1327.797024829248
 21
1544.222139789822
 31
0.0
  0
LINE
  5
10C69
330
1A
100
AcDbEntity
  8
ZISSEN1
100
AcDbLine
 10
-1322.797054829248
 20
1539.022139789822
 30
0.0
 11
-1322.797054829248
 21
1544.222139789822
 31
0.0
  0
LINE
  5
10C6B
330
1A
100
AcDbEntity
  8
ZISSEN1
100
AcDbLine
 10
-1319.592014829248
 20
1546.022139789822
 30
0.0
 11
-1319.592014829248
 21
1550.022139789822
 31
0.0
  0
LINE
  5
10C6C
330
1A
100
AcDbEntity
  8
ZISSEN1
100
AcDbLine
 10
-1322.692044829248
 20
1544.222139789822
 30
0.0
 11
-1322.692044829248
 21
1550.022139789822
 31
0.0
  0
LINE
  5
10C6D
330
1A
100
AcDbEntity
  8
ZISSEN1
100
AcDbLine
 10
-1322.692044829248
 20
1546.022139789822
 30
0.0
 11
-1319.592014829248
 21
1546.022139789822
 31
0.0
  0
LINE
  5
10C6E
330
1A
100
AcDbEntity
  8
CL1
100
AcDbLine
 10
-1290.567324829248
 20
1635.522149789822
 30
0.0
 11
-1305.586374829248
 21
1635.522149789822
 31
0.0
  0
ARC
  5
10C6F
330
1A
100
AcDbEntity
  8
ZISSEN1
100
AcDbCircle
 10
-1357.592014829248
 20
1559.022139789822
 30
0.0
 40
1.0
100
AcDbArc
 50
0.0
 51
180.976150000001
  0
LINE
  5
10C70
330
1A
100
AcDbEntity
  8
ZISSEN1
100
AcDbLine
 10
-1304.799124829248
 20
1640.522139789822
 30
0.0
 11
-1406.384894829248
 21
1640.522139789822
 31
0.0
  0
LINE
  5
10C71
330
1A
100
AcDbEntity
  8
ZISSEN1
100
AcDbLine
 10
-1304.799124829248
 20
1596.022129789822
 30
0.0
 11
-1398.592004829248
 21
1596.022129789822
 31
0.0
  0
LINE
  5
10C72
330
1A
100
AcDbEntity
  8
ZISSEN1
100
AcDbLine
 10
-1359.591994829248
 20
1611.522129789822
 30
0.0
 11
-1321.591994829248
 21
1611.522129789822
 31
0.0
  0
LINE
  5
10C73
330
1A
100
AcDbEntity
  8
ZISSEN1
100
AcDbLine
 10
-1359.591994829248
 20
1622.522129789822
 30
0.0
 11
-1321.591994829248
 21
1622.522129789822
 31
0.0
  0
LINE
  5
10C74
330
1A
100
AcDbEntity
  8
ZISSEN1
100
AcDbLine
 10
-1407.592004829248
 20
1641.022139789822
 30
0.0
 11
-1303.592014829248
 21
1641.022139789822
 31
0.0
  0
LINE
  5
10C75
330
1A
100
AcDbEntity
  8
ZISSEN1
100
AcDbLine
 10
-1407.092004829248
 20
1596.729239789822
 30
0.0
 11
-1407.092004829248
 21
1639.815029789822
 31
0.0
  0
LINE
  5
10C76
330
1A
100
AcDbEntity
  8
ZISSEN1
100
AcDbLine
 10
-1411.591994829248
 20
1630.262149789822
 30
0.0
 11
-1411.591994829248
 21
1560.782129789822
 31
0.0
  0
ARC
  5
10C77
330
1A
100
AcDbEntity
  8
ZISSEN1
100
AcDbCircle
 10
-1398.592004829248
 20
1577.022139789822
 30
0.0
 40
1.0
100
AcDbArc
 50
270.0
 51
90.0
  0
LINE
  5
10C78
330
1A
100
AcDbEntity
  8
CL1
100
AcDbLine
 10
-1419.230484829248
 20
1555.522139789822
 30
0.0
 11
-1406.001494829248
 21
1555.522139789822
 31
0.0
  0
LINE
  5
10C79
330
1A
100
AcDbEntity
  8
ZISSEN1
100
AcDbLine
 10
-1398.592004829248
 20
1574.02212978982
 30
0.0
 11
-1407.592004829248
 21
1574.02212978982
 31
0.0
  0
LINE
  5
10C7A
330
1A
100
AcDbEntity
  8
ZISSEN1
100
AcDbLine
 10
-1398.592004829248
 20
1570.022129789822
 30
0.0
 11
-1407.592004829248
 21
1570.022129789822
 31
0.0
  0
LINE
  5
10C7B
330
1A
100
AcDbEntity
  8
ZISSEN1
100
AcDbLine
 10
-1398.592004829248
 20
1566.02212978982
 30
0.0
 11
-1407.592004829248
 21
1566.02212978982
 31
0.0
  0
LINE
  5
10C7C
330
1A
100
AcDbEntity
  8
ZISSEN1
100
AcDbLine
 10
-1398.592004829248
 20
1562.022129789822
 30
0.0
 11
-1407.592004829248
 21
1562.022129789822
 31
0.0
  0
LINE
  5
10C7D
330
1A
100
AcDbEntity
  8
ZISSEN1
100
AcDbLine
 10
-1398.592004829248
 20
1558.02212978982
 30
0.0
 11
-1407.592004829248
 21
1558.02212978982
 31
0.0
  0
LINE
  5
10C7E
330
1A
100
AcDbEntity
  8
ZISSEN1
100
AcDbLine
 10
-1398.592004829248
 20
1576.022139789822
 30
0.0
 11
-1407.592004829248
 21
1576.022139789822
 31
0.0
  0
LINE
  5
10C7F
330
1A
100
AcDbEntity
  8
ZISSEN1
100
AcDbLine
 10
-1398.592004829248
 20
1572.022139789822
 30
0.0
 11
-1407.592004829248
 21
1572.022139789822
 31
0.0
  0
LINE
  5
10C80
330
1A
100
AcDbEntity
  8
ZISSEN1
100
AcDbLine
 10
-1398.592004829248
 20
1572.022139789822
 30
0.0
 11
-1407.592004829248
 21
1572.022139789822
 31
0.0
  0
LINE
  5
10C81
330
1A
100
AcDbEntity
  8
ZISSEN1
100
AcDbLine
 10
-1398.592004829248
 20
1572.022139789822
 30
0.0
 11
-1407.592004829248
 21
1572.022139789822
 31
0.0
  0
LINE
  5
10C82
330
1A
100
AcDbEntity
  8
ZISSEN1
100
AcDbLine
 10
-1398.592004829248
 20
1568.022139789822
 30
0.0
 11
-1407.592004829248
 21
1568.022139789822
 31
0.0
  0
LINE
  5
10C83
330
1A
100
AcDbEntity
  8
ZISSEN1
100
AcDbLine
 10
-1398.592004829248
 20
1564.022129789822
 30
0.0
 11
-1407.592004829248
 21
1564.022129789822
 31
0.0
  0
LINE
  5
10C84
330
1A
100
AcDbEntity
  8
ZISSEN1
100
AcDbLine
 10
-1398.592004829248
 20
1560.022129789822
 30
0.0
 11
-1407.592004829248
 21
1560.022129789822
 31
0.0
  0
LINE
  5
10C85
330
1A
100
AcDbEntity
  8
ZISSEN1
100
AcDbLine
 10
-1398.592004829248
 20
1556.022129789822
 30
0.0
 11
-1407.592004829248
 21
1556.022129789822
 31
0.0
  0
LINE
  5
10C86
330
1A
100
AcDbEntity
  8
ZISSEN1
100
AcDbLine
 10
-1410.592014829248
 20
1557.772139789822
 30
0.0
 11
-1415.592014829248
 21
1557.772139789822
 31
0.0
  0
LINE
  5
10C87
330
1A
100
AcDbEntity
  8
ZISSEN1
100
AcDbLine
 10
-1414.884904829247
 20
1562.222149789822
 30
0.0
 11
-1415.592014829248
 21
1561.515039789822
 31
0.0
  0
LINE
  5
10C88
330
1A
100
AcDbEntity
  8
ZISSEN1
100
AcDbLine
 10
-1415.592014829248
 20
1561.515039789822
 30
0.0
 11
-1415.592014829248
 21
1557.772139789822
 31
0.0
  0
LINE
  5
10C89
330
1A
100
AcDbEntity
  8
ZISSEN1
100
AcDbLine
 10
-1411.591994829248
 20
1560.782129789822
 30
0.0
 11
-1407.592004829248
 21
1560.782129789822
 31
0.0
  0
LINE
  5
10C8A
330
1A
100
AcDbEntity
  8
ZISSEN1
100
AcDbLine
 10
-1414.884904829247
 20
1562.222149789822
 30
0.0
 11
-1411.591994829248
 21
1562.222149789822
 31
0.0
  0
ARC
  5
10C8B
330
1A
100
AcDbEntity
  8
ZISSEN1
100
AcDbCircle
 10
-1398.592004829248
 20
1565.022139789822
 30
0.0
 40
1.0
100
AcDbArc
 50
270.0
 51
90.0
  0
ARC
  5
10C8C
330
1A
100
AcDbEntity
  8
ZISSEN1
100
AcDbCircle
 10
-1398.592004829248
 20
1557.022139789822
 30
0.0
 40
1.0
100
AcDbArc
 50
270.0
 51
90.0
  0
ARC
  5
10C8D
330
1A
100
AcDbEntity
  8
ZISSEN1
100
AcDbCircle
 10
-1398.592004829248
 20
1561.022139789822
 30
0.0
 40
1.0
100
AcDbArc
 50
270.0
 51
90.0
  0
ARC
  5
10C8E
330
1A
100
AcDbEntity
  8
ZISSEN1
100
AcDbCircle
 10
-1398.592004829248
 20
1569.022139789822
 30
0.0
 40
1.0
100
AcDbArc
 50
270.0
 51
90.0
  0
ARC
  5
10C8F
330
1A
100
AcDbEntity
  8
ZISSEN1
100
AcDbCircle
 10
-1398.592004829248
 20
1573.022139789822
 30
0.0
 40
1.0
100
AcDbArc
 50
270.0
 51
90.0
  0
LINE
  5
10C90
330
1A
100
AcDbEntity
  8
ZISSEN1
100
AcDbLine
 10
-1398.592004829248
 20
1594.022129789822
 30
0.0
 11
-1407.592004829248
 21
1594.022129789822
 31
0.0
  0
LINE
  5
10C91
330
1A
100
AcDbEntity
  8
ZISSEN1
100
AcDbLine
 10
-1398.592004829248
 20
1590.022129789822
 30
0.0
 11
-1407.592004829248
 21
1590.022129789822
 31
0.0
  0
LINE
  5
10C92
330
1A
100
AcDbEntity
  8
ZISSEN1
100
AcDbLine
 10
-1398.592004829248
 20
1586.022129789822
 30
0.0
 11
-1407.592004829248
 21
1586.022129789822
 31
0.0
  0
LINE
  5
10C93
330
1A
100
AcDbEntity
  8
ZISSEN1
100
AcDbLine
 10
-1398.592004829248
 20
1582.02212978982
 30
0.0
 11
-1407.592004829248
 21
1582.02212978982
 31
0.0
  0
LINE
  5
10C94
330
1A
100
AcDbEntity
  8
ZISSEN1
100
AcDbLine
 10
-1398.592004829248
 20
1578.022129789822
 30
0.0
 11
-1407.592004829248
 21
1578.022129789822
 31
0.0
  0
LINE
  5
10C95
330
1A
100
AcDbEntity
  8
ZISSEN1
100
AcDbLine
 10
-1398.592004829248
 20
1592.022139789822
 30
0.0
 11
-1407.592004829248
 21
1592.022139789822
 31
0.0
  0
LINE
  5
10C96
330
1A
100
AcDbEntity
  8
ZISSEN1
100
AcDbLine
 10
-1398.592004829248
 20
1588.022139789822
 30
0.0
 11
-1407.592004829248
 21
1588.022139789822
 31
0.0
  0
LINE
  5
10C97
330
1A
100
AcDbEntity
  8
ZISSEN1
100
AcDbLine
 10
-1398.592004829248
 20
1584.022139789822
 30
0.0
 11
-1407.592004829248
 21
1584.022139789822
 31
0.0
  0
LINE
  5
10C98
330
1A
100
AcDbEntity
  8
ZISSEN1
100
AcDbLine
 10
-1398.592004829248
 20
1580.022139789822
 30
0.0
 11
-1407.592004829248
 21
1580.022139789822
 31
0.0
  0
ARC
  5
10C99
330
1A
100
AcDbEntity
  8
ZISSEN1
100
AcDbCircle
 10
-1398.592004829248
 20
1589.022139789822
 30
0.0
 40
1.0
100
AcDbArc
 50
270.0
 51
90.0
  0
ARC
  5
10C9A
330
1A
100
AcDbEntity
  8
ZISSEN1
100
AcDbCircle
 10
-1398.592004829248
 20
1581.022139789822
 30
0.0
 40
1.0
100
AcDbArc
 50
270.0
 51
90.0
  0
ARC
  5
10C9B
330
1A
100
AcDbEntity
  8
ZISSEN1
100
AcDbCircle
 10
-1398.592004829248
 20
1585.022139789822
 30
0.0
 40
1.0
100
AcDbArc
 50
270.0
 51
90.0
  0
LINE
  5
10C9C
330
1A
100
AcDbEntity
  8
ZISSEN1
100
AcDbLine
 10
-1406.384894829248
 20
1596.022129789822
 30
0.0
 11
-1398.592004829248
 21
1596.022129789822
 31
0.0
  0
LINE
  5
10C9D
330
1A
100
AcDbEntity
  8
ZISSEN1
100
AcDbLine
 10
-1406.384894829248
 20
1596.022129789822
 30
0.0
 11
-1407.092004829248
 21
1596.729239789822
 31
0.0
  0
ARC
  5
10C9E
330
1A
100
AcDbEntity
  8
ZISSEN1
100
AcDbCircle
 10
-1398.592004829248
 20
1593.022139789822
 30
0.0
 40
1.0
100
AcDbArc
 50
270.0
 51
90.0
  0
ARC
  5
10C9F
330
1A
100
AcDbEntity
  8
ZISSEN1
100
AcDbCircle
 10
-1373.591974829248
 20
1559.022139789822
 30
0.0
 40
1.0
100
AcDbArc
 50
0.0
 51
180.0
  0
ARC
  5
10CA0
330
1A
100
AcDbEntity
  8
ZISSEN1
100
AcDbCircle
 10
-1381.591944829247
 20
1559.022139789822
 30
0.0
 40
1.0
100
AcDbArc
 50
0.0
 51
180.0
  0
ARC
  5
10CA1
330
1A
100
AcDbEntity
  8
ZISSEN1
100
AcDbCircle
 10
-1377.591954829248
 20
1559.022139789822
 30
0.0
 40
1.0
100
AcDbArc
 50
0.0
 51
180.0
  0
ARC
  5
10CA2
330
1A
100
AcDbEntity
  8
ZISSEN1
100
AcDbCircle
 10
-1365.591994829248
 20
1559.022139789822
 30
0.0
 40
1.0
100
AcDbArc
 50
0.0
 51
180.7925400000043
  0
ARC
  5
10CA3
330
1A
100
AcDbEntity
  8
ZISSEN1
100
AcDbCircle
 10
-1369.591984829248
 20
1559.022139789822
 30
0.0
 40
1.0
100
AcDbArc
 50
0.0
 51
180.0
  0
ARC
  5
10CA4
330
1A
100
AcDbEntity
  8
ZISSEN1
100
AcDbCircle
 10
-1361.592004829248
 20
1559.022139789822
 30
0.0
 40
1.0
100
AcDbArc
 50
0.0
 51
180.0
  0
LINE
  5
10CA5
330
1A
100
AcDbEntity
  8
ZISSEN1
100
AcDbLine
 10
-1391.092004829248
 20
1607.022119789822
 30
0.0
 11
-1391.092004829248
 21
1603.02212978982
 31
0.0
  0
LINE
  5
10CA6
330
1A
100
AcDbEntity
  8
ZISSEN1
100
AcDbLine
 10
-1395.092014829248
 20
1603.02212978982
 30
0.0
 11
-1395.092014829248
 21
1607.022119789822
 31
0.0
  0
LINE
  5
10CA7
330
1A
100
AcDbEntity
  8
ZISSEN1
100
AcDbLine
 10
-1391.092004829248
 20
1603.02212978982
 30
0.0
 11
-1395.092014829248
 21
1603.02212978982
 31
0.0
  0
LINE
  5
10CA8
330
1A
100
AcDbEntity
  8
ZISSEN1
100
AcDbLine
 10
-1395.092014829248
 20
1607.022119789822
 30
0.0
 11
-1391.092004829248
 21
1607.022119789822
 31
0.0
  0
LINE
  5
10CA9
330
1A
100
AcDbEntity
  8
ZISSEN1
100
AcDbLine
 10
-1411.591994829248
 20
1630.262149789822
 30
0.0
 11
-1407.592004829248
 21
1630.262149789822
 31
0.0
  0
LINE
  5
10CAA
330
1A
100
AcDbEntity
  8
ZISSEN1
100
AcDbLine
 10
-1406.384894829248
 20
1640.522139789822
 30
0.0
 11
-1407.092004829248
 21
1639.815029789822
 31
0.0
  0
LINE
  5
10CAB
330
1A
100
AcDbEntity
  8
ZISSEN1
100
AcDbLine
 10
-1370.592014829248
 20
1611.922119789822
 30
0.0
 11
-1374.592024829248
 21
1611.922119789822
 31
0.0
  0
LINE
  5
10CAC
330
1A
100
AcDbEntity
  8
ZISSEN1
100
AcDbLine
 10
-1374.592024829248
 20
1613.922109789822
 30
0.0
 11
-1370.592014829248
 21
1613.922109789822
 31
0.0
  0
LINE
  5
10CAD
330
1A
100
AcDbEntity
  8
ZISSEN1
100
AcDbLine
 10
-1370.592014829248
 20
1614.922109789822
 30
0.0
 11
-1374.592024829248
 21
1614.922109789822
 31
0.0
  0
LINE
  5
10CAE
330
1A
100
AcDbEntity
  8
ZISSEN1
100
AcDbLine
 10
-1374.592024829248
 20
1616.922119789822
 30
0.0
 11
-1370.592014829248
 21
1616.922119789822
 31
0.0
  0
LINE
  5
10CAF
330
1A
100
AcDbEntity
  8
ZISSEN1
100
AcDbLine
 10
-1370.592014829248
 20
1617.922119789822
 30
0.0
 11
-1374.592024829248
 21
1617.922119789822
 31
0.0
  0
LINE
  5
10CB0
330
1A
100
AcDbEntity
  8
ZISSEN1
100
AcDbLine
 10
-1374.592024829248
 20
1619.922129789822
 30
0.0
 11
-1370.592014829248
 21
1619.922129789822
 31
0.0
  0
LINE
  5
10CB1
330
1A
100
AcDbEntity
  8
ZISSEN1
100
AcDbLine
 10
-1370.592014829248
 20
1620.922129789822
 30
0.0
 11
-1374.592024829248
 21
1620.922129789822
 31
0.0
  0
LINE
  5
10CB2
330
1A
100
AcDbEntity
  8
ZISSEN1
100
AcDbLine
 10
-1374.592024829248
 20
1622.922139789822
 30
0.0
 11
-1370.592014829248
 21
1622.922139789822
 31
0.0
  0
LINE
  5
10CB3
330
1A
100
AcDbEntity
  8
ZISSEN1
100
AcDbLine
 10
-1374.592024829248
 20
1611.922119789822
 30
0.0
 11
-1374.592024829248
 21
1613.922109789822
 31
0.0
  0
CIRCLE
  5
10CB4
330
1A
100
AcDbEntity
  8
ZISSEN1
100
AcDbCircle
 10
-1385.592014829247
 20
1605.022119789822
 30
0.0
 40
2.25
  0
LINE
  5
10CB5
330
1A
100
AcDbEntity
  8
ZISSEN1
100
AcDbLine
 10
-1376.092004829247
 20
1607.022119789822
 30
0.0
 11
-1376.092004829247
 21
1603.02212978982
 31
0.0
  0
LINE
  5
10CB6
330
1A
100
AcDbEntity
  8
ZISSEN1
100
AcDbLine
 10
-1380.092014829248
 20
1603.02212978982
 30
0.0
 11
-1380.092014829248
 21
1607.022119789822
 31
0.0
  0
LINE
  5
10CB7
330
1A
100
AcDbEntity
  8
ZISSEN1
100
AcDbLine
 10
-1376.092004829247
 20
1603.02212978982
 30
0.0
 11
-1380.092014829248
 21
1603.02212978982
 31
0.0
  0
LINE
  5
10CB8
330
1A
100
AcDbEntity
  8
ZISSEN1
100
AcDbLine
 10
-1380.092014829248
 20
1607.022119789822
 30
0.0
 11
-1376.092004829247
 21
1607.022119789822
 31
0.0
  0
LINE
  5
10CB9
330
1A
100
AcDbEntity
  8
ZISSEN1
100
AcDbLine
 10
-1385.592014829247
 20
1619.922129789822
 30
0.0
 11
-1385.592014829247
 21
1617.922119789822
 31
0.0
  0
LINE
  5
10CBA
330
1A
100
AcDbEntity
  8
ZISSEN1
100
AcDbLine
 10
-1389.592024829248
 20
1617.922119789822
 30
0.0
 11
-1389.592024829248
 21
1619.922129789822
 31
0.0
  0
LINE
  5
10CBB
330
1A
100
AcDbEntity
  8
ZISSEN1
100
AcDbLine
 10
-1385.592014829247
 20
1614.922109789822
 30
0.0
 11
-1389.592024829248
 21
1614.922109789822
 31
0.0
  0
LINE
  5
10CBC
330
1A
100
AcDbEntity
  8
ZISSEN1
100
AcDbLine
 10
-1389.592024829248
 20
1616.922119789822
 30
0.0
 11
-1385.592014829247
 21
1616.922119789822
 31
0.0
  0
LINE
  5
10CBD
330
1A
100
AcDbEntity
  8
ZISSEN1
100
AcDbLine
 10
-1385.592014829247
 20
1617.922119789822
 30
0.0
 11
-1389.592024829248
 21
1617.922119789822
 31
0.0
  0
LINE
  5
10CBE
330
1A
100
AcDbEntity
  8
ZISSEN1
100
AcDbLine
 10
-1389.592024829248
 20
1614.922109789822
 30
0.0
 11
-1389.592024829248
 21
1616.922119789822
 31
0.0
  0
LINE
  5
10CBF
330
1A
100
AcDbEntity
  8
ZISSEN1
100
AcDbLine
 10
-1385.592014829247
 20
1616.922119789822
 30
0.0
 11
-1385.592014829247
 21
1614.922109789822
 31
0.0
  0
LINE
  5
10CC0
330
1A
100
AcDbEntity
  8
ZISSEN1
100
AcDbLine
 10
-1389.592024829248
 20
1619.922129789822
 30
0.0
 11
-1385.592014829247
 21
1619.922129789822
 31
0.0
  0
LINE
  5
10CC1
330
1A
100
AcDbEntity
  8
ZISSEN1
100
AcDbLine
 10
-1385.592014829247
 20
1620.922129789822
 30
0.0
 11
-1389.592024829248
 21
1620.922129789822
 31
0.0
  0
LINE
  5
10CC2
330
1A
100
AcDbEntity
  8
ZISSEN1
100
AcDbLine
 10
-1389.592024829248
 20
1622.922139789822
 30
0.0
 11
-1385.592014829247
 21
1622.922139789822
 31
0.0
  0
LINE
  5
10CC3
330
1A
100
AcDbEntity
  8
ZISSEN1
100
AcDbLine
 10
-1389.592024829248
 20
1620.922129789822
 30
0.0
 11
-1389.592024829248
 21
1622.922139789822
 31
0.0
  0
LINE
  5
10CC4
330
1A
100
AcDbEntity
  8
ZISSEN1
100
AcDbLine
 10
-1385.592014829247
 20
1622.922139789822
 30
0.0
 11
-1385.592014829247
 21
1620.922129789822
 31
0.0
  0
LINE
  5
10CC5
330
1A
100
AcDbEntity
  8
ZISSEN1
100
AcDbLine
 10
-1374.592024829248
 20
1617.922119789822
 30
0.0
 11
-1374.592024829248
 21
1619.922129789822
 31
0.0
  0
LINE
  5
10CC6
330
1A
100
AcDbEntity
  8
ZISSEN1
100
AcDbLine
 10
-1378.092014829248
 20
1619.922129789822
 30
0.0
 11
-1378.092014829248
 21
1617.922119789822
 31
0.0
  0
LINE
  5
10CC7
330
1A
100
AcDbEntity
  8
ZISSEN1
100
AcDbLine
 10
-1382.092024829248
 20
1617.922119789822
 30
0.0
 11
-1382.092024829248
 21
1619.922129789822
 31
0.0
  0
LINE
  5
10CC8
330
1A
100
AcDbEntity
  8
ZISSEN1
100
AcDbLine
 10
-1378.092014829248
 20
1614.922109789822
 30
0.0
 11
-1382.092024829248
 21
1614.922109789822
 31
0.0
  0
LINE
  5
10CC9
330
1A
100
AcDbEntity
  8
ZISSEN1
100
AcDbLine
 10
-1382.092024829248
 20
1616.922119789822
 30
0.0
 11
-1378.092014829248
 21
1616.922119789822
 31
0.0
  0
LINE
  5
10CCA
330
1A
100
AcDbEntity
  8
ZISSEN1
100
AcDbLine
 10
-1378.092014829248
 20
1617.922119789822
 30
0.0
 11
-1382.092024829248
 21
1617.922119789822
 31
0.0
  0
LINE
  5
10CCB
330
1A
100
AcDbEntity
  8
ZISSEN1
100
AcDbLine
 10
-1382.092024829248
 20
1614.922109789822
 30
0.0
 11
-1382.092024829248
 21
1616.922119789822
 31
0.0
  0
LINE
  5
10CCC
330
1A
100
AcDbEntity
  8
ZISSEN1
100
AcDbLine
 10
-1374.592024829248
 20
1614.922109789822
 30
0.0
 11
-1374.592024829248
 21
1616.922119789822
 31
0.0
  0
LINE
  5
10CCD
330
1A
100
AcDbEntity
  8
ZISSEN1
100
AcDbLine
 10
-1378.092014829248
 20
1616.922119789822
 30
0.0
 11
-1378.092014829248
 21
1614.922109789822
 31
0.0
  0
LINE
  5
10CCE
330
1A
100
AcDbEntity
  8
ZISSEN1
100
AcDbLine
 10
-1382.092024829248
 20
1619.922129789822
 30
0.0
 11
-1378.092014829248
 21
1619.922129789822
 31
0.0
  0
LINE
  5
10CCF
330
1A
100
AcDbEntity
  8
ZISSEN1
100
AcDbLine
 10
-1378.092014829248
 20
1620.922129789822
 30
0.0
 11
-1382.092024829248
 21
1620.922129789822
 31
0.0
  0
LINE
  5
10CD0
330
1A
100
AcDbEntity
  8
ZISSEN1
100
AcDbLine
 10
-1382.092024829248
 20
1622.922139789822
 30
0.0
 11
-1378.092014829248
 21
1622.922139789822
 31
0.0
  0
LINE
  5
10CD1
330
1A
100
AcDbEntity
  8
ZISSEN1
100
AcDbLine
 10
-1382.092024829248
 20
1620.922129789822
 30
0.0
 11
-1382.092024829248
 21
1622.922139789822
 31
0.0
  0
LINE
  5
10CD2
330
1A
100
AcDbEntity
  8
ZISSEN1
100
AcDbLine
 10
-1374.592024829248
 20
1620.922129789822
 30
0.0
 11
-1374.592024829248
 21
1622.922139789822
 31
0.0
  0
LINE
  5
10CD3
330
1A
100
AcDbEntity
  8
ZISSEN1
100
AcDbLine
 10
-1378.092014829248
 20
1622.922139789822
 30
0.0
 11
-1378.092014829248
 21
1620.922129789822
 31
0.0
  0
LINE
  5
10CD4
330
1A
100
AcDbEntity
  8
ZISSEN1
100
AcDbLine
 10
-1370.592014829248
 20
1613.922109789822
 30
0.0
 11
-1370.592014829248
 21
1611.922119789822
 31
0.0
  0
LINE
  5
10CD5
330
1A
100
AcDbEntity
  8
ZISSEN1
100
AcDbLine
 10
-1359.591994829248
 20
1622.522129789822
 30
0.0
 11
-1359.591994829248
 21
1611.522129789822
 31
0.0
  0
LINE
  5
10CD6
330
1A
100
AcDbEntity
  8
ZISSEN1
100
AcDbLine
 10
-1368.592004829248
 20
1607.022119789822
 30
0.0
 11
-1368.592004829248
 21
1603.02212978982
 31
0.0
  0
LINE
  5
10CD7
330
1A
100
AcDbEntity
  8
ZISSEN1
100
AcDbLine
 10
-1372.592014829248
 20
1603.02212978982
 30
0.0
 11
-1372.592014829248
 21
1607.022119789822
 31
0.0
  0
LINE
  5
10CD8
330
1A
100
AcDbEntity
  8
ZISSEN1
100
AcDbLine
 10
-1368.592004829248
 20
1603.02212978982
 30
0.0
 11
-1372.592014829248
 21
1603.02212978982
 31
0.0
  0
LINE
  5
10CD9
330
1A
100
AcDbEntity
  8
ZISSEN1
100
AcDbLine
 10
-1372.592014829248
 20
1607.022119789822
 30
0.0
 11
-1368.592004829248
 21
1607.022119789822
 31
0.0
  0
LINE
  5
10CDA
330
1A
100
AcDbEntity
  8
ZISSEN1
100
AcDbLine
 10
-1370.592014829248
 20
1619.922129789822
 30
0.0
 11
-1370.592014829248
 21
1617.922119789822
 31
0.0
  0
LINE
  5
10CDB
330
1A
100
AcDbEntity
  8
ZISSEN1
100
AcDbLine
 10
-1370.592014829248
 20
1616.922119789822
 30
0.0
 11
-1370.592014829248
 21
1614.922109789822
 31
0.0
  0
LINE
  5
10CDC
330
1A
100
AcDbEntity
  8
ZISSEN1
100
AcDbLine
 10
-1370.592014829248
 20
1622.922139789822
 30
0.0
 11
-1370.592014829248
 21
1620.922129789822
 31
0.0
  0
LINE
  5
10CDD
330
1A
100
AcDbEntity
  8
ZISSEN1
100
AcDbLine
 10
-1304.092014829248
 20
1639.815029789822
 30
0.0
 11
-1304.092014829248
 21
1596.729239789822
 31
0.0
  0
ARC
  5
10CDE
330
1A
100
AcDbEntity
  8
ZISSEN1
100
AcDbCircle
 10
-1312.592014829248
 20
1577.022139789822
 30
0.0
 40
1.0
100
AcDbArc
 50
90.0
 51
270.0
  0
LINE
  5
10CDF
330
1A
100
AcDbEntity
  8
ZISSEN1
100
AcDbLine
 10
-1312.592014829248
 20
1576.022079789822
 30
0.0
 11
-1303.592014829248
 21
1576.022079789822
 31
0.0
  0
LINE
  5
10CE0
330
1A
100
AcDbEntity
  8
ZISSEN1
100
AcDbLine
 10
-1312.592014829248
 20
1574.022079789822
 30
0.0
 11
-1303.592014829248
 21
1574.022079789822
 31
0.0
  0
LINE
  5
10CE1
330
1A
100
AcDbEntity
  8
ZISSEN1
100
AcDbLine
 10
-1312.592014829248
 20
1572.022089789822
 30
0.0
 11
-1303.592014829248
 21
1572.022089789822
 31
0.0
  0
LINE
  5
10CE2
330
1A
100
AcDbEntity
  8
ZISSEN1
100
AcDbLine
 10
-1312.592014829248
 20
1570.022089789822
 30
0.0
 11
-1303.592014829248
 21
1570.022089789822
 31
0.0
  0
LINE
  5
10CE3
330
1A
100
AcDbEntity
  8
ZISSEN1
100
AcDbLine
 10
-1312.592014829248
 20
1568.022099789822
 30
0.0
 11
-1303.592014829248
 21
1568.022099789822
 31
0.0
  0
LINE
  5
10CE4
330
1A
100
AcDbEntity
  8
ZISSEN1
100
AcDbLine
 10
-1312.592014829248
 20
1566.022099789822
 30
0.0
 11
-1303.592014829248
 21
1566.022099789822
 31
0.0
  0
LINE
  5
10CE5
330
1A
100
AcDbEntity
  8
ZISSEN1
100
AcDbLine
 10
-1312.592014829248
 20
1564.022109789822
 30
0.0
 11
-1303.592014829248
 21
1564.022109789822
 31
0.0
  0
LINE
  5
10CE6
330
1A
100
AcDbEntity
  8
ZISSEN1
100
AcDbLine
 10
-1312.592014829248
 20
1562.022119789822
 30
0.0
 11
-1303.592014829248
 21
1562.022119789822
 31
0.0
  0
LINE
  5
10CE7
330
1A
100
AcDbEntity
  8
ZISSEN1
100
AcDbLine
 10
-1312.592014829248
 20
1560.022119789822
 30
0.0
 11
-1303.592014829248
 21
1560.022119789822
 31
0.0
  0
LINE
  5
10CE8
330
1A
100
AcDbEntity
  8
ZISSEN1
100
AcDbLine
 10
-1312.592014829248
 20
1558.02212978982
 30
0.0
 11
-1303.592014829248
 21
1558.02212978982
 31
0.0
  0
LINE
  5
10CE9
330
1A
100
AcDbEntity
  8
ZISSEN1
100
AcDbLine
 10
-1312.592014829248
 20
1556.022129789822
 30
0.0
 11
-1303.592014829248
 21
1556.022129789822
 31
0.0
  0
ARC
  5
10CEA
330
1A
100
AcDbEntity
  8
ZISSEN1
100
AcDbCircle
 10
-1312.592014829248
 20
1565.022139789822
 30
0.0
 40
1.0
100
AcDbArc
 50
90.0
 51
270.0
  0
ARC
  5
10CEB
330
1A
100
AcDbEntity
  8
ZISSEN1
100
AcDbCircle
 10
-1312.592014829248
 20
1557.022139789822
 30
0.0
 40
1.0
100
AcDbArc
 50
90.0
 51
270.0
  0
ARC
  5
10CEC
330
1A
100
AcDbEntity
  8
ZISSEN1
100
AcDbCircle
 10
-1312.592014829248
 20
1561.022139789822
 30
0.0
 40
1.0
100
AcDbArc
 50
90.0
 51
270.0
  0
ARC
  5
10CED
330
1A
100
AcDbEntity
  8
ZISSEN1
100
AcDbCircle
 10
-1312.592014829248
 20
1569.022149789822
 30
0.0
 40
1.0
100
AcDbArc
 50
90.0
 51
270.0
  0
ARC
  5
10CEE
330
1A
100
AcDbEntity
  8
ZISSEN1
100
AcDbCircle
 10
-1312.592014829248
 20
1573.022139789822
 30
0.0
 40
1.0
100
AcDbArc
 50
90.0
 51
270.0
  0
LINE
  5
10CEF
330
1A
100
AcDbEntity
  8
ZISSEN1
100
AcDbLine
 10
-1312.592014829248
 20
1594.022019789822
 30
0.0
 11
-1303.592014829248
 21
1594.022019789822
 31
0.0
  0
LINE
  5
10CF0
330
1A
100
AcDbEntity
  8
ZISSEN1
100
AcDbLine
 10
-1312.592014829248
 20
1592.022029789822
 30
0.0
 11
-1303.592014829248
 21
1592.022029789822
 31
0.0
  0
LINE
  5
10CF1
330
1A
100
AcDbEntity
  8
ZISSEN1
100
AcDbLine
 10
-1312.592014829248
 20
1590.022029789822
 30
0.0
 11
-1303.592014829248
 21
1590.022029789822
 31
0.0
  0
LINE
  5
10CF2
330
1A
100
AcDbEntity
  8
ZISSEN1
100
AcDbLine
 10
-1312.592014829248
 20
1588.022039789822
 30
0.0
 11
-1303.592014829248
 21
1588.022039789822
 31
0.0
  0
LINE
  5
10CF3
330
1A
100
AcDbEntity
  8
ZISSEN1
100
AcDbLine
 10
-1312.592014829248
 20
1586.022049789822
 30
0.0
 11
-1303.592014829248
 21
1586.022049789822
 31
0.0
  0
LINE
  5
10CF4
330
1A
100
AcDbEntity
  8
ZISSEN1
100
AcDbLine
 10
-1312.592014829248
 20
1584.022049789822
 30
0.0
 11
-1303.592014829248
 21
1584.022049789822
 31
0.0
  0
LINE
  5
10CF5
330
1A
100
AcDbEntity
  8
ZISSEN1
100
AcDbLine
 10
-1312.592014829248
 20
1582.022059789822
 30
0.0
 11
-1303.592014829248
 21
1582.022059789822
 31
0.0
  0
LINE
  5
10CF6
330
1A
100
AcDbEntity
  8
ZISSEN1
100
AcDbLine
 10
-1312.592014829248
 20
1580.022059789822
 30
0.0
 11
-1303.592014829248
 21
1580.022059789822
 31
0.0
  0
LINE
  5
10CF7
330
1A
100
AcDbEntity
  8
ZISSEN1
100
AcDbLine
 10
-1312.592014829248
 20
1578.022069789822
 30
0.0
 11
-1303.592014829248
 21
1578.022069789822
 31
0.0
  0
ARC
  5
10CF8
330
1A
100
AcDbEntity
  8
ZISSEN1
100
AcDbCircle
 10
-1312.592014829248
 20
1589.022139789822
 30
0.0
 40
1.0
100
AcDbArc
 50
90.0
 51
270.0
  0
ARC
  5
10CF9
330
1A
100
AcDbEntity
  8
ZISSEN1
100
AcDbCircle
 10
-1312.592014829248
 20
1581.022139789822
 30
0.0
 40
1.0
100
AcDbArc
 50
90.0
 51
270.0
  0
ARC
  5
10CFA
330
1A
100
AcDbEntity
  8
ZISSEN1
100
AcDbCircle
 10
-1312.592014829248
 20
1585.022139789822
 30
0.0
 40
1.0
100
AcDbArc
 50
89.20745799999686
 51
270.0
  0
ARC
  5
10CFB
330
1A
100
AcDbEntity
  8
ZISSEN1
100
AcDbCircle
 10
-1312.592014829248
 20
1593.022139789822
 30
0.0
 40
1.0
100
AcDbArc
 50
90.0
 51
270.0
  0
LINE
  5
10CFC
330
1A
100
AcDbEntity
  8
ZISSEN1
100
AcDbLine
 10
-1304.799124829248
 20
1596.022129789822
 30
0.0
 11
-1304.092014829248
 21
1596.729239789822
 31
0.0
  0
LINE
  5
10CFD
330
1A
100
AcDbEntity
  8
ZISSEN1
100
AcDbLine
 10
-1323.592004829248
 20
1603.02212978982
 30
0.0
 11
-1327.592014829248
 21
1603.02212978982
 31
0.0
  0
LINE
  5
10CFE
330
1A
100
AcDbEntity
  8
ZISSEN1
100
AcDbLine
 10
-1327.592014829248
 20
1607.022119789822
 30
0.0
 11
-1323.592004829248
 21
1607.022119789822
 31
0.0
  0
LINE
  5
10CFF
330
1A
100
AcDbEntity
  8
ZISSEN1
100
AcDbLine
 10
-1338.592004829248
 20
1603.02212978982
 30
0.0
 11
-1342.592014829248
 21
1603.02212978982
 31
0.0
  0
LINE
  5
10D00
330
1A
100
AcDbEntity
  8
ZISSEN1
100
AcDbLine
 10
-1342.592014829248
 20
1607.022119789822
 30
0.0
 11
-1338.592004829248
 21
1607.022119789822
 31
0.0
  0
LINE
  5
10D01
330
1A
100
AcDbEntity
  8
ZISSEN1
100
AcDbLine
 10
-1346.092004829248
 20
1603.02212978982
 30
0.0
 11
-1350.092014829248
 21
1603.02212978982
 31
0.0
  0
LINE
  5
10D02
330
1A
100
AcDbEntity
  8
ZISSEN1
100
AcDbLine
 10
-1350.092014829248
 20
1607.022119789822
 30
0.0
 11
-1346.092004829248
 21
1607.022119789822
 31
0.0
  0
LINE
  5
10D03
330
1A
100
AcDbEntity
  8
ZISSEN1
100
AcDbLine
 10
-1350.092014829248
 20
1603.02212978982
 30
0.0
 11
-1350.092014829248
 21
1607.022119789822
 31
0.0
  0
LINE
  5
10D04
330
1A
100
AcDbEntity
  8
ZISSEN1
100
AcDbLine
 10
-1353.592004829248
 20
1607.022119789822
 30
0.0
 11
-1353.592004829248
 21
1603.02212978982
 31
0.0
  0
LINE
  5
10D05
330
1A
100
AcDbEntity
  8
ZISSEN1
100
AcDbLine
 10
-1357.592014829248
 20
1603.02212978982
 30
0.0
 11
-1357.592014829248
 21
1607.022119789822
 31
0.0
  0
LINE
  5
10D06
330
1A
100
AcDbEntity
  8
ZISSEN1
100
AcDbLine
 10
-1353.592004829248
 20
1603.02212978982
 30
0.0
 11
-1357.592014829248
 21
1603.02212978982
 31
0.0
  0
LINE
  5
10D07
330
1A
100
AcDbEntity
  8
ZISSEN1
100
AcDbLine
 10
-1357.592014829248
 20
1607.022119789822
 30
0.0
 11
-1353.592004829248
 21
1607.022119789822
 31
0.0
  0
LINE
  5
10D08
330
1A
100
AcDbEntity
  8
ZISSEN1
100
AcDbLine
 10
-1342.592014829248
 20
1603.02212978982
 30
0.0
 11
-1342.592014829248
 21
1607.022119789822
 31
0.0
  0
LINE
  5
10D09
330
1A
100
AcDbEntity
  8
ZISSEN1
100
AcDbLine
 10
-1346.092004829248
 20
1607.022119789822
 30
0.0
 11
-1346.092004829248
 21
1603.02212978982
 31
0.0
  0
LINE
  5
10D0A
330
1A
100
AcDbEntity
  8
ZISSEN1
100
AcDbLine
 10
-1331.092004829248
 20
1603.02212978982
 30
0.0
 11
-1335.092014829248
 21
1603.02212978982
 31
0.0
  0
LINE
  5
10D0B
330
1A
100
AcDbEntity
  8
ZISSEN1
100
AcDbLine
 10
-1335.092014829248
 20
1607.022119789822
 30
0.0
 11
-1331.092004829248
 21
1607.022119789822
 31
0.0
  0
LINE
  5
10D0C
330
1A
100
AcDbEntity
  8
ZISSEN1
100
AcDbLine
 10
-1335.092014829248
 20
1603.02212978982
 30
0.0
 11
-1335.092014829248
 21
1607.022119789822
 31
0.0
  0
LINE
  5
10D0D
330
1A
100
AcDbEntity
  8
ZISSEN1
100
AcDbLine
 10
-1338.592004829248
 20
1607.022119789822
 30
0.0
 11
-1338.592004829248
 21
1603.02212978982
 31
0.0
  0
LINE
  5
10D0E
330
1A
100
AcDbEntity
  8
ZISSEN1
100
AcDbLine
 10
-1327.592014829248
 20
1603.02212978982
 30
0.0
 11
-1327.592014829248
 21
1607.022119789822
 31
0.0
  0
LINE
  5
10D0F
330
1A
100
AcDbEntity
  8
ZISSEN1
100
AcDbLine
 10
-1331.092004829248
 20
1607.022119789822
 30
0.0
 11
-1331.092004829248
 21
1603.02212978982
 31
0.0
  0
LINE
  5
10D10
330
1A
100
AcDbEntity
  8
ZISSEN1
100
AcDbLine
 10
-1315.092004829248
 20
1615.522129789821
 30
0.0
 11
-1315.092004829248
 21
1611.522129789822
 31
0.0
  0
LINE
  5
10D11
330
1A
100
AcDbEntity
  8
ZISSEN1
100
AcDbLine
 10
-1319.092014829248
 20
1611.522129789822
 30
0.0
 11
-1319.092014829248
 21
1615.522129789821
 31
0.0
  0
LINE
  5
10D12
330
1A
100
AcDbEntity
  8
ZISSEN1
100
AcDbLine
 10
-1321.591994829248
 20
1622.522129789822
 30
0.0
 11
-1321.591994829248
 21
1611.522129789822
 31
0.0
  0
LINE
  5
10D13
330
1A
100
AcDbEntity
  8
ZISSEN1
100
AcDbLine
 10
-1315.092004829248
 20
1611.522129789822
 30
0.0
 11
-1319.092014829248
 21
1611.522129789822
 31
0.0
  0
LINE
  5
10D14
330
1A
100
AcDbEntity
  8
ZISSEN1
100
AcDbLine
 10
-1323.592004829248
 20
1607.022119789822
 30
0.0
 11
-1323.592004829248
 21
1603.02212978982
 31
0.0
  0
LINE
  5
10D15
330
1A
100
AcDbEntity
  8
ZISSEN1
100
AcDbLine
 10
-1319.092014829248
 20
1615.522129789821
 30
0.0
 11
-1315.092004829248
 21
1615.522129789821
 31
0.0
  0
LINE
  5
10D16
330
1A
100
AcDbEntity
  8
ZISSEN1
100
AcDbLine
 10
-1312.592014829248
 20
1642.222149789822
 30
0.0
 11
-1303.592014829248
 21
1642.222149789822
 31
0.0
  0
LINE
  5
10D17
330
1A
100
AcDbEntity
  8
ZISSEN1
100
AcDbLine
 10
-1312.592014829248
 20
1641.022139789822
 30
0.0
 11
-1312.592014829248
 21
1642.222149789822
 31
0.0
  0
ARC
  5
10D18
330
1A
100
AcDbEntity
  8
ZISSEN1
100
AcDbCircle
 10
-1300.592004829248
 20
1635.522149789822
 30
0.0
 40
2.25
100
AcDbArc
 50
90.0
 51
270.0
  0
LINE
  5
10D19
330
1A
100
AcDbEntity
  8
CL1
100
AcDbLine
 10
-1299.092024829248
 20
1641.022139789822
 30
0.0
 11
-1299.092024829248
 21
1629.987659789822
 31
0.0
  0
LINE
  5
10D1A
330
1A
100
AcDbEntity
  8
ZISSEN1
100
AcDbLine
 10
-1300.592004829248
 20
1633.272149789822
 30
0.0
 11
-1295.592014829248
 21
1633.272149789822
 31
0.0
  0
LINE
  5
10D1B
330
1A
100
AcDbEntity
  8
ZISSEN1
100
AcDbLine
 10
-1296.299114829248
 20
1628.822149789822
 30
0.0
 11
-1303.592014829248
 21
1628.822149789822
 31
0.0
  0
LINE
  5
10D1C
330
1A
100
AcDbEntity
  8
ZISSEN1
100
AcDbLine
 10
-1295.592014829248
 20
1629.529249789822
 30
0.0
 11
-1295.592014829248
 21
1633.272149789822
 31
0.0
  0
LINE
  5
10D1D
330
1A
100
AcDbEntity
  8
ZISSEN1
100
AcDbLine
 10
-1296.299114829248
 20
1628.822149789822
 30
0.0
 11
-1295.592014829248
 21
1629.529249789822
 31
0.0
  0
LINE
  5
10D1E
330
1A
100
AcDbEntity
  8
ZISSEN1
100
AcDbLine
 10
-1300.592004829248
 20
1637.772139789822
 30
0.0
 11
-1295.592014829248
 21
1637.772139789822
 31
0.0
  0
LINE
  5
10D1F
330
1A
100
AcDbEntity
  8
ZISSEN1
100
AcDbLine
 10
-1296.299114829248
 20
1642.222149789822
 30
0.0
 11
-1303.592014829248
 21
1642.222149789822
 31
0.0
  0
LINE
  5
10D20
330
1A
100
AcDbEntity
  8
ZISSEN1
100
AcDbLine
 10
-1303.592014829248
 20
1641.022139789822
 30
0.0
 11
-1303.592014829248
 21
1642.222149789822
 31
0.0
  0
LINE
  5
10D21
330
1A
100
AcDbEntity
  8
ZISSEN1
100
AcDbLine
 10
-1304.092014829248
 20
1639.815029789822
 30
0.0
 11
-1304.799124829248
 21
1640.522139789822
 31
0.0
  0
LINE
  5
10D22
330
1A
100
AcDbEntity
  8
ZISSEN1
100
AcDbLine
 10
-1295.592014829248
 20
1637.772139789822
 30
0.0
 11
-1295.592014829248
 21
1641.515039789822
 31
0.0
  0
LINE
  5
10D23
330
1A
100
AcDbEntity
  8
ZISSEN1
100
AcDbLine
 10
-1295.592014829248
 20
1641.515039789822
 30
0.0
 11
-1296.299114829248
 21
1642.222149789822
 31
0.0
  0
LINE
  5
10DBE
330
1A
100
AcDbEntity
  8
ZISSEN1
100
AcDbLine
 10
-1306.97530514976
 20
1645.222627563266
 30
0.0
 11
-1311.27530514976
 21
1645.222627563266
 31
0.0
  0
LINE
  5
10DBF
330
1A
100
AcDbEntity
  8
ZISSEN1
100
AcDbLine
 10
-1312.27639578675
 20
1642.222149789822
 30
0.0
 11
-1312.27530514976
 21
1644.222627563266
 31
0.0
  0
ARC
  5
10DC0
330
1A
100
AcDbEntity
  8
ZISSEN1
100
AcDbCircle
 10
-1311.27530514976
 20
1644.222627563266
 30
0.0
 40
1.0
100
AcDbArc
 50
90.0
 51
180.0
  0
LINE
  5
10DC1
330
1A
100
AcDbEntity
  8
ZISSEN1
100
AcDbLine
 10
-1305.976350823639
 20
1642.222149789822
 30
0.0
 11
-1305.97530514976
 21
1644.222627563266
 31
0.0
  0
ARC
  5
10DC2
330
1A
100
AcDbEntity
  8
ZISSEN1
100
AcDbCircle
 10
-1306.97530514976
 20
1644.222627563266
 30
0.0
 40
1.0
100
AcDbArc
 50
0.0
 51
90.0
  0
LINE
  5
10DE3
330
1A
100
AcDbEntity
  8
ZISSEN1
100
AcDbLine
 10
-1400.050892922394
 20
1645.229726643315
 30
0.0
 11
-1404.350892922395
 21
1645.229726643315
 31
0.0
  0
LINE
  5
10DE6
330
1A
100
AcDbEntity
  8
ZISSEN1
100
AcDbLine
 10
-1399.050892922395
 20
1643.229726643316
 30
0.0
 11
-1399.050892922395
 21
1644.229726643316
 31
0.0
  0
ARC
  5
10DE7
330
1A
100
AcDbEntity
  8
ZISSEN1
100
AcDbCircle
 10
-1400.050892922394
 20
1644.229726643316
 30
0.0
 40
1.0
100
AcDbArc
 50
0.0
 51
90.0
  0
LINE
  5
10DEA
330
1A
100
AcDbEntity
  8
ZISSEN1
100
AcDbLine
 10
-1407.592004829248
 20
1641.022139789822
 30
0.0
 11
-1407.592004961311
 21
1642.222149839995
 31
0.0
  0
LINE
  5
10E5A
330
1A
100
AcDbEntity
  8
ZISSEN1
100
AcDbLine
 10
-1399.051938596274
 20
1642.229248869872
 30
0.0
 11
-1399.050892922395
 21
1644.229726643316
 31
0.0
  0
LINE
  5
10E5B
330
1A
100
AcDbEntity
  8
ZISSEN1
100
AcDbLine
 10
-1405.351983559383
 20
1642.229248869872
 30
0.0
 11
-1405.350892922395
 21
1644.229726643316
 31
0.0
  0
ARC
  5
10E5C
330
1A
100
AcDbEntity
  8
ZISSEN1
100
AcDbCircle
 10
-1400.050892922394
 20
1644.229726643316
 30
0.0
 40
1.0
100
AcDbArc
 50
0.0
 51
90.0
  0
ARC
  5
10E5D
330
1A
100
AcDbEntity
  8
ZISSEN1
100
AcDbCircle
 10
-1404.350892922395
 20
1644.229726643316
 30
0.0
 40
1.0
100
AcDbArc
 50
90.0
 51
180.0
  0
LINE
  5
10E5E
330
1A
100
AcDbEntity
  8
ZISSEN1
100
AcDbLine
 10
-1400.050892922394
 20
1645.229726643315
 30
0.0
 11
-1404.350892922395
 21
1645.229726643315
 31
0.0
  0
LINE
  5
10E71
330
1A
100
AcDbEntity
  8
ZISSEN1
100
AcDbLine
 10
-1521.461665570545
 20
1645.122900393489
 30
0.0
 11
-1525.761665570546
 21
1645.122900393489
 31
0.0
  0
LINE
  5
10E72
330
1A
100
AcDbEntity
  8
ZISSEN1
100
AcDbLine
 10
-1520.461665570546
 20
1643.122900393489
 30
0.0
 11
-1520.461665570546
 21
1644.122900393488
 31
0.0
  0
LINE
  5
10E73
330
1A
100
AcDbEntity
  8
ZISSEN1
100
AcDbLine
 10
-1521.461665570545
 20
1645.122900393489
 30
0.0
 11
-1525.761665570546
 21
1645.122900393489
 31
0.0
  0
ARC
  5
10E74
330
1A
100
AcDbEntity
  8
ZISSEN1
100
AcDbCircle
 10
-1525.761665570546
 20
1644.122900393488
 30
0.0
 40
1.0
100
AcDbArc
 50
90.0
 51
180.0
  0
LINE
  5
10E75
330
1A
100
AcDbEntity
  8
ZISSEN1
100
AcDbLine
 10
-1526.762756207535
 20
1642.222149789822
 30
0.0
 11
-1526.761665570546
 21
1644.122900393488
 31
0.0
  0
LINE
  5
10E76
330
1A
100
AcDbEntity
  8
ZISSEN1
100
AcDbLine
 10
-1520.462711244424
 20
1642.222149789822
 30
0.0
 11
-1520.461665570546
 21
1644.122900393488
 31
0.0
  0
ARC
  5
10E77
330
1A
100
AcDbEntity
  8
ZISSEN1
100
AcDbCircle
 10
-1521.461665570545
 20
1644.122900393488
 30
0.0
 40
1.0
100
AcDbArc
 50
0.0
 51
90.0
  0
ARC
  5
10E78
330
1A
100
AcDbEntity
  8
ZISSEN1
100
AcDbCircle
 10
-1521.461665570545
 20
1644.122900393488
 30
0.0
 40
1.0
100
AcDbArc
 50
0.0
 51
90.0
  0
LINE
  5
10E86
330
1A
100
AcDbEntity
  8
ZISSEN1
100
AcDbLine
 10
-1493.572312701792
 20
1644.051080534442
 30
0.0
 11
-1497.872312701792
 21
1644.051080534442
 31
0.0
  0
LINE
  5
10E87
330
1A
100
AcDbEntity
  8
ZISSEN1
100
AcDbLine
 10
-1492.572312701793
 20
1642.051080534442
 30
0.0
 11
-1492.572312701793
 21
1643.051080534442
 31
0.0
  0
LINE
  5
10E88
330
1A
100
AcDbEntity
  8
ZISSEN1
100
AcDbLine
 10
-1493.572312701792
 20
1644.051080534442
 30
0.0
 11
-1497.872312701792
 21
1644.051080534442
 31
0.0
  0
ARC
  5
10E89
330
1A
100
AcDbEntity
  8
ZISSEN1
100
AcDbCircle
 10
-1497.872312701792
 20
1643.051080534442
 30
0.0
 40
1.0
100
AcDbArc
 50
90.0
 51
180.0
  0
LINE
  5
10E8A
330
1A
100
AcDbEntity
  8
ZISSEN1
100
AcDbLine
 10
-1498.873403338783
 20
1641.050602760998
 30
0.0
 11
-1498.872312701791
 21
1643.051080534442
 31
0.0
  0
LINE
  5
10E8B
330
1A
100
AcDbEntity
  8
ZISSEN1
100
AcDbLine
 10
-1492.573358375671
 20
1641.050602760998
 30
0.0
 11
-1492.572312701793
 21
1643.051080534442
 31
0.0
  0
ARC
  5
10E8C
330
1A
100
AcDbEntity
  8
ZISSEN1
100
AcDbCircle
 10
-1493.572312701792
 20
1643.051080534442
 30
0.0
 40
1.0
100
AcDbArc
 50
0.0
 51
90.0
  0
ARC
  5
10E8D
330
1A
100
AcDbEntity
  8
ZISSEN1
100
AcDbCircle
 10
-1493.572312701792
 20
1643.051080534442
 30
0.0
 40
1.0
100
AcDbArc
 50
0.0
 51
90.0
  0
LINE
  5
10E93
330
1A
100
AcDbEntity
  8
ZISSEN1
100
AcDbLine
 10
-1303.592
 20
1548.822153596066
 30
0.0
 11
-1319.592014829248
 21
1548.830659130367
 31
0.0
  0
LINE
  5
10E94
330
1A
100
AcDbEntity
  8
ZISSEN1
100
AcDbLine
 10
-1398.592004961312
 20
1642.222149839995
 30
0.0
 11
-1312.27639578675
 21
1642.222149789822
 31
0.0
  0
MTEXT
  5
10F14
330
1A
100
AcDbEntity
  8
ZISSEN1
100
AcDbMText
 10
-1490.720033675545
 20
1674.601331121507
 30
0.0
 40
5.0
 41
137.1597999999997
 71
     5
 72
     5
  1
{\fＭＳ ゴシック|b0|i0|c128|p49;C-570-SA  No.SS0001f29}
1001
ACAD
1000
MTEXTBEGIN
1070
    73
1070
     1
1070
    44
1040
1.0
1070
    74
1070
     0
1000
MTEXTEND
  0
LINE
  5
10F20
330
1A
100
AcDbEntity
  8
ZISSEN1
100
AcDbLine
 10
-1407.592004961311
 20
1642.222149839995
 30
0.0
 11
-1398.592004961312
 21
1642.222149839995
 31
0.0
  0
LINE
  5
10F21
330
1A
100
AcDbEntity
  8
ZISSEN1
100
AcDbLine
 10
-1398.592004961312
 20
1642.222149839995
 30
0.0
 11
-1399.050892922395
 21
1642.222149839995
 31
0.0
  0
LINE
  5
10F23
330
1A
100
AcDbEntity
  8
ZISSEN1
100
AcDbLine
 10
-1519.273094829248
 20
1642.222149789822
 30
0.0
 11
-1520.462658790806
 21
1642.222771589262
 31
0.0
  0
LINE
  5
10F50
330
1A
100
AcDbEntity
  8
SOUZOUSEN
100
AcDbLine
 10
-1389.067074829248
 20
1546.022159789822
 30
0.0
 11
-1389.067074829248
 21
1534.022139789822
 31
0.0
  0
LINE
  5
10F51
330
1A
100
AcDbEntity
  8
SOUZOUSEN
100
AcDbLine
 10
-1389.067074829248
 20
1534.022139789822
 30
0.0
 11
-1319.587054829248
 21
1534.022139789822
 31
0.0
  0
LINE
  5
10F52
330
1A
100
AcDbEntity
  8
SOUZOUSEN
100
AcDbLine
 10
-1319.587054829248
 20
1546.022159789822
 30
0.0
 11
-1319.587054829248
 21
1534.022139789822
 31
0.0
  0
LINE
  5
10FE6
330
1A
100
AcDbEntity
  8
ZISSEN1
100
AcDbLine
 10
-1487.473094829248
 20
1545.022129789822
 30
0.0
 11
-1487.473094829248
 21
1550.022139789822
 31
0.0
  0
LINE
  5
10FE7
330
1A
100
AcDbEntity
  8
SOUZOUSEN
100
AcDbLine
 10
-1491.773104829248
 20
1545.022129789822
 30
0.0
 11
-1487.473094829248
 21
1545.022129789822
 31
0.0
  0
LINE
  5
11084
330
1A
100
AcDbEntity
  8
ZISSEN1
100
AcDbLine
 10
-1484.973094829248
 20
1641.022139789822
 30
0.0
 11
-1484.973094829248
 21
1550.022139789822
 31
0.0
  0
DIMENSION
  5
1111C
330
1A
100
AcDbEntity
  8
SUNPOU
100
AcDbDimension
  2
*D24
 10
-1543.278117058735
 20
1560.522149789822
 30
0.0
 11
-1546.028117058735
 21
1595.522154789819
 31
0.0
 70
    32
  3
標準スタイル
100
AcDbAlignedDimension
 13
-1536.078693829248
 23
1630.522159789822
 33
0.0
 14
-1536.078693829248
 24
1560.522149789822
 34
0.0
 50
90.0
100
AcDbRotatedDimension
1001
ACAD
1000
DSTYLE
1002
{
1070
    40
1040
1.0
1002
}
  0
DIMENSION
  5
11148
330
1A
100
AcDbEntity
  8
SUNPOU
100
AcDbDimension
  2
*D25
 10
-1543.325166563688
 20
1548.822139789822
 30
0.0
 11
-1543.325166563689
 21
1554.672144789821
 31
0.0
 70
   160
  1
(11.7)
  3
標準スタイル
100
AcDbAlignedDimension
 13
-1536.078693829248
 23
1560.522149789822
 33
0.0
 14
-1531.273094829248
 24
1548.822139789822
 34
0.0
 50
90.0
100
AcDbRotatedDimension
1001
ACAD
1000
DSTYLE
1002
{
1070
    40
1040
1.0
1002
}
  0
DIMENSION
  5
1115E
330
1A
100
AcDbEntity
  8
SUNPOU
100
AcDbDimension
  2
*D26
 10
-1473.343610202713
 20
1550.022139789822
 30
0.0
 11
-1476.386757410837
 21
1542.022139789819
 31
0.0
 70
    32
  1
(16)
  3
標準スタイル
100
AcDbAlignedDimension
 13
-1508.423094829248
 23
1534.022139789822
 33
0.0
 14
-1484.973094829248
 24
1550.022139789822
 34
0.0
 50
90.0
100
AcDbRotatedDimension
1001
ACAD
1000
DSTYLE
1002
{
1070
    40
1040
1.0
1002
}
  0
DIMENSION
  5
11174
330
1A
100
AcDbEntity
  8
SUNPOU
100
AcDbDimension
  2
*D27
 10
-1432.842435751747
 20
1555.522139789822
 30
0.0
 11
-1435.592435751748
 21
1595.522144789822
 31
0.0
 70
    32
  3
標準スタイル
100
AcDbAlignedDimension
 13
-1305.586374829248
 23
1635.522149789822
 33
0.0
 14
-1419.230484829248
 24
1555.522139789822
 34
0.0
 50
90.0
100
AcDbRotatedDimension
1001
ACAD
1000
DSTYLE
1002
{
1070
    40
1040
1.0
1002
}
  0
DIMENSION
  5
11181
330
1A
100
AcDbEntity
  8
SUNPOU
100
AcDbDimension
  2
*D28
 10
-1295.592014829248
 20
1663.461093327863
 30
0.0
 11
-1355.592014829248
 21
1666.211093327863
 31
0.0
 70
    32
  3
標準スタイル
100
AcDbAlignedDimension
 13
-1415.592014829248
 23
1560.782129789822
 33
0.0
 14
-1295.592014829248
 24
1641.515039789822
 34
0.0
100
AcDbRotatedDimension
1001
ACAD
1000
DSTYLE
1002
{
1070
    40
1040
1.0
1002
}
  0
DIMENSION
  5
1118E
330
1A
100
AcDbEntity
  8
SUNPOU
100
AcDbDimension
  2
*D29
 10
-1299.092024829248
 20
1651.293461704049
 30
0.0
 11
-1355.592009829248
 21
1654.043461704048
 31
0.0
 70
    32
  3
標準スタイル
100
AcDbAlignedDimension
 13
-1412.091994829248
 23
1559.898809789822
 33
0.0
 14
-1299.092024829248
 24
1641.022139789822
 34
0.0
100
AcDbRotatedDimension
1001
ACAD
1000
DSTYLE
1002
{
1070
    40
1040
1.0
1002
}
  0
DIMENSION
  5
1119B
330
1A
100
AcDbEntity
  8
SUNPOU
100
AcDbDimension
  2
*D30
 10
-1286.089735071114
 20
1633.272149789822
 30
0.0
 11
-1288.839735071115
 21
1623.065296997943
 31
0.0
 70
    32
  3
標準スタイル
100
AcDbAlignedDimension
 13
-1295.592014829248
 23
1637.772139789822
 33
0.0
 14
-1295.592014829248
 24
1633.272149789822
 34
0.0
 50
90.0
100
AcDbRotatedDimension
1001
ACAD
1000
DSTYLE
1002
{
1070
    40
1040
1.0
1002
}
  0
DIMENSION
  5
111AA
330
1A
100
AcDbEntity
  8
SUNPOU
100
AcDbDimension
  2
*D31
 10
-1274.55458799291
 20
1628.822149789822
 30
0.0
 11
-1277.304587992911
 21
1635.522149789822
 31
0.0
 70
    32
  3
標準スタイル
100
AcDbAlignedDimension
 13
-1296.299114829248
 23
1642.222149789822
 33
0.0
 14
-1296.299114829248
 24
1628.822149789822
 34
0.0
 50
90.0
100
AcDbRotatedDimension
1001
ACAD
1000
DSTYLE
1002
{
1070
    40
1040
1.0
1002
}
  0
DIMENSION
  5
111D1
330
1A
100
AcDbEntity
  8
SUNPOU
100
AcDbDimension
  2
*D32
 10
-1303.592
 20
1525.050019192134
 30
0.0
 11
-1355.592002414623
 21
1527.800019192134
 31
0.0
 70
    32
  3
標準スタイル
100
AcDbAlignedDimension
 13
-1407.592004829248
 23
1548.822139789822
 33
0.0
 14
-1303.592
 24
1548.822153596066
 34
0.0
100
AcDbRotatedDimension
1001
ACAD
1000
DSTYLE
1002
{
1070
    40
1040
1.0
1002
}
  0
LINE
  5
11264
330
1A
100
AcDbEntity
  8
ZISSEN1
100
AcDbLine
 10
-1303.592014829248
 20
1550.022139789822
 30
0.0
 11
-1303.592
 21
1548.822153596066
 31
0.0
  0
DIMENSION
  5
11280
330
1A
100
AcDbEntity
  8
SUNPOU
100
AcDbDimension
  2
*D33
 10
-1303.592
 20
1525.050019192134
 30
0.0
 11
-1299.592007414624
 21
1527.800019192134
 31
0.0
 70
    32
  3
標準スタイル
100
AcDbAlignedDimension
 13
-1295.592014829248
 23
1629.529249789822
 33
0.0
 14
-1303.592
 24
1548.322153596066
 34
0.0
100
AcDbRotatedDimension
1001
ACAD
1000
DSTYLE
1002
{
1070
    40
1040
1.0
1002
}
  0
DIMENSION
  5
1129C
330
1A
100
AcDbEntity
  8
SUNPOU
100
AcDbDimension
  2
*D34
 10
-1407.592004829248
 20
1525.050019192134
 30
0.0
 11
-1411.592009829248
 21
1527.800019192134
 31
0.0
 70
    32
  3
標準スタイル
100
AcDbAlignedDimension
 13
-1415.592014829248
 23
1549.529249789822
 33
0.0
 14
-1407.592004829248
 24
1548.822139789822
 34
0.0
100
AcDbRotatedDimension
1001
ACAD
1000
DSTYLE
1002
{
1070
    40
1040
1.0
1002
}
  0
DIMENSION
  5
112AA
330
1A
100
AcDbEntity
  8
SUNPOU
100
AcDbDimension
  2
*D35
 10
-1288.122854949252
 20
1455.073488789822
 30
0.0
 11
-1290.872854949252
 21
1447.602676607081
 31
0.0
 70
    32
  3
標準スタイル
100
AcDbAlignedDimension
 13
-1295.592014829248
 23
1456.074791169749
 33
0.0
 14
-1295.592014829248
 24
1455.073488789822
 34
0.0
 50
90.0
100
AcDbRotatedDimension
1001
ACAD
1000
DSTYLE
1002
{
1070
    40
1040
1.0
1002
}
  0
DIMENSION
  5
112B9
330
1A
100
AcDbEntity
  8
SUNPOU
100
AcDbDimension
  2
*D36
 10
-1261.715852930805
 20
1548.822153596066
 30
0.0
 11
-1264.465852930805
 21
1595.522151692944
 31
0.0
 70
    32
  3
標準スタイル
100
AcDbAlignedDimension
 13
-1296.299114829248
 23
1642.222149789822
 33
0.0
 14
-1303.592
 24
1548.822153596066
 34
0.0
 50
90.0
100
AcDbRotatedDimension
1001
ACAD
1000
DSTYLE
1002
{
1070
    40
1040
1.0
1002
}
  0
DIMENSION
  5
112C6
330
1A
100
AcDbEntity
  8
SUNPOU
100
AcDbDimension
  2
*D37
 10
-1286.089735071114
 20
1455.073488789822
 30
0.0
 11
-1288.839735071115
 21
1478.223491289822
 31
0.0
 70
    32
  3
標準スタイル
100
AcDbAlignedDimension
 13
-1303.592014829248
 23
1501.373493789822
 33
0.0
 14
-1295.592014829248
 24
1455.073488789822
 34
0.0
 50
90.0
100
AcDbRotatedDimension
1001
ACAD
1000
DSTYLE
1002
{
1070
    40
1040
1.0
1002
}
  0
DIMENSION
  5
112D3
330
1A
100
AcDbEntity
  8
SUNPOU
100
AcDbDimension
  2
*D38
 10
-1286.089735071114
 20
1501.373493789822
 30
0.0
 11
-1286.089735071115
 21
1509.844305972563
 31
0.0
 70
   160
  3
標準スタイル
100
AcDbAlignedDimension
 13
-1315.092004829248
 23
1502.373493789822
 33
0.0
 14
-1303.092014829248
 24
1501.373493789822
 34
0.0
 50
90.0
100
AcDbRotatedDimension
1001
ACAD
1000
DSTYLE
1002
{
1070
    40
1040
1.0
1002
}
  0
DIMENSION
  5
112E2
330
1A
100
AcDbEntity
  8
SUNPOU
100
AcDbDimension
  2
*D39
 10
-1303.592014829248
 20
1437.557042328405
 30
0.0
 11
-1323.342014829248
 21
1440.600189536525
 31
0.0
 70
    32
  1
(39.5)
  3
標準スタイル
100
AcDbAlignedDimension
 13
-1343.092014829248
 23
1447.049170789822
 33
0.0
 14
-1303.592014829248
 24
1455.073488789822
 34
0.0
100
AcDbRotatedDimension
1001
ACAD
1000
DSTYLE
1002
{
1070
    40
1040
1.0
1002
}
  0
DIMENSION
  5
112EF
330
1A
100
AcDbEntity
  8
SUNPOU
100
AcDbDimension
  2
*D40
 10
-1343.092014829248
 20
1437.557042328405
 30
0.0
 11
-1355.592009829248
 21
1440.307042328405
 31
0.0
 70
    32
  3
標準スタイル
100
AcDbAlignedDimension
 13
-1368.092004829247
 23
1447.049170789822
 33
0.0
 14
-1343.092014829248
 24
1446.549170789822
 34
0.0
100
AcDbRotatedDimension
1001
ACAD
1000
DSTYLE
1002
{
1070
    40
1040
1.0
1002
}
  0
DIMENSION
  5
112FC
330
1A
100
AcDbEntity
  8
SUNPOU
100
AcDbDimension
  2
*D41
 10
-1368.092004829247
 20
1437.557042328405
 30
0.0
 11
-1387.842004829248
 21
1440.600189536525
 31
0.0
 70
    32
  1
(39.5)
  3
標準スタイル
100
AcDbAlignedDimension
 13
-1407.592004829248
 23
1456.0735
 33
0.0
 14
-1368.092004829247
 24
1446.549170789822
 34
0.0
100
AcDbRotatedDimension
1001
ACAD
1000
DSTYLE
1002
{
1070
    40
1040
1.0
1002
}
  0
DIMENSION
  5
11312
330
1A
100
AcDbEntity
  8
SUNPOU
100
AcDbDimension
  2
*D42
 10
-1407.592004829248
 20
1437.557042328405
 30
0.0
 11
-1415.592009829248
 21
1440.600189536525
 31
0.0
 70
    32
  1
(16)
  3
標準スタイル
100
AcDbAlignedDimension
 13
-1423.592014829248
 23
1469.673489789822
 33
0.0
 14
-1407.592004829248
 24
1455.073488789822
 34
0.0
100
AcDbRotatedDimension
1001
ACAD
1000
DSTYLE
1002
{
1070
    40
1040
1.0
1002
}
  0
DIMENSION
  5
11386
330
1A
100
AcDbEntity
  8
SUNPOU
100
AcDbDimension
  2
*D43
 10
-1543.206717300199
 20
1630.522159789822
 30
0.0
 11
-1543.206717300199
 21
1636.372154789819
 31
0.0
 70
   160
  1
(11.7)
  3
標準スタイル
100
AcDbAlignedDimension
 13
-1531.273094829248
 23
1642.222149789822
 33
0.0
 14
-1536.078693829248
 24
1630.522159789822
 34
0.0
 50
90.0
100
AcDbRotatedDimension
1001
ACAD
1000
DSTYLE
1002
{
1070
    40
1040
1.0
1002
}
  0
LINE
  5
11415
330
1A
100
AcDbEntity
  8
ZISSEN1
100
AcDbLine
 10
-1315.092004829248
 20
1501.372129789822
 30
0.0
 11
-1319.092014829248
 21
1501.372129789822
 31
0.0
  0
LINE
  5
11416
330
1A
100
AcDbEntity
  8
ZISSEN1
100
AcDbLine
 10
-1319.092014829248
 20
1501.372129789822
 30
0.0
 11
-1319.092014829248
 21
1502.373493789822
 31
0.0
  0
LINE
  5
11417
330
1A
100
AcDbEntity
  8
ZISSEN1
100
AcDbLine
 10
-1315.092004829248
 20
1502.373493789822
 30
0.0
 11
-1315.092004829248
 21
1501.372129789822
 31
0.0
  0
LINE
  5
11418
330
1A
100
AcDbEntity
  8
ZISSEN1
100
AcDbLine
 10
-1319.092014829248
 20
1502.372129789822
 30
0.0
 11
-1315.092004829248
 21
1502.372129789822
 31
0.0
  0
VIEWPORT
  5
5D8F
330
5D8E
100
AcDbEntity
 67
     1
  8
0
100
AcDbViewport
 10
298.7720227163248
 20
399.7947240105586
 30
0.0
 40
752.8631397574591
 41
858.9848057339095
 68
     1
 69
     1
1001
ACAD
1000
MVIEW
1002
{
1070
    16
1010
0.0
1020
0.0
1030
0.0
1010
0.0
1020
0.0
1030
1.0
1040
0.0
1040
858.9848057339095
1040
298.7720227163248
1040
399.7947240105586
1040
50.0
1040
0.0
1040
0.0
1070
     0
1070
   100
1070
     1
1070
     0
1070
     0
1070
     0
1070
     0
1070
     0
1040
0.0
1040
0.0
1040
0.0
1040
1.0
1040
1.0
1040
10.0
1040
10.0
1070
     0
1002
{
1002
}
1002
}
  0
VIEWPORT
  5
6001
330
5D8E
100
AcDbEntity
 67
     1
  8
ZISSEN1
100
AcDbViewport
 10
221.786195552541
 20
157.6960273330388
 30
0.0
 40
385.4999999999997
 41
259.9999999999999
 68
     2
 69
     2
1001
ACAD
1000
MVIEW
1002
{
1070
    16
1010
0.0
1020
0.0
1030
0.0
1010
0.0
1020
0.0
1030
1.0
1040
0.0
1040
259.9999999999999
1040
-1405.028346492198
1040
1557.414221870839
1040
50.0
1040
0.0
1040
0.0
1070
     0
1070
   100
1070
     1
1070
     0
1070
     0
1070
     0
1070
     0
1070
     0
1040
0.0
1040
0.0
1040
0.0
1040
1.0
1040
1.0
1040
10.0
1040
10.0
1070
     0
1002
{
1002
}
1002
}
  0
TEXT
  5
10F41
330
5D8E
100
AcDbEntity
 67
     1
  8
SUNPOU
 62
     0
100
AcDbText
 10
375.3507068631583
 20
48.03895542501606
 30
0.0
 40
3.5
  1
縮尺 1/1
  7
ゴシック体
100
AcDbText
  0
ENDSEC
  0
SECTION
  2
OBJECTS
  0
DICTIONARY
  5
C
330
0
100
AcDbDictionary
  3
ACAD_GROUP
350
D
  3
ACAD_LAYOUT
350
5C7D
  3
ACAD_MLINESTYLE
350
E
  3
ACAD_PLOTSETTINGS
350
5C7E
  3
ACAD_PLOTSTYLENAME
350
5C7B
  3
DWGPROPS
350
5E8E
  3
ACDBVARIABLEDICTIONARY
350
1143D
  3
ACDBHEADERROUNDTRIPXREC
350
11448
  0
DICTIONARY
  5
11468
330
1A
100
AcDbDictionary
280
     1
  3
ACAD_LAYOUTSELFREF
360
11469
  0
DICTIONARY
  5
1146A
330
5D8E
100
AcDbDictionary
280
     1
  3
ACAD_LAYOUTSELFREF
360
1146B
  0
DICTIONARY
  5
D
102
{ACAD_REACTORS
330
C
102
}
330
C
100
AcDbDictionary
  3
*A1
350
477D
  3
*A2
350
477E
  3
*A3
350
477F
  3
*A4
350
4780
  3
*A5
350
4781
  3
*A6
350
4C0E
  3
*A7
350
4C0F
  3
*A8
350
4C10
  3
*A9
350
4C11
  3
*A10
350
4C12
  3
*A11
350
4C13
  3
*A12
350
4C14
  3
*A13
350
4C15
  3
*A14
350
4C16
  3
*A15
350
4C17
  0
DICTIONARY
  5
5C7D
102
{ACAD_REACTORS
330
C
102
}
330
C
100
AcDbDictionary
  0
DICTIONARY
  5
E
102
{ACAD_REACTORS
330
C
102
}
330
C
100
AcDbDictionary
  3
STANDARD
350
13
  0
DICTIONARY
  5
5C7E
102
{ACAD_REACTORS
330
C
102
}
330
C
100
AcDbDictionary
  0
ACDBDICTIONARYWDFLT
  5
5C7B
102
{ACAD_REACTORS
330
C
102
}
330
C
100
AcDbDictionary
281
     1
  3
Normal
350
5C7C
100
AcDbDictionaryWithDefault
340
5C7C
  0
XRECORD
  5
5E8E
102
{ACAD_REACTORS
330
C
102
}
330
C
100
AcDbXrecord
  1
DWGPROPS COOKIE
  2

  3

  4

  6

  7

  8

  9

300
=
301
=
302
=
303
=
304
=
305
=
306
=
307
=
308
=
309
=
 40
0.586753587962963
 41
2450495.493631364
 42
2453208.662277431
  1

 90
        0
  0
DICTIONARY
  5
1143D
102
{ACAD_REACTORS
330
C
102
}
330
C
100
AcDbDictionary
  3
INDEXCTL
350
1143E
  0
DICTIONARY
  5
11448
102
{ACAD_REACTORS
330
C
102
}
330
C
100
AcDbDictionary
  3
TSTACKALIGN
350
11449
  3
TSTACKSIZE
350
1144A
  3
HYPERLINKBASE
350
1144B
  3
STYLESHEET
350
1144C
  3
LAYOUTDICT
350
1144D
  3
PLOTSETDICT
350
1144E
  3
PLOTSTYLNAMDICT
350
1144F
  3
LWETCUNION
350
11450
  3
INSUNITS
350
11451
  3
CEPSNTYPE
350
11452
  3
FINGERPRINTGUID
350
11453
  3
VERSIONGUID
350
11454
  3
PSVPSCALE
350
11455
  3
PUCSORTHOREF
350
11456
  3
PUCSORTHOVIEW
350
11457
  3
PUCSBASE
350
11458
  3
PUCSORGTOP
350
11459
  3
PUCSORGBOTTOM
350
1145A
  3
PUCSORGLEFT
350
1145B
  3
PUCSORGRIGHT
350
1145C
  3
PUCSORGFRONT
350
1145D
  3
PUCSORGBACK
350
1145E
  3
UCSORTHOREF
350
1145F
  3
UCSORTHOVIEW
350
11460
  3
UCSBASE
350
11461
  3
UCSORGTOP
350
11462
  3
UCSORGBOTTOM
350
11463
  3
UCSORGLEFT
350
11464
  3
UCSORGRIGHT
350
11465
  3
UCSORGFRONT
350
11466
  3
UCSORGBACK
350
11467
  0
XRECORD
  5
11469
102
{ACAD_REACTORS
330
11468
102
}
330
11468
100
AcDbXrecord
340
1A
  0
XRECORD
  5
1146B
102
{ACAD_REACTORS
330
1146A
102
}
330
1146A
100
AcDbXrecord
340
5D8E
  0
GROUP
  5
477D
102
{ACAD_REACTORS
330
D
102
}
330
D
100
AcDbGroup
300

 70
     1
 71
     1
  0
GROUP
  5
477E
102
{ACAD_REACTORS
330
D
102
}
330
D
100
AcDbGroup
300

 70
     1
 71
     1
  0
GROUP
  5
477F
102
{ACAD_REACTORS
330
D
102
}
330
D
100
AcDbGroup
300

 70
     1
 71
     1
  0
GROUP
  5
4780
102
{ACAD_REACTORS
330
D
102
}
330
D
100
AcDbGroup
300

 70
     1
 71
     1
  0
GROUP
  5
4781
102
{ACAD_REACTORS
330
D
102
}
330
D
100
AcDbGroup
300

 70
     1
 71
     1
  0
GROUP
  5
4C0E
102
{ACAD_REACTORS
330
D
102
}
330
D
100
AcDbGroup
300

 70
     1
 71
     1
  0
GROUP
  5
4C0F
102
{ACAD_REACTORS
330
D
102
}
330
D
100
AcDbGroup
300

 70
     1
 71
     1
  0
GROUP
  5
4C10
102
{ACAD_REACTORS
330
D
102
}
330
D
100
AcDbGroup
300

 70
     1
 71
     1
  0
GROUP
  5
4C11
102
{ACAD_REACTORS
330
D
102
}
330
D
100
AcDbGroup
300

 70
     1
 71
     1
  0
GROUP
  5
4C12
102
{ACAD_REACTORS
330
D
102
}
330
D
100
AcDbGroup
300

 70
     1
 71
     1
  0
GROUP
  5
4C13
102
{ACAD_REACTORS
330
D
102
}
330
D
100
AcDbGroup
300

 70
     1
 71
     1
  0
GROUP
  5
4C14
102
{ACAD_REACTORS
330
D
102
}
330
D
100
AcDbGroup
300

 70
     1
 71
     1
  0
GROUP
  5
4C15
102
{ACAD_REACTORS
330
D
102
}
330
D
100
AcDbGroup
300

 70
     1
 71
     1
  0
GROUP
  5
4C16
102
{ACAD_REACTORS
330
D
102
}
330
D
100
AcDbGroup
300

 70
     1
 71
     1
  0
GROUP
  5
4C17
102
{ACAD_REACTORS
330
D
102
}
330
D
100
AcDbGroup
300

 70
     1
 71
     1
  0
MLINESTYLE
  5
13
102
{ACAD_REACTORS
330
E
102
}
330
E
100
AcDbMlineStyle
  2
STANDARD
 70
     0
  3

 62
     0
 51
90.0
 52
90.0
 71
     2
 49
0.5
 62
   256
  6
BYLAYER
 49
-0.5
 62
   256
  6
BYLAYER
  0
ACDBPLACEHOLDER
  5
5C7C
102
{ACAD_REACTORS
330
5C7B
102
}
330
5C7B
100
AcDbPlaceHolder
280
     0
  0
DICTIONARYVAR
  5
1143E
102
{ACAD_REACTORS
330
1143D
102
}
330
1143D
100
DictionaryVariables
280
     0
  1
-1
  0
XRECORD
  5
11449
102
{ACAD_REACTORS
330
11448
102
}
330
11448
100
AcDbXrecord
 90
        1
  0
XRECORD
  5
1144A
102
{ACAD_REACTORS
330
11448
102
}
330
11448
100
AcDbXrecord
 90
       70
  0
XRECORD
  5
1144B
102
{ACAD_REACTORS
330
11448
102
}
330
11448
100
AcDbXrecord
  1

  0
XRECORD
  5
1144C
102
{ACAD_REACTORS
330
11448
102
}
330
11448
100
AcDbXrecord
  1

  0
XRECORD
  5
1144D
102
{ACAD_REACTORS
330
11448
102
}
330
11448
100
AcDbXrecord
340
5C7D
  0
XRECORD
  5
1144E
102
{ACAD_REACTORS
330
11448
102
}
330
11448
100
AcDbXrecord
340
5C7E
  0
XRECORD
  5
1144F
102
{ACAD_REACTORS
330
11448
102
}
330
11448
100
AcDbXrecord
340
5C7B
  0
XRECORD
  5
11450
102
{ACAD_REACTORS
330
11448
102
}
330
11448
100
AcDbXrecord
 90
    10781
  0
XRECORD
  5
11451
102
{ACAD_REACTORS
330
11448
102
}
330
11448
100
AcDbXrecord
 90
        0
  0
XRECORD
  5
11452
102
{ACAD_REACTORS
330
11448
102
}
330
11448
100
AcDbXrecord
 90
        0
  0
XRECORD
  5
11453
102
{ACAD_REACTORS
330
11448
102
}
330
11448
100
AcDbXrecord
  1
{225A7F0D-DA29-11D8-946A-0000E2416295}
  0
XRECORD
  5
11454
102
{ACAD_REACTORS
330
11448
102
}
330
11448
100
AcDbXrecord
  1
{4CD600E8-B278-41BC-BF29-04CFF4A83B87}
  0
XRECORD
  5
11455
102
{ACAD_REACTORS
330
11448
102
}
330
11448
100
AcDbXrecord
 40
0.0
  0
XRECORD
  5
11456
102
{ACAD_REACTORS
330
11448
102
}
330
11448
100
AcDbXrecord
340
0
  0
XRECORD
  5
11457
102
{ACAD_REACTORS
330
11448
102
}
330
11448
100
AcDbXrecord
 70
     0
  0
XRECORD
  5
11458
102
{ACAD_REACTORS
330
11448
102
}
330
11448
100
AcDbXrecord
340
0
  0
XRECORD
  5
11459
102
{ACAD_REACTORS
330
11448
102
}
330
11448
100
AcDbXrecord
 10
0.0
 20
0.0
 30
0.0
  0
XRECORD
  5
1145A
102
{ACAD_REACTORS
330
11448
102
}
330
11448
100
AcDbXrecord
 10
0.0
 20
0.0
 30
0.0
  0
XRECORD
  5
1145B
102
{ACAD_REACTORS
330
11448
102
}
330
11448
100
AcDbXrecord
 10
0.0
 20
0.0
 30
0.0
  0
XRECORD
  5
1145C
102
{ACAD_REACTORS
330
11448
102
}
330
11448
100
AcDbXrecord
 10
0.0
 20
0.0
 30
0.0
  0
XRECORD
  5
1145D
102
{ACAD_REACTORS
330
11448
102
}
330
11448
100
AcDbXrecord
 10
0.0
 20
0.0
 30
0.0
  0
XRECORD
  5
1145E
102
{ACAD_REACTORS
330
11448
102
}
330
11448
100
AcDbXrecord
 10
0.0
 20
0.0
 30
0.0
  0
XRECORD
  5
1145F
102
{ACAD_REACTORS
330
11448
102
}
330
11448
100
AcDbXrecord
340
0
  0
XRECORD
  5
11460
102
{ACAD_REACTORS
330
11448
102
}
330
11448
100
AcDbXrecord
 70
     0
  0
XRECORD
  5
11461
102
{ACAD_REACTORS
330
11448
102
}
330
11448
100
AcDbXrecord
340
0
  0
XRECORD
  5
11462
102
{ACAD_REACTORS
330
11448
102
}
330
11448
100
AcDbXrecord
 10
0.0
 20
0.0
 30
0.0
  0
XRECORD
  5
11463
102
{ACAD_REACTORS
330
11448
102
}
330
11448
100
AcDbXrecord
 10
0.0
 20
0.0
 30
0.0
  0
XRECORD
  5
11464
102
{ACAD_REACTORS
330
11448
102
}
330
11448
100
AcDbXrecord
 10
0.0
 20
0.0
 30
0.0
  0
XRECORD
  5
11465
102
{ACAD_REACTORS
330
11448
102
}
330
11448
100
AcDbXrecord
 10
0.0
 20
0.0
 30
0.0
  0
XRECORD
  5
11466
102
{ACAD_REACTORS
330
11448
102
}
330
11448
100
AcDbXrecord
 10
0.0
 20
0.0
 30
0.0
  0
XRECORD
  5
11467
102
{ACAD_REACTORS
330
11448
102
}
330
11448
100
AcDbXrecord
 10
0.0
 20
0.0
 30
0.0
  0
ENDSEC
  0
EOF
