  0
SECTION
  2
HEADER
  9
$ACADVER
  1
AC1014
  9
$ACADMAINTVER
 70
     9
  9
$DWGCODEPAGE
  3
ANSI_932
  9
$INSBASE
 10
0.0
 20
0.0
 30
0.0
  9
$EXTMIN
 10
-1622.997819988438
 20
1754.280949623286
 30
0.0
  9
$EXTMAX
 10
-1436.868058755595
 20
1899.2129858614
 30
0.0
  9
$LIMMIN
 10
0.0
 20
0.0
  9
$LIMMAX
 10
420.0
 20
297.0
  9
$ORTHOMODE
 70
     0
  9
$REGENMODE
 70
     1
  9
$FILLMODE
 70
     1
  9
$QTEXTMODE
 70
     0
  9
$MIRRTEXT
 70
     1
  9
$DRAGMODE
 70
     2
  9
$LTSCALE
 40
1.0
  9
$OSMODE
 70
    37
  9
$ATTMODE
 70
     1
  9
$TEXTSIZE
 40
2.5
  9
$TRACEWID
 40
1.0
  9
$TEXTSTYLE
  7
ゴシック体
  9
$CLAYER
  8
CL1
  9
$CELTYPE
  6
BYLAYER
  9
$CECOLOR
 62
   256
  9
$CELTSCALE
 40
1.0
  9
$DELOBJ
 70
     1
  9
$DISPSILH
 70
     0
  9
$DIMSCALE
 40
0.0
  9
$DIMASZ
 40
3.0
  9
$DIMEXO
 40
0.5
  9
$DIMDLI
 40
0.5
  9
$DIMRND
 40
0.0
  9
$DIMDLE
 40
0.0
  9
$DIMEXE
 40
0.5
  9
$DIMTP
 40
0.0
  9
$DIMTM
 40
0.0
  9
$DIMTXT
 40
3.5
  9
$DIMCEN
 40
0.0
  9
$DIMTSZ
 40
0.0
  9
$DIMTOL
 70
     0
  9
$DIMLIM
 70
     0
  9
$DIMTIH
 70
     0
  9
$DIMTOH
 70
     0
  9
$DIMSE1
 70
     0
  9
$DIMSE2
 70
     0
  9
$DIMTAD
 70
     1
  9
$DIMZIN
 70
     8
  9
$DIMBLK
  1

  9
$DIMASO
 70
     1
  9
$DIMSHO
 70
     1
  9
$DIMPOST
  1

  9
$DIMAPOST
  1

  9
$DIMALT
 70
     0
  9
$DIMALTD
 70
     2
  9
$DIMALTF
 40
25.4
  9
$DIMLFAC
 40
1.0
  9
$DIMTOFL
 70
     1
  9
$DIMTVP
 40
0.0
  9
$DIMTIX
 70
     0
  9
$DIMSOXD
 70
     0
  9
$DIMSAH
 70
     0
  9
$DIMBLK1
  1

  9
$DIMBLK2
  1

  9
$DIMSTYLE
  2
標準スタイル
  9
$DIMCLRD
 70
     1
  9
$DIMCLRE
 70
     1
  9
$DIMCLRT
 70
     1
  9
$DIMTFAC
 40
1.0
  9
$DIMGAP
 40
1.0
  9
$DIMJUST
 70
     0
  9
$DIMSD1
 70
     0
  9
$DIMSD2
 70
     0
  9
$DIMTOLJ
 70
     1
  9
$DIMTZIN
 70
     8
  9
$DIMALTZ
 70
     0
  9
$DIMALTTZ
 70
     0
  9
$DIMFIT
 70
     3
  9
$DIMUPT
 70
     0
  9
$DIMUNIT
 70
     2
  9
$DIMDEC
 70
     2
  9
$DIMTDEC
 70
     2
  9
$DIMALTU
 70
     2
  9
$DIMALTTD
 70
     2
  9
$DIMTXSTY
  7
ゴシック体
  9
$DIMAUNIT
 70
     0
  9
$LUNITS
 70
     2
  9
$LUPREC
 70
     4
  9
$SKETCHINC
 40
1.0
  9
$FILLETRAD
 40
1.0
  9
$AUNITS
 70
     0
  9
$AUPREC
 70
     0
  9
$MENU
  1
.
  9
$ELEVATION
 40
0.0
  9
$PELEVATION
 40
0.0
  9
$THICKNESS
 40
0.0
  9
$LIMCHECK
 70
     0
  9
$BLIPMODE
 70
     0
  9
$CHAMFERA
 40
1.0
  9
$CHAMFERB
 40
1.0
  9
$CHAMFERC
 40
2.0
  9
$CHAMFERD
 40
0.7853981633974483
  9
$SKPOLY
 70
     0
  9
$TDCREATE
 40
2450495.493631365
  9
$TDUPDATE
 40
2458872.622099653
  9
$TDINDWG
 40
2.8501523958
  9
$TDUSRTIMER
 40
2.8501523958
  9
$USRTIMER
 70
     1
  9
$ANGBASE
 50
0.0
  9
$ANGDIR
 70
     0
  9
$PDMODE
 70
    99
  9
$PDSIZE
 40
0.0
  9
$PLINEWID
 40
0.0
  9
$COORDS
 70
     0
  9
$SPLFRAME
 70
     0
  9
$SPLINETYPE
 70
     6
  9
$SPLINESEGS
 70
     8
  9
$ATTDIA
 70
     0
  9
$ATTREQ
 70
     1
  9
$HANDLING
 70
 10241
  9
$HANDSEED
  5
1B399
  9
$SURFTAB1
 70
     6
  9
$SURFTAB2
 70
     6
  9
$SURFTYPE
 70
     6
  9
$SURFU
 70
     6
  9
$SURFV
 70
     6
  9
$UCSNAME
  2

  9
$UCSORG
 10
0.0
 20
0.0
 30
0.0
  9
$UCSXDIR
 10
1.0
 20
0.0
 30
0.0
  9
$UCSYDIR
 10
0.0
 20
1.0
 30
0.0
  9
$PUCSNAME
  2

  9
$PUCSORG
 10
0.0
 20
0.0
 30
0.0
  9
$PUCSXDIR
 10
1.0
 20
0.0
 30
0.0
  9
$PUCSYDIR
 10
0.0
 20
1.0
 30
0.0
  9
$USERI1
 70
     0
  9
$USERI2
 70
     0
  9
$USERI3
 70
     0
  9
$USERI4
 70
     0
  9
$USERI5
 70
     0
  9
$USERR1
 40
0.0
  9
$USERR2
 40
0.0
  9
$USERR3
 40
0.0
  9
$USERR4
 40
0.0
  9
$USERR5
 40
0.0
  9
$WORLDVIEW
 70
     1
  9
$SHADEDGE
 70
     3
  9
$SHADEDIF
 70
    70
  9
$TILEMODE
 70
     0
  9
$MAXACTVP
 70
    16
  9
$PINSBASE
 10
0.0
 20
0.0
 30
0.0
  9
$PLIMCHECK
 70
     0
  9
$PEXTMIN
 10
29.03619555254135
 20
27.69602733303884
 30
0.0
  9
$PEXTMAX
 10
414.5361955525411
 20
287.6960273330388
 30
0.0
  9
$PLIMMIN
 10
15.15433780389673
 20
13.80781516542163
  9
$PLIMMAX
 10
435.1009930773342
 20
310.8184658001872
  9
$UNITMODE
 70
     0
  9
$VISRETAIN
 70
     0
  9
$PLINEGEN
 70
     0
  9
$PSLTSCALE
 70
     1
  9
$TREEDEPTH
 70
  3020
  9
$PICKSTYLE
 70
     1
  9
$CMLSTYLE
  2
STANDARD
  9
$CMLJUST
 70
     0
  9
$CMLSCALE
 40
1.0
  9
$PROXYGRAPHICS
 70
     1
  9
$MEASUREMENT
 70
     0
  0
ENDSEC
  0
SECTION
  2
CLASSES
  0
CLASS
  1
LWPOLYLINE
  2
AcDbPolyline
  3
AutoCAD 2000
 90
        0
280
     0
281
     1
  0
CLASS
  1
HATCH
  2
AcDbHatch
  3
AutoCAD 2000
 90
        0
280
     0
281
     1
  0
CLASS
  1
ACDBDICTIONARYWDFLT
  2
AcDbDictionaryWithDefault
  3
AutoCAD 2000
 90
        0
280
     0
281
     0
  0
CLASS
  1
ACDBPLACEHOLDER
  2
AcDbPlaceHolder
  3
AutoCAD 2000
 90
        0
280
     0
281
     0
  0
CLASS
  1
LAYOUT
  2
AcDbLayout
  3
AutoCAD 2000
 90
        0
280
     0
281
     0
  0
CLASS
  1
DICTIONARYVAR
  2
AcDbDictionaryVar
  3
AutoCAD 2000
 90
        0
280
     0
281
     0
  0
CLASS
  1
LONG_TRANSACTION
  2
AcDbLongTransaction
  3
AutoCAD 2000
 90
        0
280
     0
281
     0
  0
CLASS
  1
LWPOLYLINE
  2
AcDbPolyline
  3
AutoCAD 2000
 90
        0
280
     0
281
     1
  0
CLASS
  1
HATCH
  2
AcDbHatch
  3
AutoCAD 2000
 90
        0
280
     0
281
     1
  0
CLASS
  1
XRECORD
  2
AcDbXrecord
  3
AutoCAD 2000
 90
        0
280
     0
281
     0
  0
ENDSEC
  0
SECTION
  2
TABLES
  0
TABLE
  2
VPORT
  5
8
330
0
100
AcDbSymbolTable
 70
     2
  0
VPORT
  5
1B321
330
8
100
AcDbSymbolTableRecord
100
AcDbViewportTableRecord
  2
*ACTIVE
 70
     0
 10
0.0
 20
0.0
 11
1.0
 21
1.0
 12
-1529.928816196954
 22
1826.749275619261
 13
0.0
 23
0.0
 14
5.0
 24
5.0
 15
0.0
 25
0.0
 16
0.0
 26
0.0
 36
1.0
 17
0.0
 27
0.0
 37
0.0
 40
146.700986353539
 41
1.778625954198473
 42
50.0
 43
0.0
 44
0.0
 50
0.0
 51
0.0
 71
     0
 72
   100
 73
     1
 74
     0
 75
     0
 76
     0
 77
     0
 78
     0
  0
ENDTAB
  0
TABLE
  2
LTYPE
  5
5
330
0
100
AcDbSymbolTable
 70
     2
  0
LTYPE
  5
14
330
5
100
AcDbSymbolTableRecord
100
AcDbLinetypeTableRecord
  2
BYBLOCK
 70
     0
  3

 72
    65
 73
     0
 40
0.0
  0
LTYPE
  5
15
330
5
100
AcDbSymbolTableRecord
100
AcDbLinetypeTableRecord
  2
BYLAYER
 70
     0
  3

 72
    65
 73
     0
 40
0.0
  0
LTYPE
  5
16
330
5
100
AcDbSymbolTableRecord
100
AcDbLinetypeTableRecord
  2
CONTINUOUS
 70
     0
  3
Solid line
 72
    65
 73
     0
 40
0.0
  0
LTYPE
  5
1956
330
5
100
AcDbSymbolTableRecord
100
AcDbLinetypeTableRecord
  2
CENTERX2
 70
     0
  3
________  __  ________  __  ________  __  _____
 72
    65
 73
     4
 40
4.0
 49
2.5
 74
     0
 49
-0.5
 74
     0
 49
0.5
 74
     0
 49
-0.5
 74
     0
  0
ENDTAB
  0
TABLE
  2
LAYER
  5
2
330
0
100
AcDbSymbolTable
 70
     8
  0
LAYER
  5
F
330
2
100
AcDbSymbolTableRecord
100
AcDbLayerTableRecord
  2
0
 70
     0
 62
     7
  6
CONTINUOUS
  0
LAYER
  5
18F
330
2
100
AcDbSymbolTableRecord
100
AcDbLayerTableRecord
  2
ZISSEN1
 70
     0
 62
     7
  6
CONTINUOUS
  0
LAYER
  5
529
330
2
100
AcDbSymbolTableRecord
100
AcDbLayerTableRecord
  2
SUNPOU
 70
     0
 62
     1
  6
CONTINUOUS
  0
LAYER
  5
195A
330
2
100
AcDbSymbolTableRecord
100
AcDbLayerTableRecord
  2
CL1
 70
     0
 62
   210
  6
CENTERX2
  0
LAYER
  5
3A9B
330
2
100
AcDbSymbolTableRecord
100
AcDbLayerTableRecord
  2
DEFPOINTS
 70
     0
 62
     7
  6
CONTINUOUS
  0
LAYER
  5
16B89
330
2
100
AcDbSymbolTableRecord
100
AcDbLayerTableRecord
  2
_2-4_PARTS
 70
     0
 62
     7
  6
CONTINUOUS
  0
ENDTAB
  0
TABLE
  2
STYLE
  5
3
330
0
100
AcDbSymbolTable
 70
     2
  0
STYLE
  5
10
330
3
100
AcDbSymbolTableRecord
100
AcDbTextStyleTableRecord
  2
STANDARD
 70
     0
 40
0.0
 41
1.0
 50
0.0
 71
     0
 42
3.0
  3
txt
  4
BigFont
  0
STYLE
  5
1960
330
3
100
AcDbSymbolTableRecord
100
AcDbTextStyleTableRecord
  2
ゴシック体
 70
     0
 40
0.0
 41
1.0
 50
0.0
 71
     0
 42
2.5
  3
MS Gothic.ttf
  4

1001
ACAD
1000
MS Gothic
1071
    32817
  0
ENDTAB
  0
TABLE
  2
VIEW
  5
6
330
0
100
AcDbSymbolTable
 70
     0
  0
ENDTAB
  0
TABLE
  2
UCS
  5
7
330
0
100
AcDbSymbolTable
 70
     0
  0
ENDTAB
  0
TABLE
  2
APPID
  5
9
330
0
100
AcDbSymbolTable
 70
     5
  0
APPID
  5
11
330
9
100
AcDbSymbolTableRecord
100
AcDbRegAppTableRecord
  2
ACAD
 70
     0
  0
APPID
  5
4005
330
9
100
AcDbSymbolTableRecord
100
AcDbRegAppTableRecord
  2
CONTENTTABDATA
 70
     0
  0
APPID
  5
4006
330
9
100
AcDbSymbolTableRecord
100
AcDbRegAppTableRecord
  2
CONTENTCURRENTTAB
 70
     0
  0
APPID
  5
477B
330
9
100
AcDbSymbolTableRecord
100
AcDbRegAppTableRecord
  2
CONTENTBLOCKDESCRIPTION
 70
     0
  0
APPID
  5
477C
330
9
100
AcDbSymbolTableRecord
100
AcDbRegAppTableRecord
  2
CONTENTBLOCKICON
 70
     0
  0
ENDTAB
  0
TABLE
  2
DIMSTYLE
  5
A
330
0
100
AcDbSymbolTable
 70
     2
  0
DIMSTYLE
105
1D
330
A
100
AcDbSymbolTableRecord
100
AcDbDimStyleTableRecord
  2
STANDARD
 70
     0
  3

  4

  5

  6

  7

 40
1.0
 41
0.18
 42
0.0625
 43
0.38
 44
0.18
 45
0.0
 46
0.0
 47
0.0
 48
0.0
140
0.18
141
0.09
142
0.0
143
25.4
144
1.0
145
0.0
146
1.0
147
0.09
 71
     0
 72
     0
 73
     1
 74
     1
 75
     0
 76
     0
 77
     0
 78
     0
170
     0
171
     2
172
     0
173
     0
174
     0
175
     0
176
     0
177
     0
178
     0
270
     2
271
     4
272
     4
273
     2
274
     2
340
10
275
     0
280
     0
281
     0
282
     0
283
     1
284
     0
285
     0
286
     0
287
     3
288
     0
  0
DIMSTYLE
105
52E
102
{ACAD_REACTORS
330
1ADA7
330
1ADA8
330
1ADB6
330
1ADB7
330
1ADBB
330
1ADBC
330
1ADDB
330
1AE7F
330
1AE80
330
1AE81
330
1AEC7
330
1AF72
330
1AF78
330
1AF9C
102
}
330
A
100
AcDbSymbolTableRecord
100
AcDbDimStyleTableRecord
  2
標準スタイル
 70
     0
  3

  4

  5

  6

  7

 40
0.0
 41
3.0
 42
0.5
 43
0.5
 44
0.5
 45
0.0
 46
0.0
 47
0.0
 48
0.0
140
3.5
141
0.0
142
0.0
143
25.4
144
1.0
145
0.0
146
1.0
147
1.0
 71
     0
 72
     0
 73
     0
 74
     0
 75
     0
 76
     0
 77
     1
 78
     8
170
     0
171
     2
172
     1
173
     0
174
     0
175
     0
176
     1
177
     1
178
     1
270
     2
271
     2
272
     2
273
     2
274
     2
340
1960
275
     0
280
     0
281
     0
282
     0
283
     1
284
     8
285
     0
286
     0
287
     3
288
     0
  0
ENDTAB
  0
TABLE
  2
BLOCK_RECORD
  5
1
330
0
100
AcDbSymbolTable
 70
    43
  0
BLOCK_RECORD
  5
1A
102
{ACAD_XDICTIONARY
360
1B342
102
}
330
1
100
AcDbSymbolTableRecord
100
AcDbBlockTableRecord
  2
*MODEL_SPACE
  0
BLOCK_RECORD
  5
15176
102
{ACAD_XDICTIONARY
360
1B344
102
}
330
1
100
AcDbSymbolTableRecord
100
AcDbBlockTableRecord
  2
*PAPER_SPACE
  0
BLOCK_RECORD
  5
1B040
330
1
100
AcDbSymbolTableRecord
100
AcDbBlockTableRecord
  2
*D29
  0
BLOCK_RECORD
  5
1B04C
330
1
100
AcDbSymbolTableRecord
100
AcDbBlockTableRecord
  2
*D30
  0
BLOCK_RECORD
  5
1B058
330
1
100
AcDbSymbolTableRecord
100
AcDbBlockTableRecord
  2
*D31
  0
BLOCK_RECORD
  5
1B064
330
1
100
AcDbSymbolTableRecord
100
AcDbBlockTableRecord
  2
*D32
  0
BLOCK_RECORD
  5
1B070
330
1
100
AcDbSymbolTableRecord
100
AcDbBlockTableRecord
  2
*D33
  0
BLOCK_RECORD
  5
1B07E
330
1
100
AcDbSymbolTableRecord
100
AcDbBlockTableRecord
  2
*D34
  0
BLOCK_RECORD
  5
1B08C
330
1
100
AcDbSymbolTableRecord
100
AcDbBlockTableRecord
  2
*D35
  0
BLOCK_RECORD
  5
1B09A
330
1
100
AcDbSymbolTableRecord
100
AcDbBlockTableRecord
  2
*D36
  0
BLOCK_RECORD
  5
1B0A6
330
1
100
AcDbSymbolTableRecord
100
AcDbBlockTableRecord
  2
*D37
  0
BLOCK_RECORD
  5
1B0B4
330
1
100
AcDbSymbolTableRecord
100
AcDbBlockTableRecord
  2
*D38
  0
BLOCK_RECORD
  5
1B0C0
330
1
100
AcDbSymbolTableRecord
100
AcDbBlockTableRecord
  2
*D39
  0
BLOCK_RECORD
  5
1B0CE
330
1
100
AcDbSymbolTableRecord
100
AcDbBlockTableRecord
  2
*D40
  0
BLOCK_RECORD
  5
1B0DA
330
1
100
AcDbSymbolTableRecord
100
AcDbBlockTableRecord
  2
*D41
  0
BLOCK_RECORD
  5
1B0E6
330
1
100
AcDbSymbolTableRecord
100
AcDbBlockTableRecord
  2
*D42
  0
ENDTAB
  0
ENDSEC
  0
SECTION
  2
BLOCKS
  0
BLOCK
  5
1B
330
1A
100
AcDbEntity
  8
0
100
AcDbBlockBegin
  2
*MODEL_SPACE
 70
     0
 10
0.0
 20
0.0
 30
0.0
  3
*MODEL_SPACE
  1

  0
ENDBLK
  5
1C
330
1A
100
AcDbEntity
  8
0
100
AcDbBlockEnd
  0
BLOCK
  5
1517A
330
15176
100
AcDbEntity
 67
     1
  8
0
100
AcDbBlockBegin
  2
*PAPER_SPACE
 70
     0
 10
0.0
 20
0.0
 30
0.0
  3
*PAPER_SPACE
  1

  0
ENDBLK
  5
1517B
330
15176
100
AcDbEntity
 67
     1
  8
0
100
AcDbBlockEnd
  0
BLOCK
  5
1B04A
330
1B040
100
AcDbEntity
  8
0
100
AcDbBlockBegin
  2
*D29
 70
     1
 10
0.0
 20
0.0
 30
0.0
  3
*D29
  1

  0
LINE
  5
1B346
330
1B040
100
AcDbEntity
  8
SUNPOU
 62
     1
100
AcDbLine
 10
-1591.981631401916
 20
1781.030136030638
 30
0.0
 11
-1591.981631401916
 21
1765.72872392717
 31
0.0
  0
LINE
  5
1B347
330
1B040
100
AcDbEntity
  8
SUNPOU
 62
     1
100
AcDbLine
 10
-1507.981631401916
 20
1780.780136297474
 30
0.0
 11
-1507.981631401916
 21
1765.72872392717
 31
0.0
  0
LINE
  5
1B348
330
1B040
100
AcDbEntity
  8
SUNPOU
 62
     1
100
AcDbLine
 10
-1588.981631401916
 20
1766.22872392717
 30
0.0
 11
-1510.981631401917
 21
1766.22872392717
 31
0.0
  0
SOLID
  5
1B349
330
1B040
100
AcDbEntity
  8
SUNPOU
 62
     1
100
AcDbTrace
 10
-1588.981631401916
 20
1766.72872392717
 30
0.0
 11
-1588.981631401916
 21
1765.72872392717
 31
0.0
 12
-1591.981631401916
 22
1766.22872392717
 32
0.0
 13
-1591.981631401916
 23
1766.22872392717
 33
0.0
  0
SOLID
  5
1B34A
330
1B040
100
AcDbEntity
  8
SUNPOU
 62
     1
100
AcDbTrace
 10
-1510.981631401917
 20
1766.72872392717
 30
0.0
 11
-1510.981631401917
 21
1765.72872392717
 31
0.0
 12
-1507.981631401916
 22
1766.22872392717
 32
0.0
 13
-1507.981631401916
 23
1766.22872392717
 33
0.0
  0
MTEXT
  5
1B34B
330
1B040
100
AcDbEntity
  8
SUNPOU
 62
     1
100
AcDbMText
 10
-1549.981631401916
 20
1768.97872392717
 30
0.0
 40
3.5
 41
0.0
 71
     5
 72
     1
  1
\A1;84
  0
POINT
  5
1B34C
330
1B040
100
AcDbEntity
  8
DEFPOINTS
 62
     0
100
AcDbPoint
 10
-1591.981631401916
 20
1781.530136030638
 30
0.0
  0
POINT
  5
1B34D
330
1B040
100
AcDbEntity
  8
DEFPOINTS
 62
     0
100
AcDbPoint
 10
-1507.981631401916
 20
1781.280136297474
 30
0.0
  0
POINT
  5
1B34E
330
1B040
100
AcDbEntity
  8
DEFPOINTS
 62
     0
100
AcDbPoint
 10
-1507.981631401916
 20
1766.22872392717
 30
0.0
  0
ENDBLK
  5
1B04B
330
1B040
100
AcDbEntity
  8
0
100
AcDbBlockEnd
  0
BLOCK
  5
1B056
330
1B04C
100
AcDbEntity
  8
0
100
AcDbBlockBegin
  2
*D30
 70
     1
 10
0.0
 20
0.0
 30
0.0
  3
*D30
  1

  0
LINE
  5
1B17D
330
1B04C
100
AcDbEntity
  8
SUNPOU
 62
     1
100
AcDbLine
 10
-1595.481631401916
 20
1780.280136030638
 30
0.0
 11
-1595.481631401916
 21
1754.280949623286
 31
0.0
  0
LINE
  5
1B17E
330
1B04C
100
AcDbEntity
  8
SUNPOU
 62
     1
100
AcDbLine
 10
-1504.481631401917
 20
1779.280136297474
 30
0.0
 11
-1504.481631401917
 21
1754.280949623286
 31
0.0
  0
LINE
  5
1B17F
330
1B04C
100
AcDbEntity
  8
SUNPOU
 62
     1
100
AcDbLine
 10
-1592.481631401916
 20
1754.780949623286
 30
0.0
 11
-1507.481631401916
 21
1754.780949623286
 31
0.0
  0
SOLID
  5
1B180
330
1B04C
100
AcDbEntity
  8
SUNPOU
 62
     1
100
AcDbTrace
 10
-1592.481631401916
 20
1755.280949623286
 30
0.0
 11
-1592.481631401916
 21
1754.280949623286
 31
0.0
 12
-1595.481631401916
 22
1754.780949623286
 32
0.0
 13
-1595.481631401916
 23
1754.780949623286
 33
0.0
  0
SOLID
  5
1B181
330
1B04C
100
AcDbEntity
  8
SUNPOU
 62
     1
100
AcDbTrace
 10
-1507.481631401916
 20
1755.280949623286
 30
0.0
 11
-1507.481631401916
 21
1754.280949623286
 31
0.0
 12
-1504.481631401917
 22
1754.780949623286
 32
0.0
 13
-1504.481631401917
 23
1754.780949623286
 33
0.0
  0
MTEXT
  5
1B182
330
1B04C
100
AcDbEntity
  8
SUNPOU
 62
     1
100
AcDbMText
 10
-1549.981631401916
 20
1757.530949623286
 30
0.0
 40
3.5
 41
0.0
 71
     5
 72
     1
  1
\A1;91
1001
ACAD
1000
MTEXTBEGIN
1070
    73
1070
     1
1070
    44
1040
1.0
1070
    74
1070
     0
1000
MTEXTEND
  0
POINT
  5
1B183
330
1B04C
100
AcDbEntity
  8
DEFPOINTS
 62
     0
100
AcDbPoint
 10
-1595.481631401916
 20
1780.780136030638
 30
0.0
  0
POINT
  5
1B184
330
1B04C
100
AcDbEntity
  8
DEFPOINTS
 62
     0
100
AcDbPoint
 10
-1504.481631401917
 20
1779.780136297474
 30
0.0
  0
POINT
  5
1B185
330
1B04C
100
AcDbEntity
  8
DEFPOINTS
 62
     0
100
AcDbPoint
 10
-1504.481631401917
 20
1754.780949623286
 30
0.0
  0
ENDBLK
  5
1B057
330
1B04C
100
AcDbEntity
  8
0
100
AcDbBlockEnd
  0
BLOCK
  5
1B062
330
1B058
100
AcDbEntity
  8
0
100
AcDbBlockBegin
  2
*D31
 70
     1
 10
0.0
 20
0.0
 30
0.0
  3
*D31
  1

  0
LINE
  5
1B34F
330
1B058
100
AcDbEntity
  8
SUNPOU
 62
     1
100
AcDbLine
 10
-1594.231631401916
 20
1783.280136065227
 30
0.0
 11
-1608.892446635898
 21
1783.280136065227
 31
0.0
  0
LINE
  5
1B350
330
1B058
100
AcDbEntity
  8
SUNPOU
 62
     1
100
AcDbLine
 10
-1594.231631401916
 20
1834.280136030638
 30
0.0
 11
-1608.892446635898
 21
1834.280136030638
 31
0.0
  0
LINE
  5
1B351
330
1B058
100
AcDbEntity
  8
SUNPOU
 62
     1
100
AcDbLine
 10
-1608.392446635898
 20
1786.280136065227
 30
0.0
 11
-1608.392446635898
 21
1831.280136030638
 31
0.0
  0
SOLID
  5
1B352
330
1B058
100
AcDbEntity
  8
SUNPOU
 62
     1
100
AcDbTrace
 10
-1608.892446635898
 20
1786.280136065227
 30
0.0
 11
-1607.892446635898
 21
1786.280136065227
 31
0.0
 12
-1608.392446635898
 22
1783.280136065227
 32
0.0
 13
-1608.392446635898
 23
1783.280136065227
 33
0.0
  0
SOLID
  5
1B353
330
1B058
100
AcDbEntity
  8
SUNPOU
 62
     1
100
AcDbTrace
 10
-1608.892446635898
 20
1831.280136030638
 30
0.0
 11
-1607.892446635898
 21
1831.280136030638
 31
0.0
 12
-1608.392446635898
 22
1834.280136030638
 32
0.0
 13
-1608.392446635898
 23
1834.280136030638
 33
0.0
  0
MTEXT
  5
1B354
330
1B058
100
AcDbEntity
  8
SUNPOU
 62
     1
100
AcDbMText
 10
-1611.142446635899
 20
1808.780136047932
 30
0.0
 40
3.5
 41
0.0
 71
     5
 72
     1
  1
\A1;51
 11
0.0000000000000001
 21
1.0
 31
0.0
  0
POINT
  5
1B355
330
1B058
100
AcDbEntity
  8
DEFPOINTS
 62
     0
100
AcDbPoint
 10
-1593.731631401916
 20
1783.280136065227
 30
0.0
  0
POINT
  5
1B356
330
1B058
100
AcDbEntity
  8
DEFPOINTS
 62
     0
100
AcDbPoint
 10
-1593.731631401916
 20
1834.280136030638
 30
0.0
  0
POINT
  5
1B357
330
1B058
100
AcDbEntity
  8
DEFPOINTS
 62
     0
100
AcDbPoint
 10
-1608.392446635898
 20
1834.280136030638
 30
0.0
  0
ENDBLK
  5
1B063
330
1B058
100
AcDbEntity
  8
0
100
AcDbBlockEnd
  0
BLOCK
  5
1B06E
330
1B064
100
AcDbEntity
  8
0
100
AcDbBlockBegin
  2
*D32
 70
     1
 10
0.0
 20
0.0
 30
0.0
  3
*D32
  1

  0
LINE
  5
1B18F
330
1B064
100
AcDbEntity
  8
SUNPOU
 62
     1
100
AcDbLine
 10
-1594.981631401916
 20
1779.780136065227
 30
0.0
 11
-1618.997819988437
 21
1779.780136065227
 31
0.0
  0
LINE
  5
1B190
330
1B064
100
AcDbEntity
  8
SUNPOU
 62
     1
100
AcDbLine
 10
-1594.981631401916
 20
1837.780136030638
 30
0.0
 11
-1618.997819988437
 21
1837.780136030638
 31
0.0
  0
LINE
  5
1B191
330
1B064
100
AcDbEntity
  8
SUNPOU
 62
     1
100
AcDbLine
 10
-1618.497819988437
 20
1782.780136065227
 30
0.0
 11
-1618.497819988437
 21
1834.780136030638
 31
0.0
  0
SOLID
  5
1B192
330
1B064
100
AcDbEntity
  8
SUNPOU
 62
     1
100
AcDbTrace
 10
-1618.997819988437
 20
1782.780136065227
 30
0.0
 11
-1617.997819988437
 21
1782.780136065227
 31
0.0
 12
-1618.497819988437
 22
1779.780136065227
 32
0.0
 13
-1618.497819988437
 23
1779.780136065227
 33
0.0
  0
SOLID
  5
1B193
330
1B064
100
AcDbEntity
  8
SUNPOU
 62
     1
100
AcDbTrace
 10
-1618.997819988437
 20
1834.780136030638
 30
0.0
 11
-1617.997819988437
 21
1834.780136030638
 31
0.0
 12
-1618.497819988437
 22
1837.780136030638
 32
0.0
 13
-1618.497819988437
 23
1837.780136030638
 33
0.0
  0
MTEXT
  5
1B194
330
1B064
100
AcDbEntity
  8
SUNPOU
 62
     1
100
AcDbMText
 10
-1621.247819988438
 20
1808.780136047932
 30
0.0
 40
3.5
 41
0.0
 71
     5
 72
     1
  1
\A1;58
 11
0.0000000000000001
 21
1.0
 31
0.0
1001
ACAD
1000
MTEXTBEGIN
1070
    73
1070
     1
1070
    44
1040
1.0
1070
    74
1070
     0
1000
MTEXTEND
  0
POINT
  5
1B195
330
1B064
100
AcDbEntity
  8
DEFPOINTS
 62
     0
100
AcDbPoint
 10
-1594.481631401916
 20
1779.780136065227
 30
0.0
  0
POINT
  5
1B196
330
1B064
100
AcDbEntity
  8
DEFPOINTS
 62
     0
100
AcDbPoint
 10
-1594.481631401916
 20
1837.780136030638
 30
0.0
  0
POINT
  5
1B197
330
1B064
100
AcDbEntity
  8
DEFPOINTS
 62
     0
100
AcDbPoint
 10
-1618.497819988437
 20
1837.780136030638
 30
0.0
  0
ENDBLK
  5
1B06F
330
1B064
100
AcDbEntity
  8
0
100
AcDbBlockEnd
  0
BLOCK
  5
1B07C
330
1B070
100
AcDbEntity
  8
0
100
AcDbBlockBegin
  2
*D33
 70
     1
 10
0.0
 20
0.0
 30
0.0
  3
*D33
  1

  0
LINE
  5
1B358
330
1B070
100
AcDbEntity
  8
SUNPOU
 62
     1
100
AcDbLine
 10
-1595.481615715593
 20
1780.280136065104
 30
0.0
 11
-1595.481615715593
 21
1765.72872392717
 31
0.0
  0
LINE
  5
1B359
330
1B070
100
AcDbEntity
  8
SUNPOU
 62
     1
100
AcDbLine
 10
-1591.981631401916
 20
1781.030136065227
 30
0.0
 11
-1591.981631401916
 21
1765.72872392717
 31
0.0
  0
LINE
  5
1B35A
330
1B070
100
AcDbEntity
  8
SUNPOU
 62
     1
100
AcDbLine
 10
-1598.481615715593
 20
1766.22872392717
 30
0.0
 11
-1601.481615715593
 21
1766.22872392717
 31
0.0
  0
LINE
  5
1B35B
330
1B070
100
AcDbEntity
  8
SUNPOU
 62
     1
100
AcDbLine
 10
-1588.981631401916
 20
1766.22872392717
 30
0.0
 11
-1585.981631401916
 21
1766.22872392717
 31
0.0
  0
MTEXT
  5
1B35C
330
1B070
100
AcDbEntity
  8
SUNPOU
 62
     1
100
AcDbMText
 10
-1601.644705023852
 20
1769.099657402503
 30
0.0
 40
3.5
 41
0.0
 71
     5
 72
     1
  1
\A1;3.5
  0
LINE
  5
1B35D
330
1B070
100
AcDbEntity
  8
SUNPOU
 62
     1
100
AcDbLine
 10
-1595.481615715593
 20
1766.22872392717
 30
0.0
 11
-1591.981631401916
 21
1766.22872392717
 31
0.0
  0
SOLID
  5
1B35E
330
1B070
100
AcDbEntity
  8
SUNPOU
 62
     1
100
AcDbTrace
 10
-1598.481615715593
 20
1766.72872392717
 30
0.0
 11
-1598.481615715593
 21
1765.72872392717
 31
0.0
 12
-1595.481615715593
 22
1766.22872392717
 32
0.0
 13
-1595.481615715593
 23
1766.22872392717
 33
0.0
  0
SOLID
  5
1B35F
330
1B070
100
AcDbEntity
  8
SUNPOU
 62
     1
100
AcDbTrace
 10
-1588.981631401916
 20
1766.72872392717
 30
0.0
 11
-1588.981631401916
 21
1765.72872392717
 31
0.0
 12
-1591.981631401916
 22
1766.22872392717
 32
0.0
 13
-1591.981631401916
 23
1766.22872392717
 33
0.0
  0
POINT
  5
1B360
330
1B070
100
AcDbEntity
  8
DEFPOINTS
 62
     0
100
AcDbPoint
 10
-1595.481615715593
 20
1780.780136065104
 30
0.0
  0
POINT
  5
1B361
330
1B070
100
AcDbEntity
  8
DEFPOINTS
 62
     0
100
AcDbPoint
 10
-1591.981631401916
 20
1781.530136065227
 30
0.0
  0
POINT
  5
1B362
330
1B070
100
AcDbEntity
  8
DEFPOINTS
 62
     0
100
AcDbPoint
 10
-1591.981631401916
 20
1766.22872392717
 30
0.0
  0
ENDBLK
  5
1B07D
330
1B070
100
AcDbEntity
  8
0
100
AcDbBlockEnd
  0
BLOCK
  5
1B08A
330
1B07E
100
AcDbEntity
  8
0
100
AcDbBlockBegin
  2
*D34
 70
     1
 10
0.0
 20
0.0
 30
0.0
  3
*D34
  1

  0
LINE
  5
1B363
330
1B07E
100
AcDbEntity
  8
SUNPOU
 62
     1
100
AcDbLine
 10
-1594.981631401916
 20
1779.780136065227
 30
0.0
 11
-1608.892446635898
 21
1779.780136065227
 31
0.0
  0
LINE
  5
1B364
330
1B07E
100
AcDbEntity
  8
SUNPOU
 62
     1
100
AcDbLine
 10
-1594.231631401916
 20
1783.280136030638
 30
0.0
 11
-1608.892446635898
 21
1783.280136030638
 31
0.0
  0
LINE
  5
1B365
330
1B07E
100
AcDbEntity
  8
SUNPOU
 62
     1
100
AcDbLine
 10
-1608.392446635898
 20
1776.780136065227
 30
0.0
 11
-1608.392446635898
 21
1773.780136065227
 31
0.0
  0
LINE
  5
1B366
330
1B07E
100
AcDbEntity
  8
SUNPOU
 62
     1
100
AcDbLine
 10
-1608.392446635898
 20
1786.280136030638
 30
0.0
 11
-1608.392446635898
 21
1789.280136030638
 31
0.0
  0
MTEXT
  5
1B367
330
1B07E
100
AcDbEntity
  8
SUNPOU
 62
     1
100
AcDbMText
 10
-1611.760417981757
 20
1773.880000750966
 30
0.0
 40
3.5
 41
0.0
 71
     5
 72
     1
  1
\A1;3.5
 11
0.0000000000000001
 21
1.0
 31
0.0
  0
LINE
  5
1B368
330
1B07E
100
AcDbEntity
  8
SUNPOU
 62
     1
100
AcDbLine
 10
-1608.392446635898
 20
1779.780136065227
 30
0.0
 11
-1608.392446635898
 21
1783.280136030638
 31
0.0
  0
SOLID
  5
1B369
330
1B07E
100
AcDbEntity
  8
SUNPOU
 62
     1
100
AcDbTrace
 10
-1608.892446635898
 20
1776.780136065227
 30
0.0
 11
-1607.892446635898
 21
1776.780136065227
 31
0.0
 12
-1608.392446635898
 22
1779.780136065227
 32
0.0
 13
-1608.392446635898
 23
1779.780136065227
 33
0.0
  0
SOLID
  5
1B36A
330
1B07E
100
AcDbEntity
  8
SUNPOU
 62
     1
100
AcDbTrace
 10
-1608.892446635898
 20
1786.280136030638
 30
0.0
 11
-1607.892446635898
 21
1786.280136030638
 31
0.0
 12
-1608.392446635898
 22
1783.280136030638
 32
0.0
 13
-1608.392446635898
 23
1783.280136030638
 33
0.0
  0
POINT
  5
1B36B
330
1B07E
100
AcDbEntity
  8
DEFPOINTS
 62
     0
100
AcDbPoint
 10
-1594.481631401916
 20
1779.780136065227
 30
0.0
  0
POINT
  5
1B36C
330
1B07E
100
AcDbEntity
  8
DEFPOINTS
 62
     0
100
AcDbPoint
 10
-1593.731631401916
 20
1783.280136030638
 30
0.0
  0
POINT
  5
1B36D
330
1B07E
100
AcDbEntity
  8
DEFPOINTS
 62
     0
100
AcDbPoint
 10
-1608.392446635898
 20
1783.280136030638
 30
0.0
  0
ENDBLK
  5
1B08B
330
1B07E
100
AcDbEntity
  8
0
100
AcDbBlockEnd
  0
BLOCK
  5
1B098
330
1B08C
100
AcDbEntity
  8
0
100
AcDbBlockBegin
  2
*D35
 70
     1
 10
0.0
 20
0.0
 30
0.0
  3
*D35
  1

  0
LINE
  5
1B36E
330
1B08C
100
AcDbEntity
  8
SUNPOU
 62
     1
100
AcDbLine
 10
-1592.481631401916
 20
1834.280136030638
 30
0.0
 11
-1608.892446635898
 21
1834.280136030638
 31
0.0
  0
LINE
  5
1B36F
330
1B08C
100
AcDbEntity
  8
SUNPOU
 62
     1
100
AcDbLine
 10
-1594.981631401916
 20
1837.780136030638
 30
0.0
 11
-1608.892446635898
 21
1837.780136030638
 31
0.0
  0
LINE
  5
1B370
330
1B08C
100
AcDbEntity
  8
SUNPOU
 62
     1
100
AcDbLine
 10
-1608.392446635898
 20
1831.280136030638
 30
0.0
 11
-1608.392446635898
 21
1828.280136030638
 31
0.0
  0
LINE
  5
1B371
330
1B08C
100
AcDbEntity
  8
SUNPOU
 62
     1
100
AcDbLine
 10
-1608.392446635898
 20
1840.780136030638
 30
0.0
 11
-1608.392446635898
 21
1843.780136030638
 31
0.0
  0
MTEXT
  5
1B372
330
1B08C
100
AcDbEntity
  8
SUNPOU
 62
     1
100
AcDbMText
 10
-1611.219641005162
 20
1843.839526134185
 30
0.0
 40
3.5
 41
0.0
 71
     5
 72
     1
  1
\A1;3.5
 11
0.0000000000000001
 21
1.0
 31
0.0
  0
LINE
  5
1B373
330
1B08C
100
AcDbEntity
  8
SUNPOU
 62
     1
100
AcDbLine
 10
-1608.392446635898
 20
1834.280136030638
 30
0.0
 11
-1608.392446635898
 21
1837.780136030638
 31
0.0
  0
SOLID
  5
1B374
330
1B08C
100
AcDbEntity
  8
SUNPOU
 62
     1
100
AcDbTrace
 10
-1608.892446635898
 20
1831.280136030638
 30
0.0
 11
-1607.892446635898
 21
1831.280136030638
 31
0.0
 12
-1608.392446635898
 22
1834.280136030638
 32
0.0
 13
-1608.392446635898
 23
1834.280136030638
 33
0.0
  0
SOLID
  5
1B375
330
1B08C
100
AcDbEntity
  8
SUNPOU
 62
     1
100
AcDbTrace
 10
-1608.892446635898
 20
1840.780136030638
 30
0.0
 11
-1607.892446635898
 21
1840.780136030638
 31
0.0
 12
-1608.392446635898
 22
1837.780136030638
 32
0.0
 13
-1608.392446635898
 23
1837.780136030638
 33
0.0
  0
POINT
  5
1B376
330
1B08C
100
AcDbEntity
  8
DEFPOINTS
 62
     0
100
AcDbPoint
 10
-1591.981631401916
 20
1834.280136030638
 30
0.0
  0
POINT
  5
1B377
330
1B08C
100
AcDbEntity
  8
DEFPOINTS
 62
     0
100
AcDbPoint
 10
-1594.481631401916
 20
1837.780136030638
 30
0.0
  0
POINT
  5
1B378
330
1B08C
100
AcDbEntity
  8
DEFPOINTS
 62
     0
100
AcDbPoint
 10
-1608.392446635898
 20
1837.780136030638
 30
0.0
  0
ENDBLK
  5
1B099
330
1B08C
100
AcDbEntity
  8
0
100
AcDbBlockEnd
  0
BLOCK
  5
1B0A4
330
1B09A
100
AcDbEntity
  8
0
100
AcDbBlockBegin
  2
*D36
 70
     1
 10
0.0
 20
0.0
 30
0.0
  3
*D36
  1

  0
LINE
  5
1B20F
330
1B09A
100
AcDbEntity
  8
SUNPOU
 62
     1
100
AcDbLine
 10
-1588.681631401917
 20
1856.959545467159
 30
0.0
 11
-1618.997819988437
 21
1856.959545467159
 31
0.0
  0
LINE
  5
1B210
330
1B09A
100
AcDbEntity
  8
SUNPOU
 62
     1
100
AcDbLine
 10
-1585.881631401917
 20
1871.859545467159
 30
0.0
 11
-1618.997819988437
 21
1871.859545467159
 31
0.0
  0
LINE
  5
1B211
330
1B09A
100
AcDbEntity
  8
SUNPOU
 62
     1
100
AcDbLine
 10
-1618.497819988437
 20
1859.959545467159
 30
0.0
 11
-1618.497819988437
 21
1868.859545467159
 31
0.0
  0
SOLID
  5
1B212
330
1B09A
100
AcDbEntity
  8
SUNPOU
 62
     1
100
AcDbTrace
 10
-1618.997819988437
 20
1859.959545467159
 30
0.0
 11
-1617.997819988437
 21
1859.959545467159
 31
0.0
 12
-1618.497819988437
 22
1856.959545467159
 32
0.0
 13
-1618.497819988437
 23
1856.959545467159
 33
0.0
  0
SOLID
  5
1B213
330
1B09A
100
AcDbEntity
  8
SUNPOU
 62
     1
100
AcDbTrace
 10
-1618.997819988437
 20
1868.859545467159
 30
0.0
 11
-1617.997819988437
 21
1868.859545467159
 31
0.0
 12
-1618.497819988437
 22
1871.859545467159
 32
0.0
 13
-1618.497819988437
 23
1871.859545467159
 33
0.0
  0
MTEXT
  5
1B214
330
1B09A
100
AcDbEntity
  8
SUNPOU
 62
     1
100
AcDbMText
 10
-1621.247819988438
 20
1864.409545467159
 30
0.0
 40
3.5
 41
0.0
 71
     5
 72
     1
  1
\A1;(16)
 11
0.0000000000000001
 21
1.0
 31
0.0
1001
ACAD
1000
MTEXTBEGIN
1070
    73
1070
     1
1070
    44
1040
1.0
1070
    74
1070
     0
1000
MTEXTEND
  0
POINT
  5
1B215
330
1B09A
100
AcDbEntity
  8
DEFPOINTS
 62
     0
100
AcDbPoint
 10
-1588.181631401917
 20
1856.959545467159
 30
0.0
  0
POINT
  5
1B216
330
1B09A
100
AcDbEntity
  8
DEFPOINTS
 62
     0
100
AcDbPoint
 10
-1585.381631401916
 20
1871.859545467159
 30
0.0
  0
POINT
  5
1B217
330
1B09A
100
AcDbEntity
  8
DEFPOINTS
 62
     0
100
AcDbPoint
 10
-1618.497819988437
 20
1871.859545467159
 30
0.0
  0
ENDBLK
  5
1B0A5
330
1B09A
100
AcDbEntity
  8
0
100
AcDbBlockEnd
  0
BLOCK
  5
1B0B2
330
1B0A6
100
AcDbEntity
  8
0
100
AcDbBlockBegin
  2
*D37
 70
     1
 10
0.0
 20
0.0
 30
0.0
  3
*D37
  1

  0
LINE
  5
1B379
330
1B0A6
100
AcDbEntity
  8
SUNPOU
 62
     1
100
AcDbLine
 10
-1595.981631401916
 20
1870.059545467159
 30
0.0
 11
-1608.892446635898
 21
1870.059545467159
 31
0.0
  0
LINE
  5
1B37A
330
1B0A6
100
AcDbEntity
  8
SUNPOU
 62
     1
100
AcDbLine
 10
-1585.881631401917
 20
1871.859545467159
 30
0.0
 11
-1608.892446635898
 21
1871.859545467159
 31
0.0
  0
LINE
  5
1B37B
330
1B0A6
100
AcDbEntity
  8
SUNPOU
 62
     1
100
AcDbLine
 10
-1608.392446635898
 20
1867.059545467159
 30
0.0
 11
-1608.392446635898
 21
1864.059545467159
 31
0.0
  0
LINE
  5
1B37C
330
1B0A6
100
AcDbEntity
  8
SUNPOU
 62
     1
100
AcDbLine
 10
-1608.392446635898
 20
1874.859545467159
 30
0.0
 11
-1608.392446635898
 21
1877.85954546716
 31
0.0
  0
MTEXT
  5
1B37D
330
1B0A6
100
AcDbEntity
  8
SUNPOU
 62
     1
100
AcDbMText
 10
-1611.191621665536
 20
1880.330772367317
 30
0.0
 40
3.5
 41
0.0
 71
     5
 72
     1
  1
\A1;(2.9)
 11
0.0000000000000001
 21
1.0
 31
0.0
  0
LINE
  5
1B37E
330
1B0A6
100
AcDbEntity
  8
SUNPOU
 62
     1
100
AcDbLine
 10
-1608.392446635898
 20
1870.059545467159
 30
0.0
 11
-1608.392446635898
 21
1871.859545467159
 31
0.0
  0
SOLID
  5
1B37F
330
1B0A6
100
AcDbEntity
  8
SUNPOU
 62
     1
100
AcDbTrace
 10
-1608.892446635898
 20
1867.059545467159
 30
0.0
 11
-1607.892446635898
 21
1867.059545467159
 31
0.0
 12
-1608.392446635898
 22
1870.059545467159
 32
0.0
 13
-1608.392446635898
 23
1870.059545467159
 33
0.0
  0
SOLID
  5
1B380
330
1B0A6
100
AcDbEntity
  8
SUNPOU
 62
     1
100
AcDbTrace
 10
-1608.892446635898
 20
1874.859545467159
 30
0.0
 11
-1607.892446635898
 21
1874.859545467159
 31
0.0
 12
-1608.392446635898
 22
1871.859545467159
 32
0.0
 13
-1608.392446635898
 23
1871.859545467159
 33
0.0
  0
POINT
  5
1B381
330
1B0A6
100
AcDbEntity
  8
DEFPOINTS
 62
     0
100
AcDbPoint
 10
-1595.481631401916
 20
1870.059545467159
 30
0.0
  0
POINT
  5
1B382
330
1B0A6
100
AcDbEntity
  8
DEFPOINTS
 62
     0
100
AcDbPoint
 10
-1585.381631401916
 20
1871.859545467159
 30
0.0
  0
POINT
  5
1B383
330
1B0A6
100
AcDbEntity
  8
DEFPOINTS
 62
     0
100
AcDbPoint
 10
-1608.392446635898
 20
1871.859545467159
 30
0.0
  0
ENDBLK
  5
1B0B3
330
1B0A6
100
AcDbEntity
  8
0
100
AcDbBlockEnd
  0
BLOCK
  5
1B0BE
330
1B0B4
100
AcDbEntity
  8
0
100
AcDbBlockBegin
  2
*D38
 70
     1
 10
0.0
 20
0.0
 30
0.0
  3
*D38
  1

  0
LINE
  5
1B206
330
1B0B4
100
AcDbEntity
  8
CL1
 62
     1
100
AcDbLine
 10
-1588.181631401917
 20
1856.959545467159
 30
0.0
 11
-1608.892446635898
 21
1856.959545467159
 31
0.0
  0
LINE
  5
1B207
330
1B0B4
100
AcDbEntity
  8
CL1
 62
     1
100
AcDbLine
 10
-1595.981631401916
 20
1870.059545467159
 30
0.0
 11
-1608.892446635898
 21
1870.059545467159
 31
0.0
  0
LINE
  5
1B208
330
1B0B4
100
AcDbEntity
  8
CL1
 62
     1
100
AcDbLine
 10
-1608.392446635898
 20
1859.959545467159
 30
0.0
 11
-1608.392446635898
 21
1867.059545467159
 31
0.0
  0
SOLID
  5
1B209
330
1B0B4
100
AcDbEntity
  8
CL1
 62
     1
100
AcDbTrace
 10
-1608.892446635898
 20
1859.959545467159
 30
0.0
 11
-1607.892446635898
 21
1859.959545467159
 31
0.0
 12
-1608.392446635898
 22
1856.959545467159
 32
0.0
 13
-1608.392446635898
 23
1856.959545467159
 33
0.0
  0
SOLID
  5
1B20A
330
1B0B4
100
AcDbEntity
  8
CL1
 62
     1
100
AcDbTrace
 10
-1608.892446635898
 20
1867.059545467159
 30
0.0
 11
-1607.892446635898
 21
1867.059545467159
 31
0.0
 12
-1608.392446635898
 22
1870.059545467159
 32
0.0
 13
-1608.392446635898
 23
1870.059545467159
 33
0.0
  0
MTEXT
  5
1B20B
330
1B0B4
100
AcDbEntity
  8
CL1
 62
     1
100
AcDbMText
 10
-1611.142446635898
 20
1863.509545467159
 30
0.0
 40
3.5
 41
0.0
 71
     5
 72
     1
  1
\A1;13.1
 11
0.0000000000000001
 21
1.0
 31
0.0
1001
ACAD
1000
MTEXTBEGIN
1070
    73
1070
     1
1070
    44
1040
1.0
1070
    74
1070
     0
1000
MTEXTEND
  0
POINT
  5
1B20C
330
1B0B4
100
AcDbEntity
  8
DEFPOINTS
 62
     0
100
AcDbPoint
 10
-1587.681631401917
 20
1856.959545467159
 30
0.0
  0
POINT
  5
1B20D
330
1B0B4
100
AcDbEntity
  8
DEFPOINTS
 62
     0
100
AcDbPoint
 10
-1595.481631401916
 20
1870.059545467159
 30
0.0
  0
POINT
  5
1B20E
330
1B0B4
100
AcDbEntity
  8
DEFPOINTS
 62
     0
100
AcDbPoint
 10
-1608.392446635898
 20
1870.059545467159
 30
0.0
  0
ENDBLK
  5
1B0BF
330
1B0B4
100
AcDbEntity
  8
0
100
AcDbBlockEnd
  0
BLOCK
  5
1B0CC
330
1B0C0
100
AcDbEntity
  8
0
100
AcDbBlockBegin
  2
*D39
 70
     1
 10
0.0
 20
0.0
 30
0.0
  3
*D39
  1

  0
LINE
  5
1B384
330
1B0C0
100
AcDbEntity
  8
SUNPOU
 62
     1
100
AcDbLine
 10
-1507.981631401916
 20
1780.780136297474
 30
0.0
 11
-1507.981631401916
 21
1765.72872392717
 31
0.0
  0
LINE
  5
1B385
330
1B0C0
100
AcDbEntity
  8
SUNPOU
 62
     1
100
AcDbLine
 10
-1504.481631401917
 20
1779.280136297474
 30
0.0
 11
-1504.481631401917
 21
1765.72872392717
 31
0.0
  0
LINE
  5
1B386
330
1B0C0
100
AcDbEntity
  8
SUNPOU
 62
     1
100
AcDbLine
 10
-1510.981631401917
 20
1766.22872392717
 30
0.0
 11
-1513.981631401916
 21
1766.22872392717
 31
0.0
  0
LINE
  5
1B387
330
1B0C0
100
AcDbEntity
  8
SUNPOU
 62
     1
100
AcDbLine
 10
-1501.481631401917
 20
1766.22872392717
 30
0.0
 11
-1498.481631401917
 21
1766.22872392717
 31
0.0
  0
MTEXT
  5
1B388
330
1B0C0
100
AcDbEntity
  8
SUNPOU
 62
     1
100
AcDbMText
 10
-1498.74448103997
 20
1769.110459100018
 30
0.0
 40
3.5
 41
0.0
 71
     5
 72
     1
  1
\A1;3.5
  0
LINE
  5
1B389
330
1B0C0
100
AcDbEntity
  8
SUNPOU
 62
     1
100
AcDbLine
 10
-1507.981631401916
 20
1766.22872392717
 30
0.0
 11
-1504.481631401917
 21
1766.22872392717
 31
0.0
  0
SOLID
  5
1B38A
330
1B0C0
100
AcDbEntity
  8
SUNPOU
 62
     1
100
AcDbTrace
 10
-1510.981631401917
 20
1766.72872392717
 30
0.0
 11
-1510.981631401917
 21
1765.72872392717
 31
0.0
 12
-1507.981631401916
 22
1766.22872392717
 32
0.0
 13
-1507.981631401916
 23
1766.22872392717
 33
0.0
  0
SOLID
  5
1B38B
330
1B0C0
100
AcDbEntity
  8
SUNPOU
 62
     1
100
AcDbTrace
 10
-1501.481631401917
 20
1766.72872392717
 30
0.0
 11
-1501.481631401917
 21
1765.72872392717
 31
0.0
 12
-1504.481631401917
 22
1766.22872392717
 32
0.0
 13
-1504.481631401917
 23
1766.22872392717
 33
0.0
  0
POINT
  5
1B38C
330
1B0C0
100
AcDbEntity
  8
DEFPOINTS
 62
     0
100
AcDbPoint
 10
-1507.981631401916
 20
1781.280136297474
 30
0.0
  0
POINT
  5
1B38D
330
1B0C0
100
AcDbEntity
  8
DEFPOINTS
 62
     0
100
AcDbPoint
 10
-1504.481631401917
 20
1779.780136297474
 30
0.0
  0
POINT
  5
1B38E
330
1B0C0
100
AcDbEntity
  8
DEFPOINTS
 62
     0
100
AcDbPoint
 10
-1504.481631401917
 20
1766.22872392717
 30
0.0
  0
ENDBLK
  5
1B0CD
330
1B0C0
100
AcDbEntity
  8
0
100
AcDbBlockEnd
  0
BLOCK
  5
1B0D8
330
1B0CE
100
AcDbEntity
  8
0
100
AcDbBlockBegin
  2
*D40
 70
     1
 10
0.0
 20
0.0
 30
0.0
  3
*D40
  1

  0
LINE
  5
1B1FD
330
1B0CE
100
AcDbEntity
  8
SUNPOU
 62
     1
100
AcDbLine
 10
-1470.831631401916
 20
1835.980136297474
 30
0.0
 11
-1470.831631401916
 21
1857.893043393194
 31
0.0
  0
LINE
  5
1B1FE
330
1B0CE
100
AcDbEntity
  8
SUNPOU
 62
     1
100
AcDbLine
 10
-1450.631631401916
 20
1831.550136297474
 30
0.0
 11
-1450.631631401916
 21
1857.893043393194
 31
0.0
  0
LINE
  5
1B1FF
330
1B0CE
100
AcDbEntity
  8
SUNPOU
 62
     1
100
AcDbLine
 10
-1467.831631401916
 20
1857.393043393193
 30
0.0
 11
-1453.631631401917
 21
1857.393043393193
 31
0.0
  0
SOLID
  5
1B200
330
1B0CE
100
AcDbEntity
  8
SUNPOU
 62
     1
100
AcDbTrace
 10
-1467.831631401916
 20
1857.893043393194
 30
0.0
 11
-1467.831631401916
 21
1856.893043393194
 31
0.0
 12
-1470.831631401916
 22
1857.393043393193
 32
0.0
 13
-1470.831631401916
 23
1857.393043393193
 33
0.0
  0
SOLID
  5
1B201
330
1B0CE
100
AcDbEntity
  8
SUNPOU
 62
     1
100
AcDbTrace
 10
-1453.631631401917
 20
1857.893043393194
 30
0.0
 11
-1453.631631401917
 21
1856.893043393194
 31
0.0
 12
-1450.631631401916
 22
1857.393043393193
 32
0.0
 13
-1450.631631401916
 23
1857.393043393193
 33
0.0
  0
MTEXT
  5
1B202
330
1B0CE
100
AcDbEntity
  8
SUNPOU
 62
     1
100
AcDbMText
 10
-1460.731631401916
 20
1860.143043393193
 30
0.0
 40
3.5
 41
0.0
 71
     5
 72
     1
  1
\A1;(21)
1001
ACAD
1000
MTEXTBEGIN
1070
    73
1070
     1
1070
    44
1040
1.0
1070
    74
1070
     0
1000
MTEXTEND
  0
POINT
  5
1B203
330
1B0CE
100
AcDbEntity
  8
DEFPOINTS
 62
     0
100
AcDbPoint
 10
-1470.831631401916
 20
1835.480136297474
 30
0.0
  0
POINT
  5
1B204
330
1B0CE
100
AcDbEntity
  8
DEFPOINTS
 62
     0
100
AcDbPoint
 10
-1450.631631401916
 20
1831.050136297474
 30
0.0
  0
POINT
  5
1B205
330
1B0CE
100
AcDbEntity
  8
DEFPOINTS
 62
     0
100
AcDbPoint
 10
-1450.631631401916
 20
1857.393043393193
 30
0.0
  0
ENDBLK
  5
1B0D9
330
1B0CE
100
AcDbEntity
  8
0
100
AcDbBlockEnd
  0
BLOCK
  5
1B0E4
330
1B0DA
100
AcDbEntity
  8
0
100
AcDbBlockBegin
  2
*D41
 70
     1
 10
0.0
 20
0.0
 30
0.0
  3
*D41
  1

  0
LINE
  5
1B1F4
330
1B0DA
100
AcDbEntity
  8
SUNPOU
 62
     1
100
AcDbLine
 10
-1470.831631401916
 20
1835.260136030638
 30
0.0
 11
-1470.831631401916
 21
1848.424038248616
 31
0.0
  0
LINE
  5
1B1F5
330
1B0DA
100
AcDbEntity
  8
SUNPOU
 62
     1
100
AcDbLine
 10
-1452.731631401917
 20
1838.300136030638
 30
0.0
 11
-1452.731631401917
 21
1848.424038248616
 31
0.0
  0
LINE
  5
1B1F6
330
1B0DA
100
AcDbEntity
  8
SUNPOU
 62
     1
100
AcDbLine
 10
-1467.831631401916
 20
1847.924038248616
 30
0.0
 11
-1455.731631401917
 21
1847.924038248616
 31
0.0
  0
SOLID
  5
1B1F7
330
1B0DA
100
AcDbEntity
  8
SUNPOU
 62
     1
100
AcDbTrace
 10
-1467.831631401916
 20
1848.424038248616
 30
0.0
 11
-1467.831631401916
 21
1847.424038248616
 31
0.0
 12
-1470.831631401916
 22
1847.924038248616
 32
0.0
 13
-1470.831631401916
 23
1847.924038248616
 33
0.0
  0
SOLID
  5
1B1F8
330
1B0DA
100
AcDbEntity
  8
SUNPOU
 62
     1
100
AcDbTrace
 10
-1455.731631401917
 20
1848.424038248616
 30
0.0
 11
-1455.731631401917
 21
1847.424038248616
 31
0.0
 12
-1452.731631401917
 22
1847.924038248616
 32
0.0
 13
-1452.731631401917
 23
1847.924038248616
 33
0.0
  0
MTEXT
  5
1B1F9
330
1B0DA
100
AcDbEntity
  8
SUNPOU
 62
     1
100
AcDbMText
 10
-1461.781631401916
 20
1850.674038248616
 30
0.0
 40
3.5
 41
0.0
 71
     5
 72
     1
  1
\A1;18.1
1001
ACAD
1000
MTEXTBEGIN
1070
    73
1070
     1
1070
    44
1040
1.0
1070
    74
1070
     0
1000
MTEXTEND
  0
POINT
  5
1B1FA
330
1B0DA
100
AcDbEntity
  8
DEFPOINTS
 62
     0
100
AcDbPoint
 10
-1470.831631401916
 20
1834.760136030638
 30
0.0
  0
POINT
  5
1B1FB
330
1B0DA
100
AcDbEntity
  8
DEFPOINTS
 62
     0
100
AcDbPoint
 10
-1452.731631401917
 20
1837.800136030638
 30
0.0
  0
POINT
  5
1B1FC
330
1B0DA
100
AcDbEntity
  8
DEFPOINTS
 62
     0
100
AcDbPoint
 10
-1452.731631401917
 20
1847.924038248616
 30
0.0
  0
ENDBLK
  5
1B0E5
330
1B0DA
100
AcDbEntity
  8
0
100
AcDbBlockEnd
  0
BLOCK
  5
1B0F1
330
1B0E6
100
AcDbEntity
  8
0
100
AcDbBlockBegin
  2
*D42
 70
     1
 10
0.0
 20
0.0
 30
0.0
  3
*D42
  1

  0
LINE
  5
1B38F
330
1B0E6
100
AcDbEntity
  8
SUNPOU
 62
     1
100
AcDbLine
 10
-1452.731631401917
 20
1838.300136030638
 30
0.0
 11
-1452.731631401917
 21
1848.424038248616
 31
0.0
  0
LINE
  5
1B390
330
1B0E6
100
AcDbEntity
  8
SUNPOU
 62
     1
100
AcDbLine
 10
-1455.731631401917
 20
1847.924038248616
 30
0.0
 11
-1458.731631401916
 21
1847.924038248616
 31
0.0
  0
LINE
  5
1B391
330
1B0E6
100
AcDbEntity
  8
SUNPOU
 62
     1
100
AcDbLine
 10
-1447.831631401917
 20
1847.924038248616
 30
0.0
 11
-1444.831631401916
 21
1847.924038248616
 31
0.0
  0
MTEXT
  5
1B392
330
1B0E6
100
AcDbEntity
  8
SUNPOU
 62
     1
100
AcDbMText
 10
-1442.701392088929
 20
1850.629541295856
 30
0.0
 40
3.5
 41
0.0
 71
     5
 72
     1
  1
\A1;(2.9)
  0
LINE
  5
1B393
330
1B0E6
100
AcDbEntity
  8
SUNPOU
 62
     1
100
AcDbLine
 10
-1452.731631401917
 20
1847.924038248616
 30
0.0
 11
-1450.831631401916
 21
1847.924038248616
 31
0.0
  0
SOLID
  5
1B394
330
1B0E6
100
AcDbEntity
  8
SUNPOU
 62
     1
100
AcDbTrace
 10
-1455.731631401917
 20
1848.424038248616
 30
0.0
 11
-1455.731631401917
 21
1847.424038248616
 31
0.0
 12
-1452.731631401917
 22
1847.924038248616
 32
0.0
 13
-1452.731631401917
 23
1847.924038248616
 33
0.0
  0
SOLID
  5
1B395
330
1B0E6
100
AcDbEntity
  8
SUNPOU
 62
     1
100
AcDbTrace
 10
-1447.831631401917
 20
1848.424038248616
 30
0.0
 11
-1447.831631401917
 21
1847.424038248616
 31
0.0
 12
-1450.831631401916
 22
1847.924038248616
 32
0.0
 13
-1450.831631401916
 23
1847.924038248616
 33
0.0
  0
POINT
  5
1B396
330
1B0E6
100
AcDbEntity
  8
DEFPOINTS
 62
     0
100
AcDbPoint
 10
-1452.731631401917
 20
1837.800136030638
 30
0.0
  0
POINT
  5
1B397
330
1B0E6
100
AcDbEntity
  8
DEFPOINTS
 62
     0
100
AcDbPoint
 10
-1450.831631401916
 20
1847.924038248616
 30
0.0
  0
POINT
  5
1B398
330
1B0E6
100
AcDbEntity
  8
DEFPOINTS
 62
     0
100
AcDbPoint
 10
-1450.831631401916
 20
1847.924038248616
 30
0.0
  0
ENDBLK
  5
1B0F2
330
1B0E6
100
AcDbEntity
  8
0
100
AcDbBlockEnd
  0
ENDSEC
  0
SECTION
  2
ENTITIES
  0
MTEXT
  5
5084
330
1A
100
AcDbEntity
  8
0
100
AcDbMText
 10
1985.239088685435
 20
-948.5420423450428
 30
0.0
 40
8.0
 41
0.0
 71
     7
 72
     5
  1

1001
ACAD
1000
MTEXTBEGIN
1070
    73
1070
     1
1070
    44
1040
1.0
1070
    74
1070
     0
1000
MTEXTEND
  0
MTEXT
  5
5085
330
1A
100
AcDbEntity
  8
0
100
AcDbMText
 10
4270.596778580329
 20
22.24825240601649
 30
0.0
 40
8.0
 41
0.0
 71
     7
 72
     5
  1

1001
ACAD
1000
MTEXTBEGIN
1070
    73
1070
     1
1070
    44
1040
1.0
1070
    74
1070
     0
1000
MTEXTEND
  0
MTEXT
  5
5343
330
1A
100
AcDbEntity
  8
SUNPOU
100
AcDbMText
 10
6936.493799262471
 20
9534.359644781135
 30
0.0
 40
10.5
 41
0.0
 71
     1
 72
     5
  1

1001
ACAD
1000
MTEXTBEGIN
1070
    73
1070
     1
1070
    44
1040
1.0
1070
    74
1070
     0
1000
MTEXTEND
  0
MTEXT
  5
544F
330
1A
100
AcDbEntity
  8
0
100
AcDbMText
 10
16317.2832773148
 20
12833.35428897674
 30
0.0
 40
8.0
 41
0.0
 71
     7
 72
     5
  1

1001
ACAD
1000
MTEXTBEGIN
1070
    73
1070
     1
1070
    44
1040
1.0
1070
    74
1070
     0
1000
MTEXTEND
  0
MTEXT
  5
5450
330
1A
100
AcDbEntity
  8
0
100
AcDbMText
 10
18602.64096720969
 20
13804.1445837278
 30
0.0
 40
8.0
 41
0.0
 71
     7
 72
     5
  1

1001
ACAD
1000
MTEXTBEGIN
1070
    73
1070
     1
1070
    44
1040
1.0
1070
    74
1070
     0
1000
MTEXTEND
  0
MTEXT
  5
5451
330
1A
100
AcDbEntity
  8
SUNPOU
100
AcDbMText
 10
21268.53798789184
 20
23316.25597610292
 30
0.0
 40
10.5
 41
0.0
 71
     1
 72
     5
  1

1001
ACAD
1000
MTEXTBEGIN
1070
    73
1070
     1
1070
    44
1040
1.0
1070
    74
1070
     0
1000
MTEXTEND
  0
MTEXT
  5
5452
330
1A
100
AcDbEntity
  8
SUNPOU
100
AcDbMText
 10
13337.6147919559
 20
22369.46284218996
 30
0.0
 40
10.5
 41
0.0
 71
     7
 72
     5
  1

1001
ACAD
1000
MTEXTBEGIN
1070
    73
1070
     1
1070
    44
1040
1.0
1070
    74
1070
     0
1000
MTEXTEND
  0
MTEXT
  5
5453
330
1A
100
AcDbEntity
  8
SUNPOU
100
AcDbMText
 10
16286.59845646867
 20
27270.13891403281
 30
0.0
 40
10.5
 41
0.0
 71
     7
 72
     5
  1

1001
ACAD
1000
MTEXTBEGIN
1070
    73
1070
     1
1070
    44
1040
1.0
1070
    74
1070
     0
1000
MTEXTEND
  0
MTEXT
  5
5454
330
1A
100
AcDbEntity
  8
SUNPOU
100
AcDbMText
 10
20795.67658441924
 20
29706.43966165288
 30
0.0
 40
10.5
 41
0.0
 71
     7
 72
     5
  1

1001
ACAD
1000
MTEXTBEGIN
1070
    73
1070
     1
1070
    44
1040
1.0
1070
    74
1070
     0
1000
MTEXTEND
  0
MTEXT
  5
5455
330
1A
100
AcDbEntity
  8
0
100
AcDbMText
 10
16611.93789220314
 20
14707.52144344448
 30
0.0
 40
8.0
 41
0.0
 71
     7
 72
     5
  1

1001
ACAD
1000
MTEXTBEGIN
1070
    73
1070
     1
1070
    44
1040
1.0
1070
    74
1070
     0
1000
MTEXTEND
  0
MTEXT
  5
5456
330
1A
100
AcDbEntity
  8
0
100
AcDbMText
 10
18897.29558209804
 20
15678.31173819554
 30
0.0
 40
8.0
 41
0.0
 71
     7
 72
     5
  1

1001
ACAD
1000
MTEXTBEGIN
1070
    73
1070
     1
1070
    44
1040
1.0
1070
    74
1070
     0
1000
MTEXTEND
  0
MTEXT
  5
5457
330
1A
100
AcDbEntity
  8
SUNPOU
100
AcDbMText
 10
21563.19260278019
 20
25190.42313057066
 30
0.0
 40
10.5
 41
0.0
 71
     1
 72
     5
  1

1001
ACAD
1000
MTEXTBEGIN
1070
    73
1070
     1
1070
    44
1040
1.0
1070
    74
1070
     0
1000
MTEXTEND
  0
MTEXT
  5
5458
330
1A
100
AcDbEntity
  8
SUNPOU
100
AcDbMText
 10
13632.26940684426
 20
24243.6299966577
 30
0.0
 40
10.5
 41
0.0
 71
     7
 72
     5
  1

1001
ACAD
1000
MTEXTBEGIN
1070
    73
1070
     1
1070
    44
1040
1.0
1070
    74
1070
     0
1000
MTEXTEND
  0
MTEXT
  5
5459
330
1A
100
AcDbEntity
  8
SUNPOU
100
AcDbMText
 10
16581.25307135702
 20
29144.30606850055
 30
0.0
 40
10.5
 41
0.0
 71
     7
 72
     5
  1

1001
ACAD
1000
MTEXTBEGIN
1070
    73
1070
     1
1070
    44
1040
1.0
1070
    74
1070
     0
1000
MTEXTEND
  0
MTEXT
  5
545A
330
1A
100
AcDbEntity
  8
SUNPOU
100
AcDbMText
 10
21090.33119930759
 20
31580.60681612062
 30
0.0
 40
10.5
 41
0.0
 71
     7
 72
     5
  1

1001
ACAD
1000
MTEXTBEGIN
1070
    73
1070
     1
1070
    44
1040
1.0
1070
    74
1070
     0
1000
MTEXTEND
  0
MTEXT
  5
545B
330
1A
100
AcDbEntity
  8
0
100
AcDbMText
 10
22871.60517627167
 20
23974.88367124799
 30
0.0
 40
8.0
 41
0.0
 71
     7
 72
     5
  1

1001
ACAD
1000
MTEXTBEGIN
1070
    73
1070
     1
1070
    44
1040
1.0
1070
    74
1070
     0
1000
MTEXTEND
  0
MTEXT
  5
545C
330
1A
100
AcDbEntity
  8
0
100
AcDbMText
 10
25156.96286616657
 20
24945.67396599906
 30
0.0
 40
8.0
 41
0.0
 71
     7
 72
     5
  1

1001
ACAD
1000
MTEXTBEGIN
1070
    73
1070
     1
1070
    44
1040
1.0
1070
    74
1070
     0
1000
MTEXTEND
  0
MTEXT
  5
545D
330
1A
100
AcDbEntity
  8
SUNPOU
100
AcDbMText
 10
27822.85988684871
 20
34457.78535837418
 30
0.0
 40
10.5
 41
0.0
 71
     1
 72
     5
  1

1001
ACAD
1000
MTEXTBEGIN
1070
    73
1070
     1
1070
    44
1040
1.0
1070
    74
1070
     0
1000
MTEXTEND
  0
MTEXT
  5
545E
330
1A
100
AcDbEntity
  8
SUNPOU
100
AcDbMText
 10
19891.93669091278
 20
33510.99222446122
 30
0.0
 40
10.5
 41
0.0
 71
     7
 72
     5
  1

1001
ACAD
1000
MTEXTBEGIN
1070
    73
1070
     1
1070
    44
1040
1.0
1070
    74
1070
     0
1000
MTEXTEND
  0
MTEXT
  5
545F
330
1A
100
AcDbEntity
  8
SUNPOU
100
AcDbMText
 10
22840.92035542555
 20
38411.66829630407
 30
0.0
 40
10.5
 41
0.0
 71
     7
 72
     5
  1

1001
ACAD
1000
MTEXTBEGIN
1070
    73
1070
     1
1070
    44
1040
1.0
1070
    74
1070
     0
1000
MTEXTEND
  0
MTEXT
  5
5460
330
1A
100
AcDbEntity
  8
SUNPOU
100
AcDbMText
 10
27349.99848337611
 20
40847.96904392415
 30
0.0
 40
10.5
 41
0.0
 71
     7
 72
     5
  1

1001
ACAD
1000
MTEXTBEGIN
1070
    73
1070
     1
1070
    44
1040
1.0
1070
    74
1070
     0
1000
MTEXTEND
  0
MTEXT
  5
55B7
330
1A
100
AcDbEntity
  8
SUNPOU
100
AcDbMText
 10
67424.23923338197
 20
64463.86602884816
 30
0.0
 40
10.5
 41
0.0
 71
     9
 72
     5
  1

1001
ACAD
1000
MTEXTBEGIN
1070
    73
1070
     1
1070
    44
1040
1.0
1070
    74
1070
     0
1000
MTEXTEND
  0
MTEXT
  5
55B8
330
1A
100
AcDbEntity
  8
SUNPOU
100
AcDbMText
 10
76146.40679929998
 20
71879.70056038563
 30
0.0
 40
10.5
 41
0.0
 71
     9
 72
     5
  1

1001
ACAD
1000
MTEXTBEGIN
1070
    73
1070
     1
1070
    44
1040
1.0
1070
    74
1070
     0
1000
MTEXTEND
  0
MTEXT
  5
55B9
330
1A
100
AcDbEntity
  8
SUNPOU
100
AcDbMText
 10
95100.16551662994
 20
89346.27661287766
 30
0.0
 40
10.5
 41
0.0
 71
     9
 72
     5
  1

1001
ACAD
1000
MTEXTBEGIN
1070
    73
1070
     1
1070
    44
1040
1.0
1070
    74
1070
     0
1000
MTEXTEND
  0
MTEXT
  5
55BA
330
1A
100
AcDbEntity
  8
SUNPOU
100
AcDbMText
 10
97043.57276333936
 20
87545.22753299966
 30
0.0
 40
3.5
 41
0.0
 71
     9
 72
     5
  1

1001
ACAD
1000
MTEXTBEGIN
1070
    73
1070
     1
1070
    44
1040
1.0
1070
    74
1070
     0
1000
MTEXTEND
  0
MTEXT
  5
55BB
330
1A
100
AcDbEntity
  8
SUNPOU
100
AcDbMText
 10
128169.752595959
 20
130040.1732006569
 30
0.0
 40
10.5
 41
0.0
 71
     9
 72
     5
  1

1001
ACAD
1000
MTEXTBEGIN
1070
    73
1070
     1
1070
    44
1040
1.0
1070
    74
1070
     0
1000
MTEXTEND
  0
MTEXT
  5
55BC
330
1A
100
AcDbEntity
  8
SUNPOU
100
AcDbMText
 10
130113.1598426684
 20
128239.1241207789
 30
0.0
 40
3.5
 41
0.0
 71
     9
 72
     5
  1

1001
ACAD
1000
MTEXTBEGIN
1070
    73
1070
     1
1070
    44
1040
1.0
1070
    74
1070
     0
1000
MTEXTEND
  0
MTEXT
  5
55BD
330
1A
100
AcDbEntity
  8
SUNPOU
100
AcDbMText
 10
78610.02030175463
 20
75873.33835563206
 30
0.0
 40
10.5
 41
0.0
 71
     9
 72
     5
  1

1001
ACAD
1000
MTEXTBEGIN
1070
    73
1070
     1
1070
    44
1040
1.0
1070
    74
1070
     0
1000
MTEXTEND
  0
MTEXT
  5
55BE
330
1A
100
AcDbEntity
  8
SUNPOU
100
AcDbMText
 10
64662.02020137863
 20
56700.93921651987
 30
0.0
 40
3.5
 41
0.0
 71
     7
 72
     5
  1

1001
ACAD
1000
MTEXTBEGIN
1070
    73
1070
     1
1070
    44
1040
1.0
1070
    74
1070
     0
1000
MTEXTEND
  0
MTEXT
  5
55BF
330
1A
100
AcDbEntity
  8
SUNPOU
100
AcDbMText
 10
45647.18959837178
 20
44463.08794733807
 30
0.0
 40
10.5
 41
0.0
 71
     7
 72
     5
  1

1001
ACAD
1000
MTEXTBEGIN
1070
    73
1070
     1
1070
    44
1040
1.0
1070
    74
1070
     0
1000
MTEXTEND
  0
MTEXT
  5
55C0
330
1A
100
AcDbEntity
  8
SUNPOU
100
AcDbMText
 10
33189.96133342368
 20
28618.15636923965
 30
0.0
 40
35.0
 41
0.0
 71
     9
 72
     5
  1

1001
ACAD
1000
MTEXTBEGIN
1070
    73
1070
     1
1070
    44
1040
1.0
1070
    74
1070
     0
1000
MTEXTEND
  0
MTEXT
  5
55C1
330
1A
100
AcDbEntity
  8
SUNPOU
100
AcDbMText
 10
32098.44639099864
 20
29226.93177928835
 30
0.0
 40
350.0000004171781
 41
0.0
 71
     7
 72
     5
  1

1001
ACAD
1000
MTEXTBEGIN
1070
    73
1070
     1
1070
    44
1040
1.0
1070
    74
1070
     0
1000
MTEXTEND
  0
MTEXT
  5
55C2
330
1A
100
AcDbEntity
  8
0
100
AcDbMText
 10
38142.39714894154
 20
27206.85414142458
 30
0.0
 40
8.0
 41
0.0
 71
     7
 72
     5
  1

1001
ACAD
1000
MTEXTBEGIN
1070
    73
1070
     1
1070
    44
1040
1.0
1070
    74
1070
     0
1000
MTEXTEND
  0
MTEXT
  5
55C3
330
1A
100
AcDbEntity
  8
0
100
AcDbMText
 10
40427.75483883644
 20
28177.64443617564
 30
0.0
 40
8.0
 41
0.0
 71
     7
 72
     5
  1

1001
ACAD
1000
MTEXTBEGIN
1070
    73
1070
     1
1070
    44
1040
1.0
1070
    74
1070
     0
1000
MTEXTEND
  0
MTEXT
  5
55C4
330
1A
100
AcDbEntity
  8
SUNPOU
100
AcDbMText
 10
43093.65185951858
 20
37689.75582855077
 30
0.0
 40
10.5
 41
0.0
 71
     1
 72
     5
  1

1001
ACAD
1000
MTEXTBEGIN
1070
    73
1070
     1
1070
    44
1040
1.0
1070
    74
1070
     0
1000
MTEXTEND
  0
MTEXT
  5
55C5
330
1A
100
AcDbEntity
  8
SUNPOU
100
AcDbMText
 10
35162.72866358265
 20
36742.96269463781
 30
0.0
 40
10.5
 41
0.0
 71
     7
 72
     5
  1

1001
ACAD
1000
MTEXTBEGIN
1070
    73
1070
     1
1070
    44
1040
1.0
1070
    74
1070
     0
1000
MTEXTEND
  0
MTEXT
  5
55C6
330
1A
100
AcDbEntity
  8
SUNPOU
100
AcDbMText
 10
38111.71232809542
 20
41643.63876648066
 30
0.0
 40
10.5
 41
0.0
 71
     7
 72
     5
  1

1001
ACAD
1000
MTEXTBEGIN
1070
    73
1070
     1
1070
    44
1040
1.0
1070
    74
1070
     0
1000
MTEXTEND
  0
MTEXT
  5
55C7
330
1A
100
AcDbEntity
  8
SUNPOU
100
AcDbMText
 10
42620.79045604597
 20
44079.93951410074
 30
0.0
 40
10.5
 41
0.0
 71
     7
 72
     5
  1

1001
ACAD
1000
MTEXTBEGIN
1070
    73
1070
     1
1070
    44
1040
1.0
1070
    74
1070
     0
1000
MTEXTEND
  0
MTEXT
  5
55C8
330
1A
100
AcDbEntity
  8
SUNPOU
100
AcDbMText
 10
26221.62834281429
 20
23077.53566448964
 30
0.0
 40
10.5
 41
0.0
 71
     7
 72
     5
  1

1001
ACAD
1000
MTEXTBEGIN
1070
    73
1070
     1
1070
    44
1040
1.0
1070
    74
1070
     0
1000
MTEXTEND
  0
MTEXT
  5
55C9
330
1A
100
AcDbEntity
  8
SUNPOU
100
AcDbMText
 10
77413.14677671455
 20
68750.51622813789
 30
0.0
 40
10.5
 41
0.0
 71
     9
 72
     5
  1

1001
ACAD
1000
MTEXTBEGIN
1070
    73
1070
     1
1070
    44
1040
1.0
1070
    74
1070
     0
1000
MTEXTEND
  0
MTEXT
  5
55CA
330
1A
100
AcDbEntity
  8
SUNPOU
100
AcDbMText
 10
86135.31434263256
 20
76166.35075967536
 30
0.0
 40
10.5
 41
0.0
 71
     9
 72
     5
  1

1001
ACAD
1000
MTEXTBEGIN
1070
    73
1070
     1
1070
    44
1040
1.0
1070
    74
1070
     0
1000
MTEXTEND
  0
MTEXT
  5
55CB
330
1A
100
AcDbEntity
  8
SUNPOU
100
AcDbMText
 10
105089.0730599625
 20
93632.92681216739
 30
0.0
 40
10.5
 41
0.0
 71
     9
 72
     5
  1

1001
ACAD
1000
MTEXTBEGIN
1070
    73
1070
     1
1070
    44
1040
1.0
1070
    74
1070
     0
1000
MTEXTEND
  0
MTEXT
  5
55CC
330
1A
100
AcDbEntity
  8
SUNPOU
100
AcDbMText
 10
107032.4803066719
 20
91831.8777322894
 30
0.0
 40
3.5
 41
0.0
 71
     9
 72
     5
  1

1001
ACAD
1000
MTEXTBEGIN
1070
    73
1070
     1
1070
    44
1040
1.0
1070
    74
1070
     0
1000
MTEXTEND
  0
MTEXT
  5
55CD
330
1A
100
AcDbEntity
  8
SUNPOU
100
AcDbMText
 10
138158.6601392916
 20
134326.8233999467
 30
0.0
 40
10.5
 41
0.0
 71
     9
 72
     5
  1

1001
ACAD
1000
MTEXTBEGIN
1070
    73
1070
     1
1070
    44
1040
1.0
1070
    74
1070
     0
1000
MTEXTEND
  0
MTEXT
  5
55CE
330
1A
100
AcDbEntity
  8
SUNPOU
100
AcDbMText
 10
140102.067386001
 20
132525.7743200686
 30
0.0
 40
3.5
 41
0.0
 71
     9
 72
     5
  1

1001
ACAD
1000
MTEXTBEGIN
1070
    73
1070
     1
1070
    44
1040
1.0
1070
    74
1070
     0
1000
MTEXTEND
  0
MTEXT
  5
55CF
330
1A
100
AcDbEntity
  8
SUNPOU
100
AcDbMText
 10
88598.92784508721
 20
80159.98855492179
 30
0.0
 40
10.5
 41
0.0
 71
     9
 72
     5
  1

1001
ACAD
1000
MTEXTBEGIN
1070
    73
1070
     1
1070
    44
1040
1.0
1070
    74
1070
     0
1000
MTEXTEND
  0
MTEXT
  5
55D0
330
1A
100
AcDbEntity
  8
SUNPOU
100
AcDbMText
 10
74650.92774471121
 20
60987.5894158096
 30
0.0
 40
3.5
 41
0.0
 71
     7
 72
     5
  1

1001
ACAD
1000
MTEXTBEGIN
1070
    73
1070
     1
1070
    44
1040
1.0
1070
    74
1070
     0
1000
MTEXTEND
  0
MTEXT
  5
55D1
330
1A
100
AcDbEntity
  8
SUNPOU
100
AcDbMText
 10
55636.09714170436
 20
48749.73814662781
 30
0.0
 40
10.5
 41
0.0
 71
     7
 72
     5
  1

1001
ACAD
1000
MTEXTBEGIN
1070
    73
1070
     1
1070
    44
1040
1.0
1070
    74
1070
     0
1000
MTEXTEND
  0
MTEXT
  5
55D2
330
1A
100
AcDbEntity
  8
SUNPOU
100
AcDbMText
 10
43178.86887675626
 20
32904.80656852938
 30
0.0
 40
35.0
 41
0.0
 71
     9
 72
     5
  1

1001
ACAD
1000
MTEXTBEGIN
1070
    73
1070
     1
1070
    44
1040
1.0
1070
    74
1070
     0
1000
MTEXTEND
  0
MTEXT
  5
55D3
330
1A
100
AcDbEntity
  8
SUNPOU
100
AcDbMText
 10
42087.35393433121
 20
33513.58197857809
 30
0.0
 40
350.0000004171781
 41
0.0
 71
     7
 72
     5
  1

1001
ACAD
1000
MTEXTBEGIN
1070
    73
1070
     1
1070
    44
1040
1.0
1070
    74
1070
     0
1000
MTEXTEND
  0
MTEXT
  5
55D4
330
1A
100
AcDbEntity
  8
0
100
AcDbMText
 10
48131.30469227412
 20
31493.50434071431
 30
0.0
 40
8.0
 41
0.0
 71
     7
 72
     5
  1

1001
ACAD
1000
MTEXTBEGIN
1070
    73
1070
     1
1070
    44
1040
1.0
1070
    74
1070
     0
1000
MTEXTEND
  0
MTEXT
  5
55D5
330
1A
100
AcDbEntity
  8
0
100
AcDbMText
 10
50416.66238216901
 20
32464.29463546537
 30
0.0
 40
8.0
 41
0.0
 71
     7
 72
     5
  1

1001
ACAD
1000
MTEXTBEGIN
1070
    73
1070
     1
1070
    44
1040
1.0
1070
    74
1070
     0
1000
MTEXTEND
  0
MTEXT
  5
55D6
330
1A
100
AcDbEntity
  8
SUNPOU
100
AcDbMText
 10
53082.55940285115
 20
41976.4060278405
 30
0.0
 40
10.5
 41
0.0
 71
     1
 72
     5
  1

1001
ACAD
1000
MTEXTBEGIN
1070
    73
1070
     1
1070
    44
1040
1.0
1070
    74
1070
     0
1000
MTEXTEND
  0
MTEXT
  5
55D7
330
1A
100
AcDbEntity
  8
SUNPOU
100
AcDbMText
 10
45151.63620691522
 20
41029.61289392755
 30
0.0
 40
10.5
 41
0.0
 71
     7
 72
     5
  1

1001
ACAD
1000
MTEXTBEGIN
1070
    73
1070
     1
1070
    44
1040
1.0
1070
    74
1070
     0
1000
MTEXTEND
  0
MTEXT
  5
55D8
330
1A
100
AcDbEntity
  8
SUNPOU
100
AcDbMText
 10
48100.61987142798
 20
45930.28896577039
 30
0.0
 40
10.5
 41
0.0
 71
     7
 72
     5
  1

1001
ACAD
1000
MTEXTBEGIN
1070
    73
1070
     1
1070
    44
1040
1.0
1070
    74
1070
     0
1000
MTEXTEND
  0
MTEXT
  5
55D9
330
1A
100
AcDbEntity
  8
SUNPOU
100
AcDbMText
 10
52609.69799937854
 20
48366.58971339046
 30
0.0
 40
10.5
 41
0.0
 71
     7
 72
     5
  1

1001
ACAD
1000
MTEXTBEGIN
1070
    73
1070
     1
1070
    44
1040
1.0
1070
    74
1070
     0
1000
MTEXTEND
  0
MTEXT
  5
55DA
330
1A
100
AcDbEntity
  8
SUNPOU
100
AcDbMText
 10
36210.53588614687
 20
27364.18586377937
 30
0.0
 40
10.5
 41
0.0
 71
     7
 72
     5
  1

1001
ACAD
1000
MTEXTBEGIN
1070
    73
1070
     1
1070
    44
1040
1.0
1070
    74
1070
     0
1000
MTEXTEND
  0
MTEXT
  5
55DB
330
1A
100
AcDbEntity
  8
SUNPOU
100
AcDbMText
 10
38021.29879752181
 20
33691.59985125794
 30
0.0
 40
10.5
 41
0.0
 71
     9
 72
     5
  1

1001
ACAD
1000
MTEXTBEGIN
1070
    73
1070
     1
1070
    44
1040
1.0
1070
    74
1070
     0
1000
MTEXTEND
  0
MTEXT
  5
55DC
330
1A
100
AcDbEntity
  8
SUNPOU
100
AcDbMText
 10
46743.46636343979
 20
41107.43438279541
 30
0.0
 40
10.5
 41
0.0
 71
     9
 72
     5
  1

1001
ACAD
1000
MTEXTBEGIN
1070
    73
1070
     1
1070
    44
1040
1.0
1070
    74
1070
     0
1000
MTEXTEND
  0
MTEXT
  5
55DD
330
1A
100
AcDbEntity
  8
SUNPOU
100
AcDbMText
 10
65697.22508076975
 20
58574.01043528746
 30
0.0
 40
10.5
 41
0.0
 71
     9
 72
     5
  1

1001
ACAD
1000
MTEXTBEGIN
1070
    73
1070
     1
1070
    44
1040
1.0
1070
    74
1070
     0
1000
MTEXTEND
  0
MTEXT
  5
55DE
330
1A
100
AcDbEntity
  8
SUNPOU
100
AcDbMText
 10
67640.63232747917
 20
56772.96135540945
 30
0.0
 40
3.5
 41
0.0
 71
     9
 72
     5
  1

1001
ACAD
1000
MTEXTBEGIN
1070
    73
1070
     1
1070
    44
1040
1.0
1070
    74
1070
     0
1000
MTEXTEND
  0
MTEXT
  5
55DF
330
1A
100
AcDbEntity
  8
SUNPOU
100
AcDbMText
 10
98766.81216009888
 20
99267.9070230668
 30
0.0
 40
10.5
 41
0.0
 71
     9
 72
     5
  1

1001
ACAD
1000
MTEXTBEGIN
1070
    73
1070
     1
1070
    44
1040
1.0
1070
    74
1070
     0
1000
MTEXTEND
  0
MTEXT
  5
55E0
330
1A
100
AcDbEntity
  8
SUNPOU
100
AcDbMText
 10
100710.2194068083
 20
97466.85794318878
 30
0.0
 40
3.5
 41
0.0
 71
     9
 72
     5
  1

1001
ACAD
1000
MTEXTBEGIN
1070
    73
1070
     1
1070
    44
1040
1.0
1070
    74
1070
     0
1000
MTEXTEND
  0
MTEXT
  5
55E1
330
1A
100
AcDbEntity
  8
SUNPOU
100
AcDbMText
 10
49207.07986589444
 20
45101.07217804185
 30
0.0
 40
10.5
 41
0.0
 71
     9
 72
     5
  1

1001
ACAD
1000
MTEXTBEGIN
1070
    73
1070
     1
1070
    44
1040
1.0
1070
    74
1070
     0
1000
MTEXTEND
  0
MTEXT
  5
55E2
330
1A
100
AcDbEntity
  8
SUNPOU
100
AcDbMText
 10
35259.07976551845
 20
25928.67303892964
 30
0.0
 40
3.5
 41
0.0
 71
     7
 72
     5
  1

1001
ACAD
1000
MTEXTBEGIN
1070
    73
1070
     1
1070
    44
1040
1.0
1070
    74
1070
     0
1000
MTEXTEND
  0
MTEXT
  5
55E3
330
1A
100
AcDbEntity
  8
SUNPOU
100
AcDbMText
 10
48951.43044828905
 20
35287.73625995099
 30
0.0
 40
10.5
 41
0.0
 71
     9
 72
     5
  1

1001
ACAD
1000
MTEXTBEGIN
1070
    73
1070
     1
1070
    44
1040
1.0
1070
    74
1070
     0
1000
MTEXTEND
  0
MTEXT
  5
55E4
330
1A
100
AcDbEntity
  8
SUNPOU
100
AcDbMText
 10
57673.59801420702
 20
42703.57079148847
 30
0.0
 40
10.5
 41
0.0
 71
     9
 72
     5
  1

1001
ACAD
1000
MTEXTBEGIN
1070
    73
1070
     1
1070
    44
1040
1.0
1070
    74
1070
     0
1000
MTEXTEND
  0
MTEXT
  5
55E5
330
1A
100
AcDbEntity
  8
SUNPOU
100
AcDbMText
 10
76627.35673153699
 20
60170.14684398051
 30
0.0
 40
10.5
 41
0.0
 71
     9
 72
     5
  1

1001
ACAD
1000
MTEXTBEGIN
1070
    73
1070
     1
1070
    44
1040
1.0
1070
    74
1070
     0
1000
MTEXTEND
  0
MTEXT
  5
55E6
330
1A
100
AcDbEntity
  8
SUNPOU
100
AcDbMText
 10
78570.76397824641
 20
58369.09776410251
 30
0.0
 40
3.5
 41
0.0
 71
     9
 72
     5
  1

1001
ACAD
1000
MTEXTBEGIN
1070
    73
1070
     1
1070
    44
1040
1.0
1070
    74
1070
     0
1000
MTEXTEND
  0
MTEXT
  5
55E7
330
1A
100
AcDbEntity
  8
SUNPOU
100
AcDbMText
 10
109696.9438108661
 20
100864.0434317598
 30
0.0
 40
10.5
 41
0.0
 71
     9
 72
     5
  1

1001
ACAD
1000
MTEXTBEGIN
1070
    73
1070
     1
1070
    44
1040
1.0
1070
    74
1070
     0
1000
MTEXTEND
  0
MTEXT
  5
55E8
330
1A
100
AcDbEntity
  8
SUNPOU
100
AcDbMText
 10
111640.3510575755
 20
99062.99435188183
 30
0.0
 40
3.5
 41
0.0
 71
     9
 72
     5
  1

1001
ACAD
1000
MTEXTBEGIN
1070
    73
1070
     1
1070
    44
1040
1.0
1070
    74
1070
     0
1000
MTEXTEND
  0
MTEXT
  5
55E9
330
1A
100
AcDbEntity
  8
SUNPOU
100
AcDbMText
 10
60137.21151666167
 20
46697.20858673491
 30
0.0
 40
10.5
 41
0.0
 71
     9
 72
     5
  1

1001
ACAD
1000
MTEXTBEGIN
1070
    73
1070
     1
1070
    44
1040
1.0
1070
    74
1070
     0
1000
MTEXTEND
  0
MTEXT
  5
55EA
330
1A
100
AcDbEntity
  8
SUNPOU
100
AcDbMText
 10
46189.21141628568
 20
27524.80944762269
 30
0.0
 40
3.5
 41
0.0
 71
     7
 72
     5
  1

1001
ACAD
1000
MTEXTBEGIN
1070
    73
1070
     1
1070
    44
1040
1.0
1070
    74
1070
     0
1000
MTEXTEND
  0
MTEXT
  5
55EB
330
1A
100
AcDbEntity
  8
SUNPOU
100
AcDbMText
 10
45007.68847015541
 20
38269.57947701874
 30
0.0
 40
10.5
 41
0.0
 71
     9
 72
     5
  1

1001
ACAD
1000
MTEXTBEGIN
1070
    73
1070
     1
1070
    44
1040
1.0
1070
    74
1070
     0
1000
MTEXTEND
  0
MTEXT
  5
55EC
330
1A
100
AcDbEntity
  8
SUNPOU
100
AcDbMText
 10
63961.44718748539
 20
55736.15552951081
 30
0.0
 40
10.5
 41
0.0
 71
     9
 72
     5
  1

1001
ACAD
1000
MTEXTBEGIN
1070
    73
1070
     1
1070
    44
1040
1.0
1070
    74
1070
     0
1000
MTEXTEND
  0
MTEXT
  5
55ED
330
1A
100
AcDbEntity
  8
SUNPOU
100
AcDbMText
 10
65904.85443419479
 20
53935.10644963279
 30
0.0
 40
3.5
 41
0.0
 71
     9
 72
     5
  1

1001
ACAD
1000
MTEXTBEGIN
1070
    73
1070
     1
1070
    44
1040
1.0
1070
    74
1070
     0
1000
MTEXTEND
  0
MTEXT
  5
55EE
330
1A
100
AcDbEntity
  8
SUNPOU
100
AcDbMText
 10
97031.03426681451
 20
96430.05211729015
 30
0.0
 40
10.5
 41
0.0
 71
     9
 72
     5
  1

1001
ACAD
1000
MTEXTBEGIN
1070
    73
1070
     1
1070
    44
1040
1.0
1070
    74
1070
     0
1000
MTEXTEND
  0
MTEXT
  5
55EF
330
1A
100
AcDbEntity
  8
SUNPOU
100
AcDbMText
 10
98974.44151352393
 20
94629.00303741212
 30
0.0
 40
3.5
 41
0.0
 71
     9
 72
     5
  1

1001
ACAD
1000
MTEXTBEGIN
1070
    73
1070
     1
1070
    44
1040
1.0
1070
    74
1070
     0
1000
MTEXTEND
  0
MTEXT
  5
55F0
330
1A
100
AcDbEntity
  8
SUNPOU
100
AcDbMText
 10
47471.30197261006
 20
42263.21727226519
 30
0.0
 40
10.5
 41
0.0
 71
     9
 72
     5
  1

1001
ACAD
1000
MTEXTBEGIN
1070
    73
1070
     1
1070
    44
1040
1.0
1070
    74
1070
     0
1000
MTEXTEND
  0
MTEXT
  5
55F1
330
1A
100
AcDbEntity
  8
SUNPOU
100
AcDbMText
 10
33523.30187223408
 20
23090.81813315298
 30
0.0
 40
3.5
 41
0.0
 71
     7
 72
     5
  1

1001
ACAD
1000
MTEXTBEGIN
1070
    73
1070
     1
1070
    44
1040
1.0
1070
    74
1070
     0
1000
MTEXTEND
  0
MTEXT
  5
55F2
330
1A
100
AcDbEntity
  8
SUNPOU
100
AcDbMText
 10
57959.46254102503
 20
50038.08111611015
 30
0.0
 40
10.5
 41
0.0
 71
     9
 72
     5
  1

1001
ACAD
1000
MTEXTBEGIN
1070
    73
1070
     1
1070
    44
1040
1.0
1070
    74
1070
     0
1000
MTEXTEND
  0
MTEXT
  5
55F3
330
1A
100
AcDbEntity
  8
SUNPOU
100
AcDbMText
 10
76913.22125835503
 20
67504.65716860222
 30
0.0
 40
10.5
 41
0.0
 71
     9
 72
     5
  1

1001
ACAD
1000
MTEXTBEGIN
1070
    73
1070
     1
1070
    44
1040
1.0
1070
    74
1070
     0
1000
MTEXTEND
  0
MTEXT
  5
55F4
330
1A
100
AcDbEntity
  8
SUNPOU
100
AcDbMText
 10
78856.62850506443
 20
65703.6080887242
 30
0.0
 40
3.5
 41
0.0
 71
     9
 72
     5
  1

1001
ACAD
1000
MTEXTBEGIN
1070
    73
1070
     1
1070
    44
1040
1.0
1070
    74
1070
     0
1000
MTEXTEND
  0
MTEXT
  5
55F5
330
1A
100
AcDbEntity
  8
SUNPOU
100
AcDbMText
 10
109982.8083376841
 20
108198.5537563815
 30
0.0
 40
10.5
 41
0.0
 71
     9
 72
     5
  1

1001
ACAD
1000
MTEXTBEGIN
1070
    73
1070
     1
1070
    44
1040
1.0
1070
    74
1070
     0
1000
MTEXTEND
  0
MTEXT
  5
55F6
330
1A
100
AcDbEntity
  8
SUNPOU
100
AcDbMText
 10
111926.2155843935
 20
106397.5046765035
 30
0.0
 40
3.5
 41
0.0
 71
     9
 72
     5
  1

1001
ACAD
1000
MTEXTBEGIN
1070
    73
1070
     1
1070
    44
1040
1.0
1070
    74
1070
     0
1000
MTEXTEND
  0
MTEXT
  5
55F7
330
1A
100
AcDbEntity
  8
SUNPOU
100
AcDbMText
 10
60423.07604347968
 20
54031.71891135659
 30
0.0
 40
10.5
 41
0.0
 71
     9
 72
     5
  1

1001
ACAD
1000
MTEXTBEGIN
1070
    73
1070
     1
1070
    44
1040
1.0
1070
    74
1070
     0
1000
MTEXTEND
  0
MTEXT
  5
55F8
330
1A
100
AcDbEntity
  8
SUNPOU
100
AcDbMText
 10
46475.07594310369
 20
34859.3197722444
 30
0.0
 40
3.5
 41
0.0
 71
     7
 72
     5
  1

1001
ACAD
1000
MTEXTBEGIN
1070
    73
1070
     1
1070
    44
1040
1.0
1070
    74
1070
     0
1000
MTEXTEND
  0
MTEXT
  5
55F9
330
1A
100
AcDbEntity
  8
SUNPOU
100
AcDbMText
 10
74027.35402123588
 20
68370.58278833383
 30
0.0
 40
10.5
 41
0.0
 71
     9
 72
     5
  1

1001
ACAD
1000
MTEXTBEGIN
1070
    73
1070
     1
1070
    44
1040
1.0
1070
    74
1070
     0
1000
MTEXTEND
  0
MTEXT
  5
55FA
330
1A
100
AcDbEntity
  8
SUNPOU
100
AcDbMText
 10
75970.7612679453
 20
66569.53370845583
 30
0.0
 40
3.5
 41
0.0
 71
     9
 72
     5
  1

1001
ACAD
1000
MTEXTBEGIN
1070
    73
1070
     1
1070
    44
1040
1.0
1070
    74
1070
     0
1000
MTEXTEND
  0
MTEXT
  5
55FB
330
1A
100
AcDbEntity
  8
SUNPOU
100
AcDbMText
 10
107096.941100565
 20
109064.4793761132
 30
0.0
 40
10.5
 41
0.0
 71
     9
 72
     5
  1

1001
ACAD
1000
MTEXTBEGIN
1070
    73
1070
     1
1070
    44
1040
1.0
1070
    74
1070
     0
1000
MTEXTEND
  0
MTEXT
  5
55FC
330
1A
100
AcDbEntity
  8
SUNPOU
100
AcDbMText
 10
109040.3483472744
 20
107263.4302962351
 30
0.0
 40
3.5
 41
0.0
 71
     9
 72
     5
  1

1001
ACAD
1000
MTEXTBEGIN
1070
    73
1070
     1
1070
    44
1040
1.0
1070
    74
1070
     0
1000
MTEXTEND
  0
MTEXT
  5
55FD
330
1A
100
AcDbEntity
  8
SUNPOU
100
AcDbMText
 10
105709.1709283621
 20
108141.3777665285
 30
0.0
 40
10.5
 41
0.0
 71
     9
 72
     5
  1

1001
ACAD
1000
MTEXTBEGIN
1070
    73
1070
     1
1070
    44
1040
1.0
1070
    74
1070
     0
1000
MTEXTEND
  0
MTEXT
  5
55FE
330
1A
100
AcDbEntity
  8
SUNPOU
100
AcDbMText
 10
107652.5781750715
 20
106340.3286866505
 30
0.0
 40
3.5
 41
0.0
 71
     9
 72
     5
  1

1001
ACAD
1000
MTEXTBEGIN
1070
    73
1070
     1
1070
    44
1040
1.0
1070
    74
1070
     0
1000
MTEXTEND
  0
MTEXT
  5
55FF
330
1A
100
AcDbEntity
  8
SUNPOU
100
AcDbMText
 10
73193.09268743351
 20
66158.78082845056
 30
0.0
 40
10.5
 41
0.0
 71
     9
 72
     5
  1

1001
ACAD
1000
MTEXTBEGIN
1070
    73
1070
     1
1070
    44
1040
1.0
1070
    74
1070
     0
1000
MTEXTEND
  0
MTEXT
  5
5600
330
1A
100
AcDbEntity
  8
SUNPOU
100
AcDbMText
 10
75916.39889159806
 20
66563.46252003162
 30
0.0
 40
3.5
 41
0.0
 71
     9
 72
     5
  1

1001
ACAD
1000
MTEXTBEGIN
1070
    73
1070
     1
1070
    44
1040
1.0
1070
    74
1070
     0
1000
MTEXTEND
  0
MTEXT
  5
5601
330
1A
100
AcDbEntity
  8
SUNPOU
100
AcDbMText
 10
75124.04436649058
 20
63402.1566819768
 30
0.0
 40
10.5
 41
0.0
 71
     9
 72
     5
  1

1001
ACAD
1000
MTEXTBEGIN
1070
    73
1070
     1
1070
    44
1040
1.0
1070
    74
1070
     0
1000
MTEXTEND
  0
MTEXT
  5
5602
330
1A
100
AcDbEntity
  8
SUNPOU
100
AcDbMText
 10
77067.4516132
 20
61601.1076020988
 30
0.0
 40
3.5
 41
0.0
 71
     9
 72
     5
  1

1001
ACAD
1000
MTEXTBEGIN
1070
    73
1070
     1
1070
    44
1040
1.0
1070
    74
1070
     0
1000
MTEXTEND
  0
MTEXT
  5
5603
330
1A
100
AcDbEntity
  8
SUNPOU
100
AcDbMText
 10
77012.54710378659
 20
61488.33571981449
 30
0.0
 40
3.5
 41
0.0
 71
     9
 72
     5
  1

1001
ACAD
1000
MTEXTBEGIN
1070
    73
1070
     1
1070
    44
1040
1.0
1070
    74
1070
     0
1000
MTEXTEND
  0
MTEXT
  5
5604
330
1A
100
AcDbEntity
  8
SUNPOU
100
AcDbMText
 10
76376.61896736668
 20
60677.01447874797
 30
0.0
 40
3.5
 41
0.0
 71
     9
 72
     5
  1

1001
ACAD
1000
MTEXTBEGIN
1070
    73
1070
     1
1070
    44
1040
1.0
1070
    74
1070
     0
1000
MTEXTEND
  0
MTEXT
  5
5605
330
1A
100
AcDbEntity
  8
SUNPOU
100
AcDbMText
 10
76375.37854794595
 20
60676.76650181047
 30
0.0
 40
10.5
 41
0.0
 71
     9
 72
     5
  1

1001
ACAD
1000
MTEXTBEGIN
1070
    73
1070
     1
1070
    44
1040
1.0
1070
    74
1070
     0
1000
MTEXTEND
  0
MTEXT
  5
5606
330
1A
100
AcDbEntity
  8
SUNPOU
100
AcDbMText
 10
84709.93991079748
 20
78034.0328293557
 30
0.0
 40
10.5
 41
0.0
 71
     9
 72
     5
  1

1001
ACAD
1000
MTEXTBEGIN
1070
    73
1070
     1
1070
    44
1040
1.0
1070
    74
1070
     0
1000
MTEXTEND
  0
MTEXT
  5
5607
330
1A
100
AcDbEntity
  8
SUNPOU
100
AcDbMText
 10
93432.10747671548
 20
85449.86736089315
 30
0.0
 40
10.5
 41
0.0
 71
     9
 72
     5
  1

1001
ACAD
1000
MTEXTBEGIN
1070
    73
1070
     1
1070
    44
1040
1.0
1070
    74
1070
     0
1000
MTEXTEND
  0
MTEXT
  5
5608
330
1A
100
AcDbEntity
  8
SUNPOU
100
AcDbMText
 10
112385.8661940454
 20
102916.4434133851
 30
0.0
 40
10.5
 41
0.0
 71
     9
 72
     5
  1

1001
ACAD
1000
MTEXTBEGIN
1070
    73
1070
     1
1070
    44
1040
1.0
1070
    74
1070
     0
1000
MTEXTEND
  0
MTEXT
  5
5609
330
1A
100
AcDbEntity
  8
SUNPOU
100
AcDbMText
 10
114329.2734407548
 20
101115.3943335072
 30
0.0
 40
3.5
 41
0.0
 71
     9
 72
     5
  1

1001
ACAD
1000
MTEXTBEGIN
1070
    73
1070
     1
1070
    44
1040
1.0
1070
    74
1070
     0
1000
MTEXTEND
  0
MTEXT
  5
560A
330
1A
100
AcDbEntity
  8
SUNPOU
100
AcDbMText
 10
145455.4532733745
 20
143610.3400011645
 30
0.0
 40
10.5
 41
0.0
 71
     9
 72
     5
  1

1001
ACAD
1000
MTEXTBEGIN
1070
    73
1070
     1
1070
    44
1040
1.0
1070
    74
1070
     0
1000
MTEXTEND
  0
MTEXT
  5
560B
330
1A
100
AcDbEntity
  8
SUNPOU
100
AcDbMText
 10
147398.8605200839
 20
141809.2909212864
 30
0.0
 40
3.5
 41
0.0
 71
     9
 72
     5
  1

1001
ACAD
1000
MTEXTBEGIN
1070
    73
1070
     1
1070
    44
1040
1.0
1070
    74
1070
     0
1000
MTEXTEND
  0
MTEXT
  5
560C
330
1A
100
AcDbEntity
  8
SUNPOU
100
AcDbMText
 10
95895.72097917013
 20
89443.5051561396
 30
0.0
 40
10.5
 41
0.0
 71
     9
 72
     5
  1

1001
ACAD
1000
MTEXTBEGIN
1070
    73
1070
     1
1070
    44
1040
1.0
1070
    74
1070
     0
1000
MTEXTEND
  0
MTEXT
  5
560D
330
1A
100
AcDbEntity
  8
SUNPOU
100
AcDbMText
 10
81947.72087879414
 20
70271.1060170274
 30
0.0
 40
3.5
 41
0.0
 71
     7
 72
     5
  1

1001
ACAD
1000
MTEXTBEGIN
1070
    73
1070
     1
1070
    44
1040
1.0
1070
    74
1070
     0
1000
MTEXTEND
  0
MTEXT
  5
560E
330
1A
100
AcDbEntity
  8
SUNPOU
100
AcDbMText
 10
62932.89027578729
 20
58033.25474784561
 30
0.0
 40
10.5
 41
0.0
 71
     7
 72
     5
  1

1001
ACAD
1000
MTEXTBEGIN
1070
    73
1070
     1
1070
    44
1040
1.0
1070
    74
1070
     0
1000
MTEXTEND
  0
MTEXT
  5
560F
330
1A
100
AcDbEntity
  8
SUNPOU
100
AcDbMText
 10
50475.66201083918
 20
42188.32316974719
 30
0.0
 40
35.0
 41
0.0
 71
     9
 72
     5
  1

1001
ACAD
1000
MTEXTBEGIN
1070
    73
1070
     1
1070
    44
1040
1.0
1070
    74
1070
     0
1000
MTEXTEND
  0
MTEXT
  5
5610
330
1A
100
AcDbEntity
  8
SUNPOU
100
AcDbMText
 10
49384.14706841413
 20
42797.0985797959
 30
0.0
 40
350.0000004171781
 41
0.0
 71
     7
 72
     5
  1

1001
ACAD
1000
MTEXTBEGIN
1070
    73
1070
     1
1070
    44
1040
1.0
1070
    74
1070
     0
1000
MTEXTEND
  0
MTEXT
  5
5611
330
1A
100
AcDbEntity
  8
0
100
AcDbMText
 10
55428.09782635704
 20
40777.02094193211
 30
0.0
 40
8.0
 41
0.0
 71
     7
 72
     5
  1

1001
ACAD
1000
MTEXTBEGIN
1070
    73
1070
     1
1070
    44
1040
1.0
1070
    74
1070
     0
1000
MTEXTEND
  0
MTEXT
  5
5612
330
1A
100
AcDbEntity
  8
0
100
AcDbMText
 10
57713.45551625194
 20
41747.81123668317
 30
0.0
 40
8.0
 41
0.0
 71
     7
 72
     5
  1

1001
ACAD
1000
MTEXTBEGIN
1070
    73
1070
     1
1070
    44
1040
1.0
1070
    74
1070
     0
1000
MTEXTEND
  0
MTEXT
  5
5613
330
1A
100
AcDbEntity
  8
SUNPOU
100
AcDbMText
 10
60379.35253693408
 20
51259.9226290583
 30
0.0
 40
10.5
 41
0.0
 71
     1
 72
     5
  1

1001
ACAD
1000
MTEXTBEGIN
1070
    73
1070
     1
1070
    44
1040
1.0
1070
    74
1070
     0
1000
MTEXTEND
  0
MTEXT
  5
5614
330
1A
100
AcDbEntity
  8
SUNPOU
100
AcDbMText
 10
52448.42934099814
 20
50313.12949514535
 30
0.0
 40
10.5
 41
0.0
 71
     7
 72
     5
  1

1001
ACAD
1000
MTEXTBEGIN
1070
    73
1070
     1
1070
    44
1040
1.0
1070
    74
1070
     0
1000
MTEXTEND
  0
MTEXT
  5
5615
330
1A
100
AcDbEntity
  8
SUNPOU
100
AcDbMText
 10
55397.41300551091
 20
55213.80556698819
 30
0.0
 40
10.5
 41
0.0
 71
     7
 72
     5
  1

1001
ACAD
1000
MTEXTBEGIN
1070
    73
1070
     1
1070
    44
1040
1.0
1070
    74
1070
     0
1000
MTEXTEND
  0
MTEXT
  5
5616
330
1A
100
AcDbEntity
  8
SUNPOU
100
AcDbMText
 10
59906.49113346147
 20
57650.10631460826
 30
0.0
 40
10.5
 41
0.0
 71
     7
 72
     5
  1

1001
ACAD
1000
MTEXTBEGIN
1070
    73
1070
     1
1070
    44
1040
1.0
1070
    74
1070
     0
1000
MTEXTEND
  0
MTEXT
  5
5617
330
1A
100
AcDbEntity
  8
SUNPOU
100
AcDbMText
 10
43507.32902022979
 20
36647.70246499718
 30
0.0
 40
10.5
 41
0.0
 71
     7
 72
     5
  1

1001
ACAD
1000
MTEXTBEGIN
1070
    73
1070
     1
1070
    44
1040
1.0
1070
    74
1070
     0
1000
MTEXTEND
  0
MTEXT
  5
5618
330
1A
100
AcDbEntity
  8
SUNPOU
100
AcDbMText
 10
94698.84745413006
 20
82320.68302864542
 30
0.0
 40
10.5
 41
0.0
 71
     9
 72
     5
  1

1001
ACAD
1000
MTEXTBEGIN
1070
    73
1070
     1
1070
    44
1040
1.0
1070
    74
1070
     0
1000
MTEXTEND
  0
MTEXT
  5
5619
330
1A
100
AcDbEntity
  8
SUNPOU
100
AcDbMText
 10
103421.015020048
 20
89736.5175601829
 30
0.0
 40
10.5
 41
0.0
 71
     9
 72
     5
  1

1001
ACAD
1000
MTEXTBEGIN
1070
    73
1070
     1
1070
    44
1040
1.0
1070
    74
1070
     0
1000
MTEXTEND
  0
MTEXT
  5
561A
330
1A
100
AcDbEntity
  8
SUNPOU
100
AcDbMText
 10
122374.773737378
 20
107203.0936126749
 30
0.0
 40
10.5
 41
0.0
 71
     9
 72
     5
  1

1001
ACAD
1000
MTEXTBEGIN
1070
    73
1070
     1
1070
    44
1040
1.0
1070
    74
1070
     0
1000
MTEXTEND
  0
MTEXT
  5
561B
330
1A
100
AcDbEntity
  8
SUNPOU
100
AcDbMText
 10
124318.1809840874
 20
105402.0445327969
 30
0.0
 40
3.5
 41
0.0
 71
     9
 72
     5
  1

1001
ACAD
1000
MTEXTBEGIN
1070
    73
1070
     1
1070
    44
1040
1.0
1070
    74
1070
     0
1000
MTEXTEND
  0
MTEXT
  5
561C
330
1A
100
AcDbEntity
  8
SUNPOU
100
AcDbMText
 10
155444.3608167071
 20
147896.9902004542
 30
0.0
 40
10.5
 41
0.0
 71
     9
 72
     5
  1

1001
ACAD
1000
MTEXTBEGIN
1070
    73
1070
     1
1070
    44
1040
1.0
1070
    74
1070
     0
1000
MTEXTEND
  0
MTEXT
  5
561D
330
1A
100
AcDbEntity
  8
SUNPOU
100
AcDbMText
 10
157387.7680634165
 20
146095.9411205762
 30
0.0
 40
3.5
 41
0.0
 71
     9
 72
     5
  1

1001
ACAD
1000
MTEXTBEGIN
1070
    73
1070
     1
1070
    44
1040
1.0
1070
    74
1070
     0
1000
MTEXTEND
  0
MTEXT
  5
561E
330
1A
100
AcDbEntity
  8
SUNPOU
100
AcDbMText
 10
105884.6285225027
 20
93730.15535542933
 30
0.0
 40
10.5
 41
0.0
 71
     9
 72
     5
  1

1001
ACAD
1000
MTEXTBEGIN
1070
    73
1070
     1
1070
    44
1040
1.0
1070
    74
1070
     0
1000
MTEXTEND
  0
MTEXT
  5
561F
330
1A
100
AcDbEntity
  8
SUNPOU
100
AcDbMText
 10
91936.6284221267
 20
74557.75621631714
 30
0.0
 40
3.5
 41
0.0
 71
     7
 72
     5
  1

1001
ACAD
1000
MTEXTBEGIN
1070
    73
1070
     1
1070
    44
1040
1.0
1070
    74
1070
     0
1000
MTEXTEND
  0
MTEXT
  5
5620
330
1A
100
AcDbEntity
  8
SUNPOU
100
AcDbMText
 10
72921.79781911986
 20
62319.90494713533
 30
0.0
 40
10.5
 41
0.0
 71
     7
 72
     5
  1

1001
ACAD
1000
MTEXTBEGIN
1070
    73
1070
     1
1070
    44
1040
1.0
1070
    74
1070
     0
1000
MTEXTEND
  0
MTEXT
  5
5621
330
1A
100
AcDbEntity
  8
SUNPOU
100
AcDbMText
 10
60464.56955417175
 20
46474.97336903692
 30
0.0
 40
35.0
 41
0.0
 71
     9
 72
     5
  1

1001
ACAD
1000
MTEXTBEGIN
1070
    73
1070
     1
1070
    44
1040
1.0
1070
    74
1070
     0
1000
MTEXTEND
  0
MTEXT
  5
5622
330
1A
100
AcDbEntity
  8
SUNPOU
100
AcDbMText
 10
59373.05461174672
 20
47083.74877908562
 30
0.0
 40
350.0000004171781
 41
0.0
 71
     7
 72
     5
  1

1001
ACAD
1000
MTEXTBEGIN
1070
    73
1070
     1
1070
    44
1040
1.0
1070
    74
1070
     0
1000
MTEXTEND
  0
MTEXT
  5
5623
330
1A
100
AcDbEntity
  8
0
100
AcDbMText
 10
65417.00536968962
 20
45063.67114122186
 30
0.0
 40
8.0
 41
0.0
 71
     7
 72
     5
  1

1001
ACAD
1000
MTEXTBEGIN
1070
    73
1070
     1
1070
    44
1040
1.0
1070
    74
1070
     0
1000
MTEXTEND
  0
MTEXT
  5
5624
330
1A
100
AcDbEntity
  8
0
100
AcDbMText
 10
67702.36305958452
 20
46034.46143597292
 30
0.0
 40
8.0
 41
0.0
 71
     7
 72
     5
  1

1001
ACAD
1000
MTEXTBEGIN
1070
    73
1070
     1
1070
    44
1040
1.0
1070
    74
1070
     0
1000
MTEXTEND
  0
MTEXT
  5
5625
330
1A
100
AcDbEntity
  8
SUNPOU
100
AcDbMText
 10
70368.26008026666
 20
55546.57282834803
 30
0.0
 40
10.5
 41
0.0
 71
     1
 72
     5
  1

1001
ACAD
1000
MTEXTBEGIN
1070
    73
1070
     1
1070
    44
1040
1.0
1070
    74
1070
     0
1000
MTEXTEND
  0
MTEXT
  5
5626
330
1A
100
AcDbEntity
  8
SUNPOU
100
AcDbMText
 10
62437.33688433072
 20
54599.77969443508
 30
0.0
 40
10.5
 41
0.0
 71
     7
 72
     5
  1

1001
ACAD
1000
MTEXTBEGIN
1070
    73
1070
     1
1070
    44
1040
1.0
1070
    74
1070
     0
1000
MTEXTEND
  0
MTEXT
  5
5627
330
1A
100
AcDbEntity
  8
SUNPOU
100
AcDbMText
 10
65386.32054884349
 20
59500.45576627792
 30
0.0
 40
10.5
 41
0.0
 71
     7
 72
     5
  1

1001
ACAD
1000
MTEXTBEGIN
1070
    73
1070
     1
1070
    44
1040
1.0
1070
    74
1070
     0
1000
MTEXTEND
  0
MTEXT
  5
5628
330
1A
100
AcDbEntity
  8
SUNPOU
100
AcDbMText
 10
69895.39867679405
 20
61936.756513898
 30
0.0
 40
10.5
 41
0.0
 71
     7
 72
     5
  1

1001
ACAD
1000
MTEXTBEGIN
1070
    73
1070
     1
1070
    44
1040
1.0
1070
    74
1070
     0
1000
MTEXTEND
  0
MTEXT
  5
5629
330
1A
100
AcDbEntity
  8
SUNPOU
100
AcDbMText
 10
53496.23656356237
 20
40934.35266428691
 30
0.0
 40
10.5
 41
0.0
 71
     7
 72
     5
  1

1001
ACAD
1000
MTEXTBEGIN
1070
    73
1070
     1
1070
    44
1040
1.0
1070
    74
1070
     0
1000
MTEXTEND
  0
MTEXT
  5
562A
330
1A
100
AcDbEntity
  8
SUNPOU
100
AcDbMText
 10
55306.99947493731
 20
47261.76665176547
 30
0.0
 40
10.5
 41
0.0
 71
     9
 72
     5
  1

1001
ACAD
1000
MTEXTBEGIN
1070
    73
1070
     1
1070
    44
1040
1.0
1070
    74
1070
     0
1000
MTEXTEND
  0
MTEXT
  5
562B
330
1A
100
AcDbEntity
  8
SUNPOU
100
AcDbMText
 10
64029.16704085528
 20
54677.60118330295
 30
0.0
 40
10.5
 41
0.0
 71
     9
 72
     5
  1

1001
ACAD
1000
MTEXTBEGIN
1070
    73
1070
     1
1070
    44
1040
1.0
1070
    74
1070
     0
1000
MTEXTEND
  0
MTEXT
  5
562C
330
1A
100
AcDbEntity
  8
SUNPOU
100
AcDbMText
 10
82982.92575818527
 20
72144.17723579499
 30
0.0
 40
10.5
 41
0.0
 71
     9
 72
     5
  1

1001
ACAD
1000
MTEXTBEGIN
1070
    73
1070
     1
1070
    44
1040
1.0
1070
    74
1070
     0
1000
MTEXTEND
  0
MTEXT
  5
562D
330
1A
100
AcDbEntity
  8
SUNPOU
100
AcDbMText
 10
84926.33300489467
 20
70343.12815591698
 30
0.0
 40
3.5
 41
0.0
 71
     9
 72
     5
  1

1001
ACAD
1000
MTEXTBEGIN
1070
    73
1070
     1
1070
    44
1040
1.0
1070
    74
1070
     0
1000
MTEXTEND
  0
MTEXT
  5
562E
330
1A
100
AcDbEntity
  8
SUNPOU
100
AcDbMText
 10
116052.5128375143
 20
112838.0738235743
 30
0.0
 40
10.5
 41
0.0
 71
     9
 72
     5
  1

1001
ACAD
1000
MTEXTBEGIN
1070
    73
1070
     1
1070
    44
1040
1.0
1070
    74
1070
     0
1000
MTEXTEND
  0
MTEXT
  5
562F
330
1A
100
AcDbEntity
  8
SUNPOU
100
AcDbMText
 10
117995.9200842238
 20
111037.0247436963
 30
0.0
 40
3.5
 41
0.0
 71
     9
 72
     5
  1

1001
ACAD
1000
MTEXTBEGIN
1070
    73
1070
     1
1070
    44
1040
1.0
1070
    74
1070
     0
1000
MTEXTEND
  0
MTEXT
  5
5630
330
1A
100
AcDbEntity
  8
SUNPOU
100
AcDbMText
 10
66492.78054330994
 20
58671.23897854939
 30
0.0
 40
10.5
 41
0.0
 71
     9
 72
     5
  1

1001
ACAD
1000
MTEXTBEGIN
1070
    73
1070
     1
1070
    44
1040
1.0
1070
    74
1070
     0
1000
MTEXTEND
  0
MTEXT
  5
5631
330
1A
100
AcDbEntity
  8
SUNPOU
100
AcDbMText
 10
52544.78044293396
 20
39498.83983943717
 30
0.0
 40
3.5
 41
0.0
 71
     7
 72
     5
  1

1001
ACAD
1000
MTEXTBEGIN
1070
    73
1070
     1
1070
    44
1040
1.0
1070
    74
1070
     0
1000
MTEXTEND
  0
MTEXT
  5
5632
330
1A
100
AcDbEntity
  8
SUNPOU
100
AcDbMText
 10
66237.13112570454
 20
48857.90306045851
 30
0.0
 40
10.5
 41
0.0
 71
     9
 72
     5
  1

1001
ACAD
1000
MTEXTBEGIN
1070
    73
1070
     1
1070
    44
1040
1.0
1070
    74
1070
     0
1000
MTEXTEND
  0
MTEXT
  5
5633
330
1A
100
AcDbEntity
  8
SUNPOU
100
AcDbMText
 10
74959.29869162252
 20
56273.737591996
 30
0.0
 40
10.5
 41
0.0
 71
     9
 72
     5
  1

1001
ACAD
1000
MTEXTBEGIN
1070
    73
1070
     1
1070
    44
1040
1.0
1070
    74
1070
     0
1000
MTEXTEND
  0
MTEXT
  5
5634
330
1A
100
AcDbEntity
  8
SUNPOU
100
AcDbMText
 10
93913.0574089525
 20
73740.31364448805
 30
0.0
 40
10.5
 41
0.0
 71
     9
 72
     5
  1

1001
ACAD
1000
MTEXTBEGIN
1070
    73
1070
     1
1070
    44
1040
1.0
1070
    74
1070
     0
1000
MTEXTEND
  0
MTEXT
  5
5635
330
1A
100
AcDbEntity
  8
SUNPOU
100
AcDbMText
 10
95856.46465566192
 20
71939.26456461004
 30
0.0
 40
3.5
 41
0.0
 71
     9
 72
     5
  1

1001
ACAD
1000
MTEXTBEGIN
1070
    73
1070
     1
1070
    44
1040
1.0
1070
    74
1070
     0
1000
MTEXTEND
  0
MTEXT
  5
5636
330
1A
100
AcDbEntity
  8
SUNPOU
100
AcDbMText
 10
126982.6444882816
 20
114434.2102322673
 30
0.0
 40
10.5
 41
0.0
 71
     9
 72
     5
  1

1001
ACAD
1000
MTEXTBEGIN
1070
    73
1070
     1
1070
    44
1040
1.0
1070
    74
1070
     0
1000
MTEXTEND
  0
MTEXT
  5
5637
330
1A
100
AcDbEntity
  8
SUNPOU
100
AcDbMText
 10
128926.051734991
 20
112633.1611523893
 30
0.0
 40
3.5
 41
0.0
 71
     9
 72
     5
  1

1001
ACAD
1000
MTEXTBEGIN
1070
    73
1070
     1
1070
    44
1040
1.0
1070
    74
1070
     0
1000
MTEXTEND
  0
MTEXT
  5
5638
330
1A
100
AcDbEntity
  8
SUNPOU
100
AcDbMText
 10
77422.91219407717
 20
60267.37538724244
 30
0.0
 40
10.5
 41
0.0
 71
     9
 72
     5
  1

1001
ACAD
1000
MTEXTBEGIN
1070
    73
1070
     1
1070
    44
1040
1.0
1070
    74
1070
     0
1000
MTEXTEND
  0
MTEXT
  5
5639
330
1A
100
AcDbEntity
  8
SUNPOU
100
AcDbMText
 10
63474.91209370119
 20
41094.97624813023
 30
0.0
 40
3.5
 41
0.0
 71
     7
 72
     5
  1

1001
ACAD
1000
MTEXTBEGIN
1070
    73
1070
     1
1070
    44
1040
1.0
1070
    74
1070
     0
1000
MTEXTEND
  0
MTEXT
  5
563A
330
1A
100
AcDbEntity
  8
SUNPOU
100
AcDbMText
 10
48117.65086229006
 20
40806.11043916631
 30
0.0
 40
10.5
 41
0.0
 71
     9
 72
     5
  1

1001
ACAD
1000
MTEXTBEGIN
1070
    73
1070
     1
1070
    44
1040
1.0
1070
    74
1070
     0
1000
MTEXTEND
  0
MTEXT
  5
563B
330
1A
100
AcDbEntity
  8
SUNPOU
100
AcDbMText
 10
67071.40957962004
 20
58272.68649165837
 30
0.0
 40
10.5
 41
0.0
 71
     9
 72
     5
  1

1001
ACAD
1000
MTEXTBEGIN
1070
    73
1070
     1
1070
    44
1040
1.0
1070
    74
1070
     0
1000
MTEXTEND
  0
MTEXT
  5
563C
330
1A
100
AcDbEntity
  8
SUNPOU
100
AcDbMText
 10
69014.81682632945
 20
56471.63741178035
 30
0.0
 40
3.5
 41
0.0
 71
     9
 72
     5
  1

1001
ACAD
1000
MTEXTBEGIN
1070
    73
1070
     1
1070
    44
1040
1.0
1070
    74
1070
     0
1000
MTEXTEND
  0
MTEXT
  5
563D
330
1A
100
AcDbEntity
  8
SUNPOU
100
AcDbMText
 10
100140.9966589491
 20
98966.58307943772
 30
0.0
 40
10.5
 41
0.0
 71
     9
 72
     5
  1

1001
ACAD
1000
MTEXTBEGIN
1070
    73
1070
     1
1070
    44
1040
1.0
1070
    74
1070
     0
1000
MTEXTEND
  0
MTEXT
  5
563E
330
1A
100
AcDbEntity
  8
SUNPOU
100
AcDbMText
 10
102084.4039056586
 20
97165.53399955969
 30
0.0
 40
3.5
 41
0.0
 71
     9
 72
     5
  1

1001
ACAD
1000
MTEXTBEGIN
1070
    73
1070
     1
1070
    44
1040
1.0
1070
    74
1070
     0
1000
MTEXTEND
  0
MTEXT
  5
563F
330
1A
100
AcDbEntity
  8
SUNPOU
100
AcDbMText
 10
50581.26436474472
 20
44799.74823441275
 30
0.0
 40
10.5
 41
0.0
 71
     9
 72
     5
  1

1001
ACAD
1000
MTEXTBEGIN
1070
    73
1070
     1
1070
    44
1040
1.0
1070
    74
1070
     0
1000
MTEXTEND
  0
MTEXT
  5
5640
330
1A
100
AcDbEntity
  8
SUNPOU
100
AcDbMText
 10
36633.26426436873
 20
25627.34909530054
 30
0.0
 40
3.5
 41
0.0
 71
     7
 72
     5
  1

1001
ACAD
1000
MTEXTBEGIN
1070
    73
1070
     1
1070
    44
1040
1.0
1070
    74
1070
     0
1000
MTEXTEND
  0
MTEXT
  5
5641
330
1A
100
AcDbEntity
  8
SUNPOU
100
AcDbMText
 10
61069.42493315968
 20
52574.61207825771
 30
0.0
 40
10.5
 41
0.0
 71
     9
 72
     5
  1

1001
ACAD
1000
MTEXTBEGIN
1070
    73
1070
     1
1070
    44
1040
1.0
1070
    74
1070
     0
1000
MTEXTEND
  0
MTEXT
  5
5642
330
1A
100
AcDbEntity
  8
SUNPOU
100
AcDbMText
 10
80023.18365048967
 20
70041.18813074978
 30
0.0
 40
10.5
 41
0.0
 71
     9
 72
     5
  1

1001
ACAD
1000
MTEXTBEGIN
1070
    73
1070
     1
1070
    44
1040
1.0
1070
    74
1070
     0
1000
MTEXTEND
  0
MTEXT
  5
5643
330
1A
100
AcDbEntity
  8
SUNPOU
100
AcDbMText
 10
81966.59089719908
 20
68240.13905087176
 30
0.0
 40
3.5
 41
0.0
 71
     9
 72
     5
  1

1001
ACAD
1000
MTEXTBEGIN
1070
    73
1070
     1
1070
    44
1040
1.0
1070
    74
1070
     0
1000
MTEXTEND
  0
MTEXT
  5
5644
330
1A
100
AcDbEntity
  8
SUNPOU
100
AcDbMText
 10
113092.7707298187
 20
110735.0847185291
 30
0.0
 40
10.5
 41
0.0
 71
     9
 72
     5
  1

1001
ACAD
1000
MTEXTBEGIN
1070
    73
1070
     1
1070
    44
1040
1.0
1070
    74
1070
     0
1000
MTEXTEND
  0
MTEXT
  5
5645
330
1A
100
AcDbEntity
  8
SUNPOU
100
AcDbMText
 10
115036.1779765282
 20
108934.0356386511
 30
0.0
 40
3.5
 41
0.0
 71
     9
 72
     5
  1

1001
ACAD
1000
MTEXTBEGIN
1070
    73
1070
     1
1070
    44
1040
1.0
1070
    74
1070
     0
1000
MTEXTEND
  0
MTEXT
  5
5646
330
1A
100
AcDbEntity
  8
SUNPOU
100
AcDbMText
 10
63533.03843561433
 20
56568.24987350415
 30
0.0
 40
10.5
 41
0.0
 71
     9
 72
     5
  1

1001
ACAD
1000
MTEXTBEGIN
1070
    73
1070
     1
1070
    44
1040
1.0
1070
    74
1070
     0
1000
MTEXTEND
  0
MTEXT
  5
5647
330
1A
100
AcDbEntity
  8
SUNPOU
100
AcDbMText
 10
49585.03833523835
 20
37395.85073439196
 30
0.0
 40
3.5
 41
0.0
 71
     7
 72
     5
  1

1001
ACAD
1000
MTEXTBEGIN
1070
    73
1070
     1
1070
    44
1040
1.0
1070
    74
1070
     0
1000
MTEXTEND
  0
MTEXT
  5
5648
330
1A
100
AcDbEntity
  8
SUNPOU
100
AcDbMText
 10
77137.31641337052
 20
70907.11375048141
 30
0.0
 40
10.5
 41
0.0
 71
     9
 72
     5
  1

1001
ACAD
1000
MTEXTBEGIN
1070
    73
1070
     1
1070
    44
1040
1.0
1070
    74
1070
     0
1000
MTEXTEND
  0
MTEXT
  5
5649
330
1A
100
AcDbEntity
  8
SUNPOU
100
AcDbMText
 10
79080.72366007995
 20
69106.06467060339
 30
0.0
 40
3.5
 41
0.0
 71
     9
 72
     5
  1

1001
ACAD
1000
MTEXTBEGIN
1070
    73
1070
     1
1070
    44
1040
1.0
1070
    74
1070
     0
1000
MTEXTEND
  0
MTEXT
  5
564A
330
1A
100
AcDbEntity
  8
SUNPOU
100
AcDbMText
 10
110206.9034926996
 20
111601.0103382607
 30
0.0
 40
10.5
 41
0.0
 71
     9
 72
     5
  1

1001
ACAD
1000
MTEXTBEGIN
1070
    73
1070
     1
1070
    44
1040
1.0
1070
    74
1070
     0
1000
MTEXTEND
  0
MTEXT
  5
564B
330
1A
100
AcDbEntity
  8
SUNPOU
100
AcDbMText
 10
112150.310739409
 20
109799.9612583827
 30
0.0
 40
3.5
 41
0.0
 71
     9
 72
     5
  1

1001
ACAD
1000
MTEXTBEGIN
1070
    73
1070
     1
1070
    44
1040
1.0
1070
    74
1070
     0
1000
MTEXTEND
  0
MTEXT
  5
564C
330
1A
100
AcDbEntity
  8
SUNPOU
100
AcDbMText
 10
108819.1333204968
 20
110677.9087286761
 30
0.0
 40
10.5
 41
0.0
 71
     9
 72
     5
  1

1001
ACAD
1000
MTEXTBEGIN
1070
    73
1070
     1
1070
    44
1040
1.0
1070
    74
1070
     0
1000
MTEXTEND
  0
MTEXT
  5
564D
330
1A
100
AcDbEntity
  8
SUNPOU
100
AcDbMText
 10
110762.5405672062
 20
108876.8596487981
 30
0.0
 40
3.5
 41
0.0
 71
     9
 72
     5
  1

1001
ACAD
1000
MTEXTBEGIN
1070
    73
1070
     1
1070
    44
1040
1.0
1070
    74
1070
     0
1000
MTEXTEND
  0
MTEXT
  5
564E
330
1A
100
AcDbEntity
  8
SUNPOU
100
AcDbMText
 10
76303.05507956816
 20
68695.31179059812
 30
0.0
 40
10.5
 41
0.0
 71
     9
 72
     5
  1

1001
ACAD
1000
MTEXTBEGIN
1070
    73
1070
     1
1070
    44
1040
1.0
1070
    74
1070
     0
1000
MTEXTEND
  0
MTEXT
  5
564F
330
1A
100
AcDbEntity
  8
SUNPOU
100
AcDbMText
 10
79026.36128373271
 20
69099.99348217918
 30
0.0
 40
3.5
 41
0.0
 71
     9
 72
     5
  1

1001
ACAD
1000
MTEXTBEGIN
1070
    73
1070
     1
1070
    44
1040
1.0
1070
    74
1070
     0
1000
MTEXTEND
  0
MTEXT
  5
5650
330
1A
100
AcDbEntity
  8
SUNPOU
100
AcDbMText
 10
78234.00675862522
 20
65938.68764412436
 30
0.0
 40
10.5
 41
0.0
 71
     9
 72
     5
  1

1001
ACAD
1000
MTEXTBEGIN
1070
    73
1070
     1
1070
    44
1040
1.0
1070
    74
1070
     0
1000
MTEXTEND
  0
MTEXT
  5
5651
330
1A
100
AcDbEntity
  8
SUNPOU
100
AcDbMText
 10
80177.41400533465
 20
64137.63856424636
 30
0.0
 40
3.5
 41
0.0
 71
     9
 72
     5
  1

1001
ACAD
1000
MTEXTBEGIN
1070
    73
1070
     1
1070
    44
1040
1.0
1070
    74
1070
     0
1000
MTEXTEND
  0
MTEXT
  5
5652
330
1A
100
AcDbEntity
  8
SUNPOU
100
AcDbMText
 10
80122.50949592123
 20
64024.86668196205
 30
0.0
 40
3.5
 41
0.0
 71
     9
 72
     5
  1

1001
ACAD
1000
MTEXTBEGIN
1070
    73
1070
     1
1070
    44
1040
1.0
1070
    74
1070
     0
1000
MTEXTEND
  0
MTEXT
  5
5653
330
1A
100
AcDbEntity
  8
SUNPOU
100
AcDbMText
 10
79486.58135950133
 20
63213.54544089553
 30
0.0
 40
3.5
 41
0.0
 71
     9
 72
     5
  1

1001
ACAD
1000
MTEXTBEGIN
1070
    73
1070
     1
1070
    44
1040
1.0
1070
    74
1070
     0
1000
MTEXTEND
  0
MTEXT
  5
5654
330
1A
100
AcDbEntity
  8
SUNPOU
100
AcDbMText
 10
79485.3409400806
 20
63213.29746395804
 30
0.0
 40
10.5
 41
0.0
 71
     9
 72
     5
  1

1001
ACAD
1000
MTEXTBEGIN
1070
    73
1070
     1
1070
    44
1040
1.0
1070
    74
1070
     0
1000
MTEXTEND
  0
MTEXT
  5
5655
330
1A
100
AcDbEntity
  8
SUNPOU
100
AcDbMText
 10
85473.63363627567
 20
80747.76348077064
 30
0.0
 40
10.5
 41
0.0
 71
     9
 72
     5
  1

1001
ACAD
1000
MTEXTBEGIN
1070
    73
1070
     1
1070
    44
1040
1.0
1070
    74
1070
     0
1000
MTEXTEND
  0
MTEXT
  5
5656
330
1A
100
AcDbEntity
  8
SUNPOU
100
AcDbMText
 10
94195.80120219368
 20
88163.59801230809
 30
0.0
 40
10.5
 41
0.0
 71
     9
 72
     5
  1

1001
ACAD
1000
MTEXTBEGIN
1070
    73
1070
     1
1070
    44
1040
1.0
1070
    74
1070
     0
1000
MTEXTEND
  0
MTEXT
  5
5657
330
1A
100
AcDbEntity
  8
SUNPOU
100
AcDbMText
 10
113149.5599195236
 20
105630.1740648001
 30
0.0
 40
10.5
 41
0.0
 71
     9
 72
     5
  1

1001
ACAD
1000
MTEXTBEGIN
1070
    73
1070
     1
1070
    44
1040
1.0
1070
    74
1070
     0
1000
MTEXTEND
  0
MTEXT
  5
5658
330
1A
100
AcDbEntity
  8
SUNPOU
100
AcDbMText
 10
115092.967166233
 20
103829.1249849221
 30
0.0
 40
3.5
 41
0.0
 71
     9
 72
     5
  1

1001
ACAD
1000
MTEXTBEGIN
1070
    73
1070
     1
1070
    44
1040
1.0
1070
    74
1070
     0
1000
MTEXTEND
  0
MTEXT
  5
5659
330
1A
100
AcDbEntity
  8
SUNPOU
100
AcDbMText
 10
146219.1469988527
 20
146324.0706525794
 30
0.0
 40
10.5
 41
0.0
 71
     9
 72
     5
  1

1001
ACAD
1000
MTEXTBEGIN
1070
    73
1070
     1
1070
    44
1040
1.0
1070
    74
1070
     0
1000
MTEXTEND
  0
MTEXT
  5
565A
330
1A
100
AcDbEntity
  8
SUNPOU
100
AcDbMText
 10
148162.5542455621
 20
144523.0215727014
 30
0.0
 40
3.5
 41
0.0
 71
     9
 72
     5
  1

1001
ACAD
1000
MTEXTBEGIN
1070
    73
1070
     1
1070
    44
1040
1.0
1070
    74
1070
     0
1000
MTEXTEND
  0
MTEXT
  5
565B
330
1A
100
AcDbEntity
  8
SUNPOU
100
AcDbMText
 10
96659.41470464833
 20
92157.23580755453
 30
0.0
 40
10.5
 41
0.0
 71
     9
 72
     5
  1

1001
ACAD
1000
MTEXTBEGIN
1070
    73
1070
     1
1070
    44
1040
1.0
1070
    74
1070
     0
1000
MTEXTEND
  0
MTEXT
  5
565C
330
1A
100
AcDbEntity
  8
SUNPOU
100
AcDbMText
 10
82711.41460427234
 20
72984.83666844234
 30
0.0
 40
3.5
 41
0.0
 71
     7
 72
     5
  1

1001
ACAD
1000
MTEXTBEGIN
1070
    73
1070
     1
1070
    44
1040
1.0
1070
    74
1070
     0
1000
MTEXTEND
  0
MTEXT
  5
565D
330
1A
100
AcDbEntity
  8
SUNPOU
100
AcDbMText
 10
63696.58400126548
 20
60746.98539926055
 30
0.0
 40
10.5
 41
0.0
 71
     7
 72
     5
  1

1001
ACAD
1000
MTEXTBEGIN
1070
    73
1070
     1
1070
    44
1040
1.0
1070
    74
1070
     0
1000
MTEXTEND
  0
MTEXT
  5
565E
330
1A
100
AcDbEntity
  8
SUNPOU
100
AcDbMText
 10
51239.35573631738
 20
44902.05382116213
 30
0.0
 40
35.0
 41
0.0
 71
     9
 72
     5
  1

1001
ACAD
1000
MTEXTBEGIN
1070
    73
1070
     1
1070
    44
1040
1.0
1070
    74
1070
     0
1000
MTEXTEND
  0
MTEXT
  5
565F
330
1A
100
AcDbEntity
  8
SUNPOU
100
AcDbMText
 10
50147.84079389233
 20
45510.82923121084
 30
0.0
 40
350.0000004171781
 41
0.0
 71
     7
 72
     5
  1

1001
ACAD
1000
MTEXTBEGIN
1070
    73
1070
     1
1070
    44
1040
1.0
1070
    74
1070
     0
1000
MTEXTEND
  0
MTEXT
  5
5660
330
1A
100
AcDbEntity
  8
0
100
AcDbMText
 10
56191.79155183523
 20
43490.75159334705
 30
0.0
 40
8.0
 41
0.0
 71
     7
 72
     5
  1

1001
ACAD
1000
MTEXTBEGIN
1070
    73
1070
     1
1070
    44
1040
1.0
1070
    74
1070
     0
1000
MTEXTEND
  0
MTEXT
  5
5661
330
1A
100
AcDbEntity
  8
0
100
AcDbMText
 10
58477.14924173013
 20
44461.54188809812
 30
0.0
 40
8.0
 41
0.0
 71
     7
 72
     5
  1

1001
ACAD
1000
MTEXTBEGIN
1070
    73
1070
     1
1070
    44
1040
1.0
1070
    74
1070
     0
1000
MTEXTEND
  0
MTEXT
  5
5662
330
1A
100
AcDbEntity
  8
SUNPOU
100
AcDbMText
 10
61143.04626241227
 20
53973.65328047324
 30
0.0
 40
10.5
 41
0.0
 71
     1
 72
     5
  1

1001
ACAD
1000
MTEXTBEGIN
1070
    73
1070
     1
1070
    44
1040
1.0
1070
    74
1070
     0
1000
MTEXTEND
  0
MTEXT
  5
5663
330
1A
100
AcDbEntity
  8
SUNPOU
100
AcDbMText
 10
53212.12306647634
 20
53026.86014656028
 30
0.0
 40
10.5
 41
0.0
 71
     7
 72
     5
  1

1001
ACAD
1000
MTEXTBEGIN
1070
    73
1070
     1
1070
    44
1040
1.0
1070
    74
1070
     0
1000
MTEXTEND
  0
MTEXT
  5
5664
330
1A
100
AcDbEntity
  8
SUNPOU
100
AcDbMText
 10
56161.1067309891
 20
57927.53621840312
 30
0.0
 40
10.5
 41
0.0
 71
     7
 72
     5
  1

1001
ACAD
1000
MTEXTBEGIN
1070
    73
1070
     1
1070
    44
1040
1.0
1070
    74
1070
     0
1000
MTEXTEND
  0
MTEXT
  5
5665
330
1A
100
AcDbEntity
  8
SUNPOU
100
AcDbMText
 10
60670.18485893966
 20
60363.8369660232
 30
0.0
 40
10.5
 41
0.0
 71
     7
 72
     5
  1

1001
ACAD
1000
MTEXTBEGIN
1070
    73
1070
     1
1070
    44
1040
1.0
1070
    74
1070
     0
1000
MTEXTEND
  0
MTEXT
  5
5666
330
1A
100
AcDbEntity
  8
SUNPOU
100
AcDbMText
 10
44271.02274570799
 20
39361.43311641212
 30
0.0
 40
10.5
 41
0.0
 71
     7
 72
     5
  1

1001
ACAD
1000
MTEXTBEGIN
1070
    73
1070
     1
1070
    44
1040
1.0
1070
    74
1070
     0
1000
MTEXTEND
  0
MTEXT
  5
5667
330
1A
100
AcDbEntity
  8
SUNPOU
100
AcDbMText
 10
95462.54117960824
 20
85034.41368006038
 30
0.0
 40
10.5
 41
0.0
 71
     9
 72
     5
  1

1001
ACAD
1000
MTEXTBEGIN
1070
    73
1070
     1
1070
    44
1040
1.0
1070
    74
1070
     0
1000
MTEXTEND
  0
MTEXT
  5
5668
330
1A
100
AcDbEntity
  8
SUNPOU
100
AcDbMText
 10
104184.7087455262
 20
92450.24821159784
 30
0.0
 40
10.5
 41
0.0
 71
     9
 72
     5
  1

1001
ACAD
1000
MTEXTBEGIN
1070
    73
1070
     1
1070
    44
1040
1.0
1070
    74
1070
     0
1000
MTEXTEND
  0
MTEXT
  5
5669
330
1A
100
AcDbEntity
  8
SUNPOU
100
AcDbMText
 10
123138.4674628562
 20
109916.8242640898
 30
0.0
 40
10.5
 41
0.0
 71
     9
 72
     5
  1

1001
ACAD
1000
MTEXTBEGIN
1070
    73
1070
     1
1070
    44
1040
1.0
1070
    74
1070
     0
1000
MTEXTEND
  0
MTEXT
  5
566A
330
1A
100
AcDbEntity
  8
SUNPOU
100
AcDbMText
 10
125081.8747095656
 20
108115.7751842118
 30
0.0
 40
3.5
 41
0.0
 71
     9
 72
     5
  1

1001
ACAD
1000
MTEXTBEGIN
1070
    73
1070
     1
1070
    44
1040
1.0
1070
    74
1070
     0
1000
MTEXTEND
  0
MTEXT
  5
566B
330
1A
100
AcDbEntity
  8
SUNPOU
100
AcDbMText
 10
156208.0545421853
 20
150610.7208518691
 30
0.0
 40
10.5
 41
0.0
 71
     9
 72
     5
  1

1001
ACAD
1000
MTEXTBEGIN
1070
    73
1070
     1
1070
    44
1040
1.0
1070
    74
1070
     0
1000
MTEXTEND
  0
MTEXT
  5
566C
330
1A
100
AcDbEntity
  8
SUNPOU
100
AcDbMText
 10
158151.4617888947
 20
148809.6717719911
 30
0.0
 40
3.5
 41
0.0
 71
     9
 72
     5
  1

1001
ACAD
1000
MTEXTBEGIN
1070
    73
1070
     1
1070
    44
1040
1.0
1070
    74
1070
     0
1000
MTEXTEND
  0
MTEXT
  5
566D
330
1A
100
AcDbEntity
  8
SUNPOU
100
AcDbMText
 10
106648.3222479809
 20
96443.88600684427
 30
0.0
 40
10.5
 41
0.0
 71
     9
 72
     5
  1

1001
ACAD
1000
MTEXTBEGIN
1070
    73
1070
     1
1070
    44
1040
1.0
1070
    74
1070
     0
1000
MTEXTEND
  0
MTEXT
  5
566E
330
1A
100
AcDbEntity
  8
SUNPOU
100
AcDbMText
 10
92700.3221476049
 20
77271.48686773207
 30
0.0
 40
3.5
 41
0.0
 71
     7
 72
     5
  1

1001
ACAD
1000
MTEXTBEGIN
1070
    73
1070
     1
1070
    44
1040
1.0
1070
    74
1070
     0
1000
MTEXTEND
  0
MTEXT
  5
566F
330
1A
100
AcDbEntity
  8
SUNPOU
100
AcDbMText
 10
73685.49154459806
 20
65033.63559855027
 30
0.0
 40
10.5
 41
0.0
 71
     7
 72
     5
  1

1001
ACAD
1000
MTEXTBEGIN
1070
    73
1070
     1
1070
    44
1040
1.0
1070
    74
1070
     0
1000
MTEXTEND
  0
MTEXT
  5
5670
330
1A
100
AcDbEntity
  8
SUNPOU
100
AcDbMText
 10
61228.26327964995
 20
49188.70402045185
 30
0.0
 40
35.0
 41
0.0
 71
     9
 72
     5
  1

1001
ACAD
1000
MTEXTBEGIN
1070
    73
1070
     1
1070
    44
1040
1.0
1070
    74
1070
     0
1000
MTEXTEND
  0
MTEXT
  5
5671
330
1A
100
AcDbEntity
  8
SUNPOU
100
AcDbMText
 10
60136.74833722491
 20
49797.47943050056
 30
0.0
 40
350.0000004171781
 41
0.0
 71
     7
 72
     5
  1

1001
ACAD
1000
MTEXTBEGIN
1070
    73
1070
     1
1070
    44
1040
1.0
1070
    74
1070
     0
1000
MTEXTEND
  0
MTEXT
  5
5672
330
1A
100
AcDbEntity
  8
0
100
AcDbMText
 10
66180.69909516782
 20
47777.40179263678
 30
0.0
 40
8.0
 41
0.0
 71
     7
 72
     5
  1

1001
ACAD
1000
MTEXTBEGIN
1070
    73
1070
     1
1070
    44
1040
1.0
1070
    74
1070
     0
1000
MTEXTEND
  0
MTEXT
  5
5673
330
1A
100
AcDbEntity
  8
0
100
AcDbMText
 10
68466.05678506271
 20
48748.19208738784
 30
0.0
 40
8.0
 41
0.0
 71
     7
 72
     5
  1

1001
ACAD
1000
MTEXTBEGIN
1070
    73
1070
     1
1070
    44
1040
1.0
1070
    74
1070
     0
1000
MTEXTEND
  0
MTEXT
  5
5674
330
1A
100
AcDbEntity
  8
SUNPOU
100
AcDbMText
 10
71131.95380574485
 20
58260.30347976296
 30
0.0
 40
10.5
 41
0.0
 71
     1
 72
     5
  1

1001
ACAD
1000
MTEXTBEGIN
1070
    73
1070
     1
1070
    44
1040
1.0
1070
    74
1070
     0
1000
MTEXTEND
  0
MTEXT
  5
5675
330
1A
100
AcDbEntity
  8
SUNPOU
100
AcDbMText
 10
63201.03060980891
 20
57313.51034585002
 30
0.0
 40
10.5
 41
0.0
 71
     7
 72
     5
  1

1001
ACAD
1000
MTEXTBEGIN
1070
    73
1070
     1
1070
    44
1040
1.0
1070
    74
1070
     0
1000
MTEXTEND
  0
MTEXT
  5
5676
330
1A
100
AcDbEntity
  8
SUNPOU
100
AcDbMText
 10
66150.01427432169
 20
62214.18641769286
 30
0.0
 40
10.5
 41
0.0
 71
     7
 72
     5
  1

1001
ACAD
1000
MTEXTBEGIN
1070
    73
1070
     1
1070
    44
1040
1.0
1070
    74
1070
     0
1000
MTEXTEND
  0
MTEXT
  5
5677
330
1A
100
AcDbEntity
  8
SUNPOU
100
AcDbMText
 10
70659.09240227225
 20
64650.48716531294
 30
0.0
 40
10.5
 41
0.0
 71
     7
 72
     5
  1

1001
ACAD
1000
MTEXTBEGIN
1070
    73
1070
     1
1070
    44
1040
1.0
1070
    74
1070
     0
1000
MTEXTEND
  0
MTEXT
  5
5678
330
1A
100
AcDbEntity
  8
SUNPOU
100
AcDbMText
 10
54259.93028904056
 20
43648.08331570185
 30
0.0
 40
10.5
 41
0.0
 71
     7
 72
     5
  1

1001
ACAD
1000
MTEXTBEGIN
1070
    73
1070
     1
1070
    44
1040
1.0
1070
    74
1070
     0
1000
MTEXTEND
  0
MTEXT
  5
5679
330
1A
100
AcDbEntity
  8
SUNPOU
100
AcDbMText
 10
56070.69320041551
 20
49975.4973031804
 30
0.0
 40
10.5
 41
0.0
 71
     9
 72
     5
  1

1001
ACAD
1000
MTEXTBEGIN
1070
    73
1070
     1
1070
    44
1040
1.0
1070
    74
1070
     0
1000
MTEXTEND
  0
MTEXT
  5
567A
330
1A
100
AcDbEntity
  8
SUNPOU
100
AcDbMText
 10
64792.86076633348
 20
57391.33183471788
 30
0.0
 40
10.5
 41
0.0
 71
     9
 72
     5
  1

1001
ACAD
1000
MTEXTBEGIN
1070
    73
1070
     1
1070
    44
1040
1.0
1070
    74
1070
     0
1000
MTEXTEND
  0
MTEXT
  5
567B
330
1A
100
AcDbEntity
  8
SUNPOU
100
AcDbMText
 10
83746.61948366345
 20
74857.90788720994
 30
0.0
 40
10.5
 41
0.0
 71
     9
 72
     5
  1

1001
ACAD
1000
MTEXTBEGIN
1070
    73
1070
     1
1070
    44
1040
1.0
1070
    74
1070
     0
1000
MTEXTEND
  0
MTEXT
  5
567C
330
1A
100
AcDbEntity
  8
SUNPOU
100
AcDbMText
 10
85690.02673037287
 20
73056.85880733192
 30
0.0
 40
3.5
 41
0.0
 71
     9
 72
     5
  1

1001
ACAD
1000
MTEXTBEGIN
1070
    73
1070
     1
1070
    44
1040
1.0
1070
    74
1070
     0
1000
MTEXTEND
  0
MTEXT
  5
567D
330
1A
100
AcDbEntity
  8
SUNPOU
100
AcDbMText
 10
116816.2065629925
 20
115551.8044749892
 30
0.0
 40
10.5
 41
0.0
 71
     9
 72
     5
  1

1001
ACAD
1000
MTEXTBEGIN
1070
    73
1070
     1
1070
    44
1040
1.0
1070
    74
1070
     0
1000
MTEXTEND
  0
MTEXT
  5
567E
330
1A
100
AcDbEntity
  8
SUNPOU
100
AcDbMText
 10
118759.613809702
 20
113750.7553951112
 30
0.0
 40
3.5
 41
0.0
 71
     9
 72
     5
  1

1001
ACAD
1000
MTEXTBEGIN
1070
    73
1070
     1
1070
    44
1040
1.0
1070
    74
1070
     0
1000
MTEXTEND
  0
MTEXT
  5
567F
330
1A
100
AcDbEntity
  8
SUNPOU
100
AcDbMText
 10
67256.47426878814
 20
61384.96962996432
 30
0.0
 40
10.5
 41
0.0
 71
     9
 72
     5
  1

1001
ACAD
1000
MTEXTBEGIN
1070
    73
1070
     1
1070
    44
1040
1.0
1070
    74
1070
     0
1000
MTEXTEND
  0
MTEXT
  5
5680
330
1A
100
AcDbEntity
  8
SUNPOU
100
AcDbMText
 10
53308.47416841216
 20
42212.57049085211
 30
0.0
 40
3.5
 41
0.0
 71
     7
 72
     5
  1

1001
ACAD
1000
MTEXTBEGIN
1070
    73
1070
     1
1070
    44
1040
1.0
1070
    74
1070
     0
1000
MTEXTEND
  0
MTEXT
  5
5681
330
1A
100
AcDbEntity
  8
SUNPOU
100
AcDbMText
 10
67000.82485118274
 20
51571.63371187345
 30
0.0
 40
10.5
 41
0.0
 71
     9
 72
     5
  1

1001
ACAD
1000
MTEXTBEGIN
1070
    73
1070
     1
1070
    44
1040
1.0
1070
    74
1070
     0
1000
MTEXTEND
  0
MTEXT
  5
5682
330
1A
100
AcDbEntity
  8
SUNPOU
100
AcDbMText
 10
75722.99241710071
 20
58987.46824341094
 30
0.0
 40
10.5
 41
0.0
 71
     9
 72
     5
  1

1001
ACAD
1000
MTEXTBEGIN
1070
    73
1070
     1
1070
    44
1040
1.0
1070
    74
1070
     0
1000
MTEXTEND
  0
MTEXT
  5
5683
330
1A
100
AcDbEntity
  8
SUNPOU
100
AcDbMText
 10
94676.75113443068
 20
76454.04429590299
 30
0.0
 40
10.5
 41
0.0
 71
     9
 72
     5
  1

1001
ACAD
1000
MTEXTBEGIN
1070
    73
1070
     1
1070
    44
1040
1.0
1070
    74
1070
     0
1000
MTEXTEND
  0
MTEXT
  5
5684
330
1A
100
AcDbEntity
  8
SUNPOU
100
AcDbMText
 10
96620.1583811401
 20
74652.99521602498
 30
0.0
 40
3.5
 41
0.0
 71
     9
 72
     5
  1

1001
ACAD
1000
MTEXTBEGIN
1070
    73
1070
     1
1070
    44
1040
1.0
1070
    74
1070
     0
1000
MTEXTEND
  0
MTEXT
  5
5685
330
1A
100
AcDbEntity
  8
SUNPOU
100
AcDbMText
 10
127746.3382137598
 20
117147.9408836823
 30
0.0
 40
10.5
 41
0.0
 71
     9
 72
     5
  1

1001
ACAD
1000
MTEXTBEGIN
1070
    73
1070
     1
1070
    44
1040
1.0
1070
    74
1070
     0
1000
MTEXTEND
  0
MTEXT
  5
5686
330
1A
100
AcDbEntity
  8
SUNPOU
100
AcDbMText
 10
129689.7454604692
 20
115346.8918038043
 30
0.0
 40
3.5
 41
0.0
 71
     9
 72
     5
  1

1001
ACAD
1000
MTEXTBEGIN
1070
    73
1070
     1
1070
    44
1040
1.0
1070
    74
1070
     0
1000
MTEXTEND
  0
MTEXT
  5
5687
330
1A
100
AcDbEntity
  8
SUNPOU
100
AcDbMText
 10
78186.60591955537
 20
62981.10603865738
 30
0.0
 40
10.5
 41
0.0
 71
     9
 72
     5
  1

1001
ACAD
1000
MTEXTBEGIN
1070
    73
1070
     1
1070
    44
1040
1.0
1070
    74
1070
     0
1000
MTEXTEND
  0
MTEXT
  5
5688
330
1A
100
AcDbEntity
  8
SUNPOU
100
AcDbMText
 10
64238.60581917939
 20
43808.70689954517
 30
0.0
 40
3.5
 41
0.0
 71
     7
 72
     5
  1

1001
ACAD
1000
MTEXTBEGIN
1070
    73
1070
     1
1070
    44
1040
1.0
1070
    74
1070
     0
1000
MTEXTEND
  0
MTEXT
  5
5689
330
1A
100
AcDbEntity
  8
SUNPOU
100
AcDbMText
 10
33428.13481137435
 20
32770.04710035564
 30
0.0
 40
10.5
 41
0.0
 71
     9
 72
     5
  1

1001
ACAD
1000
MTEXTBEGIN
1070
    73
1070
     1
1070
    44
1040
1.0
1070
    74
1070
     0
1000
MTEXTEND
  0
MTEXT
  5
568A
330
1A
100
AcDbEntity
  8
SUNPOU
100
AcDbMText
 10
52381.89352870432
 20
50236.62315284769
 30
0.0
 40
10.5
 41
0.0
 71
     9
 72
     5
  1

1001
ACAD
1000
MTEXTBEGIN
1070
    73
1070
     1
1070
    44
1040
1.0
1070
    74
1070
     0
1000
MTEXTEND
  0
MTEXT
  5
568B
330
1A
100
AcDbEntity
  8
SUNPOU
100
AcDbMText
 10
54325.30077541374
 20
48435.57407296968
 30
0.0
 40
3.5
 41
0.0
 71
     9
 72
     5
  1

1001
ACAD
1000
MTEXTBEGIN
1070
    73
1070
     1
1070
    44
1040
1.0
1070
    74
1070
     0
1000
MTEXTEND
  0
MTEXT
  5
568C
330
1A
100
AcDbEntity
  8
SUNPOU
100
AcDbMText
 10
85451.48060803343
 20
90930.51974062703
 30
0.0
 40
10.5
 41
0.0
 71
     9
 72
     5
  1

1001
ACAD
1000
MTEXTBEGIN
1070
    73
1070
     1
1070
    44
1040
1.0
1070
    74
1070
     0
1000
MTEXTEND
  0
MTEXT
  5
568D
330
1A
100
AcDbEntity
  8
SUNPOU
100
AcDbMText
 10
87394.88785474286
 20
89129.47066074901
 30
0.0
 40
3.5
 41
0.0
 71
     9
 72
     5
  1

1001
ACAD
1000
MTEXTBEGIN
1070
    73
1070
     1
1070
    44
1040
1.0
1070
    74
1070
     0
1000
MTEXTEND
  0
MTEXT
  5
568E
330
1A
100
AcDbEntity
  8
SUNPOU
100
AcDbMText
 10
35891.74831382901
 20
36763.68489560208
 30
0.0
 40
10.5
 41
0.0
 71
     9
 72
     5
  1

1001
ACAD
1000
MTEXTBEGIN
1070
    73
1070
     1
1070
    44
1040
1.0
1070
    74
1070
     0
1000
MTEXTEND
  0
MTEXT
  5
568F
330
1A
100
AcDbEntity
  8
SUNPOU
100
AcDbMText
 10
21943.74821345303
 20
17591.28575648986
 30
0.0
 40
3.5
 41
0.0
 71
     7
 72
     5
  1

1001
ACAD
1000
MTEXTBEGIN
1070
    73
1070
     1
1070
    44
1040
1.0
1070
    74
1070
     0
1000
MTEXTEND
  0
DIMENSION
  5
1ADA7
330
1A
100
AcDbEntity
  8
SUNPOU
100
AcDbDimension
  2
*D29
 10
-1507.981631401916
 20
1766.22872392717
 30
0.0
 11
-1549.981631401916
 21
1768.97872392717
 31
0.0
 70
    32
  3
標準スタイル
100
AcDbAlignedDimension
 13
-1591.981631401916
 23
1781.530136030638
 33
0.0
 14
-1507.981631401916
 24
1781.280136297474
 34
0.0
100
AcDbRotatedDimension
1001
ACAD
1000
DSTYLE
1002
{
1070
   287
1070
     4
1070
   340
1005
10
1070
    40
1040
1.0
1070
   279
1070
     1
1002
}
  0
DIMENSION
  5
1ADA8
330
1A
100
AcDbEntity
  8
SUNPOU
100
AcDbDimension
  2
*D30
 10
-1504.481631401917
 20
1754.780949623286
 30
0.0
 11
-1549.981631401916
 21
1757.530949623286
 31
0.0
 70
    32
  3
標準スタイル
100
AcDbAlignedDimension
 13
-1595.481631401916
 23
1780.780136030638
 33
0.0
 14
-1504.481631401917
 24
1779.780136297474
 34
0.0
100
AcDbRotatedDimension
1001
ACAD
1000
DSTYLE
1002
{
1070
   340
1005
10
1070
    40
1040
1.0
1002
}
  0
LINE
  5
1ADA9
330
1A
100
AcDbEntity
  8
_2-4_PARTS
  6
CONTINUOUS
 62
     7
100
AcDbLine
 10
-1569.481631401917
 20
1868.159545733995
 30
0.0
 11
-1570.981631401917
 21
1868.159545733995
 31
0.0
  0
LINE
  5
1ADAA
330
1A
100
AcDbEntity
  8
_2-4_PARTS
  6
CONTINUOUS
 62
     7
100
AcDbLine
 10
-1584.681631401917
 20
1858.959545733995
 30
0.0
 11
-1558.281631401917
 21
1858.959545733995
 31
0.0
  0
LINE
  5
1ADAB
330
1A
100
AcDbEntity
  8
ZISSEN1
100
AcDbLine
 10
-1595.481631401916
 20
1868.459545733995
 30
0.0
 11
-1504.481631401917
 21
1868.459545733995
 31
0.0
  0
LINE
  5
1ADAC
330
1A
100
AcDbEntity
  8
ZISSEN1
100
AcDbLine
 10
-1595.481631401916
 20
1870.059545733995
 30
0.0
 11
-1504.481631401917
 21
1870.059545733995
 31
0.0
  0
LINE
  5
1ADAD
330
1A
100
AcDbEntity
  8
_2-4_PARTS
  6
CONTINUOUS
 62
     7
100
AcDbLine
 10
-1556.981631401916
 20
1867.359545733995
 30
0.0
 11
-1585.981631401917
 21
1867.359545733995
 31
0.0
  0
LINE
  5
1ADAE
330
1A
100
AcDbEntity
  8
_2-4_PARTS
  6
CONTINUOUS
 62
     7
100
AcDbLine
 10
-1568.931631401916
 20
1828.180136297474
 30
0.0
 11
-1574.031631401917
 21
1828.180136297474
 31
0.0
  0
LINE
  5
1ADAF
330
1A
100
AcDbEntity
  8
ZISSEN1
100
AcDbLine
 10
-1505.481631401917
 20
1837.780136297474
 30
0.0
 11
-1594.481631401916
 21
1837.780136297474
 31
0.0
  0
LINE
  5
1ADB0
330
1A
100
AcDbEntity
  8
ZISSEN1
100
AcDbLine
 10
-1594.481631401916
 20
1779.780136297474
 30
0.0
 11
-1505.481631401917
 21
1779.780136297474
 31
0.0
  0
LINE
  5
1ADB1
330
1A
100
AcDbEntity
  8
_2-4_PARTS
  6
CONTINUOUS
 62
     7
100
AcDbLine
 10
-1586.831631401916
 20
1834.180136297474
 30
0.0
 11
-1556.131631401916
 21
1834.180136297474
 31
0.0
  0
LINE
  5
1ADB2
330
1A
100
AcDbEntity
  8
_2-4_PARTS
  6
CONTINUOUS
 62
     7
100
AcDbLine
 10
-1555.281631401917
 20
1834.880136297473
 30
0.0
 11
-1587.681631401917
 21
1834.880136297473
 31
0.0
  0
LINE
  5
1ADB3
330
1A
100
AcDbEntity
  8
_2-4_PARTS
  6
CONTINUOUS
 62
     7
100
AcDbLine
 10
-1557.631631401917
 20
1829.080136297474
 30
0.0
 11
-1585.331631401917
 21
1829.080136297474
 31
0.0
  0
LINE
  5
1ADB4
330
1A
100
AcDbEntity
  8
_2-4_PARTS
  6
CONTINUOUS
 62
     7
100
AcDbLine
 10
-1557.131631401917
 20
1829.580136297474
 30
0.0
 11
-1585.831631401917
 21
1829.580136297474
 31
0.0
  0
MTEXT
  5
1ADB5
330
1A
100
AcDbEntity
  8
ZISSEN1
100
AcDbMText
 10
-1593.150976683388
 20
1899.2129858614
 30
0.0
 40
5.0
 41
76.2713
 71
     1
 72
     5
  1
QDB-MS450　　No.SS0001f145
1001
ACAD
1000
MTEXTBEGIN
1070
    73
1070
     1
1070
    44
1040
1.0
1070
    74
1070
     0
1000
MTEXTEND
  0
DIMENSION
  5
1ADB6
330
1A
100
AcDbEntity
  8
SUNPOU
100
AcDbDimension
  2
*D31
 10
-1608.392446635898
 20
1834.280136030638
 30
0.0
 11
-1611.142446635899
 21
1808.780136047932
 31
0.0
 70
    32
  3
標準スタイル
100
AcDbAlignedDimension
 13
-1593.731631401916
 23
1783.280136065227
 33
0.0
 14
-1593.731631401916
 24
1834.280136030638
 34
0.0
 50
90.0
100
AcDbRotatedDimension
1001
ACAD
1000
DSTYLE
1002
{
1070
   287
1070
     4
1070
   340
1005
10
1070
    40
1040
1.0
1070
   279
1070
     1
1002
}
  0
DIMENSION
  5
1ADB7
330
1A
100
AcDbEntity
  8
SUNPOU
100
AcDbDimension
  2
*D32
 10
-1618.497819988437
 20
1837.780136030638
 30
0.0
 11
-1621.247819988438
 21
1808.780136047932
 31
0.0
 70
    32
  3
標準スタイル
100
AcDbAlignedDimension
 13
-1594.481631401916
 23
1779.780136065227
 33
0.0
 14
-1594.481631401916
 24
1837.780136030638
 34
0.0
 50
90.0
100
AcDbRotatedDimension
1001
ACAD
1000
DSTYLE
1002
{
1070
   340
1005
10
1070
    40
1040
1.0
1002
}
  0
LINE
  5
1ADB8
330
1A
100
AcDbEntity
  8
ZISSEN1
100
AcDbLine
 10
-1595.481631401916
 20
1780.780136297474
 30
0.0
 11
-1595.481631401916
 21
1836.780136297474
 31
0.0
  0
LINE
  5
1ADB9
330
1A
100
AcDbEntity
  8
_2-4_PARTS
  6
CONTINUOUS
 62
     7
100
AcDbLine
 10
-1592.841631401916
 20
1796.875136297474
 30
0.0
 11
-1592.841631401916
 21
1803.485136297474
 31
0.0
  0
LINE
  5
1ADBA
330
1A
100
AcDbEntity
  8
_2-4_PARTS
  6
CONTINUOUS
 62
     7
100
AcDbLine
 10
-1587.441631401916
 20
1796.875136297474
 30
0.0
 11
-1587.441631401916
 21
1803.485136297474
 31
0.0
  0
DIMENSION
  5
1ADBB
330
1A
100
AcDbEntity
  8
SUNPOU
100
AcDbDimension
  2
*D33
 10
-1591.981631401916
 20
1766.22872392717
 30
0.0
 11
-1601.644705023852
 21
1769.099657402503
 31
0.0
 70
   160
  3
標準スタイル
100
AcDbAlignedDimension
 13
-1595.481615715593
 23
1780.780136065104
 33
0.0
 14
-1591.981631401916
 24
1781.530136065227
 34
0.0
100
AcDbRotatedDimension
1001
ACAD
1000
DSTYLE
1002
{
1070
   287
1070
     5
1070
    40
1040
1.0
1070
   279
1070
     2
1070
   340
1005
10
1002
}
  0
DIMENSION
  5
1ADBC
330
1A
100
AcDbEntity
  8
SUNPOU
100
AcDbDimension
  2
*D34
 10
-1608.392446635898
 20
1783.280136030638
 30
0.0
 11
-1611.760417981757
 21
1773.880000750966
 31
0.0
 70
   160
  3
標準スタイル
100
AcDbAlignedDimension
 13
-1594.481631401916
 23
1779.780136065227
 33
0.0
 14
-1593.731631401916
 24
1783.280136030638
 34
0.0
 50
90.0
100
AcDbRotatedDimension
1001
ACAD
1000
DSTYLE
1002
{
1070
   287
1070
     5
1070
    40
1040
1.0
1070
   279
1070
     2
1070
   340
1005
10
1002
}
  0
LINE
  5
1ADBD
330
1A
100
AcDbEntity
  8
_2-4_PARTS
  6
CONTINUOUS
 62
     7
100
AcDbLine
 10
-1588.331631401916
 20
1788.580136297474
 30
0.0
 11
-1588.331631401916
 21
1795.980136297474
 31
0.0
  0
LINE
  5
1ADBE
330
1A
100
AcDbEntity
  8
_2-4_PARTS
  6
CONTINUOUS
 62
     7
100
AcDbLine
 10
-1587.331631401916
 20
1791.260136297474
 30
0.0
 11
-1588.331631401916
 21
1791.260136297474
 31
0.0
  0
LINE
  5
1ADBF
330
1A
100
AcDbEntity
  8
_2-4_PARTS
  6
CONTINUOUS
 62
     7
100
AcDbLine
 10
-1587.331631401916
 20
1790.760136297474
 30
0.0
 11
-1587.331631401916
 21
1791.260136297474
 31
0.0
  0
LINE
  5
1ADC0
330
1A
100
AcDbEntity
  8
_2-4_PARTS
  6
CONTINUOUS
 62
     7
100
AcDbLine
 10
-1588.331631401916
 20
1790.760136297474
 30
0.0
 11
-1587.331631401916
 21
1790.760136297474
 31
0.0
  0
LINE
  5
1ADC1
330
1A
100
AcDbEntity
  8
_2-4_PARTS
  6
CONTINUOUS
 62
     7
100
AcDbLine
 10
-1587.331631401916
 20
1789.990136297474
 30
0.0
 11
-1588.331631401916
 21
1789.990136297474
 31
0.0
  0
LINE
  5
1ADC2
330
1A
100
AcDbEntity
  8
_2-4_PARTS
  6
CONTINUOUS
 62
     7
100
AcDbLine
 10
-1587.331631401916
 20
1789.490136297474
 30
0.0
 11
-1587.331631401916
 21
1789.990136297474
 31
0.0
  0
LINE
  5
1ADC3
330
1A
100
AcDbEntity
  8
_2-4_PARTS
  6
CONTINUOUS
 62
     7
100
AcDbLine
 10
-1588.331631401916
 20
1789.490136297474
 30
0.0
 11
-1587.331631401916
 21
1789.490136297474
 31
0.0
  0
LINE
  5
1ADC4
330
1A
100
AcDbEntity
  8
_2-4_PARTS
  6
CONTINUOUS
 62
     7
100
AcDbLine
 10
-1587.331631401916
 20
1795.070136297474
 30
0.0
 11
-1588.331631401916
 21
1795.070136297474
 31
0.0
  0
LINE
  5
1ADC5
330
1A
100
AcDbEntity
  8
_2-4_PARTS
  6
CONTINUOUS
 62
     7
100
AcDbLine
 10
-1587.331631401916
 20
1794.570136297474
 30
0.0
 11
-1587.331631401916
 21
1795.070136297474
 31
0.0
  0
LINE
  5
1ADC6
330
1A
100
AcDbEntity
  8
_2-4_PARTS
  6
CONTINUOUS
 62
     7
100
AcDbLine
 10
-1588.331631401916
 20
1794.570136297474
 30
0.0
 11
-1587.331631401916
 21
1794.570136297474
 31
0.0
  0
LINE
  5
1ADC7
330
1A
100
AcDbEntity
  8
_2-4_PARTS
  6
CONTINUOUS
 62
     7
100
AcDbLine
 10
-1587.331631401916
 20
1793.800136297474
 30
0.0
 11
-1588.331631401916
 21
1793.800136297474
 31
0.0
  0
LINE
  5
1ADC8
330
1A
100
AcDbEntity
  8
_2-4_PARTS
  6
CONTINUOUS
 62
     7
100
AcDbLine
 10
-1587.331631401916
 20
1793.300136297474
 30
0.0
 11
-1587.331631401916
 21
1793.800136297474
 31
0.0
  0
LINE
  5
1ADC9
330
1A
100
AcDbEntity
  8
_2-4_PARTS
  6
CONTINUOUS
 62
     7
100
AcDbLine
 10
-1588.331631401916
 20
1793.300136297474
 30
0.0
 11
-1587.331631401916
 21
1793.300136297474
 31
0.0
  0
LINE
  5
1ADCA
330
1A
100
AcDbEntity
  8
_2-4_PARTS
  6
CONTINUOUS
 62
     7
100
AcDbLine
 10
-1587.331631401916
 20
1792.530136297474
 30
0.0
 11
-1588.331631401916
 21
1792.530136297474
 31
0.0
  0
LINE
  5
1ADCB
330
1A
100
AcDbEntity
  8
_2-4_PARTS
  6
CONTINUOUS
 62
     7
100
AcDbLine
 10
-1587.331631401916
 20
1792.030136297474
 30
0.0
 11
-1587.331631401916
 21
1792.530136297474
 31
0.0
  0
LINE
  5
1ADCC
330
1A
100
AcDbEntity
  8
_2-4_PARTS
  6
CONTINUOUS
 62
     7
100
AcDbLine
 10
-1588.331631401916
 20
1792.030136297474
 30
0.0
 11
-1587.331631401916
 21
1792.030136297474
 31
0.0
  0
ARC
  5
1ADCD
330
1A
100
AcDbEntity
  8
ZISSEN1
100
AcDbCircle
 10
-1595.481631401916
 20
1779.780136297474
 30
0.0
 40
1.0
100
AcDbArc
 50
0.0
 51
90.0
  0
LINE
  5
1ADCE
330
1A
100
AcDbEntity
  8
CL1
100
AcDbLine
 10
-1591.981631401916
 20
1781.280136297474
 30
0.0
 11
-1591.981631401916
 21
1785.280136297474
 31
0.0
  0
LINE
  5
1ADCF
330
1A
100
AcDbEntity
  8
_2-4_PARTS
  6
CONTINUOUS
 62
     7
100
AcDbLine
 10
-1591.931631401917
 20
1788.580136297474
 30
0.0
 11
-1591.931631401917
 21
1795.980136297474
 31
0.0
  0
LINE
  5
1ADD0
330
1A
100
AcDbEntity
  8
_2-4_PARTS
  6
CONTINUOUS
 62
     7
100
AcDbLine
 10
-1593.031631401916
 20
1790.580136297474
 30
0.0
 11
-1591.931631401917
 21
1790.580136297474
 31
0.0
  0
LINE
  5
1ADD1
330
1A
100
AcDbEntity
  8
_2-4_PARTS
  6
CONTINUOUS
 62
     7
100
AcDbLine
 10
-1593.031631401916
 20
1789.580136297474
 30
0.0
 11
-1593.031631401916
 21
1790.580136297474
 31
0.0
  0
LINE
  5
1ADD2
330
1A
100
AcDbEntity
  8
_2-4_PARTS
  6
CONTINUOUS
 62
     7
100
AcDbLine
 10
-1591.931631401917
 20
1789.580136297474
 30
0.0
 11
-1593.031631401916
 21
1789.580136297474
 31
0.0
  0
LINE
  5
1ADD3
330
1A
100
AcDbEntity
  8
_2-4_PARTS
  6
CONTINUOUS
 62
     7
100
AcDbLine
 10
-1593.031631401916
 20
1794.980136297474
 30
0.0
 11
-1591.931631401917
 21
1794.980136297474
 31
0.0
  0
LINE
  5
1ADD4
330
1A
100
AcDbEntity
  8
_2-4_PARTS
  6
CONTINUOUS
 62
     7
100
AcDbLine
 10
-1593.031631401916
 20
1793.980136297474
 30
0.0
 11
-1593.031631401916
 21
1794.980136297474
 31
0.0
  0
LINE
  5
1ADD5
330
1A
100
AcDbEntity
  8
_2-4_PARTS
  6
CONTINUOUS
 62
     7
100
AcDbLine
 10
-1591.931631401917
 20
1793.980136297474
 30
0.0
 11
-1593.031631401916
 21
1793.980136297474
 31
0.0
  0
CIRCLE
  5
1ADD6
330
1A
100
AcDbEntity
  8
ZISSEN1
100
AcDbCircle
 10
-1591.981631401916
 20
1783.280136297474
 30
0.0
 40
1.75
  0
LINE
  5
1ADD7
330
1A
100
AcDbEntity
  8
CL1
100
AcDbLine
 10
-1589.981631401916
 20
1783.280136297474
 30
0.0
 11
-1593.981631401916
 21
1783.280136297474
 31
0.0
  0
LINE
  5
1ADD8
330
1A
100
AcDbEntity
  8
_2-4_PARTS
  6
CONTINUOUS
 62
     7
100
AcDbLine
 10
-1591.931631401917
 20
1795.980136297474
 30
0.0
 11
-1588.331631401916
 21
1795.980136297474
 31
0.0
  0
LINE
  5
1ADD9
330
1A
100
AcDbEntity
  8
_2-4_PARTS
  6
CONTINUOUS
 62
     7
100
AcDbLine
 10
-1591.931631401917
 20
1788.580136297474
 30
0.0
 11
-1588.331631401916
 21
1788.580136297474
 31
0.0
  0
LINE
  5
1ADDA
330
1A
100
AcDbEntity
  8
_2-4_PARTS
  6
CONTINUOUS
 62
     7
100
AcDbLine
 10
-1592.841631401916
 20
1796.875136297474
 30
0.0
 11
-1587.441631401916
 21
1796.875136297474
 31
0.0
  0
DIMENSION
  5
1ADDB
330
1A
100
AcDbEntity
  8
SUNPOU
100
AcDbDimension
  2
*D35
 10
-1608.392446635898
 20
1837.780136030638
 30
0.0
 11
-1611.219641005162
 21
1843.839526134185
 31
0.0
 70
   160
  3
標準スタイル
100
AcDbAlignedDimension
 13
-1591.981631401916
 23
1834.280136030638
 33
0.0
 14
-1594.481631401916
 24
1837.780136030638
 34
0.0
 50
90.0
100
AcDbRotatedDimension
1001
ACAD
1000
DSTYLE
1002
{
1070
   287
1070
     5
1070
    40
1040
1.0
1070
   279
1070
     2
1070
   340
1005
10
1002
}
  0
LINE
  5
1ADDC
330
1A
100
AcDbEntity
  8
CL1
100
AcDbLine
 10
-1591.981631401916
 20
1832.280136297474
 30
0.0
 11
-1591.981631401916
 21
1836.280136297474
 31
0.0
  0
CIRCLE
  5
1ADDD
330
1A
100
AcDbEntity
  8
ZISSEN1
100
AcDbCircle
 10
-1591.981631401916
 20
1834.280136297474
 30
0.0
 40
1.75
  0
LINE
  5
1ADDE
330
1A
100
AcDbEntity
  8
_2-4_PARTS
  6
CONTINUOUS
 62
     7
100
AcDbLine
 10
-1587.681631401917
 20
1828.180136297474
 30
0.0
 11
-1575.931631401916
 21
1828.180136297474
 31
0.0
  0
LINE
  5
1ADDF
330
1A
100
AcDbEntity
  8
_2-4_PARTS
  6
CONTINUOUS
 62
     7
100
AcDbLine
 10
-1586.831631401916
 20
1828.880136297474
 30
0.0
 11
-1585.331631401917
 21
1828.880136297474
 31
0.0
  0
LINE
  5
1ADE0
330
1A
100
AcDbEntity
  8
_2-4_PARTS
  6
CONTINUOUS
 62
     7
100
AcDbLine
 10
-1588.641631401916
 20
1801.785136297474
 30
0.0
 11
-1588.641631401916
 21
1802.385136297474
 31
0.0
  0
LINE
  5
1ADE1
330
1A
100
AcDbEntity
  8
_2-4_PARTS
  6
CONTINUOUS
 62
     7
100
AcDbLine
 10
-1588.641631401916
 20
1800.515136297473
 30
0.0
 11
-1588.641631401916
 21
1801.115136297474
 31
0.0
  0
LINE
  5
1ADE2
330
1A
100
AcDbEntity
  8
_2-4_PARTS
  6
CONTINUOUS
 62
     7
100
AcDbLine
 10
-1588.641631401916
 20
1799.245136297474
 30
0.0
 11
-1588.641631401916
 21
1799.845136297474
 31
0.0
  0
LINE
  5
1ADE3
330
1A
100
AcDbEntity
  8
_2-4_PARTS
  6
CONTINUOUS
 62
     7
100
AcDbLine
 10
-1588.641631401916
 20
1797.975136297474
 30
0.0
 11
-1588.641631401916
 21
1798.575136297474
 31
0.0
  0
LINE
  5
1ADE4
330
1A
100
AcDbEntity
  8
_2-4_PARTS
  6
CONTINUOUS
 62
     7
100
AcDbLine
 10
-1587.341631401916
 20
1802.285136297474
 30
0.0
 11
-1587.441631401916
 21
1802.285136297474
 31
0.0
  0
LINE
  5
1ADE5
330
1A
100
AcDbEntity
  8
_2-4_PARTS
  6
CONTINUOUS
 62
     7
100
AcDbLine
 10
-1587.341631401916
 20
1801.885136297474
 30
0.0
 11
-1587.341631401916
 21
1802.285136297474
 31
0.0
  0
LINE
  5
1ADE6
330
1A
100
AcDbEntity
  8
_2-4_PARTS
  6
CONTINUOUS
 62
     7
100
AcDbLine
 10
-1587.441631401916
 20
1801.885136297474
 30
0.0
 11
-1587.341631401916
 21
1801.885136297474
 31
0.0
  0
LINE
  5
1ADE7
330
1A
100
AcDbEntity
  8
_2-4_PARTS
  6
CONTINUOUS
 62
     7
100
AcDbLine
 10
-1587.341631401916
 20
1801.015136297474
 30
0.0
 11
-1587.441631401916
 21
1801.015136297474
 31
0.0
  0
LINE
  5
1ADE8
330
1A
100
AcDbEntity
  8
_2-4_PARTS
  6
CONTINUOUS
 62
     7
100
AcDbLine
 10
-1587.341631401916
 20
1800.615136297474
 30
0.0
 11
-1587.341631401916
 21
1801.015136297474
 31
0.0
  0
LINE
  5
1ADE9
330
1A
100
AcDbEntity
  8
_2-4_PARTS
  6
CONTINUOUS
 62
     7
100
AcDbLine
 10
-1587.441631401916
 20
1800.615136297474
 30
0.0
 11
-1587.341631401916
 21
1800.615136297474
 31
0.0
  0
LINE
  5
1ADEA
330
1A
100
AcDbEntity
  8
_2-4_PARTS
  6
CONTINUOUS
 62
     7
100
AcDbLine
 10
-1587.341631401916
 20
1799.745136297474
 30
0.0
 11
-1587.441631401916
 21
1799.745136297474
 31
0.0
  0
LINE
  5
1ADEB
330
1A
100
AcDbEntity
  8
_2-4_PARTS
  6
CONTINUOUS
 62
     7
100
AcDbLine
 10
-1587.341631401916
 20
1799.345136297474
 30
0.0
 11
-1587.341631401916
 21
1799.745136297474
 31
0.0
  0
LINE
  5
1ADEC
330
1A
100
AcDbEntity
  8
_2-4_PARTS
  6
CONTINUOUS
 62
     7
100
AcDbLine
 10
-1587.441631401916
 20
1799.345136297474
 30
0.0
 11
-1587.341631401916
 21
1799.345136297474
 31
0.0
  0
LINE
  5
1ADED
330
1A
100
AcDbEntity
  8
_2-4_PARTS
  6
CONTINUOUS
 62
     7
100
AcDbLine
 10
-1587.341631401916
 20
1798.475136297474
 30
0.0
 11
-1587.441631401916
 21
1798.475136297474
 31
0.0
  0
LINE
  5
1ADEE
330
1A
100
AcDbEntity
  8
_2-4_PARTS
  6
CONTINUOUS
 62
     7
100
AcDbLine
 10
-1587.341631401916
 20
1798.075136297474
 30
0.0
 11
-1587.341631401916
 21
1798.475136297474
 31
0.0
  0
LINE
  5
1ADEF
330
1A
100
AcDbEntity
  8
_2-4_PARTS
  6
CONTINUOUS
 62
     7
100
AcDbLine
 10
-1587.441631401916
 20
1798.075136297474
 30
0.0
 11
-1587.341631401916
 21
1798.075136297474
 31
0.0
  0
LINE
  5
1ADF0
330
1A
100
AcDbEntity
  8
_2-4_PARTS
  6
CONTINUOUS
 62
     7
100
AcDbLine
 10
-1590.581631401916
 20
1822.205136297474
 30
0.0
 11
-1590.581631401916
 21
1820.955136297474
 31
0.0
  0
LINE
  5
1ADF1
330
1A
100
AcDbEntity
  8
_2-4_PARTS
  6
CONTINUOUS
 62
     7
100
AcDbLine
 10
-1590.181631401916
 20
1822.205136297474
 30
0.0
 11
-1590.181631401916
 21
1820.955136297474
 31
0.0
  0
LINE
  5
1ADF2
330
1A
100
AcDbEntity
  8
_2-4_PARTS
  6
CONTINUOUS
 62
     7
100
AcDbLine
 10
-1590.581631401916
 20
1825.205136297474
 30
0.0
 11
-1590.581631401916
 21
1823.955136297474
 31
0.0
  0
LINE
  5
1ADF3
330
1A
100
AcDbEntity
  8
_2-4_PARTS
  6
CONTINUOUS
 62
     7
100
AcDbLine
 10
-1590.181631401916
 20
1825.205136297474
 30
0.0
 11
-1590.181631401916
 21
1823.955136297474
 31
0.0
  0
LINE
  5
1ADF4
330
1A
100
AcDbEntity
  8
_2-4_PARTS
  6
CONTINUOUS
 62
     7
100
AcDbLine
 10
-1587.441631401916
 20
1811.875136297474
 30
0.0
 11
-1587.441631401916
 21
1818.485136297474
 31
0.0
  0
LINE
  5
1ADF5
330
1A
100
AcDbEntity
  8
_2-4_PARTS
  6
CONTINUOUS
 62
     7
100
AcDbLine
 10
-1588.641631401916
 20
1809.285136297474
 30
0.0
 11
-1588.641631401916
 21
1809.885136297474
 31
0.0
  0
LINE
  5
1ADF6
330
1A
100
AcDbEntity
  8
_2-4_PARTS
  6
CONTINUOUS
 62
     7
100
AcDbLine
 10
-1587.441631401916
 20
1804.375136297474
 30
0.0
 11
-1587.441631401916
 21
1810.985136297474
 31
0.0
  0
LINE
  5
1ADF7
330
1A
100
AcDbEntity
  8
_2-4_PARTS
  6
CONTINUOUS
 62
     7
100
AcDbLine
 10
-1588.641631401916
 20
1808.015136297474
 30
0.0
 11
-1588.641631401916
 21
1808.615136297474
 31
0.0
  0
LINE
  5
1ADF8
330
1A
100
AcDbEntity
  8
_2-4_PARTS
  6
CONTINUOUS
 62
     7
100
AcDbLine
 10
-1588.641631401916
 20
1806.745136297474
 30
0.0
 11
-1588.641631401916
 21
1807.345136297474
 31
0.0
  0
LINE
  5
1ADF9
330
1A
100
AcDbEntity
  8
_2-4_PARTS
  6
CONTINUOUS
 62
     7
100
AcDbLine
 10
-1588.641631401916
 20
1805.475136297474
 30
0.0
 11
-1588.641631401916
 21
1806.075136297474
 31
0.0
  0
LINE
  5
1ADFA
330
1A
100
AcDbEntity
  8
_2-4_PARTS
  6
CONTINUOUS
 62
     7
100
AcDbLine
 10
-1587.341631401916
 20
1808.515136297474
 30
0.0
 11
-1587.441631401916
 21
1808.515136297474
 31
0.0
  0
LINE
  5
1ADFB
330
1A
100
AcDbEntity
  8
_2-4_PARTS
  6
CONTINUOUS
 62
     7
100
AcDbLine
 10
-1587.341631401916
 20
1808.115136297474
 30
0.0
 11
-1587.341631401916
 21
1808.515136297474
 31
0.0
  0
LINE
  5
1ADFC
330
1A
100
AcDbEntity
  8
_2-4_PARTS
  6
CONTINUOUS
 62
     7
100
AcDbLine
 10
-1587.441631401916
 20
1808.115136297474
 30
0.0
 11
-1587.341631401916
 21
1808.115136297474
 31
0.0
  0
LINE
  5
1ADFD
330
1A
100
AcDbEntity
  8
_2-4_PARTS
  6
CONTINUOUS
 62
     7
100
AcDbLine
 10
-1587.341631401916
 20
1807.245136297474
 30
0.0
 11
-1587.441631401916
 21
1807.245136297474
 31
0.0
  0
LINE
  5
1ADFE
330
1A
100
AcDbEntity
  8
_2-4_PARTS
  6
CONTINUOUS
 62
     7
100
AcDbLine
 10
-1587.341631401916
 20
1806.845136297474
 30
0.0
 11
-1587.341631401916
 21
1807.245136297474
 31
0.0
  0
LINE
  5
1ADFF
330
1A
100
AcDbEntity
  8
_2-4_PARTS
  6
CONTINUOUS
 62
     7
100
AcDbLine
 10
-1587.441631401916
 20
1806.845136297474
 30
0.0
 11
-1587.341631401916
 21
1806.845136297474
 31
0.0
  0
LINE
  5
1AE00
330
1A
100
AcDbEntity
  8
_2-4_PARTS
  6
CONTINUOUS
 62
     7
100
AcDbLine
 10
-1587.341631401916
 20
1805.975136297474
 30
0.0
 11
-1587.441631401916
 21
1805.975136297474
 31
0.0
  0
LINE
  5
1AE01
330
1A
100
AcDbEntity
  8
_2-4_PARTS
  6
CONTINUOUS
 62
     7
100
AcDbLine
 10
-1587.341631401916
 20
1805.575136297474
 30
0.0
 11
-1587.341631401916
 21
1805.975136297474
 31
0.0
  0
LINE
  5
1AE02
330
1A
100
AcDbEntity
  8
_2-4_PARTS
  6
CONTINUOUS
 62
     7
100
AcDbLine
 10
-1587.441631401916
 20
1805.575136297474
 30
0.0
 11
-1587.341631401916
 21
1805.575136297474
 31
0.0
  0
LINE
  5
1AE03
330
1A
100
AcDbEntity
  8
_2-4_PARTS
  6
CONTINUOUS
 62
     7
100
AcDbLine
 10
-1587.341631401916
 20
1809.785136297474
 30
0.0
 11
-1587.441631401916
 21
1809.785136297474
 31
0.0
  0
LINE
  5
1AE04
330
1A
100
AcDbEntity
  8
_2-4_PARTS
  6
CONTINUOUS
 62
     7
100
AcDbLine
 10
-1587.341631401916
 20
1809.385136297474
 30
0.0
 11
-1587.341631401916
 21
1809.785136297474
 31
0.0
  0
LINE
  5
1AE05
330
1A
100
AcDbEntity
  8
_2-4_PARTS
  6
CONTINUOUS
 62
     7
100
AcDbLine
 10
-1587.441631401916
 20
1809.385136297474
 30
0.0
 11
-1587.341631401916
 21
1809.385136297474
 31
0.0
  0
LINE
  5
1AE06
330
1A
100
AcDbEntity
  8
_2-4_PARTS
  6
CONTINUOUS
 62
     7
100
AcDbLine
 10
-1588.641631401916
 20
1814.245136297474
 30
0.0
 11
-1588.641631401916
 21
1814.845136297474
 31
0.0
  0
LINE
  5
1AE07
330
1A
100
AcDbEntity
  8
_2-4_PARTS
  6
CONTINUOUS
 62
     7
100
AcDbLine
 10
-1588.641631401916
 20
1812.975136297474
 30
0.0
 11
-1588.641631401916
 21
1813.575136297474
 31
0.0
  0
LINE
  5
1AE08
330
1A
100
AcDbEntity
  8
_2-4_PARTS
  6
CONTINUOUS
 62
     7
100
AcDbLine
 10
-1587.341631401916
 20
1814.745136297474
 30
0.0
 11
-1587.441631401916
 21
1814.745136297474
 31
0.0
  0
LINE
  5
1AE09
330
1A
100
AcDbEntity
  8
_2-4_PARTS
  6
CONTINUOUS
 62
     7
100
AcDbLine
 10
-1587.341631401916
 20
1814.345136297474
 30
0.0
 11
-1587.341631401916
 21
1814.745136297474
 31
0.0
  0
LINE
  5
1AE0A
330
1A
100
AcDbEntity
  8
_2-4_PARTS
  6
CONTINUOUS
 62
     7
100
AcDbLine
 10
-1587.441631401916
 20
1814.345136297474
 30
0.0
 11
-1587.341631401916
 21
1814.345136297474
 31
0.0
  0
LINE
  5
1AE0B
330
1A
100
AcDbEntity
  8
_2-4_PARTS
  6
CONTINUOUS
 62
     7
100
AcDbLine
 10
-1587.341631401916
 20
1813.475136297474
 30
0.0
 11
-1587.441631401916
 21
1813.475136297474
 31
0.0
  0
LINE
  5
1AE0C
330
1A
100
AcDbEntity
  8
_2-4_PARTS
  6
CONTINUOUS
 62
     7
100
AcDbLine
 10
-1587.341631401916
 20
1813.075136297474
 30
0.0
 11
-1587.341631401916
 21
1813.475136297474
 31
0.0
  0
LINE
  5
1AE0D
330
1A
100
AcDbEntity
  8
_2-4_PARTS
  6
CONTINUOUS
 62
     7
100
AcDbLine
 10
-1587.441631401916
 20
1813.075136297474
 30
0.0
 11
-1587.341631401916
 21
1813.075136297474
 31
0.0
  0
LINE
  5
1AE0E
330
1A
100
AcDbEntity
  8
_2-4_PARTS
  6
CONTINUOUS
 62
     7
100
AcDbLine
 10
-1588.641631401916
 20
1816.785136297474
 30
0.0
 11
-1588.641631401916
 21
1817.385136297474
 31
0.0
  0
LINE
  5
1AE0F
330
1A
100
AcDbEntity
  8
_2-4_PARTS
  6
CONTINUOUS
 62
     7
100
AcDbLine
 10
-1588.641631401916
 20
1815.515136297474
 30
0.0
 11
-1588.641631401916
 21
1816.115136297474
 31
0.0
  0
LINE
  5
1AE10
330
1A
100
AcDbEntity
  8
_2-4_PARTS
  6
CONTINUOUS
 62
     7
100
AcDbLine
 10
-1587.341631401916
 20
1817.285136297473
 30
0.0
 11
-1587.441631401916
 21
1817.285136297473
 31
0.0
  0
LINE
  5
1AE11
330
1A
100
AcDbEntity
  8
_2-4_PARTS
  6
CONTINUOUS
 62
     7
100
AcDbLine
 10
-1587.341631401916
 20
1816.885136297474
 30
0.0
 11
-1587.341631401916
 21
1817.285136297473
 31
0.0
  0
LINE
  5
1AE12
330
1A
100
AcDbEntity
  8
_2-4_PARTS
  6
CONTINUOUS
 62
     7
100
AcDbLine
 10
-1587.441631401916
 20
1816.885136297474
 30
0.0
 11
-1587.341631401916
 21
1816.885136297474
 31
0.0
  0
LINE
  5
1AE13
330
1A
100
AcDbEntity
  8
_2-4_PARTS
  6
CONTINUOUS
 62
     7
100
AcDbLine
 10
-1587.341631401916
 20
1816.015136297474
 30
0.0
 11
-1587.441631401916
 21
1816.015136297474
 31
0.0
  0
LINE
  5
1AE14
330
1A
100
AcDbEntity
  8
_2-4_PARTS
  6
CONTINUOUS
 62
     7
100
AcDbLine
 10
-1587.341631401916
 20
1815.615136297474
 30
0.0
 11
-1587.341631401916
 21
1816.015136297474
 31
0.0
  0
LINE
  5
1AE15
330
1A
100
AcDbEntity
  8
_2-4_PARTS
  6
CONTINUOUS
 62
     7
100
AcDbLine
 10
-1587.441631401916
 20
1815.615136297474
 30
0.0
 11
-1587.341631401916
 21
1815.615136297474
 31
0.0
  0
LINE
  5
1AE16
330
1A
100
AcDbEntity
  8
_2-4_PARTS
  6
CONTINUOUS
 62
     7
100
AcDbLine
 10
-1586.831631401916
 20
1834.180136297474
 30
0.0
 11
-1586.831631401916
 21
1828.880136297474
 31
0.0
  0
LINE
  5
1AE17
330
1A
100
AcDbEntity
  8
_2-4_PARTS
  6
CONTINUOUS
 62
     7
100
AcDbLine
 10
-1587.681631401917
 20
1828.180136297474
 30
0.0
 11
-1587.681631401917
 21
1834.880136297473
 31
0.0
  0
LINE
  5
1AE18
330
1A
100
AcDbEntity
  8
_2-4_PARTS
  6
CONTINUOUS
 62
     7
100
AcDbLine
 10
-1591.641631401916
 20
1801.785136297474
 30
0.0
 11
-1591.641631401916
 21
1802.385136297474
 31
0.0
  0
LINE
  5
1AE19
330
1A
100
AcDbEntity
  8
_2-4_PARTS
  6
CONTINUOUS
 62
     7
100
AcDbLine
 10
-1591.641631401916
 20
1800.515136297473
 30
0.0
 11
-1591.641631401916
 21
1801.115136297474
 31
0.0
  0
LINE
  5
1AE1A
330
1A
100
AcDbEntity
  8
_2-4_PARTS
  6
CONTINUOUS
 62
     7
100
AcDbLine
 10
-1591.641631401916
 20
1799.245136297474
 30
0.0
 11
-1591.641631401916
 21
1799.845136297474
 31
0.0
  0
LINE
  5
1AE1B
330
1A
100
AcDbEntity
  8
_2-4_PARTS
  6
CONTINUOUS
 62
     7
100
AcDbLine
 10
-1591.641631401916
 20
1797.975136297474
 30
0.0
 11
-1591.641631401916
 21
1798.575136297474
 31
0.0
  0
LINE
  5
1AE1C
330
1A
100
AcDbEntity
  8
_2-4_PARTS
  6
CONTINUOUS
 62
     7
100
AcDbLine
 10
-1592.941631401916
 20
1801.885136297474
 30
0.0
 11
-1592.941631401916
 21
1802.285136297474
 31
0.0
  0
LINE
  5
1AE1D
330
1A
100
AcDbEntity
  8
_2-4_PARTS
  6
CONTINUOUS
 62
     7
100
AcDbLine
 10
-1592.841631401916
 20
1802.285136297474
 30
0.0
 11
-1592.941631401916
 21
1802.285136297474
 31
0.0
  0
LINE
  5
1AE1E
330
1A
100
AcDbEntity
  8
_2-4_PARTS
  6
CONTINUOUS
 62
     7
100
AcDbLine
 10
-1592.941631401916
 20
1801.885136297474
 30
0.0
 11
-1592.841631401916
 21
1801.885136297474
 31
0.0
  0
LINE
  5
1AE1F
330
1A
100
AcDbEntity
  8
_2-4_PARTS
  6
CONTINUOUS
 62
     7
100
AcDbLine
 10
-1592.941631401916
 20
1800.615136297474
 30
0.0
 11
-1592.941631401916
 21
1801.015136297474
 31
0.0
  0
LINE
  5
1AE20
330
1A
100
AcDbEntity
  8
_2-4_PARTS
  6
CONTINUOUS
 62
     7
100
AcDbLine
 10
-1592.841631401916
 20
1801.015136297474
 30
0.0
 11
-1592.941631401916
 21
1801.015136297474
 31
0.0
  0
LINE
  5
1AE21
330
1A
100
AcDbEntity
  8
_2-4_PARTS
  6
CONTINUOUS
 62
     7
100
AcDbLine
 10
-1592.941631401916
 20
1800.615136297474
 30
0.0
 11
-1592.841631401916
 21
1800.615136297474
 31
0.0
  0
LINE
  5
1AE22
330
1A
100
AcDbEntity
  8
_2-4_PARTS
  6
CONTINUOUS
 62
     7
100
AcDbLine
 10
-1592.941631401916
 20
1799.345136297474
 30
0.0
 11
-1592.941631401916
 21
1799.745136297474
 31
0.0
  0
LINE
  5
1AE23
330
1A
100
AcDbEntity
  8
_2-4_PARTS
  6
CONTINUOUS
 62
     7
100
AcDbLine
 10
-1592.841631401916
 20
1799.745136297474
 30
0.0
 11
-1592.941631401916
 21
1799.745136297474
 31
0.0
  0
LINE
  5
1AE24
330
1A
100
AcDbEntity
  8
_2-4_PARTS
  6
CONTINUOUS
 62
     7
100
AcDbLine
 10
-1592.941631401916
 20
1799.345136297474
 30
0.0
 11
-1592.841631401916
 21
1799.345136297474
 31
0.0
  0
LINE
  5
1AE25
330
1A
100
AcDbEntity
  8
_2-4_PARTS
  6
CONTINUOUS
 62
     7
100
AcDbLine
 10
-1592.941631401916
 20
1798.075136297474
 30
0.0
 11
-1592.941631401916
 21
1798.475136297474
 31
0.0
  0
LINE
  5
1AE26
330
1A
100
AcDbEntity
  8
_2-4_PARTS
  6
CONTINUOUS
 62
     7
100
AcDbLine
 10
-1592.841631401916
 20
1798.475136297474
 30
0.0
 11
-1592.941631401916
 21
1798.475136297474
 31
0.0
  0
LINE
  5
1AE27
330
1A
100
AcDbEntity
  8
_2-4_PARTS
  6
CONTINUOUS
 62
     7
100
AcDbLine
 10
-1592.941631401916
 20
1798.075136297474
 30
0.0
 11
-1592.841631401916
 21
1798.075136297474
 31
0.0
  0
LINE
  5
1AE28
330
1A
100
AcDbEntity
  8
_2-4_PARTS
  6
CONTINUOUS
 62
     7
100
AcDbLine
 10
-1592.841631401916
 20
1811.875136297474
 30
0.0
 11
-1592.841631401916
 21
1818.485136297474
 31
0.0
  0
LINE
  5
1AE29
330
1A
100
AcDbEntity
  8
_2-4_PARTS
  6
CONTINUOUS
 62
     7
100
AcDbLine
 10
-1591.641631401916
 20
1809.285136297474
 30
0.0
 11
-1591.641631401916
 21
1809.885136297474
 31
0.0
  0
LINE
  5
1AE2A
330
1A
100
AcDbEntity
  8
_2-4_PARTS
  6
CONTINUOUS
 62
     7
100
AcDbLine
 10
-1592.841631401916
 20
1804.375136297474
 30
0.0
 11
-1592.841631401916
 21
1810.985136297474
 31
0.0
  0
LINE
  5
1AE2B
330
1A
100
AcDbEntity
  8
_2-4_PARTS
  6
CONTINUOUS
 62
     7
100
AcDbLine
 10
-1591.641631401916
 20
1808.015136297474
 30
0.0
 11
-1591.641631401916
 21
1808.615136297474
 31
0.0
  0
LINE
  5
1AE2C
330
1A
100
AcDbEntity
  8
_2-4_PARTS
  6
CONTINUOUS
 62
     7
100
AcDbLine
 10
-1591.641631401916
 20
1806.745136297474
 30
0.0
 11
-1591.641631401916
 21
1807.345136297474
 31
0.0
  0
LINE
  5
1AE2D
330
1A
100
AcDbEntity
  8
_2-4_PARTS
  6
CONTINUOUS
 62
     7
100
AcDbLine
 10
-1591.641631401916
 20
1805.475136297474
 30
0.0
 11
-1591.641631401916
 21
1806.075136297474
 31
0.0
  0
LINE
  5
1AE2E
330
1A
100
AcDbEntity
  8
_2-4_PARTS
  6
CONTINUOUS
 62
     7
100
AcDbLine
 10
-1592.941631401916
 20
1808.115136297474
 30
0.0
 11
-1592.941631401916
 21
1808.515136297474
 31
0.0
  0
LINE
  5
1AE2F
330
1A
100
AcDbEntity
  8
_2-4_PARTS
  6
CONTINUOUS
 62
     7
100
AcDbLine
 10
-1592.841631401916
 20
1808.515136297474
 30
0.0
 11
-1592.941631401916
 21
1808.515136297474
 31
0.0
  0
LINE
  5
1AE30
330
1A
100
AcDbEntity
  8
_2-4_PARTS
  6
CONTINUOUS
 62
     7
100
AcDbLine
 10
-1592.941631401916
 20
1808.115136297474
 30
0.0
 11
-1592.841631401916
 21
1808.115136297474
 31
0.0
  0
LINE
  5
1AE31
330
1A
100
AcDbEntity
  8
_2-4_PARTS
  6
CONTINUOUS
 62
     7
100
AcDbLine
 10
-1592.941631401916
 20
1806.845136297474
 30
0.0
 11
-1592.941631401916
 21
1807.245136297474
 31
0.0
  0
LINE
  5
1AE32
330
1A
100
AcDbEntity
  8
_2-4_PARTS
  6
CONTINUOUS
 62
     7
100
AcDbLine
 10
-1592.841631401916
 20
1807.245136297474
 30
0.0
 11
-1592.941631401916
 21
1807.245136297474
 31
0.0
  0
LINE
  5
1AE33
330
1A
100
AcDbEntity
  8
_2-4_PARTS
  6
CONTINUOUS
 62
     7
100
AcDbLine
 10
-1592.941631401916
 20
1806.845136297474
 30
0.0
 11
-1592.841631401916
 21
1806.845136297474
 31
0.0
  0
LINE
  5
1AE34
330
1A
100
AcDbEntity
  8
_2-4_PARTS
  6
CONTINUOUS
 62
     7
100
AcDbLine
 10
-1592.941631401916
 20
1805.575136297474
 30
0.0
 11
-1592.941631401916
 21
1805.975136297474
 31
0.0
  0
LINE
  5
1AE35
330
1A
100
AcDbEntity
  8
_2-4_PARTS
  6
CONTINUOUS
 62
     7
100
AcDbLine
 10
-1592.841631401916
 20
1805.975136297474
 30
0.0
 11
-1592.941631401916
 21
1805.975136297474
 31
0.0
  0
LINE
  5
1AE36
330
1A
100
AcDbEntity
  8
_2-4_PARTS
  6
CONTINUOUS
 62
     7
100
AcDbLine
 10
-1592.941631401916
 20
1805.575136297474
 30
0.0
 11
-1592.841631401916
 21
1805.575136297474
 31
0.0
  0
LINE
  5
1AE37
330
1A
100
AcDbEntity
  8
_2-4_PARTS
  6
CONTINUOUS
 62
     7
100
AcDbLine
 10
-1592.941631401916
 20
1809.385136297474
 30
0.0
 11
-1592.941631401916
 21
1809.785136297474
 31
0.0
  0
LINE
  5
1AE38
330
1A
100
AcDbEntity
  8
_2-4_PARTS
  6
CONTINUOUS
 62
     7
100
AcDbLine
 10
-1592.841631401916
 20
1809.785136297474
 30
0.0
 11
-1592.941631401916
 21
1809.785136297474
 31
0.0
  0
LINE
  5
1AE39
330
1A
100
AcDbEntity
  8
_2-4_PARTS
  6
CONTINUOUS
 62
     7
100
AcDbLine
 10
-1592.941631401916
 20
1809.385136297474
 30
0.0
 11
-1592.841631401916
 21
1809.385136297474
 31
0.0
  0
LINE
  5
1AE3A
330
1A
100
AcDbEntity
  8
_2-4_PARTS
  6
CONTINUOUS
 62
     7
100
AcDbLine
 10
-1591.641631401916
 20
1814.245136297474
 30
0.0
 11
-1591.641631401916
 21
1814.845136297474
 31
0.0
  0
LINE
  5
1AE3B
330
1A
100
AcDbEntity
  8
_2-4_PARTS
  6
CONTINUOUS
 62
     7
100
AcDbLine
 10
-1591.641631401916
 20
1812.975136297474
 30
0.0
 11
-1591.641631401916
 21
1813.575136297474
 31
0.0
  0
LINE
  5
1AE3C
330
1A
100
AcDbEntity
  8
_2-4_PARTS
  6
CONTINUOUS
 62
     7
100
AcDbLine
 10
-1592.941631401916
 20
1814.345136297474
 30
0.0
 11
-1592.941631401916
 21
1814.745136297474
 31
0.0
  0
LINE
  5
1AE3D
330
1A
100
AcDbEntity
  8
_2-4_PARTS
  6
CONTINUOUS
 62
     7
100
AcDbLine
 10
-1592.841631401916
 20
1814.745136297474
 30
0.0
 11
-1592.941631401916
 21
1814.745136297474
 31
0.0
  0
LINE
  5
1AE3E
330
1A
100
AcDbEntity
  8
_2-4_PARTS
  6
CONTINUOUS
 62
     7
100
AcDbLine
 10
-1592.941631401916
 20
1814.345136297474
 30
0.0
 11
-1592.841631401916
 21
1814.345136297474
 31
0.0
  0
LINE
  5
1AE3F
330
1A
100
AcDbEntity
  8
_2-4_PARTS
  6
CONTINUOUS
 62
     7
100
AcDbLine
 10
-1592.941631401916
 20
1813.075136297474
 30
0.0
 11
-1592.941631401916
 21
1813.475136297474
 31
0.0
  0
LINE
  5
1AE40
330
1A
100
AcDbEntity
  8
_2-4_PARTS
  6
CONTINUOUS
 62
     7
100
AcDbLine
 10
-1592.841631401916
 20
1813.475136297474
 30
0.0
 11
-1592.941631401916
 21
1813.475136297474
 31
0.0
  0
LINE
  5
1AE41
330
1A
100
AcDbEntity
  8
_2-4_PARTS
  6
CONTINUOUS
 62
     7
100
AcDbLine
 10
-1592.941631401916
 20
1813.075136297474
 30
0.0
 11
-1592.841631401916
 21
1813.075136297474
 31
0.0
  0
LINE
  5
1AE42
330
1A
100
AcDbEntity
  8
_2-4_PARTS
  6
CONTINUOUS
 62
     7
100
AcDbLine
 10
-1591.781631401916
 20
1822.205136297474
 30
0.0
 11
-1591.781631401916
 21
1820.955136297474
 31
0.0
  0
LINE
  5
1AE43
330
1A
100
AcDbEntity
  8
_2-4_PARTS
  6
CONTINUOUS
 62
     7
100
AcDbLine
 10
-1592.181631401916
 20
1822.205136297474
 30
0.0
 11
-1592.181631401916
 21
1820.955136297474
 31
0.0
  0
LINE
  5
1AE44
330
1A
100
AcDbEntity
  8
_2-4_PARTS
  6
CONTINUOUS
 62
     7
100
AcDbLine
 10
-1591.641631401916
 20
1816.785136297474
 30
0.0
 11
-1591.641631401916
 21
1817.385136297474
 31
0.0
  0
LINE
  5
1AE45
330
1A
100
AcDbEntity
  8
_2-4_PARTS
  6
CONTINUOUS
 62
     7
100
AcDbLine
 10
-1591.641631401916
 20
1815.515136297474
 30
0.0
 11
-1591.641631401916
 21
1816.115136297474
 31
0.0
  0
LINE
  5
1AE46
330
1A
100
AcDbEntity
  8
_2-4_PARTS
  6
CONTINUOUS
 62
     7
100
AcDbLine
 10
-1592.941631401916
 20
1816.885136297474
 30
0.0
 11
-1592.941631401916
 21
1817.285136297473
 31
0.0
  0
LINE
  5
1AE47
330
1A
100
AcDbEntity
  8
_2-4_PARTS
  6
CONTINUOUS
 62
     7
100
AcDbLine
 10
-1592.841631401916
 20
1817.285136297473
 30
0.0
 11
-1592.941631401916
 21
1817.285136297473
 31
0.0
  0
LINE
  5
1AE48
330
1A
100
AcDbEntity
  8
_2-4_PARTS
  6
CONTINUOUS
 62
     7
100
AcDbLine
 10
-1592.941631401916
 20
1816.885136297474
 30
0.0
 11
-1592.841631401916
 21
1816.885136297474
 31
0.0
  0
LINE
  5
1AE49
330
1A
100
AcDbEntity
  8
_2-4_PARTS
  6
CONTINUOUS
 62
     7
100
AcDbLine
 10
-1592.941631401916
 20
1815.615136297474
 30
0.0
 11
-1592.941631401916
 21
1816.015136297474
 31
0.0
  0
LINE
  5
1AE4A
330
1A
100
AcDbEntity
  8
_2-4_PARTS
  6
CONTINUOUS
 62
     7
100
AcDbLine
 10
-1592.841631401916
 20
1816.015136297474
 30
0.0
 11
-1592.941631401916
 21
1816.015136297474
 31
0.0
  0
LINE
  5
1AE4B
330
1A
100
AcDbEntity
  8
_2-4_PARTS
  6
CONTINUOUS
 62
     7
100
AcDbLine
 10
-1592.941631401916
 20
1815.615136297474
 30
0.0
 11
-1592.841631401916
 21
1815.615136297474
 31
0.0
  0
LINE
  5
1AE4C
330
1A
100
AcDbEntity
  8
_2-4_PARTS
  6
CONTINUOUS
 62
     7
100
AcDbLine
 10
-1591.781631401916
 20
1825.205136297474
 30
0.0
 11
-1591.781631401916
 21
1823.955136297474
 31
0.0
  0
LINE
  5
1AE4D
330
1A
100
AcDbEntity
  8
_2-4_PARTS
  6
CONTINUOUS
 62
     7
100
AcDbLine
 10
-1592.181631401916
 20
1825.205136297474
 30
0.0
 11
-1592.181631401916
 21
1823.955136297474
 31
0.0
  0
LINE
  5
1AE4E
330
1A
100
AcDbEntity
  8
CL1
100
AcDbLine
 10
-1589.981631401916
 20
1834.280136297474
 30
0.0
 11
-1593.981631401916
 21
1834.280136297474
 31
0.0
  0
LINE
  5
1AE4F
330
1A
100
AcDbEntity
  8
_2-4_PARTS
  6
CONTINUOUS
 62
     7
100
AcDbLine
 10
-1588.641631401916
 20
1802.385136297474
 30
0.0
 11
-1591.641631401916
 21
1802.385136297474
 31
0.0
  0
LINE
  5
1AE50
330
1A
100
AcDbEntity
  8
_2-4_PARTS
  6
CONTINUOUS
 62
     7
100
AcDbLine
 10
-1588.641631401916
 20
1801.785136297474
 30
0.0
 11
-1591.641631401916
 21
1801.785136297474
 31
0.0
  0
LINE
  5
1AE51
330
1A
100
AcDbEntity
  8
_2-4_PARTS
  6
CONTINUOUS
 62
     7
100
AcDbLine
 10
-1588.641631401916
 20
1801.115136297474
 30
0.0
 11
-1591.641631401916
 21
1801.115136297474
 31
0.0
  0
LINE
  5
1AE52
330
1A
100
AcDbEntity
  8
_2-4_PARTS
  6
CONTINUOUS
 62
     7
100
AcDbLine
 10
-1588.641631401916
 20
1800.515136297473
 30
0.0
 11
-1591.641631401916
 21
1800.515136297473
 31
0.0
  0
LINE
  5
1AE53
330
1A
100
AcDbEntity
  8
_2-4_PARTS
  6
CONTINUOUS
 62
     7
100
AcDbLine
 10
-1588.641631401916
 20
1799.845136297474
 30
0.0
 11
-1591.641631401916
 21
1799.845136297474
 31
0.0
  0
LINE
  5
1AE54
330
1A
100
AcDbEntity
  8
_2-4_PARTS
  6
CONTINUOUS
 62
     7
100
AcDbLine
 10
-1588.641631401916
 20
1799.245136297474
 30
0.0
 11
-1591.641631401916
 21
1799.245136297474
 31
0.0
  0
LINE
  5
1AE55
330
1A
100
AcDbEntity
  8
_2-4_PARTS
  6
CONTINUOUS
 62
     7
100
AcDbLine
 10
-1588.641631401916
 20
1798.575136297474
 30
0.0
 11
-1591.641631401916
 21
1798.575136297474
 31
0.0
  0
LINE
  5
1AE56
330
1A
100
AcDbEntity
  8
_2-4_PARTS
  6
CONTINUOUS
 62
     7
100
AcDbLine
 10
-1588.641631401916
 20
1797.975136297474
 30
0.0
 11
-1591.641631401916
 21
1797.975136297474
 31
0.0
  0
LINE
  5
1AE57
330
1A
100
AcDbEntity
  8
_2-4_PARTS
  6
CONTINUOUS
 62
     7
100
AcDbLine
 10
-1592.841631401916
 20
1803.485136297474
 30
0.0
 11
-1587.441631401916
 21
1803.485136297474
 31
0.0
  0
LINE
  5
1AE58
330
1A
100
AcDbEntity
  8
_2-4_PARTS
  6
CONTINUOUS
 62
     7
100
AcDbLine
 10
-1588.641631401916
 20
1809.885136297474
 30
0.0
 11
-1591.641631401916
 21
1809.885136297474
 31
0.0
  0
LINE
  5
1AE59
330
1A
100
AcDbEntity
  8
_2-4_PARTS
  6
CONTINUOUS
 62
     7
100
AcDbLine
 10
-1588.641631401916
 20
1809.285136297474
 30
0.0
 11
-1591.641631401916
 21
1809.285136297474
 31
0.0
  0
LINE
  5
1AE5A
330
1A
100
AcDbEntity
  8
_2-4_PARTS
  6
CONTINUOUS
 62
     7
100
AcDbLine
 10
-1588.641631401916
 20
1808.615136297474
 30
0.0
 11
-1591.641631401916
 21
1808.615136297474
 31
0.0
  0
LINE
  5
1AE5B
330
1A
100
AcDbEntity
  8
_2-4_PARTS
  6
CONTINUOUS
 62
     7
100
AcDbLine
 10
-1588.641631401916
 20
1808.015136297474
 30
0.0
 11
-1591.641631401916
 21
1808.015136297474
 31
0.0
  0
LINE
  5
1AE5C
330
1A
100
AcDbEntity
  8
_2-4_PARTS
  6
CONTINUOUS
 62
     7
100
AcDbLine
 10
-1588.641631401916
 20
1807.345136297474
 30
0.0
 11
-1591.641631401916
 21
1807.345136297474
 31
0.0
  0
LINE
  5
1AE5D
330
1A
100
AcDbEntity
  8
_2-4_PARTS
  6
CONTINUOUS
 62
     7
100
AcDbLine
 10
-1588.641631401916
 20
1806.745136297474
 30
0.0
 11
-1591.641631401916
 21
1806.745136297474
 31
0.0
  0
LINE
  5
1AE5E
330
1A
100
AcDbEntity
  8
_2-4_PARTS
  6
CONTINUOUS
 62
     7
100
AcDbLine
 10
-1588.641631401916
 20
1806.075136297474
 30
0.0
 11
-1591.641631401916
 21
1806.075136297474
 31
0.0
  0
LINE
  5
1AE5F
330
1A
100
AcDbEntity
  8
_2-4_PARTS
  6
CONTINUOUS
 62
     7
100
AcDbLine
 10
-1588.641631401916
 20
1805.475136297474
 30
0.0
 11
-1591.641631401916
 21
1805.475136297474
 31
0.0
  0
LINE
  5
1AE60
330
1A
100
AcDbEntity
  8
_2-4_PARTS
  6
CONTINUOUS
 62
     7
100
AcDbLine
 10
-1592.841631401916
 20
1804.375136297474
 30
0.0
 11
-1587.441631401916
 21
1804.375136297474
 31
0.0
  0
LINE
  5
1AE61
330
1A
100
AcDbEntity
  8
_2-4_PARTS
  6
CONTINUOUS
 62
     7
100
AcDbLine
 10
-1592.841631401916
 20
1810.985136297474
 30
0.0
 11
-1587.441631401916
 21
1810.985136297474
 31
0.0
  0
LINE
  5
1AE62
330
1A
100
AcDbEntity
  8
_2-4_PARTS
  6
CONTINUOUS
 62
     7
100
AcDbLine
 10
-1588.641631401916
 20
1817.385136297474
 30
0.0
 11
-1591.641631401916
 21
1817.385136297474
 31
0.0
  0
LINE
  5
1AE63
330
1A
100
AcDbEntity
  8
_2-4_PARTS
  6
CONTINUOUS
 62
     7
100
AcDbLine
 10
-1588.641631401916
 20
1816.785136297474
 30
0.0
 11
-1591.641631401916
 21
1816.785136297474
 31
0.0
  0
LINE
  5
1AE64
330
1A
100
AcDbEntity
  8
_2-4_PARTS
  6
CONTINUOUS
 62
     7
100
AcDbLine
 10
-1588.641631401916
 20
1816.115136297474
 30
0.0
 11
-1591.641631401916
 21
1816.115136297474
 31
0.0
  0
LINE
  5
1AE65
330
1A
100
AcDbEntity
  8
_2-4_PARTS
  6
CONTINUOUS
 62
     7
100
AcDbLine
 10
-1588.641631401916
 20
1815.515136297474
 30
0.0
 11
-1591.641631401916
 21
1815.515136297474
 31
0.0
  0
LINE
  5
1AE66
330
1A
100
AcDbEntity
  8
_2-4_PARTS
  6
CONTINUOUS
 62
     7
100
AcDbLine
 10
-1588.641631401916
 20
1814.845136297474
 30
0.0
 11
-1591.641631401916
 21
1814.845136297474
 31
0.0
  0
LINE
  5
1AE67
330
1A
100
AcDbEntity
  8
_2-4_PARTS
  6
CONTINUOUS
 62
     7
100
AcDbLine
 10
-1588.641631401916
 20
1814.245136297474
 30
0.0
 11
-1591.641631401916
 21
1814.245136297474
 31
0.0
  0
LINE
  5
1AE68
330
1A
100
AcDbEntity
  8
_2-4_PARTS
  6
CONTINUOUS
 62
     7
100
AcDbLine
 10
-1588.641631401916
 20
1813.575136297474
 30
0.0
 11
-1591.641631401916
 21
1813.575136297474
 31
0.0
  0
LINE
  5
1AE69
330
1A
100
AcDbEntity
  8
_2-4_PARTS
  6
CONTINUOUS
 62
     7
100
AcDbLine
 10
-1588.641631401916
 20
1812.975136297474
 30
0.0
 11
-1591.641631401916
 21
1812.975136297474
 31
0.0
  0
LINE
  5
1AE6A
330
1A
100
AcDbEntity
  8
_2-4_PARTS
  6
CONTINUOUS
 62
     7
100
AcDbLine
 10
-1592.841631401916
 20
1811.875136297474
 30
0.0
 11
-1587.441631401916
 21
1811.875136297474
 31
0.0
  0
LINE
  5
1AE6B
330
1A
100
AcDbEntity
  8
_2-4_PARTS
  6
CONTINUOUS
 62
     7
100
AcDbLine
 10
-1592.841631401916
 20
1818.485136297474
 30
0.0
 11
-1587.441631401916
 21
1818.485136297474
 31
0.0
  0
LINE
  5
1AE6C
330
1A
100
AcDbEntity
  8
_2-4_PARTS
  6
CONTINUOUS
 62
     7
100
AcDbLine
 10
-1592.181631401916
 20
1820.955136297474
 30
0.0
 11
-1590.181631401916
 21
1820.955136297474
 31
0.0
  0
LINE
  5
1AE6D
330
1A
100
AcDbEntity
  8
_2-4_PARTS
  6
CONTINUOUS
 62
     7
100
AcDbLine
 10
-1592.181631401916
 20
1822.205136297474
 30
0.0
 11
-1590.181631401916
 21
1822.205136297474
 31
0.0
  0
LINE
  5
1AE6E
330
1A
100
AcDbEntity
  8
_2-4_PARTS
  6
CONTINUOUS
 62
     7
100
AcDbLine
 10
-1592.181631401916
 20
1823.955136297474
 30
0.0
 11
-1590.181631401916
 21
1823.955136297474
 31
0.0
  0
LINE
  5
1AE6F
330
1A
100
AcDbEntity
  8
_2-4_PARTS
  6
CONTINUOUS
 62
     7
100
AcDbLine
 10
-1592.181631401916
 20
1825.205136297474
 30
0.0
 11
-1590.181631401916
 21
1825.205136297474
 31
0.0
  0
LINE
  5
1AE70
330
1A
100
AcDbEntity
  8
_2-4_PARTS
  6
CONTINUOUS
 62
     7
100
AcDbLine
 10
-1574.031631401917
 20
1829.080136297474
 30
0.0
 11
-1574.031631401917
 21
1828.180136297474
 31
0.0
  0
LINE
  5
1AE71
330
1A
100
AcDbEntity
  8
_2-4_PARTS
  6
CONTINUOUS
 62
     7
100
AcDbLine
 10
-1574.231631401917
 20
1829.080136297474
 30
0.0
 11
-1574.231631401917
 21
1828.480136297474
 31
0.0
  0
CIRCLE
  5
1AE72
330
1A
100
AcDbEntity
  8
_2-4_PARTS
  6
CONTINUOUS
 62
     7
100
AcDbCircle
 10
-1572.731631401917
 20
1831.480136297474
 30
0.0
 40
0.25
  0
CIRCLE
  5
1AE73
330
1A
100
AcDbEntity
  8
_2-4_PARTS
  6
CONTINUOUS
 62
     7
100
AcDbCircle
 10
-1570.231631401917
 20
1831.480136297474
 30
0.0
 40
0.25
  0
LINE
  5
1AE74
330
1A
100
AcDbEntity
  8
_2-4_PARTS
  6
CONTINUOUS
 62
     7
100
AcDbLine
 10
-1585.831631401917
 20
1829.580136297474
 30
0.0
 11
-1585.831631401917
 21
1828.880136297474
 31
0.0
  0
CIRCLE
  5
1AE75
330
1A
100
AcDbEntity
  8
_2-4_PARTS
  6
CONTINUOUS
 62
     7
100
AcDbCircle
 10
-1582.731631401917
 20
1831.480136297474
 30
0.0
 40
0.25
  0
LINE
  5
1AE76
330
1A
100
AcDbEntity
  8
_2-4_PARTS
  6
CONTINUOUS
 62
     7
100
AcDbLine
 10
-1585.331631401917
 20
1828.180136297474
 30
0.0
 11
-1585.331631401917
 21
1829.080136297474
 31
0.0
  0
CIRCLE
  5
1AE77
330
1A
100
AcDbEntity
  8
_2-4_PARTS
  6
CONTINUOUS
 62
     7
100
AcDbCircle
 10
-1585.231631401916
 20
1831.480136297474
 30
0.0
 40
0.25
  0
CIRCLE
  5
1AE78
330
1A
100
AcDbEntity
  8
_2-4_PARTS
  6
CONTINUOUS
 62
     7
100
AcDbCircle
 10
-1580.231631401916
 20
1831.480136297474
 30
0.0
 40
0.25
  0
CIRCLE
  5
1AE79
330
1A
100
AcDbEntity
  8
_2-4_PARTS
  6
CONTINUOUS
 62
     7
100
AcDbCircle
 10
-1577.731631401917
 20
1831.480136297474
 30
0.0
 40
0.25
  0
CIRCLE
  5
1AE7A
330
1A
100
AcDbEntity
  8
_2-4_PARTS
  6
CONTINUOUS
 62
     7
100
AcDbCircle
 10
-1575.231631401917
 20
1831.480136297474
 30
0.0
 40
0.25
  0
LINE
  5
1AE7B
330
1A
100
AcDbEntity
  8
_2-4_PARTS
  6
CONTINUOUS
 62
     7
100
AcDbLine
 10
-1575.931631401916
 20
1829.080136297474
 30
0.0
 11
-1575.931631401916
 21
1828.180136297474
 31
0.0
  0
LINE
  5
1AE7C
330
1A
100
AcDbEntity
  8
_2-4_PARTS
  6
CONTINUOUS
 62
     7
100
AcDbLine
 10
-1575.731631401916
 20
1829.080136297474
 30
0.0
 11
-1575.731631401916
 21
1828.480136297474
 31
0.0
  0
LINE
  5
1AE7D
330
1A
100
AcDbEntity
  8
_2-4_PARTS
  6
CONTINUOUS
 62
     7
100
AcDbLine
 10
-1574.231631401917
 20
1828.480136297474
 30
0.0
 11
-1575.731631401916
 21
1828.480136297474
 31
0.0
  0
ARC
  5
1AE7E
330
1A
100
AcDbEntity
  8
ZISSEN1
100
AcDbCircle
 10
-1595.481631401916
 20
1837.780136297474
 30
0.0
 40
1.0
100
AcDbArc
 50
270.0
 51
0.0
  0
DIMENSION
  5
1AE7F
330
1A
100
AcDbEntity
  8
SUNPOU
100
AcDbDimension
  2
*D36
 10
-1618.497819988437
 20
1871.859545467159
 30
0.0
 11
-1621.247819988438
 21
1864.409545467159
 31
0.0
 70
    32
  1
(16)
  3
標準スタイル
100
AcDbAlignedDimension
 13
-1588.181631401917
 23
1856.959545467159
 33
0.0
 14
-1585.381631401916
 24
1871.859545467159
 34
0.0
 50
90.0
100
AcDbRotatedDimension
1001
ACAD
1000
DSTYLE
1002
{
1070
   340
1005
10
1070
    40
1040
1.0
1002
}
  0
DIMENSION
  5
1AE80
330
1A
100
AcDbEntity
  8
SUNPOU
100
AcDbDimension
  2
*D37
 10
-1608.392446635898
 20
1871.859545467159
 30
0.0
 11
-1611.191621665536
 21
1880.330772367317
 31
0.0
 70
   160
  1
(2.9)
  3
標準スタイル
100
AcDbAlignedDimension
 13
-1595.481631401916
 23
1870.059545467159
 33
0.0
 14
-1585.381631401916
 24
1871.859545467159
 34
0.0
 50
90.0
100
AcDbRotatedDimension
1001
ACAD
1000
DSTYLE
1002
{
1070
   287
1070
     5
1070
    40
1040
1.0
1070
   279
1070
     2
1070
   340
1005
10
1002
}
  0
DIMENSION
  5
1AE81
330
1A
100
AcDbEntity
  8
CL1
100
AcDbDimension
  2
*D38
 10
-1608.392446635898
 20
1870.059545467159
 30
0.0
 11
-1611.142446635898
 21
1863.509545467159
 31
0.0
 70
    32
  3
標準スタイル
100
AcDbAlignedDimension
 13
-1587.681631401917
 23
1856.959545467159
 33
0.0
 14
-1595.481631401916
 24
1870.059545467159
 34
0.0
 50
90.0
100
AcDbRotatedDimension
1001
ACAD
1000
DSTYLE
1002
{
1070
   340
1005
10
1070
    40
1040
1.0
1002
}
  0
LINE
  5
1AE82
330
1A
100
AcDbEntity
  8
_2-4_PARTS
  6
CONTINUOUS
 62
     7
100
AcDbLine
 10
-1585.681631401916
 20
1856.959545733995
 30
0.0
 11
-1587.681631401917
 21
1856.959545733995
 31
0.0
  0
LINE
  5
1AE83
330
1A
100
AcDbEntity
  8
_2-4_PARTS
  6
CONTINUOUS
 62
     7
100
AcDbLine
 10
-1585.981631401917
 20
1868.459545733995
 30
0.0
 11
-1587.681631401917
 21
1868.459545733995
 31
0.0
  0
LINE
  5
1AE84
330
1A
100
AcDbEntity
  8
_2-4_PARTS
  6
CONTINUOUS
 62
     7
100
AcDbLine
 10
-1587.681631401917
 20
1856.959545733995
 30
0.0
 11
-1587.681631401917
 21
1868.459545733995
 31
0.0
  0
LINE
  5
1AE85
330
1A
100
AcDbEntity
  8
ZISSEN1
100
AcDbLine
 10
-1594.481631401916
 20
1870.059545733995
 30
0.0
 11
-1594.481631401916
 21
1868.459545733995
 31
0.0
  0
LINE
  5
1AE86
330
1A
100
AcDbEntity
  8
ZISSEN1
100
AcDbLine
 10
-1595.481631401916
 20
1870.059545733995
 30
0.0
 11
-1595.481631401916
 21
1868.459545733995
 31
0.0
  0
LINE
  5
1AE87
330
1A
100
AcDbEntity
  8
CL1
100
AcDbLine
 10
-1591.981631401916
 20
1871.859545467159
 30
0.0
 11
-1591.981631401916
 21
1866.677192798927
 31
0.0
  0
LINE
  5
1AE88
330
1A
100
AcDbEntity
  8
_2-4_PARTS
  6
CONTINUOUS
 62
     7
100
AcDbLine
 10
-1571.981631401917
 20
1868.159545733995
 30
0.0
 11
-1573.481631401917
 21
1868.159545733995
 31
0.0
  0
LINE
  5
1AE89
330
1A
100
AcDbEntity
  8
_2-4_PARTS
  6
CONTINUOUS
 62
     7
100
AcDbLine
 10
-1574.481631401916
 20
1868.459545733995
 30
0.0
 11
-1574.481631401916
 21
1867.359545733995
 31
0.0
  0
LINE
  5
1AE8A
330
1A
100
AcDbEntity
  8
_2-4_PARTS
  6
CONTINUOUS
 62
     7
100
AcDbLine
 10
-1573.481631401917
 20
1868.459545733995
 30
0.0
 11
-1573.481631401917
 21
1867.359545733995
 31
0.0
  0
LINE
  5
1AE8B
330
1A
100
AcDbEntity
  8
_2-4_PARTS
  6
CONTINUOUS
 62
     7
100
AcDbLine
 10
-1573.481631401917
 20
1868.459545733995
 30
0.0
 11
-1574.481631401916
 21
1868.459545733995
 31
0.0
  0
LINE
  5
1AE8C
330
1A
100
AcDbEntity
  8
_2-4_PARTS
  6
CONTINUOUS
 62
     7
100
AcDbLine
 10
-1571.981631401917
 20
1868.459545733995
 30
0.0
 11
-1571.981631401917
 21
1867.359545733995
 31
0.0
  0
LINE
  5
1AE8D
330
1A
100
AcDbEntity
  8
_2-4_PARTS
  6
CONTINUOUS
 62
     7
100
AcDbLine
 10
-1570.981631401917
 20
1868.459545733995
 30
0.0
 11
-1570.981631401917
 21
1867.359545733995
 31
0.0
  0
LINE
  5
1AE8E
330
1A
100
AcDbEntity
  8
_2-4_PARTS
  6
CONTINUOUS
 62
     7
100
AcDbLine
 10
-1569.931631401916
 20
1870.059545733995
 30
0.0
 11
-1569.931631401916
 21
1871.359545733995
 31
0.0
  0
LINE
  5
1AE8F
330
1A
100
AcDbEntity
  8
_2-4_PARTS
  6
CONTINUOUS
 62
     7
100
AcDbLine
 10
-1570.531631401917
 20
1870.059545733995
 30
0.0
 11
-1570.531631401917
 21
1871.359545733995
 31
0.0
  0
LINE
  5
1AE90
330
1A
100
AcDbEntity
  8
_2-4_PARTS
  6
CONTINUOUS
 62
     7
100
AcDbLine
 10
-1572.431631401916
 20
1870.059545733995
 30
0.0
 11
-1572.431631401916
 21
1871.359545733995
 31
0.0
  0
LINE
  5
1AE91
330
1A
100
AcDbEntity
  8
_2-4_PARTS
  6
CONTINUOUS
 62
     7
100
AcDbLine
 10
-1573.031631401916
 20
1870.059545733995
 30
0.0
 11
-1573.031631401916
 21
1871.359545733995
 31
0.0
  0
LINE
  5
1AE92
330
1A
100
AcDbEntity
  8
_2-4_PARTS
  6
CONTINUOUS
 62
     7
100
AcDbLine
 10
-1570.981631401917
 20
1868.459545733995
 30
0.0
 11
-1571.981631401917
 21
1868.459545733995
 31
0.0
  0
LINE
  5
1AE93
330
1A
100
AcDbEntity
  8
_2-4_PARTS
  6
CONTINUOUS
 62
     7
100
AcDbLine
 10
-1572.881631401916
 20
1871.859545733995
 30
0.0
 11
-1573.031631401916
 21
1871.359545733995
 31
0.0
  0
LINE
  5
1AE94
330
1A
100
AcDbEntity
  8
_2-4_PARTS
  6
CONTINUOUS
 62
     7
100
AcDbLine
 10
-1572.581631401916
 20
1871.859545733995
 30
0.0
 11
-1572.431631401916
 21
1871.359545733995
 31
0.0
  0
LINE
  5
1AE95
330
1A
100
AcDbEntity
  8
_2-4_PARTS
  6
CONTINUOUS
 62
     7
100
AcDbLine
 10
-1572.581631401916
 20
1871.859545733995
 30
0.0
 11
-1572.881631401916
 21
1871.859545733995
 31
0.0
  0
LINE
  5
1AE96
330
1A
100
AcDbEntity
  8
_2-4_PARTS
  6
CONTINUOUS
 62
     7
100
AcDbLine
 10
-1570.381631401916
 20
1871.859545733995
 30
0.0
 11
-1570.531631401917
 21
1871.359545733995
 31
0.0
  0
LINE
  5
1AE97
330
1A
100
AcDbEntity
  8
_2-4_PARTS
  6
CONTINUOUS
 62
     7
100
AcDbLine
 10
-1570.081631401917
 20
1871.859545733995
 30
0.0
 11
-1569.931631401916
 21
1871.359545733995
 31
0.0
  0
LINE
  5
1AE98
330
1A
100
AcDbEntity
  8
_2-4_PARTS
  6
CONTINUOUS
 62
     7
100
AcDbLine
 10
-1570.081631401917
 20
1871.859545733995
 30
0.0
 11
-1570.381631401916
 21
1871.859545733995
 31
0.0
  0
LINE
  5
1AE99
330
1A
100
AcDbEntity
  8
_2-4_PARTS
  6
CONTINUOUS
 62
     7
100
AcDbLine
 10
-1585.181631401916
 20
1857.459545733995
 30
0.0
 11
-1585.681631401916
 21
1856.959545733995
 31
0.0
  0
ARC
  5
1AE9A
330
1A
100
AcDbEntity
  8
_2-4_PARTS
  6
CONTINUOUS
 62
     7
100
AcDbCircle
 10
-1584.681631401917
 20
1858.459545733995
 30
0.0
 40
0.5
100
AcDbArc
 50
90.0
 51
180.0
  0
LINE
  5
1AE9B
330
1A
100
AcDbEntity
  8
_2-4_PARTS
  6
CONTINUOUS
 62
     7
100
AcDbLine
 10
-1585.181631401916
 20
1858.459545733995
 30
0.0
 11
-1585.181631401916
 21
1857.459545733995
 31
0.0
  0
LINE
  5
1AE9C
330
1A
100
AcDbEntity
  8
_2-4_PARTS
  6
CONTINUOUS
 62
     7
100
AcDbLine
 10
-1580.981631401916
 20
1868.459545733995
 30
0.0
 11
-1581.981631401917
 21
1868.459545733995
 31
0.0
  0
LINE
  5
1AE9D
330
1A
100
AcDbEntity
  8
_2-4_PARTS
  6
CONTINUOUS
 62
     7
100
AcDbLine
 10
-1581.981631401917
 20
1867.359545733995
 30
0.0
 11
-1581.981631401917
 21
1868.459545733995
 31
0.0
  0
LINE
  5
1AE9E
330
1A
100
AcDbEntity
  8
_2-4_PARTS
  6
CONTINUOUS
 62
     7
100
AcDbLine
 10
-1584.481631401916
 20
1867.359545733995
 30
0.0
 11
-1584.481631401916
 21
1868.459545733995
 31
0.0
  0
LINE
  5
1AE9F
330
1A
100
AcDbEntity
  8
_2-4_PARTS
  6
CONTINUOUS
 62
     7
100
AcDbLine
 10
-1583.481631401917
 20
1867.359545733995
 30
0.0
 11
-1583.481631401917
 21
1868.459545733995
 31
0.0
  0
LINE
  5
1AEA0
330
1A
100
AcDbEntity
  8
_2-4_PARTS
  6
CONTINUOUS
 62
     7
100
AcDbLine
 10
-1585.981631401917
 20
1867.359545733995
 30
0.0
 11
-1585.981631401917
 21
1868.459545733995
 31
0.0
  0
LINE
  5
1AEA1
330
1A
100
AcDbEntity
  8
_2-4_PARTS
  6
CONTINUOUS
 62
     7
100
AcDbLine
 10
-1584.481631401916
 20
1868.159545733995
 30
0.0
 11
-1585.981631401917
 21
1868.159545733995
 31
0.0
  0
LINE
  5
1AEA2
330
1A
100
AcDbEntity
  8
_2-4_PARTS
  6
CONTINUOUS
 62
     7
100
AcDbLine
 10
-1581.981631401917
 20
1868.159545733995
 30
0.0
 11
-1583.481631401917
 21
1868.159545733995
 31
0.0
  0
LINE
  5
1AEA3
330
1A
100
AcDbEntity
  8
_2-4_PARTS
  6
CONTINUOUS
 62
     7
100
AcDbLine
 10
-1585.381631401916
 20
1871.859545733995
 30
0.0
 11
-1585.531631401916
 21
1871.359545733995
 31
0.0
  0
LINE
  5
1AEA4
330
1A
100
AcDbEntity
  8
_2-4_PARTS
  6
CONTINUOUS
 62
     7
100
AcDbLine
 10
-1585.531631401916
 20
1870.059545733995
 30
0.0
 11
-1585.531631401916
 21
1871.359545733995
 31
0.0
  0
LINE
  5
1AEA5
330
1A
100
AcDbEntity
  8
_2-4_PARTS
  6
CONTINUOUS
 62
     7
100
AcDbLine
 10
-1582.431631401916
 20
1870.059545733995
 30
0.0
 11
-1582.431631401916
 21
1871.359545733995
 31
0.0
  0
LINE
  5
1AEA6
330
1A
100
AcDbEntity
  8
_2-4_PARTS
  6
CONTINUOUS
 62
     7
100
AcDbLine
 10
-1583.031631401917
 20
1870.059545733995
 30
0.0
 11
-1583.031631401917
 21
1871.359545733995
 31
0.0
  0
LINE
  5
1AEA7
330
1A
100
AcDbEntity
  8
_2-4_PARTS
  6
CONTINUOUS
 62
     7
100
AcDbLine
 10
-1584.931631401916
 20
1870.059545733995
 30
0.0
 11
-1584.931631401916
 21
1871.359545733995
 31
0.0
  0
LINE
  5
1AEA8
330
1A
100
AcDbEntity
  8
_2-4_PARTS
  6
CONTINUOUS
 62
     7
100
AcDbLine
 10
-1582.881631401916
 20
1871.859545733995
 30
0.0
 11
-1583.031631401917
 21
1871.359545733995
 31
0.0
  0
LINE
  5
1AEA9
330
1A
100
AcDbEntity
  8
_2-4_PARTS
  6
CONTINUOUS
 62
     7
100
AcDbLine
 10
-1582.581631401916
 20
1871.859545733995
 30
0.0
 11
-1582.431631401916
 21
1871.359545733995
 31
0.0
  0
LINE
  5
1AEAA
330
1A
100
AcDbEntity
  8
_2-4_PARTS
  6
CONTINUOUS
 62
     7
100
AcDbLine
 10
-1582.581631401916
 20
1871.859545733995
 30
0.0
 11
-1582.881631401916
 21
1871.859545733995
 31
0.0
  0
LINE
  5
1AEAB
330
1A
100
AcDbEntity
  8
_2-4_PARTS
  6
CONTINUOUS
 62
     7
100
AcDbLine
 10
-1583.481631401917
 20
1868.459545733995
 30
0.0
 11
-1584.481631401916
 21
1868.459545733995
 31
0.0
  0
LINE
  5
1AEAC
330
1A
100
AcDbEntity
  8
_2-4_PARTS
  6
CONTINUOUS
 62
     7
100
AcDbLine
 10
-1585.081631401917
 20
1871.859545733995
 30
0.0
 11
-1584.931631401916
 21
1871.359545733995
 31
0.0
  0
LINE
  5
1AEAD
330
1A
100
AcDbEntity
  8
_2-4_PARTS
  6
CONTINUOUS
 62
     7
100
AcDbLine
 10
-1585.081631401917
 20
1871.859545733995
 30
0.0
 11
-1585.381631401916
 21
1871.859545733995
 31
0.0
  0
LINE
  5
1AEAE
330
1A
100
AcDbEntity
  8
_2-4_PARTS
  6
CONTINUOUS
 62
     7
100
AcDbLine
 10
-1580.981631401916
 20
1867.359545733995
 30
0.0
 11
-1580.981631401916
 21
1868.459545733995
 31
0.0
  0
LINE
  5
1AEAF
330
1A
100
AcDbEntity
  8
_2-4_PARTS
  6
CONTINUOUS
 62
     7
100
AcDbLine
 10
-1579.481631401917
 20
1867.359545733995
 30
0.0
 11
-1579.481631401917
 21
1868.459545733995
 31
0.0
  0
LINE
  5
1AEB0
330
1A
100
AcDbEntity
  8
_2-4_PARTS
  6
CONTINUOUS
 62
     7
100
AcDbLine
 10
-1578.481631401916
 20
1867.359545733995
 30
0.0
 11
-1578.481631401916
 21
1868.459545733995
 31
0.0
  0
LINE
  5
1AEB1
330
1A
100
AcDbEntity
  8
_2-4_PARTS
  6
CONTINUOUS
 62
     7
100
AcDbLine
 10
-1576.981631401917
 20
1867.359545733995
 30
0.0
 11
-1576.981631401917
 21
1868.459545733995
 31
0.0
  0
LINE
  5
1AEB2
330
1A
100
AcDbEntity
  8
_2-4_PARTS
  6
CONTINUOUS
 62
     7
100
AcDbLine
 10
-1575.981631401917
 20
1867.359545733995
 30
0.0
 11
-1575.981631401917
 21
1868.459545733995
 31
0.0
  0
LINE
  5
1AEB3
330
1A
100
AcDbEntity
  8
_2-4_PARTS
  6
CONTINUOUS
 62
     7
100
AcDbLine
 10
-1576.981631401917
 20
1868.159545733995
 30
0.0
 11
-1578.481631401916
 21
1868.159545733995
 31
0.0
  0
LINE
  5
1AEB4
330
1A
100
AcDbEntity
  8
_2-4_PARTS
  6
CONTINUOUS
 62
     7
100
AcDbLine
 10
-1579.481631401917
 20
1868.159545733995
 30
0.0
 11
-1580.981631401916
 21
1868.159545733995
 31
0.0
  0
LINE
  5
1AEB5
330
1A
100
AcDbEntity
  8
_2-4_PARTS
  6
CONTINUOUS
 62
     7
100
AcDbLine
 10
-1577.431631401917
 20
1870.059545733995
 30
0.0
 11
-1577.431631401917
 21
1871.359545733995
 31
0.0
  0
LINE
  5
1AEB6
330
1A
100
AcDbEntity
  8
_2-4_PARTS
  6
CONTINUOUS
 62
     7
100
AcDbLine
 10
-1578.031631401916
 20
1870.059545733995
 30
0.0
 11
-1578.031631401916
 21
1871.359545733995
 31
0.0
  0
LINE
  5
1AEB7
330
1A
100
AcDbEntity
  8
_2-4_PARTS
  6
CONTINUOUS
 62
     7
100
AcDbLine
 10
-1579.931631401916
 20
1870.059545733995
 30
0.0
 11
-1579.931631401916
 21
1871.359545733995
 31
0.0
  0
LINE
  5
1AEB8
330
1A
100
AcDbEntity
  8
_2-4_PARTS
  6
CONTINUOUS
 62
     7
100
AcDbLine
 10
-1580.531631401917
 20
1870.059545733995
 30
0.0
 11
-1580.531631401917
 21
1871.359545733995
 31
0.0
  0
LINE
  5
1AEB9
330
1A
100
AcDbEntity
  8
_2-4_PARTS
  6
CONTINUOUS
 62
     7
100
AcDbLine
 10
-1580.381631401917
 20
1871.859545733995
 30
0.0
 11
-1580.531631401917
 21
1871.359545733995
 31
0.0
  0
LINE
  5
1AEBA
330
1A
100
AcDbEntity
  8
_2-4_PARTS
  6
CONTINUOUS
 62
     7
100
AcDbLine
 10
-1580.081631401917
 20
1871.859545733995
 30
0.0
 11
-1579.931631401916
 21
1871.359545733995
 31
0.0
  0
LINE
  5
1AEBB
330
1A
100
AcDbEntity
  8
_2-4_PARTS
  6
CONTINUOUS
 62
     7
100
AcDbLine
 10
-1580.081631401917
 20
1871.859545733995
 30
0.0
 11
-1580.381631401917
 21
1871.859545733995
 31
0.0
  0
LINE
  5
1AEBC
330
1A
100
AcDbEntity
  8
_2-4_PARTS
  6
CONTINUOUS
 62
     7
100
AcDbLine
 10
-1578.481631401916
 20
1868.459545733995
 30
0.0
 11
-1579.481631401917
 21
1868.459545733995
 31
0.0
  0
LINE
  5
1AEBD
330
1A
100
AcDbEntity
  8
_2-4_PARTS
  6
CONTINUOUS
 62
     7
100
AcDbLine
 10
-1577.881631401917
 20
1871.859545733995
 30
0.0
 11
-1578.031631401916
 21
1871.359545733995
 31
0.0
  0
LINE
  5
1AEBE
330
1A
100
AcDbEntity
  8
_2-4_PARTS
  6
CONTINUOUS
 62
     7
100
AcDbLine
 10
-1577.581631401916
 20
1871.859545733995
 30
0.0
 11
-1577.431631401917
 21
1871.359545733995
 31
0.0
  0
LINE
  5
1AEBF
330
1A
100
AcDbEntity
  8
_2-4_PARTS
  6
CONTINUOUS
 62
     7
100
AcDbLine
 10
-1577.581631401916
 20
1871.859545733995
 30
0.0
 11
-1577.881631401917
 21
1871.859545733995
 31
0.0
  0
LINE
  5
1AEC0
330
1A
100
AcDbEntity
  8
_2-4_PARTS
  6
CONTINUOUS
 62
     7
100
AcDbLine
 10
-1574.931631401916
 20
1870.059545733995
 30
0.0
 11
-1574.931631401916
 21
1871.359545733995
 31
0.0
  0
LINE
  5
1AEC1
330
1A
100
AcDbEntity
  8
_2-4_PARTS
  6
CONTINUOUS
 62
     7
100
AcDbLine
 10
-1575.531631401917
 20
1870.059545733995
 30
0.0
 11
-1575.531631401917
 21
1871.359545733995
 31
0.0
  0
LINE
  5
1AEC2
330
1A
100
AcDbEntity
  8
_2-4_PARTS
  6
CONTINUOUS
 62
     7
100
AcDbLine
 10
-1575.981631401917
 20
1868.459545733995
 30
0.0
 11
-1576.981631401917
 21
1868.459545733995
 31
0.0
  0
LINE
  5
1AEC3
330
1A
100
AcDbEntity
  8
_2-4_PARTS
  6
CONTINUOUS
 62
     7
100
AcDbLine
 10
-1575.381631401916
 20
1871.859545733995
 30
0.0
 11
-1575.531631401917
 21
1871.359545733995
 31
0.0
  0
LINE
  5
1AEC4
330
1A
100
AcDbEntity
  8
_2-4_PARTS
  6
CONTINUOUS
 62
     7
100
AcDbLine
 10
-1575.081631401916
 20
1871.859545733995
 30
0.0
 11
-1574.931631401916
 21
1871.359545733995
 31
0.0
  0
LINE
  5
1AEC5
330
1A
100
AcDbEntity
  8
_2-4_PARTS
  6
CONTINUOUS
 62
     7
100
AcDbLine
 10
-1575.081631401916
 20
1871.859545733995
 30
0.0
 11
-1575.381631401916
 21
1871.859545733995
 31
0.0
  0
LINE
  5
1AEC6
330
1A
100
AcDbEntity
  8
_2-4_PARTS
  6
CONTINUOUS
 62
     7
100
AcDbLine
 10
-1574.481631401916
 20
1868.159545733995
 30
0.0
 11
-1575.981631401917
 21
1868.159545733995
 31
0.0
  0
DIMENSION
  5
1AEC7
330
1A
100
AcDbEntity
  8
SUNPOU
100
AcDbDimension
  2
*D39
 10
-1504.481631401917
 20
1766.22872392717
 30
0.0
 11
-1498.74448103997
 21
1769.110459100018
 31
0.0
 70
   160
  3
標準スタイル
100
AcDbAlignedDimension
 13
-1507.981631401916
 23
1781.280136297474
 33
0.0
 14
-1504.481631401917
 24
1779.780136297474
 34
0.0
100
AcDbRotatedDimension
1001
ACAD
1000
DSTYLE
1002
{
1070
   287
1070
     5
1070
    40
1040
1.0
1070
   279
1070
     2
1070
   340
1005
10
1002
}
  0
LINE
  5
1AEC8
330
1A
100
AcDbEntity
  8
ZISSEN1
100
AcDbLine
 10
-1504.481631401917
 20
1836.780136297474
 30
0.0
 11
-1504.481631401917
 21
1780.780136297474
 31
0.0
  0
CIRCLE
  5
1AEC9
330
1A
100
AcDbEntity
  8
_2-4_PARTS
  6
CONTINUOUS
 62
     7
100
AcDbCircle
 10
-1523.381631401917
 20
1797.028250202799
 30
0.0
 40
5.0
  0
LINE
  5
1AECA
330
1A
100
AcDbEntity
  8
_2-4_PARTS
  6
CONTINUOUS
 62
     7
100
AcDbLine
 10
-1528.531631401916
 20
1792.878250202799
 30
0.0
 11
-1528.531631401916
 21
1802.178250202799
 31
0.0
  0
CIRCLE
  5
1AECB
330
1A
100
AcDbEntity
  8
_2-4_PARTS
  6
CONTINUOUS
 62
     7
100
AcDbCircle
 10
-1512.481631401917
 20
1797.028250202799
 30
0.0
 40
5.0
  0
LINE
  5
1AECC
330
1A
100
AcDbEntity
  8
_2-4_PARTS
  6
CONTINUOUS
 62
     7
100
AcDbLine
 10
-1517.631631401916
 20
1792.878250202799
 30
0.0
 11
-1517.631631401916
 21
1802.178250202799
 31
0.0
  0
LINE
  5
1AECD
330
1A
100
AcDbEntity
  8
_2-4_PARTS
  6
CONTINUOUS
 62
     7
100
AcDbLine
 10
-1518.231631401916
 20
1792.878250202799
 30
0.0
 11
-1518.231631401916
 21
1802.178250202799
 31
0.0
  0
LINE
  5
1AECE
330
1A
100
AcDbEntity
  8
_2-4_PARTS
  6
CONTINUOUS
 62
     7
100
AcDbLine
 10
-1507.331631401916
 20
1792.878250202799
 30
0.0
 11
-1507.331631401916
 21
1802.178250202799
 31
0.0
  0
LINE
  5
1AECF
330
1A
100
AcDbEntity
  8
_2-4_PARTS
  6
CONTINUOUS
 62
     7
100
AcDbLine
 10
-1527.531631401916
 20
1791.878250202799
 30
0.0
 11
-1519.231631401916
 21
1791.878250202799
 31
0.0
  0
LINE
  5
1AED0
330
1A
100
AcDbEntity
  8
_2-4_PARTS
  6
CONTINUOUS
 62
     7
100
AcDbLine
 10
-1522.931631401917
 20
1791.878250202799
 30
0.0
 11
-1522.931631401917
 21
1791.528250202799
 31
0.0
  0
LINE
  5
1AED1
330
1A
100
AcDbEntity
  8
_2-4_PARTS
  6
CONTINUOUS
 62
     7
100
AcDbLine
 10
-1523.831631401916
 20
1791.878250202799
 30
0.0
 11
-1523.831631401916
 21
1791.528250202799
 31
0.0
  0
LINE
  5
1AED2
330
1A
100
AcDbEntity
  8
_2-4_PARTS
  6
CONTINUOUS
 62
     7
100
AcDbLine
 10
-1522.931631401917
 20
1791.528250202799
 30
0.0
 11
-1523.831631401916
 21
1791.528250202799
 31
0.0
  0
LINE
  5
1AED3
330
1A
100
AcDbEntity
  8
_2-4_PARTS
  6
CONTINUOUS
 62
     7
100
AcDbLine
 10
-1527.531631401916
 20
1791.878250202799
 30
0.0
 11
-1528.531631401916
 21
1792.878250202799
 31
0.0
  0
ARC
  5
1AED4
330
1A
100
AcDbEntity
  8
ZISSEN1
100
AcDbCircle
 10
-1504.481631401917
 20
1779.780136297474
 30
0.0
 40
1.0
100
AcDbArc
 50
90.0
 51
180.0
  0
LINE
  5
1AED5
330
1A
100
AcDbEntity
  8
CL1
100
AcDbLine
 10
-1507.981631401916
 20
1781.280136297474
 30
0.0
 11
-1507.981631401916
 21
1785.280136297474
 31
0.0
  0
LINE
  5
1AED6
330
1A
100
AcDbEntity
  8
_2-4_PARTS
  6
CONTINUOUS
 62
     7
100
AcDbLine
 10
-1516.631631401916
 20
1791.878250202799
 30
0.0
 11
-1517.631631401916
 21
1792.878250202799
 31
0.0
  0
LINE
  5
1AED7
330
1A
100
AcDbEntity
  8
_2-4_PARTS
  6
CONTINUOUS
 62
     7
100
AcDbLine
 10
-1518.231631401916
 20
1792.878250202799
 30
0.0
 11
-1519.231631401916
 21
1791.878250202799
 31
0.0
  0
LINE
  5
1AED8
330
1A
100
AcDbEntity
  8
_2-4_PARTS
  6
CONTINUOUS
 62
     7
100
AcDbLine
 10
-1516.631631401916
 20
1791.878250202799
 30
0.0
 11
-1508.331631401917
 21
1791.878250202799
 31
0.0
  0
LINE
  5
1AED9
330
1A
100
AcDbEntity
  8
_2-4_PARTS
  6
CONTINUOUS
 62
     7
100
AcDbLine
 10
-1512.031631401916
 20
1791.528250202799
 30
0.0
 11
-1512.931631401916
 21
1791.528250202799
 31
0.0
  0
LINE
  5
1AEDA
330
1A
100
AcDbEntity
  8
_2-4_PARTS
  6
CONTINUOUS
 62
     7
100
AcDbLine
 10
-1512.031631401916
 20
1791.878250202799
 30
0.0
 11
-1512.031631401916
 21
1791.528250202799
 31
0.0
  0
LINE
  5
1AEDB
330
1A
100
AcDbEntity
  8
_2-4_PARTS
  6
CONTINUOUS
 62
     7
100
AcDbLine
 10
-1512.931631401916
 20
1791.878250202799
 30
0.0
 11
-1512.931631401916
 21
1791.528250202799
 31
0.0
  0
CIRCLE
  5
1AEDC
330
1A
100
AcDbEntity
  8
ZISSEN1
100
AcDbCircle
 10
-1507.981631401916
 20
1783.280136297474
 30
0.0
 40
1.75
  0
LINE
  5
1AEDD
330
1A
100
AcDbEntity
  8
CL1
100
AcDbLine
 10
-1505.981631401916
 20
1783.280136297474
 30
0.0
 11
-1509.981631401917
 21
1783.280136297474
 31
0.0
  0
LINE
  5
1AEDE
330
1A
100
AcDbEntity
  8
_2-4_PARTS
  6
CONTINUOUS
 62
     7
100
AcDbLine
 10
-1507.331631401916
 20
1792.878250202799
 30
0.0
 11
-1508.331631401917
 21
1791.878250202799
 31
0.0
  0
LINE
  5
1AEDF
330
1A
100
AcDbEntity
  8
_2-4_PARTS
  6
CONTINUOUS
 62
     7
100
AcDbLine
 10
-1530.911631401916
 20
1826.680136297474
 30
0.0
 11
-1548.051631401917
 21
1826.680136297474
 31
0.0
  0
LINE
  5
1AEE0
330
1A
100
AcDbEntity
  8
_2-4_PARTS
  6
CONTINUOUS
 62
     7
100
AcDbLine
 10
-1530.911631401916
 20
1825.980136297474
 30
0.0
 11
-1548.051631401917
 21
1825.980136297474
 31
0.0
  0
LINE
  5
1AEE1
330
1A
100
AcDbEntity
  8
_2-4_PARTS
  6
CONTINUOUS
 62
     7
100
AcDbLine
 10
-1530.911631401916
 20
1828.080136297474
 30
0.0
 11
-1548.051631401917
 21
1828.080136297474
 31
0.0
  0
LINE
  5
1AEE2
330
1A
100
AcDbEntity
  8
_2-4_PARTS
  6
CONTINUOUS
 62
     7
100
AcDbLine
 10
-1529.611631401917
 20
1834.480136297474
 30
0.0
 11
-1549.351631401917
 21
1834.480136297474
 31
0.0
  0
LINE
  5
1AEE3
330
1A
100
AcDbEntity
  8
_2-4_PARTS
  6
CONTINUOUS
 62
     7
100
AcDbLine
 10
-1529.611631401917
 20
1828.780136297474
 30
0.0
 11
-1549.351631401917
 21
1828.780136297474
 31
0.0
  0
LINE
  5
1AEE4
330
1A
100
AcDbEntity
  8
_2-4_PARTS
  6
CONTINUOUS
 62
     7
100
AcDbLine
 10
-1556.131631401916
 20
1828.880136297474
 30
0.0
 11
-1557.631631401917
 21
1828.880136297474
 31
0.0
  0
LINE
  5
1AEE5
330
1A
100
AcDbEntity
  8
_2-4_PARTS
  6
CONTINUOUS
 62
     7
100
AcDbLine
 10
-1557.631631401917
 20
1829.080136297474
 30
0.0
 11
-1557.631631401917
 21
1828.180136297474
 31
0.0
  0
LINE
  5
1AEE6
330
1A
100
AcDbEntity
  8
_2-4_PARTS
  6
CONTINUOUS
 62
     7
100
AcDbLine
 10
-1557.131631401917
 20
1829.580136297474
 30
0.0
 11
-1557.131631401917
 21
1828.880136297474
 31
0.0
  0
LINE
  5
1AEE7
330
1A
100
AcDbEntity
  8
_2-4_PARTS
  6
CONTINUOUS
 62
     7
100
AcDbLine
 10
-1556.131631401916
 20
1834.180136297474
 30
0.0
 11
-1556.131631401916
 21
1828.880136297474
 31
0.0
  0
LINE
  5
1AEE8
330
1A
100
AcDbEntity
  8
_2-4_PARTS
  6
CONTINUOUS
 62
     7
100
AcDbLine
 10
-1555.281631401917
 20
1828.180136297474
 30
0.0
 11
-1555.281631401917
 21
1834.880136297473
 31
0.0
  0
LINE
  5
1AEE9
330
1A
100
AcDbEntity
  8
_2-4_PARTS
  6
CONTINUOUS
 62
     7
100
AcDbLine
 10
-1555.281631401917
 20
1834.580136297474
 30
0.0
 11
-1555.281631401917
 21
1834.880136297473
 31
0.0
  0
CIRCLE
  5
1AEEA
330
1A
100
AcDbEntity
  8
_2-4_PARTS
  6
CONTINUOUS
 62
     7
100
AcDbCircle
 10
-1565.231631401917
 20
1831.480136297474
 30
0.0
 40
0.25
  0
CIRCLE
  5
1AEEB
330
1A
100
AcDbEntity
  8
_2-4_PARTS
  6
CONTINUOUS
 62
     7
100
AcDbCircle
 10
-1567.731631401916
 20
1831.480136297474
 30
0.0
 40
0.25
  0
LINE
  5
1AEEC
330
1A
100
AcDbEntity
  8
_2-4_PARTS
  6
CONTINUOUS
 62
     7
100
AcDbLine
 10
-1567.031631401917
 20
1829.080136297474
 30
0.0
 11
-1567.031631401917
 21
1828.180136297474
 31
0.0
  0
LINE
  5
1AEED
330
1A
100
AcDbEntity
  8
_2-4_PARTS
  6
CONTINUOUS
 62
     7
100
AcDbLine
 10
-1568.931631401916
 20
1829.080136297474
 30
0.0
 11
-1568.931631401916
 21
1828.180136297474
 31
0.0
  0
LINE
  5
1AEEE
330
1A
100
AcDbEntity
  8
_2-4_PARTS
  6
CONTINUOUS
 62
     7
100
AcDbLine
 10
-1568.731631401917
 20
1829.080136297474
 30
0.0
 11
-1568.731631401917
 21
1828.480136297474
 31
0.0
  0
LINE
  5
1AEEF
330
1A
100
AcDbEntity
  8
_2-4_PARTS
  6
CONTINUOUS
 62
     7
100
AcDbLine
 10
-1567.231631401917
 20
1829.080136297474
 30
0.0
 11
-1567.231631401917
 21
1828.480136297474
 31
0.0
  0
LINE
  5
1AEF0
330
1A
100
AcDbEntity
  8
_2-4_PARTS
  6
CONTINUOUS
 62
     7
100
AcDbLine
 10
-1567.231631401917
 20
1828.480136297474
 30
0.0
 11
-1568.731631401917
 21
1828.480136297474
 31
0.0
  0
CIRCLE
  5
1AEF1
330
1A
100
AcDbEntity
  8
_2-4_PARTS
  6
CONTINUOUS
 62
     7
100
AcDbCircle
 10
-1562.731631401917
 20
1831.480136297474
 30
0.0
 40
0.25
  0
CIRCLE
  5
1AEF2
330
1A
100
AcDbEntity
  8
_2-4_PARTS
  6
CONTINUOUS
 62
     7
100
AcDbCircle
 10
-1560.231631401917
 20
1831.480136297474
 30
0.0
 40
0.25
  0
LINE
  5
1AEF3
330
1A
100
AcDbEntity
  8
_2-4_PARTS
  6
CONTINUOUS
 62
     7
100
AcDbLine
 10
-1555.281631401917
 20
1828.180136297474
 30
0.0
 11
-1567.031631401917
 21
1828.180136297474
 31
0.0
  0
CIRCLE
  5
1AEF4
330
1A
100
AcDbEntity
  8
_2-4_PARTS
  6
CONTINUOUS
 62
     7
100
AcDbCircle
 10
-1557.731631401916
 20
1831.480136297474
 30
0.0
 40
0.25
  0
LINE
  5
1AEF5
330
1A
100
AcDbEntity
  8
_2-4_PARTS
  6
CONTINUOUS
 62
     7
100
AcDbLine
 10
-1539.211631401916
 20
1830.510136297474
 30
0.0
 11
-1539.751631401917
 21
1830.510136297474
 31
0.0
  0
LINE
  5
1AEF6
330
1A
100
AcDbEntity
  8
_2-4_PARTS
  6
CONTINUOUS
 62
     7
100
AcDbLine
 10
-1539.211631401916
 20
1830.510136297474
 30
0.0
 11
-1538.911631401916
 21
1830.210136297474
 31
0.0
  0
LINE
  5
1AEF7
330
1A
100
AcDbEntity
  8
_2-4_PARTS
  6
CONTINUOUS
 62
     7
100
AcDbLine
 10
-1539.211631401916
 20
1831.050136297474
 30
0.0
 11
-1538.911631401916
 21
1831.350136297474
 31
0.0
  0
LINE
  5
1AEF8
330
1A
100
AcDbEntity
  8
_2-4_PARTS
  6
CONTINUOUS
 62
     7
100
AcDbLine
 10
-1540.051631401917
 20
1831.350136297474
 30
0.0
 11
-1539.751631401917
 21
1831.050136297474
 31
0.0
  0
LINE
  5
1AEF9
330
1A
100
AcDbEntity
  8
_2-4_PARTS
  6
CONTINUOUS
 62
     7
100
AcDbLine
 10
-1540.051631401917
 20
1830.210136297474
 30
0.0
 11
-1539.751631401917
 21
1830.510136297474
 31
0.0
  0
LINE
  5
1AEFA
330
1A
100
AcDbEntity
  8
_2-4_PARTS
  6
CONTINUOUS
 62
     7
100
AcDbLine
 10
-1539.751631401917
 20
1830.510136297474
 30
0.0
 11
-1539.751631401917
 21
1831.050136297474
 31
0.0
  0
LINE
  5
1AEFB
330
1A
100
AcDbEntity
  8
_2-4_PARTS
  6
CONTINUOUS
 62
     7
100
AcDbLine
 10
-1539.751631401917
 20
1831.050136297474
 30
0.0
 11
-1539.211631401916
 21
1831.050136297474
 31
0.0
  0
LINE
  5
1AEFC
330
1A
100
AcDbEntity
  8
_2-4_PARTS
  6
CONTINUOUS
 62
     7
100
AcDbLine
 10
-1539.211631401916
 20
1831.050136297474
 30
0.0
 11
-1539.211631401916
 21
1830.510136297474
 31
0.0
  0
LINE
  5
1AEFD
330
1A
100
AcDbEntity
  8
_2-4_PARTS
  6
CONTINUOUS
 62
     7
100
AcDbLine
 10
-1540.051631401917
 20
1830.210136297474
 30
0.0
 11
-1540.051631401917
 21
1831.350136297474
 31
0.0
  0
LINE
  5
1AEFE
330
1A
100
AcDbEntity
  8
_2-4_PARTS
  6
CONTINUOUS
 62
     7
100
AcDbLine
 10
-1538.911631401916
 20
1830.210136297474
 30
0.0
 11
-1540.051631401917
 21
1830.210136297474
 31
0.0
  0
LINE
  5
1AEFF
330
1A
100
AcDbEntity
  8
_2-4_PARTS
  6
CONTINUOUS
 62
     7
100
AcDbLine
 10
-1538.911631401916
 20
1831.350136297474
 30
0.0
 11
-1538.911631401916
 21
1830.210136297474
 31
0.0
  0
LINE
  5
1AF00
330
1A
100
AcDbEntity
  8
_2-4_PARTS
  6
CONTINUOUS
 62
     7
100
AcDbLine
 10
-1540.051631401917
 20
1831.350136297474
 30
0.0
 11
-1538.911631401916
 21
1831.350136297474
 31
0.0
  0
LINE
  5
1AF01
330
1A
100
AcDbEntity
  8
_2-4_PARTS
  6
CONTINUOUS
 62
     7
100
AcDbLine
 10
-1548.051631401917
 20
1828.780136297474
 30
0.0
 11
-1548.051631401917
 21
1825.980136297474
 31
0.0
  0
LINE
  5
1AF02
330
1A
100
AcDbEntity
  8
_2-4_PARTS
  6
CONTINUOUS
 62
     7
100
AcDbLine
 10
-1549.351631401917
 20
1828.780136297474
 30
0.0
 11
-1549.351631401917
 21
1834.480136297474
 31
0.0
  0
LINE
  5
1AF03
330
1A
100
AcDbEntity
  8
_2-4_PARTS
  6
CONTINUOUS
 62
     7
100
AcDbLine
 10
-1547.131631401916
 20
1830.510136297474
 30
0.0
 11
-1546.831631401917
 21
1830.210136297474
 31
0.0
  0
LINE
  5
1AF04
330
1A
100
AcDbEntity
  8
_2-4_PARTS
  6
CONTINUOUS
 62
     7
100
AcDbLine
 10
-1547.131631401916
 20
1831.050136297474
 30
0.0
 11
-1546.831631401917
 21
1831.350136297474
 31
0.0
  0
LINE
  5
1AF05
330
1A
100
AcDbEntity
  8
_2-4_PARTS
  6
CONTINUOUS
 62
     7
100
AcDbLine
 10
-1547.971631401916
 20
1831.350136297474
 30
0.0
 11
-1547.671631401916
 21
1831.050136297474
 31
0.0
  0
LINE
  5
1AF06
330
1A
100
AcDbEntity
  8
_2-4_PARTS
  6
CONTINUOUS
 62
     7
100
AcDbLine
 10
-1547.971631401916
 20
1830.210136297474
 30
0.0
 11
-1547.671631401916
 21
1830.510136297474
 31
0.0
  0
LINE
  5
1AF07
330
1A
100
AcDbEntity
  8
_2-4_PARTS
  6
CONTINUOUS
 62
     7
100
AcDbLine
 10
-1547.671631401916
 20
1830.510136297474
 30
0.0
 11
-1547.671631401916
 21
1831.050136297474
 31
0.0
  0
LINE
  5
1AF08
330
1A
100
AcDbEntity
  8
_2-4_PARTS
  6
CONTINUOUS
 62
     7
100
AcDbLine
 10
-1547.671631401916
 20
1831.050136297474
 30
0.0
 11
-1547.131631401916
 21
1831.050136297474
 31
0.0
  0
LINE
  5
1AF09
330
1A
100
AcDbEntity
  8
_2-4_PARTS
  6
CONTINUOUS
 62
     7
100
AcDbLine
 10
-1547.131631401916
 20
1830.510136297474
 30
0.0
 11
-1547.671631401916
 21
1830.510136297474
 31
0.0
  0
LINE
  5
1AF0A
330
1A
100
AcDbEntity
  8
_2-4_PARTS
  6
CONTINUOUS
 62
     7
100
AcDbLine
 10
-1547.131631401916
 20
1831.050136297474
 30
0.0
 11
-1547.131631401916
 21
1830.510136297474
 31
0.0
  0
LINE
  5
1AF0B
330
1A
100
AcDbEntity
  8
_2-4_PARTS
  6
CONTINUOUS
 62
     7
100
AcDbLine
 10
-1547.971631401916
 20
1830.210136297474
 30
0.0
 11
-1547.971631401916
 21
1831.350136297474
 31
0.0
  0
LINE
  5
1AF0C
330
1A
100
AcDbEntity
  8
_2-4_PARTS
  6
CONTINUOUS
 62
     7
100
AcDbLine
 10
-1546.831631401917
 20
1830.210136297474
 30
0.0
 11
-1547.971631401916
 21
1830.210136297474
 31
0.0
  0
LINE
  5
1AF0D
330
1A
100
AcDbEntity
  8
_2-4_PARTS
  6
CONTINUOUS
 62
     7
100
AcDbLine
 10
-1546.831631401917
 20
1831.350136297474
 30
0.0
 11
-1546.831631401917
 21
1830.210136297474
 31
0.0
  0
LINE
  5
1AF0E
330
1A
100
AcDbEntity
  8
_2-4_PARTS
  6
CONTINUOUS
 62
     7
100
AcDbLine
 10
-1547.971631401916
 20
1831.350136297474
 30
0.0
 11
-1546.831631401917
 21
1831.350136297474
 31
0.0
  0
LINE
  5
1AF0F
330
1A
100
AcDbEntity
  8
_2-4_PARTS
  6
CONTINUOUS
 62
     7
100
AcDbLine
 10
-1543.171631401916
 20
1830.510136297474
 30
0.0
 11
-1542.871631401917
 21
1830.210136297474
 31
0.0
  0
LINE
  5
1AF10
330
1A
100
AcDbEntity
  8
_2-4_PARTS
  6
CONTINUOUS
 62
     7
100
AcDbLine
 10
-1543.171631401916
 20
1831.050136297474
 30
0.0
 11
-1542.871631401917
 21
1831.350136297474
 31
0.0
  0
LINE
  5
1AF11
330
1A
100
AcDbEntity
  8
_2-4_PARTS
  6
CONTINUOUS
 62
     7
100
AcDbLine
 10
-1544.011631401916
 20
1831.350136297474
 30
0.0
 11
-1543.711631401916
 21
1831.050136297474
 31
0.0
  0
LINE
  5
1AF12
330
1A
100
AcDbEntity
  8
_2-4_PARTS
  6
CONTINUOUS
 62
     7
100
AcDbLine
 10
-1544.011631401916
 20
1830.210136297474
 30
0.0
 11
-1543.711631401916
 21
1830.510136297474
 31
0.0
  0
LINE
  5
1AF13
330
1A
100
AcDbEntity
  8
_2-4_PARTS
  6
CONTINUOUS
 62
     7
100
AcDbLine
 10
-1543.711631401916
 20
1830.510136297474
 30
0.0
 11
-1543.711631401916
 21
1831.050136297474
 31
0.0
  0
LINE
  5
1AF14
330
1A
100
AcDbEntity
  8
_2-4_PARTS
  6
CONTINUOUS
 62
     7
100
AcDbLine
 10
-1543.711631401916
 20
1831.050136297474
 30
0.0
 11
-1543.171631401916
 21
1831.050136297474
 31
0.0
  0
LINE
  5
1AF15
330
1A
100
AcDbEntity
  8
_2-4_PARTS
  6
CONTINUOUS
 62
     7
100
AcDbLine
 10
-1543.171631401916
 20
1830.510136297474
 30
0.0
 11
-1543.711631401916
 21
1830.510136297474
 31
0.0
  0
LINE
  5
1AF16
330
1A
100
AcDbEntity
  8
_2-4_PARTS
  6
CONTINUOUS
 62
     7
100
AcDbLine
 10
-1543.171631401916
 20
1831.050136297474
 30
0.0
 11
-1543.171631401916
 21
1830.510136297474
 31
0.0
  0
LINE
  5
1AF17
330
1A
100
AcDbEntity
  8
_2-4_PARTS
  6
CONTINUOUS
 62
     7
100
AcDbLine
 10
-1544.011631401916
 20
1830.210136297474
 30
0.0
 11
-1544.011631401916
 21
1831.350136297474
 31
0.0
  0
LINE
  5
1AF18
330
1A
100
AcDbEntity
  8
_2-4_PARTS
  6
CONTINUOUS
 62
     7
100
AcDbLine
 10
-1542.871631401917
 20
1830.210136297474
 30
0.0
 11
-1544.011631401916
 21
1830.210136297474
 31
0.0
  0
LINE
  5
1AF19
330
1A
100
AcDbEntity
  8
_2-4_PARTS
  6
CONTINUOUS
 62
     7
100
AcDbLine
 10
-1542.871631401917
 20
1831.350136297474
 30
0.0
 11
-1542.871631401917
 21
1830.210136297474
 31
0.0
  0
LINE
  5
1AF1A
330
1A
100
AcDbEntity
  8
_2-4_PARTS
  6
CONTINUOUS
 62
     7
100
AcDbLine
 10
-1544.011631401916
 20
1831.350136297474
 30
0.0
 11
-1542.871631401917
 21
1831.350136297474
 31
0.0
  0
CIRCLE
  5
1AF1B
330
1A
100
AcDbEntity
  8
ZISSEN1
100
AcDbCircle
 10
-1507.981631401916
 20
1834.280136297474
 30
0.0
 40
1.75
  0
LINE
  5
1AF1C
330
1A
100
AcDbEntity
  8
CL1
100
AcDbLine
 10
-1507.981631401916
 20
1832.280136297474
 30
0.0
 11
-1507.981631401916
 21
1836.280136297474
 31
0.0
  0
LINE
  5
1AF1D
330
1A
100
AcDbEntity
  8
_2-4_PARTS
  6
CONTINUOUS
 62
     7
100
AcDbLine
 10
-1523.611631401917
 20
1826.680136297474
 30
0.0
 11
-1518.351631401916
 21
1826.680136297474
 31
0.0
  0
LINE
  5
1AF1E
330
1A
100
AcDbEntity
  8
_2-4_PARTS
  6
CONTINUOUS
 62
     7
100
AcDbLine
 10
-1523.611631401917
 20
1825.980136297474
 30
0.0
 11
-1518.351631401916
 21
1825.980136297474
 31
0.0
  0
LINE
  5
1AF1F
330
1A
100
AcDbEntity
  8
_2-4_PARTS
  6
CONTINUOUS
 62
     7
100
AcDbLine
 10
-1523.611631401917
 20
1828.080136297474
 30
0.0
 11
-1518.351631401916
 21
1828.080136297474
 31
0.0
  0
LINE
  5
1AF20
330
1A
100
AcDbEntity
  8
_2-4_PARTS
  6
CONTINUOUS
 62
     7
100
AcDbLine
 10
-1518.431631401917
 20
1831.350136297474
 30
0.0
 11
-1519.571631401916
 21
1831.350136297474
 31
0.0
  0
LINE
  5
1AF21
330
1A
100
AcDbEntity
  8
_2-4_PARTS
  6
CONTINUOUS
 62
     7
100
AcDbLine
 10
-1519.571631401916
 20
1830.210136297474
 30
0.0
 11
-1518.431631401917
 21
1830.210136297474
 31
0.0
  0
LINE
  5
1AF22
330
1A
100
AcDbEntity
  8
_2-4_PARTS
  6
CONTINUOUS
 62
     7
100
AcDbLine
 10
-1519.271631401917
 20
1831.050136297474
 30
0.0
 11
-1519.571631401916
 21
1831.350136297474
 31
0.0
  0
LINE
  5
1AF23
330
1A
100
AcDbEntity
  8
_2-4_PARTS
  6
CONTINUOUS
 62
     7
100
AcDbLine
 10
-1519.271631401917
 20
1830.510136297474
 30
0.0
 11
-1519.571631401916
 21
1830.210136297474
 31
0.0
  0
LINE
  5
1AF24
330
1A
100
AcDbEntity
  8
_2-4_PARTS
  6
CONTINUOUS
 62
     7
100
AcDbLine
 10
-1518.231631401916
 20
1802.178250202799
 30
0.0
 11
-1528.531631401916
 21
1802.178250202799
 31
0.0
  0
LINE
  5
1AF25
330
1A
100
AcDbEntity
  8
_2-4_PARTS
  6
CONTINUOUS
 62
     7
100
AcDbLine
 10
-1517.051631401916
 20
1834.480136297474
 30
0.0
 11
-1524.911631401916
 21
1834.480136297474
 31
0.0
  0
LINE
  5
1AF26
330
1A
100
AcDbEntity
  8
_2-4_PARTS
  6
CONTINUOUS
 62
     7
100
AcDbLine
 10
-1524.911631401916
 20
1828.780136297474
 30
0.0
 11
-1517.051631401916
 21
1828.780136297474
 31
0.0
  0
LINE
  5
1AF27
330
1A
100
AcDbEntity
  8
_2-4_PARTS
  6
CONTINUOUS
 62
     7
100
AcDbLine
 10
-1522.931631401917
 20
1802.528250202799
 30
0.0
 11
-1522.931631401917
 21
1802.178250202799
 31
0.0
  0
LINE
  5
1AF28
330
1A
100
AcDbEntity
  8
_2-4_PARTS
  6
CONTINUOUS
 62
     7
100
AcDbLine
 10
-1523.831631401916
 20
1802.528250202799
 30
0.0
 11
-1523.831631401916
 21
1802.178250202799
 31
0.0
  0
LINE
  5
1AF29
330
1A
100
AcDbEntity
  8
_2-4_PARTS
  6
CONTINUOUS
 62
     7
100
AcDbLine
 10
-1522.931631401917
 20
1802.528250202799
 30
0.0
 11
-1523.831631401916
 21
1802.528250202799
 31
0.0
  0
LINE
  5
1AF2A
330
1A
100
AcDbEntity
  8
_2-4_PARTS
  6
CONTINUOUS
 62
     7
100
AcDbLine
 10
-1523.611631401917
 20
1825.980136297474
 30
0.0
 11
-1523.611631401917
 21
1828.780136297474
 31
0.0
  0
LINE
  5
1AF2B
330
1A
100
AcDbEntity
  8
_2-4_PARTS
  6
CONTINUOUS
 62
     7
100
AcDbLine
 10
-1522.391631401917
 20
1831.350136297474
 30
0.0
 11
-1523.531631401916
 21
1831.350136297474
 31
0.0
  0
LINE
  5
1AF2C
330
1A
100
AcDbEntity
  8
_2-4_PARTS
  6
CONTINUOUS
 62
     7
100
AcDbLine
 10
-1523.531631401916
 20
1831.350136297474
 30
0.0
 11
-1523.531631401916
 21
1830.210136297474
 31
0.0
  0
LINE
  5
1AF2D
330
1A
100
AcDbEntity
  8
_2-4_PARTS
  6
CONTINUOUS
 62
     7
100
AcDbLine
 10
-1523.531631401916
 20
1830.210136297474
 30
0.0
 11
-1522.391631401917
 21
1830.210136297474
 31
0.0
  0
LINE
  5
1AF2E
330
1A
100
AcDbEntity
  8
_2-4_PARTS
  6
CONTINUOUS
 62
     7
100
AcDbLine
 10
-1522.391631401917
 20
1830.210136297474
 30
0.0
 11
-1522.391631401917
 21
1831.350136297474
 31
0.0
  0
LINE
  5
1AF2F
330
1A
100
AcDbEntity
  8
_2-4_PARTS
  6
CONTINUOUS
 62
     7
100
AcDbLine
 10
-1523.231631401917
 20
1831.050136297474
 30
0.0
 11
-1523.231631401917
 21
1830.510136297474
 31
0.0
  0
LINE
  5
1AF30
330
1A
100
AcDbEntity
  8
_2-4_PARTS
  6
CONTINUOUS
 62
     7
100
AcDbLine
 10
-1523.231631401917
 20
1830.510136297474
 30
0.0
 11
-1522.691631401917
 21
1830.510136297474
 31
0.0
  0
LINE
  5
1AF31
330
1A
100
AcDbEntity
  8
_2-4_PARTS
  6
CONTINUOUS
 62
     7
100
AcDbLine
 10
-1522.691631401917
 20
1831.050136297474
 30
0.0
 11
-1523.231631401917
 21
1831.050136297474
 31
0.0
  0
LINE
  5
1AF32
330
1A
100
AcDbEntity
  8
_2-4_PARTS
  6
CONTINUOUS
 62
     7
100
AcDbLine
 10
-1522.691631401917
 20
1830.510136297474
 30
0.0
 11
-1522.691631401917
 21
1831.050136297474
 31
0.0
  0
LINE
  5
1AF33
330
1A
100
AcDbEntity
  8
_2-4_PARTS
  6
CONTINUOUS
 62
     7
100
AcDbLine
 10
-1522.391631401917
 20
1830.210136297474
 30
0.0
 11
-1522.691631401917
 21
1830.510136297474
 31
0.0
  0
LINE
  5
1AF34
330
1A
100
AcDbEntity
  8
_2-4_PARTS
  6
CONTINUOUS
 62
     7
100
AcDbLine
 10
-1523.231631401917
 20
1830.510136297474
 30
0.0
 11
-1523.531631401916
 21
1830.210136297474
 31
0.0
  0
LINE
  5
1AF35
330
1A
100
AcDbEntity
  8
_2-4_PARTS
  6
CONTINUOUS
 62
     7
100
AcDbLine
 10
-1523.531631401916
 20
1831.350136297474
 30
0.0
 11
-1523.231631401917
 21
1831.050136297474
 31
0.0
  0
LINE
  5
1AF36
330
1A
100
AcDbEntity
  8
_2-4_PARTS
  6
CONTINUOUS
 62
     7
100
AcDbLine
 10
-1522.391631401917
 20
1831.350136297474
 30
0.0
 11
-1522.691631401917
 21
1831.050136297474
 31
0.0
  0
LINE
  5
1AF37
330
1A
100
AcDbEntity
  8
_2-4_PARTS
  6
CONTINUOUS
 62
     7
100
AcDbLine
 10
-1519.571631401916
 20
1831.350136297474
 30
0.0
 11
-1519.571631401916
 21
1830.210136297474
 31
0.0
  0
LINE
  5
1AF38
330
1A
100
AcDbEntity
  8
_2-4_PARTS
  6
CONTINUOUS
 62
     7
100
AcDbLine
 10
-1530.911631401916
 20
1828.780136297474
 30
0.0
 11
-1530.911631401916
 21
1825.980136297474
 31
0.0
  0
LINE
  5
1AF39
330
1A
100
AcDbEntity
  8
_2-4_PARTS
  6
CONTINUOUS
 62
     7
100
AcDbLine
 10
-1535.251631401917
 20
1830.510136297474
 30
0.0
 11
-1534.951631401916
 21
1830.210136297474
 31
0.0
  0
LINE
  5
1AF3A
330
1A
100
AcDbEntity
  8
_2-4_PARTS
  6
CONTINUOUS
 62
     7
100
AcDbLine
 10
-1535.251631401917
 20
1831.050136297474
 30
0.0
 11
-1534.951631401916
 21
1831.350136297474
 31
0.0
  0
LINE
  5
1AF3B
330
1A
100
AcDbEntity
  8
_2-4_PARTS
  6
CONTINUOUS
 62
     7
100
AcDbLine
 10
-1536.091631401917
 20
1831.350136297474
 30
0.0
 11
-1535.791631401917
 21
1831.050136297474
 31
0.0
  0
LINE
  5
1AF3C
330
1A
100
AcDbEntity
  8
_2-4_PARTS
  6
CONTINUOUS
 62
     7
100
AcDbLine
 10
-1536.091631401917
 20
1830.210136297474
 30
0.0
 11
-1535.791631401917
 21
1830.510136297474
 31
0.0
  0
LINE
  5
1AF3D
330
1A
100
AcDbEntity
  8
_2-4_PARTS
  6
CONTINUOUS
 62
     7
100
AcDbLine
 10
-1535.791631401917
 20
1830.510136297474
 30
0.0
 11
-1535.791631401917
 21
1831.050136297474
 31
0.0
  0
LINE
  5
1AF3E
330
1A
100
AcDbEntity
  8
_2-4_PARTS
  6
CONTINUOUS
 62
     7
100
AcDbLine
 10
-1535.791631401917
 20
1831.050136297474
 30
0.0
 11
-1535.251631401917
 21
1831.050136297474
 31
0.0
  0
LINE
  5
1AF3F
330
1A
100
AcDbEntity
  8
_2-4_PARTS
  6
CONTINUOUS
 62
     7
100
AcDbLine
 10
-1535.251631401917
 20
1830.510136297474
 30
0.0
 11
-1535.791631401917
 21
1830.510136297474
 31
0.0
  0
LINE
  5
1AF40
330
1A
100
AcDbEntity
  8
_2-4_PARTS
  6
CONTINUOUS
 62
     7
100
AcDbLine
 10
-1535.251631401917
 20
1831.050136297474
 30
0.0
 11
-1535.251631401917
 21
1830.510136297474
 31
0.0
  0
LINE
  5
1AF41
330
1A
100
AcDbEntity
  8
_2-4_PARTS
  6
CONTINUOUS
 62
     7
100
AcDbLine
 10
-1536.091631401917
 20
1830.210136297474
 30
0.0
 11
-1536.091631401917
 21
1831.350136297474
 31
0.0
  0
LINE
  5
1AF42
330
1A
100
AcDbEntity
  8
_2-4_PARTS
  6
CONTINUOUS
 62
     7
100
AcDbLine
 10
-1534.951631401916
 20
1830.210136297474
 30
0.0
 11
-1536.091631401917
 21
1830.210136297474
 31
0.0
  0
LINE
  5
1AF43
330
1A
100
AcDbEntity
  8
_2-4_PARTS
  6
CONTINUOUS
 62
     7
100
AcDbLine
 10
-1534.951631401916
 20
1831.350136297474
 30
0.0
 11
-1534.951631401916
 21
1830.210136297474
 31
0.0
  0
LINE
  5
1AF44
330
1A
100
AcDbEntity
  8
_2-4_PARTS
  6
CONTINUOUS
 62
     7
100
AcDbLine
 10
-1536.091631401917
 20
1831.350136297474
 30
0.0
 11
-1534.951631401916
 21
1831.350136297474
 31
0.0
  0
LINE
  5
1AF45
330
1A
100
AcDbEntity
  8
_2-4_PARTS
  6
CONTINUOUS
 62
     7
100
AcDbLine
 10
-1524.911631401916
 20
1834.480136297474
 30
0.0
 11
-1524.911631401916
 21
1828.780136297474
 31
0.0
  0
LINE
  5
1AF46
330
1A
100
AcDbEntity
  8
_2-4_PARTS
  6
CONTINUOUS
 62
     7
100
AcDbLine
 10
-1529.611631401917
 20
1834.480136297474
 30
0.0
 11
-1529.611631401917
 21
1828.780136297474
 31
0.0
  0
LINE
  5
1AF47
330
1A
100
AcDbEntity
  8
_2-4_PARTS
  6
CONTINUOUS
 62
     7
100
AcDbLine
 10
-1531.291631401916
 20
1830.510136297474
 30
0.0
 11
-1530.991631401916
 21
1830.210136297474
 31
0.0
  0
LINE
  5
1AF48
330
1A
100
AcDbEntity
  8
_2-4_PARTS
  6
CONTINUOUS
 62
     7
100
AcDbLine
 10
-1531.291631401916
 20
1831.050136297474
 30
0.0
 11
-1530.991631401916
 21
1831.350136297474
 31
0.0
  0
LINE
  5
1AF49
330
1A
100
AcDbEntity
  8
_2-4_PARTS
  6
CONTINUOUS
 62
     7
100
AcDbLine
 10
-1532.131631401917
 20
1831.350136297474
 30
0.0
 11
-1531.831631401916
 21
1831.050136297474
 31
0.0
  0
LINE
  5
1AF4A
330
1A
100
AcDbEntity
  8
_2-4_PARTS
  6
CONTINUOUS
 62
     7
100
AcDbLine
 10
-1532.131631401917
 20
1830.210136297474
 30
0.0
 11
-1531.831631401916
 21
1830.510136297474
 31
0.0
  0
LINE
  5
1AF4B
330
1A
100
AcDbEntity
  8
_2-4_PARTS
  6
CONTINUOUS
 62
     7
100
AcDbLine
 10
-1531.831631401916
 20
1830.510136297474
 30
0.0
 11
-1531.831631401916
 21
1831.050136297474
 31
0.0
  0
LINE
  5
1AF4C
330
1A
100
AcDbEntity
  8
_2-4_PARTS
  6
CONTINUOUS
 62
     7
100
AcDbLine
 10
-1531.831631401916
 20
1831.050136297474
 30
0.0
 11
-1531.291631401916
 21
1831.050136297474
 31
0.0
  0
LINE
  5
1AF4D
330
1A
100
AcDbEntity
  8
_2-4_PARTS
  6
CONTINUOUS
 62
     7
100
AcDbLine
 10
-1531.291631401916
 20
1830.510136297474
 30
0.0
 11
-1531.831631401916
 21
1830.510136297474
 31
0.0
  0
LINE
  5
1AF4E
330
1A
100
AcDbEntity
  8
_2-4_PARTS
  6
CONTINUOUS
 62
     7
100
AcDbLine
 10
-1531.291631401916
 20
1831.050136297474
 30
0.0
 11
-1531.291631401916
 21
1830.510136297474
 31
0.0
  0
LINE
  5
1AF4F
330
1A
100
AcDbEntity
  8
_2-4_PARTS
  6
CONTINUOUS
 62
     7
100
AcDbLine
 10
-1532.131631401917
 20
1830.210136297474
 30
0.0
 11
-1532.131631401917
 21
1831.350136297474
 31
0.0
  0
LINE
  5
1AF50
330
1A
100
AcDbEntity
  8
_2-4_PARTS
  6
CONTINUOUS
 62
     7
100
AcDbLine
 10
-1530.991631401916
 20
1830.210136297474
 30
0.0
 11
-1532.131631401917
 21
1830.210136297474
 31
0.0
  0
LINE
  5
1AF51
330
1A
100
AcDbEntity
  8
_2-4_PARTS
  6
CONTINUOUS
 62
     7
100
AcDbLine
 10
-1530.991631401916
 20
1831.350136297474
 30
0.0
 11
-1530.991631401916
 21
1830.210136297474
 31
0.0
  0
LINE
  5
1AF52
330
1A
100
AcDbEntity
  8
_2-4_PARTS
  6
CONTINUOUS
 62
     7
100
AcDbLine
 10
-1532.131631401917
 20
1831.350136297474
 30
0.0
 11
-1530.991631401916
 21
1831.350136297474
 31
0.0
  0
LINE
  5
1AF53
330
1A
100
AcDbEntity
  8
_2-4_PARTS
  6
CONTINUOUS
 62
     7
100
AcDbLine
 10
-1512.031631401916
 20
1802.528250202799
 30
0.0
 11
-1512.931631401916
 21
1802.528250202799
 31
0.0
  0
LINE
  5
1AF54
330
1A
100
AcDbEntity
  8
_2-4_PARTS
  6
CONTINUOUS
 62
     7
100
AcDbLine
 10
-1512.031631401916
 20
1802.528250202799
 30
0.0
 11
-1512.031631401916
 21
1802.178250202799
 31
0.0
  0
LINE
  5
1AF55
330
1A
100
AcDbEntity
  8
_2-4_PARTS
  6
CONTINUOUS
 62
     7
100
AcDbLine
 10
-1512.931631401916
 20
1802.528250202799
 30
0.0
 11
-1512.931631401916
 21
1802.178250202799
 31
0.0
  0
LINE
  5
1AF56
330
1A
100
AcDbEntity
  8
_2-4_PARTS
  6
CONTINUOUS
 62
     7
100
AcDbLine
 10
-1518.351631401916
 20
1825.980136297474
 30
0.0
 11
-1518.351631401916
 21
1828.780136297474
 31
0.0
  0
LINE
  5
1AF57
330
1A
100
AcDbEntity
  8
_2-4_PARTS
  6
CONTINUOUS
 62
     7
100
AcDbLine
 10
-1517.051631401916
 20
1834.480136297474
 30
0.0
 11
-1517.051631401916
 21
1828.780136297474
 31
0.0
  0
LINE
  5
1AF58
330
1A
100
AcDbEntity
  8
_2-4_PARTS
  6
CONTINUOUS
 62
     7
100
AcDbLine
 10
-1518.431631401917
 20
1830.210136297474
 30
0.0
 11
-1518.431631401917
 21
1831.350136297474
 31
0.0
  0
LINE
  5
1AF59
330
1A
100
AcDbEntity
  8
_2-4_PARTS
  6
CONTINUOUS
 62
     7
100
AcDbLine
 10
-1519.271631401917
 20
1831.050136297474
 30
0.0
 11
-1519.271631401917
 21
1830.510136297474
 31
0.0
  0
LINE
  5
1AF5A
330
1A
100
AcDbEntity
  8
_2-4_PARTS
  6
CONTINUOUS
 62
     7
100
AcDbLine
 10
-1519.271631401917
 20
1830.510136297474
 30
0.0
 11
-1518.731631401917
 21
1830.510136297474
 31
0.0
  0
LINE
  5
1AF5B
330
1A
100
AcDbEntity
  8
_2-4_PARTS
  6
CONTINUOUS
 62
     7
100
AcDbLine
 10
-1518.731631401917
 20
1831.050136297474
 30
0.0
 11
-1519.271631401917
 21
1831.050136297474
 31
0.0
  0
LINE
  5
1AF5C
330
1A
100
AcDbEntity
  8
_2-4_PARTS
  6
CONTINUOUS
 62
     7
100
AcDbLine
 10
-1518.731631401917
 20
1830.510136297474
 30
0.0
 11
-1518.731631401917
 21
1831.050136297474
 31
0.0
  0
LINE
  5
1AF5D
330
1A
100
AcDbEntity
  8
_2-4_PARTS
  6
CONTINUOUS
 62
     7
100
AcDbLine
 10
-1518.431631401917
 20
1830.210136297474
 30
0.0
 11
-1518.731631401917
 21
1830.510136297474
 31
0.0
  0
LINE
  5
1AF5E
330
1A
100
AcDbEntity
  8
_2-4_PARTS
  6
CONTINUOUS
 62
     7
100
AcDbLine
 10
-1518.431631401917
 20
1831.350136297474
 30
0.0
 11
-1518.731631401917
 21
1831.050136297474
 31
0.0
  0
LINE
  5
1AF5F
330
1A
100
AcDbEntity
  8
CL1
100
AcDbLine
 10
-1505.981631401916
 20
1834.280136297474
 30
0.0
 11
-1509.981631401917
 21
1834.280136297474
 31
0.0
  0
LINE
  5
1AF60
330
1A
100
AcDbEntity
  8
_2-4_PARTS
  6
CONTINUOUS
 62
     7
100
AcDbLine
 10
-1507.331631401916
 20
1802.178250202799
 30
0.0
 11
-1517.631631401916
 21
1802.178250202799
 31
0.0
  0
ARC
  5
1AF61
330
1A
100
AcDbEntity
  8
ZISSEN1
100
AcDbCircle
 10
-1504.481631401917
 20
1837.780136297474
 30
0.0
 40
1.0
100
AcDbArc
 50
180.0
 51
270.0
  0
LINE
  5
1AF62
330
1A
100
AcDbEntity
  8
ZISSEN1
100
AcDbLine
 10
-1454.331631401917
 20
1779.780136297474
 30
0.0
 11
-1454.331631401917
 21
1837.780136297474
 31
0.0
  0
LINE
  5
1AF63
330
1A
100
AcDbEntity
  8
ZISSEN1
100
AcDbLine
 10
-1452.731631401917
 20
1779.780136297474
 30
0.0
 11
-1452.731631401917
 21
1837.780136297474
 31
0.0
  0
LINE
  5
1AF64
330
1A
100
AcDbEntity
  8
_2-4_PARTS
  6
CONTINUOUS
 62
     7
100
AcDbLine
 10
-1464.831631401916
 20
1792.028250202799
 30
0.0
 11
-1464.831631401916
 21
1802.028250202799
 31
0.0
  0
LINE
  5
1AF65
330
1A
100
AcDbEntity
  8
_2-4_PARTS
  6
CONTINUOUS
 62
     7
100
AcDbLine
 10
-1454.831631401916
 20
1802.178250202799
 30
0.0
 11
-1454.831631401916
 21
1791.878250202799
 31
0.0
  0
LINE
  5
1AF66
330
1A
100
AcDbEntity
  8
_2-4_PARTS
  6
CONTINUOUS
 62
     7
100
AcDbLine
 10
-1456.331631401917
 20
1795.878250202799
 30
0.0
 11
-1456.331631401917
 21
1802.178250202799
 31
0.0
  0
LINE
  5
1AF67
330
1A
100
AcDbEntity
  8
CL1
100
AcDbLine
 10
-1455.987945561171
 20
1783.280136046798
 30
0.0
 11
-1450.831631401916
 21
1783.280136030638
 31
0.0
  0
LINE
  5
1AF68
330
1A
100
AcDbEntity
  8
ZISSEN1
100
AcDbLine
 10
-1454.331631401917
 20
1779.780136297474
 30
0.0
 11
-1452.731631401917
 21
1779.780136297474
 31
0.0
  0
LINE
  5
1AF69
330
1A
100
AcDbEntity
  8
ZISSEN1
100
AcDbLine
 10
-1454.331631401917
 20
1780.780136297474
 30
0.0
 11
-1452.731631401917
 21
1780.780136297474
 31
0.0
  0
LINE
  5
1AF6A
330
1A
100
AcDbEntity
  8
_2-4_PARTS
  6
CONTINUOUS
 62
     7
100
AcDbLine
 10
-1456.831631401916
 20
1791.878250202799
 30
0.0
 11
-1456.831631401916
 21
1795.878250202799
 31
0.0
  0
LINE
  5
1AF6B
330
1A
100
AcDbEntity
  8
_2-4_PARTS
  6
CONTINUOUS
 62
     7
100
AcDbLine
 10
-1454.331631401917
 20
1791.528250202799
 30
0.0
 11
-1454.331631401917
 21
1794.778250202799
 31
0.0
  0
LINE
  5
1AF6C
330
1A
100
AcDbEntity
  8
_2-4_PARTS
  6
CONTINUOUS
 62
     7
100
AcDbLine
 10
-1454.831631401916
 20
1791.878250202799
 30
0.0
 11
-1456.831631401916
 21
1791.878250202799
 31
0.0
  0
LINE
  5
1AF6D
330
1A
100
AcDbEntity
  8
_2-4_PARTS
  6
CONTINUOUS
 62
     7
100
AcDbLine
 10
-1454.831631401916
 20
1791.528250202799
 30
0.0
 11
-1454.331631401917
 21
1791.528250202799
 31
0.0
  0
LINE
  5
1AF6E
330
1A
100
AcDbEntity
  8
_2-4_PARTS
  6
CONTINUOUS
 62
     7
100
AcDbLine
 10
-1454.831631401916
 20
1791.528250202799
 30
0.0
 11
-1454.831631401916
 21
1791.878250202799
 31
0.0
  0
LINE
  5
1AF6F
330
1A
100
AcDbEntity
  8
_2-4_PARTS
  6
CONTINUOUS
 62
     7
100
AcDbLine
 10
-1456.831631401916
 20
1795.878250202799
 30
0.0
 11
-1456.331631401917
 21
1795.878250202799
 31
0.0
  0
LINE
  5
1AF70
330
1A
100
AcDbEntity
  8
_2-4_PARTS
  6
CONTINUOUS
 62
     7
100
AcDbLine
 10
-1454.331631401917
 20
1794.778250202799
 30
0.0
 11
-1454.831631401916
 21
1794.778250202799
 31
0.0
  0
LINE
  5
1AF71
330
1A
100
AcDbEntity
  8
_2-4_PARTS
  6
CONTINUOUS
 62
     7
100
AcDbLine
 10
-1456.831631401916
 20
1792.028250202799
 30
0.0
 11
-1464.831631401916
 21
1792.028250202799
 31
0.0
  0
DIMENSION
  5
1AF72
330
1A
100
AcDbEntity
  8
SUNPOU
100
AcDbDimension
  2
*D40
 10
-1450.631631401916
 20
1857.393043393193
 30
0.0
 11
-1460.731631401916
 21
1860.143043393193
 31
0.0
 70
    32
  1
(21)
  3
標準スタイル
100
AcDbAlignedDimension
 13
-1470.831631401916
 23
1835.480136297474
 33
0.0
 14
-1450.631631401916
 24
1831.050136297474
 34
0.0
100
AcDbRotatedDimension
1001
ACAD
1000
DSTYLE
1002
{
1070
   340
1005
10
1070
    40
1040
1.0
1002
}
  0
LINE
  5
1AF73
330
1A
100
AcDbEntity
  8
_2-4_PARTS
  6
CONTINUOUS
 62
     7
100
AcDbLine
 10
-1469.331631401916
 20
1824.980136297474
 30
0.0
 11
-1468.231631401916
 21
1824.980136297474
 31
0.0
  0
LINE
  5
1AF74
330
1A
100
AcDbEntity
  8
_2-4_PARTS
  6
CONTINUOUS
 62
     7
100
AcDbLine
 10
-1470.831631401916
 20
1828.780136297474
 30
0.0
 11
-1463.331631401916
 21
1828.780136297474
 31
0.0
  0
LINE
  5
1AF75
330
1A
100
AcDbEntity
  8
_2-4_PARTS
  6
CONTINUOUS
 62
     7
100
AcDbLine
 10
-1469.331631401916
 20
1826.980136297474
 30
0.0
 11
-1465.681631401916
 21
1826.980136297474
 31
0.0
  0
LINE
  5
1AF76
330
1A
100
AcDbEntity
  8
_2-4_PARTS
  6
CONTINUOUS
 62
     7
100
AcDbLine
 10
-1470.831631401916
 20
1828.180136297474
 30
0.0
 11
-1465.681631401916
 21
1828.180136297474
 31
0.0
  0
LINE
  5
1AF77
330
1A
100
AcDbEntity
  8
_2-4_PARTS
  6
CONTINUOUS
 62
     7
100
AcDbLine
 10
-1469.831631401916
 20
1834.480136297474
 30
0.0
 11
-1457.531631401916
 21
1834.480136297474
 31
0.0
  0
DIMENSION
  5
1AF78
330
1A
100
AcDbEntity
  8
SUNPOU
100
AcDbDimension
  2
*D41
 10
-1452.731631401917
 20
1847.924038248616
 30
0.0
 11
-1461.781631401916
 21
1850.674038248616
 31
0.0
 70
    32
  3
標準スタイル
100
AcDbAlignedDimension
 13
-1470.831631401916
 23
1834.760136030638
 33
0.0
 14
-1452.731631401917
 24
1837.800136030638
 34
0.0
100
AcDbRotatedDimension
1001
ACAD
1000
DSTYLE
1002
{
1070
   340
1005
10
1070
    40
1040
1.0
1002
}
  0
LINE
  5
1AF79
330
1A
100
AcDbEntity
  8
_2-4_PARTS
  6
CONTINUOUS
 62
     7
100
AcDbLine
 10
-1470.831631401916
 20
1828.180136297474
 30
0.0
 11
-1470.831631401916
 21
1835.480136297474
 31
0.0
  0
LINE
  5
1AF7A
330
1A
100
AcDbEntity
  8
_2-4_PARTS
  6
CONTINUOUS
 62
     7
100
AcDbLine
 10
-1469.831631401916
 20
1834.480136297474
 30
0.0
 11
-1469.831631401916
 21
1835.480136297474
 31
0.0
  0
LINE
  5
1AF7B
330
1A
100
AcDbEntity
  8
_2-4_PARTS
  6
CONTINUOUS
 62
     7
100
AcDbLine
 10
-1469.331631401916
 20
1824.980136297474
 30
0.0
 11
-1469.331631401916
 21
1826.980136297474
 31
0.0
  0
LINE
  5
1AF7C
330
1A
100
AcDbEntity
  8
_2-4_PARTS
  6
CONTINUOUS
 62
     7
100
AcDbLine
 10
-1470.831631401916
 20
1835.480136297474
 30
0.0
 11
-1469.831631401916
 21
1835.480136297474
 31
0.0
  0
LINE
  5
1AF7D
330
1A
100
AcDbEntity
  8
_2-4_PARTS
  6
CONTINUOUS
 62
     7
100
AcDbLine
 10
-1452.731631401917
 20
1830.210136297474
 30
0.0
 11
-1451.631631401916
 21
1830.210136297474
 31
0.0
  0
LINE
  5
1AF7E
330
1A
100
AcDbEntity
  8
_2-4_PARTS
  6
CONTINUOUS
 62
     7
100
AcDbLine
 10
-1452.731631401917
 20
1831.350136297474
 30
0.0
 11
-1451.631631401916
 21
1831.350136297474
 31
0.0
  0
LINE
  5
1AF7F
330
1A
100
AcDbEntity
  8
_2-4_PARTS
  6
CONTINUOUS
 62
     7
100
AcDbLine
 10
-1452.645186562877
 20
1831.350136297474
 30
0.0
 11
-1452.27851989621
 21
1831.350136297474
 31
0.0
  0
LINE
  5
1AF80
330
1A
100
AcDbEntity
  8
CL1
100
AcDbLine
 10
-1455.987945561171
 20
1834.280136030638
 30
0.0
 11
-1450.831631401916
 21
1834.280136030638
 31
0.0
  0
LINE
  5
1AF81
330
1A
100
AcDbEntity
  8
_2-4_PARTS
  6
CONTINUOUS
 62
     7
100
AcDbLine
 10
-1454.831631401916
 20
1802.178250202799
 30
0.0
 11
-1456.331631401917
 21
1802.178250202799
 31
0.0
  0
LINE
  5
1AF82
330
1A
100
AcDbEntity
  8
_2-4_PARTS
  6
CONTINUOUS
 62
     7
100
AcDbLine
 10
-1454.831631401916
 20
1802.528250202799
 30
0.0
 11
-1454.331631401917
 21
1802.528250202799
 31
0.0
  0
LINE
  5
1AF83
330
1A
100
AcDbEntity
  8
_2-4_PARTS
  6
CONTINUOUS
 62
     7
100
AcDbLine
 10
-1454.331631401917
 20
1799.278250202799
 30
0.0
 11
-1454.831631401916
 21
1799.278250202799
 31
0.0
  0
LINE
  5
1AF84
330
1A
100
AcDbEntity
  8
_2-4_PARTS
  6
CONTINUOUS
 62
     7
100
AcDbLine
 10
-1454.331631401917
 20
1802.528250202799
 30
0.0
 11
-1454.331631401917
 21
1799.278250202799
 31
0.0
  0
LINE
  5
1AF85
330
1A
100
AcDbEntity
  8
_2-4_PARTS
  6
CONTINUOUS
 62
     7
100
AcDbLine
 10
-1454.831631401916
 20
1802.178250202799
 30
0.0
 11
-1454.831631401916
 21
1802.528250202799
 31
0.0
  0
LINE
  5
1AF86
330
1A
100
AcDbEntity
  8
_2-4_PARTS
  6
CONTINUOUS
 62
     7
100
AcDbLine
 10
-1457.531631401916
 20
1834.480136297474
 30
0.0
 11
-1457.531631401916
 21
1828.780136297474
 31
0.0
  0
LINE
  5
1AF87
330
1A
100
AcDbEntity
  8
_2-4_PARTS
  6
CONTINUOUS
 62
     7
100
AcDbLine
 10
-1454.331631401917
 20
1827.380136297474
 30
0.0
 11
-1454.331631401917
 21
1834.480136297474
 31
0.0
  0
LINE
  5
1AF89
330
1A
100
AcDbEntity
  8
_2-4_PARTS
  6
CONTINUOUS
 62
     7
100
AcDbLine
 10
-1457.531631401916
 20
1827.280136297474
 30
0.0
 11
-1457.531631401916
 21
1834.480136297474
 31
0.0
  0
LINE
  5
1AF8A
330
1A
100
AcDbEntity
  8
_2-4_PARTS
  6
CONTINUOUS
 62
     7
100
AcDbLine
 10
-1457.531631401916
 20
1828.780136297474
 30
0.0
 11
-1454.331631401917
 21
1828.780136297474
 31
0.0
  0
LINE
  5
1AF8B
330
1A
100
AcDbEntity
  8
_2-4_PARTS
  6
CONTINUOUS
 62
     7
100
AcDbLine
 10
-1457.531631401916
 20
1827.380136297474
 30
0.0
 11
-1454.331631401917
 21
1827.380136297474
 31
0.0
  0
LINE
  5
1AF8C
330
1A
100
AcDbEntity
  8
_2-4_PARTS
  6
CONTINUOUS
 62
     7
100
AcDbLine
 10
-1457.531631401916
 20
1834.480136297474
 30
0.0
 11
-1454.331631401917
 21
1834.480136297474
 31
0.0
  0
LINE
  5
1AF8D
330
1A
100
AcDbEntity
  8
_2-4_PARTS
  6
CONTINUOUS
 62
     7
100
AcDbLine
 10
-1459.631631401916
 20
1825.780136297474
 30
0.0
 11
-1459.631631401916
 21
1826.980136297474
 31
0.0
  0
LINE
  5
1AF8E
330
1A
100
AcDbEntity
  8
_2-4_PARTS
  6
CONTINUOUS
 62
     7
100
AcDbLine
 10
-1468.231631401916
 20
1825.480136297474
 30
0.0
 11
-1459.931631401916
 21
1825.480136297474
 31
0.0
  0
LINE
  5
1AF8F
330
1A
100
AcDbEntity
  8
_2-4_PARTS
  6
CONTINUOUS
 62
     7
100
AcDbLine
 10
-1468.231631401916
 20
1824.980136297474
 30
0.0
 11
-1468.231631401916
 21
1825.480136297474
 31
0.0
  0
LINE
  5
1AF90
330
1A
100
AcDbEntity
  8
_2-4_PARTS
  6
CONTINUOUS
 62
     7
100
AcDbLine
 10
-1459.931631401916
 20
1825.480136297474
 30
0.0
 11
-1459.631631401916
 21
1825.780136297474
 31
0.0
  0
LINE
  5
1AF91
330
1A
100
AcDbEntity
  8
_2-4_PARTS
  6
CONTINUOUS
 62
     7
100
AcDbLine
 10
-1463.331631401916
 20
1826.980136297474
 30
0.0
 11
-1459.631631401916
 21
1826.980136297474
 31
0.0
  0
LINE
  5
1AF92
330
1A
100
AcDbEntity
  8
_2-4_PARTS
  6
CONTINUOUS
 62
     7
100
AcDbLine
 10
-1463.331631401916
 20
1828.780136297474
 30
0.0
 11
-1463.331631401916
 21
1827.280136297474
 31
0.0
  0
ARC
  5
1AF93
330
1A
100
AcDbEntity
  8
_2-4_PARTS
  6
CONTINUOUS
 62
     7
100
AcDbCircle
 10
-1463.331631401916
 20
1827.880136297474
 30
0.0
 40
0.9000000000000005
100
AcDbArc
 50
90.0
 51
270.0
  0
ARC
  5
1AF94
330
1A
100
AcDbEntity
  8
_2-4_PARTS
  6
CONTINUOUS
 62
     7
100
AcDbCircle
 10
-1465.681631401916
 20
1827.580136297474
 30
0.0
 40
0.5999999999999732
100
AcDbArc
 50
270.0
 51
90.0
  0
LINE
  5
1AF95
330
1A
100
AcDbEntity
  8
_2-4_PARTS
  6
CONTINUOUS
 62
     7
100
AcDbLine
 10
-1459.631631401916
 20
1826.980136297474
 30
0.0
 11
-1460.035477555762
 21
1827.280136297474
 31
0.0
  0
LINE
  5
1AF96
330
1A
100
AcDbEntity
  8
_2-4_PARTS
  6
CONTINUOUS
 62
     7
100
AcDbLine
 10
-1464.831631401916
 20
1802.028250202799
 30
0.0
 11
-1456.331631401917
 21
1802.028250202799
 31
0.0
  0
LINE
  5
1AF97
330
1A
100
AcDbEntity
  8
_2-4_PARTS
  6
CONTINUOUS
 62
     7
100
AcDbLine
 10
-1463.331631401916
 20
1827.280136297474
 30
0.0
 11
-1457.531631401916
 21
1827.280136297474
 31
0.0
  0
LINE
  5
1AF98
330
1A
100
AcDbEntity
  8
_2-4_PARTS
  6
CONTINUOUS
 62
     7
100
AcDbLine
 10
-1450.631631401916
 20
1830.510136297474
 30
0.0
 11
-1450.631631401916
 21
1831.050136297474
 31
0.0
  0
LINE
  5
1AF99
330
1A
100
AcDbEntity
  8
_2-4_PARTS
  6
CONTINUOUS
 62
     7
100
AcDbLine
 10
-1451.631631401916
 20
1830.210136297474
 30
0.0
 11
-1451.631631401916
 21
1831.350136297474
 31
0.0
  0
LINE
  5
1AF9A
330
1A
100
AcDbEntity
  8
_2-4_PARTS
  6
CONTINUOUS
 62
     7
100
AcDbLine
 10
-1450.631631401916
 20
1831.050136297474
 30
0.0
 11
-1451.631631401916
 21
1831.350136297474
 31
0.0
  0
LINE
  5
1AF9B
330
1A
100
AcDbEntity
  8
_2-4_PARTS
  6
CONTINUOUS
 62
     7
100
AcDbLine
 10
-1450.631631401916
 20
1830.510136297474
 30
0.0
 11
-1451.631631401916
 21
1830.210136297474
 31
0.0
  0
DIMENSION
  5
1AF9C
330
1A
100
AcDbEntity
  8
SUNPOU
100
AcDbDimension
  2
*D42
 10
-1450.831631401916
 20
1847.924038248616
 30
0.0
 11
-1442.701392088929
 21
1850.629541295856
 31
0.0
 70
   160
  1
(2.9)
  3
標準スタイル
100
AcDbAlignedDimension
 13
-1452.731631401917
 23
1837.800136030638
 33
0.0
 14
-1450.831631401916
 24
1847.924038248616
 34
0.0
100
AcDbRotatedDimension
1001
ACAD
1000
DSTYLE
1002
{
1070
   287
1070
     5
1070
    40
1040
1.0
1070
   279
1070
     2
1070
   340
1005
10
1002
}
  0
LINE
  5
1AF9D
330
1A
100
AcDbEntity
  8
ZISSEN1
100
AcDbLine
 10
-1454.331631401917
 20
1836.780136297474
 30
0.0
 11
-1452.731631401917
 21
1836.780136297474
 31
0.0
  0
LINE
  5
1AF9E
330
1A
100
AcDbEntity
  8
ZISSEN1
100
AcDbLine
 10
-1454.331631401917
 20
1837.780136297474
 30
0.0
 11
-1452.731631401917
 21
1837.780136297474
 31
0.0
  0
LINE
  5
1AF9F
330
1A
100
AcDbEntity
  8
_2-4_PARTS
  6
CONTINUOUS
 62
     7
100
AcDbLine
 10
-1536.091631401917
 20
1859.059545733995
 30
0.0
 11
-1538.911631401916
 21
1859.059545733995
 31
0.0
  0
LINE
  5
1AFA0
330
1A
100
AcDbEntity
  8
_2-4_PARTS
  6
CONTINUOUS
 62
     7
100
AcDbLine
 10
-1529.611631401917
 20
1868.459545733995
 30
0.0
 11
-1549.351631401917
 21
1868.459545733995
 31
0.0
  0
LINE
  5
1AFA1
330
1A
100
AcDbEntity
  8
_2-4_PARTS
  6
CONTINUOUS
 62
     7
100
AcDbLine
 10
-1529.611631401917
 20
1865.259545733995
 30
0.0
 11
-1549.351631401917
 21
1865.259545733995
 31
0.0
  0
LINE
  5
1AFA2
330
1A
100
AcDbEntity
  8
_2-4_PARTS
  6
CONTINUOUS
 62
     7
100
AcDbLine
 10
-1557.281631401917
 20
1856.959545733995
 30
0.0
 11
-1555.281631401917
 21
1856.959545733995
 31
0.0
  0
LINE
  5
1AFA3
330
1A
100
AcDbEntity
  8
_2-4_PARTS
  6
CONTINUOUS
 62
     7
100
AcDbLine
 10
-1555.831631401917
 20
1868.459545733995
 30
0.0
 11
-1556.981631401916
 21
1868.459545733995
 31
0.0
  0
LINE
  5
1AFA4
330
1A
100
AcDbEntity
  8
_2-4_PARTS
  6
CONTINUOUS
 62
     7
100
AcDbLine
 10
-1557.781631401917
 20
1858.459545733995
 30
0.0
 11
-1557.781631401917
 21
1857.459545733995
 31
0.0
  0
LINE
  5
1AFA5
330
1A
100
AcDbEntity
  8
_2-4_PARTS
  6
CONTINUOUS
 62
     7
100
AcDbLine
 10
-1557.281631401917
 20
1856.959545733995
 30
0.0
 11
-1557.781631401917
 21
1857.459545733995
 31
0.0
  0
LINE
  5
1AFA6
330
1A
100
AcDbEntity
  8
_2-4_PARTS
  6
CONTINUOUS
 62
     7
100
AcDbLine
 10
-1556.981631401916
 20
1867.359545733995
 30
0.0
 11
-1556.981631401916
 21
1868.459545733995
 31
0.0
  0
LINE
  5
1AFA7
330
1A
100
AcDbEntity
  8
_2-4_PARTS
  6
CONTINUOUS
 62
     7
100
AcDbLine
 10
-1557.431631401916
 20
1870.059545733995
 30
0.0
 11
-1557.431631401916
 21
1871.359545733995
 31
0.0
  0
LINE
  5
1AFA8
330
1A
100
AcDbEntity
  8
_2-4_PARTS
  6
CONTINUOUS
 62
     7
100
AcDbLine
 10
-1557.581631401917
 20
1871.859545733995
 30
0.0
 11
-1557.431631401916
 21
1871.359545733995
 31
0.0
  0
LINE
  5
1AFA9
330
1A
100
AcDbEntity
  8
_2-4_PARTS
  6
CONTINUOUS
 62
     7
100
AcDbLine
 10
-1555.281631401917
 20
1856.959545733995
 30
0.0
 11
-1555.281631401917
 21
1868.459545733995
 31
0.0
  0
LINE
  5
1AFAA
330
1A
100
AcDbEntity
  8
_2-4_PARTS
  6
CONTINUOUS
 62
     7
100
AcDbLine
 10
-1555.281631401917
 20
1868.459545733995
 30
0.0
 11
-1556.281631401916
 21
1868.459545733995
 31
0.0
  0
LINE
  5
1AFAB
330
1A
100
AcDbEntity
  8
_2-4_PARTS
  6
CONTINUOUS
 62
     7
100
AcDbLine
 10
-1565.981631401917
 20
1868.159545733995
 30
0.0
 11
-1564.481631401917
 21
1868.159545733995
 31
0.0
  0
LINE
  5
1AFAC
330
1A
100
AcDbEntity
  8
_2-4_PARTS
  6
CONTINUOUS
 62
     7
100
AcDbLine
 10
-1565.081631401916
 20
1871.859545733995
 30
0.0
 11
-1564.931631401917
 21
1871.359545733995
 31
0.0
  0
LINE
  5
1AFAD
330
1A
100
AcDbEntity
  8
_2-4_PARTS
  6
CONTINUOUS
 62
     7
100
AcDbLine
 10
-1569.481631401917
 20
1868.459545733995
 30
0.0
 11
-1569.481631401917
 21
1867.359545733995
 31
0.0
  0
LINE
  5
1AFAE
330
1A
100
AcDbEntity
  8
_2-4_PARTS
  6
CONTINUOUS
 62
     7
100
AcDbLine
 10
-1568.481631401916
 20
1868.459545733995
 30
0.0
 11
-1568.481631401916
 21
1867.359545733995
 31
0.0
  0
LINE
  5
1AFAF
330
1A
100
AcDbEntity
  8
_2-4_PARTS
  6
CONTINUOUS
 62
     7
100
AcDbLine
 10
-1566.981631401917
 20
1867.359545733995
 30
0.0
 11
-1566.981631401917
 21
1868.459545733995
 31
0.0
  0
LINE
  5
1AFB0
330
1A
100
AcDbEntity
  8
_2-4_PARTS
  6
CONTINUOUS
 62
     7
100
AcDbLine
 10
-1565.981631401917
 20
1867.359545733995
 30
0.0
 11
-1565.981631401917
 21
1868.459545733995
 31
0.0
  0
LINE
  5
1AFB1
330
1A
100
AcDbEntity
  8
_2-4_PARTS
  6
CONTINUOUS
 62
     7
100
AcDbLine
 10
-1568.481631401916
 20
1868.159545733995
 30
0.0
 11
-1566.981631401917
 21
1868.159545733995
 31
0.0
  0
LINE
  5
1AFB2
330
1A
100
AcDbEntity
  8
_2-4_PARTS
  6
CONTINUOUS
 62
     7
100
AcDbLine
 10
-1568.481631401916
 20
1868.459545733995
 30
0.0
 11
-1569.481631401917
 21
1868.459545733995
 31
0.0
  0
LINE
  5
1AFB3
330
1A
100
AcDbEntity
  8
_2-4_PARTS
  6
CONTINUOUS
 62
     7
100
AcDbLine
 10
-1565.531631401916
 20
1870.059545733995
 30
0.0
 11
-1565.531631401916
 21
1871.359545733995
 31
0.0
  0
LINE
  5
1AFB4
330
1A
100
AcDbEntity
  8
_2-4_PARTS
  6
CONTINUOUS
 62
     7
100
AcDbLine
 10
-1567.431631401916
 20
1870.059545733995
 30
0.0
 11
-1567.431631401916
 21
1871.359545733995
 31
0.0
  0
LINE
  5
1AFB5
330
1A
100
AcDbEntity
  8
_2-4_PARTS
  6
CONTINUOUS
 62
     7
100
AcDbLine
 10
-1568.031631401916
 20
1870.059545733995
 30
0.0
 11
-1568.031631401916
 21
1871.359545733995
 31
0.0
  0
LINE
  5
1AFB6
330
1A
100
AcDbEntity
  8
_2-4_PARTS
  6
CONTINUOUS
 62
     7
100
AcDbLine
 10
-1565.381631401916
 20
1871.859545733995
 30
0.0
 11
-1565.531631401916
 21
1871.359545733995
 31
0.0
  0
LINE
  5
1AFB7
330
1A
100
AcDbEntity
  8
_2-4_PARTS
  6
CONTINUOUS
 62
     7
100
AcDbLine
 10
-1565.081631401916
 20
1871.859545733995
 30
0.0
 11
-1565.381631401916
 21
1871.859545733995
 31
0.0
  0
LINE
  5
1AFB8
330
1A
100
AcDbEntity
  8
_2-4_PARTS
  6
CONTINUOUS
 62
     7
100
AcDbLine
 10
-1565.981631401917
 20
1868.459545733995
 30
0.0
 11
-1566.981631401917
 21
1868.459545733995
 31
0.0
  0
LINE
  5
1AFB9
330
1A
100
AcDbEntity
  8
_2-4_PARTS
  6
CONTINUOUS
 62
     7
100
AcDbLine
 10
-1567.881631401917
 20
1871.859545733995
 30
0.0
 11
-1568.031631401916
 21
1871.359545733995
 31
0.0
  0
LINE
  5
1AFBA
330
1A
100
AcDbEntity
  8
_2-4_PARTS
  6
CONTINUOUS
 62
     7
100
AcDbLine
 10
-1567.581631401917
 20
1871.859545733995
 30
0.0
 11
-1567.431631401916
 21
1871.359545733995
 31
0.0
  0
LINE
  5
1AFBB
330
1A
100
AcDbEntity
  8
_2-4_PARTS
  6
CONTINUOUS
 62
     7
100
AcDbLine
 10
-1567.581631401917
 20
1871.859545733995
 30
0.0
 11
-1567.881631401917
 21
1871.859545733995
 31
0.0
  0
LINE
  5
1AFBC
330
1A
100
AcDbEntity
  8
_2-4_PARTS
  6
CONTINUOUS
 62
     7
100
AcDbLine
 10
-1561.981631401916
 20
1867.359545733995
 30
0.0
 11
-1561.981631401916
 21
1868.459545733995
 31
0.0
  0
LINE
  5
1AFBD
330
1A
100
AcDbEntity
  8
_2-4_PARTS
  6
CONTINUOUS
 62
     7
100
AcDbLine
 10
-1560.981631401917
 20
1867.359545733995
 30
0.0
 11
-1560.981631401917
 21
1868.459545733995
 31
0.0
  0
LINE
  5
1AFBE
330
1A
100
AcDbEntity
  8
_2-4_PARTS
  6
CONTINUOUS
 62
     7
100
AcDbLine
 10
-1564.481631401917
 20
1867.359545733995
 30
0.0
 11
-1564.481631401917
 21
1868.459545733995
 31
0.0
  0
LINE
  5
1AFBF
330
1A
100
AcDbEntity
  8
_2-4_PARTS
  6
CONTINUOUS
 62
     7
100
AcDbLine
 10
-1563.481631401917
 20
1867.359545733995
 30
0.0
 11
-1563.481631401917
 21
1868.459545733995
 31
0.0
  0
LINE
  5
1AFC0
330
1A
100
AcDbEntity
  8
_2-4_PARTS
  6
CONTINUOUS
 62
     7
100
AcDbLine
 10
-1559.481631401917
 20
1867.359545733995
 30
0.0
 11
-1559.481631401917
 21
1868.459545733995
 31
0.0
  0
LINE
  5
1AFC1
330
1A
100
AcDbEntity
  8
_2-4_PARTS
  6
CONTINUOUS
 62
     7
100
AcDbLine
 10
-1558.481631401916
 20
1867.359545733995
 30
0.0
 11
-1558.481631401916
 21
1868.459545733995
 31
0.0
  0
LINE
  5
1AFC2
330
1A
100
AcDbEntity
  8
_2-4_PARTS
  6
CONTINUOUS
 62
     7
100
AcDbLine
 10
-1560.981631401917
 20
1868.159545733995
 30
0.0
 11
-1559.481631401917
 21
1868.159545733995
 31
0.0
  0
LINE
  5
1AFC3
330
1A
100
AcDbEntity
  8
_2-4_PARTS
  6
CONTINUOUS
 62
     7
100
AcDbLine
 10
-1563.481631401917
 20
1868.159545733995
 30
0.0
 11
-1561.981631401916
 21
1868.159545733995
 31
0.0
  0
LINE
  5
1AFC4
330
1A
100
AcDbEntity
  8
_2-4_PARTS
  6
CONTINUOUS
 62
     7
100
AcDbLine
 10
-1562.431631401916
 20
1870.059545733995
 30
0.0
 11
-1562.431631401916
 21
1871.359545733995
 31
0.0
  0
LINE
  5
1AFC5
330
1A
100
AcDbEntity
  8
_2-4_PARTS
  6
CONTINUOUS
 62
     7
100
AcDbLine
 10
-1563.031631401917
 20
1870.059545733995
 30
0.0
 11
-1563.031631401917
 21
1871.359545733995
 31
0.0
  0
LINE
  5
1AFC6
330
1A
100
AcDbEntity
  8
_2-4_PARTS
  6
CONTINUOUS
 62
     7
100
AcDbLine
 10
-1564.931631401917
 20
1870.059545733995
 30
0.0
 11
-1564.931631401917
 21
1871.359545733995
 31
0.0
  0
LINE
  5
1AFC7
330
1A
100
AcDbEntity
  8
_2-4_PARTS
  6
CONTINUOUS
 62
     7
100
AcDbLine
 10
-1560.981631401917
 20
1868.459545733995
 30
0.0
 11
-1561.981631401916
 21
1868.459545733995
 31
0.0
  0
LINE
  5
1AFC8
330
1A
100
AcDbEntity
  8
_2-4_PARTS
  6
CONTINUOUS
 62
     7
100
AcDbLine
 10
-1562.881631401916
 20
1871.859545733995
 30
0.0
 11
-1563.031631401917
 21
1871.359545733995
 31
0.0
  0
LINE
  5
1AFC9
330
1A
100
AcDbEntity
  8
_2-4_PARTS
  6
CONTINUOUS
 62
     7
100
AcDbLine
 10
-1562.581631401917
 20
1871.859545733995
 30
0.0
 11
-1562.431631401916
 21
1871.359545733995
 31
0.0
  0
LINE
  5
1AFCA
330
1A
100
AcDbEntity
  8
_2-4_PARTS
  6
CONTINUOUS
 62
     7
100
AcDbLine
 10
-1562.581631401917
 20
1871.859545733995
 30
0.0
 11
-1562.881631401916
 21
1871.859545733995
 31
0.0
  0
LINE
  5
1AFCB
330
1A
100
AcDbEntity
  8
_2-4_PARTS
  6
CONTINUOUS
 62
     7
100
AcDbLine
 10
-1563.481631401917
 20
1868.459545733995
 30
0.0
 11
-1564.481631401917
 21
1868.459545733995
 31
0.0
  0
LINE
  5
1AFCC
330
1A
100
AcDbEntity
  8
_2-4_PARTS
  6
CONTINUOUS
 62
     7
100
AcDbLine
 10
-1558.031631401917
 20
1870.059545733995
 30
0.0
 11
-1558.031631401917
 21
1871.359545733995
 31
0.0
  0
LINE
  5
1AFCD
330
1A
100
AcDbEntity
  8
_2-4_PARTS
  6
CONTINUOUS
 62
     7
100
AcDbLine
 10
-1559.931631401916
 20
1870.059545733995
 30
0.0
 11
-1559.931631401916
 21
1871.359545733995
 31
0.0
  0
LINE
  5
1AFCE
330
1A
100
AcDbEntity
  8
_2-4_PARTS
  6
CONTINUOUS
 62
     7
100
AcDbLine
 10
-1560.531631401917
 20
1870.059545733995
 30
0.0
 11
-1560.531631401917
 21
1871.359545733995
 31
0.0
  0
LINE
  5
1AFCF
330
1A
100
AcDbEntity
  8
_2-4_PARTS
  6
CONTINUOUS
 62
     7
100
AcDbLine
 10
-1560.381631401916
 20
1871.859545733995
 30
0.0
 11
-1560.531631401917
 21
1871.359545733995
 31
0.0
  0
LINE
  5
1AFD0
330
1A
100
AcDbEntity
  8
_2-4_PARTS
  6
CONTINUOUS
 62
     7
100
AcDbLine
 10
-1560.081631401916
 20
1871.859545733995
 30
0.0
 11
-1559.931631401916
 21
1871.359545733995
 31
0.0
  0
LINE
  5
1AFD1
330
1A
100
AcDbEntity
  8
_2-4_PARTS
  6
CONTINUOUS
 62
     7
100
AcDbLine
 10
-1560.081631401916
 20
1871.859545733995
 30
0.0
 11
-1560.381631401916
 21
1871.859545733995
 31
0.0
  0
LINE
  5
1AFD2
330
1A
100
AcDbEntity
  8
_2-4_PARTS
  6
CONTINUOUS
 62
     7
100
AcDbLine
 10
-1558.481631401916
 20
1868.459545733995
 30
0.0
 11
-1559.481631401917
 21
1868.459545733995
 31
0.0
  0
LINE
  5
1AFD3
330
1A
100
AcDbEntity
  8
_2-4_PARTS
  6
CONTINUOUS
 62
     7
100
AcDbLine
 10
-1557.881631401916
 20
1871.859545733995
 30
0.0
 11
-1558.031631401917
 21
1871.359545733995
 31
0.0
  0
ARC
  5
1AFD4
330
1A
100
AcDbEntity
  8
_2-4_PARTS
  6
CONTINUOUS
 62
     7
100
AcDbCircle
 10
-1558.281631401917
 20
1858.459545733995
 30
0.0
 40
0.5
100
AcDbArc
 50
0.0
 51
90.0
  0
LINE
  5
1AFD5
330
1A
100
AcDbEntity
  8
_2-4_PARTS
  6
CONTINUOUS
 62
     7
100
AcDbLine
 10
-1558.481631401916
 20
1868.159545733995
 30
0.0
 11
-1556.981631401916
 21
1868.159545733995
 31
0.0
  0
LINE
  5
1AFD6
330
1A
100
AcDbEntity
  8
_2-4_PARTS
  6
CONTINUOUS
 62
     7
100
AcDbLine
 10
-1557.581631401917
 20
1871.859545733995
 30
0.0
 11
-1557.881631401916
 21
1871.859545733995
 31
0.0
  0
LINE
  5
1AFD7
330
1A
100
AcDbEntity
  8
_2-4_PARTS
  6
CONTINUOUS
 62
     7
100
AcDbLine
 10
-1538.911631401916
 20
1858.559545733995
 30
0.0
 11
-1538.911631401916
 21
1865.259545733995
 31
0.0
  0
LINE
  5
1AFD8
330
1A
100
AcDbEntity
  8
_2-4_PARTS
  6
CONTINUOUS
 62
     7
100
AcDbLine
 10
-1540.051631401916
 20
1865.259545733995
 30
0.0
 11
-1540.051631401916
 21
1858.559545733995
 31
0.0
  0
LINE
  5
1AFD9
330
1A
100
AcDbEntity
  8
_2-4_PARTS
  6
CONTINUOUS
 62
     7
100
AcDbLine
 10
-1539.211631401916
 20
1857.559545733995
 30
0.0
 11
-1538.911631401916
 21
1858.559545733995
 31
0.0
  0
LINE
  5
1AFDA
330
1A
100
AcDbEntity
  8
_2-4_PARTS
  6
CONTINUOUS
 62
     7
100
AcDbLine
 10
-1539.751631401917
 20
1857.559545733995
 30
0.0
 11
-1539.211631401916
 21
1857.559545733995
 31
0.0
  0
LINE
  5
1AFDB
330
1A
100
AcDbEntity
  8
_2-4_PARTS
  6
CONTINUOUS
 62
     7
100
AcDbLine
 10
-1539.751631401917
 20
1857.559545733995
 30
0.0
 11
-1540.051631401916
 21
1858.559545733995
 31
0.0
  0
LINE
  5
1AFDC
330
1A
100
AcDbEntity
  8
_2-4_PARTS
  6
CONTINUOUS
 62
     7
100
AcDbLine
 10
-1540.051631401916
 20
1858.559545733995
 30
0.0
 11
-1538.911631401916
 21
1858.559545733995
 31
0.0
  0
LINE
  5
1AFDD
330
1A
100
AcDbEntity
  8
_2-4_PARTS
  6
CONTINUOUS
 62
     7
100
AcDbLine
 10
-1538.911631401916
 20
1871.159545733995
 30
0.0
 11
-1538.911631401916
 21
1870.059545733995
 31
0.0
  0
LINE
  5
1AFDE
330
1A
100
AcDbEntity
  8
_2-4_PARTS
  6
CONTINUOUS
 62
     7
100
AcDbLine
 10
-1540.051631401916
 20
1871.159545733995
 30
0.0
 11
-1540.051631401916
 21
1870.059545733995
 31
0.0
  0
LINE
  5
1AFDF
330
1A
100
AcDbEntity
  8
_2-4_PARTS
  6
CONTINUOUS
 62
     7
100
AcDbLine
 10
-1539.211631401916
 20
1872.159545733995
 30
0.0
 11
-1538.911631401916
 21
1871.159545733995
 31
0.0
  0
LINE
  5
1AFE0
330
1A
100
AcDbEntity
  8
_2-4_PARTS
  6
CONTINUOUS
 62
     7
100
AcDbLine
 10
-1539.751631401917
 20
1872.159545733995
 30
0.0
 11
-1539.211631401916
 21
1872.159545733995
 31
0.0
  0
LINE
  5
1AFE1
330
1A
100
AcDbEntity
  8
_2-4_PARTS
  6
CONTINUOUS
 62
     7
100
AcDbLine
 10
-1539.751631401917
 20
1872.159545733995
 30
0.0
 11
-1540.051631401916
 21
1871.159545733995
 31
0.0
  0
LINE
  5
1AFE2
330
1A
100
AcDbEntity
  8
_2-4_PARTS
  6
CONTINUOUS
 62
     7
100
AcDbLine
 10
-1540.051631401916
 20
1871.159545733995
 30
0.0
 11
-1538.911631401916
 21
1871.159545733995
 31
0.0
  0
LINE
  5
1AFE3
330
1A
100
AcDbEntity
  8
_2-4_PARTS
  6
CONTINUOUS
 62
     7
100
AcDbLine
 10
-1548.051631401917
 20
1859.059545733995
 30
0.0
 11
-1548.051631401917
 21
1865.259545733995
 31
0.0
  0
LINE
  5
1AFE4
330
1A
100
AcDbEntity
  8
_2-4_PARTS
  6
CONTINUOUS
 62
     7
100
AcDbLine
 10
-1542.871631401917
 20
1858.559545733995
 30
0.0
 11
-1542.871631401917
 21
1865.259545733995
 31
0.0
  0
LINE
  5
1AFE5
330
1A
100
AcDbEntity
  8
_2-4_PARTS
  6
CONTINUOUS
 62
     7
100
AcDbLine
 10
-1544.011631401916
 20
1865.259545733995
 30
0.0
 11
-1544.011631401916
 21
1858.559545733995
 31
0.0
  0
LINE
  5
1AFE6
330
1A
100
AcDbEntity
  8
_2-4_PARTS
  6
CONTINUOUS
 62
     7
100
AcDbLine
 10
-1546.831631401917
 20
1858.559545733995
 30
0.0
 11
-1546.831631401917
 21
1865.259545733995
 31
0.0
  0
LINE
  5
1AFE7
330
1A
100
AcDbEntity
  8
_2-4_PARTS
  6
CONTINUOUS
 62
     7
100
AcDbLine
 10
-1547.971631401916
 20
1865.259545733995
 30
0.0
 11
-1547.971631401916
 21
1858.559545733995
 31
0.0
  0
LINE
  5
1AFE8
330
1A
100
AcDbEntity
  8
_2-4_PARTS
  6
CONTINUOUS
 62
     7
100
AcDbLine
 10
-1544.011631401916
 20
1859.059545733995
 30
0.0
 11
-1546.831631401917
 21
1859.059545733995
 31
0.0
  0
LINE
  5
1AFE9
330
1A
100
AcDbEntity
  8
_2-4_PARTS
  6
CONTINUOUS
 62
     7
100
AcDbLine
 10
-1547.971631401916
 20
1859.059545733995
 30
0.0
 11
-1548.051631401917
 21
1859.059545733995
 31
0.0
  0
LINE
  5
1AFEA
330
1A
100
AcDbEntity
  8
_2-4_PARTS
  6
CONTINUOUS
 62
     7
100
AcDbLine
 10
-1547.131631401916
 20
1857.559545733995
 30
0.0
 11
-1546.831631401917
 21
1858.559545733995
 31
0.0
  0
LINE
  5
1AFEB
330
1A
100
AcDbEntity
  8
_2-4_PARTS
  6
CONTINUOUS
 62
     7
100
AcDbLine
 10
-1547.671631401916
 20
1857.559545733995
 30
0.0
 11
-1547.131631401916
 21
1857.559545733995
 31
0.0
  0
LINE
  5
1AFEC
330
1A
100
AcDbEntity
  8
_2-4_PARTS
  6
CONTINUOUS
 62
     7
100
AcDbLine
 10
-1547.671631401916
 20
1857.559545733995
 30
0.0
 11
-1547.971631401916
 21
1858.559545733995
 31
0.0
  0
LINE
  5
1AFED
330
1A
100
AcDbEntity
  8
_2-4_PARTS
  6
CONTINUOUS
 62
     7
100
AcDbLine
 10
-1547.971631401916
 20
1858.559545733995
 30
0.0
 11
-1546.831631401917
 21
1858.559545733995
 31
0.0
  0
LINE
  5
1AFEE
330
1A
100
AcDbEntity
  8
_2-4_PARTS
  6
CONTINUOUS
 62
     7
100
AcDbLine
 10
-1543.171631401916
 20
1857.559545733995
 30
0.0
 11
-1542.871631401917
 21
1858.559545733995
 31
0.0
  0
LINE
  5
1AFEF
330
1A
100
AcDbEntity
  8
_2-4_PARTS
  6
CONTINUOUS
 62
     7
100
AcDbLine
 10
-1543.711631401916
 20
1857.559545733995
 30
0.0
 11
-1543.171631401916
 21
1857.559545733995
 31
0.0
  0
LINE
  5
1AFF0
330
1A
100
AcDbEntity
  8
_2-4_PARTS
  6
CONTINUOUS
 62
     7
100
AcDbLine
 10
-1543.711631401916
 20
1857.559545733995
 30
0.0
 11
-1544.011631401916
 21
1858.559545733995
 31
0.0
  0
LINE
  5
1AFF1
330
1A
100
AcDbEntity
  8
_2-4_PARTS
  6
CONTINUOUS
 62
     7
100
AcDbLine
 10
-1544.011631401916
 20
1858.559545733995
 30
0.0
 11
-1542.871631401917
 21
1858.559545733995
 31
0.0
  0
LINE
  5
1AFF2
330
1A
100
AcDbEntity
  8
_2-4_PARTS
  6
CONTINUOUS
 62
     7
100
AcDbLine
 10
-1549.351631401917
 20
1865.259545733995
 30
0.0
 11
-1549.351631401917
 21
1868.459545733995
 31
0.0
  0
LINE
  5
1AFF3
330
1A
100
AcDbEntity
  8
_2-4_PARTS
  6
CONTINUOUS
 62
     7
100
AcDbLine
 10
-1546.831631401917
 20
1871.159545733995
 30
0.0
 11
-1546.831631401917
 21
1870.059545733995
 31
0.0
  0
LINE
  5
1AFF4
330
1A
100
AcDbEntity
  8
_2-4_PARTS
  6
CONTINUOUS
 62
     7
100
AcDbLine
 10
-1547.971631401916
 20
1871.159545733995
 30
0.0
 11
-1547.971631401916
 21
1870.059545733995
 31
0.0
  0
LINE
  5
1AFF5
330
1A
100
AcDbEntity
  8
_2-4_PARTS
  6
CONTINUOUS
 62
     7
100
AcDbLine
 10
-1547.131631401916
 20
1872.159545733995
 30
0.0
 11
-1546.831631401917
 21
1871.159545733995
 31
0.0
  0
LINE
  5
1AFF6
330
1A
100
AcDbEntity
  8
_2-4_PARTS
  6
CONTINUOUS
 62
     7
100
AcDbLine
 10
-1547.671631401916
 20
1872.159545733995
 30
0.0
 11
-1547.131631401916
 21
1872.159545733995
 31
0.0
  0
LINE
  5
1AFF7
330
1A
100
AcDbEntity
  8
_2-4_PARTS
  6
CONTINUOUS
 62
     7
100
AcDbLine
 10
-1547.671631401916
 20
1872.159545733995
 30
0.0
 11
-1547.971631401916
 21
1871.159545733995
 31
0.0
  0
LINE
  5
1AFF8
330
1A
100
AcDbEntity
  8
_2-4_PARTS
  6
CONTINUOUS
 62
     7
100
AcDbLine
 10
-1547.971631401916
 20
1871.159545733995
 30
0.0
 11
-1546.831631401917
 21
1871.159545733995
 31
0.0
  0
LINE
  5
1AFF9
330
1A
100
AcDbEntity
  8
_2-4_PARTS
  6
CONTINUOUS
 62
     7
100
AcDbLine
 10
-1542.871631401917
 20
1871.159545733995
 30
0.0
 11
-1542.871631401917
 21
1870.059545733995
 31
0.0
  0
LINE
  5
1AFFA
330
1A
100
AcDbEntity
  8
_2-4_PARTS
  6
CONTINUOUS
 62
     7
100
AcDbLine
 10
-1544.011631401916
 20
1871.159545733995
 30
0.0
 11
-1544.011631401916
 21
1870.059545733995
 31
0.0
  0
LINE
  5
1AFFB
330
1A
100
AcDbEntity
  8
_2-4_PARTS
  6
CONTINUOUS
 62
     7
100
AcDbLine
 10
-1543.171631401916
 20
1872.159545733995
 30
0.0
 11
-1542.871631401917
 21
1871.159545733995
 31
0.0
  0
LINE
  5
1AFFC
330
1A
100
AcDbEntity
  8
_2-4_PARTS
  6
CONTINUOUS
 62
     7
100
AcDbLine
 10
-1543.711631401916
 20
1872.159545733995
 30
0.0
 11
-1543.171631401916
 21
1872.159545733995
 31
0.0
  0
LINE
  5
1AFFD
330
1A
100
AcDbEntity
  8
_2-4_PARTS
  6
CONTINUOUS
 62
     7
100
AcDbLine
 10
-1543.711631401916
 20
1872.159545733995
 30
0.0
 11
-1544.011631401916
 21
1871.159545733995
 31
0.0
  0
LINE
  5
1AFFE
330
1A
100
AcDbEntity
  8
_2-4_PARTS
  6
CONTINUOUS
 62
     7
100
AcDbLine
 10
-1544.011631401916
 20
1871.159545733995
 30
0.0
 11
-1542.871631401917
 21
1871.159545733995
 31
0.0
  0
LINE
  5
1AFFF
330
1A
100
AcDbEntity
  8
_2-4_PARTS
  6
CONTINUOUS
 62
     7
100
AcDbLine
 10
-1540.051631401916
 20
1859.059545733995
 30
0.0
 11
-1542.871631401917
 21
1859.059545733995
 31
0.0
  0
LINE
  5
1B000
330
1A
100
AcDbEntity
  8
_2-4_PARTS
  6
CONTINUOUS
 62
     7
100
AcDbLine
 10
-1519.571631401916
 20
1858.559545733995
 30
0.0
 11
-1518.431631401917
 21
1858.559545733995
 31
0.0
  0
LINE
  5
1B001
330
1A
100
AcDbEntity
  8
_2-4_PARTS
  6
CONTINUOUS
 62
     7
100
AcDbLine
 10
-1519.271631401917
 20
1857.559545733995
 30
0.0
 11
-1519.571631401916
 21
1858.559545733995
 31
0.0
  0
LINE
  5
1B002
330
1A
100
AcDbEntity
  8
_2-4_PARTS
  6
CONTINUOUS
 62
     7
100
AcDbLine
 10
-1519.571631401916
 20
1871.159545733995
 30
0.0
 11
-1518.431631401917
 21
1871.159545733995
 31
0.0
  0
LINE
  5
1B003
330
1A
100
AcDbEntity
  8
_2-4_PARTS
  6
CONTINUOUS
 62
     7
100
AcDbLine
 10
-1519.271631401917
 20
1872.159545733995
 30
0.0
 11
-1519.571631401916
 21
1871.159545733995
 31
0.0
  0
LINE
  5
1B004
330
1A
100
AcDbEntity
  8
_2-4_PARTS
  6
CONTINUOUS
 62
     7
100
AcDbLine
 10
-1517.051631401916
 20
1868.459545733995
 30
0.0
 11
-1524.911631401916
 21
1868.459545733995
 31
0.0
  0
LINE
  5
1B005
330
1A
100
AcDbEntity
  8
_2-4_PARTS
  6
CONTINUOUS
 62
     7
100
AcDbLine
 10
-1517.051631401916
 20
1865.259545733995
 30
0.0
 11
-1524.911631401916
 21
1865.259545733995
 31
0.0
  0
LINE
  5
1B006
330
1A
100
AcDbEntity
  8
_2-4_PARTS
  6
CONTINUOUS
 62
     7
100
AcDbLine
 10
-1523.611631401917
 20
1859.059545733995
 30
0.0
 11
-1523.611631401917
 21
1865.259545733995
 31
0.0
  0
LINE
  5
1B007
330
1A
100
AcDbEntity
  8
_2-4_PARTS
  6
CONTINUOUS
 62
     7
100
AcDbLine
 10
-1523.531631401916
 20
1865.259545733995
 30
0.0
 11
-1523.531631401916
 21
1858.559545733995
 31
0.0
  0
LINE
  5
1B008
330
1A
100
AcDbEntity
  8
_2-4_PARTS
  6
CONTINUOUS
 62
     7
100
AcDbLine
 10
-1522.391631401917
 20
1858.559545733995
 30
0.0
 11
-1522.391631401917
 21
1865.259545733995
 31
0.0
  0
LINE
  5
1B009
330
1A
100
AcDbEntity
  8
_2-4_PARTS
  6
CONTINUOUS
 62
     7
100
AcDbLine
 10
-1519.571631401916
 20
1865.259545733995
 30
0.0
 11
-1519.571631401916
 21
1858.559545733995
 31
0.0
  0
LINE
  5
1B00A
330
1A
100
AcDbEntity
  8
_2-4_PARTS
  6
CONTINUOUS
 62
     7
100
AcDbLine
 10
-1519.571631401916
 20
1859.059545733995
 30
0.0
 11
-1522.391631401917
 21
1859.059545733995
 31
0.0
  0
LINE
  5
1B00B
330
1A
100
AcDbEntity
  8
_2-4_PARTS
  6
CONTINUOUS
 62
     7
100
AcDbLine
 10
-1523.531631401916
 20
1859.059545733995
 30
0.0
 11
-1523.611631401917
 21
1859.059545733995
 31
0.0
  0
LINE
  5
1B00C
330
1A
100
AcDbEntity
  8
_2-4_PARTS
  6
CONTINUOUS
 62
     7
100
AcDbLine
 10
-1523.531631401916
 20
1858.559545733995
 30
0.0
 11
-1522.391631401917
 21
1858.559545733995
 31
0.0
  0
LINE
  5
1B00D
330
1A
100
AcDbEntity
  8
_2-4_PARTS
  6
CONTINUOUS
 62
     7
100
AcDbLine
 10
-1523.231631401917
 20
1857.559545733995
 30
0.0
 11
-1523.531631401916
 21
1858.559545733995
 31
0.0
  0
LINE
  5
1B00E
330
1A
100
AcDbEntity
  8
_2-4_PARTS
  6
CONTINUOUS
 62
     7
100
AcDbLine
 10
-1523.231631401917
 20
1857.559545733995
 30
0.0
 11
-1522.691631401916
 21
1857.559545733995
 31
0.0
  0
LINE
  5
1B00F
330
1A
100
AcDbEntity
  8
_2-4_PARTS
  6
CONTINUOUS
 62
     7
100
AcDbLine
 10
-1522.691631401916
 20
1857.559545733995
 30
0.0
 11
-1522.391631401917
 21
1858.559545733995
 31
0.0
  0
LINE
  5
1B010
330
1A
100
AcDbEntity
  8
_2-4_PARTS
  6
CONTINUOUS
 62
     7
100
AcDbLine
 10
-1522.391631401917
 20
1871.159545733995
 30
0.0
 11
-1522.391631401917
 21
1870.059545733995
 31
0.0
  0
LINE
  5
1B011
330
1A
100
AcDbEntity
  8
_2-4_PARTS
  6
CONTINUOUS
 62
     7
100
AcDbLine
 10
-1523.531631401916
 20
1871.159545733995
 30
0.0
 11
-1523.531631401916
 21
1870.059545733995
 31
0.0
  0
LINE
  5
1B012
330
1A
100
AcDbEntity
  8
_2-4_PARTS
  6
CONTINUOUS
 62
     7
100
AcDbLine
 10
-1523.531631401916
 20
1871.159545733995
 30
0.0
 11
-1522.391631401917
 21
1871.159545733995
 31
0.0
  0
LINE
  5
1B013
330
1A
100
AcDbEntity
  8
_2-4_PARTS
  6
CONTINUOUS
 62
     7
100
AcDbLine
 10
-1523.231631401917
 20
1872.159545733995
 30
0.0
 11
-1523.531631401916
 21
1871.159545733995
 31
0.0
  0
LINE
  5
1B014
330
1A
100
AcDbEntity
  8
_2-4_PARTS
  6
CONTINUOUS
 62
     7
100
AcDbLine
 10
-1523.231631401917
 20
1872.159545733995
 30
0.0
 11
-1522.691631401916
 21
1872.159545733995
 31
0.0
  0
LINE
  5
1B015
330
1A
100
AcDbEntity
  8
_2-4_PARTS
  6
CONTINUOUS
 62
     7
100
AcDbLine
 10
-1522.691631401916
 20
1872.159545733995
 30
0.0
 11
-1522.391631401917
 21
1871.159545733995
 31
0.0
  0
LINE
  5
1B016
330
1A
100
AcDbEntity
  8
_2-4_PARTS
  6
CONTINUOUS
 62
     7
100
AcDbLine
 10
-1519.571631401916
 20
1871.159545733995
 30
0.0
 11
-1519.571631401916
 21
1870.059545733995
 31
0.0
  0
LINE
  5
1B017
330
1A
100
AcDbEntity
  8
_2-4_PARTS
  6
CONTINUOUS
 62
     7
100
AcDbLine
 10
-1530.911631401916
 20
1859.059545733995
 30
0.0
 11
-1530.911631401916
 21
1865.259545733995
 31
0.0
  0
LINE
  5
1B018
330
1A
100
AcDbEntity
  8
_2-4_PARTS
  6
CONTINUOUS
 62
     7
100
AcDbLine
 10
-1530.991631401916
 20
1858.559545733995
 30
0.0
 11
-1530.991631401916
 21
1865.259545733995
 31
0.0
  0
LINE
  5
1B019
330
1A
100
AcDbEntity
  8
_2-4_PARTS
  6
CONTINUOUS
 62
     7
100
AcDbLine
 10
-1532.131631401916
 20
1865.259545733995
 30
0.0
 11
-1532.131631401916
 21
1858.559545733995
 31
0.0
  0
LINE
  5
1B01A
330
1A
100
AcDbEntity
  8
_2-4_PARTS
  6
CONTINUOUS
 62
     7
100
AcDbLine
 10
-1534.951631401916
 20
1858.559545733995
 30
0.0
 11
-1534.951631401916
 21
1865.259545733995
 31
0.0
  0
LINE
  5
1B01B
330
1A
100
AcDbEntity
  8
_2-4_PARTS
  6
CONTINUOUS
 62
     7
100
AcDbLine
 10
-1536.091631401917
 20
1865.259545733995
 30
0.0
 11
-1536.091631401917
 21
1858.559545733995
 31
0.0
  0
LINE
  5
1B01C
330
1A
100
AcDbEntity
  8
_2-4_PARTS
  6
CONTINUOUS
 62
     7
100
AcDbLine
 10
-1532.131631401916
 20
1859.059545733995
 30
0.0
 11
-1534.951631401916
 21
1859.059545733995
 31
0.0
  0
LINE
  5
1B01D
330
1A
100
AcDbEntity
  8
_2-4_PARTS
  6
CONTINUOUS
 62
     7
100
AcDbLine
 10
-1535.251631401917
 20
1857.559545733995
 30
0.0
 11
-1534.951631401916
 21
1858.559545733995
 31
0.0
  0
LINE
  5
1B01E
330
1A
100
AcDbEntity
  8
_2-4_PARTS
  6
CONTINUOUS
 62
     7
100
AcDbLine
 10
-1535.791631401917
 20
1857.559545733995
 30
0.0
 11
-1535.251631401917
 21
1857.559545733995
 31
0.0
  0
LINE
  5
1B01F
330
1A
100
AcDbEntity
  8
_2-4_PARTS
  6
CONTINUOUS
 62
     7
100
AcDbLine
 10
-1535.791631401917
 20
1857.559545733995
 30
0.0
 11
-1536.091631401917
 21
1858.559545733995
 31
0.0
  0
LINE
  5
1B020
330
1A
100
AcDbEntity
  8
_2-4_PARTS
  6
CONTINUOUS
 62
     7
100
AcDbLine
 10
-1536.091631401917
 20
1858.559545733995
 30
0.0
 11
-1534.951631401916
 21
1858.559545733995
 31
0.0
  0
LINE
  5
1B021
330
1A
100
AcDbEntity
  8
_2-4_PARTS
  6
CONTINUOUS
 62
     7
100
AcDbLine
 10
-1530.911631401916
 20
1859.059545733995
 30
0.0
 11
-1530.991631401916
 21
1859.059545733995
 31
0.0
  0
LINE
  5
1B022
330
1A
100
AcDbEntity
  8
_2-4_PARTS
  6
CONTINUOUS
 62
     7
100
AcDbLine
 10
-1531.291631401916
 20
1857.559545733995
 30
0.0
 11
-1530.991631401916
 21
1858.559545733995
 31
0.0
  0
LINE
  5
1B023
330
1A
100
AcDbEntity
  8
_2-4_PARTS
  6
CONTINUOUS
 62
     7
100
AcDbLine
 10
-1531.831631401916
 20
1857.559545733995
 30
0.0
 11
-1531.291631401916
 21
1857.559545733995
 31
0.0
  0
LINE
  5
1B024
330
1A
100
AcDbEntity
  8
_2-4_PARTS
  6
CONTINUOUS
 62
     7
100
AcDbLine
 10
-1531.831631401916
 20
1857.559545733995
 30
0.0
 11
-1532.131631401916
 21
1858.559545733995
 31
0.0
  0
LINE
  5
1B025
330
1A
100
AcDbEntity
  8
_2-4_PARTS
  6
CONTINUOUS
 62
     7
100
AcDbLine
 10
-1532.131631401916
 20
1858.559545733995
 30
0.0
 11
-1530.991631401916
 21
1858.559545733995
 31
0.0
  0
LINE
  5
1B026
330
1A
100
AcDbEntity
  8
_2-4_PARTS
  6
CONTINUOUS
 62
     7
100
AcDbLine
 10
-1534.951631401916
 20
1871.159545733995
 30
0.0
 11
-1534.951631401916
 21
1870.059545733995
 31
0.0
  0
LINE
  5
1B027
330
1A
100
AcDbEntity
  8
_2-4_PARTS
  6
CONTINUOUS
 62
     7
100
AcDbLine
 10
-1536.091631401917
 20
1871.159545733995
 30
0.0
 11
-1536.091631401917
 21
1870.059545733995
 31
0.0
  0
LINE
  5
1B028
330
1A
100
AcDbEntity
  8
_2-4_PARTS
  6
CONTINUOUS
 62
     7
100
AcDbLine
 10
-1535.251631401917
 20
1872.159545733995
 30
0.0
 11
-1534.951631401916
 21
1871.159545733995
 31
0.0
  0
LINE
  5
1B029
330
1A
100
AcDbEntity
  8
_2-4_PARTS
  6
CONTINUOUS
 62
     7
100
AcDbLine
 10
-1535.791631401917
 20
1872.159545733995
 30
0.0
 11
-1535.251631401917
 21
1872.159545733995
 31
0.0
  0
LINE
  5
1B02A
330
1A
100
AcDbEntity
  8
_2-4_PARTS
  6
CONTINUOUS
 62
     7
100
AcDbLine
 10
-1535.791631401917
 20
1872.159545733995
 30
0.0
 11
-1536.091631401917
 21
1871.159545733995
 31
0.0
  0
LINE
  5
1B02B
330
1A
100
AcDbEntity
  8
_2-4_PARTS
  6
CONTINUOUS
 62
     7
100
AcDbLine
 10
-1536.091631401917
 20
1871.159545733995
 30
0.0
 11
-1534.951631401916
 21
1871.159545733995
 31
0.0
  0
LINE
  5
1B02C
330
1A
100
AcDbEntity
  8
_2-4_PARTS
  6
CONTINUOUS
 62
     7
100
AcDbLine
 10
-1524.911631401916
 20
1865.259545733995
 30
0.0
 11
-1524.911631401916
 21
1868.459545733995
 31
0.0
  0
LINE
  5
1B02D
330
1A
100
AcDbEntity
  8
_2-4_PARTS
  6
CONTINUOUS
 62
     7
100
AcDbLine
 10
-1529.611631401917
 20
1865.259545733995
 30
0.0
 11
-1529.611631401917
 21
1868.459545733995
 31
0.0
  0
LINE
  5
1B02E
330
1A
100
AcDbEntity
  8
_2-4_PARTS
  6
CONTINUOUS
 62
     7
100
AcDbLine
 10
-1530.991631401916
 20
1871.159545733995
 30
0.0
 11
-1530.991631401916
 21
1870.059545733995
 31
0.0
  0
LINE
  5
1B02F
330
1A
100
AcDbEntity
  8
_2-4_PARTS
  6
CONTINUOUS
 62
     7
100
AcDbLine
 10
-1532.131631401916
 20
1871.159545733995
 30
0.0
 11
-1532.131631401916
 21
1870.059545733995
 31
0.0
  0
LINE
  5
1B030
330
1A
100
AcDbEntity
  8
_2-4_PARTS
  6
CONTINUOUS
 62
     7
100
AcDbLine
 10
-1531.291631401916
 20
1872.159545733995
 30
0.0
 11
-1530.991631401916
 21
1871.159545733995
 31
0.0
  0
LINE
  5
1B031
330
1A
100
AcDbEntity
  8
_2-4_PARTS
  6
CONTINUOUS
 62
     7
100
AcDbLine
 10
-1531.831631401916
 20
1872.159545733995
 30
0.0
 11
-1531.291631401916
 21
1872.159545733995
 31
0.0
  0
LINE
  5
1B032
330
1A
100
AcDbEntity
  8
_2-4_PARTS
  6
CONTINUOUS
 62
     7
100
AcDbLine
 10
-1531.831631401916
 20
1872.159545733995
 30
0.0
 11
-1532.131631401916
 21
1871.159545733995
 31
0.0
  0
LINE
  5
1B033
330
1A
100
AcDbEntity
  8
_2-4_PARTS
  6
CONTINUOUS
 62
     7
100
AcDbLine
 10
-1532.131631401916
 20
1871.159545733995
 30
0.0
 11
-1530.991631401916
 21
1871.159545733995
 31
0.0
  0
LINE
  5
1B034
330
1A
100
AcDbEntity
  8
CL1
100
AcDbLine
 10
-1507.981631401916
 20
1871.859545467159
 30
0.0
 11
-1507.981631401916
 21
1866.677192798927
 31
0.0
  0
LINE
  5
1B035
330
1A
100
AcDbEntity
  8
ZISSEN1
100
AcDbLine
 10
-1505.481631401917
 20
1870.059545733995
 30
0.0
 11
-1505.481631401917
 21
1868.459545733995
 31
0.0
  0
LINE
  5
1B036
330
1A
100
AcDbEntity
  8
ZISSEN1
100
AcDbLine
 10
-1504.481631401917
 20
1870.059545733995
 30
0.0
 11
-1504.481631401917
 21
1868.459545733995
 31
0.0
  0
LINE
  5
1B037
330
1A
100
AcDbEntity
  8
_2-4_PARTS
  6
CONTINUOUS
 62
     7
100
AcDbLine
 10
-1518.351631401916
 20
1859.059545733995
 30
0.0
 11
-1518.351631401916
 21
1865.259545733995
 31
0.0
  0
LINE
  5
1B038
330
1A
100
AcDbEntity
  8
_2-4_PARTS
  6
CONTINUOUS
 62
     7
100
AcDbLine
 10
-1518.431631401917
 20
1858.559545733995
 30
0.0
 11
-1518.431631401917
 21
1865.259545733995
 31
0.0
  0
LINE
  5
1B039
330
1A
100
AcDbEntity
  8
_2-4_PARTS
  6
CONTINUOUS
 62
     7
100
AcDbLine
 10
-1518.431631401917
 20
1859.059545733995
 30
0.0
 11
-1518.351631401916
 21
1859.059545733995
 31
0.0
  0
LINE
  5
1B03A
330
1A
100
AcDbEntity
  8
_2-4_PARTS
  6
CONTINUOUS
 62
     7
100
AcDbLine
 10
-1519.271631401917
 20
1857.559545733995
 30
0.0
 11
-1518.731631401917
 21
1857.559545733995
 31
0.0
  0
LINE
  5
1B03B
330
1A
100
AcDbEntity
  8
_2-4_PARTS
  6
CONTINUOUS
 62
     7
100
AcDbLine
 10
-1518.731631401917
 20
1857.559545733995
 30
0.0
 11
-1518.431631401917
 21
1858.559545733995
 31
0.0
  0
LINE
  5
1B03C
330
1A
100
AcDbEntity
  8
_2-4_PARTS
  6
CONTINUOUS
 62
     7
100
AcDbLine
 10
-1517.051631401916
 20
1865.259545733995
 30
0.0
 11
-1517.051631401916
 21
1868.459545733995
 31
0.0
  0
LINE
  5
1B03D
330
1A
100
AcDbEntity
  8
_2-4_PARTS
  6
CONTINUOUS
 62
     7
100
AcDbLine
 10
-1518.431631401917
 20
1871.159545733995
 30
0.0
 11
-1518.431631401917
 21
1870.059545733995
 31
0.0
  0
LINE
  5
1B03E
330
1A
100
AcDbEntity
  8
_2-4_PARTS
  6
CONTINUOUS
 62
     7
100
AcDbLine
 10
-1519.271631401917
 20
1872.159545733995
 30
0.0
 11
-1518.731631401917
 21
1872.159545733995
 31
0.0
  0
LINE
  5
1B03F
330
1A
100
AcDbEntity
  8
_2-4_PARTS
  6
CONTINUOUS
 62
     7
100
AcDbLine
 10
-1518.731631401917
 20
1872.159545733995
 30
0.0
 11
-1518.431631401917
 21
1871.159545733995
 31
0.0
  0
LEADER
  5
1B223
330
1A
100
AcDbEntity
  8
SUNPOU
100
AcDbLeader
  3
標準スタイル
 76
     3
 10
-1591.981631401916
 20
1834.280136297474
 30
0.0
 10
-1582.921392105923
 20
1843.164533869997
 30
0.0
 10
-1563.166692596175
 20
1843.164533869997
 30
0.0
1001
ACAD
1000
DSTYLE
1002
{
1070
     5
1000

1070
    77
1070
     0
1070
   147
1040
1.0
1002
}
  0
MTEXT
  5
1B229
330
1A
100
AcDbEntity
  8
ZISSEN1
 62
     1
100
AcDbMText
 10
-1582.796042009894
 20
1847.792110047796
 30
0.0
 40
3.5
 41
25.8939756371994
 71
     1
 72
     5
  1
4-φ3.5
1001
ACAD
1000
MTEXTBEGIN
1070
    73
1070
     1
1070
    44
1040
1.0
1070
    74
1070
     0
1000
MTEXTEND
  0
VIEWPORT
  5
15177
330
15176
100
AcDbEntity
 67
     1
  8
0
100
AcDbViewport
 10
292.5842486080426
 20
170.8832081622583
 30
0.0
 40
556.9520663273393
 41
313.1361402956286
 68
     1
 69
     1
1001
ACAD
1000
MVIEW
1002
{
1070
    16
1010
0.0
1020
0.0
1030
0.0
1010
0.0
1020
0.0
1030
1.0
1040
0.0
1040
313.1361402956286
1040
292.5842486080426
1040
170.8832081622583
1040
50.0
1040
0.0
1040
0.0
1070
     0
1070
   100
1070
     1
1070
     0
1070
     0
1070
     0
1070
     0
1070
     0
1040
0.0
1040
0.0
1040
0.0
1040
1.0
1040
1.0
1040
10.0
1040
10.0
1070
     0
1002
{
1002
}
1002
}
  0
VIEWPORT
  5
15178
330
15176
100
AcDbEntity
 67
     1
  8
ZISSEN1
100
AcDbViewport
 10
221.7861955525412
 20
157.6960273330388
 30
0.0
 40
385.4999999999997
 41
259.9999999999999
 68
     2
 69
     2
1001
ACAD
1000
MVIEW
1002
{
1070
    16
1010
0.0
1020
0.0
1030
0.0
1010
0.0
1020
0.0
1030
1.0
1040
0.0
1040
259.9999999999999
1040
-1549.345427798784
1040
1816.55429326409
1040
50.0
1040
0.0
1040
0.0
1070
     0
1070
   100
1070
     1
1070
     0
1070
     0
1070
     0
1070
     0
1070
     0
1040
0.0
1040
0.0
1040
0.0
1040
1.0
1040
1.0
1040
10.0
1040
10.0
1070
     0
1002
{
1002
}
1002
}
  0
TEXT
  5
15179
330
15176
100
AcDbEntity
 67
     1
  8
SUNPOU
 62
     0
100
AcDbText
 10
374.1863124306944
 20
60.86794705907585
 30
0.0
 40
3.5
  1
縮尺 1/1
100
AcDbText
  0
ENDSEC
  0
SECTION
  2
OBJECTS
  0
DICTIONARY
  5
C
330
0
100
AcDbDictionary
  3
ACAD_GROUP
350
D
  3
ACAD_LAYOUT
350
5C7D
  3
ACAD_MLINESTYLE
350
E
  3
ACAD_PLOTSETTINGS
350
5C7E
  3
ACAD_PLOTSTYLENAME
350
5C7B
  3
ACADDIM
350
16AEF
  3
ACDBVARIABLEDICTIONARY
350
13217
  3
DWGPROPS
350
5E8E
  3
ACDBHEADERROUNDTRIPXREC
350
1B322
  0
DICTIONARY
  5
1B342
330
1A
100
AcDbDictionary
280
     1
  3
ACAD_LAYOUTSELFREF
360
1B343
  0
DICTIONARY
  5
1B344
330
15176
100
AcDbDictionary
280
     1
  3
ACAD_LAYOUTSELFREF
360
1B345
  0
DICTIONARY
  5
D
102
{ACAD_REACTORS
330
C
102
}
330
C
100
AcDbDictionary
  3
*A1
350
477D
  3
*A2
350
477E
  3
*A3
350
477F
  3
*A4
350
4780
  3
*A5
350
4781
  3
*A6
350
13853
  3
*A7
350
4C0E
  3
*A8
350
4C0F
  3
*A9
350
4C10
  3
*A10
350
4C11
  3
*A11
350
4C12
  3
*A12
350
4C13
  3
*A13
350
4C14
  3
*A14
350
4C15
  3
*A15
350
4C16
  3
*A16
350
4C17
  0
DICTIONARY
  5
5C7D
102
{ACAD_REACTORS
330
C
102
}
330
C
100
AcDbDictionary
  0
DICTIONARY
  5
E
102
{ACAD_REACTORS
330
C
102
}
330
C
100
AcDbDictionary
  3
STANDARD
350
13
  0
DICTIONARY
  5
5C7E
102
{ACAD_REACTORS
330
C
102
}
330
C
100
AcDbDictionary
  0
ACDBDICTIONARYWDFLT
  5
5C7B
102
{ACAD_REACTORS
330
C
102
}
330
C
100
AcDbDictionary
281
     1
  3
Normal
350
5C7C
100
AcDbDictionaryWithDefault
340
5C7C
  0
XRECORD
  5
16AEF
102
{ACAD_REACTORS
330
C
102
}
330
C
100
AcDbXrecord
 90
   990106
  3

 60
     0
 61
     0
 62
     1
 63
     3
 64
     0
 65
     0
 66
     0
 67
     3
 68
     1
 69
     0
 70
     0
 71
     0
 72
     0
 40
0.0
170
     0
  0
DICTIONARY
  5
13217
102
{ACAD_REACTORS
330
C
102
}
330
C
100
AcDbDictionary
  3
SORTENTS
350
13218
  0
XRECORD
  5
5E8E
102
{ACAD_REACTORS
330
C
102
}
330
C
100
AcDbXrecord
  1
DWGPROPS COOKIE
  2

  3

  4

  6

  7

  8

  9

300
=
301
=
302
=
303
=
304
=
305
=
306
=
307
=
308
=
309
=
 40
0.586753587962963
 41
2450495.493631365
 42
2453208.662277431
  1

 90
        0
  0
DICTIONARY
  5
1B322
102
{ACAD_REACTORS
330
C
102
}
330
C
100
AcDbDictionary
  3
TSTACKALIGN
350
1B323
  3
TSTACKSIZE
350
1B324
  3
HYPERLINKBASE
350
1B325
  3
STYLESHEET
350
1B326
  3
LAYOUTDICT
350
1B327
  3
PLOTSETDICT
350
1B328
  3
PLOTSTYLNAMDICT
350
1B329
  3
LWETCUNION
350
1B32A
  3
INSUNITS
350
1B32B
  3
CEPSNTYPE
350
1B32C
  3
FINGERPRINTGUID
350
1B32D
  3
VERSIONGUID
350
1B32E
  3
PSVPSCALE
350
1B32F
  3
PUCSORTHOREF
350
1B330
  3
PUCSORTHOVIEW
350
1B331
  3
PUCSBASE
350
1B332
  3
PUCSORGTOP
350
1B333
  3
PUCSORGBOTTOM
350
1B334
  3
PUCSORGLEFT
350
1B335
  3
PUCSORGRIGHT
350
1B336
  3
PUCSORGFRONT
350
1B337
  3
PUCSORGBACK
350
1B338
  3
UCSORTHOREF
350
1B339
  3
UCSORTHOVIEW
350
1B33A
  3
UCSBASE
350
1B33B
  3
UCSORGTOP
350
1B33C
  3
UCSORGBOTTOM
350
1B33D
  3
UCSORGLEFT
350
1B33E
  3
UCSORGRIGHT
350
1B33F
  3
UCSORGFRONT
350
1B340
  3
UCSORGBACK
350
1B341
  0
XRECORD
  5
1B343
102
{ACAD_REACTORS
330
1B342
102
}
330
1B342
100
AcDbXrecord
340
1A
  0
XRECORD
  5
1B345
102
{ACAD_REACTORS
330
1B344
102
}
330
1B344
100
AcDbXrecord
340
15176
  0
GROUP
  5
477D
102
{ACAD_REACTORS
330
D
102
}
330
D
100
AcDbGroup
300

 70
     1
 71
     1
  0
GROUP
  5
477E
102
{ACAD_REACTORS
330
D
102
}
330
D
100
AcDbGroup
300

 70
     1
 71
     1
  0
GROUP
  5
477F
102
{ACAD_REACTORS
330
D
102
}
330
D
100
AcDbGroup
300

 70
     1
 71
     1
  0
GROUP
  5
4780
102
{ACAD_REACTORS
330
D
102
}
330
D
100
AcDbGroup
300

 70
     1
 71
     1
  0
GROUP
  5
4781
102
{ACAD_REACTORS
330
D
102
}
330
D
100
AcDbGroup
300

 70
     1
 71
     1
  0
GROUP
  5
13853
102
{ACAD_REACTORS
330
D
102
}
330
D
100
AcDbGroup
300

 70
     1
 71
     1
  0
GROUP
  5
4C0E
102
{ACAD_REACTORS
330
D
102
}
330
D
100
AcDbGroup
300

 70
     1
 71
     1
  0
GROUP
  5
4C0F
102
{ACAD_REACTORS
330
D
102
}
330
D
100
AcDbGroup
300

 70
     1
 71
     1
  0
GROUP
  5
4C10
102
{ACAD_REACTORS
330
D
102
}
330
D
100
AcDbGroup
300

 70
     1
 71
     1
  0
GROUP
  5
4C11
102
{ACAD_REACTORS
330
D
102
}
330
D
100
AcDbGroup
300

 70
     1
 71
     1
  0
GROUP
  5
4C12
102
{ACAD_REACTORS
330
D
102
}
330
D
100
AcDbGroup
300

 70
     1
 71
     1
  0
GROUP
  5
4C13
102
{ACAD_REACTORS
330
D
102
}
330
D
100
AcDbGroup
300

 70
     1
 71
     1
  0
GROUP
  5
4C14
102
{ACAD_REACTORS
330
D
102
}
330
D
100
AcDbGroup
300

 70
     1
 71
     1
  0
GROUP
  5
4C15
102
{ACAD_REACTORS
330
D
102
}
330
D
100
AcDbGroup
300

 70
     1
 71
     1
  0
GROUP
  5
4C16
102
{ACAD_REACTORS
330
D
102
}
330
D
100
AcDbGroup
300

 70
     1
 71
     1
  0
GROUP
  5
4C17
102
{ACAD_REACTORS
330
D
102
}
330
D
100
AcDbGroup
300

 70
     1
 71
     1
  0
MLINESTYLE
  5
13
102
{ACAD_REACTORS
330
E
102
}
330
E
100
AcDbMlineStyle
  2
STANDARD
 70
     0
  3

 62
     0
 51
90.0
 52
90.0
 71
     2
 49
0.5
 62
   256
  6
BYLAYER
 49
-0.5
 62
   256
  6
BYLAYER
  0
ACDBPLACEHOLDER
  5
5C7C
102
{ACAD_REACTORS
330
5C7B
102
}
330
5C7B
100
AcDbPlaceHolder
280
     0
  0
DICTIONARYVAR
  5
13218
102
{ACAD_REACTORS
330
13217
102
}
330
13217
100
DictionaryVariables
280
     0
  1
96
  0
XRECORD
  5
1B323
102
{ACAD_REACTORS
330
1B322
102
}
330
1B322
100
AcDbXrecord
 90
        1
  0
XRECORD
  5
1B324
102
{ACAD_REACTORS
330
1B322
102
}
330
1B322
100
AcDbXrecord
 90
       70
  0
XRECORD
  5
1B325
102
{ACAD_REACTORS
330
1B322
102
}
330
1B322
100
AcDbXrecord
  1

  0
XRECORD
  5
1B326
102
{ACAD_REACTORS
330
1B322
102
}
330
1B322
100
AcDbXrecord
  1

  0
XRECORD
  5
1B327
102
{ACAD_REACTORS
330
1B322
102
}
330
1B322
100
AcDbXrecord
340
5C7D
  0
XRECORD
  5
1B328
102
{ACAD_REACTORS
330
1B322
102
}
330
1B322
100
AcDbXrecord
340
5C7E
  0
XRECORD
  5
1B329
102
{ACAD_REACTORS
330
1B322
102
}
330
1B322
100
AcDbXrecord
340
5C7B
  0
XRECORD
  5
1B32A
102
{ACAD_REACTORS
330
1B322
102
}
330
1B322
100
AcDbXrecord
 90
    10781
  0
XRECORD
  5
1B32B
102
{ACAD_REACTORS
330
1B322
102
}
330
1B322
100
AcDbXrecord
 90
        0
  0
XRECORD
  5
1B32C
102
{ACAD_REACTORS
330
1B322
102
}
330
1B322
100
AcDbXrecord
 90
        0
  0
XRECORD
  5
1B32D
102
{ACAD_REACTORS
330
1B322
102
}
330
1B322
100
AcDbXrecord
  1
{225A7F0D-DA29-11D8-946A-0000E2416295}
  0
XRECORD
  5
1B32E
102
{ACAD_REACTORS
330
1B322
102
}
330
1B322
100
AcDbXrecord
  1
{C59B13C2-0460-4F4D-B151-0B445A91BB38}
  0
XRECORD
  5
1B32F
102
{ACAD_REACTORS
330
1B322
102
}
330
1B322
100
AcDbXrecord
 40
0.0
  0
XRECORD
  5
1B330
102
{ACAD_REACTORS
330
1B322
102
}
330
1B322
100
AcDbXrecord
340
0
  0
XRECORD
  5
1B331
102
{ACAD_REACTORS
330
1B322
102
}
330
1B322
100
AcDbXrecord
 70
     0
  0
XRECORD
  5
1B332
102
{ACAD_REACTORS
330
1B322
102
}
330
1B322
100
AcDbXrecord
340
0
  0
XRECORD
  5
1B333
102
{ACAD_REACTORS
330
1B322
102
}
330
1B322
100
AcDbXrecord
 10
0.0
 20
0.0
 30
0.0
  0
XRECORD
  5
1B334
102
{ACAD_REACTORS
330
1B322
102
}
330
1B322
100
AcDbXrecord
 10
0.0
 20
0.0
 30
0.0
  0
XRECORD
  5
1B335
102
{ACAD_REACTORS
330
1B322
102
}
330
1B322
100
AcDbXrecord
 10
0.0
 20
0.0
 30
0.0
  0
XRECORD
  5
1B336
102
{ACAD_REACTORS
330
1B322
102
}
330
1B322
100
AcDbXrecord
 10
0.0
 20
0.0
 30
0.0
  0
XRECORD
  5
1B337
102
{ACAD_REACTORS
330
1B322
102
}
330
1B322
100
AcDbXrecord
 10
0.0
 20
0.0
 30
0.0
  0
XRECORD
  5
1B338
102
{ACAD_REACTORS
330
1B322
102
}
330
1B322
100
AcDbXrecord
 10
0.0
 20
0.0
 30
0.0
  0
XRECORD
  5
1B339
102
{ACAD_REACTORS
330
1B322
102
}
330
1B322
100
AcDbXrecord
340
0
  0
XRECORD
  5
1B33A
102
{ACAD_REACTORS
330
1B322
102
}
330
1B322
100
AcDbXrecord
 70
     0
  0
XRECORD
  5
1B33B
102
{ACAD_REACTORS
330
1B322
102
}
330
1B322
100
AcDbXrecord
340
0
  0
XRECORD
  5
1B33C
102
{ACAD_REACTORS
330
1B322
102
}
330
1B322
100
AcDbXrecord
 10
0.0
 20
0.0
 30
0.0
  0
XRECORD
  5
1B33D
102
{ACAD_REACTORS
330
1B322
102
}
330
1B322
100
AcDbXrecord
 10
0.0
 20
0.0
 30
0.0
  0
XRECORD
  5
1B33E
102
{ACAD_REACTORS
330
1B322
102
}
330
1B322
100
AcDbXrecord
 10
0.0
 20
0.0
 30
0.0
  0
XRECORD
  5
1B33F
102
{ACAD_REACTORS
330
1B322
102
}
330
1B322
100
AcDbXrecord
 10
0.0
 20
0.0
 30
0.0
  0
XRECORD
  5
1B340
102
{ACAD_REACTORS
330
1B322
102
}
330
1B322
100
AcDbXrecord
 10
0.0
 20
0.0
 30
0.0
  0
XRECORD
  5
1B341
102
{ACAD_REACTORS
330
1B322
102
}
330
1B322
100
AcDbXrecord
 10
0.0
 20
0.0
 30
0.0
  0
ENDSEC
  0
EOF
