  0
SECTION
  2
HEADER
  9
$ACADVER
  1
AC1014
  9
$ACADMAINTVER
 70
     9
  9
$DWGCODEPAGE
  3
ANSI_932
  9
$INSBASE
 10
0.0
 20
0.0
 30
0.0
  9
$EXTMIN
 10
-1290.676863784039
 20
1754.280949657875
 30
0.0
  9
$EXTMAX
 10
-1116.195107483045
 20
1900.614475037074
 30
0.0
  9
$LIMMIN
 10
0.0
 20
0.0
  9
$LIMMAX
 10
420.0
 20
297.0
  9
$ORTHOMODE
 70
     1
  9
$REGENMODE
 70
     1
  9
$FILLMODE
 70
     1
  9
$QTEXTMODE
 70
     0
  9
$MIRRTEXT
 70
     1
  9
$DRAGMODE
 70
     2
  9
$LTSCALE
 40
1.0
  9
$OSMODE
 70
    37
  9
$ATTMODE
 70
     1
  9
$TEXTSIZE
 40
2.5
  9
$TRACEWID
 40
1.0
  9
$TEXTSTYLE
  7
ゴシック体
  9
$CLAYER
  8
CL1
  9
$CELTYPE
  6
BYLAYER
  9
$CECOLOR
 62
   256
  9
$CELTSCALE
 40
1.0
  9
$DELOBJ
 70
     1
  9
$DISPSILH
 70
     0
  9
$DIMSCALE
 40
0.0
  9
$DIMASZ
 40
3.0
  9
$DIMEXO
 40
0.5
  9
$DIMDLI
 40
0.5
  9
$DIMRND
 40
0.0
  9
$DIMDLE
 40
0.0
  9
$DIMEXE
 40
0.5
  9
$DIMTP
 40
0.0
  9
$DIMTM
 40
0.0
  9
$DIMTXT
 40
3.5
  9
$DIMCEN
 40
0.0
  9
$DIMTSZ
 40
0.0
  9
$DIMTOL
 70
     0
  9
$DIMLIM
 70
     0
  9
$DIMTIH
 70
     0
  9
$DIMTOH
 70
     0
  9
$DIMSE1
 70
     0
  9
$DIMSE2
 70
     0
  9
$DIMTAD
 70
     1
  9
$DIMZIN
 70
     8
  9
$DIMBLK
  1

  9
$DIMASO
 70
     1
  9
$DIMSHO
 70
     1
  9
$DIMPOST
  1

  9
$DIMAPOST
  1

  9
$DIMALT
 70
     0
  9
$DIMALTD
 70
     2
  9
$DIMALTF
 40
25.4
  9
$DIMLFAC
 40
1.0
  9
$DIMTOFL
 70
     1
  9
$DIMTVP
 40
0.0
  9
$DIMTIX
 70
     0
  9
$DIMSOXD
 70
     0
  9
$DIMSAH
 70
     0
  9
$DIMBLK1
  1

  9
$DIMBLK2
  1

  9
$DIMSTYLE
  2
標準スタイル
  9
$DIMCLRD
 70
     1
  9
$DIMCLRE
 70
     1
  9
$DIMCLRT
 70
     1
  9
$DIMTFAC
 40
1.0
  9
$DIMGAP
 40
1.0
  9
$DIMJUST
 70
     0
  9
$DIMSD1
 70
     0
  9
$DIMSD2
 70
     0
  9
$DIMTOLJ
 70
     1
  9
$DIMTZIN
 70
     8
  9
$DIMALTZ
 70
     0
  9
$DIMALTTZ
 70
     0
  9
$DIMFIT
 70
     3
  9
$DIMUPT
 70
     0
  9
$DIMUNIT
 70
     2
  9
$DIMDEC
 70
     2
  9
$DIMTDEC
 70
     2
  9
$DIMALTU
 70
     2
  9
$DIMALTTD
 70
     2
  9
$DIMTXSTY
  7
ゴシック体
  9
$DIMAUNIT
 70
     0
  9
$LUNITS
 70
     2
  9
$LUPREC
 70
     4
  9
$SKETCHINC
 40
1.0
  9
$FILLETRAD
 40
1.0
  9
$AUNITS
 70
     0
  9
$AUPREC
 70
     0
  9
$MENU
  1
.
  9
$ELEVATION
 40
0.0
  9
$PELEVATION
 40
0.0
  9
$THICKNESS
 40
0.0
  9
$LIMCHECK
 70
     0
  9
$BLIPMODE
 70
     0
  9
$CHAMFERA
 40
1.0
  9
$CHAMFERB
 40
1.0
  9
$CHAMFERC
 40
2.0
  9
$CHAMFERD
 40
0.7853981633974483
  9
$SKPOLY
 70
     0
  9
$TDCREATE
 40
2450495.493631365
  9
$TDUPDATE
 40
2458872.620752696
  9
$TDINDWG
 40
2.9160082407
  9
$TDUSRTIMER
 40
2.9160082407
  9
$USRTIMER
 70
     1
  9
$ANGBASE
 50
0.0
  9
$ANGDIR
 70
     0
  9
$PDMODE
 70
    99
  9
$PDSIZE
 40
0.0
  9
$PLINEWID
 40
0.0
  9
$COORDS
 70
     0
  9
$SPLFRAME
 70
     0
  9
$SPLINETYPE
 70
     6
  9
$SPLINESEGS
 70
     8
  9
$ATTDIA
 70
     0
  9
$ATTREQ
 70
     1
  9
$HANDLING
 70
 10241
  9
$HANDSEED
  5
1AB50
  9
$SURFTAB1
 70
     6
  9
$SURFTAB2
 70
     6
  9
$SURFTYPE
 70
     6
  9
$SURFU
 70
     6
  9
$SURFV
 70
     6
  9
$UCSNAME
  2

  9
$UCSORG
 10
0.0
 20
0.0
 30
0.0
  9
$UCSXDIR
 10
1.0
 20
0.0
 30
0.0
  9
$UCSYDIR
 10
0.0
 20
1.0
 30
0.0
  9
$PUCSNAME
  2

  9
$PUCSORG
 10
0.0
 20
0.0
 30
0.0
  9
$PUCSXDIR
 10
1.0
 20
0.0
 30
0.0
  9
$PUCSYDIR
 10
0.0
 20
1.0
 30
0.0
  9
$USERI1
 70
     0
  9
$USERI2
 70
     0
  9
$USERI3
 70
     0
  9
$USERI4
 70
     0
  9
$USERI5
 70
     0
  9
$USERR1
 40
0.0
  9
$USERR2
 40
0.0
  9
$USERR3
 40
0.0
  9
$USERR4
 40
0.0
  9
$USERR5
 40
0.0
  9
$WORLDVIEW
 70
     1
  9
$SHADEDGE
 70
     3
  9
$SHADEDIF
 70
    70
  9
$TILEMODE
 70
     0
  9
$MAXACTVP
 70
    16
  9
$PINSBASE
 10
0.0
 20
0.0
 30
0.0
  9
$PLIMCHECK
 70
     0
  9
$PEXTMIN
 10
29.03619555254135
 20
27.69602733303884
 30
0.0
  9
$PEXTMAX
 10
414.5361955525411
 20
287.6960273330388
 30
0.0
  9
$PLIMMIN
 10
15.15433780389673
 20
13.80781516542163
  9
$PLIMMAX
 10
435.1009930773342
 20
310.8184658001872
  9
$UNITMODE
 70
     0
  9
$VISRETAIN
 70
     0
  9
$PLINEGEN
 70
     0
  9
$PSLTSCALE
 70
     1
  9
$TREEDEPTH
 70
  3020
  9
$PICKSTYLE
 70
     1
  9
$CMLSTYLE
  2
STANDARD
  9
$CMLJUST
 70
     0
  9
$CMLSCALE
 40
1.0
  9
$PROXYGRAPHICS
 70
     1
  9
$MEASUREMENT
 70
     0
  0
ENDSEC
  0
SECTION
  2
CLASSES
  0
CLASS
  1
LWPOLYLINE
  2
AcDbPolyline
  3
AutoCAD 2000
 90
        0
280
     0
281
     1
  0
CLASS
  1
HATCH
  2
AcDbHatch
  3
AutoCAD 2000
 90
        0
280
     0
281
     1
  0
CLASS
  1
ACDBDICTIONARYWDFLT
  2
AcDbDictionaryWithDefault
  3
AutoCAD 2000
 90
        0
280
     0
281
     0
  0
CLASS
  1
ACDBPLACEHOLDER
  2
AcDbPlaceHolder
  3
AutoCAD 2000
 90
        0
280
     0
281
     0
  0
CLASS
  1
LAYOUT
  2
AcDbLayout
  3
AutoCAD 2000
 90
        0
280
     0
281
     0
  0
CLASS
  1
DICTIONARYVAR
  2
AcDbDictionaryVar
  3
AutoCAD 2000
 90
        0
280
     0
281
     0
  0
CLASS
  1
LONG_TRANSACTION
  2
AcDbLongTransaction
  3
AutoCAD 2000
 90
        0
280
     0
281
     0
  0
CLASS
  1
LWPOLYLINE
  2
AcDbPolyline
  3
AutoCAD 2000
 90
        0
280
     0
281
     1
  0
CLASS
  1
HATCH
  2
AcDbHatch
  3
AutoCAD 2000
 90
        0
280
     0
281
     1
  0
CLASS
  1
XRECORD
  2
AcDbXrecord
  3
AutoCAD 2000
 90
        0
280
     0
281
     0
  0
ENDSEC
  0
SECTION
  2
TABLES
  0
TABLE
  2
VPORT
  5
8
330
0
100
AcDbSymbolTable
 70
     2
  0
VPORT
  5
1AAD8
330
8
100
AcDbSymbolTableRecord
100
AcDbViewportTableRecord
  2
*ACTIVE
 70
     0
 10
0.0
 20
0.0
 11
1.0
 21
1.0
 12
-1203.415008344906
 22
1827.444767340732
 13
0.0
 23
0.0
 14
5.0
 24
5.0
 15
0.0
 25
0.0
 16
0.0
 26
0.0
 36
1.0
 17
0.0
 27
0.0
 37
0.0
 40
148.1292048709265
 41
1.778625954198473
 42
50.0
 43
0.0
 44
0.0
 50
0.0
 51
0.0
 71
     0
 72
   100
 73
     1
 74
     0
 75
     0
 76
     0
 77
     0
 78
     0
  0
ENDTAB
  0
TABLE
  2
LTYPE
  5
5
330
0
100
AcDbSymbolTable
 70
     2
  0
LTYPE
  5
14
330
5
100
AcDbSymbolTableRecord
100
AcDbLinetypeTableRecord
  2
BYBLOCK
 70
     0
  3

 72
    65
 73
     0
 40
0.0
  0
LTYPE
  5
15
330
5
100
AcDbSymbolTableRecord
100
AcDbLinetypeTableRecord
  2
BYLAYER
 70
     0
  3

 72
    65
 73
     0
 40
0.0
  0
LTYPE
  5
16
330
5
100
AcDbSymbolTableRecord
100
AcDbLinetypeTableRecord
  2
CONTINUOUS
 70
     0
  3
Solid line
 72
    65
 73
     0
 40
0.0
  0
LTYPE
  5
1956
330
5
100
AcDbSymbolTableRecord
100
AcDbLinetypeTableRecord
  2
CENTERX2
 70
     0
  3
________  __  ________  __  ________  __  _____
 72
    65
 73
     4
 40
4.0
 49
2.5
 74
     0
 49
-0.5
 74
     0
 49
0.5
 74
     0
 49
-0.5
 74
     0
  0
ENDTAB
  0
TABLE
  2
LAYER
  5
2
330
0
100
AcDbSymbolTable
 70
     8
  0
LAYER
  5
F
330
2
100
AcDbSymbolTableRecord
100
AcDbLayerTableRecord
  2
0
 70
     0
 62
     7
  6
CONTINUOUS
  0
LAYER
  5
18F
330
2
100
AcDbSymbolTableRecord
100
AcDbLayerTableRecord
  2
ZISSEN1
 70
     0
 62
     7
  6
CONTINUOUS
  0
LAYER
  5
529
330
2
100
AcDbSymbolTableRecord
100
AcDbLayerTableRecord
  2
SUNPOU
 70
     0
 62
     1
  6
CONTINUOUS
  0
LAYER
  5
195A
330
2
100
AcDbSymbolTableRecord
100
AcDbLayerTableRecord
  2
CL1
 70
     0
 62
   210
  6
CENTERX2
  0
LAYER
  5
3A9B
330
2
100
AcDbSymbolTableRecord
100
AcDbLayerTableRecord
  2
DEFPOINTS
 70
     0
 62
     7
  6
CONTINUOUS
  0
LAYER
  5
16B89
330
2
100
AcDbSymbolTableRecord
100
AcDbLayerTableRecord
  2
_2-4_PARTS
 70
     0
 62
     7
  6
CONTINUOUS
  0
ENDTAB
  0
TABLE
  2
STYLE
  5
3
330
0
100
AcDbSymbolTable
 70
     2
  0
STYLE
  5
10
330
3
100
AcDbSymbolTableRecord
100
AcDbTextStyleTableRecord
  2
STANDARD
 70
     0
 40
0.0
 41
1.0
 50
0.0
 71
     0
 42
3.0
  3
txt
  4
BigFont
  0
STYLE
  5
1960
330
3
100
AcDbSymbolTableRecord
100
AcDbTextStyleTableRecord
  2
ゴシック体
 70
     0
 40
0.0
 41
1.0
 50
0.0
 71
     0
 42
2.5
  3
MS Gothic.ttf
  4

1001
ACAD
1000
MS Gothic
1071
    32817
  0
ENDTAB
  0
TABLE
  2
VIEW
  5
6
330
0
100
AcDbSymbolTable
 70
     0
  0
ENDTAB
  0
TABLE
  2
UCS
  5
7
330
0
100
AcDbSymbolTable
 70
     0
  0
ENDTAB
  0
TABLE
  2
APPID
  5
9
330
0
100
AcDbSymbolTable
 70
     5
  0
APPID
  5
11
330
9
100
AcDbSymbolTableRecord
100
AcDbRegAppTableRecord
  2
ACAD
 70
     0
  0
APPID
  5
4005
330
9
100
AcDbSymbolTableRecord
100
AcDbRegAppTableRecord
  2
CONTENTTABDATA
 70
     0
  0
APPID
  5
4006
330
9
100
AcDbSymbolTableRecord
100
AcDbRegAppTableRecord
  2
CONTENTCURRENTTAB
 70
     0
  0
APPID
  5
477B
330
9
100
AcDbSymbolTableRecord
100
AcDbRegAppTableRecord
  2
CONTENTBLOCKDESCRIPTION
 70
     0
  0
APPID
  5
477C
330
9
100
AcDbSymbolTableRecord
100
AcDbRegAppTableRecord
  2
CONTENTBLOCKICON
 70
     0
  0
ENDTAB
  0
TABLE
  2
DIMSTYLE
  5
A
330
0
100
AcDbSymbolTable
 70
     2
  0
DIMSTYLE
105
1D
330
A
100
AcDbSymbolTableRecord
100
AcDbDimStyleTableRecord
  2
STANDARD
 70
     0
  3

  4

  5

  6

  7

 40
1.0
 41
0.18
 42
0.0625
 43
0.38
 44
0.18
 45
0.0
 46
0.0
 47
0.0
 48
0.0
140
0.18
141
0.09
142
0.0
143
25.4
144
1.0
145
0.0
146
1.0
147
0.09
 71
     0
 72
     0
 73
     1
 74
     1
 75
     0
 76
     0
 77
     0
 78
     0
170
     0
171
     2
172
     0
173
     0
174
     0
175
     0
176
     0
177
     0
178
     0
270
     2
271
     4
272
     4
273
     2
274
     2
340
10
275
     0
280
     0
281
     0
282
     0
283
     1
284
     0
285
     0
286
     0
287
     3
288
     0
  0
DIMSTYLE
105
52E
102
{ACAD_REACTORS
330
1723C
330
1725A
330
1728A
330
172A9
330
172B6
330
172D1
330
172E4
330
17310
330
17297
330
1727B
330
172C3
330
1724B
330
172FF
330
17267
102
}
330
A
100
AcDbSymbolTableRecord
100
AcDbDimStyleTableRecord
  2
標準スタイル
 70
     0
  3

  4

  5

  6

  7

 40
0.0
 41
3.0
 42
0.5
 43
0.5
 44
0.5
 45
0.0
 46
0.0
 47
0.0
 48
0.0
140
3.5
141
0.0
142
0.0
143
25.4
144
1.0
145
0.0
146
1.0
147
1.0
 71
     0
 72
     0
 73
     0
 74
     0
 75
     0
 76
     0
 77
     1
 78
     8
170
     0
171
     2
172
     1
173
     0
174
     0
175
     0
176
     1
177
     1
178
     1
270
     2
271
     2
272
     2
273
     2
274
     2
340
1960
275
     0
280
     0
281
     0
282
     0
283
     1
284
     8
285
     0
286
     0
287
     3
288
     0
  0
ENDTAB
  0
TABLE
  2
BLOCK_RECORD
  5
1
330
0
100
AcDbSymbolTable
 70
    15
  0
BLOCK_RECORD
  5
1A
102
{ACAD_XDICTIONARY
360
1AAF9
102
}
330
1
100
AcDbSymbolTableRecord
100
AcDbBlockTableRecord
  2
*MODEL_SPACE
  0
BLOCK_RECORD
  5
15176
102
{ACAD_XDICTIONARY
360
1AAFB
102
}
330
1
100
AcDbSymbolTableRecord
100
AcDbBlockTableRecord
  2
*PAPER_SPACE
  0
BLOCK_RECORD
  5
1723D
330
1
100
AcDbSymbolTableRecord
100
AcDbBlockTableRecord
  2
*D0
  0
BLOCK_RECORD
  5
1724C
330
1
100
AcDbSymbolTableRecord
100
AcDbBlockTableRecord
  2
*D1
  0
BLOCK_RECORD
  5
1725B
330
1
100
AcDbSymbolTableRecord
100
AcDbBlockTableRecord
  2
*D2
  0
BLOCK_RECORD
  5
17268
330
1
100
AcDbSymbolTableRecord
100
AcDbBlockTableRecord
  2
*D3
  0
BLOCK_RECORD
  5
1727C
330
1
100
AcDbSymbolTableRecord
100
AcDbBlockTableRecord
  2
*D4
  0
BLOCK_RECORD
  5
1728B
330
1
100
AcDbSymbolTableRecord
100
AcDbBlockTableRecord
  2
*D5
  0
BLOCK_RECORD
  5
17298
330
1
100
AcDbSymbolTableRecord
100
AcDbBlockTableRecord
  2
*D6
  0
BLOCK_RECORD
  5
172AA
330
1
100
AcDbSymbolTableRecord
100
AcDbBlockTableRecord
  2
*D7
  0
BLOCK_RECORD
  5
172B7
330
1
100
AcDbSymbolTableRecord
100
AcDbBlockTableRecord
  2
*D8
  0
BLOCK_RECORD
  5
172C4
330
1
100
AcDbSymbolTableRecord
100
AcDbBlockTableRecord
  2
*D9
  0
BLOCK_RECORD
  5
172D2
330
1
100
AcDbSymbolTableRecord
100
AcDbBlockTableRecord
  2
*D10
  0
BLOCK_RECORD
  5
172E5
330
1
100
AcDbSymbolTableRecord
100
AcDbBlockTableRecord
  2
*D11
  0
BLOCK_RECORD
  5
17300
330
1
100
AcDbSymbolTableRecord
100
AcDbBlockTableRecord
  2
*D12
  0
BLOCK_RECORD
  5
17311
330
1
100
AcDbSymbolTableRecord
100
AcDbBlockTableRecord
  2
*D13
  0
BLOCK_RECORD
  5
174E2
330
1
100
AcDbSymbolTableRecord
100
AcDbBlockTableRecord
  2
-000-51067_C
  0
ENDTAB
  0
ENDSEC
  0
SECTION
  2
BLOCKS
  0
BLOCK
  5
1B
330
1A
100
AcDbEntity
  8
0
100
AcDbBlockBegin
  2
*MODEL_SPACE
 70
     0
 10
0.0
 20
0.0
 30
0.0
  3
*MODEL_SPACE
  1

  0
ENDBLK
  5
1C
330
1A
100
AcDbEntity
  8
0
100
AcDbBlockEnd
  0
BLOCK
  5
1517A
330
15176
100
AcDbEntity
 67
     1
  8
0
100
AcDbBlockBegin
  2
*PAPER_SPACE
 70
     0
 10
0.0
 20
0.0
 30
0.0
  3
*PAPER_SPACE
  1

  0
ENDBLK
  5
1517B
330
15176
100
AcDbEntity
 67
     1
  8
0
100
AcDbBlockEnd
  0
BLOCK
  5
17247
330
1723D
100
AcDbEntity
  8
0
100
AcDbBlockBegin
  2
*D0
 70
     1
 10
0.0
 20
0.0
 30
0.0
  3
*D0
  1

  0
LINE
  5
1A92B
330
1723D
100
AcDbEntity
  8
SUNPOU
 62
     1
100
AcDbLine
 10
-1262.660675197518
 20
1779.780136099817
 30
0.0
 11
-1286.676863784038
 21
1779.780136099817
 31
0.0
  0
LINE
  5
1A92C
330
1723D
100
AcDbEntity
  8
SUNPOU
 62
     1
100
AcDbLine
 10
-1262.660675197518
 20
1837.780136065227
 30
0.0
 11
-1286.676863784038
 21
1837.780136065227
 31
0.0
  0
LINE
  5
1A92D
330
1723D
100
AcDbEntity
  8
SUNPOU
 62
     1
100
AcDbLine
 10
-1286.176863784039
 20
1782.780136099817
 30
0.0
 11
-1286.176863784039
 21
1834.780136065227
 31
0.0
  0
SOLID
  5
1A92E
330
1723D
100
AcDbEntity
  8
SUNPOU
 62
     1
100
AcDbTrace
 10
-1286.676863784038
 20
1782.780136099817
 30
0.0
 11
-1285.676863784039
 21
1782.780136099817
 31
0.0
 12
-1286.176863784039
 22
1779.780136099817
 32
0.0
 13
-1286.176863784039
 23
1779.780136099817
 33
0.0
  0
SOLID
  5
1A92F
330
1723D
100
AcDbEntity
  8
SUNPOU
 62
     1
100
AcDbTrace
 10
-1286.676863784038
 20
1834.780136065227
 30
0.0
 11
-1285.676863784039
 21
1834.780136065227
 31
0.0
 12
-1286.176863784039
 22
1837.780136065227
 32
0.0
 13
-1286.176863784039
 23
1837.780136065227
 33
0.0
  0
MTEXT
  5
1A930
330
1723D
100
AcDbEntity
  8
SUNPOU
 62
     1
100
AcDbMText
 10
-1288.926863784039
 20
1808.780136082522
 30
0.0
 40
3.5
 41
0.0
 71
     5
 72
     1
  1
\A1;58
 11
0.0000000000000001
 21
1.0
 31
0.0
1001
ACAD
1000
MTEXTBEGIN
1070
    73
1070
     1
1070
    44
1040
1.0
1070
    74
1070
     0
1000
MTEXTEND
  0
POINT
  5
1A931
330
1723D
100
AcDbEntity
  8
DEFPOINTS
 62
     0
100
AcDbPoint
 10
-1262.160675197518
 20
1779.780136099817
 30
0.0
  0
POINT
  5
1A932
330
1723D
100
AcDbEntity
  8
DEFPOINTS
 62
     0
100
AcDbPoint
 10
-1262.160675197518
 20
1837.780136065227
 30
0.0
  0
POINT
  5
1A933
330
1723D
100
AcDbEntity
  8
DEFPOINTS
 62
     0
100
AcDbPoint
 10
-1286.176863784039
 20
1837.780136065227
 30
0.0
  0
ENDBLK
  5
17248
330
1723D
100
AcDbEntity
  8
0
100
AcDbBlockEnd
  0
BLOCK
  5
17258
330
1724C
100
AcDbEntity
  8
0
100
AcDbBlockBegin
  2
*D1
 70
     1
 10
0.0
 20
0.0
 30
0.0
  3
*D1
  1

  0
LINE
  5
1AAFD
330
1724C
100
AcDbEntity
  8
SUNPOU
 62
     1
100
AcDbLine
 10
-1262.660675197518
 20
1779.780136099817
 30
0.0
 11
-1276.571490431499
 21
1779.780136099817
 31
0.0
  0
LINE
  5
1AAFE
330
1724C
100
AcDbEntity
  8
SUNPOU
 62
     1
100
AcDbLine
 10
-1261.910675197518
 20
1783.280136065227
 30
0.0
 11
-1276.571490431499
 21
1783.280136065227
 31
0.0
  0
LINE
  5
1AAFF
330
1724C
100
AcDbEntity
  8
SUNPOU
 62
     1
100
AcDbLine
 10
-1276.071490431499
 20
1776.780136099817
 30
0.0
 11
-1276.071490431499
 21
1773.780136099817
 31
0.0
  0
LINE
  5
1AB00
330
1724C
100
AcDbEntity
  8
SUNPOU
 62
     1
100
AcDbLine
 10
-1276.071490431499
 20
1786.280136065227
 30
0.0
 11
-1276.071490431499
 21
1789.280136065227
 31
0.0
  0
MTEXT
  5
1AB01
330
1724C
100
AcDbEntity
  8
SUNPOU
 62
     1
100
AcDbMText
 10
-1279.439461777358
 20
1773.880000785555
 30
0.0
 40
3.5
 41
0.0
 71
     5
 72
     1
  1
\A1;3.5
 11
0.0000000000000001
 21
1.0
 31
0.0
  0
LINE
  5
1AB02
330
1724C
100
AcDbEntity
  8
SUNPOU
 62
     1
100
AcDbLine
 10
-1276.071490431499
 20
1779.780136099817
 30
0.0
 11
-1276.071490431499
 21
1783.280136065227
 31
0.0
  0
SOLID
  5
1AB03
330
1724C
100
AcDbEntity
  8
SUNPOU
 62
     1
100
AcDbTrace
 10
-1276.571490431499
 20
1776.780136099817
 30
0.0
 11
-1275.5714904315
 21
1776.780136099817
 31
0.0
 12
-1276.071490431499
 22
1779.780136099817
 32
0.0
 13
-1276.071490431499
 23
1779.780136099817
 33
0.0
  0
SOLID
  5
1AB04
330
1724C
100
AcDbEntity
  8
SUNPOU
 62
     1
100
AcDbTrace
 10
-1276.571490431499
 20
1786.280136065227
 30
0.0
 11
-1275.5714904315
 21
1786.280136065227
 31
0.0
 12
-1276.071490431499
 22
1783.280136065227
 32
0.0
 13
-1276.071490431499
 23
1783.280136065227
 33
0.0
  0
POINT
  5
1AB05
330
1724C
100
AcDbEntity
  8
DEFPOINTS
 62
     0
100
AcDbPoint
 10
-1262.160675197518
 20
1779.780136099817
 30
0.0
  0
POINT
  5
1AB06
330
1724C
100
AcDbEntity
  8
DEFPOINTS
 62
     0
100
AcDbPoint
 10
-1261.410675197518
 20
1783.280136065227
 30
0.0
  0
POINT
  5
1AB07
330
1724C
100
AcDbEntity
  8
DEFPOINTS
 62
     0
100
AcDbPoint
 10
-1276.071490431499
 20
1783.280136065227
 30
0.0
  0
ENDBLK
  5
17259
330
1724C
100
AcDbEntity
  8
0
100
AcDbBlockEnd
  0
BLOCK
  5
17265
330
1725B
100
AcDbEntity
  8
0
100
AcDbBlockBegin
  2
*D2
 70
     1
 10
0.0
 20
0.0
 30
0.0
  3
*D2
  1

  0
LINE
  5
1AB08
330
1725B
100
AcDbEntity
  8
SUNPOU
 62
     1
100
AcDbLine
 10
-1261.910675197518
 20
1783.280136099817
 30
0.0
 11
-1276.571490431499
 21
1783.280136099817
 31
0.0
  0
LINE
  5
1AB09
330
1725B
100
AcDbEntity
  8
SUNPOU
 62
     1
100
AcDbLine
 10
-1260.160675197518
 20
1834.280136065227
 30
0.0
 11
-1276.571490431499
 21
1834.280136065227
 31
0.0
  0
LINE
  5
1AB0A
330
1725B
100
AcDbEntity
  8
SUNPOU
 62
     1
100
AcDbLine
 10
-1276.071490431499
 20
1786.280136099817
 30
0.0
 11
-1276.071490431499
 21
1831.280136065227
 31
0.0
  0
SOLID
  5
1AB0B
330
1725B
100
AcDbEntity
  8
SUNPOU
 62
     1
100
AcDbTrace
 10
-1276.571490431499
 20
1786.280136099817
 30
0.0
 11
-1275.5714904315
 21
1786.280136099817
 31
0.0
 12
-1276.071490431499
 22
1783.280136099817
 32
0.0
 13
-1276.071490431499
 23
1783.280136099817
 33
0.0
  0
SOLID
  5
1AB0C
330
1725B
100
AcDbEntity
  8
SUNPOU
 62
     1
100
AcDbTrace
 10
-1276.571490431499
 20
1831.280136065227
 30
0.0
 11
-1275.5714904315
 21
1831.280136065227
 31
0.0
 12
-1276.071490431499
 22
1834.280136065227
 32
0.0
 13
-1276.071490431499
 23
1834.280136065227
 33
0.0
  0
MTEXT
  5
1AB0D
330
1725B
100
AcDbEntity
  8
SUNPOU
 62
     1
100
AcDbMText
 10
-1278.8214904315
 20
1808.780136082522
 30
0.0
 40
3.5
 41
0.0
 71
     5
 72
     1
  1
\A1;51
 11
0.0000000000000001
 21
1.0
 31
0.0
  0
POINT
  5
1AB0E
330
1725B
100
AcDbEntity
  8
DEFPOINTS
 62
     0
100
AcDbPoint
 10
-1261.410675197518
 20
1783.280136099817
 30
0.0
  0
POINT
  5
1AB0F
330
1725B
100
AcDbEntity
  8
DEFPOINTS
 62
     0
100
AcDbPoint
 10
-1259.660675197518
 20
1834.280136065227
 30
0.0
  0
POINT
  5
1AB10
330
1725B
100
AcDbEntity
  8
DEFPOINTS
 62
     0
100
AcDbPoint
 10
-1276.071490431499
 20
1834.280136065227
 30
0.0
  0
ENDBLK
  5
17266
330
1725B
100
AcDbEntity
  8
0
100
AcDbBlockEnd
  0
BLOCK
  5
17274
330
17268
100
AcDbEntity
  8
0
100
AcDbBlockBegin
  2
*D3
 70
     1
 10
0.0
 20
0.0
 30
0.0
  3
*D3
  1

  0
LINE
  5
1AB11
330
17268
100
AcDbEntity
  8
SUNPOU
 62
     1
100
AcDbLine
 10
-1260.160675197518
 20
1834.280136065227
 30
0.0
 11
-1276.571490431499
 21
1834.280136065227
 31
0.0
  0
LINE
  5
1AB12
330
17268
100
AcDbEntity
  8
SUNPOU
 62
     1
100
AcDbLine
 10
-1262.660675197518
 20
1837.780136065227
 30
0.0
 11
-1276.571490431499
 21
1837.780136065227
 31
0.0
  0
LINE
  5
1AB13
330
17268
100
AcDbEntity
  8
SUNPOU
 62
     1
100
AcDbLine
 10
-1276.071490431499
 20
1831.280136065227
 30
0.0
 11
-1276.071490431499
 21
1828.280136065227
 31
0.0
  0
LINE
  5
1AB14
330
17268
100
AcDbEntity
  8
SUNPOU
 62
     1
100
AcDbLine
 10
-1276.071490431499
 20
1840.780136065228
 30
0.0
 11
-1276.071490431499
 21
1843.780136065227
 31
0.0
  0
MTEXT
  5
1AB15
330
17268
100
AcDbEntity
  8
SUNPOU
 62
     1
100
AcDbMText
 10
-1278.898684800763
 20
1843.839526168775
 30
0.0
 40
3.5
 41
0.0
 71
     5
 72
     1
  1
\A1;3.5
 11
0.0000000000000001
 21
1.0
 31
0.0
  0
LINE
  5
1AB16
330
17268
100
AcDbEntity
  8
SUNPOU
 62
     1
100
AcDbLine
 10
-1276.071490431499
 20
1834.280136065227
 30
0.0
 11
-1276.071490431499
 21
1837.780136065227
 31
0.0
  0
SOLID
  5
1AB17
330
17268
100
AcDbEntity
  8
SUNPOU
 62
     1
100
AcDbTrace
 10
-1276.571490431499
 20
1831.280136065227
 30
0.0
 11
-1275.5714904315
 21
1831.280136065227
 31
0.0
 12
-1276.071490431499
 22
1834.280136065227
 32
0.0
 13
-1276.071490431499
 23
1834.280136065227
 33
0.0
  0
SOLID
  5
1AB18
330
17268
100
AcDbEntity
  8
SUNPOU
 62
     1
100
AcDbTrace
 10
-1276.571490431499
 20
1840.780136065228
 30
0.0
 11
-1275.5714904315
 21
1840.780136065228
 31
0.0
 12
-1276.071490431499
 22
1837.780136065227
 32
0.0
 13
-1276.071490431499
 23
1837.780136065227
 33
0.0
  0
POINT
  5
1AB19
330
17268
100
AcDbEntity
  8
DEFPOINTS
 62
     0
100
AcDbPoint
 10
-1259.660675197518
 20
1834.280136065227
 30
0.0
  0
POINT
  5
1AB1A
330
17268
100
AcDbEntity
  8
DEFPOINTS
 62
     0
100
AcDbPoint
 10
-1262.160675197518
 20
1837.780136065227
 30
0.0
  0
POINT
  5
1AB1B
330
17268
100
AcDbEntity
  8
DEFPOINTS
 62
     0
100
AcDbPoint
 10
-1276.071490431499
 20
1837.780136065227
 30
0.0
  0
ENDBLK
  5
17275
330
17268
100
AcDbEntity
  8
0
100
AcDbBlockEnd
  0
BLOCK
  5
17288
330
1727C
100
AcDbEntity
  8
0
100
AcDbBlockBegin
  2
*D4
 70
     1
 10
0.0
 20
0.0
 30
0.0
  3
*D4
  1

  0
LINE
  5
1AB1C
330
1727C
100
AcDbEntity
  8
SUNPOU
 62
     1
100
AcDbLine
 10
-1263.160659511195
 20
1780.280136099694
 30
0.0
 11
-1263.160659511195
 21
1765.72872396176
 31
0.0
  0
LINE
  5
1AB1D
330
1727C
100
AcDbEntity
  8
SUNPOU
 62
     1
100
AcDbLine
 10
-1259.660675197518
 20
1781.030136099817
 30
0.0
 11
-1259.660675197518
 21
1765.72872396176
 31
0.0
  0
LINE
  5
1AB1E
330
1727C
100
AcDbEntity
  8
SUNPOU
 62
     1
100
AcDbLine
 10
-1266.160659511194
 20
1766.228723961759
 30
0.0
 11
-1269.160659511195
 21
1766.228723961759
 31
0.0
  0
LINE
  5
1AB1F
330
1727C
100
AcDbEntity
  8
SUNPOU
 62
     1
100
AcDbLine
 10
-1256.660675197518
 20
1766.228723961759
 30
0.0
 11
-1253.660675197518
 21
1766.228723961759
 31
0.0
  0
MTEXT
  5
1AB20
330
1727C
100
AcDbEntity
  8
SUNPOU
 62
     1
100
AcDbMText
 10
-1269.323748819453
 20
1769.099657437092
 30
0.0
 40
3.5
 41
0.0
 71
     5
 72
     1
  1
\A1;3.5
  0
LINE
  5
1AB21
330
1727C
100
AcDbEntity
  8
SUNPOU
 62
     1
100
AcDbLine
 10
-1263.160659511195
 20
1766.228723961759
 30
0.0
 11
-1259.660675197518
 21
1766.228723961759
 31
0.0
  0
SOLID
  5
1AB22
330
1727C
100
AcDbEntity
  8
SUNPOU
 62
     1
100
AcDbTrace
 10
-1266.160659511194
 20
1766.72872396176
 30
0.0
 11
-1266.160659511194
 21
1765.72872396176
 31
0.0
 12
-1263.160659511195
 22
1766.228723961759
 32
0.0
 13
-1263.160659511195
 23
1766.228723961759
 33
0.0
  0
SOLID
  5
1AB23
330
1727C
100
AcDbEntity
  8
SUNPOU
 62
     1
100
AcDbTrace
 10
-1256.660675197518
 20
1766.72872396176
 30
0.0
 11
-1256.660675197518
 21
1765.72872396176
 31
0.0
 12
-1259.660675197518
 22
1766.228723961759
 32
0.0
 13
-1259.660675197518
 23
1766.228723961759
 33
0.0
  0
POINT
  5
1AB24
330
1727C
100
AcDbEntity
  8
DEFPOINTS
 62
     0
100
AcDbPoint
 10
-1263.160659511195
 20
1780.780136099694
 30
0.0
  0
POINT
  5
1AB25
330
1727C
100
AcDbEntity
  8
DEFPOINTS
 62
     0
100
AcDbPoint
 10
-1259.660675197518
 20
1781.530136099817
 30
0.0
  0
POINT
  5
1AB26
330
1727C
100
AcDbEntity
  8
DEFPOINTS
 62
     0
100
AcDbPoint
 10
-1259.660675197518
 20
1766.228723961759
 30
0.0
  0
ENDBLK
  5
17289
330
1727C
100
AcDbEntity
  8
0
100
AcDbBlockEnd
  0
BLOCK
  5
17295
330
1728B
100
AcDbEntity
  8
0
100
AcDbBlockBegin
  2
*D5
 70
     1
 10
0.0
 20
0.0
 30
0.0
  3
*D5
  1

  0
LINE
  5
1AB27
330
1728B
100
AcDbEntity
  8
SUNPOU
 62
     1
100
AcDbLine
 10
-1259.660675197518
 20
1781.030136065227
 30
0.0
 11
-1259.660675197518
 21
1765.72872396176
 31
0.0
  0
LINE
  5
1AB28
330
1728B
100
AcDbEntity
  8
SUNPOU
 62
     1
100
AcDbLine
 10
-1188.160675197518
 20
1780.780136065227
 30
0.0
 11
-1188.160675197518
 21
1765.72872396176
 31
0.0
  0
LINE
  5
1AB29
330
1728B
100
AcDbEntity
  8
SUNPOU
 62
     1
100
AcDbLine
 10
-1256.660675197518
 20
1766.228723961759
 30
0.0
 11
-1191.160675197518
 21
1766.228723961759
 31
0.0
  0
SOLID
  5
1AB2A
330
1728B
100
AcDbEntity
  8
SUNPOU
 62
     1
100
AcDbTrace
 10
-1256.660675197518
 20
1766.72872396176
 30
0.0
 11
-1256.660675197518
 21
1765.72872396176
 31
0.0
 12
-1259.660675197518
 22
1766.228723961759
 32
0.0
 13
-1259.660675197518
 23
1766.228723961759
 33
0.0
  0
SOLID
  5
1AB2B
330
1728B
100
AcDbEntity
  8
SUNPOU
 62
     1
100
AcDbTrace
 10
-1191.160675197518
 20
1766.72872396176
 30
0.0
 11
-1191.160675197518
 21
1765.72872396176
 31
0.0
 12
-1188.160675197518
 22
1766.228723961759
 32
0.0
 13
-1188.160675197518
 23
1766.228723961759
 33
0.0
  0
MTEXT
  5
1AB2C
330
1728B
100
AcDbEntity
  8
SUNPOU
 62
     1
100
AcDbMText
 10
-1223.910675197518
 20
1768.978723961759
 30
0.0
 40
3.5
 41
0.0
 71
     5
 72
     1
  1
\A1;71.5
  0
POINT
  5
1AB2D
330
1728B
100
AcDbEntity
  8
DEFPOINTS
 62
     0
100
AcDbPoint
 10
-1259.660675197518
 20
1781.530136065227
 30
0.0
  0
POINT
  5
1AB2E
330
1728B
100
AcDbEntity
  8
DEFPOINTS
 62
     0
100
AcDbPoint
 10
-1188.160675197518
 20
1781.280136065227
 30
0.0
  0
POINT
  5
1AB2F
330
1728B
100
AcDbEntity
  8
DEFPOINTS
 62
     0
100
AcDbPoint
 10
-1188.160675197518
 20
1766.228723961759
 30
0.0
  0
ENDBLK
  5
17296
330
1728B
100
AcDbEntity
  8
0
100
AcDbBlockEnd
  0
BLOCK
  5
172A7
330
17298
100
AcDbEntity
  8
0
100
AcDbBlockBegin
  2
*D6
 70
     1
 10
0.0
 20
0.0
 30
0.0
  3
*D6
  1

  0
LINE
  5
1AB30
330
17298
100
AcDbEntity
  8
SUNPOU
 62
     1
100
AcDbLine
 10
-1188.160675197518
 20
1781.030136065227
 30
0.0
 11
-1188.160675197518
 21
1765.72872396176
 31
0.0
  0
LINE
  5
1AB31
330
17298
100
AcDbEntity
  8
SUNPOU
 62
     1
100
AcDbLine
 10
-1184.660675197518
 20
1780.280136065227
 30
0.0
 11
-1184.660675197518
 21
1765.72872396176
 31
0.0
  0
LINE
  5
1AB32
330
17298
100
AcDbEntity
  8
SUNPOU
 62
     1
100
AcDbLine
 10
-1191.160675197518
 20
1766.228723961759
 30
0.0
 11
-1194.160675197518
 21
1766.228723961759
 31
0.0
  0
LINE
  5
1AB33
330
17298
100
AcDbEntity
  8
SUNPOU
 62
     1
100
AcDbLine
 10
-1181.660675197518
 20
1766.228723961759
 30
0.0
 11
-1178.660675197518
 21
1766.228723961759
 31
0.0
  0
MTEXT
  5
1AB34
330
17298
100
AcDbEntity
  8
SUNPOU
 62
     1
100
AcDbMText
 10
-1174.231603999163
 20
1769.113721627975
 30
0.0
 40
3.5
 41
0.0
 71
     5
 72
     1
  1
\A1;3.5
  0
LINE
  5
1AB35
330
17298
100
AcDbEntity
  8
SUNPOU
 62
     1
100
AcDbLine
 10
-1188.160675197518
 20
1766.228723961759
 30
0.0
 11
-1184.660675197518
 21
1766.228723961759
 31
0.0
  0
SOLID
  5
1AB36
330
17298
100
AcDbEntity
  8
SUNPOU
 62
     1
100
AcDbTrace
 10
-1191.160675197518
 20
1766.72872396176
 30
0.0
 11
-1191.160675197518
 21
1765.72872396176
 31
0.0
 12
-1188.160675197518
 22
1766.228723961759
 32
0.0
 13
-1188.160675197518
 23
1766.228723961759
 33
0.0
  0
SOLID
  5
1AB37
330
17298
100
AcDbEntity
  8
SUNPOU
 62
     1
100
AcDbTrace
 10
-1181.660675197518
 20
1766.72872396176
 30
0.0
 11
-1181.660675197518
 21
1765.72872396176
 31
0.0
 12
-1184.660675197518
 22
1766.228723961759
 32
0.0
 13
-1184.660675197518
 23
1766.228723961759
 33
0.0
  0
POINT
  5
1AB38
330
17298
100
AcDbEntity
  8
DEFPOINTS
 62
     0
100
AcDbPoint
 10
-1188.160675197518
 20
1781.530136065227
 30
0.0
  0
POINT
  5
1AB39
330
17298
100
AcDbEntity
  8
DEFPOINTS
 62
     0
100
AcDbPoint
 10
-1184.660675197518
 20
1780.780136065227
 30
0.0
  0
POINT
  5
1AB3A
330
17298
100
AcDbEntity
  8
DEFPOINTS
 62
     0
100
AcDbPoint
 10
-1184.660675197518
 20
1766.228723961759
 30
0.0
  0
ENDBLK
  5
172A8
330
17298
100
AcDbEntity
  8
0
100
AcDbBlockEnd
  0
BLOCK
  5
172B4
330
172AA
100
AcDbEntity
  8
0
100
AcDbBlockBegin
  2
*D7
 70
     1
 10
0.0
 20
0.0
 30
0.0
  3
*D7
  1

  0
LINE
  5
1A985
330
172AA
100
AcDbEntity
  8
SUNPOU
 62
     1
100
AcDbLine
 10
-1263.160675197518
 20
1780.280136065227
 30
0.0
 11
-1263.160675197518
 21
1754.280949657875
 31
0.0
  0
LINE
  5
1A986
330
172AA
100
AcDbEntity
  8
SUNPOU
 62
     1
100
AcDbLine
 10
-1184.660675197518
 20
1780.280136065227
 30
0.0
 11
-1184.660675197518
 21
1754.280949657875
 31
0.0
  0
LINE
  5
1A987
330
172AA
100
AcDbEntity
  8
SUNPOU
 62
     1
100
AcDbLine
 10
-1260.160675197518
 20
1754.780949657875
 30
0.0
 11
-1187.660675197518
 21
1754.780949657875
 31
0.0
  0
SOLID
  5
1A988
330
172AA
100
AcDbEntity
  8
SUNPOU
 62
     1
100
AcDbTrace
 10
-1260.160675197518
 20
1755.280949657875
 30
0.0
 11
-1260.160675197518
 21
1754.280949657875
 31
0.0
 12
-1263.160675197518
 22
1754.780949657875
 32
0.0
 13
-1263.160675197518
 23
1754.780949657875
 33
0.0
  0
SOLID
  5
1A989
330
172AA
100
AcDbEntity
  8
SUNPOU
 62
     1
100
AcDbTrace
 10
-1187.660675197518
 20
1755.280949657875
 30
0.0
 11
-1187.660675197518
 21
1754.280949657875
 31
0.0
 12
-1184.660675197518
 22
1754.780949657875
 32
0.0
 13
-1184.660675197518
 23
1754.780949657875
 33
0.0
  0
MTEXT
  5
1A98A
330
172AA
100
AcDbEntity
  8
SUNPOU
 62
     1
100
AcDbMText
 10
-1223.910675197518
 20
1757.530949657875
 30
0.0
 40
3.5
 41
0.0
 71
     5
 72
     1
  1
\A1;78.5
1001
ACAD
1000
MTEXTBEGIN
1070
    73
1070
     1
1070
    44
1040
1.0
1070
    74
1070
     0
1000
MTEXTEND
  0
POINT
  5
1A98B
330
172AA
100
AcDbEntity
  8
DEFPOINTS
 62
     0
100
AcDbPoint
 10
-1263.160675197518
 20
1780.780136065227
 30
0.0
  0
POINT
  5
1A98C
330
172AA
100
AcDbEntity
  8
DEFPOINTS
 62
     0
100
AcDbPoint
 10
-1184.660675197518
 20
1780.780136065227
 30
0.0
  0
POINT
  5
1A98D
330
172AA
100
AcDbEntity
  8
DEFPOINTS
 62
     0
100
AcDbPoint
 10
-1184.660675197518
 20
1754.780949657875
 30
0.0
  0
ENDBLK
  5
172B5
330
172AA
100
AcDbEntity
  8
0
100
AcDbBlockEnd
  0
BLOCK
  5
172C1
330
172B7
100
AcDbEntity
  8
0
100
AcDbBlockBegin
  2
*D8
 70
     1
 10
0.0
 20
0.0
 30
0.0
  3
*D8
  1

  0
LINE
  5
1AA3D
330
172B7
100
AcDbEntity
  8
SUNPOU
 62
     1
100
AcDbLine
 10
-1150.158680129367
 20
1835.260136065227
 30
0.0
 11
-1150.158680129367
 21
1848.424038283205
 31
0.0
  0
LINE
  5
1AA3E
330
172B7
100
AcDbEntity
  8
SUNPOU
 62
     1
100
AcDbLine
 10
-1132.058680129367
 20
1838.300136065227
 30
0.0
 11
-1132.058680129367
 21
1848.424038283205
 31
0.0
  0
LINE
  5
1AA3F
330
172B7
100
AcDbEntity
  8
SUNPOU
 62
     1
100
AcDbLine
 10
-1147.158680129367
 20
1847.924038283206
 30
0.0
 11
-1135.058680129367
 21
1847.924038283206
 31
0.0
  0
SOLID
  5
1AA40
330
172B7
100
AcDbEntity
  8
SUNPOU
 62
     1
100
AcDbTrace
 10
-1147.158680129367
 20
1848.424038283205
 30
0.0
 11
-1147.158680129367
 21
1847.424038283205
 31
0.0
 12
-1150.158680129367
 22
1847.924038283206
 32
0.0
 13
-1150.158680129367
 23
1847.924038283206
 33
0.0
  0
SOLID
  5
1AA41
330
172B7
100
AcDbEntity
  8
SUNPOU
 62
     1
100
AcDbTrace
 10
-1135.058680129367
 20
1848.424038283205
 30
0.0
 11
-1135.058680129367
 21
1847.424038283205
 31
0.0
 12
-1132.058680129367
 22
1847.924038283206
 32
0.0
 13
-1132.058680129367
 23
1847.924038283206
 33
0.0
  0
MTEXT
  5
1AA42
330
172B7
100
AcDbEntity
  8
SUNPOU
 62
     1
100
AcDbMText
 10
-1141.108680129367
 20
1850.674038283206
 30
0.0
 40
3.5
 41
0.0
 71
     5
 72
     1
  1
\A1;18.1
1001
ACAD
1000
MTEXTBEGIN
1070
    73
1070
     1
1070
    44
1040
1.0
1070
    74
1070
     0
1000
MTEXTEND
  0
POINT
  5
1AA43
330
172B7
100
AcDbEntity
  8
DEFPOINTS
 62
     0
100
AcDbPoint
 10
-1150.158680129367
 20
1834.760136065227
 30
0.0
  0
POINT
  5
1AA44
330
172B7
100
AcDbEntity
  8
DEFPOINTS
 62
     0
100
AcDbPoint
 10
-1132.058680129367
 20
1837.800136065227
 30
0.0
  0
POINT
  5
1AA45
330
172B7
100
AcDbEntity
  8
DEFPOINTS
 62
     0
100
AcDbPoint
 10
-1132.058680129367
 20
1847.924038283206
 30
0.0
  0
ENDBLK
  5
172C2
330
172B7
100
AcDbEntity
  8
0
100
AcDbBlockEnd
  0
BLOCK
  5
172CF
330
172C4
100
AcDbEntity
  8
0
100
AcDbBlockBegin
  2
*D9
 70
     1
 10
0.0
 20
0.0
 30
0.0
  3
*D9
  1

  0
LINE
  5
1AB3B
330
172C4
100
AcDbEntity
  8
SUNPOU
 62
     1
100
AcDbLine
 10
-1132.058680129367
 20
1838.300136065227
 30
0.0
 11
-1132.058680129367
 21
1848.424038283205
 31
0.0
  0
LINE
  5
1AB3C
330
172C4
100
AcDbEntity
  8
SUNPOU
 62
     1
100
AcDbLine
 10
-1135.058680129367
 20
1847.924038283206
 30
0.0
 11
-1138.058680129367
 21
1847.924038283206
 31
0.0
  0
LINE
  5
1AB3D
330
172C4
100
AcDbEntity
  8
SUNPOU
 62
     1
100
AcDbLine
 10
-1127.158680129367
 20
1847.924038283206
 30
0.0
 11
-1124.158680129367
 21
1847.924038283206
 31
0.0
  0
MTEXT
  5
1AB3E
330
172C4
100
AcDbEntity
  8
SUNPOU
 62
     1
100
AcDbMText
 10
-1122.028440816379
 20
1850.629541330445
 30
0.0
 40
3.5
 41
0.0
 71
     5
 72
     1
  1
\A1;(2.9)
  0
LINE
  5
1AB3F
330
172C4
100
AcDbEntity
  8
SUNPOU
 62
     1
100
AcDbLine
 10
-1132.058680129367
 20
1847.924038283206
 30
0.0
 11
-1130.158680129367
 21
1847.924038283206
 31
0.0
  0
SOLID
  5
1AB40
330
172C4
100
AcDbEntity
  8
SUNPOU
 62
     1
100
AcDbTrace
 10
-1135.058680129367
 20
1848.424038283205
 30
0.0
 11
-1135.058680129367
 21
1847.424038283205
 31
0.0
 12
-1132.058680129367
 22
1847.924038283206
 32
0.0
 13
-1132.058680129367
 23
1847.924038283206
 33
0.0
  0
SOLID
  5
1AB41
330
172C4
100
AcDbEntity
  8
SUNPOU
 62
     1
100
AcDbTrace
 10
-1127.158680129367
 20
1848.424038283205
 30
0.0
 11
-1127.158680129367
 21
1847.424038283205
 31
0.0
 12
-1130.158680129367
 22
1847.924038283206
 32
0.0
 13
-1130.158680129367
 23
1847.924038283206
 33
0.0
  0
POINT
  5
1AB42
330
172C4
100
AcDbEntity
  8
DEFPOINTS
 62
     0
100
AcDbPoint
 10
-1132.058680129367
 20
1837.800136065227
 30
0.0
  0
POINT
  5
1AB43
330
172C4
100
AcDbEntity
  8
DEFPOINTS
 62
     0
100
AcDbPoint
 10
-1130.158680129367
 20
1847.924038283206
 30
0.0
  0
POINT
  5
1AB44
330
172C4
100
AcDbEntity
  8
DEFPOINTS
 62
     0
100
AcDbPoint
 10
-1130.158680129367
 20
1847.924038283206
 30
0.0
  0
ENDBLK
  5
172D0
330
172C4
100
AcDbEntity
  8
0
100
AcDbBlockEnd
  0
BLOCK
  5
172DC
330
172D2
100
AcDbEntity
  8
0
100
AcDbBlockBegin
  2
*D10
 70
     1
 10
0.0
 20
0.0
 30
0.0
  3
*D10
  1

  0
LINE
  5
1AA34
330
172D2
100
AcDbEntity
  8
SUNPOU
 62
     1
100
AcDbLine
 10
-1150.158680129367
 20
1835.260136065227
 30
0.0
 11
-1150.158680129367
 21
1857.893043427783
 31
0.0
  0
LINE
  5
1AA35
330
172D2
100
AcDbEntity
  8
SUNPOU
 62
     1
100
AcDbLine
 10
-1130.158680129367
 20
1831.280136065227
 30
0.0
 11
-1130.158680129367
 21
1857.893043427783
 31
0.0
  0
LINE
  5
1AA36
330
172D2
100
AcDbEntity
  8
SUNPOU
 62
     1
100
AcDbLine
 10
-1147.158680129367
 20
1857.393043427783
 30
0.0
 11
-1133.158680129367
 21
1857.393043427783
 31
0.0
  0
SOLID
  5
1AA37
330
172D2
100
AcDbEntity
  8
SUNPOU
 62
     1
100
AcDbTrace
 10
-1147.158680129367
 20
1857.893043427783
 30
0.0
 11
-1147.158680129367
 21
1856.893043427783
 31
0.0
 12
-1150.158680129367
 22
1857.393043427783
 32
0.0
 13
-1150.158680129367
 23
1857.393043427783
 33
0.0
  0
SOLID
  5
1AA38
330
172D2
100
AcDbEntity
  8
SUNPOU
 62
     1
100
AcDbTrace
 10
-1133.158680129367
 20
1857.893043427783
 30
0.0
 11
-1133.158680129367
 21
1856.893043427783
 31
0.0
 12
-1130.158680129367
 22
1857.393043427783
 32
0.0
 13
-1130.158680129367
 23
1857.393043427783
 33
0.0
  0
MTEXT
  5
1AA39
330
172D2
100
AcDbEntity
  8
SUNPOU
 62
     1
100
AcDbMText
 10
-1140.158680129367
 20
1860.143043427783
 30
0.0
 40
3.5
 41
0.0
 71
     5
 72
     1
  1
\A1;(21)
1001
ACAD
1000
MTEXTBEGIN
1070
    73
1070
     1
1070
    44
1040
1.0
1070
    74
1070
     0
1000
MTEXTEND
  0
POINT
  5
1AA3A
330
172D2
100
AcDbEntity
  8
DEFPOINTS
 62
     0
100
AcDbPoint
 10
-1150.158680129367
 20
1834.760136065227
 30
0.0
  0
POINT
  5
1AA3B
330
172D2
100
AcDbEntity
  8
DEFPOINTS
 62
     0
100
AcDbPoint
 10
-1130.158680129367
 20
1830.780136065227
 30
0.0
  0
POINT
  5
1AA3C
330
172D2
100
AcDbEntity
  8
DEFPOINTS
 62
     0
100
AcDbPoint
 10
-1130.158680129367
 20
1857.393043427783
 30
0.0
  0
ENDBLK
  5
172DD
330
172D2
100
AcDbEntity
  8
0
100
AcDbBlockEnd
  0
BLOCK
  5
172EF
330
172E5
100
AcDbEntity
  8
0
100
AcDbBlockBegin
  2
*D11
 70
     1
 10
0.0
 20
0.0
 30
0.0
  3
*D11
  1

  0
LINE
  5
1AA1D
330
172E5
100
AcDbEntity
  8
CL1
 62
     1
100
AcDbLine
 10
-1255.860675197518
 20
1858.361034642833
 30
0.0
 11
-1276.571490431499
 21
1858.361034642833
 31
0.0
  0
LINE
  5
1AA1E
330
172E5
100
AcDbEntity
  8
CL1
 62
     1
100
AcDbLine
 10
-1263.660675197518
 20
1871.461034642833
 30
0.0
 11
-1276.571490431499
 21
1871.461034642833
 31
0.0
  0
LINE
  5
1AA1F
330
172E5
100
AcDbEntity
  8
CL1
 62
     1
100
AcDbLine
 10
-1276.071490431499
 20
1861.361034642833
 30
0.0
 11
-1276.071490431499
 21
1868.461034642833
 31
0.0
  0
SOLID
  5
1AA20
330
172E5
100
AcDbEntity
  8
CL1
 62
     1
100
AcDbTrace
 10
-1276.571490431499
 20
1861.361034642833
 30
0.0
 11
-1275.5714904315
 21
1861.361034642833
 31
0.0
 12
-1276.071490431499
 22
1858.361034642833
 32
0.0
 13
-1276.071490431499
 23
1858.361034642833
 33
0.0
  0
SOLID
  5
1AA21
330
172E5
100
AcDbEntity
  8
CL1
 62
     1
100
AcDbTrace
 10
-1276.571490431499
 20
1868.461034642833
 30
0.0
 11
-1275.5714904315
 21
1868.461034642833
 31
0.0
 12
-1276.071490431499
 22
1871.461034642833
 32
0.0
 13
-1276.071490431499
 23
1871.461034642833
 33
0.0
  0
MTEXT
  5
1AA22
330
172E5
100
AcDbEntity
  8
CL1
 62
     1
100
AcDbMText
 10
-1278.8214904315
 20
1864.911034642833
 30
0.0
 40
3.5
 41
0.0
 71
     5
 72
     1
  1
\A1;13.1
 11
0.0000000000000001
 21
1.0
 31
0.0
1001
ACAD
1000
MTEXTBEGIN
1070
    73
1070
     1
1070
    44
1040
1.0
1070
    74
1070
     0
1000
MTEXTEND
  0
POINT
  5
1AA23
330
172E5
100
AcDbEntity
  8
DEFPOINTS
 62
     0
100
AcDbPoint
 10
-1255.360675197518
 20
1858.361034642833
 30
0.0
  0
POINT
  5
1AA24
330
172E5
100
AcDbEntity
  8
DEFPOINTS
 62
     0
100
AcDbPoint
 10
-1263.160675197518
 20
1871.461034642833
 30
0.0
  0
POINT
  5
1AA25
330
172E5
100
AcDbEntity
  8
DEFPOINTS
 62
     0
100
AcDbPoint
 10
-1276.071490431499
 20
1871.461034642833
 30
0.0
  0
ENDBLK
  5
172F0
330
172E5
100
AcDbEntity
  8
0
100
AcDbBlockEnd
  0
BLOCK
  5
1730C
330
17300
100
AcDbEntity
  8
0
100
AcDbBlockBegin
  2
*D12
 70
     1
 10
0.0
 20
0.0
 30
0.0
  3
*D12
  1

  0
LINE
  5
1AB45
330
17300
100
AcDbEntity
  8
CL1
 62
     1
100
AcDbLine
 10
-1263.660675197518
 20
1871.461034642833
 30
0.0
 11
-1276.571490431499
 21
1871.461034642833
 31
0.0
  0
LINE
  5
1AB46
330
17300
100
AcDbEntity
  8
CL1
 62
     1
100
AcDbLine
 10
-1253.560675197518
 20
1873.261034642833
 30
0.0
 11
-1276.571490431499
 21
1873.261034642833
 31
0.0
  0
LINE
  5
1AB47
330
17300
100
AcDbEntity
  8
CL1
 62
     1
100
AcDbLine
 10
-1276.071490431499
 20
1868.461034642833
 30
0.0
 11
-1276.071490431499
 21
1865.461034642833
 31
0.0
  0
LINE
  5
1AB48
330
17300
100
AcDbEntity
  8
CL1
 62
     1
100
AcDbLine
 10
-1276.071490431499
 20
1876.261034642833
 30
0.0
 11
-1276.071490431499
 21
1879.261034642833
 31
0.0
  0
MTEXT
  5
1AB49
330
17300
100
AcDbEntity
  8
CL1
 62
     1
100
AcDbMText
 10
-1278.870665461137
 20
1881.732261542991
 30
0.0
 40
3.5
 41
0.0
 71
     5
 72
     1
  1
\A1;(2.9)
 11
0.0000000000000001
 21
1.0
 31
0.0
  0
LINE
  5
1AB4A
330
17300
100
AcDbEntity
  8
CL1
 62
     1
100
AcDbLine
 10
-1276.071490431499
 20
1871.461034642833
 30
0.0
 11
-1276.071490431499
 21
1873.261034642833
 31
0.0
  0
SOLID
  5
1AB4B
330
17300
100
AcDbEntity
  8
CL1
 62
     1
100
AcDbTrace
 10
-1276.571490431499
 20
1868.461034642833
 30
0.0
 11
-1275.5714904315
 21
1868.461034642833
 31
0.0
 12
-1276.071490431499
 22
1871.461034642833
 32
0.0
 13
-1276.071490431499
 23
1871.461034642833
 33
0.0
  0
SOLID
  5
1AB4C
330
17300
100
AcDbEntity
  8
CL1
 62
     1
100
AcDbTrace
 10
-1276.571490431499
 20
1876.261034642833
 30
0.0
 11
-1275.5714904315
 21
1876.261034642833
 31
0.0
 12
-1276.071490431499
 22
1873.261034642833
 32
0.0
 13
-1276.071490431499
 23
1873.261034642833
 33
0.0
  0
POINT
  5
1AB4D
330
17300
100
AcDbEntity
  8
DEFPOINTS
 62
     0
100
AcDbPoint
 10
-1263.160675197518
 20
1871.461034642833
 30
0.0
  0
POINT
  5
1AB4E
330
17300
100
AcDbEntity
  8
DEFPOINTS
 62
     0
100
AcDbPoint
 10
-1253.060675197518
 20
1873.261034642833
 30
0.0
  0
POINT
  5
1AB4F
330
17300
100
AcDbEntity
  8
DEFPOINTS
 62
     0
100
AcDbPoint
 10
-1276.071490431499
 20
1873.261034642833
 30
0.0
  0
ENDBLK
  5
1730D
330
17300
100
AcDbEntity
  8
0
100
AcDbBlockEnd
  0
BLOCK
  5
1731B
330
17311
100
AcDbEntity
  8
0
100
AcDbBlockBegin
  2
*D13
 70
     1
 10
0.0
 20
0.0
 30
0.0
  3
*D13
  1

  0
LINE
  5
1AA14
330
17311
100
AcDbEntity
  8
CL1
 62
     1
100
AcDbLine
 10
-1256.360675197518
 20
1858.361034642833
 30
0.0
 11
-1286.676863784038
 21
1858.361034642833
 31
0.0
  0
LINE
  5
1AA15
330
17311
100
AcDbEntity
  8
CL1
 62
     1
100
AcDbLine
 10
-1253.560675197518
 20
1873.261034642833
 30
0.0
 11
-1286.676863784038
 21
1873.261034642833
 31
0.0
  0
LINE
  5
1AA16
330
17311
100
AcDbEntity
  8
CL1
 62
     1
100
AcDbLine
 10
-1286.176863784039
 20
1861.361034642833
 30
0.0
 11
-1286.176863784039
 21
1870.261034642833
 31
0.0
  0
SOLID
  5
1AA17
330
17311
100
AcDbEntity
  8
CL1
 62
     1
100
AcDbTrace
 10
-1286.676863784038
 20
1861.361034642833
 30
0.0
 11
-1285.676863784039
 21
1861.361034642833
 31
0.0
 12
-1286.176863784039
 22
1858.361034642833
 32
0.0
 13
-1286.176863784039
 23
1858.361034642833
 33
0.0
  0
SOLID
  5
1AA18
330
17311
100
AcDbEntity
  8
CL1
 62
     1
100
AcDbTrace
 10
-1286.676863784038
 20
1870.261034642833
 30
0.0
 11
-1285.676863784039
 21
1870.261034642833
 31
0.0
 12
-1286.176863784039
 22
1873.261034642833
 32
0.0
 13
-1286.176863784039
 23
1873.261034642833
 33
0.0
  0
MTEXT
  5
1AA19
330
17311
100
AcDbEntity
  8
CL1
 62
     1
100
AcDbMText
 10
-1288.926863784039
 20
1865.811034642833
 30
0.0
 40
3.5
 41
0.0
 71
     5
 72
     1
  1
\A1;(16)
 11
0.0000000000000001
 21
1.0
 31
0.0
1001
ACAD
1000
MTEXTBEGIN
1070
    73
1070
     1
1070
    44
1040
1.0
1070
    74
1070
     0
1000
MTEXTEND
  0
POINT
  5
1AA1A
330
17311
100
AcDbEntity
  8
DEFPOINTS
 62
     0
100
AcDbPoint
 10
-1255.860675197518
 20
1858.361034642833
 30
0.0
  0
POINT
  5
1AA1B
330
17311
100
AcDbEntity
  8
DEFPOINTS
 62
     0
100
AcDbPoint
 10
-1253.060675197518
 20
1873.261034642833
 30
0.0
  0
POINT
  5
1AA1C
330
17311
100
AcDbEntity
  8
DEFPOINTS
 62
     0
100
AcDbPoint
 10
-1286.176863784039
 20
1873.261034642833
 30
0.0
  0
ENDBLK
  5
1731C
330
17311
100
AcDbEntity
  8
0
100
AcDbBlockEnd
  0
BLOCK
  5
174ED
330
174E2
100
AcDbEntity
  8
0
100
AcDbBlockBegin
  2
-000-51067_C
 70
     0
 10
0.0
 20
0.0
 30
0.0
  3
-000-51067_C
  1

  0
LINE
  5
174E3
330
174E2
100
AcDbEntity
  8
_2-4_PARTS
  6
CONTINUOUS
 62
     7
100
AcDbLine
 10
-0.3749999999999431
 20
2.0
 30
0.0
 11
-0.3749999999999431
 21
4.300000000000011
 31
0.0
  0
LINE
  5
174E4
330
174E2
100
AcDbEntity
  8
_2-4_PARTS
  6
CONTINUOUS
 62
     7
100
AcDbLine
 10
-0.3749999999999431
 20
4.300000000000011
 30
0.0
 11
0.6250000000000569
 21
4.300000000000011
 31
0.0
  0
LINE
  5
174E5
330
174E2
100
AcDbEntity
  8
_2-4_PARTS
  6
CONTINUOUS
 62
     7
100
AcDbLine
 10
0.6250000000000569
 20
4.300000000000011
 30
0.0
 11
0.6250000000000569
 21
3.800000000000011
 31
0.0
  0
LINE
  5
174E6
330
174E2
100
AcDbEntity
  8
_2-4_PARTS
  6
CONTINUOUS
 62
     7
100
AcDbLine
 10
0.6250000000000569
 20
-5.099999999999993
 30
0.0
 11
0.6250000000000569
 21
-4.599999999999993
 31
0.0
  0
LINE
  5
174E7
330
174E2
100
AcDbEntity
  8
_2-4_PARTS
  6
CONTINUOUS
 62
     7
100
AcDbLine
 10
-0.8749999999999429
 20
-5.099999999999993
 30
0.0
 11
0.6250000000000569
 21
-5.099999999999993
 31
0.0
  0
LINE
  5
174E8
330
174E2
100
AcDbEntity
  8
_2-4_PARTS
  6
CONTINUOUS
 62
     7
100
AcDbLine
 10
-0.8749999999999429
 20
-5.099999999999993
 30
0.0
 11
-0.8749999999999429
 21
2.0
 31
0.0
  0
LINE
  5
174E9
330
174E2
100
AcDbEntity
  8
_2-4_PARTS
  6
CONTINUOUS
 62
     7
100
AcDbLine
 10
0.6250000000000569
 20
-4.599999999999993
 30
0.0
 11
5.125000000000056
 21
-4.599999999999993
 31
0.0
  0
LINE
  5
174EA
330
174E2
100
AcDbEntity
  8
_2-4_PARTS
  6
CONTINUOUS
 62
     7
100
AcDbLine
 10
5.125000000000056
 20
2.0
 30
0.0
 11
-0.8749999999999429
 21
2.0
 31
0.0
  0
LINE
  5
174EB
330
174E2
100
AcDbEntity
  8
_2-4_PARTS
  6
CONTINUOUS
 62
     7
100
AcDbLine
 10
0.6250000000000569
 20
3.800000000000011
 30
0.0
 11
9.625000000000056
 21
3.800000000000011
 31
0.0
  0
LINE
  5
174EC
330
174E2
100
AcDbEntity
  8
_2-4_PARTS
  6
CONTINUOUS
 62
     7
100
AcDbLine
 10
9.625000000000056
 20
3.800000000000011
 30
0.0
 11
11.62500000000005
 21
2.5
 31
0.0
  0
ENDBLK
  5
174EE
330
174E2
100
AcDbEntity
  8
0
100
AcDbBlockEnd
  0
ENDSEC
  0
SECTION
  2
ENTITIES
  0
MTEXT
  5
5084
330
1A
100
AcDbEntity
  8
0
100
AcDbMText
 10
1985.239088685435
 20
-948.5420423450428
 30
0.0
 40
8.0
 41
0.0
 71
     7
 72
     5
  1

1001
ACAD
1000
MTEXTBEGIN
1070
    73
1070
     1
1070
    44
1040
1.0
1070
    74
1070
     0
1000
MTEXTEND
  0
MTEXT
  5
5085
330
1A
100
AcDbEntity
  8
0
100
AcDbMText
 10
4270.596778580329
 20
22.24825240601649
 30
0.0
 40
8.0
 41
0.0
 71
     7
 72
     5
  1

1001
ACAD
1000
MTEXTBEGIN
1070
    73
1070
     1
1070
    44
1040
1.0
1070
    74
1070
     0
1000
MTEXTEND
  0
MTEXT
  5
5343
330
1A
100
AcDbEntity
  8
SUNPOU
100
AcDbMText
 10
6936.493799262471
 20
9534.359644781135
 30
0.0
 40
10.5
 41
0.0
 71
     1
 72
     5
  1

1001
ACAD
1000
MTEXTBEGIN
1070
    73
1070
     1
1070
    44
1040
1.0
1070
    74
1070
     0
1000
MTEXTEND
  0
MTEXT
  5
544F
330
1A
100
AcDbEntity
  8
0
100
AcDbMText
 10
16317.2832773148
 20
12833.35428897674
 30
0.0
 40
8.0
 41
0.0
 71
     7
 72
     5
  1

1001
ACAD
1000
MTEXTBEGIN
1070
    73
1070
     1
1070
    44
1040
1.0
1070
    74
1070
     0
1000
MTEXTEND
  0
MTEXT
  5
5450
330
1A
100
AcDbEntity
  8
0
100
AcDbMText
 10
18602.64096720969
 20
13804.1445837278
 30
0.0
 40
8.0
 41
0.0
 71
     7
 72
     5
  1

1001
ACAD
1000
MTEXTBEGIN
1070
    73
1070
     1
1070
    44
1040
1.0
1070
    74
1070
     0
1000
MTEXTEND
  0
MTEXT
  5
5451
330
1A
100
AcDbEntity
  8
SUNPOU
100
AcDbMText
 10
21268.53798789184
 20
23316.25597610292
 30
0.0
 40
10.5
 41
0.0
 71
     1
 72
     5
  1

1001
ACAD
1000
MTEXTBEGIN
1070
    73
1070
     1
1070
    44
1040
1.0
1070
    74
1070
     0
1000
MTEXTEND
  0
MTEXT
  5
5452
330
1A
100
AcDbEntity
  8
SUNPOU
100
AcDbMText
 10
13337.6147919559
 20
22369.46284218996
 30
0.0
 40
10.5
 41
0.0
 71
     7
 72
     5
  1

1001
ACAD
1000
MTEXTBEGIN
1070
    73
1070
     1
1070
    44
1040
1.0
1070
    74
1070
     0
1000
MTEXTEND
  0
MTEXT
  5
5453
330
1A
100
AcDbEntity
  8
SUNPOU
100
AcDbMText
 10
16286.59845646867
 20
27270.13891403281
 30
0.0
 40
10.5
 41
0.0
 71
     7
 72
     5
  1

1001
ACAD
1000
MTEXTBEGIN
1070
    73
1070
     1
1070
    44
1040
1.0
1070
    74
1070
     0
1000
MTEXTEND
  0
MTEXT
  5
5454
330
1A
100
AcDbEntity
  8
SUNPOU
100
AcDbMText
 10
20795.67658441924
 20
29706.43966165288
 30
0.0
 40
10.5
 41
0.0
 71
     7
 72
     5
  1

1001
ACAD
1000
MTEXTBEGIN
1070
    73
1070
     1
1070
    44
1040
1.0
1070
    74
1070
     0
1000
MTEXTEND
  0
MTEXT
  5
5455
330
1A
100
AcDbEntity
  8
0
100
AcDbMText
 10
16611.93789220314
 20
14707.52144344448
 30
0.0
 40
8.0
 41
0.0
 71
     7
 72
     5
  1

1001
ACAD
1000
MTEXTBEGIN
1070
    73
1070
     1
1070
    44
1040
1.0
1070
    74
1070
     0
1000
MTEXTEND
  0
MTEXT
  5
5456
330
1A
100
AcDbEntity
  8
0
100
AcDbMText
 10
18897.29558209804
 20
15678.31173819554
 30
0.0
 40
8.0
 41
0.0
 71
     7
 72
     5
  1

1001
ACAD
1000
MTEXTBEGIN
1070
    73
1070
     1
1070
    44
1040
1.0
1070
    74
1070
     0
1000
MTEXTEND
  0
MTEXT
  5
5457
330
1A
100
AcDbEntity
  8
SUNPOU
100
AcDbMText
 10
21563.19260278019
 20
25190.42313057066
 30
0.0
 40
10.5
 41
0.0
 71
     1
 72
     5
  1

1001
ACAD
1000
MTEXTBEGIN
1070
    73
1070
     1
1070
    44
1040
1.0
1070
    74
1070
     0
1000
MTEXTEND
  0
MTEXT
  5
5458
330
1A
100
AcDbEntity
  8
SUNPOU
100
AcDbMText
 10
13632.26940684426
 20
24243.6299966577
 30
0.0
 40
10.5
 41
0.0
 71
     7
 72
     5
  1

1001
ACAD
1000
MTEXTBEGIN
1070
    73
1070
     1
1070
    44
1040
1.0
1070
    74
1070
     0
1000
MTEXTEND
  0
MTEXT
  5
5459
330
1A
100
AcDbEntity
  8
SUNPOU
100
AcDbMText
 10
16581.25307135702
 20
29144.30606850055
 30
0.0
 40
10.5
 41
0.0
 71
     7
 72
     5
  1

1001
ACAD
1000
MTEXTBEGIN
1070
    73
1070
     1
1070
    44
1040
1.0
1070
    74
1070
     0
1000
MTEXTEND
  0
MTEXT
  5
545A
330
1A
100
AcDbEntity
  8
SUNPOU
100
AcDbMText
 10
21090.33119930759
 20
31580.60681612062
 30
0.0
 40
10.5
 41
0.0
 71
     7
 72
     5
  1

1001
ACAD
1000
MTEXTBEGIN
1070
    73
1070
     1
1070
    44
1040
1.0
1070
    74
1070
     0
1000
MTEXTEND
  0
MTEXT
  5
545B
330
1A
100
AcDbEntity
  8
0
100
AcDbMText
 10
22871.60517627167
 20
23974.88367124799
 30
0.0
 40
8.0
 41
0.0
 71
     7
 72
     5
  1

1001
ACAD
1000
MTEXTBEGIN
1070
    73
1070
     1
1070
    44
1040
1.0
1070
    74
1070
     0
1000
MTEXTEND
  0
MTEXT
  5
545C
330
1A
100
AcDbEntity
  8
0
100
AcDbMText
 10
25156.96286616657
 20
24945.67396599906
 30
0.0
 40
8.0
 41
0.0
 71
     7
 72
     5
  1

1001
ACAD
1000
MTEXTBEGIN
1070
    73
1070
     1
1070
    44
1040
1.0
1070
    74
1070
     0
1000
MTEXTEND
  0
MTEXT
  5
545D
330
1A
100
AcDbEntity
  8
SUNPOU
100
AcDbMText
 10
27822.85988684871
 20
34457.78535837418
 30
0.0
 40
10.5
 41
0.0
 71
     1
 72
     5
  1

1001
ACAD
1000
MTEXTBEGIN
1070
    73
1070
     1
1070
    44
1040
1.0
1070
    74
1070
     0
1000
MTEXTEND
  0
MTEXT
  5
545E
330
1A
100
AcDbEntity
  8
SUNPOU
100
AcDbMText
 10
19891.93669091278
 20
33510.99222446122
 30
0.0
 40
10.5
 41
0.0
 71
     7
 72
     5
  1

1001
ACAD
1000
MTEXTBEGIN
1070
    73
1070
     1
1070
    44
1040
1.0
1070
    74
1070
     0
1000
MTEXTEND
  0
MTEXT
  5
545F
330
1A
100
AcDbEntity
  8
SUNPOU
100
AcDbMText
 10
22840.92035542555
 20
38411.66829630407
 30
0.0
 40
10.5
 41
0.0
 71
     7
 72
     5
  1

1001
ACAD
1000
MTEXTBEGIN
1070
    73
1070
     1
1070
    44
1040
1.0
1070
    74
1070
     0
1000
MTEXTEND
  0
MTEXT
  5
5460
330
1A
100
AcDbEntity
  8
SUNPOU
100
AcDbMText
 10
27349.99848337611
 20
40847.96904392415
 30
0.0
 40
10.5
 41
0.0
 71
     7
 72
     5
  1

1001
ACAD
1000
MTEXTBEGIN
1070
    73
1070
     1
1070
    44
1040
1.0
1070
    74
1070
     0
1000
MTEXTEND
  0
MTEXT
  5
55B7
330
1A
100
AcDbEntity
  8
SUNPOU
100
AcDbMText
 10
67424.23923338197
 20
64463.86602884816
 30
0.0
 40
10.5
 41
0.0
 71
     9
 72
     5
  1

1001
ACAD
1000
MTEXTBEGIN
1070
    73
1070
     1
1070
    44
1040
1.0
1070
    74
1070
     0
1000
MTEXTEND
  0
MTEXT
  5
55B8
330
1A
100
AcDbEntity
  8
SUNPOU
100
AcDbMText
 10
76146.40679929998
 20
71879.70056038563
 30
0.0
 40
10.5
 41
0.0
 71
     9
 72
     5
  1

1001
ACAD
1000
MTEXTBEGIN
1070
    73
1070
     1
1070
    44
1040
1.0
1070
    74
1070
     0
1000
MTEXTEND
  0
MTEXT
  5
55B9
330
1A
100
AcDbEntity
  8
SUNPOU
100
AcDbMText
 10
95100.16551662994
 20
89346.27661287766
 30
0.0
 40
10.5
 41
0.0
 71
     9
 72
     5
  1

1001
ACAD
1000
MTEXTBEGIN
1070
    73
1070
     1
1070
    44
1040
1.0
1070
    74
1070
     0
1000
MTEXTEND
  0
MTEXT
  5
55BA
330
1A
100
AcDbEntity
  8
SUNPOU
100
AcDbMText
 10
97043.57276333936
 20
87545.22753299966
 30
0.0
 40
3.5
 41
0.0
 71
     9
 72
     5
  1

1001
ACAD
1000
MTEXTBEGIN
1070
    73
1070
     1
1070
    44
1040
1.0
1070
    74
1070
     0
1000
MTEXTEND
  0
MTEXT
  5
55BB
330
1A
100
AcDbEntity
  8
SUNPOU
100
AcDbMText
 10
128169.752595959
 20
130040.1732006569
 30
0.0
 40
10.5
 41
0.0
 71
     9
 72
     5
  1

1001
ACAD
1000
MTEXTBEGIN
1070
    73
1070
     1
1070
    44
1040
1.0
1070
    74
1070
     0
1000
MTEXTEND
  0
MTEXT
  5
55BC
330
1A
100
AcDbEntity
  8
SUNPOU
100
AcDbMText
 10
130113.1598426684
 20
128239.1241207789
 30
0.0
 40
3.5
 41
0.0
 71
     9
 72
     5
  1

1001
ACAD
1000
MTEXTBEGIN
1070
    73
1070
     1
1070
    44
1040
1.0
1070
    74
1070
     0
1000
MTEXTEND
  0
MTEXT
  5
55BD
330
1A
100
AcDbEntity
  8
SUNPOU
100
AcDbMText
 10
78610.02030175463
 20
75873.33835563206
 30
0.0
 40
10.5
 41
0.0
 71
     9
 72
     5
  1

1001
ACAD
1000
MTEXTBEGIN
1070
    73
1070
     1
1070
    44
1040
1.0
1070
    74
1070
     0
1000
MTEXTEND
  0
MTEXT
  5
55BE
330
1A
100
AcDbEntity
  8
SUNPOU
100
AcDbMText
 10
64662.02020137863
 20
56700.93921651987
 30
0.0
 40
3.5
 41
0.0
 71
     7
 72
     5
  1

1001
ACAD
1000
MTEXTBEGIN
1070
    73
1070
     1
1070
    44
1040
1.0
1070
    74
1070
     0
1000
MTEXTEND
  0
MTEXT
  5
55BF
330
1A
100
AcDbEntity
  8
SUNPOU
100
AcDbMText
 10
45647.18959837178
 20
44463.08794733807
 30
0.0
 40
10.5
 41
0.0
 71
     7
 72
     5
  1

1001
ACAD
1000
MTEXTBEGIN
1070
    73
1070
     1
1070
    44
1040
1.0
1070
    74
1070
     0
1000
MTEXTEND
  0
MTEXT
  5
55C0
330
1A
100
AcDbEntity
  8
SUNPOU
100
AcDbMText
 10
33189.96133342368
 20
28618.15636923965
 30
0.0
 40
35.0
 41
0.0
 71
     9
 72
     5
  1

1001
ACAD
1000
MTEXTBEGIN
1070
    73
1070
     1
1070
    44
1040
1.0
1070
    74
1070
     0
1000
MTEXTEND
  0
MTEXT
  5
55C1
330
1A
100
AcDbEntity
  8
SUNPOU
100
AcDbMText
 10
32098.44639099864
 20
29226.93177928835
 30
0.0
 40
350.0000004171781
 41
0.0
 71
     7
 72
     5
  1

1001
ACAD
1000
MTEXTBEGIN
1070
    73
1070
     1
1070
    44
1040
1.0
1070
    74
1070
     0
1000
MTEXTEND
  0
MTEXT
  5
55C2
330
1A
100
AcDbEntity
  8
0
100
AcDbMText
 10
38142.39714894154
 20
27206.85414142458
 30
0.0
 40
8.0
 41
0.0
 71
     7
 72
     5
  1

1001
ACAD
1000
MTEXTBEGIN
1070
    73
1070
     1
1070
    44
1040
1.0
1070
    74
1070
     0
1000
MTEXTEND
  0
MTEXT
  5
55C3
330
1A
100
AcDbEntity
  8
0
100
AcDbMText
 10
40427.75483883644
 20
28177.64443617564
 30
0.0
 40
8.0
 41
0.0
 71
     7
 72
     5
  1

1001
ACAD
1000
MTEXTBEGIN
1070
    73
1070
     1
1070
    44
1040
1.0
1070
    74
1070
     0
1000
MTEXTEND
  0
MTEXT
  5
55C4
330
1A
100
AcDbEntity
  8
SUNPOU
100
AcDbMText
 10
43093.65185951858
 20
37689.75582855077
 30
0.0
 40
10.5
 41
0.0
 71
     1
 72
     5
  1

1001
ACAD
1000
MTEXTBEGIN
1070
    73
1070
     1
1070
    44
1040
1.0
1070
    74
1070
     0
1000
MTEXTEND
  0
MTEXT
  5
55C5
330
1A
100
AcDbEntity
  8
SUNPOU
100
AcDbMText
 10
35162.72866358265
 20
36742.96269463781
 30
0.0
 40
10.5
 41
0.0
 71
     7
 72
     5
  1

1001
ACAD
1000
MTEXTBEGIN
1070
    73
1070
     1
1070
    44
1040
1.0
1070
    74
1070
     0
1000
MTEXTEND
  0
MTEXT
  5
55C6
330
1A
100
AcDbEntity
  8
SUNPOU
100
AcDbMText
 10
38111.71232809542
 20
41643.63876648066
 30
0.0
 40
10.5
 41
0.0
 71
     7
 72
     5
  1

1001
ACAD
1000
MTEXTBEGIN
1070
    73
1070
     1
1070
    44
1040
1.0
1070
    74
1070
     0
1000
MTEXTEND
  0
MTEXT
  5
55C7
330
1A
100
AcDbEntity
  8
SUNPOU
100
AcDbMText
 10
42620.79045604597
 20
44079.93951410074
 30
0.0
 40
10.5
 41
0.0
 71
     7
 72
     5
  1

1001
ACAD
1000
MTEXTBEGIN
1070
    73
1070
     1
1070
    44
1040
1.0
1070
    74
1070
     0
1000
MTEXTEND
  0
MTEXT
  5
55C8
330
1A
100
AcDbEntity
  8
SUNPOU
100
AcDbMText
 10
26221.62834281429
 20
23077.53566448964
 30
0.0
 40
10.5
 41
0.0
 71
     7
 72
     5
  1

1001
ACAD
1000
MTEXTBEGIN
1070
    73
1070
     1
1070
    44
1040
1.0
1070
    74
1070
     0
1000
MTEXTEND
  0
MTEXT
  5
55C9
330
1A
100
AcDbEntity
  8
SUNPOU
100
AcDbMText
 10
77413.14677671455
 20
68750.51622813789
 30
0.0
 40
10.5
 41
0.0
 71
     9
 72
     5
  1

1001
ACAD
1000
MTEXTBEGIN
1070
    73
1070
     1
1070
    44
1040
1.0
1070
    74
1070
     0
1000
MTEXTEND
  0
MTEXT
  5
55CA
330
1A
100
AcDbEntity
  8
SUNPOU
100
AcDbMText
 10
86135.31434263256
 20
76166.35075967536
 30
0.0
 40
10.5
 41
0.0
 71
     9
 72
     5
  1

1001
ACAD
1000
MTEXTBEGIN
1070
    73
1070
     1
1070
    44
1040
1.0
1070
    74
1070
     0
1000
MTEXTEND
  0
MTEXT
  5
55CB
330
1A
100
AcDbEntity
  8
SUNPOU
100
AcDbMText
 10
105089.0730599625
 20
93632.92681216739
 30
0.0
 40
10.5
 41
0.0
 71
     9
 72
     5
  1

1001
ACAD
1000
MTEXTBEGIN
1070
    73
1070
     1
1070
    44
1040
1.0
1070
    74
1070
     0
1000
MTEXTEND
  0
MTEXT
  5
55CC
330
1A
100
AcDbEntity
  8
SUNPOU
100
AcDbMText
 10
107032.4803066719
 20
91831.8777322894
 30
0.0
 40
3.5
 41
0.0
 71
     9
 72
     5
  1

1001
ACAD
1000
MTEXTBEGIN
1070
    73
1070
     1
1070
    44
1040
1.0
1070
    74
1070
     0
1000
MTEXTEND
  0
MTEXT
  5
55CD
330
1A
100
AcDbEntity
  8
SUNPOU
100
AcDbMText
 10
138158.6601392916
 20
134326.8233999467
 30
0.0
 40
10.5
 41
0.0
 71
     9
 72
     5
  1

1001
ACAD
1000
MTEXTBEGIN
1070
    73
1070
     1
1070
    44
1040
1.0
1070
    74
1070
     0
1000
MTEXTEND
  0
MTEXT
  5
55CE
330
1A
100
AcDbEntity
  8
SUNPOU
100
AcDbMText
 10
140102.067386001
 20
132525.7743200686
 30
0.0
 40
3.5
 41
0.0
 71
     9
 72
     5
  1

1001
ACAD
1000
MTEXTBEGIN
1070
    73
1070
     1
1070
    44
1040
1.0
1070
    74
1070
     0
1000
MTEXTEND
  0
MTEXT
  5
55CF
330
1A
100
AcDbEntity
  8
SUNPOU
100
AcDbMText
 10
88598.92784508721
 20
80159.98855492179
 30
0.0
 40
10.5
 41
0.0
 71
     9
 72
     5
  1

1001
ACAD
1000
MTEXTBEGIN
1070
    73
1070
     1
1070
    44
1040
1.0
1070
    74
1070
     0
1000
MTEXTEND
  0
MTEXT
  5
55D0
330
1A
100
AcDbEntity
  8
SUNPOU
100
AcDbMText
 10
74650.92774471121
 20
60987.5894158096
 30
0.0
 40
3.5
 41
0.0
 71
     7
 72
     5
  1

1001
ACAD
1000
MTEXTBEGIN
1070
    73
1070
     1
1070
    44
1040
1.0
1070
    74
1070
     0
1000
MTEXTEND
  0
MTEXT
  5
55D1
330
1A
100
AcDbEntity
  8
SUNPOU
100
AcDbMText
 10
55636.09714170436
 20
48749.73814662781
 30
0.0
 40
10.5
 41
0.0
 71
     7
 72
     5
  1

1001
ACAD
1000
MTEXTBEGIN
1070
    73
1070
     1
1070
    44
1040
1.0
1070
    74
1070
     0
1000
MTEXTEND
  0
MTEXT
  5
55D2
330
1A
100
AcDbEntity
  8
SUNPOU
100
AcDbMText
 10
43178.86887675626
 20
32904.80656852938
 30
0.0
 40
35.0
 41
0.0
 71
     9
 72
     5
  1

1001
ACAD
1000
MTEXTBEGIN
1070
    73
1070
     1
1070
    44
1040
1.0
1070
    74
1070
     0
1000
MTEXTEND
  0
MTEXT
  5
55D3
330
1A
100
AcDbEntity
  8
SUNPOU
100
AcDbMText
 10
42087.35393433121
 20
33513.58197857809
 30
0.0
 40
350.0000004171781
 41
0.0
 71
     7
 72
     5
  1

1001
ACAD
1000
MTEXTBEGIN
1070
    73
1070
     1
1070
    44
1040
1.0
1070
    74
1070
     0
1000
MTEXTEND
  0
MTEXT
  5
55D4
330
1A
100
AcDbEntity
  8
0
100
AcDbMText
 10
48131.30469227412
 20
31493.50434071431
 30
0.0
 40
8.0
 41
0.0
 71
     7
 72
     5
  1

1001
ACAD
1000
MTEXTBEGIN
1070
    73
1070
     1
1070
    44
1040
1.0
1070
    74
1070
     0
1000
MTEXTEND
  0
MTEXT
  5
55D5
330
1A
100
AcDbEntity
  8
0
100
AcDbMText
 10
50416.66238216901
 20
32464.29463546537
 30
0.0
 40
8.0
 41
0.0
 71
     7
 72
     5
  1

1001
ACAD
1000
MTEXTBEGIN
1070
    73
1070
     1
1070
    44
1040
1.0
1070
    74
1070
     0
1000
MTEXTEND
  0
MTEXT
  5
55D6
330
1A
100
AcDbEntity
  8
SUNPOU
100
AcDbMText
 10
53082.55940285115
 20
41976.4060278405
 30
0.0
 40
10.5
 41
0.0
 71
     1
 72
     5
  1

1001
ACAD
1000
MTEXTBEGIN
1070
    73
1070
     1
1070
    44
1040
1.0
1070
    74
1070
     0
1000
MTEXTEND
  0
MTEXT
  5
55D7
330
1A
100
AcDbEntity
  8
SUNPOU
100
AcDbMText
 10
45151.63620691522
 20
41029.61289392755
 30
0.0
 40
10.5
 41
0.0
 71
     7
 72
     5
  1

1001
ACAD
1000
MTEXTBEGIN
1070
    73
1070
     1
1070
    44
1040
1.0
1070
    74
1070
     0
1000
MTEXTEND
  0
MTEXT
  5
55D8
330
1A
100
AcDbEntity
  8
SUNPOU
100
AcDbMText
 10
48100.61987142798
 20
45930.28896577039
 30
0.0
 40
10.5
 41
0.0
 71
     7
 72
     5
  1

1001
ACAD
1000
MTEXTBEGIN
1070
    73
1070
     1
1070
    44
1040
1.0
1070
    74
1070
     0
1000
MTEXTEND
  0
MTEXT
  5
55D9
330
1A
100
AcDbEntity
  8
SUNPOU
100
AcDbMText
 10
52609.69799937854
 20
48366.58971339046
 30
0.0
 40
10.5
 41
0.0
 71
     7
 72
     5
  1

1001
ACAD
1000
MTEXTBEGIN
1070
    73
1070
     1
1070
    44
1040
1.0
1070
    74
1070
     0
1000
MTEXTEND
  0
MTEXT
  5
55DA
330
1A
100
AcDbEntity
  8
SUNPOU
100
AcDbMText
 10
36210.53588614687
 20
27364.18586377937
 30
0.0
 40
10.5
 41
0.0
 71
     7
 72
     5
  1

1001
ACAD
1000
MTEXTBEGIN
1070
    73
1070
     1
1070
    44
1040
1.0
1070
    74
1070
     0
1000
MTEXTEND
  0
MTEXT
  5
55DB
330
1A
100
AcDbEntity
  8
SUNPOU
100
AcDbMText
 10
38021.29879752181
 20
33691.59985125794
 30
0.0
 40
10.5
 41
0.0
 71
     9
 72
     5
  1

1001
ACAD
1000
MTEXTBEGIN
1070
    73
1070
     1
1070
    44
1040
1.0
1070
    74
1070
     0
1000
MTEXTEND
  0
MTEXT
  5
55DC
330
1A
100
AcDbEntity
  8
SUNPOU
100
AcDbMText
 10
46743.46636343979
 20
41107.43438279541
 30
0.0
 40
10.5
 41
0.0
 71
     9
 72
     5
  1

1001
ACAD
1000
MTEXTBEGIN
1070
    73
1070
     1
1070
    44
1040
1.0
1070
    74
1070
     0
1000
MTEXTEND
  0
MTEXT
  5
55DD
330
1A
100
AcDbEntity
  8
SUNPOU
100
AcDbMText
 10
65697.22508076975
 20
58574.01043528746
 30
0.0
 40
10.5
 41
0.0
 71
     9
 72
     5
  1

1001
ACAD
1000
MTEXTBEGIN
1070
    73
1070
     1
1070
    44
1040
1.0
1070
    74
1070
     0
1000
MTEXTEND
  0
MTEXT
  5
55DE
330
1A
100
AcDbEntity
  8
SUNPOU
100
AcDbMText
 10
67640.63232747917
 20
56772.96135540945
 30
0.0
 40
3.5
 41
0.0
 71
     9
 72
     5
  1

1001
ACAD
1000
MTEXTBEGIN
1070
    73
1070
     1
1070
    44
1040
1.0
1070
    74
1070
     0
1000
MTEXTEND
  0
MTEXT
  5
55DF
330
1A
100
AcDbEntity
  8
SUNPOU
100
AcDbMText
 10
98766.81216009888
 20
99267.9070230668
 30
0.0
 40
10.5
 41
0.0
 71
     9
 72
     5
  1

1001
ACAD
1000
MTEXTBEGIN
1070
    73
1070
     1
1070
    44
1040
1.0
1070
    74
1070
     0
1000
MTEXTEND
  0
MTEXT
  5
55E0
330
1A
100
AcDbEntity
  8
SUNPOU
100
AcDbMText
 10
100710.2194068083
 20
97466.85794318878
 30
0.0
 40
3.5
 41
0.0
 71
     9
 72
     5
  1

1001
ACAD
1000
MTEXTBEGIN
1070
    73
1070
     1
1070
    44
1040
1.0
1070
    74
1070
     0
1000
MTEXTEND
  0
MTEXT
  5
55E1
330
1A
100
AcDbEntity
  8
SUNPOU
100
AcDbMText
 10
49207.07986589444
 20
45101.07217804185
 30
0.0
 40
10.5
 41
0.0
 71
     9
 72
     5
  1

1001
ACAD
1000
MTEXTBEGIN
1070
    73
1070
     1
1070
    44
1040
1.0
1070
    74
1070
     0
1000
MTEXTEND
  0
MTEXT
  5
55E2
330
1A
100
AcDbEntity
  8
SUNPOU
100
AcDbMText
 10
35259.07976551845
 20
25928.67303892964
 30
0.0
 40
3.5
 41
0.0
 71
     7
 72
     5
  1

1001
ACAD
1000
MTEXTBEGIN
1070
    73
1070
     1
1070
    44
1040
1.0
1070
    74
1070
     0
1000
MTEXTEND
  0
MTEXT
  5
55E3
330
1A
100
AcDbEntity
  8
SUNPOU
100
AcDbMText
 10
48951.43044828905
 20
35287.73625995099
 30
0.0
 40
10.5
 41
0.0
 71
     9
 72
     5
  1

1001
ACAD
1000
MTEXTBEGIN
1070
    73
1070
     1
1070
    44
1040
1.0
1070
    74
1070
     0
1000
MTEXTEND
  0
MTEXT
  5
55E4
330
1A
100
AcDbEntity
  8
SUNPOU
100
AcDbMText
 10
57673.59801420702
 20
42703.57079148847
 30
0.0
 40
10.5
 41
0.0
 71
     9
 72
     5
  1

1001
ACAD
1000
MTEXTBEGIN
1070
    73
1070
     1
1070
    44
1040
1.0
1070
    74
1070
     0
1000
MTEXTEND
  0
MTEXT
  5
55E5
330
1A
100
AcDbEntity
  8
SUNPOU
100
AcDbMText
 10
76627.35673153699
 20
60170.14684398051
 30
0.0
 40
10.5
 41
0.0
 71
     9
 72
     5
  1

1001
ACAD
1000
MTEXTBEGIN
1070
    73
1070
     1
1070
    44
1040
1.0
1070
    74
1070
     0
1000
MTEXTEND
  0
MTEXT
  5
55E6
330
1A
100
AcDbEntity
  8
SUNPOU
100
AcDbMText
 10
78570.76397824641
 20
58369.09776410251
 30
0.0
 40
3.5
 41
0.0
 71
     9
 72
     5
  1

1001
ACAD
1000
MTEXTBEGIN
1070
    73
1070
     1
1070
    44
1040
1.0
1070
    74
1070
     0
1000
MTEXTEND
  0
MTEXT
  5
55E7
330
1A
100
AcDbEntity
  8
SUNPOU
100
AcDbMText
 10
109696.9438108661
 20
100864.0434317598
 30
0.0
 40
10.5
 41
0.0
 71
     9
 72
     5
  1

1001
ACAD
1000
MTEXTBEGIN
1070
    73
1070
     1
1070
    44
1040
1.0
1070
    74
1070
     0
1000
MTEXTEND
  0
MTEXT
  5
55E8
330
1A
100
AcDbEntity
  8
SUNPOU
100
AcDbMText
 10
111640.3510575755
 20
99062.99435188183
 30
0.0
 40
3.5
 41
0.0
 71
     9
 72
     5
  1

1001
ACAD
1000
MTEXTBEGIN
1070
    73
1070
     1
1070
    44
1040
1.0
1070
    74
1070
     0
1000
MTEXTEND
  0
MTEXT
  5
55E9
330
1A
100
AcDbEntity
  8
SUNPOU
100
AcDbMText
 10
60137.21151666167
 20
46697.20858673491
 30
0.0
 40
10.5
 41
0.0
 71
     9
 72
     5
  1

1001
ACAD
1000
MTEXTBEGIN
1070
    73
1070
     1
1070
    44
1040
1.0
1070
    74
1070
     0
1000
MTEXTEND
  0
MTEXT
  5
55EA
330
1A
100
AcDbEntity
  8
SUNPOU
100
AcDbMText
 10
46189.21141628568
 20
27524.80944762269
 30
0.0
 40
3.5
 41
0.0
 71
     7
 72
     5
  1

1001
ACAD
1000
MTEXTBEGIN
1070
    73
1070
     1
1070
    44
1040
1.0
1070
    74
1070
     0
1000
MTEXTEND
  0
MTEXT
  5
55EB
330
1A
100
AcDbEntity
  8
SUNPOU
100
AcDbMText
 10
45007.68847015541
 20
38269.57947701874
 30
0.0
 40
10.5
 41
0.0
 71
     9
 72
     5
  1

1001
ACAD
1000
MTEXTBEGIN
1070
    73
1070
     1
1070
    44
1040
1.0
1070
    74
1070
     0
1000
MTEXTEND
  0
MTEXT
  5
55EC
330
1A
100
AcDbEntity
  8
SUNPOU
100
AcDbMText
 10
63961.44718748539
 20
55736.15552951081
 30
0.0
 40
10.5
 41
0.0
 71
     9
 72
     5
  1

1001
ACAD
1000
MTEXTBEGIN
1070
    73
1070
     1
1070
    44
1040
1.0
1070
    74
1070
     0
1000
MTEXTEND
  0
MTEXT
  5
55ED
330
1A
100
AcDbEntity
  8
SUNPOU
100
AcDbMText
 10
65904.85443419479
 20
53935.10644963279
 30
0.0
 40
3.5
 41
0.0
 71
     9
 72
     5
  1

1001
ACAD
1000
MTEXTBEGIN
1070
    73
1070
     1
1070
    44
1040
1.0
1070
    74
1070
     0
1000
MTEXTEND
  0
MTEXT
  5
55EE
330
1A
100
AcDbEntity
  8
SUNPOU
100
AcDbMText
 10
97031.03426681451
 20
96430.05211729015
 30
0.0
 40
10.5
 41
0.0
 71
     9
 72
     5
  1

1001
ACAD
1000
MTEXTBEGIN
1070
    73
1070
     1
1070
    44
1040
1.0
1070
    74
1070
     0
1000
MTEXTEND
  0
MTEXT
  5
55EF
330
1A
100
AcDbEntity
  8
SUNPOU
100
AcDbMText
 10
98974.44151352393
 20
94629.00303741212
 30
0.0
 40
3.5
 41
0.0
 71
     9
 72
     5
  1

1001
ACAD
1000
MTEXTBEGIN
1070
    73
1070
     1
1070
    44
1040
1.0
1070
    74
1070
     0
1000
MTEXTEND
  0
MTEXT
  5
55F0
330
1A
100
AcDbEntity
  8
SUNPOU
100
AcDbMText
 10
47471.30197261006
 20
42263.21727226519
 30
0.0
 40
10.5
 41
0.0
 71
     9
 72
     5
  1

1001
ACAD
1000
MTEXTBEGIN
1070
    73
1070
     1
1070
    44
1040
1.0
1070
    74
1070
     0
1000
MTEXTEND
  0
MTEXT
  5
55F1
330
1A
100
AcDbEntity
  8
SUNPOU
100
AcDbMText
 10
33523.30187223408
 20
23090.81813315298
 30
0.0
 40
3.5
 41
0.0
 71
     7
 72
     5
  1

1001
ACAD
1000
MTEXTBEGIN
1070
    73
1070
     1
1070
    44
1040
1.0
1070
    74
1070
     0
1000
MTEXTEND
  0
MTEXT
  5
55F2
330
1A
100
AcDbEntity
  8
SUNPOU
100
AcDbMText
 10
57959.46254102503
 20
50038.08111611015
 30
0.0
 40
10.5
 41
0.0
 71
     9
 72
     5
  1

1001
ACAD
1000
MTEXTBEGIN
1070
    73
1070
     1
1070
    44
1040
1.0
1070
    74
1070
     0
1000
MTEXTEND
  0
MTEXT
  5
55F3
330
1A
100
AcDbEntity
  8
SUNPOU
100
AcDbMText
 10
76913.22125835503
 20
67504.65716860222
 30
0.0
 40
10.5
 41
0.0
 71
     9
 72
     5
  1

1001
ACAD
1000
MTEXTBEGIN
1070
    73
1070
     1
1070
    44
1040
1.0
1070
    74
1070
     0
1000
MTEXTEND
  0
MTEXT
  5
55F4
330
1A
100
AcDbEntity
  8
SUNPOU
100
AcDbMText
 10
78856.62850506443
 20
65703.6080887242
 30
0.0
 40
3.5
 41
0.0
 71
     9
 72
     5
  1

1001
ACAD
1000
MTEXTBEGIN
1070
    73
1070
     1
1070
    44
1040
1.0
1070
    74
1070
     0
1000
MTEXTEND
  0
MTEXT
  5
55F5
330
1A
100
AcDbEntity
  8
SUNPOU
100
AcDbMText
 10
109982.8083376841
 20
108198.5537563815
 30
0.0
 40
10.5
 41
0.0
 71
     9
 72
     5
  1

1001
ACAD
1000
MTEXTBEGIN
1070
    73
1070
     1
1070
    44
1040
1.0
1070
    74
1070
     0
1000
MTEXTEND
  0
MTEXT
  5
55F6
330
1A
100
AcDbEntity
  8
SUNPOU
100
AcDbMText
 10
111926.2155843935
 20
106397.5046765035
 30
0.0
 40
3.5
 41
0.0
 71
     9
 72
     5
  1

1001
ACAD
1000
MTEXTBEGIN
1070
    73
1070
     1
1070
    44
1040
1.0
1070
    74
1070
     0
1000
MTEXTEND
  0
MTEXT
  5
55F7
330
1A
100
AcDbEntity
  8
SUNPOU
100
AcDbMText
 10
60423.07604347968
 20
54031.71891135659
 30
0.0
 40
10.5
 41
0.0
 71
     9
 72
     5
  1

1001
ACAD
1000
MTEXTBEGIN
1070
    73
1070
     1
1070
    44
1040
1.0
1070
    74
1070
     0
1000
MTEXTEND
  0
MTEXT
  5
55F8
330
1A
100
AcDbEntity
  8
SUNPOU
100
AcDbMText
 10
46475.07594310369
 20
34859.3197722444
 30
0.0
 40
3.5
 41
0.0
 71
     7
 72
     5
  1

1001
ACAD
1000
MTEXTBEGIN
1070
    73
1070
     1
1070
    44
1040
1.0
1070
    74
1070
     0
1000
MTEXTEND
  0
MTEXT
  5
55F9
330
1A
100
AcDbEntity
  8
SUNPOU
100
AcDbMText
 10
74027.35402123588
 20
68370.58278833383
 30
0.0
 40
10.5
 41
0.0
 71
     9
 72
     5
  1

1001
ACAD
1000
MTEXTBEGIN
1070
    73
1070
     1
1070
    44
1040
1.0
1070
    74
1070
     0
1000
MTEXTEND
  0
MTEXT
  5
55FA
330
1A
100
AcDbEntity
  8
SUNPOU
100
AcDbMText
 10
75970.7612679453
 20
66569.53370845583
 30
0.0
 40
3.5
 41
0.0
 71
     9
 72
     5
  1

1001
ACAD
1000
MTEXTBEGIN
1070
    73
1070
     1
1070
    44
1040
1.0
1070
    74
1070
     0
1000
MTEXTEND
  0
MTEXT
  5
55FB
330
1A
100
AcDbEntity
  8
SUNPOU
100
AcDbMText
 10
107096.941100565
 20
109064.4793761132
 30
0.0
 40
10.5
 41
0.0
 71
     9
 72
     5
  1

1001
ACAD
1000
MTEXTBEGIN
1070
    73
1070
     1
1070
    44
1040
1.0
1070
    74
1070
     0
1000
MTEXTEND
  0
MTEXT
  5
55FC
330
1A
100
AcDbEntity
  8
SUNPOU
100
AcDbMText
 10
109040.3483472744
 20
107263.4302962351
 30
0.0
 40
3.5
 41
0.0
 71
     9
 72
     5
  1

1001
ACAD
1000
MTEXTBEGIN
1070
    73
1070
     1
1070
    44
1040
1.0
1070
    74
1070
     0
1000
MTEXTEND
  0
MTEXT
  5
55FD
330
1A
100
AcDbEntity
  8
SUNPOU
100
AcDbMText
 10
105709.1709283621
 20
108141.3777665285
 30
0.0
 40
10.5
 41
0.0
 71
     9
 72
     5
  1

1001
ACAD
1000
MTEXTBEGIN
1070
    73
1070
     1
1070
    44
1040
1.0
1070
    74
1070
     0
1000
MTEXTEND
  0
MTEXT
  5
55FE
330
1A
100
AcDbEntity
  8
SUNPOU
100
AcDbMText
 10
107652.5781750715
 20
106340.3286866505
 30
0.0
 40
3.5
 41
0.0
 71
     9
 72
     5
  1

1001
ACAD
1000
MTEXTBEGIN
1070
    73
1070
     1
1070
    44
1040
1.0
1070
    74
1070
     0
1000
MTEXTEND
  0
MTEXT
  5
55FF
330
1A
100
AcDbEntity
  8
SUNPOU
100
AcDbMText
 10
73193.09268743351
 20
66158.78082845056
 30
0.0
 40
10.5
 41
0.0
 71
     9
 72
     5
  1

1001
ACAD
1000
MTEXTBEGIN
1070
    73
1070
     1
1070
    44
1040
1.0
1070
    74
1070
     0
1000
MTEXTEND
  0
MTEXT
  5
5600
330
1A
100
AcDbEntity
  8
SUNPOU
100
AcDbMText
 10
75916.39889159806
 20
66563.46252003162
 30
0.0
 40
3.5
 41
0.0
 71
     9
 72
     5
  1

1001
ACAD
1000
MTEXTBEGIN
1070
    73
1070
     1
1070
    44
1040
1.0
1070
    74
1070
     0
1000
MTEXTEND
  0
MTEXT
  5
5601
330
1A
100
AcDbEntity
  8
SUNPOU
100
AcDbMText
 10
75124.04436649058
 20
63402.1566819768
 30
0.0
 40
10.5
 41
0.0
 71
     9
 72
     5
  1

1001
ACAD
1000
MTEXTBEGIN
1070
    73
1070
     1
1070
    44
1040
1.0
1070
    74
1070
     0
1000
MTEXTEND
  0
MTEXT
  5
5602
330
1A
100
AcDbEntity
  8
SUNPOU
100
AcDbMText
 10
77067.4516132
 20
61601.1076020988
 30
0.0
 40
3.5
 41
0.0
 71
     9
 72
     5
  1

1001
ACAD
1000
MTEXTBEGIN
1070
    73
1070
     1
1070
    44
1040
1.0
1070
    74
1070
     0
1000
MTEXTEND
  0
MTEXT
  5
5603
330
1A
100
AcDbEntity
  8
SUNPOU
100
AcDbMText
 10
77012.54710378659
 20
61488.33571981449
 30
0.0
 40
3.5
 41
0.0
 71
     9
 72
     5
  1

1001
ACAD
1000
MTEXTBEGIN
1070
    73
1070
     1
1070
    44
1040
1.0
1070
    74
1070
     0
1000
MTEXTEND
  0
MTEXT
  5
5604
330
1A
100
AcDbEntity
  8
SUNPOU
100
AcDbMText
 10
76376.61896736668
 20
60677.01447874797
 30
0.0
 40
3.5
 41
0.0
 71
     9
 72
     5
  1

1001
ACAD
1000
MTEXTBEGIN
1070
    73
1070
     1
1070
    44
1040
1.0
1070
    74
1070
     0
1000
MTEXTEND
  0
MTEXT
  5
5605
330
1A
100
AcDbEntity
  8
SUNPOU
100
AcDbMText
 10
76375.37854794595
 20
60676.76650181047
 30
0.0
 40
10.5
 41
0.0
 71
     9
 72
     5
  1

1001
ACAD
1000
MTEXTBEGIN
1070
    73
1070
     1
1070
    44
1040
1.0
1070
    74
1070
     0
1000
MTEXTEND
  0
MTEXT
  5
5606
330
1A
100
AcDbEntity
  8
SUNPOU
100
AcDbMText
 10
84709.93991079748
 20
78034.0328293557
 30
0.0
 40
10.5
 41
0.0
 71
     9
 72
     5
  1

1001
ACAD
1000
MTEXTBEGIN
1070
    73
1070
     1
1070
    44
1040
1.0
1070
    74
1070
     0
1000
MTEXTEND
  0
MTEXT
  5
5607
330
1A
100
AcDbEntity
  8
SUNPOU
100
AcDbMText
 10
93432.10747671548
 20
85449.86736089315
 30
0.0
 40
10.5
 41
0.0
 71
     9
 72
     5
  1

1001
ACAD
1000
MTEXTBEGIN
1070
    73
1070
     1
1070
    44
1040
1.0
1070
    74
1070
     0
1000
MTEXTEND
  0
MTEXT
  5
5608
330
1A
100
AcDbEntity
  8
SUNPOU
100
AcDbMText
 10
112385.8661940454
 20
102916.4434133851
 30
0.0
 40
10.5
 41
0.0
 71
     9
 72
     5
  1

1001
ACAD
1000
MTEXTBEGIN
1070
    73
1070
     1
1070
    44
1040
1.0
1070
    74
1070
     0
1000
MTEXTEND
  0
MTEXT
  5
5609
330
1A
100
AcDbEntity
  8
SUNPOU
100
AcDbMText
 10
114329.2734407548
 20
101115.3943335072
 30
0.0
 40
3.5
 41
0.0
 71
     9
 72
     5
  1

1001
ACAD
1000
MTEXTBEGIN
1070
    73
1070
     1
1070
    44
1040
1.0
1070
    74
1070
     0
1000
MTEXTEND
  0
MTEXT
  5
560A
330
1A
100
AcDbEntity
  8
SUNPOU
100
AcDbMText
 10
145455.4532733745
 20
143610.3400011645
 30
0.0
 40
10.5
 41
0.0
 71
     9
 72
     5
  1

1001
ACAD
1000
MTEXTBEGIN
1070
    73
1070
     1
1070
    44
1040
1.0
1070
    74
1070
     0
1000
MTEXTEND
  0
MTEXT
  5
560B
330
1A
100
AcDbEntity
  8
SUNPOU
100
AcDbMText
 10
147398.8605200839
 20
141809.2909212864
 30
0.0
 40
3.5
 41
0.0
 71
     9
 72
     5
  1

1001
ACAD
1000
MTEXTBEGIN
1070
    73
1070
     1
1070
    44
1040
1.0
1070
    74
1070
     0
1000
MTEXTEND
  0
MTEXT
  5
560C
330
1A
100
AcDbEntity
  8
SUNPOU
100
AcDbMText
 10
95895.72097917013
 20
89443.5051561396
 30
0.0
 40
10.5
 41
0.0
 71
     9
 72
     5
  1

1001
ACAD
1000
MTEXTBEGIN
1070
    73
1070
     1
1070
    44
1040
1.0
1070
    74
1070
     0
1000
MTEXTEND
  0
MTEXT
  5
560D
330
1A
100
AcDbEntity
  8
SUNPOU
100
AcDbMText
 10
81947.72087879414
 20
70271.1060170274
 30
0.0
 40
3.5
 41
0.0
 71
     7
 72
     5
  1

1001
ACAD
1000
MTEXTBEGIN
1070
    73
1070
     1
1070
    44
1040
1.0
1070
    74
1070
     0
1000
MTEXTEND
  0
MTEXT
  5
560E
330
1A
100
AcDbEntity
  8
SUNPOU
100
AcDbMText
 10
62932.89027578729
 20
58033.25474784561
 30
0.0
 40
10.5
 41
0.0
 71
     7
 72
     5
  1

1001
ACAD
1000
MTEXTBEGIN
1070
    73
1070
     1
1070
    44
1040
1.0
1070
    74
1070
     0
1000
MTEXTEND
  0
MTEXT
  5
560F
330
1A
100
AcDbEntity
  8
SUNPOU
100
AcDbMText
 10
50475.66201083918
 20
42188.32316974719
 30
0.0
 40
35.0
 41
0.0
 71
     9
 72
     5
  1

1001
ACAD
1000
MTEXTBEGIN
1070
    73
1070
     1
1070
    44
1040
1.0
1070
    74
1070
     0
1000
MTEXTEND
  0
MTEXT
  5
5610
330
1A
100
AcDbEntity
  8
SUNPOU
100
AcDbMText
 10
49384.14706841413
 20
42797.0985797959
 30
0.0
 40
350.0000004171781
 41
0.0
 71
     7
 72
     5
  1

1001
ACAD
1000
MTEXTBEGIN
1070
    73
1070
     1
1070
    44
1040
1.0
1070
    74
1070
     0
1000
MTEXTEND
  0
MTEXT
  5
5611
330
1A
100
AcDbEntity
  8
0
100
AcDbMText
 10
55428.09782635704
 20
40777.02094193211
 30
0.0
 40
8.0
 41
0.0
 71
     7
 72
     5
  1

1001
ACAD
1000
MTEXTBEGIN
1070
    73
1070
     1
1070
    44
1040
1.0
1070
    74
1070
     0
1000
MTEXTEND
  0
MTEXT
  5
5612
330
1A
100
AcDbEntity
  8
0
100
AcDbMText
 10
57713.45551625194
 20
41747.81123668317
 30
0.0
 40
8.0
 41
0.0
 71
     7
 72
     5
  1

1001
ACAD
1000
MTEXTBEGIN
1070
    73
1070
     1
1070
    44
1040
1.0
1070
    74
1070
     0
1000
MTEXTEND
  0
MTEXT
  5
5613
330
1A
100
AcDbEntity
  8
SUNPOU
100
AcDbMText
 10
60379.35253693408
 20
51259.9226290583
 30
0.0
 40
10.5
 41
0.0
 71
     1
 72
     5
  1

1001
ACAD
1000
MTEXTBEGIN
1070
    73
1070
     1
1070
    44
1040
1.0
1070
    74
1070
     0
1000
MTEXTEND
  0
MTEXT
  5
5614
330
1A
100
AcDbEntity
  8
SUNPOU
100
AcDbMText
 10
52448.42934099814
 20
50313.12949514535
 30
0.0
 40
10.5
 41
0.0
 71
     7
 72
     5
  1

1001
ACAD
1000
MTEXTBEGIN
1070
    73
1070
     1
1070
    44
1040
1.0
1070
    74
1070
     0
1000
MTEXTEND
  0
MTEXT
  5
5615
330
1A
100
AcDbEntity
  8
SUNPOU
100
AcDbMText
 10
55397.41300551091
 20
55213.80556698819
 30
0.0
 40
10.5
 41
0.0
 71
     7
 72
     5
  1

1001
ACAD
1000
MTEXTBEGIN
1070
    73
1070
     1
1070
    44
1040
1.0
1070
    74
1070
     0
1000
MTEXTEND
  0
MTEXT
  5
5616
330
1A
100
AcDbEntity
  8
SUNPOU
100
AcDbMText
 10
59906.49113346147
 20
57650.10631460826
 30
0.0
 40
10.5
 41
0.0
 71
     7
 72
     5
  1

1001
ACAD
1000
MTEXTBEGIN
1070
    73
1070
     1
1070
    44
1040
1.0
1070
    74
1070
     0
1000
MTEXTEND
  0
MTEXT
  5
5617
330
1A
100
AcDbEntity
  8
SUNPOU
100
AcDbMText
 10
43507.32902022979
 20
36647.70246499718
 30
0.0
 40
10.5
 41
0.0
 71
     7
 72
     5
  1

1001
ACAD
1000
MTEXTBEGIN
1070
    73
1070
     1
1070
    44
1040
1.0
1070
    74
1070
     0
1000
MTEXTEND
  0
MTEXT
  5
5618
330
1A
100
AcDbEntity
  8
SUNPOU
100
AcDbMText
 10
94698.84745413006
 20
82320.68302864542
 30
0.0
 40
10.5
 41
0.0
 71
     9
 72
     5
  1

1001
ACAD
1000
MTEXTBEGIN
1070
    73
1070
     1
1070
    44
1040
1.0
1070
    74
1070
     0
1000
MTEXTEND
  0
MTEXT
  5
5619
330
1A
100
AcDbEntity
  8
SUNPOU
100
AcDbMText
 10
103421.015020048
 20
89736.5175601829
 30
0.0
 40
10.5
 41
0.0
 71
     9
 72
     5
  1

1001
ACAD
1000
MTEXTBEGIN
1070
    73
1070
     1
1070
    44
1040
1.0
1070
    74
1070
     0
1000
MTEXTEND
  0
MTEXT
  5
561A
330
1A
100
AcDbEntity
  8
SUNPOU
100
AcDbMText
 10
122374.773737378
 20
107203.0936126749
 30
0.0
 40
10.5
 41
0.0
 71
     9
 72
     5
  1

1001
ACAD
1000
MTEXTBEGIN
1070
    73
1070
     1
1070
    44
1040
1.0
1070
    74
1070
     0
1000
MTEXTEND
  0
MTEXT
  5
561B
330
1A
100
AcDbEntity
  8
SUNPOU
100
AcDbMText
 10
124318.1809840874
 20
105402.0445327969
 30
0.0
 40
3.5
 41
0.0
 71
     9
 72
     5
  1

1001
ACAD
1000
MTEXTBEGIN
1070
    73
1070
     1
1070
    44
1040
1.0
1070
    74
1070
     0
1000
MTEXTEND
  0
MTEXT
  5
561C
330
1A
100
AcDbEntity
  8
SUNPOU
100
AcDbMText
 10
155444.3608167071
 20
147896.9902004542
 30
0.0
 40
10.5
 41
0.0
 71
     9
 72
     5
  1

1001
ACAD
1000
MTEXTBEGIN
1070
    73
1070
     1
1070
    44
1040
1.0
1070
    74
1070
     0
1000
MTEXTEND
  0
MTEXT
  5
561D
330
1A
100
AcDbEntity
  8
SUNPOU
100
AcDbMText
 10
157387.7680634165
 20
146095.9411205762
 30
0.0
 40
3.5
 41
0.0
 71
     9
 72
     5
  1

1001
ACAD
1000
MTEXTBEGIN
1070
    73
1070
     1
1070
    44
1040
1.0
1070
    74
1070
     0
1000
MTEXTEND
  0
MTEXT
  5
561E
330
1A
100
AcDbEntity
  8
SUNPOU
100
AcDbMText
 10
105884.6285225027
 20
93730.15535542933
 30
0.0
 40
10.5
 41
0.0
 71
     9
 72
     5
  1

1001
ACAD
1000
MTEXTBEGIN
1070
    73
1070
     1
1070
    44
1040
1.0
1070
    74
1070
     0
1000
MTEXTEND
  0
MTEXT
  5
561F
330
1A
100
AcDbEntity
  8
SUNPOU
100
AcDbMText
 10
91936.6284221267
 20
74557.75621631714
 30
0.0
 40
3.5
 41
0.0
 71
     7
 72
     5
  1

1001
ACAD
1000
MTEXTBEGIN
1070
    73
1070
     1
1070
    44
1040
1.0
1070
    74
1070
     0
1000
MTEXTEND
  0
MTEXT
  5
5620
330
1A
100
AcDbEntity
  8
SUNPOU
100
AcDbMText
 10
72921.79781911986
 20
62319.90494713533
 30
0.0
 40
10.5
 41
0.0
 71
     7
 72
     5
  1

1001
ACAD
1000
MTEXTBEGIN
1070
    73
1070
     1
1070
    44
1040
1.0
1070
    74
1070
     0
1000
MTEXTEND
  0
MTEXT
  5
5621
330
1A
100
AcDbEntity
  8
SUNPOU
100
AcDbMText
 10
60464.56955417175
 20
46474.97336903692
 30
0.0
 40
35.0
 41
0.0
 71
     9
 72
     5
  1

1001
ACAD
1000
MTEXTBEGIN
1070
    73
1070
     1
1070
    44
1040
1.0
1070
    74
1070
     0
1000
MTEXTEND
  0
MTEXT
  5
5622
330
1A
100
AcDbEntity
  8
SUNPOU
100
AcDbMText
 10
59373.05461174672
 20
47083.74877908562
 30
0.0
 40
350.0000004171781
 41
0.0
 71
     7
 72
     5
  1

1001
ACAD
1000
MTEXTBEGIN
1070
    73
1070
     1
1070
    44
1040
1.0
1070
    74
1070
     0
1000
MTEXTEND
  0
MTEXT
  5
5623
330
1A
100
AcDbEntity
  8
0
100
AcDbMText
 10
65417.00536968962
 20
45063.67114122186
 30
0.0
 40
8.0
 41
0.0
 71
     7
 72
     5
  1

1001
ACAD
1000
MTEXTBEGIN
1070
    73
1070
     1
1070
    44
1040
1.0
1070
    74
1070
     0
1000
MTEXTEND
  0
MTEXT
  5
5624
330
1A
100
AcDbEntity
  8
0
100
AcDbMText
 10
67702.36305958452
 20
46034.46143597292
 30
0.0
 40
8.0
 41
0.0
 71
     7
 72
     5
  1

1001
ACAD
1000
MTEXTBEGIN
1070
    73
1070
     1
1070
    44
1040
1.0
1070
    74
1070
     0
1000
MTEXTEND
  0
MTEXT
  5
5625
330
1A
100
AcDbEntity
  8
SUNPOU
100
AcDbMText
 10
70368.26008026666
 20
55546.57282834803
 30
0.0
 40
10.5
 41
0.0
 71
     1
 72
     5
  1

1001
ACAD
1000
MTEXTBEGIN
1070
    73
1070
     1
1070
    44
1040
1.0
1070
    74
1070
     0
1000
MTEXTEND
  0
MTEXT
  5
5626
330
1A
100
AcDbEntity
  8
SUNPOU
100
AcDbMText
 10
62437.33688433072
 20
54599.77969443508
 30
0.0
 40
10.5
 41
0.0
 71
     7
 72
     5
  1

1001
ACAD
1000
MTEXTBEGIN
1070
    73
1070
     1
1070
    44
1040
1.0
1070
    74
1070
     0
1000
MTEXTEND
  0
MTEXT
  5
5627
330
1A
100
AcDbEntity
  8
SUNPOU
100
AcDbMText
 10
65386.32054884349
 20
59500.45576627792
 30
0.0
 40
10.5
 41
0.0
 71
     7
 72
     5
  1

1001
ACAD
1000
MTEXTBEGIN
1070
    73
1070
     1
1070
    44
1040
1.0
1070
    74
1070
     0
1000
MTEXTEND
  0
MTEXT
  5
5628
330
1A
100
AcDbEntity
  8
SUNPOU
100
AcDbMText
 10
69895.39867679405
 20
61936.756513898
 30
0.0
 40
10.5
 41
0.0
 71
     7
 72
     5
  1

1001
ACAD
1000
MTEXTBEGIN
1070
    73
1070
     1
1070
    44
1040
1.0
1070
    74
1070
     0
1000
MTEXTEND
  0
MTEXT
  5
5629
330
1A
100
AcDbEntity
  8
SUNPOU
100
AcDbMText
 10
53496.23656356237
 20
40934.35266428691
 30
0.0
 40
10.5
 41
0.0
 71
     7
 72
     5
  1

1001
ACAD
1000
MTEXTBEGIN
1070
    73
1070
     1
1070
    44
1040
1.0
1070
    74
1070
     0
1000
MTEXTEND
  0
MTEXT
  5
562A
330
1A
100
AcDbEntity
  8
SUNPOU
100
AcDbMText
 10
55306.99947493731
 20
47261.76665176547
 30
0.0
 40
10.5
 41
0.0
 71
     9
 72
     5
  1

1001
ACAD
1000
MTEXTBEGIN
1070
    73
1070
     1
1070
    44
1040
1.0
1070
    74
1070
     0
1000
MTEXTEND
  0
MTEXT
  5
562B
330
1A
100
AcDbEntity
  8
SUNPOU
100
AcDbMText
 10
64029.16704085528
 20
54677.60118330295
 30
0.0
 40
10.5
 41
0.0
 71
     9
 72
     5
  1

1001
ACAD
1000
MTEXTBEGIN
1070
    73
1070
     1
1070
    44
1040
1.0
1070
    74
1070
     0
1000
MTEXTEND
  0
MTEXT
  5
562C
330
1A
100
AcDbEntity
  8
SUNPOU
100
AcDbMText
 10
82982.92575818527
 20
72144.17723579499
 30
0.0
 40
10.5
 41
0.0
 71
     9
 72
     5
  1

1001
ACAD
1000
MTEXTBEGIN
1070
    73
1070
     1
1070
    44
1040
1.0
1070
    74
1070
     0
1000
MTEXTEND
  0
MTEXT
  5
562D
330
1A
100
AcDbEntity
  8
SUNPOU
100
AcDbMText
 10
84926.33300489467
 20
70343.12815591698
 30
0.0
 40
3.5
 41
0.0
 71
     9
 72
     5
  1

1001
ACAD
1000
MTEXTBEGIN
1070
    73
1070
     1
1070
    44
1040
1.0
1070
    74
1070
     0
1000
MTEXTEND
  0
MTEXT
  5
562E
330
1A
100
AcDbEntity
  8
SUNPOU
100
AcDbMText
 10
116052.5128375143
 20
112838.0738235743
 30
0.0
 40
10.5
 41
0.0
 71
     9
 72
     5
  1

1001
ACAD
1000
MTEXTBEGIN
1070
    73
1070
     1
1070
    44
1040
1.0
1070
    74
1070
     0
1000
MTEXTEND
  0
MTEXT
  5
562F
330
1A
100
AcDbEntity
  8
SUNPOU
100
AcDbMText
 10
117995.9200842238
 20
111037.0247436963
 30
0.0
 40
3.5
 41
0.0
 71
     9
 72
     5
  1

1001
ACAD
1000
MTEXTBEGIN
1070
    73
1070
     1
1070
    44
1040
1.0
1070
    74
1070
     0
1000
MTEXTEND
  0
MTEXT
  5
5630
330
1A
100
AcDbEntity
  8
SUNPOU
100
AcDbMText
 10
66492.78054330994
 20
58671.23897854939
 30
0.0
 40
10.5
 41
0.0
 71
     9
 72
     5
  1

1001
ACAD
1000
MTEXTBEGIN
1070
    73
1070
     1
1070
    44
1040
1.0
1070
    74
1070
     0
1000
MTEXTEND
  0
MTEXT
  5
5631
330
1A
100
AcDbEntity
  8
SUNPOU
100
AcDbMText
 10
52544.78044293396
 20
39498.83983943717
 30
0.0
 40
3.5
 41
0.0
 71
     7
 72
     5
  1

1001
ACAD
1000
MTEXTBEGIN
1070
    73
1070
     1
1070
    44
1040
1.0
1070
    74
1070
     0
1000
MTEXTEND
  0
MTEXT
  5
5632
330
1A
100
AcDbEntity
  8
SUNPOU
100
AcDbMText
 10
66237.13112570454
 20
48857.90306045851
 30
0.0
 40
10.5
 41
0.0
 71
     9
 72
     5
  1

1001
ACAD
1000
MTEXTBEGIN
1070
    73
1070
     1
1070
    44
1040
1.0
1070
    74
1070
     0
1000
MTEXTEND
  0
MTEXT
  5
5633
330
1A
100
AcDbEntity
  8
SUNPOU
100
AcDbMText
 10
74959.29869162252
 20
56273.737591996
 30
0.0
 40
10.5
 41
0.0
 71
     9
 72
     5
  1

1001
ACAD
1000
MTEXTBEGIN
1070
    73
1070
     1
1070
    44
1040
1.0
1070
    74
1070
     0
1000
MTEXTEND
  0
MTEXT
  5
5634
330
1A
100
AcDbEntity
  8
SUNPOU
100
AcDbMText
 10
93913.0574089525
 20
73740.31364448805
 30
0.0
 40
10.5
 41
0.0
 71
     9
 72
     5
  1

1001
ACAD
1000
MTEXTBEGIN
1070
    73
1070
     1
1070
    44
1040
1.0
1070
    74
1070
     0
1000
MTEXTEND
  0
MTEXT
  5
5635
330
1A
100
AcDbEntity
  8
SUNPOU
100
AcDbMText
 10
95856.46465566192
 20
71939.26456461004
 30
0.0
 40
3.5
 41
0.0
 71
     9
 72
     5
  1

1001
ACAD
1000
MTEXTBEGIN
1070
    73
1070
     1
1070
    44
1040
1.0
1070
    74
1070
     0
1000
MTEXTEND
  0
MTEXT
  5
5636
330
1A
100
AcDbEntity
  8
SUNPOU
100
AcDbMText
 10
126982.6444882816
 20
114434.2102322673
 30
0.0
 40
10.5
 41
0.0
 71
     9
 72
     5
  1

1001
ACAD
1000
MTEXTBEGIN
1070
    73
1070
     1
1070
    44
1040
1.0
1070
    74
1070
     0
1000
MTEXTEND
  0
MTEXT
  5
5637
330
1A
100
AcDbEntity
  8
SUNPOU
100
AcDbMText
 10
128926.051734991
 20
112633.1611523893
 30
0.0
 40
3.5
 41
0.0
 71
     9
 72
     5
  1

1001
ACAD
1000
MTEXTBEGIN
1070
    73
1070
     1
1070
    44
1040
1.0
1070
    74
1070
     0
1000
MTEXTEND
  0
MTEXT
  5
5638
330
1A
100
AcDbEntity
  8
SUNPOU
100
AcDbMText
 10
77422.91219407717
 20
60267.37538724244
 30
0.0
 40
10.5
 41
0.0
 71
     9
 72
     5
  1

1001
ACAD
1000
MTEXTBEGIN
1070
    73
1070
     1
1070
    44
1040
1.0
1070
    74
1070
     0
1000
MTEXTEND
  0
MTEXT
  5
5639
330
1A
100
AcDbEntity
  8
SUNPOU
100
AcDbMText
 10
63474.91209370119
 20
41094.97624813023
 30
0.0
 40
3.5
 41
0.0
 71
     7
 72
     5
  1

1001
ACAD
1000
MTEXTBEGIN
1070
    73
1070
     1
1070
    44
1040
1.0
1070
    74
1070
     0
1000
MTEXTEND
  0
MTEXT
  5
563A
330
1A
100
AcDbEntity
  8
SUNPOU
100
AcDbMText
 10
48117.65086229006
 20
40806.11043916631
 30
0.0
 40
10.5
 41
0.0
 71
     9
 72
     5
  1

1001
ACAD
1000
MTEXTBEGIN
1070
    73
1070
     1
1070
    44
1040
1.0
1070
    74
1070
     0
1000
MTEXTEND
  0
MTEXT
  5
563B
330
1A
100
AcDbEntity
  8
SUNPOU
100
AcDbMText
 10
67071.40957962004
 20
58272.68649165837
 30
0.0
 40
10.5
 41
0.0
 71
     9
 72
     5
  1

1001
ACAD
1000
MTEXTBEGIN
1070
    73
1070
     1
1070
    44
1040
1.0
1070
    74
1070
     0
1000
MTEXTEND
  0
MTEXT
  5
563C
330
1A
100
AcDbEntity
  8
SUNPOU
100
AcDbMText
 10
69014.81682632945
 20
56471.63741178035
 30
0.0
 40
3.5
 41
0.0
 71
     9
 72
     5
  1

1001
ACAD
1000
MTEXTBEGIN
1070
    73
1070
     1
1070
    44
1040
1.0
1070
    74
1070
     0
1000
MTEXTEND
  0
MTEXT
  5
563D
330
1A
100
AcDbEntity
  8
SUNPOU
100
AcDbMText
 10
100140.9966589491
 20
98966.58307943772
 30
0.0
 40
10.5
 41
0.0
 71
     9
 72
     5
  1

1001
ACAD
1000
MTEXTBEGIN
1070
    73
1070
     1
1070
    44
1040
1.0
1070
    74
1070
     0
1000
MTEXTEND
  0
MTEXT
  5
563E
330
1A
100
AcDbEntity
  8
SUNPOU
100
AcDbMText
 10
102084.4039056586
 20
97165.53399955969
 30
0.0
 40
3.5
 41
0.0
 71
     9
 72
     5
  1

1001
ACAD
1000
MTEXTBEGIN
1070
    73
1070
     1
1070
    44
1040
1.0
1070
    74
1070
     0
1000
MTEXTEND
  0
MTEXT
  5
563F
330
1A
100
AcDbEntity
  8
SUNPOU
100
AcDbMText
 10
50581.26436474472
 20
44799.74823441275
 30
0.0
 40
10.5
 41
0.0
 71
     9
 72
     5
  1

1001
ACAD
1000
MTEXTBEGIN
1070
    73
1070
     1
1070
    44
1040
1.0
1070
    74
1070
     0
1000
MTEXTEND
  0
MTEXT
  5
5640
330
1A
100
AcDbEntity
  8
SUNPOU
100
AcDbMText
 10
36633.26426436873
 20
25627.34909530054
 30
0.0
 40
3.5
 41
0.0
 71
     7
 72
     5
  1

1001
ACAD
1000
MTEXTBEGIN
1070
    73
1070
     1
1070
    44
1040
1.0
1070
    74
1070
     0
1000
MTEXTEND
  0
MTEXT
  5
5641
330
1A
100
AcDbEntity
  8
SUNPOU
100
AcDbMText
 10
61069.42493315968
 20
52574.61207825771
 30
0.0
 40
10.5
 41
0.0
 71
     9
 72
     5
  1

1001
ACAD
1000
MTEXTBEGIN
1070
    73
1070
     1
1070
    44
1040
1.0
1070
    74
1070
     0
1000
MTEXTEND
  0
MTEXT
  5
5642
330
1A
100
AcDbEntity
  8
SUNPOU
100
AcDbMText
 10
80023.18365048967
 20
70041.18813074978
 30
0.0
 40
10.5
 41
0.0
 71
     9
 72
     5
  1

1001
ACAD
1000
MTEXTBEGIN
1070
    73
1070
     1
1070
    44
1040
1.0
1070
    74
1070
     0
1000
MTEXTEND
  0
MTEXT
  5
5643
330
1A
100
AcDbEntity
  8
SUNPOU
100
AcDbMText
 10
81966.59089719908
 20
68240.13905087176
 30
0.0
 40
3.5
 41
0.0
 71
     9
 72
     5
  1

1001
ACAD
1000
MTEXTBEGIN
1070
    73
1070
     1
1070
    44
1040
1.0
1070
    74
1070
     0
1000
MTEXTEND
  0
MTEXT
  5
5644
330
1A
100
AcDbEntity
  8
SUNPOU
100
AcDbMText
 10
113092.7707298187
 20
110735.0847185291
 30
0.0
 40
10.5
 41
0.0
 71
     9
 72
     5
  1

1001
ACAD
1000
MTEXTBEGIN
1070
    73
1070
     1
1070
    44
1040
1.0
1070
    74
1070
     0
1000
MTEXTEND
  0
MTEXT
  5
5645
330
1A
100
AcDbEntity
  8
SUNPOU
100
AcDbMText
 10
115036.1779765282
 20
108934.0356386511
 30
0.0
 40
3.5
 41
0.0
 71
     9
 72
     5
  1

1001
ACAD
1000
MTEXTBEGIN
1070
    73
1070
     1
1070
    44
1040
1.0
1070
    74
1070
     0
1000
MTEXTEND
  0
MTEXT
  5
5646
330
1A
100
AcDbEntity
  8
SUNPOU
100
AcDbMText
 10
63533.03843561433
 20
56568.24987350415
 30
0.0
 40
10.5
 41
0.0
 71
     9
 72
     5
  1

1001
ACAD
1000
MTEXTBEGIN
1070
    73
1070
     1
1070
    44
1040
1.0
1070
    74
1070
     0
1000
MTEXTEND
  0
MTEXT
  5
5647
330
1A
100
AcDbEntity
  8
SUNPOU
100
AcDbMText
 10
49585.03833523835
 20
37395.85073439196
 30
0.0
 40
3.5
 41
0.0
 71
     7
 72
     5
  1

1001
ACAD
1000
MTEXTBEGIN
1070
    73
1070
     1
1070
    44
1040
1.0
1070
    74
1070
     0
1000
MTEXTEND
  0
MTEXT
  5
5648
330
1A
100
AcDbEntity
  8
SUNPOU
100
AcDbMText
 10
77137.31641337052
 20
70907.11375048141
 30
0.0
 40
10.5
 41
0.0
 71
     9
 72
     5
  1

1001
ACAD
1000
MTEXTBEGIN
1070
    73
1070
     1
1070
    44
1040
1.0
1070
    74
1070
     0
1000
MTEXTEND
  0
MTEXT
  5
5649
330
1A
100
AcDbEntity
  8
SUNPOU
100
AcDbMText
 10
79080.72366007995
 20
69106.06467060339
 30
0.0
 40
3.5
 41
0.0
 71
     9
 72
     5
  1

1001
ACAD
1000
MTEXTBEGIN
1070
    73
1070
     1
1070
    44
1040
1.0
1070
    74
1070
     0
1000
MTEXTEND
  0
MTEXT
  5
564A
330
1A
100
AcDbEntity
  8
SUNPOU
100
AcDbMText
 10
110206.9034926996
 20
111601.0103382607
 30
0.0
 40
10.5
 41
0.0
 71
     9
 72
     5
  1

1001
ACAD
1000
MTEXTBEGIN
1070
    73
1070
     1
1070
    44
1040
1.0
1070
    74
1070
     0
1000
MTEXTEND
  0
MTEXT
  5
564B
330
1A
100
AcDbEntity
  8
SUNPOU
100
AcDbMText
 10
112150.310739409
 20
109799.9612583827
 30
0.0
 40
3.5
 41
0.0
 71
     9
 72
     5
  1

1001
ACAD
1000
MTEXTBEGIN
1070
    73
1070
     1
1070
    44
1040
1.0
1070
    74
1070
     0
1000
MTEXTEND
  0
MTEXT
  5
564C
330
1A
100
AcDbEntity
  8
SUNPOU
100
AcDbMText
 10
108819.1333204968
 20
110677.9087286761
 30
0.0
 40
10.5
 41
0.0
 71
     9
 72
     5
  1

1001
ACAD
1000
MTEXTBEGIN
1070
    73
1070
     1
1070
    44
1040
1.0
1070
    74
1070
     0
1000
MTEXTEND
  0
MTEXT
  5
564D
330
1A
100
AcDbEntity
  8
SUNPOU
100
AcDbMText
 10
110762.5405672062
 20
108876.8596487981
 30
0.0
 40
3.5
 41
0.0
 71
     9
 72
     5
  1

1001
ACAD
1000
MTEXTBEGIN
1070
    73
1070
     1
1070
    44
1040
1.0
1070
    74
1070
     0
1000
MTEXTEND
  0
MTEXT
  5
564E
330
1A
100
AcDbEntity
  8
SUNPOU
100
AcDbMText
 10
76303.05507956816
 20
68695.31179059812
 30
0.0
 40
10.5
 41
0.0
 71
     9
 72
     5
  1

1001
ACAD
1000
MTEXTBEGIN
1070
    73
1070
     1
1070
    44
1040
1.0
1070
    74
1070
     0
1000
MTEXTEND
  0
MTEXT
  5
564F
330
1A
100
AcDbEntity
  8
SUNPOU
100
AcDbMText
 10
79026.36128373271
 20
69099.99348217918
 30
0.0
 40
3.5
 41
0.0
 71
     9
 72
     5
  1

1001
ACAD
1000
MTEXTBEGIN
1070
    73
1070
     1
1070
    44
1040
1.0
1070
    74
1070
     0
1000
MTEXTEND
  0
MTEXT
  5
5650
330
1A
100
AcDbEntity
  8
SUNPOU
100
AcDbMText
 10
78234.00675862522
 20
65938.68764412436
 30
0.0
 40
10.5
 41
0.0
 71
     9
 72
     5
  1

1001
ACAD
1000
MTEXTBEGIN
1070
    73
1070
     1
1070
    44
1040
1.0
1070
    74
1070
     0
1000
MTEXTEND
  0
MTEXT
  5
5651
330
1A
100
AcDbEntity
  8
SUNPOU
100
AcDbMText
 10
80177.41400533465
 20
64137.63856424636
 30
0.0
 40
3.5
 41
0.0
 71
     9
 72
     5
  1

1001
ACAD
1000
MTEXTBEGIN
1070
    73
1070
     1
1070
    44
1040
1.0
1070
    74
1070
     0
1000
MTEXTEND
  0
MTEXT
  5
5652
330
1A
100
AcDbEntity
  8
SUNPOU
100
AcDbMText
 10
80122.50949592123
 20
64024.86668196205
 30
0.0
 40
3.5
 41
0.0
 71
     9
 72
     5
  1

1001
ACAD
1000
MTEXTBEGIN
1070
    73
1070
     1
1070
    44
1040
1.0
1070
    74
1070
     0
1000
MTEXTEND
  0
MTEXT
  5
5653
330
1A
100
AcDbEntity
  8
SUNPOU
100
AcDbMText
 10
79486.58135950133
 20
63213.54544089553
 30
0.0
 40
3.5
 41
0.0
 71
     9
 72
     5
  1

1001
ACAD
1000
MTEXTBEGIN
1070
    73
1070
     1
1070
    44
1040
1.0
1070
    74
1070
     0
1000
MTEXTEND
  0
MTEXT
  5
5654
330
1A
100
AcDbEntity
  8
SUNPOU
100
AcDbMText
 10
79485.3409400806
 20
63213.29746395804
 30
0.0
 40
10.5
 41
0.0
 71
     9
 72
     5
  1

1001
ACAD
1000
MTEXTBEGIN
1070
    73
1070
     1
1070
    44
1040
1.0
1070
    74
1070
     0
1000
MTEXTEND
  0
MTEXT
  5
5655
330
1A
100
AcDbEntity
  8
SUNPOU
100
AcDbMText
 10
85473.63363627567
 20
80747.76348077064
 30
0.0
 40
10.5
 41
0.0
 71
     9
 72
     5
  1

1001
ACAD
1000
MTEXTBEGIN
1070
    73
1070
     1
1070
    44
1040
1.0
1070
    74
1070
     0
1000
MTEXTEND
  0
MTEXT
  5
5656
330
1A
100
AcDbEntity
  8
SUNPOU
100
AcDbMText
 10
94195.80120219368
 20
88163.59801230809
 30
0.0
 40
10.5
 41
0.0
 71
     9
 72
     5
  1

1001
ACAD
1000
MTEXTBEGIN
1070
    73
1070
     1
1070
    44
1040
1.0
1070
    74
1070
     0
1000
MTEXTEND
  0
MTEXT
  5
5657
330
1A
100
AcDbEntity
  8
SUNPOU
100
AcDbMText
 10
113149.5599195236
 20
105630.1740648001
 30
0.0
 40
10.5
 41
0.0
 71
     9
 72
     5
  1

1001
ACAD
1000
MTEXTBEGIN
1070
    73
1070
     1
1070
    44
1040
1.0
1070
    74
1070
     0
1000
MTEXTEND
  0
MTEXT
  5
5658
330
1A
100
AcDbEntity
  8
SUNPOU
100
AcDbMText
 10
115092.967166233
 20
103829.1249849221
 30
0.0
 40
3.5
 41
0.0
 71
     9
 72
     5
  1

1001
ACAD
1000
MTEXTBEGIN
1070
    73
1070
     1
1070
    44
1040
1.0
1070
    74
1070
     0
1000
MTEXTEND
  0
MTEXT
  5
5659
330
1A
100
AcDbEntity
  8
SUNPOU
100
AcDbMText
 10
146219.1469988527
 20
146324.0706525794
 30
0.0
 40
10.5
 41
0.0
 71
     9
 72
     5
  1

1001
ACAD
1000
MTEXTBEGIN
1070
    73
1070
     1
1070
    44
1040
1.0
1070
    74
1070
     0
1000
MTEXTEND
  0
MTEXT
  5
565A
330
1A
100
AcDbEntity
  8
SUNPOU
100
AcDbMText
 10
148162.5542455621
 20
144523.0215727014
 30
0.0
 40
3.5
 41
0.0
 71
     9
 72
     5
  1

1001
ACAD
1000
MTEXTBEGIN
1070
    73
1070
     1
1070
    44
1040
1.0
1070
    74
1070
     0
1000
MTEXTEND
  0
MTEXT
  5
565B
330
1A
100
AcDbEntity
  8
SUNPOU
100
AcDbMText
 10
96659.41470464833
 20
92157.23580755453
 30
0.0
 40
10.5
 41
0.0
 71
     9
 72
     5
  1

1001
ACAD
1000
MTEXTBEGIN
1070
    73
1070
     1
1070
    44
1040
1.0
1070
    74
1070
     0
1000
MTEXTEND
  0
MTEXT
  5
565C
330
1A
100
AcDbEntity
  8
SUNPOU
100
AcDbMText
 10
82711.41460427234
 20
72984.83666844234
 30
0.0
 40
3.5
 41
0.0
 71
     7
 72
     5
  1

1001
ACAD
1000
MTEXTBEGIN
1070
    73
1070
     1
1070
    44
1040
1.0
1070
    74
1070
     0
1000
MTEXTEND
  0
MTEXT
  5
565D
330
1A
100
AcDbEntity
  8
SUNPOU
100
AcDbMText
 10
63696.58400126548
 20
60746.98539926055
 30
0.0
 40
10.5
 41
0.0
 71
     7
 72
     5
  1

1001
ACAD
1000
MTEXTBEGIN
1070
    73
1070
     1
1070
    44
1040
1.0
1070
    74
1070
     0
1000
MTEXTEND
  0
MTEXT
  5
565E
330
1A
100
AcDbEntity
  8
SUNPOU
100
AcDbMText
 10
51239.35573631738
 20
44902.05382116213
 30
0.0
 40
35.0
 41
0.0
 71
     9
 72
     5
  1

1001
ACAD
1000
MTEXTBEGIN
1070
    73
1070
     1
1070
    44
1040
1.0
1070
    74
1070
     0
1000
MTEXTEND
  0
MTEXT
  5
565F
330
1A
100
AcDbEntity
  8
SUNPOU
100
AcDbMText
 10
50147.84079389233
 20
45510.82923121084
 30
0.0
 40
350.0000004171781
 41
0.0
 71
     7
 72
     5
  1

1001
ACAD
1000
MTEXTBEGIN
1070
    73
1070
     1
1070
    44
1040
1.0
1070
    74
1070
     0
1000
MTEXTEND
  0
MTEXT
  5
5660
330
1A
100
AcDbEntity
  8
0
100
AcDbMText
 10
56191.79155183523
 20
43490.75159334705
 30
0.0
 40
8.0
 41
0.0
 71
     7
 72
     5
  1

1001
ACAD
1000
MTEXTBEGIN
1070
    73
1070
     1
1070
    44
1040
1.0
1070
    74
1070
     0
1000
MTEXTEND
  0
MTEXT
  5
5661
330
1A
100
AcDbEntity
  8
0
100
AcDbMText
 10
58477.14924173013
 20
44461.54188809812
 30
0.0
 40
8.0
 41
0.0
 71
     7
 72
     5
  1

1001
ACAD
1000
MTEXTBEGIN
1070
    73
1070
     1
1070
    44
1040
1.0
1070
    74
1070
     0
1000
MTEXTEND
  0
MTEXT
  5
5662
330
1A
100
AcDbEntity
  8
SUNPOU
100
AcDbMText
 10
61143.04626241227
 20
53973.65328047324
 30
0.0
 40
10.5
 41
0.0
 71
     1
 72
     5
  1

1001
ACAD
1000
MTEXTBEGIN
1070
    73
1070
     1
1070
    44
1040
1.0
1070
    74
1070
     0
1000
MTEXTEND
  0
MTEXT
  5
5663
330
1A
100
AcDbEntity
  8
SUNPOU
100
AcDbMText
 10
53212.12306647634
 20
53026.86014656028
 30
0.0
 40
10.5
 41
0.0
 71
     7
 72
     5
  1

1001
ACAD
1000
MTEXTBEGIN
1070
    73
1070
     1
1070
    44
1040
1.0
1070
    74
1070
     0
1000
MTEXTEND
  0
MTEXT
  5
5664
330
1A
100
AcDbEntity
  8
SUNPOU
100
AcDbMText
 10
56161.1067309891
 20
57927.53621840312
 30
0.0
 40
10.5
 41
0.0
 71
     7
 72
     5
  1

1001
ACAD
1000
MTEXTBEGIN
1070
    73
1070
     1
1070
    44
1040
1.0
1070
    74
1070
     0
1000
MTEXTEND
  0
MTEXT
  5
5665
330
1A
100
AcDbEntity
  8
SUNPOU
100
AcDbMText
 10
60670.18485893966
 20
60363.8369660232
 30
0.0
 40
10.5
 41
0.0
 71
     7
 72
     5
  1

1001
ACAD
1000
MTEXTBEGIN
1070
    73
1070
     1
1070
    44
1040
1.0
1070
    74
1070
     0
1000
MTEXTEND
  0
MTEXT
  5
5666
330
1A
100
AcDbEntity
  8
SUNPOU
100
AcDbMText
 10
44271.02274570799
 20
39361.43311641212
 30
0.0
 40
10.5
 41
0.0
 71
     7
 72
     5
  1

1001
ACAD
1000
MTEXTBEGIN
1070
    73
1070
     1
1070
    44
1040
1.0
1070
    74
1070
     0
1000
MTEXTEND
  0
MTEXT
  5
5667
330
1A
100
AcDbEntity
  8
SUNPOU
100
AcDbMText
 10
95462.54117960824
 20
85034.41368006038
 30
0.0
 40
10.5
 41
0.0
 71
     9
 72
     5
  1

1001
ACAD
1000
MTEXTBEGIN
1070
    73
1070
     1
1070
    44
1040
1.0
1070
    74
1070
     0
1000
MTEXTEND
  0
MTEXT
  5
5668
330
1A
100
AcDbEntity
  8
SUNPOU
100
AcDbMText
 10
104184.7087455262
 20
92450.24821159784
 30
0.0
 40
10.5
 41
0.0
 71
     9
 72
     5
  1

1001
ACAD
1000
MTEXTBEGIN
1070
    73
1070
     1
1070
    44
1040
1.0
1070
    74
1070
     0
1000
MTEXTEND
  0
MTEXT
  5
5669
330
1A
100
AcDbEntity
  8
SUNPOU
100
AcDbMText
 10
123138.4674628562
 20
109916.8242640898
 30
0.0
 40
10.5
 41
0.0
 71
     9
 72
     5
  1

1001
ACAD
1000
MTEXTBEGIN
1070
    73
1070
     1
1070
    44
1040
1.0
1070
    74
1070
     0
1000
MTEXTEND
  0
MTEXT
  5
566A
330
1A
100
AcDbEntity
  8
SUNPOU
100
AcDbMText
 10
125081.8747095656
 20
108115.7751842118
 30
0.0
 40
3.5
 41
0.0
 71
     9
 72
     5
  1

1001
ACAD
1000
MTEXTBEGIN
1070
    73
1070
     1
1070
    44
1040
1.0
1070
    74
1070
     0
1000
MTEXTEND
  0
MTEXT
  5
566B
330
1A
100
AcDbEntity
  8
SUNPOU
100
AcDbMText
 10
156208.0545421853
 20
150610.7208518691
 30
0.0
 40
10.5
 41
0.0
 71
     9
 72
     5
  1

1001
ACAD
1000
MTEXTBEGIN
1070
    73
1070
     1
1070
    44
1040
1.0
1070
    74
1070
     0
1000
MTEXTEND
  0
MTEXT
  5
566C
330
1A
100
AcDbEntity
  8
SUNPOU
100
AcDbMText
 10
158151.4617888947
 20
148809.6717719911
 30
0.0
 40
3.5
 41
0.0
 71
     9
 72
     5
  1

1001
ACAD
1000
MTEXTBEGIN
1070
    73
1070
     1
1070
    44
1040
1.0
1070
    74
1070
     0
1000
MTEXTEND
  0
MTEXT
  5
566D
330
1A
100
AcDbEntity
  8
SUNPOU
100
AcDbMText
 10
106648.3222479809
 20
96443.88600684427
 30
0.0
 40
10.5
 41
0.0
 71
     9
 72
     5
  1

1001
ACAD
1000
MTEXTBEGIN
1070
    73
1070
     1
1070
    44
1040
1.0
1070
    74
1070
     0
1000
MTEXTEND
  0
MTEXT
  5
566E
330
1A
100
AcDbEntity
  8
SUNPOU
100
AcDbMText
 10
92700.3221476049
 20
77271.48686773207
 30
0.0
 40
3.5
 41
0.0
 71
     7
 72
     5
  1

1001
ACAD
1000
MTEXTBEGIN
1070
    73
1070
     1
1070
    44
1040
1.0
1070
    74
1070
     0
1000
MTEXTEND
  0
MTEXT
  5
566F
330
1A
100
AcDbEntity
  8
SUNPOU
100
AcDbMText
 10
73685.49154459806
 20
65033.63559855027
 30
0.0
 40
10.5
 41
0.0
 71
     7
 72
     5
  1

1001
ACAD
1000
MTEXTBEGIN
1070
    73
1070
     1
1070
    44
1040
1.0
1070
    74
1070
     0
1000
MTEXTEND
  0
MTEXT
  5
5670
330
1A
100
AcDbEntity
  8
SUNPOU
100
AcDbMText
 10
61228.26327964995
 20
49188.70402045185
 30
0.0
 40
35.0
 41
0.0
 71
     9
 72
     5
  1

1001
ACAD
1000
MTEXTBEGIN
1070
    73
1070
     1
1070
    44
1040
1.0
1070
    74
1070
     0
1000
MTEXTEND
  0
MTEXT
  5
5671
330
1A
100
AcDbEntity
  8
SUNPOU
100
AcDbMText
 10
60136.74833722491
 20
49797.47943050056
 30
0.0
 40
350.0000004171781
 41
0.0
 71
     7
 72
     5
  1

1001
ACAD
1000
MTEXTBEGIN
1070
    73
1070
     1
1070
    44
1040
1.0
1070
    74
1070
     0
1000
MTEXTEND
  0
MTEXT
  5
5672
330
1A
100
AcDbEntity
  8
0
100
AcDbMText
 10
66180.69909516782
 20
47777.40179263678
 30
0.0
 40
8.0
 41
0.0
 71
     7
 72
     5
  1

1001
ACAD
1000
MTEXTBEGIN
1070
    73
1070
     1
1070
    44
1040
1.0
1070
    74
1070
     0
1000
MTEXTEND
  0
MTEXT
  5
5673
330
1A
100
AcDbEntity
  8
0
100
AcDbMText
 10
68466.05678506271
 20
48748.19208738784
 30
0.0
 40
8.0
 41
0.0
 71
     7
 72
     5
  1

1001
ACAD
1000
MTEXTBEGIN
1070
    73
1070
     1
1070
    44
1040
1.0
1070
    74
1070
     0
1000
MTEXTEND
  0
MTEXT
  5
5674
330
1A
100
AcDbEntity
  8
SUNPOU
100
AcDbMText
 10
71131.95380574485
 20
58260.30347976296
 30
0.0
 40
10.5
 41
0.0
 71
     1
 72
     5
  1

1001
ACAD
1000
MTEXTBEGIN
1070
    73
1070
     1
1070
    44
1040
1.0
1070
    74
1070
     0
1000
MTEXTEND
  0
MTEXT
  5
5675
330
1A
100
AcDbEntity
  8
SUNPOU
100
AcDbMText
 10
63201.03060980891
 20
57313.51034585002
 30
0.0
 40
10.5
 41
0.0
 71
     7
 72
     5
  1

1001
ACAD
1000
MTEXTBEGIN
1070
    73
1070
     1
1070
    44
1040
1.0
1070
    74
1070
     0
1000
MTEXTEND
  0
MTEXT
  5
5676
330
1A
100
AcDbEntity
  8
SUNPOU
100
AcDbMText
 10
66150.01427432169
 20
62214.18641769286
 30
0.0
 40
10.5
 41
0.0
 71
     7
 72
     5
  1

1001
ACAD
1000
MTEXTBEGIN
1070
    73
1070
     1
1070
    44
1040
1.0
1070
    74
1070
     0
1000
MTEXTEND
  0
MTEXT
  5
5677
330
1A
100
AcDbEntity
  8
SUNPOU
100
AcDbMText
 10
70659.09240227225
 20
64650.48716531294
 30
0.0
 40
10.5
 41
0.0
 71
     7
 72
     5
  1

1001
ACAD
1000
MTEXTBEGIN
1070
    73
1070
     1
1070
    44
1040
1.0
1070
    74
1070
     0
1000
MTEXTEND
  0
MTEXT
  5
5678
330
1A
100
AcDbEntity
  8
SUNPOU
100
AcDbMText
 10
54259.93028904056
 20
43648.08331570185
 30
0.0
 40
10.5
 41
0.0
 71
     7
 72
     5
  1

1001
ACAD
1000
MTEXTBEGIN
1070
    73
1070
     1
1070
    44
1040
1.0
1070
    74
1070
     0
1000
MTEXTEND
  0
MTEXT
  5
5679
330
1A
100
AcDbEntity
  8
SUNPOU
100
AcDbMText
 10
56070.69320041551
 20
49975.4973031804
 30
0.0
 40
10.5
 41
0.0
 71
     9
 72
     5
  1

1001
ACAD
1000
MTEXTBEGIN
1070
    73
1070
     1
1070
    44
1040
1.0
1070
    74
1070
     0
1000
MTEXTEND
  0
MTEXT
  5
567A
330
1A
100
AcDbEntity
  8
SUNPOU
100
AcDbMText
 10
64792.86076633348
 20
57391.33183471788
 30
0.0
 40
10.5
 41
0.0
 71
     9
 72
     5
  1

1001
ACAD
1000
MTEXTBEGIN
1070
    73
1070
     1
1070
    44
1040
1.0
1070
    74
1070
     0
1000
MTEXTEND
  0
MTEXT
  5
567B
330
1A
100
AcDbEntity
  8
SUNPOU
100
AcDbMText
 10
83746.61948366345
 20
74857.90788720994
 30
0.0
 40
10.5
 41
0.0
 71
     9
 72
     5
  1

1001
ACAD
1000
MTEXTBEGIN
1070
    73
1070
     1
1070
    44
1040
1.0
1070
    74
1070
     0
1000
MTEXTEND
  0
MTEXT
  5
567C
330
1A
100
AcDbEntity
  8
SUNPOU
100
AcDbMText
 10
85690.02673037287
 20
73056.85880733192
 30
0.0
 40
3.5
 41
0.0
 71
     9
 72
     5
  1

1001
ACAD
1000
MTEXTBEGIN
1070
    73
1070
     1
1070
    44
1040
1.0
1070
    74
1070
     0
1000
MTEXTEND
  0
MTEXT
  5
567D
330
1A
100
AcDbEntity
  8
SUNPOU
100
AcDbMText
 10
116816.2065629925
 20
115551.8044749892
 30
0.0
 40
10.5
 41
0.0
 71
     9
 72
     5
  1

1001
ACAD
1000
MTEXTBEGIN
1070
    73
1070
     1
1070
    44
1040
1.0
1070
    74
1070
     0
1000
MTEXTEND
  0
MTEXT
  5
567E
330
1A
100
AcDbEntity
  8
SUNPOU
100
AcDbMText
 10
118759.613809702
 20
113750.7553951112
 30
0.0
 40
3.5
 41
0.0
 71
     9
 72
     5
  1

1001
ACAD
1000
MTEXTBEGIN
1070
    73
1070
     1
1070
    44
1040
1.0
1070
    74
1070
     0
1000
MTEXTEND
  0
MTEXT
  5
567F
330
1A
100
AcDbEntity
  8
SUNPOU
100
AcDbMText
 10
67256.47426878814
 20
61384.96962996432
 30
0.0
 40
10.5
 41
0.0
 71
     9
 72
     5
  1

1001
ACAD
1000
MTEXTBEGIN
1070
    73
1070
     1
1070
    44
1040
1.0
1070
    74
1070
     0
1000
MTEXTEND
  0
MTEXT
  5
5680
330
1A
100
AcDbEntity
  8
SUNPOU
100
AcDbMText
 10
53308.47416841216
 20
42212.57049085211
 30
0.0
 40
3.5
 41
0.0
 71
     7
 72
     5
  1

1001
ACAD
1000
MTEXTBEGIN
1070
    73
1070
     1
1070
    44
1040
1.0
1070
    74
1070
     0
1000
MTEXTEND
  0
MTEXT
  5
5681
330
1A
100
AcDbEntity
  8
SUNPOU
100
AcDbMText
 10
67000.82485118274
 20
51571.63371187345
 30
0.0
 40
10.5
 41
0.0
 71
     9
 72
     5
  1

1001
ACAD
1000
MTEXTBEGIN
1070
    73
1070
     1
1070
    44
1040
1.0
1070
    74
1070
     0
1000
MTEXTEND
  0
MTEXT
  5
5682
330
1A
100
AcDbEntity
  8
SUNPOU
100
AcDbMText
 10
75722.99241710071
 20
58987.46824341094
 30
0.0
 40
10.5
 41
0.0
 71
     9
 72
     5
  1

1001
ACAD
1000
MTEXTBEGIN
1070
    73
1070
     1
1070
    44
1040
1.0
1070
    74
1070
     0
1000
MTEXTEND
  0
MTEXT
  5
5683
330
1A
100
AcDbEntity
  8
SUNPOU
100
AcDbMText
 10
94676.75113443068
 20
76454.04429590299
 30
0.0
 40
10.5
 41
0.0
 71
     9
 72
     5
  1

1001
ACAD
1000
MTEXTBEGIN
1070
    73
1070
     1
1070
    44
1040
1.0
1070
    74
1070
     0
1000
MTEXTEND
  0
MTEXT
  5
5684
330
1A
100
AcDbEntity
  8
SUNPOU
100
AcDbMText
 10
96620.1583811401
 20
74652.99521602498
 30
0.0
 40
3.5
 41
0.0
 71
     9
 72
     5
  1

1001
ACAD
1000
MTEXTBEGIN
1070
    73
1070
     1
1070
    44
1040
1.0
1070
    74
1070
     0
1000
MTEXTEND
  0
MTEXT
  5
5685
330
1A
100
AcDbEntity
  8
SUNPOU
100
AcDbMText
 10
127746.3382137598
 20
117147.9408836823
 30
0.0
 40
10.5
 41
0.0
 71
     9
 72
     5
  1

1001
ACAD
1000
MTEXTBEGIN
1070
    73
1070
     1
1070
    44
1040
1.0
1070
    74
1070
     0
1000
MTEXTEND
  0
MTEXT
  5
5686
330
1A
100
AcDbEntity
  8
SUNPOU
100
AcDbMText
 10
129689.7454604692
 20
115346.8918038043
 30
0.0
 40
3.5
 41
0.0
 71
     9
 72
     5
  1

1001
ACAD
1000
MTEXTBEGIN
1070
    73
1070
     1
1070
    44
1040
1.0
1070
    74
1070
     0
1000
MTEXTEND
  0
MTEXT
  5
5687
330
1A
100
AcDbEntity
  8
SUNPOU
100
AcDbMText
 10
78186.60591955537
 20
62981.10603865738
 30
0.0
 40
10.5
 41
0.0
 71
     9
 72
     5
  1

1001
ACAD
1000
MTEXTBEGIN
1070
    73
1070
     1
1070
    44
1040
1.0
1070
    74
1070
     0
1000
MTEXTEND
  0
MTEXT
  5
5688
330
1A
100
AcDbEntity
  8
SUNPOU
100
AcDbMText
 10
64238.60581917939
 20
43808.70689954517
 30
0.0
 40
3.5
 41
0.0
 71
     7
 72
     5
  1

1001
ACAD
1000
MTEXTBEGIN
1070
    73
1070
     1
1070
    44
1040
1.0
1070
    74
1070
     0
1000
MTEXTEND
  0
MTEXT
  5
5689
330
1A
100
AcDbEntity
  8
SUNPOU
100
AcDbMText
 10
33428.13481137435
 20
32770.04710035564
 30
0.0
 40
10.5
 41
0.0
 71
     9
 72
     5
  1

1001
ACAD
1000
MTEXTBEGIN
1070
    73
1070
     1
1070
    44
1040
1.0
1070
    74
1070
     0
1000
MTEXTEND
  0
MTEXT
  5
568A
330
1A
100
AcDbEntity
  8
SUNPOU
100
AcDbMText
 10
52381.89352870432
 20
50236.62315284769
 30
0.0
 40
10.5
 41
0.0
 71
     9
 72
     5
  1

1001
ACAD
1000
MTEXTBEGIN
1070
    73
1070
     1
1070
    44
1040
1.0
1070
    74
1070
     0
1000
MTEXTEND
  0
MTEXT
  5
568B
330
1A
100
AcDbEntity
  8
SUNPOU
100
AcDbMText
 10
54325.30077541374
 20
48435.57407296968
 30
0.0
 40
3.5
 41
0.0
 71
     9
 72
     5
  1

1001
ACAD
1000
MTEXTBEGIN
1070
    73
1070
     1
1070
    44
1040
1.0
1070
    74
1070
     0
1000
MTEXTEND
  0
MTEXT
  5
568C
330
1A
100
AcDbEntity
  8
SUNPOU
100
AcDbMText
 10
85451.48060803343
 20
90930.51974062703
 30
0.0
 40
10.5
 41
0.0
 71
     9
 72
     5
  1

1001
ACAD
1000
MTEXTBEGIN
1070
    73
1070
     1
1070
    44
1040
1.0
1070
    74
1070
     0
1000
MTEXTEND
  0
MTEXT
  5
568D
330
1A
100
AcDbEntity
  8
SUNPOU
100
AcDbMText
 10
87394.88785474286
 20
89129.47066074901
 30
0.0
 40
3.5
 41
0.0
 71
     9
 72
     5
  1

1001
ACAD
1000
MTEXTBEGIN
1070
    73
1070
     1
1070
    44
1040
1.0
1070
    74
1070
     0
1000
MTEXTEND
  0
MTEXT
  5
568E
330
1A
100
AcDbEntity
  8
SUNPOU
100
AcDbMText
 10
35891.74831382901
 20
36763.68489560208
 30
0.0
 40
10.5
 41
0.0
 71
     9
 72
     5
  1

1001
ACAD
1000
MTEXTBEGIN
1070
    73
1070
     1
1070
    44
1040
1.0
1070
    74
1070
     0
1000
MTEXTEND
  0
MTEXT
  5
568F
330
1A
100
AcDbEntity
  8
SUNPOU
100
AcDbMText
 10
21943.74821345303
 20
17591.28575648986
 30
0.0
 40
3.5
 41
0.0
 71
     7
 72
     5
  1

1001
ACAD
1000
MTEXTBEGIN
1070
    73
1070
     1
1070
    44
1040
1.0
1070
    74
1070
     0
1000
MTEXTEND
  0
MTEXT
  5
15AD5
330
1A
100
AcDbEntity
  8
ZISSEN1
100
AcDbMText
 10
-1260.830020478989
 20
1900.614475037074
 30
0.0
 40
5.0
 41
76.2713
 71
     1
 72
     5
  1
QDB-MS280　　No.SS0001f144
1001
ACAD
1000
MTEXTBEGIN
1070
    73
1070
     1
1070
    44
1040
1.0
1070
    74
1070
     0
1000
MTEXTEND
  0
DIMENSION
  5
1723C
330
1A
100
AcDbEntity
  8
SUNPOU
100
AcDbDimension
  2
*D0
 10
-1286.176863784039
 20
1837.780136065227
 30
0.0
 11
-1288.926863784039
 21
1808.780136082522
 31
0.0
 70
    32
  3
標準スタイル
100
AcDbAlignedDimension
 13
-1262.160675197518
 23
1779.780136099817
 33
0.0
 14
-1262.160675197518
 24
1837.780136065227
 34
0.0
 50
90.0
100
AcDbRotatedDimension
1001
ACAD
1000
DSTYLE
1002
{
1070
   340
1005
10
1070
    40
1040
1.0
1002
}
  0
DIMENSION
  5
1724B
330
1A
100
AcDbEntity
  8
SUNPOU
100
AcDbDimension
  2
*D1
 10
-1276.071490431499
 20
1783.280136065227
 30
0.0
 11
-1279.439461777358
 21
1773.880000785555
 31
0.0
 70
   160
  3
標準スタイル
100
AcDbAlignedDimension
 13
-1262.160675197518
 23
1779.780136099817
 33
0.0
 14
-1261.410675197518
 24
1783.280136065227
 34
0.0
 50
90.0
100
AcDbRotatedDimension
1001
ACAD
1000
DSTYLE
1002
{
1070
   287
1070
     5
1070
    40
1040
1.0
1070
   279
1070
     2
1070
   340
1005
10
1002
}
  0
DIMENSION
  5
1725A
330
1A
100
AcDbEntity
  8
SUNPOU
100
AcDbDimension
  2
*D2
 10
-1276.071490431499
 20
1834.280136065227
 30
0.0
 11
-1278.8214904315
 21
1808.780136082522
 31
0.0
 70
    32
  3
標準スタイル
100
AcDbAlignedDimension
 13
-1261.410675197518
 23
1783.280136099817
 33
0.0
 14
-1259.660675197518
 24
1834.280136065227
 34
0.0
 50
90.0
100
AcDbRotatedDimension
1001
ACAD
1000
DSTYLE
1002
{
1070
   287
1070
     4
1070
   340
1005
10
1070
    40
1040
1.0
1070
   279
1070
     1
1002
}
  0
DIMENSION
  5
17267
330
1A
100
AcDbEntity
  8
SUNPOU
100
AcDbDimension
  2
*D3
 10
-1276.071490431499
 20
1837.780136065227
 30
0.0
 11
-1278.898684800763
 21
1843.839526168775
 31
0.0
 70
   160
  3
標準スタイル
100
AcDbAlignedDimension
 13
-1259.660675197518
 23
1834.280136065227
 33
0.0
 14
-1262.160675197518
 24
1837.780136065227
 34
0.0
 50
90.0
100
AcDbRotatedDimension
1001
ACAD
1000
DSTYLE
1002
{
1070
   287
1070
     5
1070
    40
1040
1.0
1070
   279
1070
     2
1070
   340
1005
10
1002
}
  0
DIMENSION
  5
1727B
330
1A
100
AcDbEntity
  8
SUNPOU
100
AcDbDimension
  2
*D4
 10
-1259.660675197518
 20
1766.228723961759
 30
0.0
 11
-1269.323748819453
 21
1769.099657437092
 31
0.0
 70
   160
  3
標準スタイル
100
AcDbAlignedDimension
 13
-1263.160659511195
 23
1780.780136099694
 33
0.0
 14
-1259.660675197518
 24
1781.530136099817
 34
0.0
100
AcDbRotatedDimension
1001
ACAD
1000
DSTYLE
1002
{
1070
   287
1070
     5
1070
    40
1040
1.0
1070
   279
1070
     2
1070
   340
1005
10
1002
}
  0
DIMENSION
  5
1728A
330
1A
100
AcDbEntity
  8
SUNPOU
100
AcDbDimension
  2
*D5
 10
-1188.160675197518
 20
1766.228723961759
 30
0.0
 11
-1223.910675197518
 21
1768.978723961759
 31
0.0
 70
    32
  3
標準スタイル
100
AcDbAlignedDimension
 13
-1259.660675197518
 23
1781.530136065227
 33
0.0
 14
-1188.160675197518
 24
1781.280136065227
 34
0.0
100
AcDbRotatedDimension
1001
ACAD
1000
DSTYLE
1002
{
1070
   287
1070
     4
1070
   340
1005
10
1070
    40
1040
1.0
1070
   279
1070
     1
1002
}
  0
DIMENSION
  5
17297
330
1A
100
AcDbEntity
  8
SUNPOU
100
AcDbDimension
  2
*D6
 10
-1184.660675197518
 20
1766.228723961759
 30
0.0
 11
-1174.231603999163
 21
1769.113721627975
 31
0.0
 70
   160
  3
標準スタイル
100
AcDbAlignedDimension
 13
-1188.160675197518
 23
1781.530136065227
 33
0.0
 14
-1184.660675197518
 24
1780.780136065227
 34
0.0
100
AcDbRotatedDimension
1001
ACAD
1000
DSTYLE
1002
{
1070
   287
1070
     5
1070
    40
1040
1.0
1070
   279
1070
     2
1070
   340
1005
10
1002
}
  0
DIMENSION
  5
172A9
330
1A
100
AcDbEntity
  8
SUNPOU
100
AcDbDimension
  2
*D7
 10
-1184.660675197518
 20
1754.780949657875
 30
0.0
 11
-1223.910675197518
 21
1757.530949657875
 31
0.0
 70
    32
  3
標準スタイル
100
AcDbAlignedDimension
 13
-1263.160675197518
 23
1780.780136065227
 33
0.0
 14
-1184.660675197518
 24
1780.780136065227
 34
0.0
100
AcDbRotatedDimension
1001
ACAD
1000
DSTYLE
1002
{
1070
   340
1005
10
1070
    40
1040
1.0
1002
}
  0
DIMENSION
  5
172B6
330
1A
100
AcDbEntity
  8
SUNPOU
100
AcDbDimension
  2
*D8
 10
-1132.058680129367
 20
1847.924038283206
 30
0.0
 11
-1141.108680129367
 21
1850.674038283206
 31
0.0
 70
    32
  3
標準スタイル
100
AcDbAlignedDimension
 13
-1150.158680129367
 23
1834.760136065227
 33
0.0
 14
-1132.058680129367
 24
1837.800136065227
 34
0.0
100
AcDbRotatedDimension
1001
ACAD
1000
DSTYLE
1002
{
1070
   340
1005
10
1070
    40
1040
1.0
1002
}
  0
DIMENSION
  5
172C3
330
1A
100
AcDbEntity
  8
SUNPOU
100
AcDbDimension
  2
*D9
 10
-1130.158680129367
 20
1847.924038283206
 30
0.0
 11
-1122.028440816379
 21
1850.629541330445
 31
0.0
 70
   160
  1
(2.9)
  3
標準スタイル
100
AcDbAlignedDimension
 13
-1132.058680129367
 23
1837.800136065227
 33
0.0
 14
-1130.158680129367
 24
1847.924038283206
 34
0.0
100
AcDbRotatedDimension
1001
ACAD
1000
DSTYLE
1002
{
1070
   287
1070
     5
1070
    40
1040
1.0
1070
   279
1070
     2
1070
   340
1005
10
1002
}
  0
DIMENSION
  5
172D1
330
1A
100
AcDbEntity
  8
SUNPOU
100
AcDbDimension
  2
*D10
 10
-1130.158680129367
 20
1857.393043427783
 30
0.0
 11
-1140.158680129367
 21
1860.143043427783
 31
0.0
 70
    32
  1
(21)
  3
標準スタイル
100
AcDbAlignedDimension
 13
-1150.158680129367
 23
1834.760136065227
 33
0.0
 14
-1130.158680129367
 24
1830.780136065227
 34
0.0
100
AcDbRotatedDimension
1001
ACAD
1000
DSTYLE
1002
{
1070
   340
1005
10
1070
    40
1040
1.0
1002
}
  0
LINE
  5
172E0
330
1A
100
AcDbEntity
  8
CL1
100
AcDbLine
 10
-1259.660675197518
 20
1873.261034642833
 30
0.0
 11
-1259.660675197518
 21
1868.0786819746
 31
0.0
  0
LINE
  5
172E1
330
1A
100
AcDbEntity
  8
CL1
100
AcDbLine
 10
-1188.160675197518
 20
1873.261034642833
 30
0.0
 11
-1188.160675197518
 21
1868.0786819746
 31
0.0
  0
LINE
  5
172E3
330
1A
100
AcDbEntity
  8
CL1
100
AcDbLine
 10
-1135.314994288621
 20
1783.280136081387
 30
0.0
 11
-1130.158680129367
 21
1783.280136065227
 31
0.0
  0
DIMENSION
  5
172E4
330
1A
100
AcDbEntity
  8
CL1
100
AcDbDimension
  2
*D11
 10
-1276.071490431499
 20
1871.461034642833
 30
0.0
 11
-1278.8214904315
 21
1864.911034642833
 31
0.0
 70
    32
  3
標準スタイル
100
AcDbAlignedDimension
 13
-1255.360675197518
 23
1858.361034642833
 33
0.0
 14
-1263.160675197518
 24
1871.461034642833
 34
0.0
 50
90.0
100
AcDbRotatedDimension
1001
ACAD
1000
DSTYLE
1002
{
1070
   340
1005
10
1070
    40
1040
1.0
1002
}
  0
DIMENSION
  5
172FF
330
1A
100
AcDbEntity
  8
CL1
100
AcDbDimension
  2
*D12
 10
-1276.071490431499
 20
1873.261034642833
 30
0.0
 11
-1278.870665461137
 21
1881.732261542991
 31
0.0
 70
   160
  1
(2.9)
  3
標準スタイル
100
AcDbAlignedDimension
 13
-1263.160675197518
 23
1871.461034642833
 33
0.0
 14
-1253.060675197518
 24
1873.261034642833
 34
0.0
 50
90.0
100
AcDbRotatedDimension
1001
ACAD
1000
DSTYLE
1002
{
1070
   287
1070
     5
1070
    40
1040
1.0
1070
   279
1070
     2
1070
   340
1005
10
1002
}
  0
DIMENSION
  5
17310
330
1A
100
AcDbEntity
  8
CL1
100
AcDbDimension
  2
*D13
 10
-1286.176863784039
 20
1873.261034642833
 30
0.0
 11
-1288.926863784039
 21
1865.811034642833
 31
0.0
 70
    32
  1
(16)
  3
標準スタイル
100
AcDbAlignedDimension
 13
-1255.860675197518
 23
1858.361034642833
 33
0.0
 14
-1253.060675197518
 24
1873.261034642833
 34
0.0
 50
90.0
100
AcDbRotatedDimension
1001
ACAD
1000
DSTYLE
1002
{
1070
   340
1005
10
1070
    40
1040
1.0
1002
}
  0
CIRCLE
  5
1A5A4
330
1A
100
AcDbEntity
  8
_2-4_PARTS
  6
CONTINUOUS
 62
     7
100
AcDbCircle
 10
-1225.410675197518
 20
1831.480136065227
 30
0.0
 40
0.25
  0
LINE
  5
1A5A5
330
1A
100
AcDbEntity
  8
_2-4_PARTS
  6
CONTINUOUS
 62
     7
100
AcDbLine
 10
-1224.810675197518
 20
1829.580136065227
 30
0.0
 11
-1253.510675197518
 21
1829.580136065227
 31
0.0
  0
LINE
  5
1A5A6
330
1A
100
AcDbEntity
  8
_2-4_PARTS
  6
CONTINUOUS
 62
     7
100
AcDbLine
 10
-1225.310675197518
 20
1829.080136065227
 30
0.0
 11
-1253.010675197518
 21
1829.080136065227
 31
0.0
  0
LINE
  5
1A5A7
330
1A
100
AcDbEntity
  8
_2-4_PARTS
  6
CONTINUOUS
 62
     7
100
AcDbLine
 10
-1222.960675197518
 20
1828.180136065227
 30
0.0
 11
-1234.710675197518
 21
1828.180136065227
 31
0.0
  0
LINE
  5
1A5A8
330
1A
100
AcDbEntity
  8
_2-4_PARTS
  6
CONTINUOUS
 62
     7
100
AcDbLine
 10
-1222.960675197518
 20
1834.880136065227
 30
0.0
 11
-1255.360675197518
 21
1834.880136065227
 31
0.0
  0
LINE
  5
1A5A9
330
1A
100
AcDbEntity
  8
_2-4_PARTS
  6
CONTINUOUS
 62
     7
100
AcDbLine
 10
-1254.510675197518
 20
1834.180136065228
 30
0.0
 11
-1223.810675197518
 21
1834.180136065228
 31
0.0
  0
LINE
  5
1A5AA
330
1A
100
AcDbEntity
  8
ZISSEN1
100
AcDbLine
 10
-1185.660675197518
 20
1837.780136065227
 30
0.0
 11
-1262.160675197518
 21
1837.780136065227
 31
0.0
  0
LINE
  5
1A5AB
330
1A
100
AcDbEntity
  8
ZISSEN1
100
AcDbLine
 10
-1185.660675197518
 20
1779.780136065227
 30
0.0
 11
-1262.160675197518
 21
1779.780136065227
 31
0.0
  0
LINE
  5
1A5AC
330
1A
100
AcDbEntity
  8
_2-4_PARTS
  6
CONTINUOUS
 62
     7
100
AcDbLine
 10
-1260.520675197518
 20
1796.875136065227
 30
0.0
 11
-1260.520675197518
 21
1803.485136065227
 31
0.0
  0
LINE
  5
1A5AD
330
1A
100
AcDbEntity
  8
_2-4_PARTS
  6
CONTINUOUS
 62
     7
100
AcDbLine
 10
-1255.120675197518
 20
1796.875136065227
 30
0.0
 11
-1255.120675197518
 21
1803.485136065227
 31
0.0
  0
LINE
  5
1A5AE
330
1A
100
AcDbEntity
  8
ZISSEN1
100
AcDbLine
 10
-1263.160675197518
 20
1836.780136065227
 30
0.0
 11
-1263.160675197518
 21
1780.780136065227
 31
0.0
  0
LINE
  5
1A5AF
330
1A
100
AcDbEntity
  8
_2-4_PARTS
  6
CONTINUOUS
 62
     7
100
AcDbLine
 10
-1260.520675197518
 20
1796.875136065227
 30
0.0
 11
-1255.120675197518
 21
1796.875136065227
 31
0.0
  0
LINE
  5
1A5B0
330
1A
100
AcDbEntity
  8
_2-4_PARTS
  6
CONTINUOUS
 62
     7
100
AcDbLine
 10
-1259.610675197518
 20
1788.580136065227
 30
0.0
 11
-1256.010675197518
 21
1788.580136065227
 31
0.0
  0
LINE
  5
1A5B1
330
1A
100
AcDbEntity
  8
_2-4_PARTS
  6
CONTINUOUS
 62
     7
100
AcDbLine
 10
-1259.610675197518
 20
1795.980136065227
 30
0.0
 11
-1256.010675197518
 21
1795.980136065227
 31
0.0
  0
CIRCLE
  5
1A5B3
330
1A
100
AcDbEntity
  8
ZISSEN1
100
AcDbCircle
 10
-1259.660675197518
 20
1783.280136065227
 30
0.0
 40
1.75
  0
LINE
  5
1A5B4
330
1A
100
AcDbEntity
  8
_2-4_PARTS
  6
CONTINUOUS
 62
     7
100
AcDbLine
 10
-1259.610675197518
 20
1793.980136065227
 30
0.0
 11
-1260.710675197518
 21
1793.980136065227
 31
0.0
  0
LINE
  5
1A5B5
330
1A
100
AcDbEntity
  8
_2-4_PARTS
  6
CONTINUOUS
 62
     7
100
AcDbLine
 10
-1260.710675197518
 20
1793.980136065227
 30
0.0
 11
-1260.710675197518
 21
1794.980136065227
 31
0.0
  0
LINE
  5
1A5B6
330
1A
100
AcDbEntity
  8
_2-4_PARTS
  6
CONTINUOUS
 62
     7
100
AcDbLine
 10
-1260.710675197518
 20
1794.980136065227
 30
0.0
 11
-1259.610675197518
 21
1794.980136065227
 31
0.0
  0
LINE
  5
1A5B7
330
1A
100
AcDbEntity
  8
_2-4_PARTS
  6
CONTINUOUS
 62
     7
100
AcDbLine
 10
-1259.610675197518
 20
1789.580136065227
 30
0.0
 11
-1260.710675197518
 21
1789.580136065227
 31
0.0
  0
LINE
  5
1A5B8
330
1A
100
AcDbEntity
  8
_2-4_PARTS
  6
CONTINUOUS
 62
     7
100
AcDbLine
 10
-1260.710675197518
 20
1789.580136065227
 30
0.0
 11
-1260.710675197518
 21
1790.580136065227
 31
0.0
  0
LINE
  5
1A5B9
330
1A
100
AcDbEntity
  8
_2-4_PARTS
  6
CONTINUOUS
 62
     7
100
AcDbLine
 10
-1260.710675197518
 20
1790.580136065227
 30
0.0
 11
-1259.610675197518
 21
1790.580136065227
 31
0.0
  0
LINE
  5
1A5BA
330
1A
100
AcDbEntity
  8
_2-4_PARTS
  6
CONTINUOUS
 62
     7
100
AcDbLine
 10
-1259.610675197518
 20
1788.580136065227
 30
0.0
 11
-1259.610675197518
 21
1795.980136065227
 31
0.0
  0
LINE
  5
1A5BB
330
1A
100
AcDbEntity
  8
CL1
100
AcDbLine
 10
-1259.660675197518
 20
1781.280136065227
 30
0.0
 11
-1259.660675197518
 21
1785.280136065227
 31
0.0
  0
LINE
  5
1A5BC
330
1A
100
AcDbEntity
  8
CL1
100
AcDbLine
 10
-1257.660675197518
 20
1783.280136065227
 30
0.0
 11
-1261.660675197518
 21
1783.280136065227
 31
0.0
  0
ARC
  5
1A5BD
330
1A
100
AcDbEntity
  8
ZISSEN1
100
AcDbCircle
 10
-1263.160675197518
 20
1779.780136065227
 30
0.0
 40
1.0
100
AcDbArc
 50
0.0
 51
90.0
  0
LINE
  5
1A5BF
330
1A
100
AcDbEntity
  8
_2-4_PARTS
  6
CONTINUOUS
 62
     7
100
AcDbLine
 10
-1256.010675197518
 20
1793.300136065227
 30
0.0
 11
-1255.010675197517
 21
1793.300136065227
 31
0.0
  0
LINE
  5
1A5C0
330
1A
100
AcDbEntity
  8
_2-4_PARTS
  6
CONTINUOUS
 62
     7
100
AcDbLine
 10
-1255.010675197517
 20
1793.300136065227
 30
0.0
 11
-1255.010675197517
 21
1793.800136065227
 31
0.0
  0
LINE
  5
1A5C1
330
1A
100
AcDbEntity
  8
_2-4_PARTS
  6
CONTINUOUS
 62
     7
100
AcDbLine
 10
-1255.010675197517
 20
1793.800136065227
 30
0.0
 11
-1256.010675197518
 21
1793.800136065227
 31
0.0
  0
LINE
  5
1A5C2
330
1A
100
AcDbEntity
  8
_2-4_PARTS
  6
CONTINUOUS
 62
     7
100
AcDbLine
 10
-1256.010675197518
 20
1794.570136065227
 30
0.0
 11
-1255.010675197517
 21
1794.570136065227
 31
0.0
  0
LINE
  5
1A5C3
330
1A
100
AcDbEntity
  8
_2-4_PARTS
  6
CONTINUOUS
 62
     7
100
AcDbLine
 10
-1255.010675197517
 20
1794.570136065227
 30
0.0
 11
-1255.010675197517
 21
1795.070136065227
 31
0.0
  0
LINE
  5
1A5C4
330
1A
100
AcDbEntity
  8
_2-4_PARTS
  6
CONTINUOUS
 62
     7
100
AcDbLine
 10
-1255.010675197517
 20
1795.070136065227
 30
0.0
 11
-1256.010675197518
 21
1795.070136065227
 31
0.0
  0
LINE
  5
1A5C5
330
1A
100
AcDbEntity
  8
_2-4_PARTS
  6
CONTINUOUS
 62
     7
100
AcDbLine
 10
-1256.010675197518
 20
1789.490136065227
 30
0.0
 11
-1255.010675197517
 21
1789.490136065227
 31
0.0
  0
LINE
  5
1A5C6
330
1A
100
AcDbEntity
  8
_2-4_PARTS
  6
CONTINUOUS
 62
     7
100
AcDbLine
 10
-1255.010675197517
 20
1789.490136065227
 30
0.0
 11
-1255.010675197517
 21
1789.990136065227
 31
0.0
  0
LINE
  5
1A5C7
330
1A
100
AcDbEntity
  8
_2-4_PARTS
  6
CONTINUOUS
 62
     7
100
AcDbLine
 10
-1255.010675197517
 20
1789.990136065227
 30
0.0
 11
-1256.010675197518
 21
1789.990136065227
 31
0.0
  0
LINE
  5
1A5C8
330
1A
100
AcDbEntity
  8
_2-4_PARTS
  6
CONTINUOUS
 62
     7
100
AcDbLine
 10
-1256.010675197518
 20
1790.760136065227
 30
0.0
 11
-1255.010675197517
 21
1790.760136065227
 31
0.0
  0
LINE
  5
1A5C9
330
1A
100
AcDbEntity
  8
_2-4_PARTS
  6
CONTINUOUS
 62
     7
100
AcDbLine
 10
-1255.010675197517
 20
1790.760136065227
 30
0.0
 11
-1255.010675197517
 21
1791.260136065227
 31
0.0
  0
LINE
  5
1A5CA
330
1A
100
AcDbEntity
  8
_2-4_PARTS
  6
CONTINUOUS
 62
     7
100
AcDbLine
 10
-1255.010675197517
 20
1791.260136065227
 30
0.0
 11
-1256.010675197518
 21
1791.260136065227
 31
0.0
  0
LINE
  5
1A5CB
330
1A
100
AcDbEntity
  8
_2-4_PARTS
  6
CONTINUOUS
 62
     7
100
AcDbLine
 10
-1256.010675197518
 20
1792.030136065227
 30
0.0
 11
-1255.010675197517
 21
1792.030136065227
 31
0.0
  0
LINE
  5
1A5CC
330
1A
100
AcDbEntity
  8
_2-4_PARTS
  6
CONTINUOUS
 62
     7
100
AcDbLine
 10
-1255.010675197517
 20
1792.030136065227
 30
0.0
 11
-1255.010675197517
 21
1792.530136065227
 31
0.0
  0
LINE
  5
1A5CD
330
1A
100
AcDbEntity
  8
_2-4_PARTS
  6
CONTINUOUS
 62
     7
100
AcDbLine
 10
-1255.010675197517
 20
1792.530136065227
 30
0.0
 11
-1256.010675197518
 21
1792.530136065227
 31
0.0
  0
LINE
  5
1A5CE
330
1A
100
AcDbEntity
  8
_2-4_PARTS
  6
CONTINUOUS
 62
     7
100
AcDbLine
 10
-1256.010675197518
 20
1788.580136065227
 30
0.0
 11
-1256.010675197518
 21
1795.980136065227
 31
0.0
  0
LINE
  5
1A5CF
330
1A
100
AcDbEntity
  8
_2-4_PARTS
  6
CONTINUOUS
 62
     7
100
AcDbLine
 10
-1259.860675197518
 20
1825.205136065227
 30
0.0
 11
-1257.860675197518
 21
1825.205136065227
 31
0.0
  0
LINE
  5
1A5D0
330
1A
100
AcDbEntity
  8
_2-4_PARTS
  6
CONTINUOUS
 62
     7
100
AcDbLine
 10
-1259.860675197518
 20
1823.955136065228
 30
0.0
 11
-1257.860675197518
 21
1823.955136065228
 31
0.0
  0
LINE
  5
1A5D1
330
1A
100
AcDbEntity
  8
_2-4_PARTS
  6
CONTINUOUS
 62
     7
100
AcDbLine
 10
-1259.860675197518
 20
1822.205136065227
 30
0.0
 11
-1257.860675197518
 21
1822.205136065227
 31
0.0
  0
LINE
  5
1A5D2
330
1A
100
AcDbEntity
  8
_2-4_PARTS
  6
CONTINUOUS
 62
     7
100
AcDbLine
 10
-1259.860675197518
 20
1820.955136065227
 30
0.0
 11
-1257.860675197518
 21
1820.955136065227
 31
0.0
  0
LINE
  5
1A5D3
330
1A
100
AcDbEntity
  8
_2-4_PARTS
  6
CONTINUOUS
 62
     7
100
AcDbLine
 10
-1260.520675197518
 20
1818.485136065227
 30
0.0
 11
-1255.120675197518
 21
1818.485136065227
 31
0.0
  0
LINE
  5
1A5D4
330
1A
100
AcDbEntity
  8
_2-4_PARTS
  6
CONTINUOUS
 62
     7
100
AcDbLine
 10
-1260.520675197518
 20
1811.875136065228
 30
0.0
 11
-1255.120675197518
 21
1811.875136065228
 31
0.0
  0
LINE
  5
1A5D5
330
1A
100
AcDbEntity
  8
_2-4_PARTS
  6
CONTINUOUS
 62
     7
100
AcDbLine
 10
-1256.320675197518
 20
1812.975136065227
 30
0.0
 11
-1259.320675197518
 21
1812.975136065227
 31
0.0
  0
LINE
  5
1A5D6
330
1A
100
AcDbEntity
  8
_2-4_PARTS
  6
CONTINUOUS
 62
     7
100
AcDbLine
 10
-1256.320675197518
 20
1813.575136065227
 30
0.0
 11
-1259.320675197518
 21
1813.575136065227
 31
0.0
  0
LINE
  5
1A5D7
330
1A
100
AcDbEntity
  8
_2-4_PARTS
  6
CONTINUOUS
 62
     7
100
AcDbLine
 10
-1256.320675197518
 20
1814.245136065227
 30
0.0
 11
-1259.320675197518
 21
1814.245136065227
 31
0.0
  0
LINE
  5
1A5D8
330
1A
100
AcDbEntity
  8
_2-4_PARTS
  6
CONTINUOUS
 62
     7
100
AcDbLine
 10
-1256.320675197518
 20
1814.845136065227
 30
0.0
 11
-1259.320675197518
 21
1814.845136065227
 31
0.0
  0
LINE
  5
1A5D9
330
1A
100
AcDbEntity
  8
_2-4_PARTS
  6
CONTINUOUS
 62
     7
100
AcDbLine
 10
-1256.320675197518
 20
1815.515136065227
 30
0.0
 11
-1259.320675197518
 21
1815.515136065227
 31
0.0
  0
LINE
  5
1A5DA
330
1A
100
AcDbEntity
  8
_2-4_PARTS
  6
CONTINUOUS
 62
     7
100
AcDbLine
 10
-1256.320675197518
 20
1816.115136065227
 30
0.0
 11
-1259.320675197518
 21
1816.115136065227
 31
0.0
  0
LINE
  5
1A5DB
330
1A
100
AcDbEntity
  8
_2-4_PARTS
  6
CONTINUOUS
 62
     7
100
AcDbLine
 10
-1256.320675197518
 20
1816.785136065227
 30
0.0
 11
-1259.320675197518
 21
1816.785136065227
 31
0.0
  0
LINE
  5
1A5DC
330
1A
100
AcDbEntity
  8
_2-4_PARTS
  6
CONTINUOUS
 62
     7
100
AcDbLine
 10
-1256.320675197518
 20
1817.385136065228
 30
0.0
 11
-1259.320675197518
 21
1817.385136065228
 31
0.0
  0
LINE
  5
1A5DD
330
1A
100
AcDbEntity
  8
_2-4_PARTS
  6
CONTINUOUS
 62
     7
100
AcDbLine
 10
-1260.520675197518
 20
1810.985136065227
 30
0.0
 11
-1255.120675197518
 21
1810.985136065227
 31
0.0
  0
LINE
  5
1A5DE
330
1A
100
AcDbEntity
  8
_2-4_PARTS
  6
CONTINUOUS
 62
     7
100
AcDbLine
 10
-1260.520675197518
 20
1804.375136065227
 30
0.0
 11
-1255.120675197518
 21
1804.375136065227
 31
0.0
  0
LINE
  5
1A5DF
330
1A
100
AcDbEntity
  8
_2-4_PARTS
  6
CONTINUOUS
 62
     7
100
AcDbLine
 10
-1256.320675197518
 20
1805.475136065227
 30
0.0
 11
-1259.320675197518
 21
1805.475136065227
 31
0.0
  0
LINE
  5
1A5E0
330
1A
100
AcDbEntity
  8
_2-4_PARTS
  6
CONTINUOUS
 62
     7
100
AcDbLine
 10
-1256.320675197518
 20
1806.075136065227
 30
0.0
 11
-1259.320675197518
 21
1806.075136065227
 31
0.0
  0
LINE
  5
1A5E1
330
1A
100
AcDbEntity
  8
_2-4_PARTS
  6
CONTINUOUS
 62
     7
100
AcDbLine
 10
-1256.320675197518
 20
1806.745136065227
 30
0.0
 11
-1259.320675197518
 21
1806.745136065227
 31
0.0
  0
LINE
  5
1A5E2
330
1A
100
AcDbEntity
  8
_2-4_PARTS
  6
CONTINUOUS
 62
     7
100
AcDbLine
 10
-1256.320675197518
 20
1807.345136065227
 30
0.0
 11
-1259.320675197518
 21
1807.345136065227
 31
0.0
  0
LINE
  5
1A5E3
330
1A
100
AcDbEntity
  8
_2-4_PARTS
  6
CONTINUOUS
 62
     7
100
AcDbLine
 10
-1256.320675197518
 20
1808.015136065227
 30
0.0
 11
-1259.320675197518
 21
1808.015136065227
 31
0.0
  0
LINE
  5
1A5E4
330
1A
100
AcDbEntity
  8
_2-4_PARTS
  6
CONTINUOUS
 62
     7
100
AcDbLine
 10
-1256.320675197518
 20
1808.615136065227
 30
0.0
 11
-1259.320675197518
 21
1808.615136065227
 31
0.0
  0
LINE
  5
1A5E5
330
1A
100
AcDbEntity
  8
_2-4_PARTS
  6
CONTINUOUS
 62
     7
100
AcDbLine
 10
-1256.320675197518
 20
1809.285136065227
 30
0.0
 11
-1259.320675197518
 21
1809.285136065227
 31
0.0
  0
LINE
  5
1A5E6
330
1A
100
AcDbEntity
  8
_2-4_PARTS
  6
CONTINUOUS
 62
     7
100
AcDbLine
 10
-1256.320675197518
 20
1809.885136065227
 30
0.0
 11
-1259.320675197518
 21
1809.885136065227
 31
0.0
  0
LINE
  5
1A5E7
330
1A
100
AcDbEntity
  8
_2-4_PARTS
  6
CONTINUOUS
 62
     7
100
AcDbLine
 10
-1260.520675197518
 20
1803.485136065227
 30
0.0
 11
-1255.120675197518
 21
1803.485136065227
 31
0.0
  0
LINE
  5
1A5E8
330
1A
100
AcDbEntity
  8
_2-4_PARTS
  6
CONTINUOUS
 62
     7
100
AcDbLine
 10
-1256.320675197518
 20
1799.245136065227
 30
0.0
 11
-1259.320675197518
 21
1799.245136065227
 31
0.0
  0
LINE
  5
1A5E9
330
1A
100
AcDbEntity
  8
_2-4_PARTS
  6
CONTINUOUS
 62
     7
100
AcDbLine
 10
-1256.320675197518
 20
1799.845136065227
 30
0.0
 11
-1259.320675197518
 21
1799.845136065227
 31
0.0
  0
LINE
  5
1A5EA
330
1A
100
AcDbEntity
  8
_2-4_PARTS
  6
CONTINUOUS
 62
     7
100
AcDbLine
 10
-1256.320675197518
 20
1800.515136065227
 30
0.0
 11
-1259.320675197518
 21
1800.515136065227
 31
0.0
  0
LINE
  5
1A5EB
330
1A
100
AcDbEntity
  8
_2-4_PARTS
  6
CONTINUOUS
 62
     7
100
AcDbLine
 10
-1256.320675197518
 20
1801.115136065227
 30
0.0
 11
-1259.320675197518
 21
1801.115136065227
 31
0.0
  0
LINE
  5
1A5EC
330
1A
100
AcDbEntity
  8
_2-4_PARTS
  6
CONTINUOUS
 62
     7
100
AcDbLine
 10
-1256.320675197518
 20
1801.785136065227
 30
0.0
 11
-1259.320675197518
 21
1801.785136065227
 31
0.0
  0
LINE
  5
1A5ED
330
1A
100
AcDbEntity
  8
_2-4_PARTS
  6
CONTINUOUS
 62
     7
100
AcDbLine
 10
-1256.320675197518
 20
1802.385136065227
 30
0.0
 11
-1259.320675197518
 21
1802.385136065227
 31
0.0
  0
LINE
  5
1A5EE
330
1A
100
AcDbEntity
  8
_2-4_PARTS
  6
CONTINUOUS
 62
     7
100
AcDbLine
 10
-1256.320675197518
 20
1797.975136065227
 30
0.0
 11
-1259.320675197518
 21
1797.975136065227
 31
0.0
  0
LINE
  5
1A5EF
330
1A
100
AcDbEntity
  8
_2-4_PARTS
  6
CONTINUOUS
 62
     7
100
AcDbLine
 10
-1256.320675197518
 20
1798.575136065227
 30
0.0
 11
-1259.320675197518
 21
1798.575136065227
 31
0.0
  0
CIRCLE
  5
1A5F1
330
1A
100
AcDbEntity
  8
ZISSEN1
100
AcDbCircle
 10
-1259.660675197518
 20
1834.280136065227
 30
0.0
 40
1.75
  0
LINE
  5
1A5F2
330
1A
100
AcDbEntity
  8
CL1
100
AcDbLine
 10
-1259.660675197518
 20
1832.280136065227
 30
0.0
 11
-1259.660675197518
 21
1836.280136065227
 31
0.0
  0
LINE
  5
1A5F3
330
1A
100
AcDbEntity
  8
_2-4_PARTS
  6
CONTINUOUS
 62
     7
100
AcDbLine
 10
-1259.860675197518
 20
1825.205136065227
 30
0.0
 11
-1259.860675197518
 21
1823.955136065228
 31
0.0
  0
LINE
  5
1A5F4
330
1A
100
AcDbEntity
  8
_2-4_PARTS
  6
CONTINUOUS
 62
     7
100
AcDbLine
 10
-1259.460675197518
 20
1825.205136065227
 30
0.0
 11
-1259.460675197518
 21
1823.955136065228
 31
0.0
  0
LINE
  5
1A5F5
330
1A
100
AcDbEntity
  8
_2-4_PARTS
  6
CONTINUOUS
 62
     7
100
AcDbLine
 10
-1260.620675197518
 20
1816.885136065227
 30
0.0
 11
-1260.520675197518
 21
1816.885136065227
 31
0.0
  0
LINE
  5
1A5F6
330
1A
100
AcDbEntity
  8
_2-4_PARTS
  6
CONTINUOUS
 62
     7
100
AcDbLine
 10
-1260.520675197518
 20
1817.285136065227
 30
0.0
 11
-1260.620675197518
 21
1817.285136065227
 31
0.0
  0
LINE
  5
1A5F7
330
1A
100
AcDbEntity
  8
_2-4_PARTS
  6
CONTINUOUS
 62
     7
100
AcDbLine
 10
-1260.620675197518
 20
1816.885136065227
 30
0.0
 11
-1260.620675197518
 21
1817.285136065227
 31
0.0
  0
LINE
  5
1A5F8
330
1A
100
AcDbEntity
  8
_2-4_PARTS
  6
CONTINUOUS
 62
     7
100
AcDbLine
 10
-1259.320675197518
 20
1816.785136065227
 30
0.0
 11
-1259.320675197518
 21
1817.385136065228
 31
0.0
  0
LINE
  5
1A5F9
330
1A
100
AcDbEntity
  8
_2-4_PARTS
  6
CONTINUOUS
 62
     7
100
AcDbLine
 10
-1260.620675197518
 20
1813.075136065227
 30
0.0
 11
-1260.520675197518
 21
1813.075136065227
 31
0.0
  0
LINE
  5
1A5FA
330
1A
100
AcDbEntity
  8
_2-4_PARTS
  6
CONTINUOUS
 62
     7
100
AcDbLine
 10
-1260.520675197518
 20
1813.475136065227
 30
0.0
 11
-1260.620675197518
 21
1813.475136065227
 31
0.0
  0
LINE
  5
1A5FB
330
1A
100
AcDbEntity
  8
_2-4_PARTS
  6
CONTINUOUS
 62
     7
100
AcDbLine
 10
-1260.620675197518
 20
1813.075136065227
 30
0.0
 11
-1260.620675197518
 21
1813.475136065227
 31
0.0
  0
LINE
  5
1A5FC
330
1A
100
AcDbEntity
  8
_2-4_PARTS
  6
CONTINUOUS
 62
     7
100
AcDbLine
 10
-1260.620675197518
 20
1814.345136065227
 30
0.0
 11
-1260.520675197518
 21
1814.345136065227
 31
0.0
  0
LINE
  5
1A5FD
330
1A
100
AcDbEntity
  8
_2-4_PARTS
  6
CONTINUOUS
 62
     7
100
AcDbLine
 10
-1260.520675197518
 20
1814.745136065227
 30
0.0
 11
-1260.620675197518
 21
1814.745136065227
 31
0.0
  0
LINE
  5
1A5FE
330
1A
100
AcDbEntity
  8
_2-4_PARTS
  6
CONTINUOUS
 62
     7
100
AcDbLine
 10
-1260.620675197518
 20
1814.345136065227
 30
0.0
 11
-1260.620675197518
 21
1814.745136065227
 31
0.0
  0
LINE
  5
1A5FF
330
1A
100
AcDbEntity
  8
_2-4_PARTS
  6
CONTINUOUS
 62
     7
100
AcDbLine
 10
-1260.620675197518
 20
1815.615136065227
 30
0.0
 11
-1260.520675197518
 21
1815.615136065227
 31
0.0
  0
LINE
  5
1A600
330
1A
100
AcDbEntity
  8
_2-4_PARTS
  6
CONTINUOUS
 62
     7
100
AcDbLine
 10
-1260.520675197518
 20
1816.015136065227
 30
0.0
 11
-1260.620675197518
 21
1816.015136065227
 31
0.0
  0
LINE
  5
1A601
330
1A
100
AcDbEntity
  8
_2-4_PARTS
  6
CONTINUOUS
 62
     7
100
AcDbLine
 10
-1260.620675197518
 20
1815.615136065227
 30
0.0
 11
-1260.620675197518
 21
1816.015136065227
 31
0.0
  0
LINE
  5
1A602
330
1A
100
AcDbEntity
  8
_2-4_PARTS
  6
CONTINUOUS
 62
     7
100
AcDbLine
 10
-1259.320675197518
 20
1812.975136065227
 30
0.0
 11
-1259.320675197518
 21
1813.575136065227
 31
0.0
  0
LINE
  5
1A603
330
1A
100
AcDbEntity
  8
_2-4_PARTS
  6
CONTINUOUS
 62
     7
100
AcDbLine
 10
-1259.320675197518
 20
1814.245136065227
 30
0.0
 11
-1259.320675197518
 21
1814.845136065227
 31
0.0
  0
LINE
  5
1A604
330
1A
100
AcDbEntity
  8
_2-4_PARTS
  6
CONTINUOUS
 62
     7
100
AcDbLine
 10
-1259.320675197518
 20
1815.515136065227
 30
0.0
 11
-1259.320675197518
 21
1816.115136065227
 31
0.0
  0
LINE
  5
1A605
330
1A
100
AcDbEntity
  8
_2-4_PARTS
  6
CONTINUOUS
 62
     7
100
AcDbLine
 10
-1260.520675197518
 20
1811.875136065228
 30
0.0
 11
-1260.520675197518
 21
1818.485136065227
 31
0.0
  0
LINE
  5
1A606
330
1A
100
AcDbEntity
  8
_2-4_PARTS
  6
CONTINUOUS
 62
     7
100
AcDbLine
 10
-1260.620675197518
 20
1805.575136065227
 30
0.0
 11
-1260.520675197518
 21
1805.575136065227
 31
0.0
  0
LINE
  5
1A607
330
1A
100
AcDbEntity
  8
_2-4_PARTS
  6
CONTINUOUS
 62
     7
100
AcDbLine
 10
-1260.520675197518
 20
1805.975136065227
 30
0.0
 11
-1260.620675197518
 21
1805.975136065227
 31
0.0
  0
LINE
  5
1A608
330
1A
100
AcDbEntity
  8
_2-4_PARTS
  6
CONTINUOUS
 62
     7
100
AcDbLine
 10
-1260.620675197518
 20
1805.575136065227
 30
0.0
 11
-1260.620675197518
 21
1805.975136065227
 31
0.0
  0
LINE
  5
1A609
330
1A
100
AcDbEntity
  8
_2-4_PARTS
  6
CONTINUOUS
 62
     7
100
AcDbLine
 10
-1260.620675197518
 20
1806.845136065227
 30
0.0
 11
-1260.520675197518
 21
1806.845136065227
 31
0.0
  0
LINE
  5
1A60A
330
1A
100
AcDbEntity
  8
_2-4_PARTS
  6
CONTINUOUS
 62
     7
100
AcDbLine
 10
-1260.520675197518
 20
1807.245136065227
 30
0.0
 11
-1260.620675197518
 21
1807.245136065227
 31
0.0
  0
LINE
  5
1A60B
330
1A
100
AcDbEntity
  8
_2-4_PARTS
  6
CONTINUOUS
 62
     7
100
AcDbLine
 10
-1260.620675197518
 20
1806.845136065227
 30
0.0
 11
-1260.620675197518
 21
1807.245136065227
 31
0.0
  0
LINE
  5
1A60C
330
1A
100
AcDbEntity
  8
_2-4_PARTS
  6
CONTINUOUS
 62
     7
100
AcDbLine
 10
-1260.620675197518
 20
1808.115136065227
 30
0.0
 11
-1260.520675197518
 21
1808.115136065227
 31
0.0
  0
LINE
  5
1A60D
330
1A
100
AcDbEntity
  8
_2-4_PARTS
  6
CONTINUOUS
 62
     7
100
AcDbLine
 10
-1260.520675197518
 20
1808.515136065227
 30
0.0
 11
-1260.620675197518
 21
1808.515136065227
 31
0.0
  0
LINE
  5
1A60E
330
1A
100
AcDbEntity
  8
_2-4_PARTS
  6
CONTINUOUS
 62
     7
100
AcDbLine
 10
-1260.620675197518
 20
1808.115136065227
 30
0.0
 11
-1260.620675197518
 21
1808.515136065227
 31
0.0
  0
LINE
  5
1A60F
330
1A
100
AcDbEntity
  8
_2-4_PARTS
  6
CONTINUOUS
 62
     7
100
AcDbLine
 10
-1260.620675197518
 20
1809.385136065227
 30
0.0
 11
-1260.520675197518
 21
1809.385136065227
 31
0.0
  0
LINE
  5
1A610
330
1A
100
AcDbEntity
  8
_2-4_PARTS
  6
CONTINUOUS
 62
     7
100
AcDbLine
 10
-1260.520675197518
 20
1809.785136065227
 30
0.0
 11
-1260.620675197518
 21
1809.785136065227
 31
0.0
  0
LINE
  5
1A611
330
1A
100
AcDbEntity
  8
_2-4_PARTS
  6
CONTINUOUS
 62
     7
100
AcDbLine
 10
-1260.620675197518
 20
1809.385136065227
 30
0.0
 11
-1260.620675197518
 21
1809.785136065227
 31
0.0
  0
LINE
  5
1A612
330
1A
100
AcDbEntity
  8
_2-4_PARTS
  6
CONTINUOUS
 62
     7
100
AcDbLine
 10
-1259.320675197518
 20
1805.475136065227
 30
0.0
 11
-1259.320675197518
 21
1806.075136065227
 31
0.0
  0
LINE
  5
1A613
330
1A
100
AcDbEntity
  8
_2-4_PARTS
  6
CONTINUOUS
 62
     7
100
AcDbLine
 10
-1259.320675197518
 20
1806.745136065227
 30
0.0
 11
-1259.320675197518
 21
1807.345136065227
 31
0.0
  0
LINE
  5
1A614
330
1A
100
AcDbEntity
  8
_2-4_PARTS
  6
CONTINUOUS
 62
     7
100
AcDbLine
 10
-1259.320675197518
 20
1808.015136065227
 30
0.0
 11
-1259.320675197518
 21
1808.615136065227
 31
0.0
  0
LINE
  5
1A615
330
1A
100
AcDbEntity
  8
_2-4_PARTS
  6
CONTINUOUS
 62
     7
100
AcDbLine
 10
-1259.320675197518
 20
1809.285136065227
 30
0.0
 11
-1259.320675197518
 21
1809.885136065227
 31
0.0
  0
LINE
  5
1A616
330
1A
100
AcDbEntity
  8
_2-4_PARTS
  6
CONTINUOUS
 62
     7
100
AcDbLine
 10
-1260.620675197518
 20
1799.345136065227
 30
0.0
 11
-1260.520675197518
 21
1799.345136065227
 31
0.0
  0
LINE
  5
1A617
330
1A
100
AcDbEntity
  8
_2-4_PARTS
  6
CONTINUOUS
 62
     7
100
AcDbLine
 10
-1260.520675197518
 20
1799.745136065227
 30
0.0
 11
-1260.620675197518
 21
1799.745136065227
 31
0.0
  0
LINE
  5
1A618
330
1A
100
AcDbEntity
  8
_2-4_PARTS
  6
CONTINUOUS
 62
     7
100
AcDbLine
 10
-1260.620675197518
 20
1799.345136065227
 30
0.0
 11
-1260.620675197518
 21
1799.745136065227
 31
0.0
  0
LINE
  5
1A619
330
1A
100
AcDbEntity
  8
_2-4_PARTS
  6
CONTINUOUS
 62
     7
100
AcDbLine
 10
-1260.620675197518
 20
1800.615136065228
 30
0.0
 11
-1260.520675197518
 21
1800.615136065228
 31
0.0
  0
LINE
  5
1A61A
330
1A
100
AcDbEntity
  8
_2-4_PARTS
  6
CONTINUOUS
 62
     7
100
AcDbLine
 10
-1260.520675197518
 20
1801.015136065227
 30
0.0
 11
-1260.620675197518
 21
1801.015136065227
 31
0.0
  0
LINE
  5
1A61B
330
1A
100
AcDbEntity
  8
_2-4_PARTS
  6
CONTINUOUS
 62
     7
100
AcDbLine
 10
-1260.620675197518
 20
1800.615136065228
 30
0.0
 11
-1260.620675197518
 21
1801.015136065227
 31
0.0
  0
LINE
  5
1A61C
330
1A
100
AcDbEntity
  8
_2-4_PARTS
  6
CONTINUOUS
 62
     7
100
AcDbLine
 10
-1260.620675197518
 20
1801.885136065227
 30
0.0
 11
-1260.520675197518
 21
1801.885136065227
 31
0.0
  0
LINE
  5
1A61D
330
1A
100
AcDbEntity
  8
_2-4_PARTS
  6
CONTINUOUS
 62
     7
100
AcDbLine
 10
-1260.520675197518
 20
1802.285136065227
 30
0.0
 11
-1260.620675197518
 21
1802.285136065227
 31
0.0
  0
LINE
  5
1A61E
330
1A
100
AcDbEntity
  8
_2-4_PARTS
  6
CONTINUOUS
 62
     7
100
AcDbLine
 10
-1260.620675197518
 20
1801.885136065227
 30
0.0
 11
-1260.620675197518
 21
1802.285136065227
 31
0.0
  0
LINE
  5
1A61F
330
1A
100
AcDbEntity
  8
_2-4_PARTS
  6
CONTINUOUS
 62
     7
100
AcDbLine
 10
-1259.320675197518
 20
1799.245136065227
 30
0.0
 11
-1259.320675197518
 21
1799.845136065227
 31
0.0
  0
LINE
  5
1A620
330
1A
100
AcDbEntity
  8
_2-4_PARTS
  6
CONTINUOUS
 62
     7
100
AcDbLine
 10
-1259.320675197518
 20
1800.515136065227
 30
0.0
 11
-1259.320675197518
 21
1801.115136065227
 31
0.0
  0
LINE
  5
1A621
330
1A
100
AcDbEntity
  8
_2-4_PARTS
  6
CONTINUOUS
 62
     7
100
AcDbLine
 10
-1259.320675197518
 20
1801.785136065227
 30
0.0
 11
-1259.320675197518
 21
1802.385136065227
 31
0.0
  0
LINE
  5
1A622
330
1A
100
AcDbEntity
  8
_2-4_PARTS
  6
CONTINUOUS
 62
     7
100
AcDbLine
 10
-1260.520675197518
 20
1804.375136065227
 30
0.0
 11
-1260.520675197518
 21
1810.985136065227
 31
0.0
  0
LINE
  5
1A623
330
1A
100
AcDbEntity
  8
_2-4_PARTS
  6
CONTINUOUS
 62
     7
100
AcDbLine
 10
-1259.860675197518
 20
1822.205136065227
 30
0.0
 11
-1259.860675197518
 21
1820.955136065227
 31
0.0
  0
LINE
  5
1A624
330
1A
100
AcDbEntity
  8
_2-4_PARTS
  6
CONTINUOUS
 62
     7
100
AcDbLine
 10
-1259.460675197518
 20
1822.205136065227
 30
0.0
 11
-1259.460675197518
 21
1820.955136065227
 31
0.0
  0
LINE
  5
1A625
330
1A
100
AcDbEntity
  8
_2-4_PARTS
  6
CONTINUOUS
 62
     7
100
AcDbLine
 10
-1260.620675197518
 20
1798.075136065227
 30
0.0
 11
-1260.520675197518
 21
1798.075136065227
 31
0.0
  0
LINE
  5
1A626
330
1A
100
AcDbEntity
  8
_2-4_PARTS
  6
CONTINUOUS
 62
     7
100
AcDbLine
 10
-1260.520675197518
 20
1798.475136065227
 30
0.0
 11
-1260.620675197518
 21
1798.475136065227
 31
0.0
  0
LINE
  5
1A627
330
1A
100
AcDbEntity
  8
_2-4_PARTS
  6
CONTINUOUS
 62
     7
100
AcDbLine
 10
-1260.620675197518
 20
1798.075136065227
 30
0.0
 11
-1260.620675197518
 21
1798.475136065227
 31
0.0
  0
LINE
  5
1A628
330
1A
100
AcDbEntity
  8
_2-4_PARTS
  6
CONTINUOUS
 62
     7
100
AcDbLine
 10
-1259.320675197518
 20
1797.975136065227
 30
0.0
 11
-1259.320675197518
 21
1798.575136065227
 31
0.0
  0
LINE
  5
1A629
330
1A
100
AcDbEntity
  8
CL1
100
AcDbLine
 10
-1257.660675197518
 20
1834.280136065227
 30
0.0
 11
-1261.660675197518
 21
1834.280136065227
 31
0.0
  0
ARC
  5
1A62B
330
1A
100
AcDbEntity
  8
ZISSEN1
100
AcDbCircle
 10
-1263.160675197518
 20
1837.780136065227
 30
0.0
 40
1.0
100
AcDbArc
 50
270.0
 51
0.0
  0
LINE
  5
1A62C
330
1A
100
AcDbEntity
  8
_2-4_PARTS
  6
CONTINUOUS
 62
     7
100
AcDbLine
 10
-1241.910675197518
 20
1828.480136065227
 30
0.0
 11
-1243.410675197518
 21
1828.480136065227
 31
0.0
  0
LINE
  5
1A62D
330
1A
100
AcDbEntity
  8
_2-4_PARTS
  6
CONTINUOUS
 62
     7
100
AcDbLine
 10
-1243.410675197518
 20
1829.080136065227
 30
0.0
 11
-1243.410675197518
 21
1828.480136065227
 31
0.0
  0
LINE
  5
1A62E
330
1A
100
AcDbEntity
  8
_2-4_PARTS
  6
CONTINUOUS
 62
     7
100
AcDbLine
 10
-1243.610675197518
 20
1829.080136065227
 30
0.0
 11
-1243.610675197518
 21
1828.180136065227
 31
0.0
  0
CIRCLE
  5
1A62F
330
1A
100
AcDbEntity
  8
_2-4_PARTS
  6
CONTINUOUS
 62
     7
100
AcDbCircle
 10
-1242.910675197518
 20
1831.480136065227
 30
0.0
 40
0.25
  0
CIRCLE
  5
1A630
330
1A
100
AcDbEntity
  8
_2-4_PARTS
  6
CONTINUOUS
 62
     7
100
AcDbCircle
 10
-1245.410675197518
 20
1831.480136065227
 30
0.0
 40
0.25
  0
CIRCLE
  5
1A631
330
1A
100
AcDbEntity
  8
_2-4_PARTS
  6
CONTINUOUS
 62
     7
100
AcDbCircle
 10
-1247.910675197518
 20
1831.480136065227
 30
0.0
 40
0.25
  0
CIRCLE
  5
1A632
330
1A
100
AcDbEntity
  8
_2-4_PARTS
  6
CONTINUOUS
 62
     7
100
AcDbCircle
 10
-1252.910675197518
 20
1831.480136065227
 30
0.0
 40
0.25
  0
LINE
  5
1A633
330
1A
100
AcDbEntity
  8
_2-4_PARTS
  6
CONTINUOUS
 62
     7
100
AcDbLine
 10
-1253.010675197518
 20
1828.180136065227
 30
0.0
 11
-1253.010675197518
 21
1829.080136065227
 31
0.0
  0
CIRCLE
  5
1A634
330
1A
100
AcDbEntity
  8
_2-4_PARTS
  6
CONTINUOUS
 62
     7
100
AcDbCircle
 10
-1250.410675197518
 20
1831.480136065227
 30
0.0
 40
0.25
  0
LINE
  5
1A635
330
1A
100
AcDbEntity
  8
_2-4_PARTS
  6
CONTINUOUS
 62
     7
100
AcDbLine
 10
-1253.510675197518
 20
1829.580136065227
 30
0.0
 11
-1253.510675197518
 21
1828.880136065227
 31
0.0
  0
LINE
  5
1A636
330
1A
100
AcDbEntity
  8
_2-4_PARTS
  6
CONTINUOUS
 62
     7
100
AcDbLine
 10
-1254.510675197518
 20
1828.880136065227
 30
0.0
 11
-1253.010675197518
 21
1828.880136065227
 31
0.0
  0
LINE
  5
1A637
330
1A
100
AcDbEntity
  8
_2-4_PARTS
  6
CONTINUOUS
 62
     7
100
AcDbLine
 10
-1255.360675197518
 20
1828.180136065227
 30
0.0
 11
-1243.610675197518
 21
1828.180136065227
 31
0.0
  0
LINE
  5
1A638
330
1A
100
AcDbEntity
  8
_2-4_PARTS
  6
CONTINUOUS
 62
     7
100
AcDbLine
 10
-1255.360675197518
 20
1828.180136065227
 30
0.0
 11
-1255.360675197518
 21
1834.880136065227
 31
0.0
  0
LINE
  5
1A639
330
1A
100
AcDbEntity
  8
_2-4_PARTS
  6
CONTINUOUS
 62
     7
100
AcDbLine
 10
-1254.510675197518
 20
1834.180136065228
 30
0.0
 11
-1254.510675197518
 21
1828.880136065227
 31
0.0
  0
LINE
  5
1A63A
330
1A
100
AcDbEntity
  8
_2-4_PARTS
  6
CONTINUOUS
 62
     7
100
AcDbLine
 10
-1255.120675197518
 20
1816.885136065227
 30
0.0
 11
-1255.020675197518
 21
1816.885136065227
 31
0.0
  0
LINE
  5
1A63B
330
1A
100
AcDbEntity
  8
_2-4_PARTS
  6
CONTINUOUS
 62
     7
100
AcDbLine
 10
-1255.020675197518
 20
1816.885136065227
 30
0.0
 11
-1255.020675197518
 21
1817.285136065227
 31
0.0
  0
LINE
  5
1A63C
330
1A
100
AcDbEntity
  8
_2-4_PARTS
  6
CONTINUOUS
 62
     7
100
AcDbLine
 10
-1255.020675197518
 20
1817.285136065227
 30
0.0
 11
-1255.120675197518
 21
1817.285136065227
 31
0.0
  0
LINE
  5
1A63D
330
1A
100
AcDbEntity
  8
_2-4_PARTS
  6
CONTINUOUS
 62
     7
100
AcDbLine
 10
-1256.320675197518
 20
1816.785136065227
 30
0.0
 11
-1256.320675197518
 21
1817.385136065228
 31
0.0
  0
LINE
  5
1A63E
330
1A
100
AcDbEntity
  8
_2-4_PARTS
  6
CONTINUOUS
 62
     7
100
AcDbLine
 10
-1255.120675197518
 20
1813.075136065227
 30
0.0
 11
-1255.020675197518
 21
1813.075136065227
 31
0.0
  0
LINE
  5
1A63F
330
1A
100
AcDbEntity
  8
_2-4_PARTS
  6
CONTINUOUS
 62
     7
100
AcDbLine
 10
-1255.020675197518
 20
1813.075136065227
 30
0.0
 11
-1255.020675197518
 21
1813.475136065227
 31
0.0
  0
LINE
  5
1A640
330
1A
100
AcDbEntity
  8
_2-4_PARTS
  6
CONTINUOUS
 62
     7
100
AcDbLine
 10
-1255.020675197518
 20
1813.475136065227
 30
0.0
 11
-1255.120675197518
 21
1813.475136065227
 31
0.0
  0
LINE
  5
1A641
330
1A
100
AcDbEntity
  8
_2-4_PARTS
  6
CONTINUOUS
 62
     7
100
AcDbLine
 10
-1255.120675197518
 20
1814.345136065227
 30
0.0
 11
-1255.020675197518
 21
1814.345136065227
 31
0.0
  0
LINE
  5
1A642
330
1A
100
AcDbEntity
  8
_2-4_PARTS
  6
CONTINUOUS
 62
     7
100
AcDbLine
 10
-1255.020675197518
 20
1814.345136065227
 30
0.0
 11
-1255.020675197518
 21
1814.745136065227
 31
0.0
  0
LINE
  5
1A643
330
1A
100
AcDbEntity
  8
_2-4_PARTS
  6
CONTINUOUS
 62
     7
100
AcDbLine
 10
-1255.020675197518
 20
1814.745136065227
 30
0.0
 11
-1255.120675197518
 21
1814.745136065227
 31
0.0
  0
LINE
  5
1A644
330
1A
100
AcDbEntity
  8
_2-4_PARTS
  6
CONTINUOUS
 62
     7
100
AcDbLine
 10
-1255.120675197518
 20
1815.615136065227
 30
0.0
 11
-1255.020675197518
 21
1815.615136065227
 31
0.0
  0
LINE
  5
1A645
330
1A
100
AcDbEntity
  8
_2-4_PARTS
  6
CONTINUOUS
 62
     7
100
AcDbLine
 10
-1255.020675197518
 20
1815.615136065227
 30
0.0
 11
-1255.020675197518
 21
1816.015136065227
 31
0.0
  0
LINE
  5
1A646
330
1A
100
AcDbEntity
  8
_2-4_PARTS
  6
CONTINUOUS
 62
     7
100
AcDbLine
 10
-1255.020675197518
 20
1816.015136065227
 30
0.0
 11
-1255.120675197518
 21
1816.015136065227
 31
0.0
  0
LINE
  5
1A647
330
1A
100
AcDbEntity
  8
_2-4_PARTS
  6
CONTINUOUS
 62
     7
100
AcDbLine
 10
-1256.320675197518
 20
1812.975136065227
 30
0.0
 11
-1256.320675197518
 21
1813.575136065227
 31
0.0
  0
LINE
  5
1A648
330
1A
100
AcDbEntity
  8
_2-4_PARTS
  6
CONTINUOUS
 62
     7
100
AcDbLine
 10
-1256.320675197518
 20
1814.245136065227
 30
0.0
 11
-1256.320675197518
 21
1814.845136065227
 31
0.0
  0
LINE
  5
1A649
330
1A
100
AcDbEntity
  8
_2-4_PARTS
  6
CONTINUOUS
 62
     7
100
AcDbLine
 10
-1256.320675197518
 20
1815.515136065227
 30
0.0
 11
-1256.320675197518
 21
1816.115136065227
 31
0.0
  0
LINE
  5
1A64A
330
1A
100
AcDbEntity
  8
_2-4_PARTS
  6
CONTINUOUS
 62
     7
100
AcDbLine
 10
-1255.120675197518
 20
1811.875136065228
 30
0.0
 11
-1255.120675197518
 21
1818.485136065227
 31
0.0
  0
LINE
  5
1A64B
330
1A
100
AcDbEntity
  8
_2-4_PARTS
  6
CONTINUOUS
 62
     7
100
AcDbLine
 10
-1255.120675197518
 20
1805.575136065227
 30
0.0
 11
-1255.020675197518
 21
1805.575136065227
 31
0.0
  0
LINE
  5
1A64C
330
1A
100
AcDbEntity
  8
_2-4_PARTS
  6
CONTINUOUS
 62
     7
100
AcDbLine
 10
-1255.020675197518
 20
1805.575136065227
 30
0.0
 11
-1255.020675197518
 21
1805.975136065227
 31
0.0
  0
LINE
  5
1A64D
330
1A
100
AcDbEntity
  8
_2-4_PARTS
  6
CONTINUOUS
 62
     7
100
AcDbLine
 10
-1255.020675197518
 20
1805.975136065227
 30
0.0
 11
-1255.120675197518
 21
1805.975136065227
 31
0.0
  0
LINE
  5
1A64E
330
1A
100
AcDbEntity
  8
_2-4_PARTS
  6
CONTINUOUS
 62
     7
100
AcDbLine
 10
-1255.120675197518
 20
1806.845136065227
 30
0.0
 11
-1255.020675197518
 21
1806.845136065227
 31
0.0
  0
LINE
  5
1A64F
330
1A
100
AcDbEntity
  8
_2-4_PARTS
  6
CONTINUOUS
 62
     7
100
AcDbLine
 10
-1255.020675197518
 20
1806.845136065227
 30
0.0
 11
-1255.020675197518
 21
1807.245136065227
 31
0.0
  0
LINE
  5
1A650
330
1A
100
AcDbEntity
  8
_2-4_PARTS
  6
CONTINUOUS
 62
     7
100
AcDbLine
 10
-1255.020675197518
 20
1807.245136065227
 30
0.0
 11
-1255.120675197518
 21
1807.245136065227
 31
0.0
  0
LINE
  5
1A651
330
1A
100
AcDbEntity
  8
_2-4_PARTS
  6
CONTINUOUS
 62
     7
100
AcDbLine
 10
-1255.120675197518
 20
1808.115136065227
 30
0.0
 11
-1255.020675197518
 21
1808.115136065227
 31
0.0
  0
LINE
  5
1A652
330
1A
100
AcDbEntity
  8
_2-4_PARTS
  6
CONTINUOUS
 62
     7
100
AcDbLine
 10
-1255.020675197518
 20
1808.115136065227
 30
0.0
 11
-1255.020675197518
 21
1808.515136065227
 31
0.0
  0
LINE
  5
1A653
330
1A
100
AcDbEntity
  8
_2-4_PARTS
  6
CONTINUOUS
 62
     7
100
AcDbLine
 10
-1255.020675197518
 20
1808.515136065227
 30
0.0
 11
-1255.120675197518
 21
1808.515136065227
 31
0.0
  0
LINE
  5
1A654
330
1A
100
AcDbEntity
  8
_2-4_PARTS
  6
CONTINUOUS
 62
     7
100
AcDbLine
 10
-1255.120675197518
 20
1809.385136065227
 30
0.0
 11
-1255.020675197518
 21
1809.385136065227
 31
0.0
  0
LINE
  5
1A655
330
1A
100
AcDbEntity
  8
_2-4_PARTS
  6
CONTINUOUS
 62
     7
100
AcDbLine
 10
-1255.020675197518
 20
1809.385136065227
 30
0.0
 11
-1255.020675197518
 21
1809.785136065227
 31
0.0
  0
LINE
  5
1A656
330
1A
100
AcDbEntity
  8
_2-4_PARTS
  6
CONTINUOUS
 62
     7
100
AcDbLine
 10
-1255.020675197518
 20
1809.785136065227
 30
0.0
 11
-1255.120675197518
 21
1809.785136065227
 31
0.0
  0
LINE
  5
1A657
330
1A
100
AcDbEntity
  8
_2-4_PARTS
  6
CONTINUOUS
 62
     7
100
AcDbLine
 10
-1256.320675197518
 20
1805.475136065227
 30
0.0
 11
-1256.320675197518
 21
1806.075136065227
 31
0.0
  0
LINE
  5
1A658
330
1A
100
AcDbEntity
  8
_2-4_PARTS
  6
CONTINUOUS
 62
     7
100
AcDbLine
 10
-1256.320675197518
 20
1806.745136065227
 30
0.0
 11
-1256.320675197518
 21
1807.345136065227
 31
0.0
  0
LINE
  5
1A659
330
1A
100
AcDbEntity
  8
_2-4_PARTS
  6
CONTINUOUS
 62
     7
100
AcDbLine
 10
-1256.320675197518
 20
1808.015136065227
 30
0.0
 11
-1256.320675197518
 21
1808.615136065227
 31
0.0
  0
LINE
  5
1A65A
330
1A
100
AcDbEntity
  8
_2-4_PARTS
  6
CONTINUOUS
 62
     7
100
AcDbLine
 10
-1256.320675197518
 20
1809.285136065227
 30
0.0
 11
-1256.320675197518
 21
1809.885136065227
 31
0.0
  0
LINE
  5
1A65B
330
1A
100
AcDbEntity
  8
_2-4_PARTS
  6
CONTINUOUS
 62
     7
100
AcDbLine
 10
-1255.120675197518
 20
1799.345136065227
 30
0.0
 11
-1255.020675197518
 21
1799.345136065227
 31
0.0
  0
LINE
  5
1A65C
330
1A
100
AcDbEntity
  8
_2-4_PARTS
  6
CONTINUOUS
 62
     7
100
AcDbLine
 10
-1255.020675197518
 20
1799.345136065227
 30
0.0
 11
-1255.020675197518
 21
1799.745136065227
 31
0.0
  0
LINE
  5
1A65D
330
1A
100
AcDbEntity
  8
_2-4_PARTS
  6
CONTINUOUS
 62
     7
100
AcDbLine
 10
-1255.020675197518
 20
1799.745136065227
 30
0.0
 11
-1255.120675197518
 21
1799.745136065227
 31
0.0
  0
LINE
  5
1A65E
330
1A
100
AcDbEntity
  8
_2-4_PARTS
  6
CONTINUOUS
 62
     7
100
AcDbLine
 10
-1255.120675197518
 20
1800.615136065227
 30
0.0
 11
-1255.020675197518
 21
1800.615136065227
 31
0.0
  0
LINE
  5
1A65F
330
1A
100
AcDbEntity
  8
_2-4_PARTS
  6
CONTINUOUS
 62
     7
100
AcDbLine
 10
-1255.020675197518
 20
1800.615136065227
 30
0.0
 11
-1255.020675197518
 21
1801.015136065227
 31
0.0
  0
LINE
  5
1A660
330
1A
100
AcDbEntity
  8
_2-4_PARTS
  6
CONTINUOUS
 62
     7
100
AcDbLine
 10
-1255.020675197518
 20
1801.015136065227
 30
0.0
 11
-1255.120675197518
 21
1801.015136065227
 31
0.0
  0
LINE
  5
1A661
330
1A
100
AcDbEntity
  8
_2-4_PARTS
  6
CONTINUOUS
 62
     7
100
AcDbLine
 10
-1255.120675197518
 20
1801.885136065227
 30
0.0
 11
-1255.020675197518
 21
1801.885136065227
 31
0.0
  0
LINE
  5
1A662
330
1A
100
AcDbEntity
  8
_2-4_PARTS
  6
CONTINUOUS
 62
     7
100
AcDbLine
 10
-1255.020675197518
 20
1801.885136065227
 30
0.0
 11
-1255.020675197518
 21
1802.285136065227
 31
0.0
  0
LINE
  5
1A663
330
1A
100
AcDbEntity
  8
_2-4_PARTS
  6
CONTINUOUS
 62
     7
100
AcDbLine
 10
-1255.020675197518
 20
1802.285136065227
 30
0.0
 11
-1255.120675197518
 21
1802.285136065227
 31
0.0
  0
LINE
  5
1A664
330
1A
100
AcDbEntity
  8
_2-4_PARTS
  6
CONTINUOUS
 62
     7
100
AcDbLine
 10
-1256.320675197518
 20
1799.245136065227
 30
0.0
 11
-1256.320675197518
 21
1799.845136065227
 31
0.0
  0
LINE
  5
1A665
330
1A
100
AcDbEntity
  8
_2-4_PARTS
  6
CONTINUOUS
 62
     7
100
AcDbLine
 10
-1256.320675197518
 20
1800.515136065227
 30
0.0
 11
-1256.320675197518
 21
1801.115136065227
 31
0.0
  0
LINE
  5
1A666
330
1A
100
AcDbEntity
  8
_2-4_PARTS
  6
CONTINUOUS
 62
     7
100
AcDbLine
 10
-1256.320675197518
 20
1801.785136065227
 30
0.0
 11
-1256.320675197518
 21
1802.385136065227
 31
0.0
  0
LINE
  5
1A667
330
1A
100
AcDbEntity
  8
_2-4_PARTS
  6
CONTINUOUS
 62
     7
100
AcDbLine
 10
-1255.120675197518
 20
1804.375136065227
 30
0.0
 11
-1255.120675197518
 21
1810.985136065227
 31
0.0
  0
LINE
  5
1A668
330
1A
100
AcDbEntity
  8
_2-4_PARTS
  6
CONTINUOUS
 62
     7
100
AcDbLine
 10
-1257.860675197518
 20
1825.205136065227
 30
0.0
 11
-1257.860675197518
 21
1823.955136065228
 31
0.0
  0
LINE
  5
1A669
330
1A
100
AcDbEntity
  8
_2-4_PARTS
  6
CONTINUOUS
 62
     7
100
AcDbLine
 10
-1258.260675197518
 20
1825.205136065227
 30
0.0
 11
-1258.260675197518
 21
1823.955136065228
 31
0.0
  0
LINE
  5
1A66A
330
1A
100
AcDbEntity
  8
_2-4_PARTS
  6
CONTINUOUS
 62
     7
100
AcDbLine
 10
-1257.860675197518
 20
1822.205136065227
 30
0.0
 11
-1257.860675197518
 21
1820.955136065227
 31
0.0
  0
LINE
  5
1A66B
330
1A
100
AcDbEntity
  8
_2-4_PARTS
  6
CONTINUOUS
 62
     7
100
AcDbLine
 10
-1258.260675197518
 20
1822.205136065227
 30
0.0
 11
-1258.260675197518
 21
1820.955136065227
 31
0.0
  0
LINE
  5
1A66C
330
1A
100
AcDbEntity
  8
_2-4_PARTS
  6
CONTINUOUS
 62
     7
100
AcDbLine
 10
-1255.120675197518
 20
1798.075136065227
 30
0.0
 11
-1255.020675197518
 21
1798.075136065227
 31
0.0
  0
LINE
  5
1A66D
330
1A
100
AcDbEntity
  8
_2-4_PARTS
  6
CONTINUOUS
 62
     7
100
AcDbLine
 10
-1255.020675197518
 20
1798.075136065227
 30
0.0
 11
-1255.020675197518
 21
1798.475136065227
 31
0.0
  0
LINE
  5
1A66E
330
1A
100
AcDbEntity
  8
_2-4_PARTS
  6
CONTINUOUS
 62
     7
100
AcDbLine
 10
-1255.020675197518
 20
1798.475136065227
 30
0.0
 11
-1255.120675197518
 21
1798.475136065227
 31
0.0
  0
LINE
  5
1A66F
330
1A
100
AcDbEntity
  8
_2-4_PARTS
  6
CONTINUOUS
 62
     7
100
AcDbLine
 10
-1256.320675197518
 20
1797.975136065227
 30
0.0
 11
-1256.320675197518
 21
1798.575136065227
 31
0.0
  0
CIRCLE
  5
1A670
330
1A
100
AcDbEntity
  8
_2-4_PARTS
  6
CONTINUOUS
 62
     7
100
AcDbCircle
 10
-1227.910675197518
 20
1831.480136065227
 30
0.0
 40
0.25
  0
CIRCLE
  5
1A671
330
1A
100
AcDbEntity
  8
_2-4_PARTS
  6
CONTINUOUS
 62
     7
100
AcDbCircle
 10
-1230.410675197518
 20
1831.480136065227
 30
0.0
 40
0.25
  0
LINE
  5
1A672
330
1A
100
AcDbEntity
  8
_2-4_PARTS
  6
CONTINUOUS
 62
     7
100
AcDbLine
 10
-1234.910675197518
 20
1828.480136065227
 30
0.0
 11
-1236.410675197518
 21
1828.480136065227
 31
0.0
  0
LINE
  5
1A673
330
1A
100
AcDbEntity
  8
_2-4_PARTS
  6
CONTINUOUS
 62
     7
100
AcDbLine
 10
-1234.910675197518
 20
1829.080136065227
 30
0.0
 11
-1234.910675197518
 21
1828.480136065227
 31
0.0
  0
LINE
  5
1A674
330
1A
100
AcDbEntity
  8
_2-4_PARTS
  6
CONTINUOUS
 62
     7
100
AcDbLine
 10
-1236.410675197518
 20
1829.080136065227
 30
0.0
 11
-1236.410675197518
 21
1828.480136065227
 31
0.0
  0
LINE
  5
1A675
330
1A
100
AcDbEntity
  8
_2-4_PARTS
  6
CONTINUOUS
 62
     7
100
AcDbLine
 10
-1236.610675197518
 20
1829.080136065227
 30
0.0
 11
-1236.610675197518
 21
1828.180136065227
 31
0.0
  0
LINE
  5
1A676
330
1A
100
AcDbEntity
  8
_2-4_PARTS
  6
CONTINUOUS
 62
     7
100
AcDbLine
 10
-1234.710675197518
 20
1829.080136065227
 30
0.0
 11
-1234.710675197518
 21
1828.180136065227
 31
0.0
  0
CIRCLE
  5
1A677
330
1A
100
AcDbEntity
  8
_2-4_PARTS
  6
CONTINUOUS
 62
     7
100
AcDbCircle
 10
-1235.410675197518
 20
1831.480136065227
 30
0.0
 40
0.25
  0
CIRCLE
  5
1A678
330
1A
100
AcDbEntity
  8
_2-4_PARTS
  6
CONTINUOUS
 62
     7
100
AcDbCircle
 10
-1237.910675197518
 20
1831.480136065227
 30
0.0
 40
0.25
  0
CIRCLE
  5
1A679
330
1A
100
AcDbEntity
  8
_2-4_PARTS
  6
CONTINUOUS
 62
     7
100
AcDbCircle
 10
-1240.410675197518
 20
1831.480136065227
 30
0.0
 40
0.25
  0
CIRCLE
  5
1A67A
330
1A
100
AcDbEntity
  8
_2-4_PARTS
  6
CONTINUOUS
 62
     7
100
AcDbCircle
 10
-1232.910675197518
 20
1831.480136065227
 30
0.0
 40
0.25
  0
LINE
  5
1A67B
330
1A
100
AcDbEntity
  8
_2-4_PARTS
  6
CONTINUOUS
 62
     7
100
AcDbLine
 10
-1241.910675197518
 20
1829.080136065227
 30
0.0
 11
-1241.910675197518
 21
1828.480136065227
 31
0.0
  0
LINE
  5
1A67C
330
1A
100
AcDbEntity
  8
_2-4_PARTS
  6
CONTINUOUS
 62
     7
100
AcDbLine
 10
-1241.710675197518
 20
1829.080136065227
 30
0.0
 11
-1241.710675197518
 21
1828.180136065227
 31
0.0
  0
LINE
  5
1A67D
330
1A
100
AcDbEntity
  8
_2-4_PARTS
  6
CONTINUOUS
 62
     7
100
AcDbLine
 10
-1236.610675197518
 20
1828.180136065227
 30
0.0
 11
-1241.710675197518
 21
1828.180136065227
 31
0.0
  0
CIRCLE
  5
1A67E
330
1A
100
AcDbEntity
  8
_2-4_PARTS
  6
CONTINUOUS
 62
     7
100
AcDbCircle
 10
-1202.560675197518
 20
1800.028249970552
 30
0.0
 40
5.0
  0
LINE
  5
1A67F
330
1A
100
AcDbEntity
  8
_2-4_PARTS
  6
CONTINUOUS
 62
     7
100
AcDbLine
 10
-1197.410675197517
 20
1795.878249970552
 30
0.0
 11
-1197.410675197517
 21
1805.178249970552
 31
0.0
  0
LINE
  5
1A680
330
1A
100
AcDbEntity
  8
_2-4_PARTS
  6
CONTINUOUS
 62
     7
100
AcDbLine
 10
-1207.710675197517
 20
1795.878249970552
 30
0.0
 11
-1207.710675197517
 21
1805.178249970552
 31
0.0
  0
CIRCLE
  5
1A681
330
1A
100
AcDbEntity
  8
_2-4_PARTS
  6
CONTINUOUS
 62
     7
100
AcDbCircle
 10
-1191.660675197518
 20
1800.028249970552
 30
0.0
 40
5.0
  0
LINE
  5
1A682
330
1A
100
AcDbEntity
  8
_2-4_PARTS
  6
CONTINUOUS
 62
     7
100
AcDbLine
 10
-1186.510675197518
 20
1795.878249970552
 30
0.0
 11
-1186.510675197518
 21
1805.178249970552
 31
0.0
  0
LINE
  5
1A683
330
1A
100
AcDbEntity
  8
_2-4_PARTS
  6
CONTINUOUS
 62
     7
100
AcDbLine
 10
-1196.810675197518
 20
1795.878249970552
 30
0.0
 11
-1196.810675197518
 21
1805.178249970552
 31
0.0
  0
LINE
  5
1A684
330
1A
100
AcDbEntity
  8
ZISSEN1
100
AcDbLine
 10
-1184.660675197518
 20
1836.780136065227
 30
0.0
 11
-1184.660675197518
 21
1780.780136065227
 31
0.0
  0
LINE
  5
1A685
330
1A
100
AcDbEntity
  8
_2-4_PARTS
  6
CONTINUOUS
 62
     7
100
AcDbLine
 10
-1195.810675197518
 20
1794.878249970553
 30
0.0
 11
-1187.510675197518
 21
1794.878249970553
 31
0.0
  0
LINE
  5
1A686
330
1A
100
AcDbEntity
  8
_2-4_PARTS
  6
CONTINUOUS
 62
     7
100
AcDbLine
 10
-1197.410675197517
 20
1795.878249970552
 30
0.0
 11
-1198.410675197518
 21
1794.878249970553
 31
0.0
  0
LINE
  5
1A687
330
1A
100
AcDbEntity
  8
_2-4_PARTS
  6
CONTINUOUS
 62
     7
100
AcDbLine
 10
-1195.810675197518
 20
1794.878249970553
 30
0.0
 11
-1196.810675197518
 21
1795.878249970552
 31
0.0
  0
LINE
  5
1A688
330
1A
100
AcDbEntity
  8
_2-4_PARTS
  6
CONTINUOUS
 62
     7
100
AcDbLine
 10
-1203.010675197518
 20
1794.878249970553
 30
0.0
 11
-1203.010675197518
 21
1794.528249970552
 31
0.0
  0
LINE
  5
1A689
330
1A
100
AcDbEntity
  8
_2-4_PARTS
  6
CONTINUOUS
 62
     7
100
AcDbLine
 10
-1202.110675197518
 20
1794.878249970553
 30
0.0
 11
-1202.110675197518
 21
1794.528249970552
 31
0.0
  0
LINE
  5
1A68A
330
1A
100
AcDbEntity
  8
_2-4_PARTS
  6
CONTINUOUS
 62
     7
100
AcDbLine
 10
-1202.110675197518
 20
1794.528249970552
 30
0.0
 11
-1203.010675197518
 21
1794.528249970552
 31
0.0
  0
LINE
  5
1A68B
330
1A
100
AcDbEntity
  8
_2-4_PARTS
  6
CONTINUOUS
 62
     7
100
AcDbLine
 10
-1206.710675197518
 20
1794.878249970553
 30
0.0
 11
-1207.710675197517
 21
1795.878249970552
 31
0.0
  0
LINE
  5
1A68C
330
1A
100
AcDbEntity
  8
_2-4_PARTS
  6
CONTINUOUS
 62
     7
100
AcDbLine
 10
-1206.710675197518
 20
1794.878249970553
 30
0.0
 11
-1198.410675197518
 21
1794.878249970553
 31
0.0
  0
LINE
  5
1A68D
330
1A
100
AcDbEntity
  8
_2-4_PARTS
  6
CONTINUOUS
 62
     7
100
AcDbLine
 10
-1186.510675197518
 20
1795.878249970552
 30
0.0
 11
-1187.510675197518
 21
1794.878249970553
 31
0.0
  0
LINE
  5
1A68E
330
1A
100
AcDbEntity
  8
_2-4_PARTS
  6
CONTINUOUS
 62
     7
100
AcDbLine
 10
-1191.210675197518
 20
1794.878249970553
 30
0.0
 11
-1191.210675197518
 21
1794.528249970552
 31
0.0
  0
LINE
  5
1A68F
330
1A
100
AcDbEntity
  8
_2-4_PARTS
  6
CONTINUOUS
 62
     7
100
AcDbLine
 10
-1192.110675197518
 20
1794.878249970553
 30
0.0
 11
-1192.110675197518
 21
1794.528249970552
 31
0.0
  0
LINE
  5
1A690
330
1A
100
AcDbEntity
  8
_2-4_PARTS
  6
CONTINUOUS
 62
     7
100
AcDbLine
 10
-1191.210675197518
 20
1794.528249970552
 30
0.0
 11
-1192.110675197518
 21
1794.528249970552
 31
0.0
  0
LINE
  5
1A691
330
1A
100
AcDbEntity
  8
CL1
100
AcDbLine
 10
-1188.160675197518
 20
1781.280136065227
 30
0.0
 11
-1188.160675197518
 21
1785.280136065227
 31
0.0
  0
LINE
  5
1A692
330
1A
100
AcDbEntity
  8
CL1
100
AcDbLine
 10
-1186.160675197518
 20
1783.280136065227
 30
0.0
 11
-1190.160675197518
 21
1783.280136065227
 31
0.0
  0
CIRCLE
  5
1A693
330
1A
100
AcDbEntity
  8
ZISSEN1
100
AcDbCircle
 10
-1188.160675197518
 20
1783.280136065227
 30
0.0
 40
1.75
  0
ARC
  5
1A695
330
1A
100
AcDbEntity
  8
ZISSEN1
100
AcDbCircle
 10
-1184.660675197518
 20
1779.780136065227
 30
0.0
 40
1.0
100
AcDbArc
 50
90.0
 51
180.0
  0
LINE
  5
1A697
330
1A
100
AcDbEntity
  8
_2-4_PARTS
  6
CONTINUOUS
 62
     7
100
AcDbLine
 10
-1186.510675197518
 20
1805.178249970552
 30
0.0
 11
-1196.810675197518
 21
1805.178249970552
 31
0.0
  0
LINE
  5
1A698
330
1A
100
AcDbEntity
  8
_2-4_PARTS
  6
CONTINUOUS
 62
     7
100
AcDbLine
 10
-1209.500675197518
 20
1828.590136065227
 30
0.0
 11
-1208.820675197518
 21
1828.590136065227
 31
0.0
  0
LINE
  5
1A699
330
1A
100
AcDbEntity
  8
_2-4_PARTS
  6
CONTINUOUS
 62
     7
100
AcDbLine
 10
-1208.820675197518
 20
1828.590136065227
 30
0.0
 11
-1209.020675197518
 21
1828.790136065227
 31
0.0
  0
LINE
  5
1A69A
330
1A
100
AcDbEntity
  8
_2-4_PARTS
  6
CONTINUOUS
 62
     7
100
AcDbLine
 10
-1208.660675197518
 20
1829.910136065227
 30
0.0
 11
-1209.020675197518
 21
1829.270136065227
 31
0.0
  0
LINE
  5
1A69B
330
1A
100
AcDbEntity
  8
_2-4_PARTS
  6
CONTINUOUS
 62
     7
100
AcDbLine
 10
-1208.660675197518
 20
1829.910136065227
 30
0.0
 11
-1209.300675197518
 21
1829.270136065227
 31
0.0
  0
LINE
  5
1A69C
330
1A
100
AcDbEntity
  8
_2-4_PARTS
  6
CONTINUOUS
 62
     7
100
AcDbLine
 10
-1209.020675197518
 20
1830.550136065227
 30
0.0
 11
-1208.660675197518
 21
1829.910136065227
 31
0.0
  0
LINE
  5
1A69D
330
1A
100
AcDbEntity
  8
_2-4_PARTS
  6
CONTINUOUS
 62
     7
100
AcDbLine
 10
-1209.020675197518
 20
1830.350136065227
 30
0.0
 11
-1208.660675197518
 21
1829.910136065227
 31
0.0
  0
LINE
  5
1A69E
330
1A
100
AcDbEntity
  8
_2-4_PARTS
  6
CONTINUOUS
 62
     7
100
AcDbLine
 10
-1209.300675197518
 20
1830.350136065227
 30
0.0
 11
-1208.660675197518
 21
1829.910136065227
 31
0.0
  0
LINE
  5
1A69F
330
1A
100
AcDbEntity
  8
_2-4_PARTS
  6
CONTINUOUS
 62
     7
100
AcDbLine
 10
-1208.220675197518
 20
1830.550136065227
 30
0.0
 11
-1209.100675197518
 21
1830.550136065227
 31
0.0
  0
LINE
  5
1A6A0
330
1A
100
AcDbEntity
  8
_2-4_PARTS
  6
CONTINUOUS
 62
     7
100
AcDbLine
 10
-1207.820675197518
 20
1831.230136065227
 30
0.0
 11
-1209.500675197518
 21
1831.230136065227
 31
0.0
  0
LINE
  5
1A6A1
330
1A
100
AcDbEntity
  8
_2-4_PARTS
  6
CONTINUOUS
 62
     7
100
AcDbLine
 10
-1208.020675197518
 20
1831.030136065227
 30
0.0
 11
-1209.300675197518
 21
1831.030136065227
 31
0.0
  0
LINE
  5
1A6A2
330
1A
100
AcDbEntity
  8
_2-4_PARTS
  6
CONTINUOUS
 62
     7
100
AcDbLine
 10
-1202.460675197518
 20
1834.760136065227
 30
0.0
 11
-1221.860675197518
 21
1834.760136065227
 31
0.0
  0
LINE
  5
1A6A3
330
1A
100
AcDbEntity
  8
_2-4_PARTS
  6
CONTINUOUS
 62
     7
100
AcDbLine
 10
-1203.160675197518
 20
1834.160136065227
 30
0.0
 11
-1221.160675197518
 21
1834.160136065227
 31
0.0
  0
LINE
  5
1A6A4
330
1A
100
AcDbEntity
  8
_2-4_PARTS
  6
CONTINUOUS
 62
     7
100
AcDbLine
 10
-1221.160675197518
 20
1827.760136065227
 30
0.0
 11
-1203.160675197518
 21
1827.760136065227
 31
0.0
  0
LINE
  5
1A6A5
330
1A
100
AcDbEntity
  8
_2-4_PARTS
  6
CONTINUOUS
 62
     7
100
AcDbLine
 10
-1221.860675197518
 20
1827.160136065227
 30
0.0
 11
-1202.460675197518
 21
1827.160136065227
 31
0.0
  0
LINE
  5
1A6A6
330
1A
100
AcDbEntity
  8
_2-4_PARTS
  6
CONTINUOUS
 62
     7
100
AcDbLine
 10
-1222.960675197518
 20
1834.580136065227
 30
0.0
 11
-1222.960675197518
 21
1834.880136065227
 31
0.0
  0
LINE
  5
1A6A7
330
1A
100
AcDbEntity
  8
_2-4_PARTS
  6
CONTINUOUS
 62
     7
100
AcDbLine
 10
-1211.320675197518
 20
1828.590136065227
 30
0.0
 11
-1211.320675197518
 21
1831.230136065227
 31
0.0
  0
LINE
  5
1A6A8
330
1A
100
AcDbEntity
  8
_2-4_PARTS
  6
CONTINUOUS
 62
     7
100
AcDbLine
 10
-1211.520675197518
 20
1828.790136065227
 30
0.0
 11
-1211.520675197518
 21
1831.030136065227
 31
0.0
  0
LINE
  5
1A6A9
330
1A
100
AcDbEntity
  8
_2-4_PARTS
  6
CONTINUOUS
 62
     7
100
AcDbLine
 10
-1211.320675197518
 20
1828.590136065227
 30
0.0
 11
-1211.520675197518
 21
1828.790136065227
 31
0.0
  0
LINE
  5
1A6AA
330
1A
100
AcDbEntity
  8
_2-4_PARTS
  6
CONTINUOUS
 62
     7
100
AcDbLine
 10
-1211.320675197518
 20
1831.230136065227
 30
0.0
 11
-1211.520675197518
 21
1831.030136065227
 31
0.0
  0
LINE
  5
1A6AB
330
1A
100
AcDbEntity
  8
_2-4_PARTS
  6
CONTINUOUS
 62
     7
100
AcDbLine
 10
-1211.800675197518
 20
1828.790136065227
 30
0.0
 11
-1211.520675197518
 21
1828.790136065227
 31
0.0
  0
LINE
  5
1A6AC
330
1A
100
AcDbEntity
  8
_2-4_PARTS
  6
CONTINUOUS
 62
     7
100
AcDbLine
 10
-1212.000675197518
 20
1828.590136065227
 30
0.0
 11
-1211.320675197518
 21
1828.590136065227
 31
0.0
  0
LINE
  5
1A6AD
330
1A
100
AcDbEntity
  8
_2-4_PARTS
  6
CONTINUOUS
 62
     7
100
AcDbLine
 10
-1211.800675197518
 20
1828.790136065227
 30
0.0
 11
-1212.000675197518
 21
1828.590136065227
 31
0.0
  0
LINE
  5
1A6AE
330
1A
100
AcDbEntity
  8
_2-4_PARTS
  6
CONTINUOUS
 62
     7
100
AcDbLine
 10
-1211.520675197518
 20
1829.270136065227
 30
0.0
 11
-1211.520675197518
 21
1830.550136065227
 31
0.0
  0
LINE
  5
1A6AF
330
1A
100
AcDbEntity
  8
_2-4_PARTS
  6
CONTINUOUS
 62
     7
100
AcDbLine
 10
-1211.520675197518
 20
1829.270136065227
 30
0.0
 11
-1212.160675197518
 21
1829.910136065227
 31
0.0
  0
LINE
  5
1A6B0
330
1A
100
AcDbEntity
  8
_2-4_PARTS
  6
CONTINUOUS
 62
     7
100
AcDbLine
 10
-1212.160675197518
 20
1829.910136065227
 30
0.0
 11
-1211.800675197518
 21
1829.270136065227
 31
0.0
  0
LINE
  5
1A6B1
330
1A
100
AcDbEntity
  8
_2-4_PARTS
  6
CONTINUOUS
 62
     7
100
AcDbLine
 10
-1212.160675197518
 20
1829.910136065227
 30
0.0
 11
-1211.800675197518
 21
1830.350136065227
 31
0.0
  0
LINE
  5
1A6B2
330
1A
100
AcDbEntity
  8
_2-4_PARTS
  6
CONTINUOUS
 62
     7
100
AcDbLine
 10
-1212.160675197518
 20
1829.910136065227
 30
0.0
 11
-1211.800675197518
 21
1830.550136065227
 31
0.0
  0
LINE
  5
1A6B3
330
1A
100
AcDbEntity
  8
_2-4_PARTS
  6
CONTINUOUS
 62
     7
100
AcDbLine
 10
-1211.520675197518
 20
1830.350136065227
 30
0.0
 11
-1212.160675197518
 21
1829.910136065227
 31
0.0
  0
LINE
  5
1A6B4
330
1A
100
AcDbEntity
  8
_2-4_PARTS
  6
CONTINUOUS
 62
     7
100
AcDbLine
 10
-1211.800675197518
 20
1828.790136065227
 30
0.0
 11
-1211.800675197518
 21
1829.270136065227
 31
0.0
  0
LINE
  5
1A6B5
330
1A
100
AcDbEntity
  8
_2-4_PARTS
  6
CONTINUOUS
 62
     7
100
AcDbLine
 10
-1211.800675197518
 20
1830.350136065227
 30
0.0
 11
-1211.800675197518
 21
1830.550136065227
 31
0.0
  0
LINE
  5
1A6B6
330
1A
100
AcDbEntity
  8
_2-4_PARTS
  6
CONTINUOUS
 62
     7
100
AcDbLine
 10
-1211.520675197518
 20
1830.350136065227
 30
0.0
 11
-1211.800675197518
 21
1830.350136065227
 31
0.0
  0
LINE
  5
1A6B7
330
1A
100
AcDbEntity
  8
_2-4_PARTS
  6
CONTINUOUS
 62
     7
100
AcDbLine
 10
-1211.800675197518
 20
1829.270136065227
 30
0.0
 11
-1211.520675197518
 21
1829.270136065227
 31
0.0
  0
LINE
  5
1A6B8
330
1A
100
AcDbEntity
  8
_2-4_PARTS
  6
CONTINUOUS
 62
     7
100
AcDbLine
 10
-1212.000675197518
 20
1828.590136065227
 30
0.0
 11
-1212.000675197518
 21
1829.625691620783
 31
0.0
  0
ARC
  5
1A6B9
330
1A
100
AcDbEntity
  8
_2-4_PARTS
  6
CONTINUOUS
 62
     7
100
AcDbCircle
 10
-1211.720675197518
 20
1830.350136065227
 30
0.0
 40
0.2
100
AcDbArc
 50
0.0
 51
90.0
  0
LINE
  5
1A6BA
330
1A
100
AcDbEntity
  8
_2-4_PARTS
  6
CONTINUOUS
 62
     7
100
AcDbLine
 10
-1209.500675197518
 20
1831.230136065227
 30
0.0
 11
-1209.500675197518
 21
1828.590136065227
 31
0.0
  0
LINE
  5
1A6BB
330
1A
100
AcDbEntity
  8
_2-4_PARTS
  6
CONTINUOUS
 62
     7
100
AcDbLine
 10
-1209.300675197518
 20
1831.030136065227
 30
0.0
 11
-1209.300675197518
 21
1828.790136065227
 31
0.0
  0
LINE
  5
1A6BC
330
1A
100
AcDbEntity
  8
_2-4_PARTS
  6
CONTINUOUS
 62
     7
100
AcDbLine
 10
-1209.300675197518
 20
1828.790136065227
 30
0.0
 11
-1209.500675197518
 21
1828.590136065227
 31
0.0
  0
LINE
  5
1A6BD
330
1A
100
AcDbEntity
  8
_2-4_PARTS
  6
CONTINUOUS
 62
     7
100
AcDbLine
 10
-1209.300675197518
 20
1831.030136065227
 30
0.0
 11
-1209.500675197518
 21
1831.230136065227
 31
0.0
  0
LINE
  5
1A6BE
330
1A
100
AcDbEntity
  8
_2-4_PARTS
  6
CONTINUOUS
 62
     7
100
AcDbLine
 10
-1209.300675197518
 20
1828.790136065227
 30
0.0
 11
-1209.020675197518
 21
1828.790136065227
 31
0.0
  0
LINE
  5
1A6BF
330
1A
100
AcDbEntity
  8
_2-4_PARTS
  6
CONTINUOUS
 62
     7
100
AcDbLine
 10
-1209.300675197518
 20
1830.550136065227
 30
0.0
 11
-1209.300675197518
 21
1829.270136065227
 31
0.0
  0
LINE
  5
1A6C0
330
1A
100
AcDbEntity
  8
_2-4_PARTS
  6
CONTINUOUS
 62
     7
100
AcDbLine
 10
-1209.020675197518
 20
1829.270136065227
 30
0.0
 11
-1209.020675197518
 21
1828.790136065227
 31
0.0
  0
LINE
  5
1A6C1
330
1A
100
AcDbEntity
  8
_2-4_PARTS
  6
CONTINUOUS
 62
     7
100
AcDbLine
 10
-1209.020675197518
 20
1830.550136065227
 30
0.0
 11
-1209.020675197518
 21
1830.350136065227
 31
0.0
  0
LINE
  5
1A6C2
330
1A
100
AcDbEntity
  8
_2-4_PARTS
  6
CONTINUOUS
 62
     7
100
AcDbLine
 10
-1209.020675197518
 20
1830.350136065227
 30
0.0
 11
-1209.300675197518
 21
1830.350136065227
 31
0.0
  0
LINE
  5
1A6C3
330
1A
100
AcDbEntity
  8
_2-4_PARTS
  6
CONTINUOUS
 62
     7
100
AcDbLine
 10
-1209.300675197518
 20
1829.270136065227
 30
0.0
 11
-1209.020675197518
 21
1829.270136065227
 31
0.0
  0
ARC
  5
1A6C4
330
1A
100
AcDbEntity
  8
_2-4_PARTS
  6
CONTINUOUS
 62
     7
100
AcDbCircle
 10
-1209.100675197518
 20
1830.350136065227
 30
0.0
 40
0.2
100
AcDbArc
 50
90.0
 51
180.0
  0
LINE
  5
1A6C5
330
1A
100
AcDbEntity
  8
_2-4_PARTS
  6
CONTINUOUS
 62
     7
100
AcDbLine
 10
-1214.820675197518
 20
1831.230136065227
 30
0.0
 11
-1214.820675197518
 21
1828.590136065227
 31
0.0
  0
LINE
  5
1A6C6
330
1A
100
AcDbEntity
  8
_2-4_PARTS
  6
CONTINUOUS
 62
     7
100
AcDbLine
 10
-1215.020675197518
 20
1831.030136065227
 30
0.0
 11
-1215.020675197518
 21
1828.790136065227
 31
0.0
  0
LINE
  5
1A6C7
330
1A
100
AcDbEntity
  8
_2-4_PARTS
  6
CONTINUOUS
 62
     7
100
AcDbLine
 10
-1215.020675197518
 20
1828.790136065227
 30
0.0
 11
-1214.820675197518
 21
1828.590136065227
 31
0.0
  0
LINE
  5
1A6C8
330
1A
100
AcDbEntity
  8
_2-4_PARTS
  6
CONTINUOUS
 62
     7
100
AcDbLine
 10
-1215.020675197518
 20
1831.030136065227
 30
0.0
 11
-1214.820675197518
 21
1831.230136065227
 31
0.0
  0
LINE
  5
1A6C9
330
1A
100
AcDbEntity
  8
_2-4_PARTS
  6
CONTINUOUS
 62
     7
100
AcDbLine
 10
-1214.820675197518
 20
1828.590136065227
 30
0.0
 11
-1215.500675197518
 21
1828.590136065227
 31
0.0
  0
LINE
  5
1A6CA
330
1A
100
AcDbEntity
  8
_2-4_PARTS
  6
CONTINUOUS
 62
     7
100
AcDbLine
 10
-1215.020675197518
 20
1828.790136065227
 30
0.0
 11
-1215.300675197518
 21
1828.790136065227
 31
0.0
  0
LINE
  5
1A6CB
330
1A
100
AcDbEntity
  8
_2-4_PARTS
  6
CONTINUOUS
 62
     7
100
AcDbLine
 10
-1216.020675197518
 20
1828.790136065227
 30
0.0
 11
-1215.820675197518
 21
1828.590136065227
 31
0.0
  0
LINE
  5
1A6CC
330
1A
100
AcDbEntity
  8
_2-4_PARTS
  6
CONTINUOUS
 62
     7
100
AcDbLine
 10
-1215.500675197518
 20
1828.590136065227
 30
0.0
 11
-1215.300675197518
 21
1828.790136065227
 31
0.0
  0
LINE
  5
1A6CD
330
1A
100
AcDbEntity
  8
_2-4_PARTS
  6
CONTINUOUS
 62
     7
100
AcDbLine
 10
-1215.020675197518
 20
1830.550136065227
 30
0.0
 11
-1215.020675197518
 21
1829.270136065227
 31
0.0
  0
LINE
  5
1A6CE
330
1A
100
AcDbEntity
  8
_2-4_PARTS
  6
CONTINUOUS
 62
     7
100
AcDbLine
 10
-1215.660675197518
 20
1829.910136065227
 30
0.0
 11
-1216.020675197518
 21
1829.270136065227
 31
0.0
  0
LINE
  5
1A6CF
330
1A
100
AcDbEntity
  8
_2-4_PARTS
  6
CONTINUOUS
 62
     7
100
AcDbLine
 10
-1215.660675197518
 20
1829.910136065227
 30
0.0
 11
-1215.300675197518
 21
1829.270136065227
 31
0.0
  0
LINE
  5
1A6D0
330
1A
100
AcDbEntity
  8
_2-4_PARTS
  6
CONTINUOUS
 62
     7
100
AcDbLine
 10
-1215.660675197518
 20
1829.910136065227
 30
0.0
 11
-1215.020675197518
 21
1829.270136065227
 31
0.0
  0
LINE
  5
1A6D1
330
1A
100
AcDbEntity
  8
_2-4_PARTS
  6
CONTINUOUS
 62
     7
100
AcDbLine
 10
-1215.660675197518
 20
1829.910136065227
 30
0.0
 11
-1216.020675197518
 21
1830.350136065227
 31
0.0
  0
LINE
  5
1A6D2
330
1A
100
AcDbEntity
  8
_2-4_PARTS
  6
CONTINUOUS
 62
     7
100
AcDbLine
 10
-1215.660675197518
 20
1829.910136065227
 30
0.0
 11
-1216.020675197518
 21
1830.550136065227
 31
0.0
  0
LINE
  5
1A6D3
330
1A
100
AcDbEntity
  8
_2-4_PARTS
  6
CONTINUOUS
 62
     7
100
AcDbLine
 10
-1215.300675197518
 20
1830.550136065227
 30
0.0
 11
-1215.660675197518
 21
1829.910136065227
 31
0.0
  0
LINE
  5
1A6D4
330
1A
100
AcDbEntity
  8
_2-4_PARTS
  6
CONTINUOUS
 62
     7
100
AcDbLine
 10
-1215.300675197518
 20
1830.350136065227
 30
0.0
 11
-1215.660675197518
 21
1829.910136065227
 31
0.0
  0
LINE
  5
1A6D5
330
1A
100
AcDbEntity
  8
_2-4_PARTS
  6
CONTINUOUS
 62
     7
100
AcDbLine
 10
-1215.020675197518
 20
1830.350136065227
 30
0.0
 11
-1215.660675197518
 21
1829.910136065227
 31
0.0
  0
LINE
  5
1A6D6
330
1A
100
AcDbEntity
  8
_2-4_PARTS
  6
CONTINUOUS
 62
     7
100
AcDbLine
 10
-1216.020675197518
 20
1828.790136065227
 30
0.0
 11
-1216.020675197518
 21
1829.270136065227
 31
0.0
  0
LINE
  5
1A6D7
330
1A
100
AcDbEntity
  8
_2-4_PARTS
  6
CONTINUOUS
 62
     7
100
AcDbLine
 10
-1216.020675197518
 20
1830.350136065227
 30
0.0
 11
-1216.020675197518
 21
1830.550136065227
 31
0.0
  0
LINE
  5
1A6D8
330
1A
100
AcDbEntity
  8
_2-4_PARTS
  6
CONTINUOUS
 62
     7
100
AcDbLine
 10
-1215.300675197518
 20
1829.270136065227
 30
0.0
 11
-1215.300675197518
 21
1828.790136065227
 31
0.0
  0
LINE
  5
1A6D9
330
1A
100
AcDbEntity
  8
_2-4_PARTS
  6
CONTINUOUS
 62
     7
100
AcDbLine
 10
-1215.300675197518
 20
1830.550136065227
 30
0.0
 11
-1215.300675197518
 21
1830.350136065227
 31
0.0
  0
LINE
  5
1A6DA
330
1A
100
AcDbEntity
  8
_2-4_PARTS
  6
CONTINUOUS
 62
     7
100
AcDbLine
 10
-1215.300675197518
 20
1830.350136065227
 30
0.0
 11
-1215.020675197518
 21
1830.350136065227
 31
0.0
  0
LINE
  5
1A6DB
330
1A
100
AcDbEntity
  8
_2-4_PARTS
  6
CONTINUOUS
 62
     7
100
AcDbLine
 10
-1215.020675197518
 20
1829.270136065227
 30
0.0
 11
-1215.300675197518
 21
1829.270136065227
 31
0.0
  0
LINE
  5
1A6DC
330
1A
100
AcDbEntity
  8
_2-4_PARTS
  6
CONTINUOUS
 62
     7
100
AcDbLine
 10
-1215.820675197518
 20
1828.590136065227
 30
0.0
 11
-1215.820675197518
 21
1829.625691620783
 31
0.0
  0
LINE
  5
1A6DD
330
1A
100
AcDbEntity
  8
_2-4_PARTS
  6
CONTINUOUS
 62
     7
100
AcDbLine
 10
-1215.500675197518
 20
1829.625691620783
 30
0.0
 11
-1215.500675197518
 21
1828.590136065227
 31
0.0
  0
ARC
  5
1A6DE
330
1A
100
AcDbEntity
  8
_2-4_PARTS
  6
CONTINUOUS
 62
     7
100
AcDbCircle
 10
-1215.220675197518
 20
1830.350136065227
 30
0.0
 40
0.2
100
AcDbArc
 50
0.0
 51
90.0
  0
LINE
  5
1A6DF
330
1A
100
AcDbEntity
  8
_2-4_PARTS
  6
CONTINUOUS
 62
     7
100
AcDbLine
 10
-1216.100675197518
 20
1830.550136065227
 30
0.0
 11
-1215.220675197518
 21
1830.550136065227
 31
0.0
  0
LINE
  5
1A6E0
330
1A
100
AcDbEntity
  8
_2-4_PARTS
  6
CONTINUOUS
 62
     7
100
AcDbLine
 10
-1213.000675197518
 20
1831.230136065227
 30
0.0
 11
-1213.000675197518
 21
1828.590136065227
 31
0.0
  0
LINE
  5
1A6E1
330
1A
100
AcDbEntity
  8
_2-4_PARTS
  6
CONTINUOUS
 62
     7
100
AcDbLine
 10
-1212.800675197518
 20
1831.030136065227
 30
0.0
 11
-1212.800675197518
 21
1828.790136065227
 31
0.0
  0
LINE
  5
1A6E2
330
1A
100
AcDbEntity
  8
_2-4_PARTS
  6
CONTINUOUS
 62
     7
100
AcDbLine
 10
-1212.800675197518
 20
1828.790136065227
 30
0.0
 11
-1213.000675197518
 21
1828.590136065227
 31
0.0
  0
LINE
  5
1A6E3
330
1A
100
AcDbEntity
  8
_2-4_PARTS
  6
CONTINUOUS
 62
     7
100
AcDbLine
 10
-1212.800675197518
 20
1831.030136065227
 30
0.0
 11
-1213.000675197518
 21
1831.230136065227
 31
0.0
  0
LINE
  5
1A6E4
330
1A
100
AcDbEntity
  8
_2-4_PARTS
  6
CONTINUOUS
 62
     7
100
AcDbLine
 10
-1213.000675197518
 20
1828.590136065227
 30
0.0
 11
-1212.320675197518
 21
1828.590136065227
 31
0.0
  0
LINE
  5
1A6E5
330
1A
100
AcDbEntity
  8
_2-4_PARTS
  6
CONTINUOUS
 62
     7
100
AcDbLine
 10
-1212.800675197518
 20
1828.790136065227
 30
0.0
 11
-1212.520675197518
 21
1828.790136065227
 31
0.0
  0
LINE
  5
1A6E6
330
1A
100
AcDbEntity
  8
_2-4_PARTS
  6
CONTINUOUS
 62
     7
100
AcDbLine
 10
-1212.320675197518
 20
1828.590136065227
 30
0.0
 11
-1212.520675197518
 21
1828.790136065227
 31
0.0
  0
LINE
  5
1A6E7
330
1A
100
AcDbEntity
  8
_2-4_PARTS
  6
CONTINUOUS
 62
     7
100
AcDbLine
 10
-1212.800675197518
 20
1830.550136065227
 30
0.0
 11
-1212.800675197518
 21
1829.270136065227
 31
0.0
  0
LINE
  5
1A6E8
330
1A
100
AcDbEntity
  8
_2-4_PARTS
  6
CONTINUOUS
 62
     7
100
AcDbLine
 10
-1212.520675197518
 20
1829.270136065227
 30
0.0
 11
-1212.520675197518
 21
1828.790136065227
 31
0.0
  0
LINE
  5
1A6E9
330
1A
100
AcDbEntity
  8
_2-4_PARTS
  6
CONTINUOUS
 62
     7
100
AcDbLine
 10
-1212.520675197518
 20
1830.550136065227
 30
0.0
 11
-1212.520675197518
 21
1830.350136065227
 31
0.0
  0
LINE
  5
1A6EA
330
1A
100
AcDbEntity
  8
_2-4_PARTS
  6
CONTINUOUS
 62
     7
100
AcDbLine
 10
-1212.520675197518
 20
1830.350136065227
 30
0.0
 11
-1212.800675197518
 21
1830.350136065227
 31
0.0
  0
LINE
  5
1A6EB
330
1A
100
AcDbEntity
  8
_2-4_PARTS
  6
CONTINUOUS
 62
     7
100
AcDbLine
 10
-1212.800675197518
 20
1829.270136065227
 30
0.0
 11
-1212.520675197518
 21
1829.270136065227
 31
0.0
  0
LINE
  5
1A6EC
330
1A
100
AcDbEntity
  8
_2-4_PARTS
  6
CONTINUOUS
 62
     7
100
AcDbLine
 10
-1212.320675197518
 20
1829.625691620783
 30
0.0
 11
-1212.320675197518
 21
1828.590136065227
 31
0.0
  0
ARC
  5
1A6ED
330
1A
100
AcDbEntity
  8
_2-4_PARTS
  6
CONTINUOUS
 62
     7
100
AcDbCircle
 10
-1212.600675197518
 20
1830.350136065227
 30
0.0
 40
0.2
100
AcDbArc
 50
90.0
 51
180.0
  0
LINE
  5
1A6EE
330
1A
100
AcDbEntity
  8
_2-4_PARTS
  6
CONTINUOUS
 62
     7
100
AcDbLine
 10
-1211.320675197518
 20
1831.230136065227
 30
0.0
 11
-1213.000675197518
 21
1831.230136065227
 31
0.0
  0
LINE
  5
1A6EF
330
1A
100
AcDbEntity
  8
_2-4_PARTS
  6
CONTINUOUS
 62
     7
100
AcDbLine
 10
-1211.520675197518
 20
1831.030136065227
 30
0.0
 11
-1212.800675197518
 21
1831.030136065227
 31
0.0
  0
LINE
  5
1A6F0
330
1A
100
AcDbEntity
  8
_2-4_PARTS
  6
CONTINUOUS
 62
     7
100
AcDbLine
 10
-1212.160675197518
 20
1829.910136065227
 30
0.0
 11
-1212.520675197518
 21
1829.270136065227
 31
0.0
  0
LINE
  5
1A6F1
330
1A
100
AcDbEntity
  8
_2-4_PARTS
  6
CONTINUOUS
 62
     7
100
AcDbLine
 10
-1212.160675197518
 20
1829.910136065227
 30
0.0
 11
-1212.800675197518
 21
1829.270136065227
 31
0.0
  0
LINE
  5
1A6F2
330
1A
100
AcDbEntity
  8
_2-4_PARTS
  6
CONTINUOUS
 62
     7
100
AcDbLine
 10
-1212.520675197518
 20
1830.550136065227
 30
0.0
 11
-1212.160675197518
 21
1829.910136065227
 31
0.0
  0
LINE
  5
1A6F3
330
1A
100
AcDbEntity
  8
_2-4_PARTS
  6
CONTINUOUS
 62
     7
100
AcDbLine
 10
-1212.520675197518
 20
1830.350136065227
 30
0.0
 11
-1212.160675197518
 21
1829.910136065227
 31
0.0
  0
LINE
  5
1A6F4
330
1A
100
AcDbEntity
  8
_2-4_PARTS
  6
CONTINUOUS
 62
     7
100
AcDbLine
 10
-1212.800675197518
 20
1830.350136065227
 30
0.0
 11
-1212.160675197518
 21
1829.910136065227
 31
0.0
  0
LINE
  5
1A6F5
330
1A
100
AcDbEntity
  8
_2-4_PARTS
  6
CONTINUOUS
 62
     7
100
AcDbLine
 10
-1211.720675197518
 20
1830.550136065227
 30
0.0
 11
-1212.600675197518
 21
1830.550136065227
 31
0.0
  0
LINE
  5
1A6F6
330
1A
100
AcDbEntity
  8
_2-4_PARTS
  6
CONTINUOUS
 62
     7
100
AcDbLine
 10
-1210.960675197518
 20
1826.520136065227
 30
0.0
 11
-1210.960675197518
 21
1827.160136065227
 31
0.0
  0
LINE
  5
1A6F7
330
1A
100
AcDbEntity
  8
_2-4_PARTS
  6
CONTINUOUS
 62
     7
100
AcDbLine
 10
-1215.510675197518
 20
1827.160136065227
 30
0.0
 11
-1215.510675197518
 21
1827.760136065227
 31
0.0
  0
LINE
  5
1A6F8
330
1A
100
AcDbEntity
  8
_2-4_PARTS
  6
CONTINUOUS
 62
     7
100
AcDbLine
 10
-1213.360675197518
 20
1826.520136065227
 30
0.0
 11
-1213.360675197518
 21
1827.160136065227
 31
0.0
  0
LINE
  5
1A6F9
330
1A
100
AcDbEntity
  8
_2-4_PARTS
  6
CONTINUOUS
 62
     7
100
AcDbLine
 10
-1213.360675197518
 20
1826.520136065227
 30
0.0
 11
-1210.960675197518
 21
1826.520136065227
 31
0.0
  0
LINE
  5
1A6FA
330
1A
100
AcDbEntity
  8
_2-4_PARTS
  6
CONTINUOUS
 62
     7
100
AcDbLine
 10
-1216.500675197518
 20
1828.590136065227
 30
0.0
 11
-1216.500675197518
 21
1831.230136065227
 31
0.0
  0
LINE
  5
1A6FB
330
1A
100
AcDbEntity
  8
_2-4_PARTS
  6
CONTINUOUS
 62
     7
100
AcDbLine
 10
-1216.300675197518
 20
1828.790136065227
 30
0.0
 11
-1216.300675197518
 21
1831.030136065227
 31
0.0
  0
LINE
  5
1A6FC
330
1A
100
AcDbEntity
  8
_2-4_PARTS
  6
CONTINUOUS
 62
     7
100
AcDbLine
 10
-1216.500675197518
 20
1828.590136065227
 30
0.0
 11
-1216.300675197518
 21
1828.790136065227
 31
0.0
  0
LINE
  5
1A6FD
330
1A
100
AcDbEntity
  8
_2-4_PARTS
  6
CONTINUOUS
 62
     7
100
AcDbLine
 10
-1216.500675197518
 20
1831.230136065227
 30
0.0
 11
-1216.300675197518
 21
1831.030136065227
 31
0.0
  0
LINE
  5
1A6FE
330
1A
100
AcDbEntity
  8
_2-4_PARTS
  6
CONTINUOUS
 62
     7
100
AcDbLine
 10
-1216.300675197518
 20
1829.270136065227
 30
0.0
 11
-1216.300675197518
 21
1830.550136065227
 31
0.0
  0
LINE
  5
1A6FF
330
1A
100
AcDbEntity
  8
_2-4_PARTS
  6
CONTINUOUS
 62
     7
100
AcDbLine
 10
-1219.600675197518
 20
1830.550136065227
 30
0.0
 11
-1218.720675197518
 21
1830.550136065227
 31
0.0
  0
ARC
  5
1A700
330
1A
100
AcDbEntity
  8
_2-4_PARTS
  6
CONTINUOUS
 62
     7
100
AcDbCircle
 10
-1218.720675197518
 20
1830.350136065227
 30
0.0
 40
0.2
100
AcDbArc
 50
0.0
 51
90.0
  0
ARC
  5
1A701
330
1A
100
AcDbEntity
  8
_2-4_PARTS
  6
CONTINUOUS
 62
     7
100
AcDbCircle
 10
-1219.600675197518
 20
1830.350136065227
 30
0.0
 40
0.2
100
AcDbArc
 50
90.0
 51
180.0
  0
LINE
  5
1A702
330
1A
100
AcDbEntity
  8
_2-4_PARTS
  6
CONTINUOUS
 62
     7
100
AcDbLine
 10
-1219.000675197518
 20
1829.625691620783
 30
0.0
 11
-1219.000675197518
 21
1828.590136065227
 31
0.0
  0
LINE
  5
1A703
330
1A
100
AcDbEntity
  8
_2-4_PARTS
  6
CONTINUOUS
 62
     7
100
AcDbLine
 10
-1219.320675197518
 20
1828.590136065227
 30
0.0
 11
-1219.320675197518
 21
1829.625691620783
 31
0.0
  0
LINE
  5
1A704
330
1A
100
AcDbEntity
  8
_2-4_PARTS
  6
CONTINUOUS
 62
     7
100
AcDbLine
 10
-1219.520675197518
 20
1829.270136065227
 30
0.0
 11
-1219.800675197518
 21
1829.270136065227
 31
0.0
  0
LINE
  5
1A705
330
1A
100
AcDbEntity
  8
_2-4_PARTS
  6
CONTINUOUS
 62
     7
100
AcDbLine
 10
-1218.520675197518
 20
1829.270136065227
 30
0.0
 11
-1218.800675197518
 21
1829.270136065227
 31
0.0
  0
LINE
  5
1A706
330
1A
100
AcDbEntity
  8
_2-4_PARTS
  6
CONTINUOUS
 62
     7
100
AcDbLine
 10
-1218.800675197518
 20
1830.350136065227
 30
0.0
 11
-1218.520675197518
 21
1830.350136065227
 31
0.0
  0
LINE
  5
1A707
330
1A
100
AcDbEntity
  8
_2-4_PARTS
  6
CONTINUOUS
 62
     7
100
AcDbLine
 10
-1219.800675197518
 20
1830.350136065227
 30
0.0
 11
-1219.520675197518
 21
1830.350136065227
 31
0.0
  0
LINE
  5
1A708
330
1A
100
AcDbEntity
  8
_2-4_PARTS
  6
CONTINUOUS
 62
     7
100
AcDbLine
 10
-1218.800675197518
 20
1830.550136065227
 30
0.0
 11
-1218.800675197518
 21
1830.350136065227
 31
0.0
  0
LINE
  5
1A709
330
1A
100
AcDbEntity
  8
_2-4_PARTS
  6
CONTINUOUS
 62
     7
100
AcDbLine
 10
-1218.800675197518
 20
1829.270136065227
 30
0.0
 11
-1218.800675197518
 21
1828.790136065227
 31
0.0
  0
LINE
  5
1A70A
330
1A
100
AcDbEntity
  8
_2-4_PARTS
  6
CONTINUOUS
 62
     7
100
AcDbLine
 10
-1219.520675197518
 20
1830.350136065227
 30
0.0
 11
-1219.520675197518
 21
1830.550136065227
 31
0.0
  0
LINE
  5
1A70B
330
1A
100
AcDbEntity
  8
_2-4_PARTS
  6
CONTINUOUS
 62
     7
100
AcDbLine
 10
-1219.520675197518
 20
1828.790136065227
 30
0.0
 11
-1219.520675197518
 21
1829.270136065227
 31
0.0
  0
LINE
  5
1A70C
330
1A
100
AcDbEntity
  8
_2-4_PARTS
  6
CONTINUOUS
 62
     7
100
AcDbLine
 10
-1219.800675197518
 20
1830.350136065227
 30
0.0
 11
-1219.160675197518
 21
1829.910136065227
 31
0.0
  0
LINE
  5
1A70D
330
1A
100
AcDbEntity
  8
_2-4_PARTS
  6
CONTINUOUS
 62
     7
100
AcDbLine
 10
-1218.520675197518
 20
1830.350136065227
 30
0.0
 11
-1219.160675197518
 21
1829.910136065227
 31
0.0
  0
LINE
  5
1A70E
330
1A
100
AcDbEntity
  8
_2-4_PARTS
  6
CONTINUOUS
 62
     7
100
AcDbLine
 10
-1218.800675197518
 20
1830.350136065227
 30
0.0
 11
-1219.160675197518
 21
1829.910136065227
 31
0.0
  0
LINE
  5
1A70F
330
1A
100
AcDbEntity
  8
_2-4_PARTS
  6
CONTINUOUS
 62
     7
100
AcDbLine
 10
-1218.800675197518
 20
1830.550136065227
 30
0.0
 11
-1219.160675197518
 21
1829.910136065227
 31
0.0
  0
LINE
  5
1A710
330
1A
100
AcDbEntity
  8
_2-4_PARTS
  6
CONTINUOUS
 62
     7
100
AcDbLine
 10
-1219.160675197518
 20
1829.910136065227
 30
0.0
 11
-1219.520675197518
 21
1830.550136065227
 31
0.0
  0
LINE
  5
1A711
330
1A
100
AcDbEntity
  8
_2-4_PARTS
  6
CONTINUOUS
 62
     7
100
AcDbLine
 10
-1219.160675197518
 20
1829.910136065227
 30
0.0
 11
-1219.520675197518
 21
1830.350136065227
 31
0.0
  0
LINE
  5
1A712
330
1A
100
AcDbEntity
  8
_2-4_PARTS
  6
CONTINUOUS
 62
     7
100
AcDbLine
 10
-1219.160675197518
 20
1829.910136065227
 30
0.0
 11
-1218.520675197518
 21
1829.270136065227
 31
0.0
  0
LINE
  5
1A713
330
1A
100
AcDbEntity
  8
_2-4_PARTS
  6
CONTINUOUS
 62
     7
100
AcDbLine
 10
-1219.160675197518
 20
1829.910136065227
 30
0.0
 11
-1218.800675197518
 21
1829.270136065227
 31
0.0
  0
LINE
  5
1A714
330
1A
100
AcDbEntity
  8
_2-4_PARTS
  6
CONTINUOUS
 62
     7
100
AcDbLine
 10
-1219.160675197518
 20
1829.910136065227
 30
0.0
 11
-1219.520675197518
 21
1829.270136065227
 31
0.0
  0
LINE
  5
1A715
330
1A
100
AcDbEntity
  8
_2-4_PARTS
  6
CONTINUOUS
 62
     7
100
AcDbLine
 10
-1219.800675197518
 20
1829.270136065227
 30
0.0
 11
-1219.160675197518
 21
1829.910136065227
 31
0.0
  0
LINE
  5
1A716
330
1A
100
AcDbEntity
  8
_2-4_PARTS
  6
CONTINUOUS
 62
     7
100
AcDbLine
 10
-1219.800675197518
 20
1829.270136065227
 30
0.0
 11
-1219.800675197518
 21
1830.550136065227
 31
0.0
  0
LINE
  5
1A717
330
1A
100
AcDbEntity
  8
_2-4_PARTS
  6
CONTINUOUS
 62
     7
100
AcDbLine
 10
-1218.520675197518
 20
1830.550136065227
 30
0.0
 11
-1218.520675197518
 21
1829.270136065227
 31
0.0
  0
LINE
  5
1A718
330
1A
100
AcDbEntity
  8
_2-4_PARTS
  6
CONTINUOUS
 62
     7
100
AcDbLine
 10
-1219.000675197518
 20
1828.590136065227
 30
0.0
 11
-1218.800675197518
 21
1828.790136065227
 31
0.0
  0
LINE
  5
1A719
330
1A
100
AcDbEntity
  8
_2-4_PARTS
  6
CONTINUOUS
 62
     7
100
AcDbLine
 10
-1219.520675197518
 20
1828.790136065227
 30
0.0
 11
-1219.320675197518
 21
1828.590136065227
 31
0.0
  0
LINE
  5
1A71A
330
1A
100
AcDbEntity
  8
_2-4_PARTS
  6
CONTINUOUS
 62
     7
100
AcDbLine
 10
-1218.520675197518
 20
1828.790136065227
 30
0.0
 11
-1218.800675197518
 21
1828.790136065227
 31
0.0
  0
LINE
  5
1A71B
330
1A
100
AcDbEntity
  8
_2-4_PARTS
  6
CONTINUOUS
 62
     7
100
AcDbLine
 10
-1218.320675197518
 20
1828.590136065227
 30
0.0
 11
-1219.000675197518
 21
1828.590136065227
 31
0.0
  0
LINE
  5
1A71C
330
1A
100
AcDbEntity
  8
_2-4_PARTS
  6
CONTINUOUS
 62
     7
100
AcDbLine
 10
-1219.320675197518
 20
1828.590136065227
 30
0.0
 11
-1220.000675197518
 21
1828.590136065227
 31
0.0
  0
LINE
  5
1A71D
330
1A
100
AcDbEntity
  8
_2-4_PARTS
  6
CONTINUOUS
 62
     7
100
AcDbLine
 10
-1219.520675197518
 20
1828.790136065227
 30
0.0
 11
-1219.800675197518
 21
1828.790136065227
 31
0.0
  0
LINE
  5
1A71E
330
1A
100
AcDbEntity
  8
_2-4_PARTS
  6
CONTINUOUS
 62
     7
100
AcDbLine
 10
-1218.520675197518
 20
1831.030136065227
 30
0.0
 11
-1218.320675197518
 21
1831.230136065227
 31
0.0
  0
LINE
  5
1A71F
330
1A
100
AcDbEntity
  8
_2-4_PARTS
  6
CONTINUOUS
 62
     7
100
AcDbLine
 10
-1220.000675197518
 20
1831.230136065227
 30
0.0
 11
-1219.800675197518
 21
1831.030136065227
 31
0.0
  0
LINE
  5
1A720
330
1A
100
AcDbEntity
  8
_2-4_PARTS
  6
CONTINUOUS
 62
     7
100
AcDbLine
 10
-1218.520675197518
 20
1828.790136065227
 30
0.0
 11
-1218.320675197518
 21
1828.590136065227
 31
0.0
  0
LINE
  5
1A721
330
1A
100
AcDbEntity
  8
_2-4_PARTS
  6
CONTINUOUS
 62
     7
100
AcDbLine
 10
-1220.000675197518
 20
1828.590136065227
 30
0.0
 11
-1219.800675197518
 21
1828.790136065227
 31
0.0
  0
LINE
  5
1A722
330
1A
100
AcDbEntity
  8
_2-4_PARTS
  6
CONTINUOUS
 62
     7
100
AcDbLine
 10
-1219.800675197518
 20
1828.790136065227
 30
0.0
 11
-1219.800675197518
 21
1831.030136065227
 31
0.0
  0
LINE
  5
1A723
330
1A
100
AcDbEntity
  8
_2-4_PARTS
  6
CONTINUOUS
 62
     7
100
AcDbLine
 10
-1219.800675197518
 20
1831.030136065227
 30
0.0
 11
-1218.520675197518
 21
1831.030136065227
 31
0.0
  0
LINE
  5
1A724
330
1A
100
AcDbEntity
  8
_2-4_PARTS
  6
CONTINUOUS
 62
     7
100
AcDbLine
 10
-1218.520675197518
 20
1831.030136065227
 30
0.0
 11
-1218.520675197518
 21
1828.790136065227
 31
0.0
  0
LINE
  5
1A725
330
1A
100
AcDbEntity
  8
_2-4_PARTS
  6
CONTINUOUS
 62
     7
100
AcDbLine
 10
-1220.000675197518
 20
1828.590136065227
 30
0.0
 11
-1220.000675197518
 21
1831.230136065227
 31
0.0
  0
LINE
  5
1A726
330
1A
100
AcDbEntity
  8
_2-4_PARTS
  6
CONTINUOUS
 62
     7
100
AcDbLine
 10
-1218.320675197518
 20
1831.230136065227
 30
0.0
 11
-1218.320675197518
 21
1828.590136065227
 31
0.0
  0
LINE
  5
1A727
330
1A
100
AcDbEntity
  8
_2-4_PARTS
  6
CONTINUOUS
 62
     7
100
AcDbLine
 10
-1220.000675197518
 20
1831.230136065227
 30
0.0
 11
-1218.320675197518
 21
1831.230136065227
 31
0.0
  0
LINE
  5
1A728
330
1A
100
AcDbEntity
  8
_2-4_PARTS
  6
CONTINUOUS
 62
     7
100
AcDbLine
 10
-1216.510675197518
 20
1827.160136065227
 30
0.0
 11
-1216.510675197518
 21
1827.760136065227
 31
0.0
  0
LINE
  5
1A729
330
1A
100
AcDbEntity
  8
_2-4_PARTS
  6
CONTINUOUS
 62
     7
100
AcDbLine
 10
-1216.500675197518
 20
1831.230136065227
 30
0.0
 11
-1214.820675197518
 21
1831.230136065227
 31
0.0
  0
LINE
  5
1A72A
330
1A
100
AcDbEntity
  8
_2-4_PARTS
  6
CONTINUOUS
 62
     7
100
AcDbLine
 10
-1216.300675197518
 20
1831.030136065227
 30
0.0
 11
-1215.020675197518
 21
1831.030136065227
 31
0.0
  0
LINE
  5
1A72B
330
1A
100
AcDbEntity
  8
_2-4_PARTS
  6
CONTINUOUS
 62
     7
100
AcDbLine
 10
-1216.020675197518
 20
1828.790136065227
 30
0.0
 11
-1216.300675197518
 21
1828.790136065227
 31
0.0
  0
LINE
  5
1A72C
330
1A
100
AcDbEntity
  8
_2-4_PARTS
  6
CONTINUOUS
 62
     7
100
AcDbLine
 10
-1215.820675197518
 20
1828.590136065227
 30
0.0
 11
-1216.500675197518
 21
1828.590136065227
 31
0.0
  0
LINE
  5
1A72D
330
1A
100
AcDbEntity
  8
_2-4_PARTS
  6
CONTINUOUS
 62
     7
100
AcDbLine
 10
-1216.300675197518
 20
1829.270136065227
 30
0.0
 11
-1215.660675197518
 21
1829.910136065227
 31
0.0
  0
LINE
  5
1A72E
330
1A
100
AcDbEntity
  8
_2-4_PARTS
  6
CONTINUOUS
 62
     7
100
AcDbLine
 10
-1216.300675197518
 20
1830.350136065227
 30
0.0
 11
-1215.660675197518
 21
1829.910136065227
 31
0.0
  0
LINE
  5
1A72F
330
1A
100
AcDbEntity
  8
_2-4_PARTS
  6
CONTINUOUS
 62
     7
100
AcDbLine
 10
-1216.300675197518
 20
1830.350136065227
 30
0.0
 11
-1216.020675197518
 21
1830.350136065227
 31
0.0
  0
LINE
  5
1A730
330
1A
100
AcDbEntity
  8
_2-4_PARTS
  6
CONTINUOUS
 62
     7
100
AcDbLine
 10
-1216.020675197518
 20
1829.270136065227
 30
0.0
 11
-1216.300675197518
 21
1829.270136065227
 31
0.0
  0
ARC
  5
1A731
330
1A
100
AcDbEntity
  8
_2-4_PARTS
  6
CONTINUOUS
 62
     7
100
AcDbCircle
 10
-1216.100675197518
 20
1830.350136065227
 30
0.0
 40
0.2
100
AcDbArc
 50
90.0
 51
180.0
  0
LINE
  5
1A732
330
1A
100
AcDbEntity
  8
_2-4_PARTS
  6
CONTINUOUS
 62
     7
100
AcDbLine
 10
-1222.960675197518
 20
1828.180136065227
 30
0.0
 11
-1222.960675197518
 21
1834.880136065227
 31
0.0
  0
LINE
  5
1A733
330
1A
100
AcDbEntity
  8
_2-4_PARTS
  6
CONTINUOUS
 62
     7
100
AcDbLine
 10
-1223.810675197518
 20
1834.180136065228
 30
0.0
 11
-1223.810675197518
 21
1828.880136065227
 31
0.0
  0
LINE
  5
1A734
330
1A
100
AcDbEntity
  8
_2-4_PARTS
  6
CONTINUOUS
 62
     7
100
AcDbLine
 10
-1221.160675197518
 20
1834.160136065227
 30
0.0
 11
-1221.160675197518
 21
1827.760136065227
 31
0.0
  0
LINE
  5
1A735
330
1A
100
AcDbEntity
  8
_2-4_PARTS
  6
CONTINUOUS
 62
     7
100
AcDbLine
 10
-1221.860675197518
 20
1834.760136065227
 30
0.0
 11
-1221.860675197518
 21
1827.160136065227
 31
0.0
  0
LINE
  5
1A736
330
1A
100
AcDbEntity
  8
_2-4_PARTS
  6
CONTINUOUS
 62
     7
100
AcDbLine
 10
-1224.810675197518
 20
1829.580136065227
 30
0.0
 11
-1224.810675197518
 21
1828.880136065227
 31
0.0
  0
LINE
  5
1A737
330
1A
100
AcDbEntity
  8
_2-4_PARTS
  6
CONTINUOUS
 62
     7
100
AcDbLine
 10
-1225.310675197518
 20
1829.080136065227
 30
0.0
 11
-1225.310675197518
 21
1828.180136065227
 31
0.0
  0
LINE
  5
1A738
330
1A
100
AcDbEntity
  8
_2-4_PARTS
  6
CONTINUOUS
 62
     7
100
AcDbLine
 10
-1223.810675197518
 20
1828.880136065227
 30
0.0
 11
-1225.310675197518
 21
1828.880136065227
 31
0.0
  0
LINE
  5
1A739
330
1A
100
AcDbEntity
  8
_2-4_PARTS
  6
CONTINUOUS
 62
     7
100
AcDbLine
 10
-1192.610675197518
 20
1834.760136065227
 30
0.0
 11
-1201.710675197518
 21
1834.760136065227
 31
0.0
  0
LINE
  5
1A73A
330
1A
100
AcDbEntity
  8
_2-4_PARTS
  6
CONTINUOUS
 62
     7
100
AcDbLine
 10
-1193.310675197518
 20
1834.160136065227
 30
0.0
 11
-1201.010675197518
 21
1834.160136065227
 31
0.0
  0
LINE
  5
1A73B
330
1A
100
AcDbEntity
  8
_2-4_PARTS
  6
CONTINUOUS
 62
     7
100
AcDbLine
 10
-1194.570675197518
 20
1828.590136065227
 30
0.0
 11
-1194.570675197518
 21
1831.230136065227
 31
0.0
  0
LINE
  5
1A73C
330
1A
100
AcDbEntity
  8
_2-4_PARTS
  6
CONTINUOUS
 62
     7
100
AcDbLine
 10
-1194.770675197518
 20
1828.790136065227
 30
0.0
 11
-1194.770675197518
 21
1831.030136065227
 31
0.0
  0
LINE
  5
1A73D
330
1A
100
AcDbEntity
  8
_2-4_PARTS
  6
CONTINUOUS
 62
     7
100
AcDbLine
 10
-1194.570675197518
 20
1828.590136065227
 30
0.0
 11
-1194.770675197518
 21
1828.790136065227
 31
0.0
  0
LINE
  5
1A73E
330
1A
100
AcDbEntity
  8
_2-4_PARTS
  6
CONTINUOUS
 62
     7
100
AcDbLine
 10
-1194.570675197518
 20
1831.230136065227
 30
0.0
 11
-1194.770675197518
 21
1831.030136065227
 31
0.0
  0
LINE
  5
1A73F
330
1A
100
AcDbEntity
  8
_2-4_PARTS
  6
CONTINUOUS
 62
     7
100
AcDbLine
 10
-1195.050675197518
 20
1828.790136065227
 30
0.0
 11
-1194.770675197518
 21
1828.790136065227
 31
0.0
  0
LINE
  5
1A740
330
1A
100
AcDbEntity
  8
_2-4_PARTS
  6
CONTINUOUS
 62
     7
100
AcDbLine
 10
-1195.250675197518
 20
1828.590136065227
 30
0.0
 11
-1194.570675197518
 21
1828.590136065227
 31
0.0
  0
LINE
  5
1A741
330
1A
100
AcDbEntity
  8
_2-4_PARTS
  6
CONTINUOUS
 62
     7
100
AcDbLine
 10
-1195.050675197518
 20
1828.790136065227
 30
0.0
 11
-1195.250675197518
 21
1828.590136065227
 31
0.0
  0
LINE
  5
1A742
330
1A
100
AcDbEntity
  8
_2-4_PARTS
  6
CONTINUOUS
 62
     7
100
AcDbLine
 10
-1195.570675197518
 20
1828.590136065227
 30
0.0
 11
-1195.770675197518
 21
1828.790136065227
 31
0.0
  0
LINE
  5
1A743
330
1A
100
AcDbEntity
  8
_2-4_PARTS
  6
CONTINUOUS
 62
     7
100
AcDbLine
 10
-1194.770675197518
 20
1829.270136065227
 30
0.0
 11
-1194.770675197518
 21
1830.550136065227
 31
0.0
  0
LINE
  5
1A744
330
1A
100
AcDbEntity
  8
_2-4_PARTS
  6
CONTINUOUS
 62
     7
100
AcDbLine
 10
-1194.770675197518
 20
1829.270136065227
 30
0.0
 11
-1195.410675197518
 21
1829.910136065227
 31
0.0
  0
LINE
  5
1A745
330
1A
100
AcDbEntity
  8
_2-4_PARTS
  6
CONTINUOUS
 62
     7
100
AcDbLine
 10
-1195.410675197518
 20
1829.910136065227
 30
0.0
 11
-1195.050675197518
 21
1829.270136065227
 31
0.0
  0
LINE
  5
1A746
330
1A
100
AcDbEntity
  8
_2-4_PARTS
  6
CONTINUOUS
 62
     7
100
AcDbLine
 10
-1195.410675197518
 20
1829.910136065227
 30
0.0
 11
-1195.770675197518
 21
1829.270136065227
 31
0.0
  0
LINE
  5
1A747
330
1A
100
AcDbEntity
  8
_2-4_PARTS
  6
CONTINUOUS
 62
     7
100
AcDbLine
 10
-1195.410675197518
 20
1829.910136065227
 30
0.0
 11
-1195.050675197518
 21
1830.350136065227
 31
0.0
  0
LINE
  5
1A748
330
1A
100
AcDbEntity
  8
_2-4_PARTS
  6
CONTINUOUS
 62
     7
100
AcDbLine
 10
-1195.410675197518
 20
1829.910136065227
 30
0.0
 11
-1195.050675197518
 21
1830.550136065227
 31
0.0
  0
LINE
  5
1A749
330
1A
100
AcDbEntity
  8
_2-4_PARTS
  6
CONTINUOUS
 62
     7
100
AcDbLine
 10
-1195.770675197518
 20
1830.550136065227
 30
0.0
 11
-1195.410675197518
 21
1829.910136065227
 31
0.0
  0
LINE
  5
1A74A
330
1A
100
AcDbEntity
  8
_2-4_PARTS
  6
CONTINUOUS
 62
     7
100
AcDbLine
 10
-1195.770675197518
 20
1830.350136065227
 30
0.0
 11
-1195.410675197518
 21
1829.910136065227
 31
0.0
  0
LINE
  5
1A74B
330
1A
100
AcDbEntity
  8
_2-4_PARTS
  6
CONTINUOUS
 62
     7
100
AcDbLine
 10
-1194.770675197518
 20
1830.350136065227
 30
0.0
 11
-1195.410675197518
 21
1829.910136065227
 31
0.0
  0
LINE
  5
1A74C
330
1A
100
AcDbEntity
  8
_2-4_PARTS
  6
CONTINUOUS
 62
     7
100
AcDbLine
 10
-1195.050675197518
 20
1828.790136065227
 30
0.0
 11
-1195.050675197518
 21
1829.270136065227
 31
0.0
  0
LINE
  5
1A74D
330
1A
100
AcDbEntity
  8
_2-4_PARTS
  6
CONTINUOUS
 62
     7
100
AcDbLine
 10
-1195.050675197518
 20
1830.350136065227
 30
0.0
 11
-1195.050675197518
 21
1830.550136065227
 31
0.0
  0
LINE
  5
1A74E
330
1A
100
AcDbEntity
  8
_2-4_PARTS
  6
CONTINUOUS
 62
     7
100
AcDbLine
 10
-1195.770675197518
 20
1829.270136065227
 30
0.0
 11
-1195.770675197518
 21
1828.790136065227
 31
0.0
  0
LINE
  5
1A74F
330
1A
100
AcDbEntity
  8
_2-4_PARTS
  6
CONTINUOUS
 62
     7
100
AcDbLine
 10
-1195.770675197518
 20
1830.550136065227
 30
0.0
 11
-1195.770675197518
 21
1830.350136065227
 31
0.0
  0
LINE
  5
1A750
330
1A
100
AcDbEntity
  8
_2-4_PARTS
  6
CONTINUOUS
 62
     7
100
AcDbLine
 10
-1194.770675197518
 20
1830.350136065227
 30
0.0
 11
-1195.050675197518
 21
1830.350136065227
 31
0.0
  0
LINE
  5
1A751
330
1A
100
AcDbEntity
  8
_2-4_PARTS
  6
CONTINUOUS
 62
     7
100
AcDbLine
 10
-1195.050675197518
 20
1829.270136065227
 30
0.0
 11
-1194.770675197518
 21
1829.270136065227
 31
0.0
  0
LINE
  5
1A752
330
1A
100
AcDbEntity
  8
_2-4_PARTS
  6
CONTINUOUS
 62
     7
100
AcDbLine
 10
-1195.250675197518
 20
1828.590136065227
 30
0.0
 11
-1195.250675197518
 21
1829.625691620783
 31
0.0
  0
LINE
  5
1A753
330
1A
100
AcDbEntity
  8
_2-4_PARTS
  6
CONTINUOUS
 62
     7
100
AcDbLine
 10
-1195.570675197518
 20
1829.625691620783
 30
0.0
 11
-1195.570675197518
 21
1828.590136065227
 31
0.0
  0
ARC
  5
1A754
330
1A
100
AcDbEntity
  8
_2-4_PARTS
  6
CONTINUOUS
 62
     7
100
AcDbCircle
 10
-1194.970675197518
 20
1830.350136065227
 30
0.0
 40
0.2
100
AcDbArc
 50
0.0
 51
90.0
  0
LINE
  5
1A755
330
1A
100
AcDbEntity
  8
_2-4_PARTS
  6
CONTINUOUS
 62
     7
100
AcDbLine
 10
-1196.250675197518
 20
1831.230136065227
 30
0.0
 11
-1196.250675197518
 21
1828.590136065227
 31
0.0
  0
LINE
  5
1A756
330
1A
100
AcDbEntity
  8
_2-4_PARTS
  6
CONTINUOUS
 62
     7
100
AcDbLine
 10
-1196.050675197518
 20
1831.030136065227
 30
0.0
 11
-1196.050675197518
 21
1828.790136065227
 31
0.0
  0
LINE
  5
1A757
330
1A
100
AcDbEntity
  8
_2-4_PARTS
  6
CONTINUOUS
 62
     7
100
AcDbLine
 10
-1196.050675197518
 20
1828.790136065227
 30
0.0
 11
-1196.250675197518
 21
1828.590136065227
 31
0.0
  0
LINE
  5
1A758
330
1A
100
AcDbEntity
  8
_2-4_PARTS
  6
CONTINUOUS
 62
     7
100
AcDbLine
 10
-1196.050675197518
 20
1831.030136065227
 30
0.0
 11
-1196.250675197518
 21
1831.230136065227
 31
0.0
  0
LINE
  5
1A759
330
1A
100
AcDbEntity
  8
_2-4_PARTS
  6
CONTINUOUS
 62
     7
100
AcDbLine
 10
-1196.050675197518
 20
1830.550136065227
 30
0.0
 11
-1196.050675197518
 21
1829.270136065227
 31
0.0
  0
ARC
  5
1A75A
330
1A
100
AcDbEntity
  8
_2-4_PARTS
  6
CONTINUOUS
 62
     7
100
AcDbCircle
 10
-1195.850675197518
 20
1830.350136065227
 30
0.0
 40
0.2
100
AcDbArc
 50
90.0
 51
180.0
  0
LINE
  5
1A75B
330
1A
100
AcDbEntity
  8
_2-4_PARTS
  6
CONTINUOUS
 62
     7
100
AcDbLine
 10
-1199.750675197518
 20
1831.230136065227
 30
0.0
 11
-1198.070675197518
 21
1831.230136065227
 31
0.0
  0
LINE
  5
1A75C
330
1A
100
AcDbEntity
  8
_2-4_PARTS
  6
CONTINUOUS
 62
     7
100
AcDbLine
 10
-1198.070675197518
 20
1831.230136065227
 30
0.0
 11
-1198.070675197518
 21
1828.590136065227
 31
0.0
  0
LINE
  5
1A75D
330
1A
100
AcDbEntity
  8
_2-4_PARTS
  6
CONTINUOUS
 62
     7
100
AcDbLine
 10
-1199.750675197518
 20
1828.590136065227
 30
0.0
 11
-1199.750675197518
 21
1831.230136065227
 31
0.0
  0
LINE
  5
1A75E
330
1A
100
AcDbEntity
  8
_2-4_PARTS
  6
CONTINUOUS
 62
     7
100
AcDbLine
 10
-1198.270675197518
 20
1831.030136065227
 30
0.0
 11
-1198.270675197518
 21
1828.790136065227
 31
0.0
  0
LINE
  5
1A75F
330
1A
100
AcDbEntity
  8
_2-4_PARTS
  6
CONTINUOUS
 62
     7
100
AcDbLine
 10
-1199.550675197518
 20
1831.030136065227
 30
0.0
 11
-1198.270675197518
 21
1831.030136065227
 31
0.0
  0
LINE
  5
1A760
330
1A
100
AcDbEntity
  8
_2-4_PARTS
  6
CONTINUOUS
 62
     7
100
AcDbLine
 10
-1199.550675197518
 20
1828.790136065227
 30
0.0
 11
-1199.550675197518
 21
1831.030136065227
 31
0.0
  0
LINE
  5
1A761
330
1A
100
AcDbEntity
  8
_2-4_PARTS
  6
CONTINUOUS
 62
     7
100
AcDbLine
 10
-1199.750675197518
 20
1828.590136065227
 30
0.0
 11
-1199.550675197518
 21
1828.790136065227
 31
0.0
  0
LINE
  5
1A762
330
1A
100
AcDbEntity
  8
_2-4_PARTS
  6
CONTINUOUS
 62
     7
100
AcDbLine
 10
-1198.270675197518
 20
1828.790136065227
 30
0.0
 11
-1198.070675197518
 21
1828.590136065227
 31
0.0
  0
LINE
  5
1A763
330
1A
100
AcDbEntity
  8
_2-4_PARTS
  6
CONTINUOUS
 62
     7
100
AcDbLine
 10
-1199.750675197518
 20
1831.230136065227
 30
0.0
 11
-1199.550675197518
 21
1831.030136065227
 31
0.0
  0
LINE
  5
1A764
330
1A
100
AcDbEntity
  8
_2-4_PARTS
  6
CONTINUOUS
 62
     7
100
AcDbLine
 10
-1198.270675197518
 20
1831.030136065227
 30
0.0
 11
-1198.070675197518
 21
1831.230136065227
 31
0.0
  0
LINE
  5
1A765
330
1A
100
AcDbEntity
  8
_2-4_PARTS
  6
CONTINUOUS
 62
     7
100
AcDbLine
 10
-1199.270675197518
 20
1828.790136065227
 30
0.0
 11
-1199.550675197518
 21
1828.790136065227
 31
0.0
  0
LINE
  5
1A766
330
1A
100
AcDbEntity
  8
_2-4_PARTS
  6
CONTINUOUS
 62
     7
100
AcDbLine
 10
-1199.070675197518
 20
1828.590136065227
 30
0.0
 11
-1199.750675197518
 21
1828.590136065227
 31
0.0
  0
LINE
  5
1A767
330
1A
100
AcDbEntity
  8
_2-4_PARTS
  6
CONTINUOUS
 62
     7
100
AcDbLine
 10
-1198.070675197518
 20
1828.590136065227
 30
0.0
 11
-1198.750675197518
 21
1828.590136065227
 31
0.0
  0
LINE
  5
1A768
330
1A
100
AcDbEntity
  8
_2-4_PARTS
  6
CONTINUOUS
 62
     7
100
AcDbLine
 10
-1198.270675197518
 20
1828.790136065227
 30
0.0
 11
-1198.550675197518
 21
1828.790136065227
 31
0.0
  0
LINE
  5
1A769
330
1A
100
AcDbEntity
  8
_2-4_PARTS
  6
CONTINUOUS
 62
     7
100
AcDbLine
 10
-1199.270675197518
 20
1828.790136065227
 30
0.0
 11
-1199.070675197518
 21
1828.590136065227
 31
0.0
  0
LINE
  5
1A76A
330
1A
100
AcDbEntity
  8
_2-4_PARTS
  6
CONTINUOUS
 62
     7
100
AcDbLine
 10
-1198.750675197518
 20
1828.590136065227
 30
0.0
 11
-1198.550675197518
 21
1828.790136065227
 31
0.0
  0
LINE
  5
1A76B
330
1A
100
AcDbEntity
  8
_2-4_PARTS
  6
CONTINUOUS
 62
     7
100
AcDbLine
 10
-1198.270675197518
 20
1830.550136065227
 30
0.0
 11
-1198.270675197518
 21
1829.270136065227
 31
0.0
  0
LINE
  5
1A76C
330
1A
100
AcDbEntity
  8
_2-4_PARTS
  6
CONTINUOUS
 62
     7
100
AcDbLine
 10
-1199.550675197518
 20
1829.270136065227
 30
0.0
 11
-1199.550675197518
 21
1830.550136065227
 31
0.0
  0
LINE
  5
1A76D
330
1A
100
AcDbEntity
  8
_2-4_PARTS
  6
CONTINUOUS
 62
     7
100
AcDbLine
 10
-1199.550675197518
 20
1829.270136065227
 30
0.0
 11
-1198.910675197518
 21
1829.910136065227
 31
0.0
  0
LINE
  5
1A76E
330
1A
100
AcDbEntity
  8
_2-4_PARTS
  6
CONTINUOUS
 62
     7
100
AcDbLine
 10
-1198.910675197518
 20
1829.910136065227
 30
0.0
 11
-1199.270675197518
 21
1829.270136065227
 31
0.0
  0
LINE
  5
1A76F
330
1A
100
AcDbEntity
  8
_2-4_PARTS
  6
CONTINUOUS
 62
     7
100
AcDbLine
 10
-1198.910675197518
 20
1829.910136065227
 30
0.0
 11
-1198.550675197518
 21
1829.270136065227
 31
0.0
  0
LINE
  5
1A770
330
1A
100
AcDbEntity
  8
_2-4_PARTS
  6
CONTINUOUS
 62
     7
100
AcDbLine
 10
-1198.910675197518
 20
1829.910136065227
 30
0.0
 11
-1198.270675197518
 21
1829.270136065227
 31
0.0
  0
LINE
  5
1A771
330
1A
100
AcDbEntity
  8
_2-4_PARTS
  6
CONTINUOUS
 62
     7
100
AcDbLine
 10
-1198.910675197518
 20
1829.910136065227
 30
0.0
 11
-1199.270675197518
 21
1830.350136065227
 31
0.0
  0
LINE
  5
1A772
330
1A
100
AcDbEntity
  8
_2-4_PARTS
  6
CONTINUOUS
 62
     7
100
AcDbLine
 10
-1198.910675197518
 20
1829.910136065227
 30
0.0
 11
-1199.270675197518
 21
1830.550136065227
 31
0.0
  0
LINE
  5
1A773
330
1A
100
AcDbEntity
  8
_2-4_PARTS
  6
CONTINUOUS
 62
     7
100
AcDbLine
 10
-1198.550675197518
 20
1830.550136065227
 30
0.0
 11
-1198.910675197518
 21
1829.910136065227
 31
0.0
  0
LINE
  5
1A774
330
1A
100
AcDbEntity
  8
_2-4_PARTS
  6
CONTINUOUS
 62
     7
100
AcDbLine
 10
-1198.550675197518
 20
1830.350136065227
 30
0.0
 11
-1198.910675197518
 21
1829.910136065227
 31
0.0
  0
LINE
  5
1A775
330
1A
100
AcDbEntity
  8
_2-4_PARTS
  6
CONTINUOUS
 62
     7
100
AcDbLine
 10
-1198.270675197518
 20
1830.350136065227
 30
0.0
 11
-1198.910675197518
 21
1829.910136065227
 31
0.0
  0
LINE
  5
1A776
330
1A
100
AcDbEntity
  8
_2-4_PARTS
  6
CONTINUOUS
 62
     7
100
AcDbLine
 10
-1199.550675197518
 20
1830.350136065227
 30
0.0
 11
-1198.910675197518
 21
1829.910136065227
 31
0.0
  0
LINE
  5
1A777
330
1A
100
AcDbEntity
  8
_2-4_PARTS
  6
CONTINUOUS
 62
     7
100
AcDbLine
 10
-1199.270675197518
 20
1828.790136065227
 30
0.0
 11
-1199.270675197518
 21
1829.270136065227
 31
0.0
  0
LINE
  5
1A778
330
1A
100
AcDbEntity
  8
_2-4_PARTS
  6
CONTINUOUS
 62
     7
100
AcDbLine
 10
-1199.270675197518
 20
1830.350136065227
 30
0.0
 11
-1199.270675197518
 21
1830.550136065227
 31
0.0
  0
LINE
  5
1A779
330
1A
100
AcDbEntity
  8
_2-4_PARTS
  6
CONTINUOUS
 62
     7
100
AcDbLine
 10
-1198.550675197518
 20
1829.270136065227
 30
0.0
 11
-1198.550675197518
 21
1828.790136065227
 31
0.0
  0
LINE
  5
1A77A
330
1A
100
AcDbEntity
  8
_2-4_PARTS
  6
CONTINUOUS
 62
     7
100
AcDbLine
 10
-1198.550675197518
 20
1830.550136065227
 30
0.0
 11
-1198.550675197518
 21
1830.350136065227
 31
0.0
  0
LINE
  5
1A77B
330
1A
100
AcDbEntity
  8
_2-4_PARTS
  6
CONTINUOUS
 62
     7
100
AcDbLine
 10
-1199.550675197518
 20
1830.350136065227
 30
0.0
 11
-1199.270675197518
 21
1830.350136065227
 31
0.0
  0
LINE
  5
1A77C
330
1A
100
AcDbEntity
  8
_2-4_PARTS
  6
CONTINUOUS
 62
     7
100
AcDbLine
 10
-1198.550675197518
 20
1830.350136065227
 30
0.0
 11
-1198.270675197518
 21
1830.350136065227
 31
0.0
  0
LINE
  5
1A77D
330
1A
100
AcDbEntity
  8
_2-4_PARTS
  6
CONTINUOUS
 62
     7
100
AcDbLine
 10
-1198.270675197518
 20
1829.270136065227
 30
0.0
 11
-1198.550675197518
 21
1829.270136065227
 31
0.0
  0
LINE
  5
1A77E
330
1A
100
AcDbEntity
  8
_2-4_PARTS
  6
CONTINUOUS
 62
     7
100
AcDbLine
 10
-1199.270675197518
 20
1829.270136065227
 30
0.0
 11
-1199.550675197518
 21
1829.270136065227
 31
0.0
  0
LINE
  5
1A77F
330
1A
100
AcDbEntity
  8
_2-4_PARTS
  6
CONTINUOUS
 62
     7
100
AcDbLine
 10
-1199.070675197518
 20
1828.590136065227
 30
0.0
 11
-1199.070675197518
 21
1829.625691620783
 31
0.0
  0
LINE
  5
1A780
330
1A
100
AcDbEntity
  8
_2-4_PARTS
  6
CONTINUOUS
 62
     7
100
AcDbLine
 10
-1198.750675197518
 20
1829.625691620783
 30
0.0
 11
-1198.750675197518
 21
1828.590136065227
 31
0.0
  0
ARC
  5
1A781
330
1A
100
AcDbEntity
  8
_2-4_PARTS
  6
CONTINUOUS
 62
     7
100
AcDbCircle
 10
-1199.350675197518
 20
1830.350136065227
 30
0.0
 40
0.2
100
AcDbArc
 50
90.0
 51
180.0
  0
ARC
  5
1A782
330
1A
100
AcDbEntity
  8
_2-4_PARTS
  6
CONTINUOUS
 62
     7
100
AcDbCircle
 10
-1198.470675197518
 20
1830.350136065227
 30
0.0
 40
0.2
100
AcDbArc
 50
0.0
 51
90.0
  0
LINE
  5
1A783
330
1A
100
AcDbEntity
  8
_2-4_PARTS
  6
CONTINUOUS
 62
     7
100
AcDbLine
 10
-1199.350675197518
 20
1830.550136065227
 30
0.0
 11
-1198.470675197518
 21
1830.550136065227
 31
0.0
  0
LINE
  5
1A784
330
1A
100
AcDbEntity
  8
_2-4_PARTS
  6
CONTINUOUS
 62
     7
100
AcDbLine
 10
-1194.570675197518
 20
1831.230136065227
 30
0.0
 11
-1196.250675197518
 21
1831.230136065227
 31
0.0
  0
LINE
  5
1A785
330
1A
100
AcDbEntity
  8
_2-4_PARTS
  6
CONTINUOUS
 62
     7
100
AcDbLine
 10
-1194.770675197518
 20
1831.030136065227
 30
0.0
 11
-1196.050675197518
 21
1831.030136065227
 31
0.0
  0
LINE
  5
1A786
330
1A
100
AcDbEntity
  8
_2-4_PARTS
  6
CONTINUOUS
 62
     7
100
AcDbLine
 10
-1196.250675197518
 20
1828.590136065227
 30
0.0
 11
-1195.570675197518
 21
1828.590136065227
 31
0.0
  0
LINE
  5
1A787
330
1A
100
AcDbEntity
  8
_2-4_PARTS
  6
CONTINUOUS
 62
     7
100
AcDbLine
 10
-1196.050675197518
 20
1828.790136065227
 30
0.0
 11
-1195.770675197518
 21
1828.790136065227
 31
0.0
  0
LINE
  5
1A788
330
1A
100
AcDbEntity
  8
_2-4_PARTS
  6
CONTINUOUS
 62
     7
100
AcDbLine
 10
-1195.410675197518
 20
1829.910136065227
 30
0.0
 11
-1196.050675197518
 21
1829.270136065227
 31
0.0
  0
LINE
  5
1A789
330
1A
100
AcDbEntity
  8
_2-4_PARTS
  6
CONTINUOUS
 62
     7
100
AcDbLine
 10
-1196.050675197518
 20
1830.350136065227
 30
0.0
 11
-1195.410675197518
 21
1829.910136065227
 31
0.0
  0
LINE
  5
1A78A
330
1A
100
AcDbEntity
  8
_2-4_PARTS
  6
CONTINUOUS
 62
     7
100
AcDbLine
 10
-1195.770675197518
 20
1830.350136065227
 30
0.0
 11
-1196.050675197518
 21
1830.350136065227
 31
0.0
  0
LINE
  5
1A78B
330
1A
100
AcDbEntity
  8
_2-4_PARTS
  6
CONTINUOUS
 62
     7
100
AcDbLine
 10
-1196.050675197518
 20
1829.270136065227
 30
0.0
 11
-1195.770675197518
 21
1829.270136065227
 31
0.0
  0
LINE
  5
1A78C
330
1A
100
AcDbEntity
  8
_2-4_PARTS
  6
CONTINUOUS
 62
     7
100
AcDbLine
 10
-1194.970675197518
 20
1830.550136065227
 30
0.0
 11
-1195.850675197518
 21
1830.550136065227
 31
0.0
  0
LINE
  5
1A78D
330
1A
100
AcDbEntity
  8
_2-4_PARTS
  6
CONTINUOUS
 62
     7
100
AcDbLine
 10
-1194.110675197518
 20
1827.160136065227
 30
0.0
 11
-1194.110675197518
 21
1827.760136065227
 31
0.0
  0
LINE
  5
1A78E
330
1A
100
AcDbEntity
  8
_2-4_PARTS
  6
CONTINUOUS
 62
     7
100
AcDbLine
 10
-1195.110675197518
 20
1827.160136065227
 30
0.0
 11
-1195.110675197518
 21
1827.760136065227
 31
0.0
  0
LINE
  5
1A78F
330
1A
100
AcDbEntity
  8
_2-4_PARTS
  6
CONTINUOUS
 62
     7
100
AcDbLine
 10
-1199.210675197518
 20
1827.160136065227
 30
0.0
 11
-1199.210675197518
 21
1827.760136065227
 31
0.0
  0
LINE
  5
1A790
330
1A
100
AcDbEntity
  8
_2-4_PARTS
  6
CONTINUOUS
 62
     7
100
AcDbLine
 10
-1195.960675197518
 20
1826.520136065227
 30
0.0
 11
-1195.960675197518
 21
1827.160136065227
 31
0.0
  0
LINE
  5
1A791
330
1A
100
AcDbEntity
  8
_2-4_PARTS
  6
CONTINUOUS
 62
     7
100
AcDbLine
 10
-1198.360675197518
 20
1826.520136065227
 30
0.0
 11
-1195.960675197518
 21
1826.520136065227
 31
0.0
  0
LINE
  5
1A792
330
1A
100
AcDbEntity
  8
_2-4_PARTS
  6
CONTINUOUS
 62
     7
100
AcDbLine
 10
-1198.360675197518
 20
1826.520136065227
 30
0.0
 11
-1198.360675197518
 21
1827.160136065227
 31
0.0
  0
LINE
  5
1A793
330
1A
100
AcDbEntity
  8
_2-4_PARTS
  6
CONTINUOUS
 62
     7
100
AcDbLine
 10
-1207.820675197518
 20
1828.590136065227
 30
0.0
 11
-1207.820675197518
 21
1831.230136065227
 31
0.0
  0
LINE
  5
1A794
330
1A
100
AcDbEntity
  8
_2-4_PARTS
  6
CONTINUOUS
 62
     7
100
AcDbLine
 10
-1208.020675197518
 20
1828.790136065227
 30
0.0
 11
-1208.020675197518
 21
1831.030136065227
 31
0.0
  0
LINE
  5
1A795
330
1A
100
AcDbEntity
  8
_2-4_PARTS
  6
CONTINUOUS
 62
     7
100
AcDbLine
 10
-1207.820675197518
 20
1828.590136065227
 30
0.0
 11
-1208.020675197518
 21
1828.790136065227
 31
0.0
  0
LINE
  5
1A796
330
1A
100
AcDbEntity
  8
_2-4_PARTS
  6
CONTINUOUS
 62
     7
100
AcDbLine
 10
-1207.820675197518
 20
1831.230136065227
 30
0.0
 11
-1208.020675197518
 21
1831.030136065227
 31
0.0
  0
LINE
  5
1A797
330
1A
100
AcDbEntity
  8
_2-4_PARTS
  6
CONTINUOUS
 62
     7
100
AcDbLine
 10
-1208.020675197518
 20
1829.270136065227
 30
0.0
 11
-1208.020675197518
 21
1830.550136065227
 31
0.0
  0
LINE
  5
1A798
330
1A
100
AcDbEntity
  8
_2-4_PARTS
  6
CONTINUOUS
 62
     7
100
AcDbLine
 10
-1204.720675197518
 20
1830.550136065227
 30
0.0
 11
-1205.600675197518
 21
1830.550136065227
 31
0.0
  0
ARC
  5
1A799
330
1A
100
AcDbEntity
  8
_2-4_PARTS
  6
CONTINUOUS
 62
     7
100
AcDbCircle
 10
-1205.600675197518
 20
1830.350136065227
 30
0.0
 40
0.2
100
AcDbArc
 50
90.0
 51
180.0
  0
ARC
  5
1A79A
330
1A
100
AcDbEntity
  8
_2-4_PARTS
  6
CONTINUOUS
 62
     7
100
AcDbCircle
 10
-1204.720675197518
 20
1830.350136065227
 30
0.0
 40
0.2
100
AcDbArc
 50
0.0
 51
90.0
  0
LINE
  5
1A79B
330
1A
100
AcDbEntity
  8
_2-4_PARTS
  6
CONTINUOUS
 62
     7
100
AcDbLine
 10
-1205.320675197518
 20
1829.625691620783
 30
0.0
 11
-1205.320675197518
 21
1828.590136065227
 31
0.0
  0
LINE
  5
1A79C
330
1A
100
AcDbEntity
  8
_2-4_PARTS
  6
CONTINUOUS
 62
     7
100
AcDbLine
 10
-1205.000675197518
 20
1828.590136065227
 30
0.0
 11
-1205.000675197518
 21
1829.625691620783
 31
0.0
  0
LINE
  5
1A79D
330
1A
100
AcDbEntity
  8
_2-4_PARTS
  6
CONTINUOUS
 62
     7
100
AcDbLine
 10
-1204.800675197518
 20
1829.270136065227
 30
0.0
 11
-1204.520675197518
 21
1829.270136065227
 31
0.0
  0
LINE
  5
1A79E
330
1A
100
AcDbEntity
  8
_2-4_PARTS
  6
CONTINUOUS
 62
     7
100
AcDbLine
 10
-1205.800675197518
 20
1829.270136065227
 30
0.0
 11
-1205.520675197518
 21
1829.270136065227
 31
0.0
  0
LINE
  5
1A79F
330
1A
100
AcDbEntity
  8
_2-4_PARTS
  6
CONTINUOUS
 62
     7
100
AcDbLine
 10
-1205.520675197518
 20
1830.350136065227
 30
0.0
 11
-1205.800675197518
 21
1830.350136065227
 31
0.0
  0
LINE
  5
1A7A0
330
1A
100
AcDbEntity
  8
_2-4_PARTS
  6
CONTINUOUS
 62
     7
100
AcDbLine
 10
-1204.520675197518
 20
1830.350136065227
 30
0.0
 11
-1204.800675197518
 21
1830.350136065227
 31
0.0
  0
LINE
  5
1A7A1
330
1A
100
AcDbEntity
  8
_2-4_PARTS
  6
CONTINUOUS
 62
     7
100
AcDbLine
 10
-1205.520675197518
 20
1830.550136065227
 30
0.0
 11
-1205.520675197518
 21
1830.350136065227
 31
0.0
  0
LINE
  5
1A7A2
330
1A
100
AcDbEntity
  8
_2-4_PARTS
  6
CONTINUOUS
 62
     7
100
AcDbLine
 10
-1205.520675197518
 20
1829.270136065227
 30
0.0
 11
-1205.520675197518
 21
1828.790136065227
 31
0.0
  0
LINE
  5
1A7A3
330
1A
100
AcDbEntity
  8
_2-4_PARTS
  6
CONTINUOUS
 62
     7
100
AcDbLine
 10
-1204.800675197518
 20
1830.350136065227
 30
0.0
 11
-1204.800675197518
 21
1830.550136065227
 31
0.0
  0
LINE
  5
1A7A4
330
1A
100
AcDbEntity
  8
_2-4_PARTS
  6
CONTINUOUS
 62
     7
100
AcDbLine
 10
-1204.800675197518
 20
1828.790136065227
 30
0.0
 11
-1204.800675197518
 21
1829.270136065227
 31
0.0
  0
LINE
  5
1A7A5
330
1A
100
AcDbEntity
  8
_2-4_PARTS
  6
CONTINUOUS
 62
     7
100
AcDbLine
 10
-1204.520675197518
 20
1830.350136065227
 30
0.0
 11
-1205.160675197518
 21
1829.910136065227
 31
0.0
  0
LINE
  5
1A7A6
330
1A
100
AcDbEntity
  8
_2-4_PARTS
  6
CONTINUOUS
 62
     7
100
AcDbLine
 10
-1205.800675197518
 20
1830.350136065227
 30
0.0
 11
-1205.160675197518
 21
1829.910136065227
 31
0.0
  0
LINE
  5
1A7A7
330
1A
100
AcDbEntity
  8
_2-4_PARTS
  6
CONTINUOUS
 62
     7
100
AcDbLine
 10
-1205.520675197518
 20
1830.350136065227
 30
0.0
 11
-1205.160675197518
 21
1829.910136065227
 31
0.0
  0
LINE
  5
1A7A8
330
1A
100
AcDbEntity
  8
_2-4_PARTS
  6
CONTINUOUS
 62
     7
100
AcDbLine
 10
-1205.520675197518
 20
1830.550136065227
 30
0.0
 11
-1205.160675197518
 21
1829.910136065227
 31
0.0
  0
LINE
  5
1A7A9
330
1A
100
AcDbEntity
  8
_2-4_PARTS
  6
CONTINUOUS
 62
     7
100
AcDbLine
 10
-1205.160675197518
 20
1829.910136065227
 30
0.0
 11
-1204.800675197518
 21
1830.550136065227
 31
0.0
  0
LINE
  5
1A7AA
330
1A
100
AcDbEntity
  8
_2-4_PARTS
  6
CONTINUOUS
 62
     7
100
AcDbLine
 10
-1205.160675197518
 20
1829.910136065227
 30
0.0
 11
-1204.800675197518
 21
1830.350136065227
 31
0.0
  0
LINE
  5
1A7AB
330
1A
100
AcDbEntity
  8
_2-4_PARTS
  6
CONTINUOUS
 62
     7
100
AcDbLine
 10
-1205.160675197518
 20
1829.910136065227
 30
0.0
 11
-1205.800675197518
 21
1829.270136065227
 31
0.0
  0
LINE
  5
1A7AC
330
1A
100
AcDbEntity
  8
_2-4_PARTS
  6
CONTINUOUS
 62
     7
100
AcDbLine
 10
-1205.160675197518
 20
1829.910136065227
 30
0.0
 11
-1205.520675197518
 21
1829.270136065227
 31
0.0
  0
LINE
  5
1A7AD
330
1A
100
AcDbEntity
  8
_2-4_PARTS
  6
CONTINUOUS
 62
     7
100
AcDbLine
 10
-1205.160675197518
 20
1829.910136065227
 30
0.0
 11
-1204.800675197518
 21
1829.270136065227
 31
0.0
  0
LINE
  5
1A7AE
330
1A
100
AcDbEntity
  8
_2-4_PARTS
  6
CONTINUOUS
 62
     7
100
AcDbLine
 10
-1204.520675197518
 20
1829.270136065227
 30
0.0
 11
-1205.160675197518
 21
1829.910136065227
 31
0.0
  0
LINE
  5
1A7AF
330
1A
100
AcDbEntity
  8
_2-4_PARTS
  6
CONTINUOUS
 62
     7
100
AcDbLine
 10
-1204.520675197518
 20
1829.270136065227
 30
0.0
 11
-1204.520675197518
 21
1830.550136065227
 31
0.0
  0
LINE
  5
1A7B0
330
1A
100
AcDbEntity
  8
_2-4_PARTS
  6
CONTINUOUS
 62
     7
100
AcDbLine
 10
-1205.800675197518
 20
1830.550136065227
 30
0.0
 11
-1205.800675197518
 21
1829.270136065227
 31
0.0
  0
LINE
  5
1A7B1
330
1A
100
AcDbEntity
  8
_2-4_PARTS
  6
CONTINUOUS
 62
     7
100
AcDbLine
 10
-1205.320675197518
 20
1828.590136065227
 30
0.0
 11
-1205.520675197518
 21
1828.790136065227
 31
0.0
  0
LINE
  5
1A7B2
330
1A
100
AcDbEntity
  8
_2-4_PARTS
  6
CONTINUOUS
 62
     7
100
AcDbLine
 10
-1204.800675197518
 20
1828.790136065227
 30
0.0
 11
-1205.000675197518
 21
1828.590136065227
 31
0.0
  0
LINE
  5
1A7B3
330
1A
100
AcDbEntity
  8
_2-4_PARTS
  6
CONTINUOUS
 62
     7
100
AcDbLine
 10
-1205.800675197518
 20
1828.790136065227
 30
0.0
 11
-1205.520675197518
 21
1828.790136065227
 31
0.0
  0
LINE
  5
1A7B4
330
1A
100
AcDbEntity
  8
_2-4_PARTS
  6
CONTINUOUS
 62
     7
100
AcDbLine
 10
-1206.000675197518
 20
1828.590136065227
 30
0.0
 11
-1205.320675197518
 21
1828.590136065227
 31
0.0
  0
LINE
  5
1A7B5
330
1A
100
AcDbEntity
  8
_2-4_PARTS
  6
CONTINUOUS
 62
     7
100
AcDbLine
 10
-1205.000675197518
 20
1828.590136065227
 30
0.0
 11
-1204.320675197518
 21
1828.590136065227
 31
0.0
  0
LINE
  5
1A7B6
330
1A
100
AcDbEntity
  8
_2-4_PARTS
  6
CONTINUOUS
 62
     7
100
AcDbLine
 10
-1204.800675197518
 20
1828.790136065227
 30
0.0
 11
-1204.520675197518
 21
1828.790136065227
 31
0.0
  0
LINE
  5
1A7B7
330
1A
100
AcDbEntity
  8
_2-4_PARTS
  6
CONTINUOUS
 62
     7
100
AcDbLine
 10
-1205.800675197518
 20
1831.030136065227
 30
0.0
 11
-1206.000675197518
 21
1831.230136065227
 31
0.0
  0
LINE
  5
1A7B8
330
1A
100
AcDbEntity
  8
_2-4_PARTS
  6
CONTINUOUS
 62
     7
100
AcDbLine
 10
-1204.320675197518
 20
1831.230136065227
 30
0.0
 11
-1204.520675197518
 21
1831.030136065227
 31
0.0
  0
LINE
  5
1A7B9
330
1A
100
AcDbEntity
  8
_2-4_PARTS
  6
CONTINUOUS
 62
     7
100
AcDbLine
 10
-1205.800675197518
 20
1828.790136065227
 30
0.0
 11
-1206.000675197518
 21
1828.590136065227
 31
0.0
  0
LINE
  5
1A7BA
330
1A
100
AcDbEntity
  8
_2-4_PARTS
  6
CONTINUOUS
 62
     7
100
AcDbLine
 10
-1204.320675197518
 20
1828.590136065227
 30
0.0
 11
-1204.520675197518
 21
1828.790136065227
 31
0.0
  0
LINE
  5
1A7BB
330
1A
100
AcDbEntity
  8
_2-4_PARTS
  6
CONTINUOUS
 62
     7
100
AcDbLine
 10
-1204.520675197518
 20
1828.790136065227
 30
0.0
 11
-1204.520675197518
 21
1831.030136065227
 31
0.0
  0
LINE
  5
1A7BC
330
1A
100
AcDbEntity
  8
_2-4_PARTS
  6
CONTINUOUS
 62
     7
100
AcDbLine
 10
-1204.520675197518
 20
1831.030136065227
 30
0.0
 11
-1205.800675197518
 21
1831.030136065227
 31
0.0
  0
LINE
  5
1A7BD
330
1A
100
AcDbEntity
  8
_2-4_PARTS
  6
CONTINUOUS
 62
     7
100
AcDbLine
 10
-1205.800675197518
 20
1831.030136065227
 30
0.0
 11
-1205.800675197518
 21
1828.790136065227
 31
0.0
  0
LINE
  5
1A7BE
330
1A
100
AcDbEntity
  8
_2-4_PARTS
  6
CONTINUOUS
 62
     7
100
AcDbLine
 10
-1204.320675197518
 20
1828.590136065227
 30
0.0
 11
-1204.320675197518
 21
1831.230136065227
 31
0.0
  0
LINE
  5
1A7BF
330
1A
100
AcDbEntity
  8
_2-4_PARTS
  6
CONTINUOUS
 62
     7
100
AcDbLine
 10
-1206.000675197518
 20
1831.230136065227
 30
0.0
 11
-1206.000675197518
 21
1828.590136065227
 31
0.0
  0
LINE
  5
1A7C0
330
1A
100
AcDbEntity
  8
_2-4_PARTS
  6
CONTINUOUS
 62
     7
100
AcDbLine
 10
-1204.320675197518
 20
1831.230136065227
 30
0.0
 11
-1206.000675197518
 21
1831.230136065227
 31
0.0
  0
LINE
  5
1A7C1
330
1A
100
AcDbEntity
  8
_2-4_PARTS
  6
CONTINUOUS
 62
     7
100
AcDbLine
 10
-1200.210675197518
 20
1827.160136065227
 30
0.0
 11
-1200.210675197518
 21
1827.760136065227
 31
0.0
  0
LINE
  5
1A7C2
330
1A
100
AcDbEntity
  8
_2-4_PARTS
  6
CONTINUOUS
 62
     7
100
AcDbLine
 10
-1207.810675197518
 20
1827.160136065227
 30
0.0
 11
-1207.810675197518
 21
1827.760136065227
 31
0.0
  0
LINE
  5
1A7C3
330
1A
100
AcDbEntity
  8
_2-4_PARTS
  6
CONTINUOUS
 62
     7
100
AcDbLine
 10
-1201.710675197518
 20
1827.160136065227
 30
0.0
 11
-1192.610675197518
 21
1827.160136065227
 31
0.0
  0
LINE
  5
1A7C4
330
1A
100
AcDbEntity
  8
_2-4_PARTS
  6
CONTINUOUS
 62
     7
100
AcDbLine
 10
-1201.010675197518
 20
1827.760136065227
 30
0.0
 11
-1193.310675197518
 21
1827.760136065227
 31
0.0
  0
LINE
  5
1A7C5
330
1A
100
AcDbEntity
  8
_2-4_PARTS
  6
CONTINUOUS
 62
     7
100
AcDbLine
 10
-1203.160675197518
 20
1827.760136065227
 30
0.0
 11
-1203.160675197518
 21
1834.160136065227
 31
0.0
  0
LINE
  5
1A7C6
330
1A
100
AcDbEntity
  8
_2-4_PARTS
  6
CONTINUOUS
 62
     7
100
AcDbLine
 10
-1202.460675197518
 20
1827.160136065227
 30
0.0
 11
-1202.460675197518
 21
1834.760136065227
 31
0.0
  0
LINE
  5
1A7C7
330
1A
100
AcDbEntity
  8
_2-4_PARTS
  6
CONTINUOUS
 62
     7
100
AcDbLine
 10
-1201.710675197518
 20
1834.760136065227
 30
0.0
 11
-1201.710675197518
 21
1827.160136065227
 31
0.0
  0
LINE
  5
1A7C8
330
1A
100
AcDbEntity
  8
_2-4_PARTS
  6
CONTINUOUS
 62
     7
100
AcDbLine
 10
-1192.610675197518
 20
1827.160136065227
 30
0.0
 11
-1192.610675197518
 21
1834.760136065227
 31
0.0
  0
LINE
  5
1A7C9
330
1A
100
AcDbEntity
  8
_2-4_PARTS
  6
CONTINUOUS
 62
     7
100
AcDbLine
 10
-1201.010675197518
 20
1834.160136065227
 30
0.0
 11
-1201.010675197518
 21
1827.760136065227
 31
0.0
  0
LINE
  5
1A7CA
330
1A
100
AcDbEntity
  8
_2-4_PARTS
  6
CONTINUOUS
 62
     7
100
AcDbLine
 10
-1193.310675197518
 20
1827.760136065227
 30
0.0
 11
-1193.310675197518
 21
1834.160136065227
 31
0.0
  0
LINE
  5
1A7CB
330
1A
100
AcDbEntity
  8
_2-4_PARTS
  6
CONTINUOUS
 62
     7
100
AcDbLine
 10
-1208.300675197518
 20
1828.790136065227
 30
0.0
 11
-1208.500675197518
 21
1828.590136065227
 31
0.0
  0
LINE
  5
1A7CC
330
1A
100
AcDbEntity
  8
_2-4_PARTS
  6
CONTINUOUS
 62
     7
100
AcDbLine
 10
-1208.660675197518
 20
1829.910136065227
 30
0.0
 11
-1208.300675197518
 21
1829.270136065227
 31
0.0
  0
LINE
  5
1A7CD
330
1A
100
AcDbEntity
  8
_2-4_PARTS
  6
CONTINUOUS
 62
     7
100
AcDbLine
 10
-1208.660675197518
 20
1829.910136065227
 30
0.0
 11
-1208.300675197518
 21
1830.350136065227
 31
0.0
  0
LINE
  5
1A7CE
330
1A
100
AcDbEntity
  8
_2-4_PARTS
  6
CONTINUOUS
 62
     7
100
AcDbLine
 10
-1208.660675197518
 20
1829.910136065227
 30
0.0
 11
-1208.300675197518
 21
1830.550136065227
 31
0.0
  0
LINE
  5
1A7CF
330
1A
100
AcDbEntity
  8
_2-4_PARTS
  6
CONTINUOUS
 62
     7
100
AcDbLine
 10
-1208.300675197518
 20
1828.790136065227
 30
0.0
 11
-1208.300675197518
 21
1829.270136065227
 31
0.0
  0
LINE
  5
1A7D0
330
1A
100
AcDbEntity
  8
_2-4_PARTS
  6
CONTINUOUS
 62
     7
100
AcDbLine
 10
-1208.300675197518
 20
1830.350136065227
 30
0.0
 11
-1208.300675197518
 21
1830.550136065227
 31
0.0
  0
LINE
  5
1A7D1
330
1A
100
AcDbEntity
  8
_2-4_PARTS
  6
CONTINUOUS
 62
     7
100
AcDbLine
 10
-1208.500675197518
 20
1828.590136065227
 30
0.0
 11
-1208.500675197518
 21
1829.625691620783
 31
0.0
  0
LINE
  5
1A7D2
330
1A
100
AcDbEntity
  8
_2-4_PARTS
  6
CONTINUOUS
 62
     7
100
AcDbLine
 10
-1208.820675197518
 20
1829.625691620783
 30
0.0
 11
-1208.820675197518
 21
1828.590136065227
 31
0.0
  0
LINE
  5
1A7D3
330
1A
100
AcDbEntity
  8
_2-4_PARTS
  6
CONTINUOUS
 62
     7
100
AcDbLine
 10
-1208.810675197518
 20
1827.160136065227
 30
0.0
 11
-1208.810675197518
 21
1827.760136065227
 31
0.0
  0
LINE
  5
1A7D4
330
1A
100
AcDbEntity
  8
_2-4_PARTS
  6
CONTINUOUS
 62
     7
100
AcDbLine
 10
-1208.300675197518
 20
1828.790136065227
 30
0.0
 11
-1208.020675197518
 21
1828.790136065227
 31
0.0
  0
LINE
  5
1A7D5
330
1A
100
AcDbEntity
  8
_2-4_PARTS
  6
CONTINUOUS
 62
     7
100
AcDbLine
 10
-1208.500675197518
 20
1828.590136065227
 30
0.0
 11
-1207.820675197518
 21
1828.590136065227
 31
0.0
  0
LINE
  5
1A7D6
330
1A
100
AcDbEntity
  8
_2-4_PARTS
  6
CONTINUOUS
 62
     7
100
AcDbLine
 10
-1208.020675197518
 20
1829.270136065227
 30
0.0
 11
-1208.660675197518
 21
1829.910136065227
 31
0.0
  0
LINE
  5
1A7D7
330
1A
100
AcDbEntity
  8
_2-4_PARTS
  6
CONTINUOUS
 62
     7
100
AcDbLine
 10
-1208.020675197518
 20
1830.350136065227
 30
0.0
 11
-1208.660675197518
 21
1829.910136065227
 31
0.0
  0
LINE
  5
1A7D8
330
1A
100
AcDbEntity
  8
_2-4_PARTS
  6
CONTINUOUS
 62
     7
100
AcDbLine
 10
-1208.020675197518
 20
1830.350136065227
 30
0.0
 11
-1208.300675197518
 21
1830.350136065227
 31
0.0
  0
LINE
  5
1A7D9
330
1A
100
AcDbEntity
  8
_2-4_PARTS
  6
CONTINUOUS
 62
     7
100
AcDbLine
 10
-1208.300675197518
 20
1829.270136065227
 30
0.0
 11
-1208.020675197518
 21
1829.270136065227
 31
0.0
  0
ARC
  5
1A7DA
330
1A
100
AcDbEntity
  8
_2-4_PARTS
  6
CONTINUOUS
 62
     7
100
AcDbCircle
 10
-1208.220675197518
 20
1830.350136065227
 30
0.0
 40
0.2
100
AcDbArc
 50
0.0
 51
90.0
  0
LINE
  5
1A7DB
330
1A
100
AcDbEntity
  8
_2-4_PARTS
  6
CONTINUOUS
 62
     7
100
AcDbLine
 10
-1203.010675197518
 20
1805.528249970552
 30
0.0
 11
-1203.010675197518
 21
1805.178249970552
 31
0.0
  0
LINE
  5
1A7DC
330
1A
100
AcDbEntity
  8
_2-4_PARTS
  6
CONTINUOUS
 62
     7
100
AcDbLine
 10
-1202.110675197518
 20
1805.528249970552
 30
0.0
 11
-1202.110675197518
 21
1805.178249970552
 31
0.0
  0
LINE
  5
1A7DD
330
1A
100
AcDbEntity
  8
_2-4_PARTS
  6
CONTINUOUS
 62
     7
100
AcDbLine
 10
-1202.110675197518
 20
1805.528249970552
 30
0.0
 11
-1203.010675197518
 21
1805.528249970552
 31
0.0
  0
LINE
  5
1A7DE
330
1A
100
AcDbEntity
  8
_2-4_PARTS
  6
CONTINUOUS
 62
     7
100
AcDbLine
 10
-1197.410675197517
 20
1805.178249970552
 30
0.0
 11
-1207.710675197517
 21
1805.178249970552
 31
0.0
  0
LINE
  5
1A7DF
330
1A
100
AcDbEntity
  8
CL1
100
AcDbLine
 10
-1188.160675197518
 20
1832.280136065227
 30
0.0
 11
-1188.160675197518
 21
1836.280136065227
 31
0.0
  0
CIRCLE
  5
1A7E0
330
1A
100
AcDbEntity
  8
ZISSEN1
100
AcDbCircle
 10
-1188.160675197518
 20
1834.280136065227
 30
0.0
 40
1.75
  0
LINE
  5
1A7E1
330
1A
100
AcDbEntity
  8
_2-4_PARTS
  6
CONTINUOUS
 62
     7
100
AcDbLine
 10
-1191.210675197518
 20
1805.528249970552
 30
0.0
 11
-1191.210675197518
 21
1805.178249970552
 31
0.0
  0
LINE
  5
1A7E2
330
1A
100
AcDbEntity
  8
_2-4_PARTS
  6
CONTINUOUS
 62
     7
100
AcDbLine
 10
-1192.110675197518
 20
1805.528249970552
 30
0.0
 11
-1192.110675197518
 21
1805.178249970552
 31
0.0
  0
LINE
  5
1A7E3
330
1A
100
AcDbEntity
  8
_2-4_PARTS
  6
CONTINUOUS
 62
     7
100
AcDbLine
 10
-1191.210675197518
 20
1805.528249970552
 30
0.0
 11
-1192.110675197518
 21
1805.528249970552
 31
0.0
  0
LINE
  5
1A7E4
330
1A
100
AcDbEntity
  8
CL1
100
AcDbLine
 10
-1186.160675197518
 20
1834.280136065227
 30
0.0
 11
-1190.160675197518
 21
1834.280136065227
 31
0.0
  0
ARC
  5
1A7E7
330
1A
100
AcDbEntity
  8
ZISSEN1
100
AcDbCircle
 10
-1184.660675197518
 20
1837.780136065227
 30
0.0
 40
1.0
100
AcDbArc
 50
180.0
 51
270.0
  0
LINE
  5
1A7E8
330
1A
100
AcDbEntity
  8
_2-4_PARTS
  6
CONTINUOUS
 62
     7
100
AcDbLine
 10
-1225.260675197518
 20
1873.261034642833
 30
0.0
 11
-1225.560675197518
 21
1873.261034642833
 31
0.0
  0
LINE
  5
1A7E9
330
1A
100
AcDbEntity
  8
_2-4_PARTS
  6
CONTINUOUS
 62
     7
100
AcDbLine
 10
-1226.160675197518
 20
1869.561034642833
 30
0.0
 11
-1224.660675197518
 21
1869.561034642833
 31
0.0
  0
ARC
  5
1A7EA
330
1A
100
AcDbEntity
  8
_2-4_PARTS
  6
CONTINUOUS
 62
     7
100
AcDbCircle
 10
-1225.960675197518
 20
1859.861034642833
 30
0.0
 40
0.5
100
AcDbArc
 50
0.0
 51
90.0
  0
LINE
  5
1A7EB
330
1A
100
AcDbEntity
  8
_2-4_PARTS
  6
CONTINUOUS
 62
     7
100
AcDbLine
 10
-1224.660675197518
 20
1868.761034642833
 30
0.0
 11
-1253.660675197518
 21
1868.761034642833
 31
0.0
  0
LINE
  5
1A7EC
330
1A
100
AcDbEntity
  8
ZISSEN1
100
AcDbLine
 10
-1263.160675197518
 20
1871.461034642833
 30
0.0
 11
-1184.660675197518
 21
1871.461034642833
 31
0.0
  0
LINE
  5
1A7ED
330
1A
100
AcDbEntity
  8
ZISSEN1
100
AcDbLine
 10
-1263.160675197518
 20
1869.861034642833
 30
0.0
 11
-1184.660675197518
 21
1869.861034642833
 31
0.0
  0
LINE
  5
1A7EE
330
1A
100
AcDbEntity
  8
ZISSEN1
100
AcDbLine
 10
-1263.160675197518
 20
1871.461034642833
 30
0.0
 11
-1263.160675197518
 21
1869.861034642833
 31
0.0
  0
LINE
  5
1A7EF
330
1A
100
AcDbEntity
  8
ZISSEN1
100
AcDbLine
 10
-1262.160675197518
 20
1871.461034642833
 30
0.0
 11
-1262.160675197518
 21
1869.861034642833
 31
0.0
  0
LINE
  5
1A7F0
330
1A
100
AcDbEntity
  8
_2-4_PARTS
  6
CONTINUOUS
 62
     7
100
AcDbLine
 10
-1242.160675197518
 20
1869.561034642833
 30
0.0
 11
-1243.660675197518
 21
1869.561034642833
 31
0.0
  0
LINE
  5
1A7F1
330
1A
100
AcDbEntity
  8
_2-4_PARTS
  6
CONTINUOUS
 62
     7
100
AcDbLine
 10
-1252.360675197518
 20
1860.361034642833
 30
0.0
 11
-1225.960675197518
 21
1860.361034642833
 31
0.0
  0
LINE
  5
1A7F2
330
1A
100
AcDbEntity
  8
_2-4_PARTS
  6
CONTINUOUS
 62
     7
100
AcDbLine
 10
-1242.760675197518
 20
1873.261034642833
 30
0.0
 11
-1243.060675197518
 21
1873.261034642833
 31
0.0
  0
LINE
  5
1A7F3
330
1A
100
AcDbEntity
  8
_2-4_PARTS
  6
CONTINUOUS
 62
     7
100
AcDbLine
 10
-1242.760675197518
 20
1873.261034642833
 30
0.0
 11
-1242.610675197518
 21
1872.761034642834
 31
0.0
  0
LINE
  5
1A7F4
330
1A
100
AcDbEntity
  8
_2-4_PARTS
  6
CONTINUOUS
 62
     7
100
AcDbLine
 10
-1243.060675197518
 20
1873.261034642833
 30
0.0
 11
-1243.210675197518
 21
1872.761034642834
 31
0.0
  0
LINE
  5
1A7F5
330
1A
100
AcDbEntity
  8
_2-4_PARTS
  6
CONTINUOUS
 62
     7
100
AcDbLine
 10
-1243.210675197518
 20
1871.461034642833
 30
0.0
 11
-1243.210675197518
 21
1872.761034642834
 31
0.0
  0
LINE
  5
1A7F6
330
1A
100
AcDbEntity
  8
_2-4_PARTS
  6
CONTINUOUS
 62
     7
100
AcDbLine
 10
-1242.610675197518
 20
1871.461034642833
 30
0.0
 11
-1242.610675197518
 21
1872.761034642834
 31
0.0
  0
LINE
  5
1A7F7
330
1A
100
AcDbEntity
  8
_2-4_PARTS
  6
CONTINUOUS
 62
     7
100
AcDbLine
 10
-1245.260675197518
 20
1873.261034642833
 30
0.0
 11
-1245.560675197518
 21
1873.261034642833
 31
0.0
  0
LINE
  5
1A7F8
330
1A
100
AcDbEntity
  8
_2-4_PARTS
  6
CONTINUOUS
 62
     7
100
AcDbLine
 10
-1245.260675197518
 20
1873.261034642833
 30
0.0
 11
-1245.110675197518
 21
1872.761034642834
 31
0.0
  0
LINE
  5
1A7F9
330
1A
100
AcDbEntity
  8
_2-4_PARTS
  6
CONTINUOUS
 62
     7
100
AcDbLine
 10
-1245.560675197518
 20
1873.261034642833
 30
0.0
 11
-1245.710675197518
 21
1872.761034642834
 31
0.0
  0
LINE
  5
1A7FA
330
1A
100
AcDbEntity
  8
_2-4_PARTS
  6
CONTINUOUS
 62
     7
100
AcDbLine
 10
-1247.760675197518
 20
1873.261034642833
 30
0.0
 11
-1248.060675197518
 21
1873.261034642833
 31
0.0
  0
LINE
  5
1A7FB
330
1A
100
AcDbEntity
  8
_2-4_PARTS
  6
CONTINUOUS
 62
     7
100
AcDbLine
 10
-1247.760675197518
 20
1873.261034642833
 30
0.0
 11
-1247.610675197518
 21
1872.761034642834
 31
0.0
  0
LINE
  5
1A7FC
330
1A
100
AcDbEntity
  8
_2-4_PARTS
  6
CONTINUOUS
 62
     7
100
AcDbLine
 10
-1248.060675197518
 20
1873.261034642833
 30
0.0
 11
-1248.210675197518
 21
1872.761034642834
 31
0.0
  0
LINE
  5
1A7FD
330
1A
100
AcDbEntity
  8
_2-4_PARTS
  6
CONTINUOUS
 62
     7
100
AcDbLine
 10
-1248.210675197518
 20
1871.461034642833
 30
0.0
 11
-1248.210675197518
 21
1872.761034642834
 31
0.0
  0
LINE
  5
1A7FE
330
1A
100
AcDbEntity
  8
_2-4_PARTS
  6
CONTINUOUS
 62
     7
100
AcDbLine
 10
-1247.610675197518
 20
1871.461034642833
 30
0.0
 11
-1247.610675197518
 21
1872.761034642834
 31
0.0
  0
LINE
  5
1A7FF
330
1A
100
AcDbEntity
  8
_2-4_PARTS
  6
CONTINUOUS
 62
     7
100
AcDbLine
 10
-1245.710675197518
 20
1871.461034642833
 30
0.0
 11
-1245.710675197518
 21
1872.761034642834
 31
0.0
  0
LINE
  5
1A800
330
1A
100
AcDbEntity
  8
_2-4_PARTS
  6
CONTINUOUS
 62
     7
100
AcDbLine
 10
-1245.110675197518
 20
1871.461034642833
 30
0.0
 11
-1245.110675197518
 21
1872.761034642834
 31
0.0
  0
LINE
  5
1A801
330
1A
100
AcDbEntity
  8
_2-4_PARTS
  6
CONTINUOUS
 62
     7
100
AcDbLine
 10
-1252.760675197518
 20
1873.261034642833
 30
0.0
 11
-1253.060675197518
 21
1873.261034642833
 31
0.0
  0
LINE
  5
1A802
330
1A
100
AcDbEntity
  8
_2-4_PARTS
  6
CONTINUOUS
 62
     7
100
AcDbLine
 10
-1252.760675197518
 20
1873.261034642833
 30
0.0
 11
-1252.610675197518
 21
1872.761034642834
 31
0.0
  0
LINE
  5
1A803
330
1A
100
AcDbEntity
  8
_2-4_PARTS
  6
CONTINUOUS
 62
     7
100
AcDbLine
 10
-1250.260675197518
 20
1873.261034642833
 30
0.0
 11
-1250.560675197518
 21
1873.261034642833
 31
0.0
  0
LINE
  5
1A804
330
1A
100
AcDbEntity
  8
_2-4_PARTS
  6
CONTINUOUS
 62
     7
100
AcDbLine
 10
-1250.260675197518
 20
1873.261034642833
 30
0.0
 11
-1250.110675197518
 21
1872.761034642834
 31
0.0
  0
LINE
  5
1A805
330
1A
100
AcDbEntity
  8
_2-4_PARTS
  6
CONTINUOUS
 62
     7
100
AcDbLine
 10
-1250.560675197518
 20
1873.261034642833
 30
0.0
 11
-1250.710675197518
 21
1872.761034642834
 31
0.0
  0
LINE
  5
1A806
330
1A
100
AcDbEntity
  8
_2-4_PARTS
  6
CONTINUOUS
 62
     7
100
AcDbLine
 10
-1252.610675197518
 20
1871.461034642833
 30
0.0
 11
-1252.610675197518
 21
1872.761034642834
 31
0.0
  0
LINE
  5
1A807
330
1A
100
AcDbEntity
  8
_2-4_PARTS
  6
CONTINUOUS
 62
     7
100
AcDbLine
 10
-1250.710675197518
 20
1871.461034642833
 30
0.0
 11
-1250.710675197518
 21
1872.761034642834
 31
0.0
  0
LINE
  5
1A808
330
1A
100
AcDbEntity
  8
_2-4_PARTS
  6
CONTINUOUS
 62
     7
100
AcDbLine
 10
-1250.110675197518
 20
1871.461034642833
 30
0.0
 11
-1250.110675197518
 21
1872.761034642834
 31
0.0
  0
LINE
  5
1A809
330
1A
100
AcDbEntity
  8
_2-4_PARTS
  6
CONTINUOUS
 62
     7
100
AcDbLine
 10
-1253.210675197518
 20
1871.461034642833
 30
0.0
 11
-1253.210675197518
 21
1872.761034642834
 31
0.0
  0
LINE
  5
1A80A
330
1A
100
AcDbEntity
  8
_2-4_PARTS
  6
CONTINUOUS
 62
     7
100
AcDbLine
 10
-1253.060675197518
 20
1873.261034642833
 30
0.0
 11
-1253.210675197518
 21
1872.761034642834
 31
0.0
  0
LINE
  5
1A80B
330
1A
100
AcDbEntity
  8
_2-4_PARTS
  6
CONTINUOUS
 62
     7
100
AcDbLine
 10
-1243.660675197518
 20
1869.861034642833
 30
0.0
 11
-1244.660675197518
 21
1869.861034642833
 31
0.0
  0
LINE
  5
1A80C
330
1A
100
AcDbEntity
  8
_2-4_PARTS
  6
CONTINUOUS
 62
     7
100
AcDbLine
 10
-1243.660675197518
 20
1868.761034642833
 30
0.0
 11
-1243.660675197518
 21
1869.861034642833
 31
0.0
  0
LINE
  5
1A80D
330
1A
100
AcDbEntity
  8
_2-4_PARTS
  6
CONTINUOUS
 62
     7
100
AcDbLine
 10
-1244.660675197518
 20
1868.761034642833
 30
0.0
 11
-1244.660675197518
 21
1869.861034642833
 31
0.0
  0
LINE
  5
1A80E
330
1A
100
AcDbEntity
  8
_2-4_PARTS
  6
CONTINUOUS
 62
     7
100
AcDbLine
 10
-1246.160675197518
 20
1869.861034642833
 30
0.0
 11
-1247.160675197518
 21
1869.861034642833
 31
0.0
  0
LINE
  5
1A80F
330
1A
100
AcDbEntity
  8
_2-4_PARTS
  6
CONTINUOUS
 62
     7
100
AcDbLine
 10
-1246.160675197518
 20
1868.761034642833
 30
0.0
 11
-1246.160675197518
 21
1869.861034642833
 31
0.0
  0
LINE
  5
1A810
330
1A
100
AcDbEntity
  8
_2-4_PARTS
  6
CONTINUOUS
 62
     7
100
AcDbLine
 10
-1247.160675197518
 20
1868.761034642833
 30
0.0
 11
-1247.160675197518
 21
1869.861034642833
 31
0.0
  0
LINE
  5
1A811
330
1A
100
AcDbEntity
  8
_2-4_PARTS
  6
CONTINUOUS
 62
     7
100
AcDbLine
 10
-1247.160675197518
 20
1869.561034642833
 30
0.0
 11
-1248.660675197518
 21
1869.561034642833
 31
0.0
  0
LINE
  5
1A812
330
1A
100
AcDbEntity
  8
_2-4_PARTS
  6
CONTINUOUS
 62
     7
100
AcDbLine
 10
-1248.660675197518
 20
1868.761034642833
 30
0.0
 11
-1248.660675197518
 21
1869.861034642833
 31
0.0
  0
LINE
  5
1A813
330
1A
100
AcDbEntity
  8
_2-4_PARTS
  6
CONTINUOUS
 62
     7
100
AcDbLine
 10
-1244.660675197518
 20
1869.561034642833
 30
0.0
 11
-1246.160675197518
 21
1869.561034642833
 31
0.0
  0
LINE
  5
1A814
330
1A
100
AcDbEntity
  8
_2-4_PARTS
  6
CONTINUOUS
 62
     7
100
AcDbLine
 10
-1251.160675197518
 20
1869.861034642833
 30
0.0
 11
-1252.160675197518
 21
1869.861034642833
 31
0.0
  0
LINE
  5
1A815
330
1A
100
AcDbEntity
  8
_2-4_PARTS
  6
CONTINUOUS
 62
     7
100
AcDbLine
 10
-1251.160675197518
 20
1868.761034642833
 30
0.0
 11
-1251.160675197518
 21
1869.861034642833
 31
0.0
  0
LINE
  5
1A816
330
1A
100
AcDbEntity
  8
_2-4_PARTS
  6
CONTINUOUS
 62
     7
100
AcDbLine
 10
-1252.160675197518
 20
1868.761034642833
 30
0.0
 11
-1252.160675197518
 21
1869.861034642833
 31
0.0
  0
LINE
  5
1A817
330
1A
100
AcDbEntity
  8
_2-4_PARTS
  6
CONTINUOUS
 62
     7
100
AcDbLine
 10
-1249.660675197518
 20
1868.761034642833
 30
0.0
 11
-1249.660675197518
 21
1869.861034642833
 31
0.0
  0
LINE
  5
1A818
330
1A
100
AcDbEntity
  8
_2-4_PARTS
  6
CONTINUOUS
 62
     7
100
AcDbLine
 10
-1249.660675197518
 20
1869.561034642833
 30
0.0
 11
-1251.160675197518
 21
1869.561034642833
 31
0.0
  0
LINE
  5
1A819
330
1A
100
AcDbEntity
  8
_2-4_PARTS
  6
CONTINUOUS
 62
     7
100
AcDbLine
 10
-1253.660675197518
 20
1868.761034642833
 30
0.0
 11
-1253.660675197518
 21
1869.861034642833
 31
0.0
  0
LINE
  5
1A81A
330
1A
100
AcDbEntity
  8
_2-4_PARTS
  6
CONTINUOUS
 62
     7
100
AcDbLine
 10
-1253.660675197518
 20
1869.861034642833
 30
0.0
 11
-1255.360675197518
 21
1869.861034642833
 31
0.0
  0
LINE
  5
1A81B
330
1A
100
AcDbEntity
  8
_2-4_PARTS
  6
CONTINUOUS
 62
     7
100
AcDbLine
 10
-1252.160675197518
 20
1869.561034642833
 30
0.0
 11
-1253.660675197518
 21
1869.561034642833
 31
0.0
  0
ARC
  5
1A81C
330
1A
100
AcDbEntity
  8
_2-4_PARTS
  6
CONTINUOUS
 62
     7
100
AcDbCircle
 10
-1252.360675197518
 20
1859.861034642833
 30
0.0
 40
0.5
100
AcDbArc
 50
90.0
 51
180.0
  0
LINE
  5
1A81D
330
1A
100
AcDbEntity
  8
_2-4_PARTS
  6
CONTINUOUS
 62
     7
100
AcDbLine
 10
-1248.660675197518
 20
1869.861034642833
 30
0.0
 11
-1249.660675197518
 21
1869.861034642833
 31
0.0
  0
LINE
  5
1A81E
330
1A
100
AcDbEntity
  8
_2-4_PARTS
  6
CONTINUOUS
 62
     7
100
AcDbLine
 10
-1253.360675197518
 20
1858.361034642833
 30
0.0
 11
-1255.360675197518
 21
1858.361034642833
 31
0.0
  0
LINE
  5
1A81F
330
1A
100
AcDbEntity
  8
_2-4_PARTS
  6
CONTINUOUS
 62
     7
100
AcDbLine
 10
-1252.860675197518
 20
1858.861034642833
 30
0.0
 11
-1253.360675197518
 21
1858.361034642833
 31
0.0
  0
LINE
  5
1A820
330
1A
100
AcDbEntity
  8
_2-4_PARTS
  6
CONTINUOUS
 62
     7
100
AcDbLine
 10
-1255.360675197518
 20
1858.361034642833
 30
0.0
 11
-1255.360675197518
 21
1869.861034642833
 31
0.0
  0
LINE
  5
1A821
330
1A
100
AcDbEntity
  8
_2-4_PARTS
  6
CONTINUOUS
 62
     7
100
AcDbLine
 10
-1252.860675197518
 20
1859.861034642833
 30
0.0
 11
-1252.860675197518
 21
1858.861034642833
 31
0.0
  0
LINE
  5
1A822
330
1A
100
AcDbEntity
  8
_2-4_PARTS
  6
CONTINUOUS
 62
     7
100
AcDbLine
 10
-1225.560675197518
 20
1873.261034642833
 30
0.0
 11
-1225.710675197518
 21
1872.761034642834
 31
0.0
  0
LINE
  5
1A823
330
1A
100
AcDbEntity
  8
_2-4_PARTS
  6
CONTINUOUS
 62
     7
100
AcDbLine
 10
-1227.760675197518
 20
1873.261034642833
 30
0.0
 11
-1228.060675197518
 21
1873.261034642833
 31
0.0
  0
LINE
  5
1A824
330
1A
100
AcDbEntity
  8
_2-4_PARTS
  6
CONTINUOUS
 62
     7
100
AcDbLine
 10
-1227.760675197518
 20
1873.261034642833
 30
0.0
 11
-1227.610675197518
 21
1872.761034642834
 31
0.0
  0
LINE
  5
1A825
330
1A
100
AcDbEntity
  8
_2-4_PARTS
  6
CONTINUOUS
 62
     7
100
AcDbLine
 10
-1228.060675197518
 20
1873.261034642833
 30
0.0
 11
-1228.210675197518
 21
1872.761034642834
 31
0.0
  0
LINE
  5
1A826
330
1A
100
AcDbEntity
  8
_2-4_PARTS
  6
CONTINUOUS
 62
     7
100
AcDbLine
 10
-1228.210675197518
 20
1871.461034642833
 30
0.0
 11
-1228.210675197518
 21
1872.761034642834
 31
0.0
  0
LINE
  5
1A827
330
1A
100
AcDbEntity
  8
_2-4_PARTS
  6
CONTINUOUS
 62
     7
100
AcDbLine
 10
-1227.610675197518
 20
1871.461034642833
 30
0.0
 11
-1227.610675197518
 21
1872.761034642834
 31
0.0
  0
LINE
  5
1A828
330
1A
100
AcDbEntity
  8
_2-4_PARTS
  6
CONTINUOUS
 62
     7
100
AcDbLine
 10
-1225.710675197518
 20
1871.461034642833
 30
0.0
 11
-1225.710675197518
 21
1872.761034642834
 31
0.0
  0
LINE
  5
1A829
330
1A
100
AcDbEntity
  8
_2-4_PARTS
  6
CONTINUOUS
 62
     7
100
AcDbLine
 10
-1230.260675197518
 20
1873.261034642833
 30
0.0
 11
-1230.560675197518
 21
1873.261034642833
 31
0.0
  0
LINE
  5
1A82A
330
1A
100
AcDbEntity
  8
_2-4_PARTS
  6
CONTINUOUS
 62
     7
100
AcDbLine
 10
-1230.260675197518
 20
1873.261034642833
 30
0.0
 11
-1230.110675197518
 21
1872.761034642834
 31
0.0
  0
LINE
  5
1A82B
330
1A
100
AcDbEntity
  8
_2-4_PARTS
  6
CONTINUOUS
 62
     7
100
AcDbLine
 10
-1230.560675197518
 20
1873.261034642833
 30
0.0
 11
-1230.710675197518
 21
1872.761034642834
 31
0.0
  0
LINE
  5
1A82C
330
1A
100
AcDbEntity
  8
_2-4_PARTS
  6
CONTINUOUS
 62
     7
100
AcDbLine
 10
-1232.610675197518
 20
1871.461034642833
 30
0.0
 11
-1232.610675197518
 21
1872.761034642834
 31
0.0
  0
LINE
  5
1A82D
330
1A
100
AcDbEntity
  8
_2-4_PARTS
  6
CONTINUOUS
 62
     7
100
AcDbLine
 10
-1230.710675197518
 20
1871.461034642833
 30
0.0
 11
-1230.710675197518
 21
1872.761034642834
 31
0.0
  0
LINE
  5
1A82E
330
1A
100
AcDbEntity
  8
_2-4_PARTS
  6
CONTINUOUS
 62
     7
100
AcDbLine
 10
-1230.110675197518
 20
1871.461034642833
 30
0.0
 11
-1230.110675197518
 21
1872.761034642834
 31
0.0
  0
LINE
  5
1A82F
330
1A
100
AcDbEntity
  8
_2-4_PARTS
  6
CONTINUOUS
 62
     7
100
AcDbLine
 10
-1235.260675197518
 20
1873.261034642833
 30
0.0
 11
-1235.560675197518
 21
1873.261034642833
 31
0.0
  0
LINE
  5
1A830
330
1A
100
AcDbEntity
  8
_2-4_PARTS
  6
CONTINUOUS
 62
     7
100
AcDbLine
 10
-1235.260675197518
 20
1873.261034642833
 30
0.0
 11
-1235.110675197518
 21
1872.761034642834
 31
0.0
  0
LINE
  5
1A831
330
1A
100
AcDbEntity
  8
_2-4_PARTS
  6
CONTINUOUS
 62
     7
100
AcDbLine
 10
-1235.560675197518
 20
1873.261034642833
 30
0.0
 11
-1235.710675197518
 21
1872.761034642834
 31
0.0
  0
LINE
  5
1A832
330
1A
100
AcDbEntity
  8
_2-4_PARTS
  6
CONTINUOUS
 62
     7
100
AcDbLine
 10
-1232.760675197518
 20
1873.261034642833
 30
0.0
 11
-1233.060675197518
 21
1873.261034642833
 31
0.0
  0
LINE
  5
1A833
330
1A
100
AcDbEntity
  8
_2-4_PARTS
  6
CONTINUOUS
 62
     7
100
AcDbLine
 10
-1233.060675197518
 20
1873.261034642833
 30
0.0
 11
-1233.210675197518
 21
1872.761034642834
 31
0.0
  0
LINE
  5
1A834
330
1A
100
AcDbEntity
  8
_2-4_PARTS
  6
CONTINUOUS
 62
     7
100
AcDbLine
 10
-1235.710675197518
 20
1871.461034642833
 30
0.0
 11
-1235.710675197518
 21
1872.761034642834
 31
0.0
  0
LINE
  5
1A835
330
1A
100
AcDbEntity
  8
_2-4_PARTS
  6
CONTINUOUS
 62
     7
100
AcDbLine
 10
-1235.110675197518
 20
1871.461034642833
 30
0.0
 11
-1235.110675197518
 21
1872.761034642834
 31
0.0
  0
LINE
  5
1A836
330
1A
100
AcDbEntity
  8
_2-4_PARTS
  6
CONTINUOUS
 62
     7
100
AcDbLine
 10
-1233.210675197518
 20
1871.461034642833
 30
0.0
 11
-1233.210675197518
 21
1872.761034642834
 31
0.0
  0
LINE
  5
1A837
330
1A
100
AcDbEntity
  8
_2-4_PARTS
  6
CONTINUOUS
 62
     7
100
AcDbLine
 10
-1237.760675197518
 20
1873.261034642833
 30
0.0
 11
-1238.060675197518
 21
1873.261034642833
 31
0.0
  0
LINE
  5
1A838
330
1A
100
AcDbEntity
  8
_2-4_PARTS
  6
CONTINUOUS
 62
     7
100
AcDbLine
 10
-1237.760675197518
 20
1873.261034642833
 30
0.0
 11
-1237.610675197518
 21
1872.761034642834
 31
0.0
  0
LINE
  5
1A839
330
1A
100
AcDbEntity
  8
_2-4_PARTS
  6
CONTINUOUS
 62
     7
100
AcDbLine
 10
-1238.060675197518
 20
1873.261034642833
 30
0.0
 11
-1238.210675197518
 21
1872.761034642834
 31
0.0
  0
LINE
  5
1A83A
330
1A
100
AcDbEntity
  8
_2-4_PARTS
  6
CONTINUOUS
 62
     7
100
AcDbLine
 10
-1240.260675197518
 20
1873.261034642833
 30
0.0
 11
-1240.560675197518
 21
1873.261034642833
 31
0.0
  0
LINE
  5
1A83B
330
1A
100
AcDbEntity
  8
_2-4_PARTS
  6
CONTINUOUS
 62
     7
100
AcDbLine
 10
-1240.260675197518
 20
1873.261034642833
 30
0.0
 11
-1240.110675197518
 21
1872.761034642834
 31
0.0
  0
LINE
  5
1A83C
330
1A
100
AcDbEntity
  8
_2-4_PARTS
  6
CONTINUOUS
 62
     7
100
AcDbLine
 10
-1240.560675197518
 20
1873.261034642833
 30
0.0
 11
-1240.710675197518
 21
1872.761034642834
 31
0.0
  0
LINE
  5
1A83D
330
1A
100
AcDbEntity
  8
_2-4_PARTS
  6
CONTINUOUS
 62
     7
100
AcDbLine
 10
-1240.710675197518
 20
1871.461034642833
 30
0.0
 11
-1240.710675197518
 21
1872.761034642834
 31
0.0
  0
LINE
  5
1A83E
330
1A
100
AcDbEntity
  8
_2-4_PARTS
  6
CONTINUOUS
 62
     7
100
AcDbLine
 10
-1240.110675197518
 20
1871.461034642833
 30
0.0
 11
-1240.110675197518
 21
1872.761034642834
 31
0.0
  0
LINE
  5
1A83F
330
1A
100
AcDbEntity
  8
_2-4_PARTS
  6
CONTINUOUS
 62
     7
100
AcDbLine
 10
-1238.210675197518
 20
1871.461034642833
 30
0.0
 11
-1238.210675197518
 21
1872.761034642834
 31
0.0
  0
LINE
  5
1A840
330
1A
100
AcDbEntity
  8
_2-4_PARTS
  6
CONTINUOUS
 62
     7
100
AcDbLine
 10
-1237.610675197518
 20
1871.461034642833
 30
0.0
 11
-1237.610675197518
 21
1872.761034642834
 31
0.0
  0
LINE
  5
1A841
330
1A
100
AcDbEntity
  8
_2-4_PARTS
  6
CONTINUOUS
 62
     7
100
AcDbLine
 10
-1232.760675197518
 20
1873.261034642833
 30
0.0
 11
-1232.610675197518
 21
1872.761034642834
 31
0.0
  0
LINE
  5
1A842
330
1A
100
AcDbEntity
  8
_2-4_PARTS
  6
CONTINUOUS
 62
     7
100
AcDbLine
 10
-1226.160675197518
 20
1869.861034642833
 30
0.0
 11
-1227.160675197518
 21
1869.861034642833
 31
0.0
  0
LINE
  5
1A843
330
1A
100
AcDbEntity
  8
_2-4_PARTS
  6
CONTINUOUS
 62
     7
100
AcDbLine
 10
-1226.160675197518
 20
1868.761034642833
 30
0.0
 11
-1226.160675197518
 21
1869.861034642833
 31
0.0
  0
LINE
  5
1A844
330
1A
100
AcDbEntity
  8
_2-4_PARTS
  6
CONTINUOUS
 62
     7
100
AcDbLine
 10
-1227.160675197518
 20
1868.761034642833
 30
0.0
 11
-1227.160675197518
 21
1869.861034642833
 31
0.0
  0
LINE
  5
1A845
330
1A
100
AcDbEntity
  8
_2-4_PARTS
  6
CONTINUOUS
 62
     7
100
AcDbLine
 10
-1231.160675197518
 20
1869.861034642833
 30
0.0
 11
-1232.160675197518
 21
1869.861034642833
 31
0.0
  0
LINE
  5
1A846
330
1A
100
AcDbEntity
  8
_2-4_PARTS
  6
CONTINUOUS
 62
     7
100
AcDbLine
 10
-1231.160675197518
 20
1868.761034642833
 30
0.0
 11
-1231.160675197518
 21
1869.861034642833
 31
0.0
  0
LINE
  5
1A847
330
1A
100
AcDbEntity
  8
_2-4_PARTS
  6
CONTINUOUS
 62
     7
100
AcDbLine
 10
-1232.160675197518
 20
1868.761034642833
 30
0.0
 11
-1232.160675197518
 21
1869.861034642833
 31
0.0
  0
LINE
  5
1A848
330
1A
100
AcDbEntity
  8
_2-4_PARTS
  6
CONTINUOUS
 62
     7
100
AcDbLine
 10
-1231.160675197518
 20
1869.561034642833
 30
0.0
 11
-1229.660675197518
 21
1869.561034642833
 31
0.0
  0
LINE
  5
1A849
330
1A
100
AcDbEntity
  8
_2-4_PARTS
  6
CONTINUOUS
 62
     7
100
AcDbLine
 10
-1228.660675197518
 20
1869.861034642833
 30
0.0
 11
-1229.660675197518
 21
1869.861034642833
 31
0.0
  0
LINE
  5
1A84A
330
1A
100
AcDbEntity
  8
_2-4_PARTS
  6
CONTINUOUS
 62
     7
100
AcDbLine
 10
-1228.660675197518
 20
1868.761034642833
 30
0.0
 11
-1228.660675197518
 21
1869.861034642833
 31
0.0
  0
LINE
  5
1A84B
330
1A
100
AcDbEntity
  8
_2-4_PARTS
  6
CONTINUOUS
 62
     7
100
AcDbLine
 10
-1229.660675197518
 20
1868.761034642833
 30
0.0
 11
-1229.660675197518
 21
1869.861034642833
 31
0.0
  0
LINE
  5
1A84C
330
1A
100
AcDbEntity
  8
_2-4_PARTS
  6
CONTINUOUS
 62
     7
100
AcDbLine
 10
-1228.660675197518
 20
1869.561034642833
 30
0.0
 11
-1227.160675197518
 21
1869.561034642833
 31
0.0
  0
LINE
  5
1A84D
330
1A
100
AcDbEntity
  8
_2-4_PARTS
  6
CONTINUOUS
 62
     7
100
AcDbLine
 10
-1233.660675197518
 20
1869.861034642833
 30
0.0
 11
-1234.660675197518
 21
1869.861034642833
 31
0.0
  0
LINE
  5
1A84E
330
1A
100
AcDbEntity
  8
_2-4_PARTS
  6
CONTINUOUS
 62
     7
100
AcDbLine
 10
-1233.660675197518
 20
1868.761034642833
 30
0.0
 11
-1233.660675197518
 21
1869.861034642833
 31
0.0
  0
LINE
  5
1A84F
330
1A
100
AcDbEntity
  8
_2-4_PARTS
  6
CONTINUOUS
 62
     7
100
AcDbLine
 10
-1234.660675197518
 20
1868.761034642833
 30
0.0
 11
-1234.660675197518
 21
1869.861034642833
 31
0.0
  0
LINE
  5
1A850
330
1A
100
AcDbEntity
  8
_2-4_PARTS
  6
CONTINUOUS
 62
     7
100
AcDbLine
 10
-1236.160675197518
 20
1869.561034642833
 30
0.0
 11
-1234.660675197518
 21
1869.561034642833
 31
0.0
  0
LINE
  5
1A851
330
1A
100
AcDbEntity
  8
_2-4_PARTS
  6
CONTINUOUS
 62
     7
100
AcDbLine
 10
-1236.160675197518
 20
1869.861034642833
 30
0.0
 11
-1236.160675197518
 21
1868.761034642833
 31
0.0
  0
LINE
  5
1A852
330
1A
100
AcDbEntity
  8
_2-4_PARTS
  6
CONTINUOUS
 62
     7
100
AcDbLine
 10
-1237.160675197518
 20
1869.561034642833
 30
0.0
 11
-1238.660675197518
 21
1869.561034642833
 31
0.0
  0
LINE
  5
1A853
330
1A
100
AcDbEntity
  8
_2-4_PARTS
  6
CONTINUOUS
 62
     7
100
AcDbLine
 10
-1238.660675197518
 20
1869.861034642833
 30
0.0
 11
-1239.660675197518
 21
1869.861034642833
 31
0.0
  0
LINE
  5
1A854
330
1A
100
AcDbEntity
  8
_2-4_PARTS
  6
CONTINUOUS
 62
     7
100
AcDbLine
 10
-1237.160675197518
 20
1869.861034642833
 30
0.0
 11
-1237.160675197518
 21
1868.761034642833
 31
0.0
  0
LINE
  5
1A855
330
1A
100
AcDbEntity
  8
_2-4_PARTS
  6
CONTINUOUS
 62
     7
100
AcDbLine
 10
-1238.660675197518
 20
1869.861034642833
 30
0.0
 11
-1238.660675197518
 21
1868.761034642833
 31
0.0
  0
LINE
  5
1A856
330
1A
100
AcDbEntity
  8
_2-4_PARTS
  6
CONTINUOUS
 62
     7
100
AcDbLine
 10
-1239.660675197518
 20
1869.861034642833
 30
0.0
 11
-1239.660675197518
 21
1868.761034642833
 31
0.0
  0
LINE
  5
1A857
330
1A
100
AcDbEntity
  8
_2-4_PARTS
  6
CONTINUOUS
 62
     7
100
AcDbLine
 10
-1236.160675197518
 20
1869.861034642833
 30
0.0
 11
-1237.160675197518
 21
1869.861034642833
 31
0.0
  0
LINE
  5
1A858
330
1A
100
AcDbEntity
  8
_2-4_PARTS
  6
CONTINUOUS
 62
     7
100
AcDbLine
 10
-1233.660675197518
 20
1869.561034642833
 30
0.0
 11
-1232.160675197518
 21
1869.561034642833
 31
0.0
  0
LINE
  5
1A859
330
1A
100
AcDbEntity
  8
_2-4_PARTS
  6
CONTINUOUS
 62
     7
100
AcDbLine
 10
-1241.160675197518
 20
1869.861034642833
 30
0.0
 11
-1242.160675197518
 21
1869.861034642833
 31
0.0
  0
LINE
  5
1A85A
330
1A
100
AcDbEntity
  8
_2-4_PARTS
  6
CONTINUOUS
 62
     7
100
AcDbLine
 10
-1241.160675197518
 20
1869.861034642833
 30
0.0
 11
-1241.160675197518
 21
1868.761034642833
 31
0.0
  0
LINE
  5
1A85B
330
1A
100
AcDbEntity
  8
_2-4_PARTS
  6
CONTINUOUS
 62
     7
100
AcDbLine
 10
-1242.160675197518
 20
1869.861034642833
 30
0.0
 11
-1242.160675197518
 21
1868.761034642833
 31
0.0
  0
LINE
  5
1A85C
330
1A
100
AcDbEntity
  8
_2-4_PARTS
  6
CONTINUOUS
 62
     7
100
AcDbLine
 10
-1239.660675197518
 20
1869.561034642833
 30
0.0
 11
-1241.160675197518
 21
1869.561034642833
 31
0.0
  0
LINE
  5
1A85D
330
1A
100
AcDbEntity
  8
_2-4_PARTS
  6
CONTINUOUS
 62
     7
100
AcDbLine
 10
-1208.880675197518
 20
1873.361034642833
 30
0.0
 11
-1208.440675197517
 21
1873.361034642833
 31
0.0
  0
LINE
  5
1A85E
330
1A
100
AcDbEntity
  8
_2-4_PARTS
  6
CONTINUOUS
 62
     7
100
AcDbLine
 10
-1221.960675197518
 20
1859.361034642833
 30
0.0
 11
-1202.360675197517
 21
1859.361034642833
 31
0.0
  0
LINE
  5
1A85F
330
1A
100
AcDbEntity
  8
_2-4_PARTS
  6
CONTINUOUS
 62
     7
100
AcDbLine
 10
-1209.360675197517
 20
1869.661034642833
 30
0.0
 11
-1207.960675197518
 21
1869.661034642833
 31
0.0
  0
LINE
  5
1A860
330
1A
100
AcDbEntity
  8
_2-4_PARTS
  6
CONTINUOUS
 62
     7
100
AcDbLine
 10
-1211.560675197517
 20
1871.661034642833
 30
0.0
 11
-1211.940675197517
 21
1873.361034642833
 31
0.0
  0
LINE
  5
1A861
330
1A
100
AcDbEntity
  8
_2-4_PARTS
  6
CONTINUOUS
 62
     7
100
AcDbLine
 10
-1209.260675197517
 20
1871.661034642833
 30
0.0
 11
-1208.880675197518
 21
1873.361034642833
 31
0.0
  0
LINE
  5
1A862
330
1A
100
AcDbEntity
  8
_2-4_PARTS
  6
CONTINUOUS
 62
     7
100
AcDbLine
 10
-1211.560675197517
 20
1871.661034642833
 30
0.0
 11
-1211.560675197517
 21
1871.461034642833
 31
0.0
  0
LINE
  5
1A863
330
1A
100
AcDbEntity
  8
_2-4_PARTS
  6
CONTINUOUS
 62
     7
100
AcDbLine
 10
-1209.260675197517
 20
1871.661034642833
 30
0.0
 11
-1209.260675197517
 21
1871.461034642833
 31
0.0
  0
LINE
  5
1A864
330
1A
100
AcDbEntity
  8
_2-4_PARTS
  6
CONTINUOUS
 62
     7
100
AcDbLine
 10
-1215.880675197517
 20
1873.361034642833
 30
0.0
 11
-1215.440675197517
 21
1873.361034642833
 31
0.0
  0
LINE
  5
1A865
330
1A
100
AcDbEntity
  8
_2-4_PARTS
  6
CONTINUOUS
 62
     7
100
AcDbLine
 10
-1216.260675197518
 20
1871.661034642833
 30
0.0
 11
-1215.880675197517
 21
1873.361034642833
 31
0.0
  0
LINE
  5
1A866
330
1A
100
AcDbEntity
  8
_2-4_PARTS
  6
CONTINUOUS
 62
     7
100
AcDbLine
 10
-1215.060675197517
 20
1871.661034642833
 30
0.0
 11
-1215.440675197517
 21
1873.361034642833
 31
0.0
  0
LINE
  5
1A867
330
1A
100
AcDbEntity
  8
_2-4_PARTS
  6
CONTINUOUS
 62
     7
100
AcDbLine
 10
-1212.760675197517
 20
1871.661034642833
 30
0.0
 11
-1212.380675197517
 21
1873.361034642833
 31
0.0
  0
LINE
  5
1A868
330
1A
100
AcDbEntity
  8
_2-4_PARTS
  6
CONTINUOUS
 62
     7
100
AcDbLine
 10
-1216.260675197518
 20
1871.661034642833
 30
0.0
 11
-1216.260675197518
 21
1871.461034642833
 31
0.0
  0
LINE
  5
1A869
330
1A
100
AcDbEntity
  8
_2-4_PARTS
  6
CONTINUOUS
 62
     7
100
AcDbLine
 10
-1215.060675197517
 20
1871.661034642833
 30
0.0
 11
-1215.060675197517
 21
1871.461034642833
 31
0.0
  0
LINE
  5
1A86A
330
1A
100
AcDbEntity
  8
_2-4_PARTS
  6
CONTINUOUS
 62
     7
100
AcDbLine
 10
-1212.760675197517
 20
1871.661034642833
 30
0.0
 11
-1212.760675197517
 21
1871.461034642833
 31
0.0
  0
LINE
  5
1A86B
330
1A
100
AcDbEntity
  8
_2-4_PARTS
  6
CONTINUOUS
 62
     7
100
AcDbLine
 10
-1212.380675197517
 20
1873.361034642833
 30
0.0
 11
-1211.940675197517
 21
1873.361034642833
 31
0.0
  0
LINE
  5
1A86C
330
1A
100
AcDbEntity
  8
_2-4_PARTS
  6
CONTINUOUS
 62
     7
100
AcDbLine
 10
-1219.380675197517
 20
1873.361034642833
 30
0.0
 11
-1218.940675197517
 21
1873.361034642833
 31
0.0
  0
LINE
  5
1A86D
330
1A
100
AcDbEntity
  8
_2-4_PARTS
  6
CONTINUOUS
 62
     7
100
AcDbLine
 10
-1219.760675197518
 20
1871.661034642833
 30
0.0
 11
-1219.380675197517
 21
1873.361034642833
 31
0.0
  0
LINE
  5
1A86E
330
1A
100
AcDbEntity
  8
_2-4_PARTS
  6
CONTINUOUS
 62
     7
100
AcDbLine
 10
-1218.560675197517
 20
1871.661034642833
 30
0.0
 11
-1218.940675197517
 21
1873.361034642833
 31
0.0
  0
LINE
  5
1A86F
330
1A
100
AcDbEntity
  8
_2-4_PARTS
  6
CONTINUOUS
 62
     7
100
AcDbLine
 10
-1219.760675197518
 20
1871.661034642833
 30
0.0
 11
-1219.760675197518
 21
1871.461034642833
 31
0.0
  0
LINE
  5
1A870
330
1A
100
AcDbEntity
  8
_2-4_PARTS
  6
CONTINUOUS
 62
     7
100
AcDbLine
 10
-1218.560675197517
 20
1871.661034642833
 30
0.0
 11
-1218.560675197517
 21
1871.461034642833
 31
0.0
  0
LINE
  5
1A871
330
1A
100
AcDbEntity
  8
_2-4_PARTS
  6
CONTINUOUS
 62
     7
100
AcDbLine
 10
-1211.460675197518
 20
1869.861034642833
 30
0.0
 11
-1209.360675197517
 21
1869.861034642833
 31
0.0
  0
LINE
  5
1A872
330
1A
100
AcDbEntity
  8
_2-4_PARTS
  6
CONTINUOUS
 62
     7
100
AcDbLine
 10
-1211.460675197518
 20
1869.861034642833
 30
0.0
 11
-1211.460675197518
 21
1869.661034642833
 31
0.0
  0
LINE
  5
1A873
330
1A
100
AcDbEntity
  8
_2-4_PARTS
  6
CONTINUOUS
 62
     7
100
AcDbLine
 10
-1209.360675197517
 20
1869.861034642833
 30
0.0
 11
-1209.360675197517
 21
1869.661034642833
 31
0.0
  0
LINE
  5
1A874
330
1A
100
AcDbEntity
  8
_2-4_PARTS
  6
CONTINUOUS
 62
     7
100
AcDbLine
 10
-1214.960675197517
 20
1869.861034642833
 30
0.0
 11
-1212.860675197517
 21
1869.861034642833
 31
0.0
  0
LINE
  5
1A875
330
1A
100
AcDbEntity
  8
_2-4_PARTS
  6
CONTINUOUS
 62
     7
100
AcDbLine
 10
-1214.960675197517
 20
1869.861034642833
 30
0.0
 11
-1214.960675197517
 21
1869.661034642833
 31
0.0
  0
LINE
  5
1A876
330
1A
100
AcDbEntity
  8
_2-4_PARTS
  6
CONTINUOUS
 62
     7
100
AcDbLine
 10
-1212.860675197517
 20
1869.861034642833
 30
0.0
 11
-1212.860675197517
 21
1869.661034642833
 31
0.0
  0
LINE
  5
1A877
330
1A
100
AcDbEntity
  8
_2-4_PARTS
  6
CONTINUOUS
 62
     7
100
AcDbLine
 10
-1212.860675197517
 20
1869.661034642833
 30
0.0
 11
-1211.460675197518
 21
1869.661034642833
 31
0.0
  0
LINE
  5
1A878
330
1A
100
AcDbEntity
  8
_2-4_PARTS
  6
CONTINUOUS
 62
     7
100
AcDbLine
 10
-1218.460675197517
 20
1869.861034642833
 30
0.0
 11
-1216.360675197518
 21
1869.861034642833
 31
0.0
  0
LINE
  5
1A879
330
1A
100
AcDbEntity
  8
_2-4_PARTS
  6
CONTINUOUS
 62
     7
100
AcDbLine
 10
-1219.860675197518
 20
1869.861034642833
 30
0.0
 11
-1219.860675197518
 21
1869.661034642833
 31
0.0
  0
LINE
  5
1A87A
330
1A
100
AcDbEntity
  8
_2-4_PARTS
  6
CONTINUOUS
 62
     7
100
AcDbLine
 10
-1218.460675197517
 20
1869.861034642833
 30
0.0
 11
-1218.460675197517
 21
1869.661034642833
 31
0.0
  0
LINE
  5
1A87B
330
1A
100
AcDbEntity
  8
_2-4_PARTS
  6
CONTINUOUS
 62
     7
100
AcDbLine
 10
-1219.860675197518
 20
1869.661034642833
 30
0.0
 11
-1218.460675197517
 21
1869.661034642833
 31
0.0
  0
LINE
  5
1A87C
330
1A
100
AcDbEntity
  8
_2-4_PARTS
  6
CONTINUOUS
 62
     7
100
AcDbLine
 10
-1216.360675197518
 20
1869.861034642833
 30
0.0
 11
-1216.360675197518
 21
1869.661034642833
 31
0.0
  0
LINE
  5
1A87D
330
1A
100
AcDbEntity
  8
_2-4_PARTS
  6
CONTINUOUS
 62
     7
100
AcDbLine
 10
-1222.960675197518
 20
1869.861034642833
 30
0.0
 11
-1223.960675197518
 21
1869.861034642833
 31
0.0
  0
LINE
  5
1A87E
330
1A
100
AcDbEntity
  8
_2-4_PARTS
  6
CONTINUOUS
 62
     7
100
AcDbLine
 10
-1221.960675197518
 20
1869.861034642833
 30
0.0
 11
-1219.860675197518
 21
1869.861034642833
 31
0.0
  0
LINE
  5
1A87F
330
1A
100
AcDbEntity
  8
_2-4_PARTS
  6
CONTINUOUS
 62
     7
100
AcDbLine
 10
-1221.960675197518
 20
1859.361034642833
 30
0.0
 11
-1221.960675197518
 21
1869.861034642833
 31
0.0
  0
LINE
  5
1A880
330
1A
100
AcDbEntity
  8
_2-4_PARTS
  6
CONTINUOUS
 62
     7
100
AcDbLine
 10
-1216.360675197518
 20
1869.661034642833
 30
0.0
 11
-1214.960675197517
 21
1869.661034642833
 31
0.0
  0
LINE
  5
1A881
330
1A
100
AcDbEntity
  8
_2-4_PARTS
  6
CONTINUOUS
 62
     7
100
AcDbLine
 10
-1222.960675197518
 20
1858.361034642833
 30
0.0
 11
-1222.960675197518
 21
1869.861034642833
 31
0.0
  0
LINE
  5
1A882
330
1A
100
AcDbEntity
  8
_2-4_PARTS
  6
CONTINUOUS
 62
     7
100
AcDbLine
 10
-1225.260675197518
 20
1873.261034642833
 30
0.0
 11
-1225.110675197518
 21
1872.761034642834
 31
0.0
  0
LINE
  5
1A883
330
1A
100
AcDbEntity
  8
_2-4_PARTS
  6
CONTINUOUS
 62
     7
100
AcDbLine
 10
-1225.110675197518
 20
1871.461034642833
 30
0.0
 11
-1225.110675197518
 21
1872.761034642834
 31
0.0
  0
LINE
  5
1A884
330
1A
100
AcDbEntity
  8
_2-4_PARTS
  6
CONTINUOUS
 62
     7
100
AcDbLine
 10
-1224.660675197518
 20
1868.761034642833
 30
0.0
 11
-1224.660675197518
 21
1869.861034642833
 31
0.0
  0
LINE
  5
1A885
330
1A
100
AcDbEntity
  8
_2-4_PARTS
  6
CONTINUOUS
 62
     7
100
AcDbLine
 10
-1224.960675197518
 20
1858.361034642833
 30
0.0
 11
-1225.460675197518
 21
1858.861034642833
 31
0.0
  0
LINE
  5
1A886
330
1A
100
AcDbEntity
  8
_2-4_PARTS
  6
CONTINUOUS
 62
     7
100
AcDbLine
 10
-1225.460675197518
 20
1859.861034642833
 30
0.0
 11
-1225.460675197518
 21
1858.861034642833
 31
0.0
  0
LINE
  5
1A887
330
1A
100
AcDbEntity
  8
_2-4_PARTS
  6
CONTINUOUS
 62
     7
100
AcDbLine
 10
-1223.510675197518
 20
1869.861034642833
 30
0.0
 11
-1224.660675197518
 21
1869.861034642833
 31
0.0
  0
LINE
  5
1A888
330
1A
100
AcDbEntity
  8
_2-4_PARTS
  6
CONTINUOUS
 62
     7
100
AcDbLine
 10
-1224.960675197518
 20
1858.361034642833
 30
0.0
 11
-1222.960675197518
 21
1858.361034642833
 31
0.0
  0
LINE
  5
1A889
330
1A
100
AcDbEntity
  8
_2-4_PARTS
  6
CONTINUOUS
 62
     7
100
AcDbLine
 10
-1195.630675197518
 20
1873.361034642833
 30
0.0
 11
-1195.190675197518
 21
1873.361034642833
 31
0.0
  0
LINE
  5
1A88A
330
1A
100
AcDbEntity
  8
_2-4_PARTS
  6
CONTINUOUS
 62
     7
100
AcDbLine
 10
-1194.810675197518
 20
1871.661034642833
 30
0.0
 11
-1195.190675197518
 21
1873.361034642833
 31
0.0
  0
LINE
  5
1A88B
330
1A
100
AcDbEntity
  8
_2-4_PARTS
  6
CONTINUOUS
 62
     7
100
AcDbLine
 10
-1194.810675197518
 20
1871.661034642833
 30
0.0
 11
-1194.810675197518
 21
1871.461034642833
 31
0.0
  0
LINE
  5
1A88C
330
1A
100
AcDbEntity
  8
_2-4_PARTS
  6
CONTINUOUS
 62
     7
100
AcDbLine
 10
-1199.130675197518
 20
1873.361034642833
 30
0.0
 11
-1198.690675197518
 21
1873.361034642833
 31
0.0
  0
LINE
  5
1A88D
330
1A
100
AcDbEntity
  8
_2-4_PARTS
  6
CONTINUOUS
 62
     7
100
AcDbLine
 10
-1199.510675197518
 20
1871.661034642833
 30
0.0
 11
-1199.130675197518
 21
1873.361034642833
 31
0.0
  0
LINE
  5
1A88E
330
1A
100
AcDbEntity
  8
_2-4_PARTS
  6
CONTINUOUS
 62
     7
100
AcDbLine
 10
-1198.310675197518
 20
1871.661034642833
 30
0.0
 11
-1198.690675197518
 21
1873.361034642833
 31
0.0
  0
LINE
  5
1A88F
330
1A
100
AcDbEntity
  8
_2-4_PARTS
  6
CONTINUOUS
 62
     7
100
AcDbLine
 10
-1199.510675197518
 20
1871.661034642833
 30
0.0
 11
-1199.510675197518
 21
1871.461034642833
 31
0.0
  0
LINE
  5
1A890
330
1A
100
AcDbEntity
  8
_2-4_PARTS
  6
CONTINUOUS
 62
     7
100
AcDbLine
 10
-1198.310675197518
 20
1871.661034642833
 30
0.0
 11
-1198.310675197518
 21
1871.461034642833
 31
0.0
  0
LINE
  5
1A891
330
1A
100
AcDbEntity
  8
_2-4_PARTS
  6
CONTINUOUS
 62
     7
100
AcDbLine
 10
-1196.010675197518
 20
1871.661034642833
 30
0.0
 11
-1196.010675197518
 21
1871.461034642833
 31
0.0
  0
LINE
  5
1A892
330
1A
100
AcDbEntity
  8
_2-4_PARTS
  6
CONTINUOUS
 62
     7
100
AcDbLine
 10
-1196.010675197518
 20
1871.661034642833
 30
0.0
 11
-1195.630675197518
 21
1873.361034642833
 31
0.0
  0
LINE
  5
1A893
330
1A
100
AcDbEntity
  8
_2-4_PARTS
  6
CONTINUOUS
 62
     7
100
AcDbLine
 10
-1205.380675197518
 20
1873.361034642833
 30
0.0
 11
-1204.940675197518
 21
1873.361034642833
 31
0.0
  0
LINE
  5
1A894
330
1A
100
AcDbEntity
  8
_2-4_PARTS
  6
CONTINUOUS
 62
     7
100
AcDbLine
 10
-1205.760675197518
 20
1871.661034642833
 30
0.0
 11
-1205.380675197518
 21
1873.361034642833
 31
0.0
  0
LINE
  5
1A895
330
1A
100
AcDbEntity
  8
_2-4_PARTS
  6
CONTINUOUS
 62
     7
100
AcDbLine
 10
-1204.560675197517
 20
1871.661034642833
 30
0.0
 11
-1204.940675197518
 21
1873.361034642833
 31
0.0
  0
LINE
  5
1A896
330
1A
100
AcDbEntity
  8
_2-4_PARTS
  6
CONTINUOUS
 62
     7
100
AcDbLine
 10
-1208.060675197518
 20
1871.661034642833
 30
0.0
 11
-1208.060675197518
 21
1871.461034642833
 31
0.0
  0
LINE
  5
1A897
330
1A
100
AcDbEntity
  8
_2-4_PARTS
  6
CONTINUOUS
 62
     7
100
AcDbLine
 10
-1205.760675197518
 20
1871.661034642833
 30
0.0
 11
-1205.760675197518
 21
1871.461034642833
 31
0.0
  0
LINE
  5
1A898
330
1A
100
AcDbEntity
  8
_2-4_PARTS
  6
CONTINUOUS
 62
     7
100
AcDbLine
 10
-1204.560675197517
 20
1871.661034642833
 30
0.0
 11
-1204.560675197517
 21
1871.461034642833
 31
0.0
  0
LINE
  5
1A899
330
1A
100
AcDbEntity
  8
_2-4_PARTS
  6
CONTINUOUS
 62
     7
100
AcDbLine
 10
-1194.710675197518
 20
1869.861034642833
 30
0.0
 11
-1192.610675197518
 21
1869.861034642833
 31
0.0
  0
LINE
  5
1A89A
330
1A
100
AcDbEntity
  8
_2-4_PARTS
  6
CONTINUOUS
 62
     7
100
AcDbLine
 10
-1194.710675197518
 20
1869.861034642833
 30
0.0
 11
-1194.710675197518
 21
1869.661034642833
 31
0.0
  0
LINE
  5
1A89B
330
1A
100
AcDbEntity
  8
_2-4_PARTS
  6
CONTINUOUS
 62
     7
100
AcDbLine
 10
-1198.210675197518
 20
1869.861034642833
 30
0.0
 11
-1196.110675197518
 21
1869.861034642833
 31
0.0
  0
LINE
  5
1A89C
330
1A
100
AcDbEntity
  8
_2-4_PARTS
  6
CONTINUOUS
 62
     7
100
AcDbLine
 10
-1199.610675197517
 20
1869.861034642833
 30
0.0
 11
-1199.610675197517
 21
1869.661034642833
 31
0.0
  0
LINE
  5
1A89D
330
1A
100
AcDbEntity
  8
_2-4_PARTS
  6
CONTINUOUS
 62
     7
100
AcDbLine
 10
-1198.210675197518
 20
1869.861034642833
 30
0.0
 11
-1198.210675197518
 21
1869.661034642833
 31
0.0
  0
LINE
  5
1A89E
330
1A
100
AcDbEntity
  8
_2-4_PARTS
  6
CONTINUOUS
 62
     7
100
AcDbLine
 10
-1199.610675197517
 20
1869.661034642833
 30
0.0
 11
-1198.210675197518
 21
1869.661034642833
 31
0.0
  0
LINE
  5
1A89F
330
1A
100
AcDbEntity
  8
_2-4_PARTS
  6
CONTINUOUS
 62
     7
100
AcDbLine
 10
-1196.110675197518
 20
1869.861034642833
 30
0.0
 11
-1196.110675197518
 21
1869.661034642833
 31
0.0
  0
LINE
  5
1A8A0
330
1A
100
AcDbEntity
  8
_2-4_PARTS
  6
CONTINUOUS
 62
     7
100
AcDbLine
 10
-1196.110675197518
 20
1869.661034642833
 30
0.0
 11
-1194.710675197518
 21
1869.661034642833
 31
0.0
  0
LINE
  5
1A8A1
330
1A
100
AcDbEntity
  8
_2-4_PARTS
  6
CONTINUOUS
 62
     7
100
AcDbLine
 10
-1192.610675197518
 20
1859.361034642833
 30
0.0
 11
-1192.610675197518
 21
1869.861034642833
 31
0.0
  0
LINE
  5
1A8A2
330
1A
100
AcDbEntity
  8
_2-4_PARTS
  6
CONTINUOUS
 62
     7
100
AcDbLine
 10
-1207.960675197518
 20
1869.861034642833
 30
0.0
 11
-1205.860675197517
 21
1869.861034642833
 31
0.0
  0
LINE
  5
1A8A3
330
1A
100
AcDbEntity
  8
_2-4_PARTS
  6
CONTINUOUS
 62
     7
100
AcDbLine
 10
-1207.960675197518
 20
1869.861034642833
 30
0.0
 11
-1207.960675197518
 21
1869.661034642833
 31
0.0
  0
LINE
  5
1A8A4
330
1A
100
AcDbEntity
  8
_2-4_PARTS
  6
CONTINUOUS
 62
     7
100
AcDbLine
 10
-1205.860675197517
 20
1869.861034642833
 30
0.0
 11
-1205.860675197517
 21
1869.661034642833
 31
0.0
  0
LINE
  5
1A8A5
330
1A
100
AcDbEntity
  8
_2-4_PARTS
  6
CONTINUOUS
 62
     7
100
AcDbLine
 10
-1204.460675197518
 20
1869.861034642833
 30
0.0
 11
-1204.460675197518
 21
1869.661034642833
 31
0.0
  0
LINE
  5
1A8A6
330
1A
100
AcDbEntity
  8
_2-4_PARTS
  6
CONTINUOUS
 62
     7
100
AcDbLine
 10
-1205.860675197517
 20
1869.661034642833
 30
0.0
 11
-1204.460675197518
 21
1869.661034642833
 31
0.0
  0
LINE
  5
1A8A7
330
1A
100
AcDbEntity
  8
_2-4_PARTS
  6
CONTINUOUS
 62
     7
100
AcDbLine
 10
-1204.460675197518
 20
1869.861034642833
 30
0.0
 11
-1202.360675197517
 21
1869.861034642833
 31
0.0
  0
LINE
  5
1A8A8
330
1A
100
AcDbEntity
  8
_2-4_PARTS
  6
CONTINUOUS
 62
     7
100
AcDbLine
 10
-1202.360675197517
 20
1859.361034642833
 30
0.0
 11
-1202.360675197517
 21
1869.861034642833
 31
0.0
  0
LINE
  5
1A8A9
330
1A
100
AcDbEntity
  8
_2-4_PARTS
  6
CONTINUOUS
 62
     7
100
AcDbLine
 10
-1201.710675197518
 20
1859.361034642833
 30
0.0
 11
-1201.710675197518
 21
1869.861034642833
 31
0.0
  0
LINE
  5
1A8AA
330
1A
100
AcDbEntity
  8
_2-4_PARTS
  6
CONTINUOUS
 62
     7
100
AcDbLine
 10
-1201.710675197518
 20
1869.861034642833
 30
0.0
 11
-1199.610675197517
 21
1869.861034642833
 31
0.0
  0
LINE
  5
1A8AB
330
1A
100
AcDbEntity
  8
_2-4_PARTS
  6
CONTINUOUS
 62
     7
100
AcDbLine
 10
-1201.710675197518
 20
1859.361034642833
 30
0.0
 11
-1192.610675197518
 21
1859.361034642833
 31
0.0
  0
LINE
  5
1A8AC
330
1A
100
AcDbEntity
  8
_2-4_PARTS
  6
CONTINUOUS
 62
     7
100
AcDbLine
 10
-1208.060675197518
 20
1871.661034642833
 30
0.0
 11
-1208.440675197517
 21
1873.361034642833
 31
0.0
  0
LINE
  5
1A8AD
330
1A
100
AcDbEntity
  8
ZISSEN1
100
AcDbLine
 10
-1184.660675197518
 20
1871.461034642833
 30
0.0
 11
-1184.660675197518
 21
1869.861034642833
 31
0.0
  0
LINE
  5
1A8AE
330
1A
100
AcDbEntity
  8
ZISSEN1
100
AcDbLine
 10
-1185.660675197518
 20
1871.461034642833
 30
0.0
 11
-1185.660675197518
 21
1869.861034642833
 31
0.0
  0
LINE
  5
1A8AF
330
1A
100
AcDbEntity
  8
_2-4_PARTS
  6
CONTINUOUS
 62
     7
100
AcDbLine
 10
-1134.158680129367
 20
1787.880136065227
 30
0.0
 11
-1134.158680129367
 21
1798.180136065227
 31
0.0
  0
LINE
  5
1A8B0
330
1A
100
AcDbEntity
  8
_2-4_PARTS
  6
CONTINUOUS
 62
     7
100
AcDbLine
 10
-1136.158680129367
 20
1787.880136065227
 30
0.0
 11
-1136.158680129367
 21
1798.180136065227
 31
0.0
  0
LINE
  5
1A8B1
330
1A
100
AcDbEntity
  8
_2-4_PARTS
  6
CONTINUOUS
 62
     7
100
AcDbLine
 10
-1144.158680129367
 20
1788.030136065227
 30
0.0
 11
-1144.158680129367
 21
1798.030136065227
 31
0.0
  0
LINE
  5
1A8B2
330
1A
100
AcDbEntity
  8
ZISSEN1
100
AcDbLine
 10
-1132.058680129367
 20
1779.780136065227
 30
0.0
 11
-1132.058680129367
 21
1837.780136065227
 31
0.0
  0
LINE
  5
1A8B3
330
1A
100
AcDbEntity
  8
ZISSEN1
100
AcDbLine
 10
-1133.658680129367
 20
1779.780136065227
 30
0.0
 11
-1133.658680129367
 21
1837.780136065227
 31
0.0
  0
LINE
  5
1A8B4
330
1A
100
AcDbEntity
  8
_2-4_PARTS
  6
CONTINUOUS
 62
     7
100
AcDbLine
 10
-1136.158680129367
 20
1788.030136065227
 30
0.0
 11
-1144.158680129367
 21
1788.030136065227
 31
0.0
  0
LINE
  5
1A8B5
330
1A
100
AcDbEntity
  8
_2-4_PARTS
  6
CONTINUOUS
 62
     7
100
AcDbLine
 10
-1133.658680129367
 20
1793.480136065227
 30
0.0
 11
-1134.158680129367
 21
1793.480136065227
 31
0.0
  0
LINE
  5
1A8B6
330
1A
100
AcDbEntity
  8
_2-4_PARTS
  6
CONTINUOUS
 62
     7
100
AcDbLine
 10
-1134.158680129367
 20
1787.880136065227
 30
0.0
 11
-1136.158680129367
 21
1787.880136065227
 31
0.0
  0
LINE
  5
1A8B7
330
1A
100
AcDbEntity
  8
_2-4_PARTS
  6
CONTINUOUS
 62
     7
100
AcDbLine
 10
-1133.658680129367
 20
1792.580136065227
 30
0.0
 11
-1134.158680129367
 21
1792.580136065227
 31
0.0
  0
LINE
  5
1A8B8
330
1A
100
AcDbEntity
  8
_2-4_PARTS
  6
CONTINUOUS
 62
     7
100
AcDbLine
 10
-1133.658680129367
 20
1792.580136065227
 30
0.0
 11
-1133.658680129367
 21
1793.480136065227
 31
0.0
  0
LINE
  5
1A8B9
330
1A
100
AcDbEntity
  8
ZISSEN1
100
AcDbLine
 10
-1133.658680129367
 20
1779.780136065227
 30
0.0
 11
-1132.058680129367
 21
1779.780136065227
 31
0.0
  0
LINE
  5
1A8BA
330
1A
100
AcDbEntity
  8
ZISSEN1
100
AcDbLine
 10
-1133.658680129367
 20
1780.780136065227
 30
0.0
 11
-1132.058680129367
 21
1780.780136065227
 31
0.0
  0
LINE
  5
1A8BB
330
1A
100
AcDbEntity
  8
_2-4_PARTS
  6
CONTINUOUS
 62
     7
100
AcDbLine
 10
-1144.158680129367
 20
1827.160136065227
 30
0.0
 11
-1133.658680129367
 21
1827.160136065227
 31
0.0
  0
LINE
  5
1A8BC
330
1A
100
AcDbEntity
  8
_2-4_PARTS
  6
CONTINUOUS
 62
     7
100
AcDbLine
 10
-1144.158680129367
 20
1834.760136065227
 30
0.0
 11
-1133.658680129367
 21
1834.760136065227
 31
0.0
  0
LINE
  5
1A8BD
330
1A
100
AcDbEntity
  8
_2-4_PARTS
  6
CONTINUOUS
 62
     7
100
AcDbLine
 10
-1136.158680129367
 20
1798.930136065227
 30
0.0
 11
-1144.158680129367
 21
1798.930136065227
 31
0.0
  0
LINE
  5
1A8BE
330
1A
100
AcDbEntity
  8
_2-4_PARTS
  6
CONTINUOUS
 62
     7
100
AcDbLine
 10
-1136.158680129367
 20
1808.930136065227
 30
0.0
 11
-1144.158680129367
 21
1808.930136065227
 31
0.0
  0
LINE
  5
1A8BF
330
1A
100
AcDbEntity
  8
_2-4_PARTS
  6
CONTINUOUS
 62
     7
100
AcDbLine
 10
-1136.158680129367
 20
1798.030136065227
 30
0.0
 11
-1144.158680129367
 21
1798.030136065227
 31
0.0
  0
LINE
  5
1A8C0
330
1A
100
AcDbEntity
  8
_2-4_PARTS
  6
CONTINUOUS
 62
     7
100
AcDbLine
 10
-1141.158680129367
 20
1827.160136065227
 30
0.0
 11
-1141.158680129367
 21
1826.660136065227
 31
0.0
  0
LINE
  5
1A8C1
330
1A
100
AcDbEntity
  8
_2-4_PARTS
  6
CONTINUOUS
 62
     7
100
AcDbLine
 10
-1141.158680129367
 20
1826.660136065227
 30
0.0
 11
-1141.658680129367
 21
1826.660136065227
 31
0.0
  0
LINE
  5
1A8C2
330
1A
100
AcDbEntity
  8
_2-4_PARTS
  6
CONTINUOUS
 62
     7
100
AcDbLine
 10
-1141.658680129367
 20
1826.660136065227
 30
0.0
 11
-1143.658680129367
 21
1827.160136065227
 31
0.0
  0
LINE
  5
1A8C3
330
1A
100
AcDbEntity
  8
_2-4_PARTS
  6
CONTINUOUS
 62
     7
100
AcDbLine
 10
-1144.158680129367
 20
1827.160136065227
 30
0.0
 11
-1144.158680129367
 21
1834.760136065227
 31
0.0
  0
LINE
  5
1A8C4
330
1A
100
AcDbEntity
  8
_2-4_PARTS
  6
CONTINUOUS
 62
     7
100
AcDbLine
 10
-1144.158680129367
 20
1798.930136065227
 30
0.0
 11
-1144.158680129367
 21
1808.930136065227
 31
0.0
  0
INSERT
  5
1A8C5
330
1A
100
AcDbEntity
  8
_2-4_PARTS
100
AcDbBlockReference
  2
-000-51067_C
 10
-1149.283680129367
 20
1829.660136065227
 30
0.0
 42
-1.0
  0
LINE
  5
1A8C6
330
1A
100
AcDbEntity
  8
_2-4_PARTS
  6
CONTINUOUS
 62
     7
100
AcDbLine
 10
-1130.158680129367
 20
1830.530136065227
 30
0.0
 11
-1130.158680129367
 21
1830.780136065227
 31
0.0
  0
LINE
  5
1A8C7
330
1A
100
AcDbEntity
  8
_2-4_PARTS
  6
CONTINUOUS
 62
     7
100
AcDbLine
 10
-1131.858680129367
 20
1830.180136065227
 30
0.0
 11
-1130.158680129367
 21
1830.530136065227
 31
0.0
  0
LINE
  5
1A8C8
330
1A
100
AcDbEntity
  8
_2-4_PARTS
  6
CONTINUOUS
 62
     7
100
AcDbLine
 10
-1130.158680129367
 20
1830.780136065227
 30
0.0
 11
-1132.058680129367
 21
1830.780136065227
 31
0.0
  0
LINE
  5
1A8C9
330
1A
100
AcDbEntity
  8
_2-4_PARTS
  6
CONTINUOUS
 62
     7
100
AcDbLine
 10
-1131.858680129367
 20
1830.180136065227
 30
0.0
 11
-1132.058680129367
 21
1830.180136065227
 31
0.0
  0
LINE
  5
1A8CA
330
1A
100
AcDbEntity
  8
_2-4_PARTS
  6
CONTINUOUS
 62
     7
100
AcDbLine
 10
-1133.658680129367
 20
1827.160136065227
 30
0.0
 11
-1133.658680129367
 21
1834.760136065227
 31
0.0
  0
LINE
  5
1A8CB
330
1A
100
AcDbEntity
  8
_2-4_PARTS
  6
CONTINUOUS
 62
     7
100
AcDbLine
 10
-1134.158680129367
 20
1809.080136065227
 30
0.0
 11
-1136.158680129367
 21
1809.080136065227
 31
0.0
  0
LINE
  5
1A8CC
330
1A
100
AcDbEntity
  8
_2-4_PARTS
  6
CONTINUOUS
 62
     7
100
AcDbLine
 10
-1133.658680129367
 20
1803.480136065227
 30
0.0
 11
-1133.658680129367
 21
1804.380136065227
 31
0.0
  0
LINE
  5
1A8CD
330
1A
100
AcDbEntity
  8
_2-4_PARTS
  6
CONTINUOUS
 62
     7
100
AcDbLine
 10
-1133.658680129367
 20
1803.480136065227
 30
0.0
 11
-1134.158680129367
 21
1803.480136065227
 31
0.0
  0
LINE
  5
1A8CE
330
1A
100
AcDbEntity
  8
_2-4_PARTS
  6
CONTINUOUS
 62
     7
100
AcDbLine
 10
-1133.658680129367
 20
1804.380136065227
 30
0.0
 11
-1134.158680129367
 21
1804.380136065227
 31
0.0
  0
LINE
  5
1A8CF
330
1A
100
AcDbEntity
  8
_2-4_PARTS
  6
CONTINUOUS
 62
     7
100
AcDbLine
 10
-1134.158680129367
 20
1798.780136065227
 30
0.0
 11
-1136.158680129367
 21
1798.780136065227
 31
0.0
  0
LINE
  5
1A8D0
330
1A
100
AcDbEntity
  8
_2-4_PARTS
  6
CONTINUOUS
 62
     7
100
AcDbLine
 10
-1134.158680129367
 20
1798.180136065227
 30
0.0
 11
-1136.158680129367
 21
1798.180136065227
 31
0.0
  0
LINE
  5
1A8D1
330
1A
100
AcDbEntity
  8
_2-4_PARTS
  6
CONTINUOUS
 62
     7
100
AcDbLine
 10
-1134.158680129367
 20
1798.780136065227
 30
0.0
 11
-1134.158680129367
 21
1809.080136065227
 31
0.0
  0
LINE
  5
1A8D2
330
1A
100
AcDbEntity
  8
_2-4_PARTS
  6
CONTINUOUS
 62
     7
100
AcDbLine
 10
-1136.158680129367
 20
1798.780136065227
 30
0.0
 11
-1136.158680129367
 21
1809.080136065227
 31
0.0
  0
LINE
  5
1A8D3
330
1A
100
AcDbEntity
  8
ZISSEN1
100
AcDbLine
 10
-1133.658680129367
 20
1837.780136065227
 30
0.0
 11
-1132.058680129367
 21
1837.780136065227
 31
0.0
  0
LINE
  5
1A8D4
330
1A
100
AcDbEntity
  8
ZISSEN1
100
AcDbLine
 10
-1133.658680129367
 20
1836.780136065227
 30
0.0
 11
-1132.058680129367
 21
1836.780136065227
 31
0.0
  0
LINE
  5
1A9CD
330
1A
100
AcDbEntity
  8
CL1
100
AcDbLine
 10
-1135.314994288621
 20
1834.280136065227
 30
0.0
 11
-1130.158680129367
 21
1834.280136065227
 31
0.0
  0
VIEWPORT
  5
15177
330
15176
100
AcDbEntity
 67
     1
  8
0
100
AcDbViewport
 10
289.7907808211748
 20
153.2918350289299
 30
0.0
 40
529.6264217318991
 41
297.7727950509819
 68
     1
 69
     1
1001
ACAD
1000
MVIEW
1002
{
1070
    16
1010
0.0
1020
0.0
1030
0.0
1010
0.0
1020
0.0
1030
1.0
1040
0.0
1040
297.7727950509819
1040
289.7907808211748
1040
153.2918350289299
1040
50.0
1040
0.0
1040
0.0
1070
     0
1070
   100
1070
     1
1070
     0
1070
     0
1070
     0
1070
     0
1070
     0
1040
0.0
1040
0.0
1040
0.0
1040
1.0
1040
1.0
1040
10.0
1040
10.0
1070
     0
1002
{
1002
}
1002
}
  0
VIEWPORT
  5
15178
330
15176
100
AcDbEntity
 67
     1
  8
ZISSEN1
100
AcDbViewport
 10
221.7861955525412
 20
157.6960273330388
 30
0.0
 40
385.4999999999997
 41
259.9999999999999
 68
     2
 69
     2
1001
ACAD
1000
MVIEW
1002
{
1070
    16
1010
0.0
1020
0.0
1030
0.0
1010
0.0
1020
0.0
1030
1.0
1040
0.0
1040
259.9999999999999
1040
-1208.566593885456
1040
1833.32667162199
1040
50.0
1040
0.0
1040
0.0
1070
     0
1070
   100
1070
     1
1070
     0
1070
     0
1070
     0
1070
     0
1070
     0
1040
0.0
1040
0.0
1040
0.0
1040
1.0
1040
1.0
1040
10.0
1040
10.0
1070
     0
1002
{
1002
}
1002
}
  0
TEXT
  5
15179
330
15176
100
AcDbEntity
 67
     1
  8
SUNPOU
 62
     0
100
AcDbText
 10
374.1863124306944
 20
60.86794705907585
 30
0.0
 40
3.5
  1
縮尺 1/1
100
AcDbText
  0
LEADER
  5
1AAD1
330
15176
100
AcDbEntity
 67
     1
  8
SUNPOU
100
AcDbLeader
  3
標準スタイル
 76
     3
 10
170.6921143050697
 20
158.6494916156738
 30
0.0
 10
179.752353601063
 20
167.5338891881973
 30
0.0
 10
199.507053110811
 20
167.5338891881973
 30
0.0
1001
ACAD
1000
DSTYLE
1002
{
1070
     5
1000

1070
    77
1070
     0
1070
   147
1040
1.0
1002
}
  0
MTEXT
  5
1AAD2
330
15176
100
AcDbEntity
 67
     1
  8
ZISSEN1
 62
     1
100
AcDbMText
 10
179.8777036970918
 20
172.1614653659959
 30
0.0
 40
3.5
 41
25.8939756371994
 71
     1
 72
     5
  1
4-φ3.5
1001
ACAD
1000
MTEXTBEGIN
1070
    73
1070
     1
1070
    44
1040
1.0
1070
    74
1070
     0
1000
MTEXTEND
  0
ENDSEC
  0
SECTION
  2
OBJECTS
  0
DICTIONARY
  5
C
330
0
100
AcDbDictionary
  3
ACAD_GROUP
350
D
  3
ACAD_LAYOUT
350
5C7D
  3
ACAD_MLINESTYLE
350
E
  3
ACAD_PLOTSETTINGS
350
5C7E
  3
ACAD_PLOTSTYLENAME
350
5C7B
  3
ACADDIM
350
16AEF
  3
ACDBVARIABLEDICTIONARY
350
13217
  3
DWGPROPS
350
5E8E
  3
ACDBHEADERROUNDTRIPXREC
350
1AAD9
  0
DICTIONARY
  5
1AAF9
330
1A
100
AcDbDictionary
280
     1
  3
ACAD_LAYOUTSELFREF
360
1AAFA
  0
DICTIONARY
  5
1AAFB
330
15176
100
AcDbDictionary
280
     1
  3
ACAD_LAYOUTSELFREF
360
1AAFC
  0
DICTIONARY
  5
D
102
{ACAD_REACTORS
330
C
102
}
330
C
100
AcDbDictionary
  3
*A1
350
477D
  3
*A2
350
4C10
  3
*A3
350
4C11
  3
*A4
350
4C12
  3
*A5
350
4C13
  3
*A6
350
4C14
  3
*A7
350
4C15
  3
*A8
350
4C16
  3
*A9
350
4C17
  3
*A10
350
477E
  3
*A11
350
477F
  3
*A12
350
4780
  3
*A13
350
4781
  3
*A14
350
13853
  3
*A15
350
4C0E
  3
*A16
350
4C0F
  0
DICTIONARY
  5
5C7D
102
{ACAD_REACTORS
330
C
102
}
330
C
100
AcDbDictionary
  0
DICTIONARY
  5
E
102
{ACAD_REACTORS
330
C
102
}
330
C
100
AcDbDictionary
  3
STANDARD
350
13
  0
DICTIONARY
  5
5C7E
102
{ACAD_REACTORS
330
C
102
}
330
C
100
AcDbDictionary
  0
ACDBDICTIONARYWDFLT
  5
5C7B
102
{ACAD_REACTORS
330
C
102
}
330
C
100
AcDbDictionary
281
     1
  3
Normal
350
5C7C
100
AcDbDictionaryWithDefault
340
5C7C
  0
XRECORD
  5
16AEF
102
{ACAD_REACTORS
330
C
102
}
330
C
100
AcDbXrecord
 90
   990106
  3

 60
     0
 61
     0
 62
     1
 63
     3
 64
     0
 65
     0
 66
     0
 67
     3
 68
     1
 69
     0
 70
     0
 71
     0
 72
     0
 40
0.0
170
     0
  0
DICTIONARY
  5
13217
102
{ACAD_REACTORS
330
C
102
}
330
C
100
AcDbDictionary
  3
SORTENTS
350
13218
  0
XRECORD
  5
5E8E
102
{ACAD_REACTORS
330
C
102
}
330
C
100
AcDbXrecord
  1
DWGPROPS COOKIE
  2

  3

  4

  6

  7

  8

  9

300
=
301
=
302
=
303
=
304
=
305
=
306
=
307
=
308
=
309
=
 40
0.586753587962963
 41
2450495.493631365
 42
2453208.662277431
  1

 90
        0
  0
DICTIONARY
  5
1AAD9
102
{ACAD_REACTORS
330
C
102
}
330
C
100
AcDbDictionary
  3
TSTACKALIGN
350
1AADA
  3
TSTACKSIZE
350
1AADB
  3
HYPERLINKBASE
350
1AADC
  3
STYLESHEET
350
1AADD
  3
LAYOUTDICT
350
1AADE
  3
PLOTSETDICT
350
1AADF
  3
PLOTSTYLNAMDICT
350
1AAE0
  3
LWETCUNION
350
1AAE1
  3
INSUNITS
350
1AAE2
  3
CEPSNTYPE
350
1AAE3
  3
FINGERPRINTGUID
350
1AAE4
  3
VERSIONGUID
350
1AAE5
  3
PSVPSCALE
350
1AAE6
  3
PUCSORTHOREF
350
1AAE7
  3
PUCSORTHOVIEW
350
1AAE8
  3
PUCSBASE
350
1AAE9
  3
PUCSORGTOP
350
1AAEA
  3
PUCSORGBOTTOM
350
1AAEB
  3
PUCSORGLEFT
350
1AAEC
  3
PUCSORGRIGHT
350
1AAED
  3
PUCSORGFRONT
350
1AAEE
  3
PUCSORGBACK
350
1AAEF
  3
UCSORTHOREF
350
1AAF0
  3
UCSORTHOVIEW
350
1AAF1
  3
UCSBASE
350
1AAF2
  3
UCSORGTOP
350
1AAF3
  3
UCSORGBOTTOM
350
1AAF4
  3
UCSORGLEFT
350
1AAF5
  3
UCSORGRIGHT
350
1AAF6
  3
UCSORGFRONT
350
1AAF7
  3
UCSORGBACK
350
1AAF8
  0
XRECORD
  5
1AAFA
102
{ACAD_REACTORS
330
1AAF9
102
}
330
1AAF9
100
AcDbXrecord
340
1A
  0
XRECORD
  5
1AAFC
102
{ACAD_REACTORS
330
1AAFB
102
}
330
1AAFB
100
AcDbXrecord
340
15176
  0
GROUP
  5
477D
102
{ACAD_REACTORS
330
D
102
}
330
D
100
AcDbGroup
300

 70
     1
 71
     1
  0
GROUP
  5
4C10
102
{ACAD_REACTORS
330
D
102
}
330
D
100
AcDbGroup
300

 70
     1
 71
     1
  0
GROUP
  5
4C11
102
{ACAD_REACTORS
330
D
102
}
330
D
100
AcDbGroup
300

 70
     1
 71
     1
  0
GROUP
  5
4C12
102
{ACAD_REACTORS
330
D
102
}
330
D
100
AcDbGroup
300

 70
     1
 71
     1
  0
GROUP
  5
4C13
102
{ACAD_REACTORS
330
D
102
}
330
D
100
AcDbGroup
300

 70
     1
 71
     1
  0
GROUP
  5
4C14
102
{ACAD_REACTORS
330
D
102
}
330
D
100
AcDbGroup
300

 70
     1
 71
     1
  0
GROUP
  5
4C15
102
{ACAD_REACTORS
330
D
102
}
330
D
100
AcDbGroup
300

 70
     1
 71
     1
  0
GROUP
  5
4C16
102
{ACAD_REACTORS
330
D
102
}
330
D
100
AcDbGroup
300

 70
     1
 71
     1
  0
GROUP
  5
4C17
102
{ACAD_REACTORS
330
D
102
}
330
D
100
AcDbGroup
300

 70
     1
 71
     1
  0
GROUP
  5
477E
102
{ACAD_REACTORS
330
D
102
}
330
D
100
AcDbGroup
300

 70
     1
 71
     1
  0
GROUP
  5
477F
102
{ACAD_REACTORS
330
D
102
}
330
D
100
AcDbGroup
300

 70
     1
 71
     1
  0
GROUP
  5
4780
102
{ACAD_REACTORS
330
D
102
}
330
D
100
AcDbGroup
300

 70
     1
 71
     1
  0
GROUP
  5
4781
102
{ACAD_REACTORS
330
D
102
}
330
D
100
AcDbGroup
300

 70
     1
 71
     1
  0
GROUP
  5
13853
102
{ACAD_REACTORS
330
D
102
}
330
D
100
AcDbGroup
300

 70
     1
 71
     1
  0
GROUP
  5
4C0E
102
{ACAD_REACTORS
330
D
102
}
330
D
100
AcDbGroup
300

 70
     1
 71
     1
  0
GROUP
  5
4C0F
102
{ACAD_REACTORS
330
D
102
}
330
D
100
AcDbGroup
300

 70
     1
 71
     1
  0
MLINESTYLE
  5
13
102
{ACAD_REACTORS
330
E
102
}
330
E
100
AcDbMlineStyle
  2
STANDARD
 70
     0
  3

 62
     0
 51
90.0
 52
90.0
 71
     2
 49
0.5
 62
   256
  6
BYLAYER
 49
-0.5
 62
   256
  6
BYLAYER
  0
ACDBPLACEHOLDER
  5
5C7C
102
{ACAD_REACTORS
330
5C7B
102
}
330
5C7B
100
AcDbPlaceHolder
280
     0
  0
DICTIONARYVAR
  5
13218
102
{ACAD_REACTORS
330
13217
102
}
330
13217
100
DictionaryVariables
280
     0
  1
96
  0
XRECORD
  5
1AADA
102
{ACAD_REACTORS
330
1AAD9
102
}
330
1AAD9
100
AcDbXrecord
 90
        1
  0
XRECORD
  5
1AADB
102
{ACAD_REACTORS
330
1AAD9
102
}
330
1AAD9
100
AcDbXrecord
 90
       70
  0
XRECORD
  5
1AADC
102
{ACAD_REACTORS
330
1AAD9
102
}
330
1AAD9
100
AcDbXrecord
  1

  0
XRECORD
  5
1AADD
102
{ACAD_REACTORS
330
1AAD9
102
}
330
1AAD9
100
AcDbXrecord
  1

  0
XRECORD
  5
1AADE
102
{ACAD_REACTORS
330
1AAD9
102
}
330
1AAD9
100
AcDbXrecord
340
5C7D
  0
XRECORD
  5
1AADF
102
{ACAD_REACTORS
330
1AAD9
102
}
330
1AAD9
100
AcDbXrecord
340
5C7E
  0
XRECORD
  5
1AAE0
102
{ACAD_REACTORS
330
1AAD9
102
}
330
1AAD9
100
AcDbXrecord
340
5C7B
  0
XRECORD
  5
1AAE1
102
{ACAD_REACTORS
330
1AAD9
102
}
330
1AAD9
100
AcDbXrecord
 90
    10781
  0
XRECORD
  5
1AAE2
102
{ACAD_REACTORS
330
1AAD9
102
}
330
1AAD9
100
AcDbXrecord
 90
        0
  0
XRECORD
  5
1AAE3
102
{ACAD_REACTORS
330
1AAD9
102
}
330
1AAD9
100
AcDbXrecord
 90
        0
  0
XRECORD
  5
1AAE4
102
{ACAD_REACTORS
330
1AAD9
102
}
330
1AAD9
100
AcDbXrecord
  1
{225A7F0D-DA29-11D8-946A-0000E2416295}
  0
XRECORD
  5
1AAE5
102
{ACAD_REACTORS
330
1AAD9
102
}
330
1AAD9
100
AcDbXrecord
  1
{0C3C1054-1A89-4A9D-B54F-F9A34A39CFF0}
  0
XRECORD
  5
1AAE6
102
{ACAD_REACTORS
330
1AAD9
102
}
330
1AAD9
100
AcDbXrecord
 40
0.0
  0
XRECORD
  5
1AAE7
102
{ACAD_REACTORS
330
1AAD9
102
}
330
1AAD9
100
AcDbXrecord
340
0
  0
XRECORD
  5
1AAE8
102
{ACAD_REACTORS
330
1AAD9
102
}
330
1AAD9
100
AcDbXrecord
 70
     0
  0
XRECORD
  5
1AAE9
102
{ACAD_REACTORS
330
1AAD9
102
}
330
1AAD9
100
AcDbXrecord
340
0
  0
XRECORD
  5
1AAEA
102
{ACAD_REACTORS
330
1AAD9
102
}
330
1AAD9
100
AcDbXrecord
 10
0.0
 20
0.0
 30
0.0
  0
XRECORD
  5
1AAEB
102
{ACAD_REACTORS
330
1AAD9
102
}
330
1AAD9
100
AcDbXrecord
 10
0.0
 20
0.0
 30
0.0
  0
XRECORD
  5
1AAEC
102
{ACAD_REACTORS
330
1AAD9
102
}
330
1AAD9
100
AcDbXrecord
 10
0.0
 20
0.0
 30
0.0
  0
XRECORD
  5
1AAED
102
{ACAD_REACTORS
330
1AAD9
102
}
330
1AAD9
100
AcDbXrecord
 10
0.0
 20
0.0
 30
0.0
  0
XRECORD
  5
1AAEE
102
{ACAD_REACTORS
330
1AAD9
102
}
330
1AAD9
100
AcDbXrecord
 10
0.0
 20
0.0
 30
0.0
  0
XRECORD
  5
1AAEF
102
{ACAD_REACTORS
330
1AAD9
102
}
330
1AAD9
100
AcDbXrecord
 10
0.0
 20
0.0
 30
0.0
  0
XRECORD
  5
1AAF0
102
{ACAD_REACTORS
330
1AAD9
102
}
330
1AAD9
100
AcDbXrecord
340
0
  0
XRECORD
  5
1AAF1
102
{ACAD_REACTORS
330
1AAD9
102
}
330
1AAD9
100
AcDbXrecord
 70
     0
  0
XRECORD
  5
1AAF2
102
{ACAD_REACTORS
330
1AAD9
102
}
330
1AAD9
100
AcDbXrecord
340
0
  0
XRECORD
  5
1AAF3
102
{ACAD_REACTORS
330
1AAD9
102
}
330
1AAD9
100
AcDbXrecord
 10
0.0
 20
0.0
 30
0.0
  0
XRECORD
  5
1AAF4
102
{ACAD_REACTORS
330
1AAD9
102
}
330
1AAD9
100
AcDbXrecord
 10
0.0
 20
0.0
 30
0.0
  0
XRECORD
  5
1AAF5
102
{ACAD_REACTORS
330
1AAD9
102
}
330
1AAD9
100
AcDbXrecord
 10
0.0
 20
0.0
 30
0.0
  0
XRECORD
  5
1AAF6
102
{ACAD_REACTORS
330
1AAD9
102
}
330
1AAD9
100
AcDbXrecord
 10
0.0
 20
0.0
 30
0.0
  0
XRECORD
  5
1AAF7
102
{ACAD_REACTORS
330
1AAD9
102
}
330
1AAD9
100
AcDbXrecord
 10
0.0
 20
0.0
 30
0.0
  0
XRECORD
  5
1AAF8
102
{ACAD_REACTORS
330
1AAD9
102
}
330
1AAD9
100
AcDbXrecord
 10
0.0
 20
0.0
 30
0.0
  0
ENDSEC
  0
EOF
