  0
SECTION
  2
HEADER
  9
$ACADVER
  1
AC1014
  9
$ACADMAINTVER
 70
     9
  9
$DWGCODEPAGE
  3
ANSI_932
  9
$INSBASE
 10
0.0
 20
0.0
 30
0.0
  9
$EXTMIN
 10
-1147.982800481483
 20
1553.634875139987
 30
0.0
  9
$EXTMAX
 10
-900.9156926049643
 20
1923.385525175505
 30
0.0
  9
$LIMMIN
 10
0.0
 20
0.0
  9
$LIMMAX
 10
420.0
 20
297.0
  9
$ORTHOMODE
 70
     0
  9
$REGENMODE
 70
     1
  9
$FILLMODE
 70
     1
  9
$QTEXTMODE
 70
     0
  9
$MIRRTEXT
 70
     1
  9
$DRAGMODE
 70
     2
  9
$LTSCALE
 40
1.0
  9
$OSMODE
 70
    37
  9
$ATTMODE
 70
     1
  9
$TEXTSIZE
 40
2.5
  9
$TRACEWID
 40
1.0
  9
$TEXTSTYLE
  7
ゴシック体
  9
$CLAYER
  8
CL1
  9
$CELTYPE
  6
BYLAYER
  9
$CECOLOR
 62
   256
  9
$CELTSCALE
 40
1.0
  9
$DELOBJ
 70
     1
  9
$DISPSILH
 70
     0
  9
$DIMSCALE
 40
0.0
  9
$DIMASZ
 40
3.0
  9
$DIMEXO
 40
0.5
  9
$DIMDLI
 40
0.5
  9
$DIMRND
 40
0.0
  9
$DIMDLE
 40
0.0
  9
$DIMEXE
 40
0.5
  9
$DIMTP
 40
0.0
  9
$DIMTM
 40
0.0
  9
$DIMTXT
 40
3.5
  9
$DIMCEN
 40
0.0
  9
$DIMTSZ
 40
0.0
  9
$DIMTOL
 70
     0
  9
$DIMLIM
 70
     0
  9
$DIMTIH
 70
     0
  9
$DIMTOH
 70
     0
  9
$DIMSE1
 70
     0
  9
$DIMSE2
 70
     0
  9
$DIMTAD
 70
     1
  9
$DIMZIN
 70
     8
  9
$DIMBLK
  1

  9
$DIMASO
 70
     1
  9
$DIMSHO
 70
     1
  9
$DIMPOST
  1

  9
$DIMAPOST
  1

  9
$DIMALT
 70
     0
  9
$DIMALTD
 70
     2
  9
$DIMALTF
 40
25.4
  9
$DIMLFAC
 40
1.0
  9
$DIMTOFL
 70
     1
  9
$DIMTVP
 40
0.0
  9
$DIMTIX
 70
     0
  9
$DIMSOXD
 70
     0
  9
$DIMSAH
 70
     0
  9
$DIMBLK1
  1

  9
$DIMBLK2
  1

  9
$DIMSTYLE
  2
標準スタイル
  9
$DIMCLRD
 70
     1
  9
$DIMCLRE
 70
     1
  9
$DIMCLRT
 70
     1
  9
$DIMTFAC
 40
1.0
  9
$DIMGAP
 40
1.0
  9
$DIMJUST
 70
     0
  9
$DIMSD1
 70
     0
  9
$DIMSD2
 70
     0
  9
$DIMTOLJ
 70
     1
  9
$DIMTZIN
 70
     8
  9
$DIMALTZ
 70
     0
  9
$DIMALTTZ
 70
     0
  9
$DIMFIT
 70
     3
  9
$DIMUPT
 70
     0
  9
$DIMUNIT
 70
     2
  9
$DIMDEC
 70
     2
  9
$DIMTDEC
 70
     2
  9
$DIMALTU
 70
     2
  9
$DIMALTTD
 70
     2
  9
$DIMTXSTY
  7
ゴシック体
  9
$DIMAUNIT
 70
     0
  9
$LUNITS
 70
     2
  9
$LUPREC
 70
     4
  9
$SKETCHINC
 40
1.0
  9
$FILLETRAD
 40
1.0
  9
$AUNITS
 70
     0
  9
$AUPREC
 70
     0
  9
$MENU
  1
.
  9
$ELEVATION
 40
0.0
  9
$PELEVATION
 40
0.0
  9
$THICKNESS
 40
0.0
  9
$LIMCHECK
 70
     0
  9
$BLIPMODE
 70
     0
  9
$CHAMFERA
 40
1.0
  9
$CHAMFERB
 40
1.0
  9
$CHAMFERC
 40
2.0
  9
$CHAMFERD
 40
0.7853981633974483
  9
$SKPOLY
 70
     0
  9
$TDCREATE
 40
2450495.493631365
  9
$TDUPDATE
 40
2458871.613148426
  9
$TDINDWG
 40
2.7146179282
  9
$TDUSRTIMER
 40
2.7146179282
  9
$USRTIMER
 70
     1
  9
$ANGBASE
 50
0.0
  9
$ANGDIR
 70
     0
  9
$PDMODE
 70
    99
  9
$PDSIZE
 40
0.0
  9
$PLINEWID
 40
0.0
  9
$COORDS
 70
     0
  9
$SPLFRAME
 70
     0
  9
$SPLINETYPE
 70
     6
  9
$SPLINESEGS
 70
     8
  9
$ATTDIA
 70
     0
  9
$ATTREQ
 70
     1
  9
$HANDLING
 70
 10241
  9
$HANDSEED
  5
17458
  9
$SURFTAB1
 70
     6
  9
$SURFTAB2
 70
     6
  9
$SURFTYPE
 70
     6
  9
$SURFU
 70
     6
  9
$SURFV
 70
     6
  9
$UCSNAME
  2

  9
$UCSORG
 10
0.0
 20
0.0
 30
0.0
  9
$UCSXDIR
 10
1.0
 20
0.0
 30
0.0
  9
$UCSYDIR
 10
0.0
 20
1.0
 30
0.0
  9
$PUCSNAME
  2

  9
$PUCSORG
 10
0.0
 20
0.0
 30
0.0
  9
$PUCSXDIR
 10
1.0
 20
0.0
 30
0.0
  9
$PUCSYDIR
 10
0.0
 20
1.0
 30
0.0
  9
$USERI1
 70
     0
  9
$USERI2
 70
     0
  9
$USERI3
 70
     0
  9
$USERI4
 70
     0
  9
$USERI5
 70
     0
  9
$USERR1
 40
0.0
  9
$USERR2
 40
0.0
  9
$USERR3
 40
0.0
  9
$USERR4
 40
0.0
  9
$USERR5
 40
0.0
  9
$WORLDVIEW
 70
     1
  9
$SHADEDGE
 70
     3
  9
$SHADEDIF
 70
    70
  9
$TILEMODE
 70
     0
  9
$MAXACTVP
 70
    16
  9
$PINSBASE
 10
0.0
 20
0.0
 30
0.0
  9
$PLIMCHECK
 70
     0
  9
$PEXTMIN
 10
29.03619555254135
 20
27.69602733303884
 30
0.0
  9
$PEXTMAX
 10
414.5361955525411
 20
287.6960273330388
 30
0.0
  9
$PLIMMIN
 10
15.15433780389673
 20
13.80781516542163
  9
$PLIMMAX
 10
435.1009930773342
 20
310.8184658001872
  9
$UNITMODE
 70
     0
  9
$VISRETAIN
 70
     0
  9
$PLINEGEN
 70
     0
  9
$PSLTSCALE
 70
     1
  9
$TREEDEPTH
 70
  3020
  9
$PICKSTYLE
 70
     1
  9
$CMLSTYLE
  2
STANDARD
  9
$CMLJUST
 70
     0
  9
$CMLSCALE
 40
1.0
  9
$PROXYGRAPHICS
 70
     1
  9
$MEASUREMENT
 70
     0
  0
ENDSEC
  0
SECTION
  2
CLASSES
  0
CLASS
  1
LWPOLYLINE
  2
AcDbPolyline
  3
AutoCAD 2000
 90
        0
280
     0
281
     1
  0
CLASS
  1
HATCH
  2
AcDbHatch
  3
AutoCAD 2000
 90
        0
280
     0
281
     1
  0
CLASS
  1
ACDBDICTIONARYWDFLT
  2
AcDbDictionaryWithDefault
  3
AutoCAD 2000
 90
        0
280
     0
281
     0
  0
CLASS
  1
ACDBPLACEHOLDER
  2
AcDbPlaceHolder
  3
AutoCAD 2000
 90
        0
280
     0
281
     0
  0
CLASS
  1
LAYOUT
  2
AcDbLayout
  3
AutoCAD 2000
 90
        0
280
     0
281
     0
  0
CLASS
  1
DICTIONARYVAR
  2
AcDbDictionaryVar
  3
AutoCAD 2000
 90
        0
280
     0
281
     0
  0
CLASS
  1
LONG_TRANSACTION
  2
AcDbLongTransaction
  3
AutoCAD 2000
 90
        0
280
     0
281
     0
  0
CLASS
  1
LWPOLYLINE
  2
AcDbPolyline
  3
AutoCAD 2000
 90
        0
280
     0
281
     1
  0
CLASS
  1
HATCH
  2
AcDbHatch
  3
AutoCAD 2000
 90
        0
280
     0
281
     1
  0
CLASS
  1
XRECORD
  2
AcDbXrecord
  3
AutoCAD 2000
 90
        0
280
     0
281
     0
  0
ENDSEC
  0
SECTION
  2
TABLES
  0
TABLE
  2
VPORT
  5
8
330
0
100
AcDbSymbolTable
 70
     4
  0
VPORT
  5
17421
330
8
100
AcDbSymbolTableRecord
100
AcDbViewportTableRecord
  2
*ACTIVE
 70
     0
 10
0.0
 20
0.0
 11
1.0
 21
1.0
 12
-1024.455344003338
 22
1738.475091999553
 13
0.0
 23
0.0
 14
5.0
 24
5.0
 15
0.0
 25
0.0
 16
0.0
 26
0.0
 36
1.0
 17
0.0
 27
0.0
 37
0.0
 40
374.1661353810677
 41
1.778625954198473
 42
50.0
 43
0.0
 44
0.0
 50
0.0
 51
0.0
 71
     0
 72
   100
 73
     1
 74
     0
 75
     0
 76
     0
 77
     0
 78
     0
  0
ENDTAB
  0
TABLE
  2
LTYPE
  5
5
330
0
100
AcDbSymbolTable
 70
     2
  0
LTYPE
  5
14
330
5
100
AcDbSymbolTableRecord
100
AcDbLinetypeTableRecord
  2
BYBLOCK
 70
     0
  3

 72
    65
 73
     0
 40
0.0
  0
LTYPE
  5
15
330
5
100
AcDbSymbolTableRecord
100
AcDbLinetypeTableRecord
  2
BYLAYER
 70
     0
  3

 72
    65
 73
     0
 40
0.0
  0
LTYPE
  5
16
330
5
100
AcDbSymbolTableRecord
100
AcDbLinetypeTableRecord
  2
CONTINUOUS
 70
     0
  3
Solid line
 72
    65
 73
     0
 40
0.0
  0
LTYPE
  5
1956
330
5
100
AcDbSymbolTableRecord
100
AcDbLinetypeTableRecord
  2
CENTERX2
 70
     0
  3
________  __  ________  __  ________  __  _____
 72
    65
 73
     4
 40
4.0
 49
2.5
 74
     0
 49
-0.5
 74
     0
 49
0.5
 74
     0
 49
-0.5
 74
     0
  0
ENDTAB
  0
TABLE
  2
LAYER
  5
2
330
0
100
AcDbSymbolTable
 70
     5
  0
LAYER
  5
F
330
2
100
AcDbSymbolTableRecord
100
AcDbLayerTableRecord
  2
0
 70
     0
 62
     7
  6
CONTINUOUS
  0
LAYER
  5
18F
330
2
100
AcDbSymbolTableRecord
100
AcDbLayerTableRecord
  2
ZISSEN1
 70
     0
 62
     7
  6
CONTINUOUS
  0
LAYER
  5
529
330
2
100
AcDbSymbolTableRecord
100
AcDbLayerTableRecord
  2
SUNPOU
 70
     0
 62
     1
  6
CONTINUOUS
  0
LAYER
  5
195A
330
2
100
AcDbSymbolTableRecord
100
AcDbLayerTableRecord
  2
CL1
 70
     0
 62
   210
  6
CENTERX2
  0
LAYER
  5
3A9B
330
2
100
AcDbSymbolTableRecord
100
AcDbLayerTableRecord
  2
DEFPOINTS
 70
     0
 62
     7
  6
CONTINUOUS
  0
ENDTAB
  0
TABLE
  2
STYLE
  5
3
330
0
100
AcDbSymbolTable
 70
     2
  0
STYLE
  5
10
330
3
100
AcDbSymbolTableRecord
100
AcDbTextStyleTableRecord
  2
STANDARD
 70
     0
 40
0.0
 41
1.0
 50
0.0
 71
     0
 42
3.0
  3
txt
  4
BigFont
  0
STYLE
  5
1960
330
3
100
AcDbSymbolTableRecord
100
AcDbTextStyleTableRecord
  2
ゴシック体
 70
     0
 40
0.0
 41
1.0
 50
0.0
 71
     0
 42
2.5
  3
MS Gothic.ttf
  4

1001
ACAD
1000
MS Gothic
1071
    32817
  0
ENDTAB
  0
TABLE
  2
VIEW
  5
6
330
0
100
AcDbSymbolTable
 70
     0
  0
ENDTAB
  0
TABLE
  2
UCS
  5
7
330
0
100
AcDbSymbolTable
 70
     0
  0
ENDTAB
  0
TABLE
  2
APPID
  5
9
330
0
100
AcDbSymbolTable
 70
     5
  0
APPID
  5
11
330
9
100
AcDbSymbolTableRecord
100
AcDbRegAppTableRecord
  2
ACAD
 70
     0
  0
APPID
  5
4005
330
9
100
AcDbSymbolTableRecord
100
AcDbRegAppTableRecord
  2
CONTENTTABDATA
 70
     0
  0
APPID
  5
4006
330
9
100
AcDbSymbolTableRecord
100
AcDbRegAppTableRecord
  2
CONTENTCURRENTTAB
 70
     0
  0
APPID
  5
477B
330
9
100
AcDbSymbolTableRecord
100
AcDbRegAppTableRecord
  2
CONTENTBLOCKDESCRIPTION
 70
     0
  0
APPID
  5
477C
330
9
100
AcDbSymbolTableRecord
100
AcDbRegAppTableRecord
  2
CONTENTBLOCKICON
 70
     0
  0
ENDTAB
  0
TABLE
  2
DIMSTYLE
  5
A
330
0
100
AcDbSymbolTable
 70
     2
  0
DIMSTYLE
105
1D
330
A
100
AcDbSymbolTableRecord
100
AcDbDimStyleTableRecord
  2
STANDARD
 70
     0
  3

  4

  5

  6

  7

 40
1.0
 41
0.18
 42
0.0625
 43
0.38
 44
0.18
 45
0.0
 46
0.0
 47
0.0
 48
0.0
140
0.18
141
0.09
142
0.0
143
25.4
144
1.0
145
0.0
146
1.0
147
0.09
 71
     0
 72
     0
 73
     1
 74
     1
 75
     0
 76
     0
 77
     0
 78
     0
170
     0
171
     2
172
     0
173
     0
174
     0
175
     0
176
     0
177
     0
178
     0
270
     2
271
     4
272
     4
273
     2
274
     2
340
10
275
     0
280
     0
281
     0
282
     0
283
     1
284
     0
285
     0
286
     0
287
     3
288
     0
  0
DIMSTYLE
105
52E
102
{ACAD_REACTORS
330
16E1F
330
16E20
330
16E22
330
16E23
330
16E9C
330
16E9D
330
16E9E
330
16EA7
330
16ED0
102
}
330
A
100
AcDbSymbolTableRecord
100
AcDbDimStyleTableRecord
  2
標準スタイル
 70
     0
  3

  4

  5

  6

  7

 40
0.0
 41
3.0
 42
0.5
 43
0.5
 44
0.5
 45
0.0
 46
0.0
 47
0.0
 48
0.0
140
3.5
141
0.0
142
0.0
143
25.4
144
1.0
145
0.0
146
1.0
147
1.0
 71
     0
 72
     0
 73
     0
 74
     0
 75
     0
 76
     0
 77
     1
 78
     8
170
     0
171
     2
172
     1
173
     0
174
     0
175
     0
176
     1
177
     1
178
     1
270
     2
271
     2
272
     2
273
     2
274
     2
340
1960
275
     0
280
     0
281
     0
282
     0
283
     1
284
     8
285
     0
286
     0
287
     3
288
     0
  0
ENDTAB
  0
TABLE
  2
BLOCK_RECORD
  5
1
330
0
100
AcDbSymbolTable
 70
     9
  0
BLOCK_RECORD
  5
1A
102
{ACAD_XDICTIONARY
360
17442
102
}
330
1
100
AcDbSymbolTableRecord
100
AcDbBlockTableRecord
  2
*MODEL_SPACE
  0
BLOCK_RECORD
  5
15176
102
{ACAD_XDICTIONARY
360
17444
102
}
330
1
100
AcDbSymbolTableRecord
100
AcDbBlockTableRecord
  2
*PAPER_SPACE
  0
BLOCK_RECORD
  5
172EA
330
1
100
AcDbSymbolTableRecord
100
AcDbBlockTableRecord
  2
*D0
  0
BLOCK_RECORD
  5
172F6
330
1
100
AcDbSymbolTableRecord
100
AcDbBlockTableRecord
  2
*D1
  0
BLOCK_RECORD
  5
17302
330
1
100
AcDbSymbolTableRecord
100
AcDbBlockTableRecord
  2
*D2
  0
BLOCK_RECORD
  5
1730E
330
1
100
AcDbSymbolTableRecord
100
AcDbBlockTableRecord
  2
*D3
  0
BLOCK_RECORD
  5
1731A
330
1
100
AcDbSymbolTableRecord
100
AcDbBlockTableRecord
  2
*D4
  0
BLOCK_RECORD
  5
17326
330
1
100
AcDbSymbolTableRecord
100
AcDbBlockTableRecord
  2
*D5
  0
BLOCK_RECORD
  5
17332
330
1
100
AcDbSymbolTableRecord
100
AcDbBlockTableRecord
  2
*D6
  0
BLOCK_RECORD
  5
1733E
330
1
100
AcDbSymbolTableRecord
100
AcDbBlockTableRecord
  2
*D7
  0
BLOCK_RECORD
  5
1734A
330
1
100
AcDbSymbolTableRecord
100
AcDbBlockTableRecord
  2
*D8
  0
ENDTAB
  0
ENDSEC
  0
SECTION
  2
BLOCKS
  0
BLOCK
  5
1B
330
1A
100
AcDbEntity
  8
0
100
AcDbBlockBegin
  2
*MODEL_SPACE
 70
     0
 10
0.0
 20
0.0
 30
0.0
  3
*MODEL_SPACE
  1

  0
ENDBLK
  5
1C
330
1A
100
AcDbEntity
  8
0
100
AcDbBlockEnd
  0
BLOCK
  5
1517A
330
15176
100
AcDbEntity
 67
     1
  8
0
100
AcDbBlockBegin
  2
*PAPER_SPACE
 70
     0
 10
0.0
 20
0.0
 30
0.0
  3
*PAPER_SPACE
  1

  0
ENDBLK
  5
1517B
330
15176
100
AcDbEntity
 67
     1
  8
0
100
AcDbBlockEnd
  0
BLOCK
  5
172F4
330
172EA
100
AcDbEntity
  8
0
100
AcDbBlockBegin
  2
*D0
 70
     1
 10
0.0
 20
0.0
 30
0.0
  3
*D0
  1

  0
LINE
  5
17446
330
172EA
100
AcDbEntity
  8
SUNPOU
 62
     1
100
AcDbLine
 10
-1010.765401613657
 20
1686.243417558515
 30
0.0
 11
-1010.765401613657
 21
1674.256711831707
 31
0.0
  0
LINE
  5
17447
330
172EA
100
AcDbEntity
  8
SUNPOU
 62
     1
100
AcDbLine
 10
-955.7654057376547
 20
1686.243417558515
 30
0.0
 11
-955.7654057376547
 21
1674.256711831707
 31
0.0
  0
LINE
  5
17448
330
172EA
100
AcDbEntity
  8
SUNPOU
 62
     1
100
AcDbLine
 10
-1007.765401613657
 20
1674.756711831708
 30
0.0
 11
-958.7654057376546
 21
1674.756711831708
 31
0.0
  0
SOLID
  5
17449
330
172EA
100
AcDbEntity
  8
SUNPOU
 62
     1
100
AcDbTrace
 10
-1007.765401613657
 20
1675.256711831708
 30
0.0
 11
-1007.765401613657
 21
1674.256711831707
 31
0.0
 12
-1010.765401613657
 22
1674.756711831708
 32
0.0
 13
-1010.765401613657
 23
1674.756711831708
 33
0.0
  0
SOLID
  5
1744A
330
172EA
100
AcDbEntity
  8
SUNPOU
 62
     1
100
AcDbTrace
 10
-958.7654057376546
 20
1675.256711831708
 30
0.0
 11
-958.7654057376546
 21
1674.256711831707
 31
0.0
 12
-955.7654057376547
 22
1674.756711831708
 32
0.0
 13
-955.7654057376547
 23
1674.756711831708
 33
0.0
  0
MTEXT
  5
1744B
330
172EA
100
AcDbEntity
  8
SUNPOU
 62
     1
100
AcDbMText
 10
-983.2654036756562
 20
1677.506711831708
 30
0.0
 40
3.5
 41
0.0
 71
     5
 72
     1
  1
\A1;55
  0
POINT
  5
1744C
330
172EA
100
AcDbEntity
  8
DEFPOINTS
 62
     0
100
AcDbPoint
 10
-1010.765401613657
 20
1686.743417558515
 30
0.0
  0
POINT
  5
1744D
330
172EA
100
AcDbEntity
  8
DEFPOINTS
 62
     0
100
AcDbPoint
 10
-955.7654057376547
 20
1686.743417558515
 30
0.0
  0
POINT
  5
1744E
330
172EA
100
AcDbEntity
  8
DEFPOINTS
 62
     0
100
AcDbPoint
 10
-955.7654057376547
 20
1674.756711831708
 30
0.0
  0
ENDBLK
  5
172F5
330
172EA
100
AcDbEntity
  8
0
100
AcDbBlockEnd
  0
BLOCK
  5
17300
330
172F6
100
AcDbEntity
  8
0
100
AcDbBlockBegin
  2
*D1
 70
     1
 10
0.0
 20
0.0
 30
0.0
  3
*D1
  1

  0
LINE
  5
1744F
330
172F6
100
AcDbEntity
  8
SUNPOU
 62
     1
100
AcDbLine
 10
-955.7654057376547
 20
1686.243417558515
 30
0.0
 11
-955.7654057376547
 21
1674.256711831707
 31
0.0
  0
LINE
  5
17450
330
172F6
100
AcDbEntity
  8
SUNPOU
 62
     1
100
AcDbLine
 10
-932.3654176147661
 20
1688.743388690536
 30
0.0
 11
-932.3654176147661
 21
1674.256711831707
 31
0.0
  0
LINE
  5
17451
330
172F6
100
AcDbEntity
  8
SUNPOU
 62
     1
100
AcDbLine
 10
-952.7654057376546
 20
1674.756711831708
 30
0.0
 11
-935.365417614766
 21
1674.756711831708
 31
0.0
  0
SOLID
  5
17452
330
172F6
100
AcDbEntity
  8
SUNPOU
 62
     1
100
AcDbTrace
 10
-952.7654057376546
 20
1675.256711831708
 30
0.0
 11
-952.7654057376546
 21
1674.256711831707
 31
0.0
 12
-955.7654057376547
 22
1674.756711831708
 32
0.0
 13
-955.7654057376547
 23
1674.756711831708
 33
0.0
  0
SOLID
  5
17453
330
172F6
100
AcDbEntity
  8
SUNPOU
 62
     1
100
AcDbTrace
 10
-935.365417614766
 20
1675.256711831708
 30
0.0
 11
-935.365417614766
 21
1674.256711831707
 31
0.0
 12
-932.3654176147661
 22
1674.756711831708
 32
0.0
 13
-932.3654176147661
 23
1674.756711831708
 33
0.0
  0
MTEXT
  5
17454
330
172F6
100
AcDbEntity
  8
SUNPOU
 62
     1
100
AcDbMText
 10
-944.0654116762104
 20
1677.506711831708
 30
0.0
 40
3.5
 41
0.0
 71
     5
 72
     1
  1
\A1;23.4
  0
POINT
  5
17455
330
172F6
100
AcDbEntity
  8
DEFPOINTS
 62
     0
100
AcDbPoint
 10
-955.7654057376547
 20
1686.743417558515
 30
0.0
  0
POINT
  5
17456
330
172F6
100
AcDbEntity
  8
DEFPOINTS
 62
     0
100
AcDbPoint
 10
-932.3654176147661
 20
1689.243388690536
 30
0.0
  0
POINT
  5
17457
330
172F6
100
AcDbEntity
  8
DEFPOINTS
 62
     0
100
AcDbPoint
 10
-932.3654176147661
 20
1674.756711831708
 30
0.0
  0
ENDBLK
  5
17301
330
172F6
100
AcDbEntity
  8
0
100
AcDbBlockEnd
  0
BLOCK
  5
1730C
330
17302
100
AcDbEntity
  8
0
100
AcDbBlockBegin
  2
*D2
 70
     1
 10
0.0
 20
0.0
 30
0.0
  3
*D2
  1

  0
LINE
  5
17368
330
17302
100
AcDbEntity
  8
SUNPOU
 62
     1
100
AcDbLine
 10
-1146.192649769406
 20
1682.243388896736
 30
0.0
 11
-1146.192649769406
 21
1662.449282929033
 31
0.0
  0
LINE
  5
17369
330
17302
100
AcDbEntity
  8
SUNPOU
 62
     1
100
AcDbLine
 10
-1044.328405789028
 20
1695.274318142883
 30
0.0
 11
-1044.328405789028
 21
1662.449282929033
 31
0.0
  0
LINE
  5
1736A
330
17302
100
AcDbEntity
  8
SUNPOU
 62
     1
100
AcDbLine
 10
-1143.192649769406
 20
1662.949282929033
 30
0.0
 11
-1047.328405789028
 21
1662.949282929033
 31
0.0
  0
SOLID
  5
1736B
330
17302
100
AcDbEntity
  8
SUNPOU
 62
     1
100
AcDbTrace
 10
-1143.192649769406
 20
1663.449282929033
 30
0.0
 11
-1143.192649769406
 21
1662.449282929033
 31
0.0
 12
-1146.192649769406
 22
1662.949282929033
 32
0.0
 13
-1146.192649769406
 23
1662.949282929033
 33
0.0
  0
SOLID
  5
1736C
330
17302
100
AcDbEntity
  8
SUNPOU
 62
     1
100
AcDbTrace
 10
-1047.328405789028
 20
1663.449282929033
 30
0.0
 11
-1047.328405789028
 21
1662.449282929033
 31
0.0
 12
-1044.328405789028
 22
1662.949282929033
 32
0.0
 13
-1044.328405789028
 23
1662.949282929033
 33
0.0
  0
MTEXT
  5
1736D
330
17302
100
AcDbEntity
  8
SUNPOU
 62
     1
100
AcDbMText
 10
-1095.260527779217
 20
1665.699282929033
 30
0.0
 40
3.5
 41
0.0
 71
     5
 72
     1
  1
\A1;101.86
1001
ACAD
1000
MTEXTBEGIN
1070
    73
1070
     1
1070
    44
1040
1.0
1070
    74
1070
     0
1000
MTEXTEND
  0
POINT
  5
1736E
330
17302
100
AcDbEntity
  8
DEFPOINTS
 62
     0
100
AcDbPoint
 10
-1146.192649769406
 20
1682.743388896736
 30
0.0
  0
POINT
  5
1736F
330
17302
100
AcDbEntity
  8
DEFPOINTS
 62
     0
100
AcDbPoint
 10
-1044.328405789028
 20
1695.774318142883
 30
0.0
  0
POINT
  5
17370
330
17302
100
AcDbEntity
  8
DEFPOINTS
 62
     0
100
AcDbPoint
 10
-1044.328405789028
 20
1662.949282929033
 30
0.0
  0
ENDBLK
  5
1730D
330
17302
100
AcDbEntity
  8
0
100
AcDbBlockEnd
  0
BLOCK
  5
17318
330
1730E
100
AcDbEntity
  8
0
100
AcDbBlockBegin
  2
*D3
 70
     1
 10
0.0
 20
0.0
 30
0.0
  3
*D3
  1

  0
LINE
  5
17371
330
1730E
100
AcDbEntity
  8
SUNPOU
 62
     1
100
AcDbLine
 10
-1146.192649769406
 20
1682.243388896736
 30
0.0
 11
-1146.192649769406
 21
1674.324073432893
 31
0.0
  0
LINE
  5
17372
330
1730E
100
AcDbEntity
  8
SUNPOU
 62
     1
100
AcDbLine
 10
-1060.19264440821
 20
1689.543386381098
 30
0.0
 11
-1060.19264440821
 21
1674.324073432893
 31
0.0
  0
LINE
  5
17373
330
1730E
100
AcDbEntity
  8
SUNPOU
 62
     1
100
AcDbLine
 10
-1143.192649769406
 20
1674.824073432893
 30
0.0
 11
-1063.19264440821
 21
1674.824073432893
 31
0.0
  0
SOLID
  5
17374
330
1730E
100
AcDbEntity
  8
SUNPOU
 62
     1
100
AcDbTrace
 10
-1143.192649769406
 20
1675.324073432893
 30
0.0
 11
-1143.192649769406
 21
1674.324073432893
 31
0.0
 12
-1146.192649769406
 22
1674.824073432893
 32
0.0
 13
-1146.192649769406
 23
1674.824073432893
 33
0.0
  0
SOLID
  5
17375
330
1730E
100
AcDbEntity
  8
SUNPOU
 62
     1
100
AcDbTrace
 10
-1063.19264440821
 20
1675.324073432893
 30
0.0
 11
-1063.19264440821
 21
1674.324073432893
 31
0.0
 12
-1060.19264440821
 22
1674.824073432893
 32
0.0
 13
-1060.19264440821
 23
1674.824073432893
 33
0.0
  0
MTEXT
  5
17376
330
1730E
100
AcDbEntity
  8
SUNPOU
 62
     1
100
AcDbMText
 10
-1103.192647088808
 20
1677.574073432893
 30
0.0
 40
3.5
 41
0.0
 71
     5
 72
     1
  1
\A1;86
1001
ACAD
1000
MTEXTBEGIN
1070
    73
1070
     1
1070
    44
1040
1.0
1070
    74
1070
     0
1000
MTEXTEND
  0
POINT
  5
17377
330
1730E
100
AcDbEntity
  8
DEFPOINTS
 62
     0
100
AcDbPoint
 10
-1146.192649769406
 20
1682.743388896736
 30
0.0
  0
POINT
  5
17378
330
1730E
100
AcDbEntity
  8
DEFPOINTS
 62
     0
100
AcDbPoint
 10
-1060.19264440821
 20
1690.043386381097
 30
0.0
  0
POINT
  5
17379
330
1730E
100
AcDbEntity
  8
DEFPOINTS
 62
     0
100
AcDbPoint
 10
-1060.19264440821
 20
1674.824073432893
 30
0.0
  0
ENDBLK
  5
17319
330
1730E
100
AcDbEntity
  8
0
100
AcDbBlockEnd
  0
BLOCK
  5
17324
330
1731A
100
AcDbEntity
  8
0
100
AcDbBlockBegin
  2
*D4
 70
     1
 10
0.0
 20
0.0
 30
0.0
  3
*D4
  1

  0
LINE
  5
1737A
330
1731A
100
AcDbEntity
  8
SUNPOU
 62
     1
100
AcDbLine
 10
-994.26539831446
 20
1686.743417558515
 30
0.0
 11
-915.1084009545938
 21
1686.743417558515
 31
0.0
  0
LINE
  5
1737B
330
1731A
100
AcDbEntity
  8
SUNPOU
 62
     1
100
AcDbLine
 10
-955.2654057376546
 20
1802.743472407676
 30
0.0
 11
-915.1084009545936
 21
1802.743472407676
 31
0.0
  0
LINE
  5
1737C
330
1731A
100
AcDbEntity
  8
SUNPOU
 62
     1
100
AcDbLine
 10
-915.6084009545937
 20
1689.743417558515
 30
0.0
 11
-915.6084009545937
 21
1799.743472407676
 31
0.0
  0
SOLID
  5
1737D
330
1731A
100
AcDbEntity
  8
SUNPOU
 62
     1
100
AcDbTrace
 10
-916.1084009545938
 20
1689.743417558515
 30
0.0
 11
-915.1084009545938
 21
1689.743417558515
 31
0.0
 12
-915.6084009545937
 22
1686.743417558515
 32
0.0
 13
-915.6084009545937
 23
1686.743417558515
 33
0.0
  0
SOLID
  5
1737E
330
1731A
100
AcDbEntity
  8
SUNPOU
 62
     1
100
AcDbTrace
 10
-916.1084009545936
 20
1799.743472407676
 30
0.0
 11
-915.1084009545936
 21
1799.743472407676
 31
0.0
 12
-915.6084009545937
 22
1802.743472407676
 32
0.0
 13
-915.6084009545937
 23
1802.743472407676
 33
0.0
  0
MTEXT
  5
1737F
330
1731A
100
AcDbEntity
  8
SUNPOU
 62
     1
100
AcDbMText
 10
-918.358400954594
 20
1744.743444983095
 30
0.0
 40
3.5
 41
0.0
 71
     5
 72
     1
  1
\A1;116(USER取付寸法)
 11
0.0000000000000001
 21
1.0
 31
0.0
1001
ACAD
1000
MTEXTBEGIN
1070
    73
1070
     1
1070
    44
1040
1.0
1070
    74
1070
     0
1000
MTEXTEND
  0
POINT
  5
17380
330
1731A
100
AcDbEntity
  8
DEFPOINTS
 62
     0
100
AcDbPoint
 10
-994.7653983144599
 20
1686.743417558515
 30
0.0
  0
POINT
  5
17381
330
1731A
100
AcDbEntity
  8
DEFPOINTS
 62
     0
100
AcDbPoint
 10
-955.7654057376547
 20
1802.743472407676
 30
0.0
  0
POINT
  5
17382
330
1731A
100
AcDbEntity
  8
DEFPOINTS
 62
     0
100
AcDbPoint
 10
-915.6084009545937
 20
1802.743472407676
 30
0.0
  0
ENDBLK
  5
17325
330
1731A
100
AcDbEntity
  8
0
100
AcDbBlockEnd
  0
BLOCK
  5
17330
330
17326
100
AcDbEntity
  8
0
100
AcDbBlockBegin
  2
*D5
 70
     1
 10
0.0
 20
0.0
 30
0.0
  3
*D5
  1

  0
LINE
  5
17383
330
17326
100
AcDbEntity
  8
SUNPOU
 62
     1
100
AcDbLine
 10
-949.065405077815
 20
1682.743416733716
 30
0.0
 11
-900.9156926049644
 21
1682.743416733716
 31
0.0
  0
LINE
  5
17384
330
17326
100
AcDbEntity
  8
SUNPOU
 62
     1
100
AcDbLine
 10
-949.065405077815
 20
1806.74341137252
 30
0.0
 11
-900.9156926049643
 21
1806.74341137252
 31
0.0
  0
LINE
  5
17385
330
17326
100
AcDbEntity
  8
SUNPOU
 62
     1
100
AcDbLine
 10
-901.4156926049643
 20
1685.743416733716
 30
0.0
 11
-901.4156926049643
 21
1803.743411372519
 31
0.0
  0
SOLID
  5
17386
330
17326
100
AcDbEntity
  8
SUNPOU
 62
     1
100
AcDbTrace
 10
-901.9156926049644
 20
1685.743416733716
 30
0.0
 11
-900.9156926049644
 21
1685.743416733716
 31
0.0
 12
-901.4156926049643
 22
1682.743416733716
 32
0.0
 13
-901.4156926049643
 23
1682.743416733716
 33
0.0
  0
SOLID
  5
17387
330
17326
100
AcDbEntity
  8
SUNPOU
 62
     1
100
AcDbTrace
 10
-901.9156926049642
 20
1803.743411372519
 30
0.0
 11
-900.9156926049643
 21
1803.743411372519
 31
0.0
 12
-901.4156926049643
 22
1806.74341137252
 32
0.0
 13
-901.4156926049643
 23
1806.74341137252
 33
0.0
  0
MTEXT
  5
17388
330
17326
100
AcDbEntity
  8
SUNPOU
 62
     1
100
AcDbMText
 10
-904.1656926049647
 20
1744.743414053117
 30
0.0
 40
3.5
 41
0.0
 71
     5
 72
     1
  1
\A1;124
 11
0.0000000000000001
 21
1.0
 31
0.0
1001
ACAD
1000
MTEXTBEGIN
1070
    73
1070
     1
1070
    44
1040
1.0
1070
    74
1070
     0
1000
MTEXTEND
  0
POINT
  5
17389
330
17326
100
AcDbEntity
  8
DEFPOINTS
 62
     0
100
AcDbPoint
 10
-949.5654050778151
 20
1682.743416733716
 30
0.0
  0
POINT
  5
1738A
330
17326
100
AcDbEntity
  8
DEFPOINTS
 62
     0
100
AcDbPoint
 10
-949.5654050778151
 20
1806.74341137252
 30
0.0
  0
POINT
  5
1738B
330
17326
100
AcDbEntity
  8
DEFPOINTS
 62
     0
100
AcDbPoint
 10
-901.4156926049643
 20
1806.74341137252
 30
0.0
  0
ENDBLK
  5
17331
330
17326
100
AcDbEntity
  8
0
100
AcDbBlockEnd
  0
BLOCK
  5
1733C
330
17332
100
AcDbEntity
  8
0
100
AcDbBlockBegin
  2
*D6
 70
     1
 10
0.0
 20
0.0
 30
0.0
  3
*D6
  1

  0
LINE
  5
1738C
330
17332
100
AcDbEntity
  8
SUNPOU
 62
     1
100
AcDbLine
 10
-1024.865450606742
 20
1791.273422523808
 30
0.0
 11
-1024.865450606742
 21
1815.374913458798
 31
0.0
  0
LINE
  5
1738D
330
17332
100
AcDbEntity
  8
SUNPOU
 62
     1
100
AcDbLine
 10
-932.3654176147661
 20
1800.743414671717
 30
0.0
 11
-932.3654176147661
 21
1815.374913458798
 31
0.0
  0
LINE
  5
1738E
330
17332
100
AcDbEntity
  8
SUNPOU
 62
     1
100
AcDbLine
 10
-1021.865450606742
 20
1814.874913458798
 30
0.0
 11
-935.365417614766
 21
1814.874913458798
 31
0.0
  0
SOLID
  5
1738F
330
17332
100
AcDbEntity
  8
SUNPOU
 62
     1
100
AcDbTrace
 10
-1021.865450606742
 20
1815.374913458798
 30
0.0
 11
-1021.865450606742
 21
1814.374913458798
 31
0.0
 12
-1024.865450606742
 22
1814.874913458798
 32
0.0
 13
-1024.865450606742
 23
1814.874913458798
 33
0.0
  0
SOLID
  5
17390
330
17332
100
AcDbEntity
  8
SUNPOU
 62
     1
100
AcDbTrace
 10
-935.365417614766
 20
1815.374913458798
 30
0.0
 11
-935.365417614766
 21
1814.374913458798
 31
0.0
 12
-932.3654176147661
 22
1814.874913458798
 32
0.0
 13
-932.3654176147661
 23
1814.874913458798
 33
0.0
  0
MTEXT
  5
17391
330
17332
100
AcDbEntity
  8
SUNPOU
 62
     1
100
AcDbMText
 10
-978.6154341107542
 20
1817.624913458798
 30
0.0
 40
3.5
 41
0.0
 71
     5
 72
     1
  1
\A1;92.5
1001
ACAD
1000
MTEXTBEGIN
1070
    73
1070
     1
1070
    44
1040
1.0
1070
    74
1070
     0
1000
MTEXTEND
  0
POINT
  5
17392
330
17332
100
AcDbEntity
  8
DEFPOINTS
 62
     0
100
AcDbPoint
 10
-1024.865450606742
 20
1790.773422523807
 30
0.0
  0
POINT
  5
17393
330
17332
100
AcDbEntity
  8
DEFPOINTS
 62
     0
100
AcDbPoint
 10
-932.3654176147661
 20
1800.243414671717
 30
0.0
  0
POINT
  5
17394
330
17332
100
AcDbEntity
  8
DEFPOINTS
 62
     0
100
AcDbPoint
 10
-932.3654176147661
 20
1814.874913458798
 30
0.0
  0
ENDBLK
  5
1733D
330
17332
100
AcDbEntity
  8
0
100
AcDbBlockEnd
  0
BLOCK
  5
17348
330
1733E
100
AcDbEntity
  8
0
100
AcDbBlockBegin
  2
*D7
 70
     1
 10
0.0
 20
0.0
 30
0.0
  3
*D7
  1

  0
LINE
  5
17395
330
1733E
100
AcDbEntity
  8
SUNPOU
 62
     1
100
AcDbLine
 10
-1061.492645397969
 20
1800.243414671717
 30
0.0
 11
-1036.522277025288
 21
1800.243414671717
 31
0.0
  0
LINE
  5
17396
330
1733E
100
AcDbEntity
  8
SUNPOU
 62
     1
100
AcDbLine
 10
-1060.492654470762
 20
1689.243388690536
 30
0.0
 11
-1036.522277025288
 21
1689.243388690536
 31
0.0
  0
LINE
  5
17397
330
1733E
100
AcDbEntity
  8
SUNPOU
 62
     1
100
AcDbLine
 10
-1037.022277025288
 20
1797.243414671717
 30
0.0
 11
-1037.022277025288
 21
1692.243388690536
 31
0.0
  0
SOLID
  5
17398
330
1733E
100
AcDbEntity
  8
SUNPOU
 62
     1
100
AcDbTrace
 10
-1037.522277025288
 20
1797.243414671717
 30
0.0
 11
-1036.522277025288
 21
1797.243414671717
 31
0.0
 12
-1037.022277025288
 22
1800.243414671717
 32
0.0
 13
-1037.022277025288
 23
1800.243414671717
 33
0.0
  0
SOLID
  5
17399
330
1733E
100
AcDbEntity
  8
SUNPOU
 62
     1
100
AcDbTrace
 10
-1037.522277025288
 20
1692.243388690536
 30
0.0
 11
-1036.522277025288
 21
1692.243388690536
 31
0.0
 12
-1037.022277025288
 22
1689.243388690536
 32
0.0
 13
-1037.022277025288
 23
1689.243388690536
 33
0.0
  0
MTEXT
  5
1739A
330
1733E
100
AcDbEntity
  8
SUNPOU
 62
     1
100
AcDbMText
 10
-1039.772277025288
 20
1744.743401681127
 30
0.0
 40
3.5
 41
0.0
 71
     5
 72
     1
  1
\A1;111
 11
0.0000000000000001
 21
1.0
 31
0.0
1001
ACAD
1000
MTEXTBEGIN
1070
    73
1070
     1
1070
    44
1040
1.0
1070
    74
1070
     0
1000
MTEXTEND
  0
POINT
  5
1739B
330
1733E
100
AcDbEntity
  8
DEFPOINTS
 62
     0
100
AcDbPoint
 10
-1061.992645397969
 20
1800.243414671717
 30
0.0
  0
POINT
  5
1739C
330
1733E
100
AcDbEntity
  8
DEFPOINTS
 62
     0
100
AcDbPoint
 10
-1060.992654470762
 20
1689.243388690536
 30
0.0
  0
POINT
  5
1739D
330
1733E
100
AcDbEntity
  8
DEFPOINTS
 62
     0
100
AcDbPoint
 10
-1037.022277025288
 20
1689.243388690536
 30
0.0
  0
ENDBLK
  5
17349
330
1733E
100
AcDbEntity
  8
0
100
AcDbBlockEnd
  0
BLOCK
  5
17354
330
1734A
100
AcDbEntity
  8
0
100
AcDbBlockBegin
  2
*D8
 70
     1
 10
0.0
 20
0.0
 30
0.0
  3
*D8
  1

  0
LINE
  5
1739E
330
1734A
100
AcDbEntity
  8
SUNPOU
 62
     1
100
AcDbLine
 10
-1024.765410686451
 20
1683.243416939916
 30
0.0
 11
-1024.765410686451
 21
1674.256711831707
 31
0.0
  0
LINE
  5
1739F
330
1734A
100
AcDbEntity
  8
SUNPOU
 62
     1
100
AcDbLine
 10
-1010.765401613657
 20
1686.243417558515
 30
0.0
 11
-1010.765401613657
 21
1674.256711831707
 31
0.0
  0
LINE
  5
173A0
330
1734A
100
AcDbEntity
  8
SUNPOU
 62
     1
100
AcDbLine
 10
-1021.765410686451
 20
1674.756711831708
 30
0.0
 11
-1013.765401613657
 21
1674.756711831708
 31
0.0
  0
SOLID
  5
173A1
330
1734A
100
AcDbEntity
  8
SUNPOU
 62
     1
100
AcDbTrace
 10
-1021.765410686451
 20
1675.256711831708
 30
0.0
 11
-1021.765410686451
 21
1674.256711831707
 31
0.0
 12
-1024.765410686451
 22
1674.756711831708
 32
0.0
 13
-1024.765410686451
 23
1674.756711831708
 33
0.0
  0
SOLID
  5
173A2
330
1734A
100
AcDbEntity
  8
SUNPOU
 62
     1
100
AcDbTrace
 10
-1013.765401613657
 20
1675.256711831708
 30
0.0
 11
-1013.765401613657
 21
1674.256711831707
 31
0.0
 12
-1010.765401613657
 22
1674.756711831708
 32
0.0
 13
-1010.765401613657
 23
1674.756711831708
 33
0.0
  0
MTEXT
  5
173A3
330
1734A
100
AcDbEntity
  8
SUNPOU
 62
     1
100
AcDbMText
 10
-1017.765406150054
 20
1677.506711831708
 30
0.0
 40
3.5
 41
0.0
 71
     5
 72
     1
  1
\A1;14
1001
ACAD
1000
MTEXTBEGIN
1070
    73
1070
     1
1070
    44
1040
1.0
1070
    74
1070
     0
1000
MTEXTEND
  0
POINT
  5
173A4
330
1734A
100
AcDbEntity
  8
DEFPOINTS
 62
     0
100
AcDbPoint
 10
-1024.765410686451
 20
1683.743416939916
 30
0.0
  0
POINT
  5
173A5
330
1734A
100
AcDbEntity
  8
DEFPOINTS
 62
     0
100
AcDbPoint
 10
-1010.765401613657
 20
1686.743417558515
 30
0.0
  0
POINT
  5
173A6
330
1734A
100
AcDbEntity
  8
DEFPOINTS
 62
     0
100
AcDbPoint
 10
-1010.765401613657
 20
1674.756711831708
 30
0.0
  0
ENDBLK
  5
17355
330
1734A
100
AcDbEntity
  8
0
100
AcDbBlockEnd
  0
ENDSEC
  0
SECTION
  2
ENTITIES
  0
MTEXT
  5
5084
330
1A
100
AcDbEntity
  8
0
100
AcDbMText
 10
1985.239088685435
 20
-948.5420423450428
 30
0.0
 40
8.0
 41
0.0
 71
     7
 72
     5
  1

1001
ACAD
1000
MTEXTBEGIN
1070
    73
1070
     1
1070
    44
1040
1.0
1070
    74
1070
     0
1000
MTEXTEND
  0
MTEXT
  5
5085
330
1A
100
AcDbEntity
  8
0
100
AcDbMText
 10
4270.596778580329
 20
22.24825240601649
 30
0.0
 40
8.0
 41
0.0
 71
     7
 72
     5
  1

1001
ACAD
1000
MTEXTBEGIN
1070
    73
1070
     1
1070
    44
1040
1.0
1070
    74
1070
     0
1000
MTEXTEND
  0
MTEXT
  5
5343
330
1A
100
AcDbEntity
  8
SUNPOU
100
AcDbMText
 10
6936.493799262471
 20
9534.359644781135
 30
0.0
 40
10.5
 41
0.0
 71
     1
 72
     5
  1

1001
ACAD
1000
MTEXTBEGIN
1070
    73
1070
     1
1070
    44
1040
1.0
1070
    74
1070
     0
1000
MTEXTEND
  0
MTEXT
  5
544F
330
1A
100
AcDbEntity
  8
0
100
AcDbMText
 10
16317.2832773148
 20
12833.35428897674
 30
0.0
 40
8.0
 41
0.0
 71
     7
 72
     5
  1

1001
ACAD
1000
MTEXTBEGIN
1070
    73
1070
     1
1070
    44
1040
1.0
1070
    74
1070
     0
1000
MTEXTEND
  0
MTEXT
  5
5450
330
1A
100
AcDbEntity
  8
0
100
AcDbMText
 10
18602.64096720969
 20
13804.1445837278
 30
0.0
 40
8.0
 41
0.0
 71
     7
 72
     5
  1

1001
ACAD
1000
MTEXTBEGIN
1070
    73
1070
     1
1070
    44
1040
1.0
1070
    74
1070
     0
1000
MTEXTEND
  0
MTEXT
  5
5451
330
1A
100
AcDbEntity
  8
SUNPOU
100
AcDbMText
 10
21268.53798789184
 20
23316.25597610292
 30
0.0
 40
10.5
 41
0.0
 71
     1
 72
     5
  1

1001
ACAD
1000
MTEXTBEGIN
1070
    73
1070
     1
1070
    44
1040
1.0
1070
    74
1070
     0
1000
MTEXTEND
  0
MTEXT
  5
5452
330
1A
100
AcDbEntity
  8
SUNPOU
100
AcDbMText
 10
13337.6147919559
 20
22369.46284218996
 30
0.0
 40
10.5
 41
0.0
 71
     7
 72
     5
  1

1001
ACAD
1000
MTEXTBEGIN
1070
    73
1070
     1
1070
    44
1040
1.0
1070
    74
1070
     0
1000
MTEXTEND
  0
MTEXT
  5
5453
330
1A
100
AcDbEntity
  8
SUNPOU
100
AcDbMText
 10
16286.59845646867
 20
27270.13891403281
 30
0.0
 40
10.5
 41
0.0
 71
     7
 72
     5
  1

1001
ACAD
1000
MTEXTBEGIN
1070
    73
1070
     1
1070
    44
1040
1.0
1070
    74
1070
     0
1000
MTEXTEND
  0
MTEXT
  5
5454
330
1A
100
AcDbEntity
  8
SUNPOU
100
AcDbMText
 10
20795.67658441924
 20
29706.43966165288
 30
0.0
 40
10.5
 41
0.0
 71
     7
 72
     5
  1

1001
ACAD
1000
MTEXTBEGIN
1070
    73
1070
     1
1070
    44
1040
1.0
1070
    74
1070
     0
1000
MTEXTEND
  0
MTEXT
  5
5455
330
1A
100
AcDbEntity
  8
0
100
AcDbMText
 10
16611.93789220314
 20
14707.52144344448
 30
0.0
 40
8.0
 41
0.0
 71
     7
 72
     5
  1

1001
ACAD
1000
MTEXTBEGIN
1070
    73
1070
     1
1070
    44
1040
1.0
1070
    74
1070
     0
1000
MTEXTEND
  0
MTEXT
  5
5456
330
1A
100
AcDbEntity
  8
0
100
AcDbMText
 10
18897.29558209804
 20
15678.31173819554
 30
0.0
 40
8.0
 41
0.0
 71
     7
 72
     5
  1

1001
ACAD
1000
MTEXTBEGIN
1070
    73
1070
     1
1070
    44
1040
1.0
1070
    74
1070
     0
1000
MTEXTEND
  0
MTEXT
  5
5457
330
1A
100
AcDbEntity
  8
SUNPOU
100
AcDbMText
 10
21563.19260278019
 20
25190.42313057066
 30
0.0
 40
10.5
 41
0.0
 71
     1
 72
     5
  1

1001
ACAD
1000
MTEXTBEGIN
1070
    73
1070
     1
1070
    44
1040
1.0
1070
    74
1070
     0
1000
MTEXTEND
  0
MTEXT
  5
5458
330
1A
100
AcDbEntity
  8
SUNPOU
100
AcDbMText
 10
13632.26940684426
 20
24243.6299966577
 30
0.0
 40
10.5
 41
0.0
 71
     7
 72
     5
  1

1001
ACAD
1000
MTEXTBEGIN
1070
    73
1070
     1
1070
    44
1040
1.0
1070
    74
1070
     0
1000
MTEXTEND
  0
MTEXT
  5
5459
330
1A
100
AcDbEntity
  8
SUNPOU
100
AcDbMText
 10
16581.25307135702
 20
29144.30606850055
 30
0.0
 40
10.5
 41
0.0
 71
     7
 72
     5
  1

1001
ACAD
1000
MTEXTBEGIN
1070
    73
1070
     1
1070
    44
1040
1.0
1070
    74
1070
     0
1000
MTEXTEND
  0
MTEXT
  5
545A
330
1A
100
AcDbEntity
  8
SUNPOU
100
AcDbMText
 10
21090.33119930759
 20
31580.60681612062
 30
0.0
 40
10.5
 41
0.0
 71
     7
 72
     5
  1

1001
ACAD
1000
MTEXTBEGIN
1070
    73
1070
     1
1070
    44
1040
1.0
1070
    74
1070
     0
1000
MTEXTEND
  0
MTEXT
  5
545B
330
1A
100
AcDbEntity
  8
0
100
AcDbMText
 10
22871.60517627167
 20
23974.88367124799
 30
0.0
 40
8.0
 41
0.0
 71
     7
 72
     5
  1

1001
ACAD
1000
MTEXTBEGIN
1070
    73
1070
     1
1070
    44
1040
1.0
1070
    74
1070
     0
1000
MTEXTEND
  0
MTEXT
  5
545C
330
1A
100
AcDbEntity
  8
0
100
AcDbMText
 10
25156.96286616657
 20
24945.67396599906
 30
0.0
 40
8.0
 41
0.0
 71
     7
 72
     5
  1

1001
ACAD
1000
MTEXTBEGIN
1070
    73
1070
     1
1070
    44
1040
1.0
1070
    74
1070
     0
1000
MTEXTEND
  0
MTEXT
  5
545D
330
1A
100
AcDbEntity
  8
SUNPOU
100
AcDbMText
 10
27822.85988684871
 20
34457.78535837418
 30
0.0
 40
10.5
 41
0.0
 71
     1
 72
     5
  1

1001
ACAD
1000
MTEXTBEGIN
1070
    73
1070
     1
1070
    44
1040
1.0
1070
    74
1070
     0
1000
MTEXTEND
  0
MTEXT
  5
545E
330
1A
100
AcDbEntity
  8
SUNPOU
100
AcDbMText
 10
19891.93669091278
 20
33510.99222446122
 30
0.0
 40
10.5
 41
0.0
 71
     7
 72
     5
  1

1001
ACAD
1000
MTEXTBEGIN
1070
    73
1070
     1
1070
    44
1040
1.0
1070
    74
1070
     0
1000
MTEXTEND
  0
MTEXT
  5
545F
330
1A
100
AcDbEntity
  8
SUNPOU
100
AcDbMText
 10
22840.92035542555
 20
38411.66829630407
 30
0.0
 40
10.5
 41
0.0
 71
     7
 72
     5
  1

1001
ACAD
1000
MTEXTBEGIN
1070
    73
1070
     1
1070
    44
1040
1.0
1070
    74
1070
     0
1000
MTEXTEND
  0
MTEXT
  5
5460
330
1A
100
AcDbEntity
  8
SUNPOU
100
AcDbMText
 10
27349.99848337611
 20
40847.96904392415
 30
0.0
 40
10.5
 41
0.0
 71
     7
 72
     5
  1

1001
ACAD
1000
MTEXTBEGIN
1070
    73
1070
     1
1070
    44
1040
1.0
1070
    74
1070
     0
1000
MTEXTEND
  0
MTEXT
  5
55B7
330
1A
100
AcDbEntity
  8
SUNPOU
100
AcDbMText
 10
67424.23923338197
 20
64463.86602884816
 30
0.0
 40
10.5
 41
0.0
 71
     9
 72
     5
  1

1001
ACAD
1000
MTEXTBEGIN
1070
    73
1070
     1
1070
    44
1040
1.0
1070
    74
1070
     0
1000
MTEXTEND
  0
MTEXT
  5
55B8
330
1A
100
AcDbEntity
  8
SUNPOU
100
AcDbMText
 10
76146.40679929998
 20
71879.70056038563
 30
0.0
 40
10.5
 41
0.0
 71
     9
 72
     5
  1

1001
ACAD
1000
MTEXTBEGIN
1070
    73
1070
     1
1070
    44
1040
1.0
1070
    74
1070
     0
1000
MTEXTEND
  0
MTEXT
  5
55B9
330
1A
100
AcDbEntity
  8
SUNPOU
100
AcDbMText
 10
95100.16551662994
 20
89346.27661287766
 30
0.0
 40
10.5
 41
0.0
 71
     9
 72
     5
  1

1001
ACAD
1000
MTEXTBEGIN
1070
    73
1070
     1
1070
    44
1040
1.0
1070
    74
1070
     0
1000
MTEXTEND
  0
MTEXT
  5
55BA
330
1A
100
AcDbEntity
  8
SUNPOU
100
AcDbMText
 10
97043.57276333936
 20
87545.22753299966
 30
0.0
 40
3.5
 41
0.0
 71
     9
 72
     5
  1

1001
ACAD
1000
MTEXTBEGIN
1070
    73
1070
     1
1070
    44
1040
1.0
1070
    74
1070
     0
1000
MTEXTEND
  0
MTEXT
  5
55BB
330
1A
100
AcDbEntity
  8
SUNPOU
100
AcDbMText
 10
128169.752595959
 20
130040.1732006569
 30
0.0
 40
10.5
 41
0.0
 71
     9
 72
     5
  1

1001
ACAD
1000
MTEXTBEGIN
1070
    73
1070
     1
1070
    44
1040
1.0
1070
    74
1070
     0
1000
MTEXTEND
  0
MTEXT
  5
55BC
330
1A
100
AcDbEntity
  8
SUNPOU
100
AcDbMText
 10
130113.1598426684
 20
128239.1241207789
 30
0.0
 40
3.5
 41
0.0
 71
     9
 72
     5
  1

1001
ACAD
1000
MTEXTBEGIN
1070
    73
1070
     1
1070
    44
1040
1.0
1070
    74
1070
     0
1000
MTEXTEND
  0
MTEXT
  5
55BD
330
1A
100
AcDbEntity
  8
SUNPOU
100
AcDbMText
 10
78610.02030175463
 20
75873.33835563206
 30
0.0
 40
10.5
 41
0.0
 71
     9
 72
     5
  1

1001
ACAD
1000
MTEXTBEGIN
1070
    73
1070
     1
1070
    44
1040
1.0
1070
    74
1070
     0
1000
MTEXTEND
  0
MTEXT
  5
55BE
330
1A
100
AcDbEntity
  8
SUNPOU
100
AcDbMText
 10
64662.02020137863
 20
56700.93921651987
 30
0.0
 40
3.5
 41
0.0
 71
     7
 72
     5
  1

1001
ACAD
1000
MTEXTBEGIN
1070
    73
1070
     1
1070
    44
1040
1.0
1070
    74
1070
     0
1000
MTEXTEND
  0
MTEXT
  5
55BF
330
1A
100
AcDbEntity
  8
SUNPOU
100
AcDbMText
 10
45647.18959837178
 20
44463.08794733807
 30
0.0
 40
10.5
 41
0.0
 71
     7
 72
     5
  1

1001
ACAD
1000
MTEXTBEGIN
1070
    73
1070
     1
1070
    44
1040
1.0
1070
    74
1070
     0
1000
MTEXTEND
  0
MTEXT
  5
55C0
330
1A
100
AcDbEntity
  8
SUNPOU
100
AcDbMText
 10
33189.96133342368
 20
28618.15636923965
 30
0.0
 40
35.0
 41
0.0
 71
     9
 72
     5
  1

1001
ACAD
1000
MTEXTBEGIN
1070
    73
1070
     1
1070
    44
1040
1.0
1070
    74
1070
     0
1000
MTEXTEND
  0
MTEXT
  5
55C1
330
1A
100
AcDbEntity
  8
SUNPOU
100
AcDbMText
 10
32098.44639099864
 20
29226.93177928835
 30
0.0
 40
350.0000004171781
 41
0.0
 71
     7
 72
     5
  1

1001
ACAD
1000
MTEXTBEGIN
1070
    73
1070
     1
1070
    44
1040
1.0
1070
    74
1070
     0
1000
MTEXTEND
  0
MTEXT
  5
55C2
330
1A
100
AcDbEntity
  8
0
100
AcDbMText
 10
38142.39714894154
 20
27206.85414142458
 30
0.0
 40
8.0
 41
0.0
 71
     7
 72
     5
  1

1001
ACAD
1000
MTEXTBEGIN
1070
    73
1070
     1
1070
    44
1040
1.0
1070
    74
1070
     0
1000
MTEXTEND
  0
MTEXT
  5
55C3
330
1A
100
AcDbEntity
  8
0
100
AcDbMText
 10
40427.75483883644
 20
28177.64443617564
 30
0.0
 40
8.0
 41
0.0
 71
     7
 72
     5
  1

1001
ACAD
1000
MTEXTBEGIN
1070
    73
1070
     1
1070
    44
1040
1.0
1070
    74
1070
     0
1000
MTEXTEND
  0
MTEXT
  5
55C4
330
1A
100
AcDbEntity
  8
SUNPOU
100
AcDbMText
 10
43093.65185951858
 20
37689.75582855077
 30
0.0
 40
10.5
 41
0.0
 71
     1
 72
     5
  1

1001
ACAD
1000
MTEXTBEGIN
1070
    73
1070
     1
1070
    44
1040
1.0
1070
    74
1070
     0
1000
MTEXTEND
  0
MTEXT
  5
55C5
330
1A
100
AcDbEntity
  8
SUNPOU
100
AcDbMText
 10
35162.72866358265
 20
36742.96269463781
 30
0.0
 40
10.5
 41
0.0
 71
     7
 72
     5
  1

1001
ACAD
1000
MTEXTBEGIN
1070
    73
1070
     1
1070
    44
1040
1.0
1070
    74
1070
     0
1000
MTEXTEND
  0
MTEXT
  5
55C6
330
1A
100
AcDbEntity
  8
SUNPOU
100
AcDbMText
 10
38111.71232809542
 20
41643.63876648066
 30
0.0
 40
10.5
 41
0.0
 71
     7
 72
     5
  1

1001
ACAD
1000
MTEXTBEGIN
1070
    73
1070
     1
1070
    44
1040
1.0
1070
    74
1070
     0
1000
MTEXTEND
  0
MTEXT
  5
55C7
330
1A
100
AcDbEntity
  8
SUNPOU
100
AcDbMText
 10
42620.79045604597
 20
44079.93951410074
 30
0.0
 40
10.5
 41
0.0
 71
     7
 72
     5
  1

1001
ACAD
1000
MTEXTBEGIN
1070
    73
1070
     1
1070
    44
1040
1.0
1070
    74
1070
     0
1000
MTEXTEND
  0
MTEXT
  5
55C8
330
1A
100
AcDbEntity
  8
SUNPOU
100
AcDbMText
 10
26221.62834281429
 20
23077.53566448964
 30
0.0
 40
10.5
 41
0.0
 71
     7
 72
     5
  1

1001
ACAD
1000
MTEXTBEGIN
1070
    73
1070
     1
1070
    44
1040
1.0
1070
    74
1070
     0
1000
MTEXTEND
  0
MTEXT
  5
55C9
330
1A
100
AcDbEntity
  8
SUNPOU
100
AcDbMText
 10
77413.14677671455
 20
68750.51622813789
 30
0.0
 40
10.5
 41
0.0
 71
     9
 72
     5
  1

1001
ACAD
1000
MTEXTBEGIN
1070
    73
1070
     1
1070
    44
1040
1.0
1070
    74
1070
     0
1000
MTEXTEND
  0
MTEXT
  5
55CA
330
1A
100
AcDbEntity
  8
SUNPOU
100
AcDbMText
 10
86135.31434263256
 20
76166.35075967536
 30
0.0
 40
10.5
 41
0.0
 71
     9
 72
     5
  1

1001
ACAD
1000
MTEXTBEGIN
1070
    73
1070
     1
1070
    44
1040
1.0
1070
    74
1070
     0
1000
MTEXTEND
  0
MTEXT
  5
55CB
330
1A
100
AcDbEntity
  8
SUNPOU
100
AcDbMText
 10
105089.0730599625
 20
93632.92681216739
 30
0.0
 40
10.5
 41
0.0
 71
     9
 72
     5
  1

1001
ACAD
1000
MTEXTBEGIN
1070
    73
1070
     1
1070
    44
1040
1.0
1070
    74
1070
     0
1000
MTEXTEND
  0
MTEXT
  5
55CC
330
1A
100
AcDbEntity
  8
SUNPOU
100
AcDbMText
 10
107032.4803066719
 20
91831.8777322894
 30
0.0
 40
3.5
 41
0.0
 71
     9
 72
     5
  1

1001
ACAD
1000
MTEXTBEGIN
1070
    73
1070
     1
1070
    44
1040
1.0
1070
    74
1070
     0
1000
MTEXTEND
  0
MTEXT
  5
55CD
330
1A
100
AcDbEntity
  8
SUNPOU
100
AcDbMText
 10
138158.6601392916
 20
134326.8233999467
 30
0.0
 40
10.5
 41
0.0
 71
     9
 72
     5
  1

1001
ACAD
1000
MTEXTBEGIN
1070
    73
1070
     1
1070
    44
1040
1.0
1070
    74
1070
     0
1000
MTEXTEND
  0
MTEXT
  5
55CE
330
1A
100
AcDbEntity
  8
SUNPOU
100
AcDbMText
 10
140102.067386001
 20
132525.7743200686
 30
0.0
 40
3.5
 41
0.0
 71
     9
 72
     5
  1

1001
ACAD
1000
MTEXTBEGIN
1070
    73
1070
     1
1070
    44
1040
1.0
1070
    74
1070
     0
1000
MTEXTEND
  0
MTEXT
  5
55CF
330
1A
100
AcDbEntity
  8
SUNPOU
100
AcDbMText
 10
88598.92784508721
 20
80159.98855492179
 30
0.0
 40
10.5
 41
0.0
 71
     9
 72
     5
  1

1001
ACAD
1000
MTEXTBEGIN
1070
    73
1070
     1
1070
    44
1040
1.0
1070
    74
1070
     0
1000
MTEXTEND
  0
MTEXT
  5
55D0
330
1A
100
AcDbEntity
  8
SUNPOU
100
AcDbMText
 10
74650.92774471121
 20
60987.5894158096
 30
0.0
 40
3.5
 41
0.0
 71
     7
 72
     5
  1

1001
ACAD
1000
MTEXTBEGIN
1070
    73
1070
     1
1070
    44
1040
1.0
1070
    74
1070
     0
1000
MTEXTEND
  0
MTEXT
  5
55D1
330
1A
100
AcDbEntity
  8
SUNPOU
100
AcDbMText
 10
55636.09714170436
 20
48749.73814662781
 30
0.0
 40
10.5
 41
0.0
 71
     7
 72
     5
  1

1001
ACAD
1000
MTEXTBEGIN
1070
    73
1070
     1
1070
    44
1040
1.0
1070
    74
1070
     0
1000
MTEXTEND
  0
MTEXT
  5
55D2
330
1A
100
AcDbEntity
  8
SUNPOU
100
AcDbMText
 10
43178.86887675626
 20
32904.80656852938
 30
0.0
 40
35.0
 41
0.0
 71
     9
 72
     5
  1

1001
ACAD
1000
MTEXTBEGIN
1070
    73
1070
     1
1070
    44
1040
1.0
1070
    74
1070
     0
1000
MTEXTEND
  0
MTEXT
  5
55D3
330
1A
100
AcDbEntity
  8
SUNPOU
100
AcDbMText
 10
42087.35393433121
 20
33513.58197857809
 30
0.0
 40
350.0000004171781
 41
0.0
 71
     7
 72
     5
  1

1001
ACAD
1000
MTEXTBEGIN
1070
    73
1070
     1
1070
    44
1040
1.0
1070
    74
1070
     0
1000
MTEXTEND
  0
MTEXT
  5
55D4
330
1A
100
AcDbEntity
  8
0
100
AcDbMText
 10
48131.30469227412
 20
31493.50434071431
 30
0.0
 40
8.0
 41
0.0
 71
     7
 72
     5
  1

1001
ACAD
1000
MTEXTBEGIN
1070
    73
1070
     1
1070
    44
1040
1.0
1070
    74
1070
     0
1000
MTEXTEND
  0
MTEXT
  5
55D5
330
1A
100
AcDbEntity
  8
0
100
AcDbMText
 10
50416.66238216901
 20
32464.29463546537
 30
0.0
 40
8.0
 41
0.0
 71
     7
 72
     5
  1

1001
ACAD
1000
MTEXTBEGIN
1070
    73
1070
     1
1070
    44
1040
1.0
1070
    74
1070
     0
1000
MTEXTEND
  0
MTEXT
  5
55D6
330
1A
100
AcDbEntity
  8
SUNPOU
100
AcDbMText
 10
53082.55940285115
 20
41976.4060278405
 30
0.0
 40
10.5
 41
0.0
 71
     1
 72
     5
  1

1001
ACAD
1000
MTEXTBEGIN
1070
    73
1070
     1
1070
    44
1040
1.0
1070
    74
1070
     0
1000
MTEXTEND
  0
MTEXT
  5
55D7
330
1A
100
AcDbEntity
  8
SUNPOU
100
AcDbMText
 10
45151.63620691522
 20
41029.61289392755
 30
0.0
 40
10.5
 41
0.0
 71
     7
 72
     5
  1

1001
ACAD
1000
MTEXTBEGIN
1070
    73
1070
     1
1070
    44
1040
1.0
1070
    74
1070
     0
1000
MTEXTEND
  0
MTEXT
  5
55D8
330
1A
100
AcDbEntity
  8
SUNPOU
100
AcDbMText
 10
48100.61987142798
 20
45930.28896577039
 30
0.0
 40
10.5
 41
0.0
 71
     7
 72
     5
  1

1001
ACAD
1000
MTEXTBEGIN
1070
    73
1070
     1
1070
    44
1040
1.0
1070
    74
1070
     0
1000
MTEXTEND
  0
MTEXT
  5
55D9
330
1A
100
AcDbEntity
  8
SUNPOU
100
AcDbMText
 10
52609.69799937854
 20
48366.58971339046
 30
0.0
 40
10.5
 41
0.0
 71
     7
 72
     5
  1

1001
ACAD
1000
MTEXTBEGIN
1070
    73
1070
     1
1070
    44
1040
1.0
1070
    74
1070
     0
1000
MTEXTEND
  0
MTEXT
  5
55DA
330
1A
100
AcDbEntity
  8
SUNPOU
100
AcDbMText
 10
36210.53588614687
 20
27364.18586377937
 30
0.0
 40
10.5
 41
0.0
 71
     7
 72
     5
  1

1001
ACAD
1000
MTEXTBEGIN
1070
    73
1070
     1
1070
    44
1040
1.0
1070
    74
1070
     0
1000
MTEXTEND
  0
MTEXT
  5
55DB
330
1A
100
AcDbEntity
  8
SUNPOU
100
AcDbMText
 10
38021.29879752181
 20
33691.59985125794
 30
0.0
 40
10.5
 41
0.0
 71
     9
 72
     5
  1

1001
ACAD
1000
MTEXTBEGIN
1070
    73
1070
     1
1070
    44
1040
1.0
1070
    74
1070
     0
1000
MTEXTEND
  0
MTEXT
  5
55DC
330
1A
100
AcDbEntity
  8
SUNPOU
100
AcDbMText
 10
46743.46636343979
 20
41107.43438279541
 30
0.0
 40
10.5
 41
0.0
 71
     9
 72
     5
  1

1001
ACAD
1000
MTEXTBEGIN
1070
    73
1070
     1
1070
    44
1040
1.0
1070
    74
1070
     0
1000
MTEXTEND
  0
MTEXT
  5
55DD
330
1A
100
AcDbEntity
  8
SUNPOU
100
AcDbMText
 10
65697.22508076975
 20
58574.01043528746
 30
0.0
 40
10.5
 41
0.0
 71
     9
 72
     5
  1

1001
ACAD
1000
MTEXTBEGIN
1070
    73
1070
     1
1070
    44
1040
1.0
1070
    74
1070
     0
1000
MTEXTEND
  0
MTEXT
  5
55DE
330
1A
100
AcDbEntity
  8
SUNPOU
100
AcDbMText
 10
67640.63232747917
 20
56772.96135540945
 30
0.0
 40
3.5
 41
0.0
 71
     9
 72
     5
  1

1001
ACAD
1000
MTEXTBEGIN
1070
    73
1070
     1
1070
    44
1040
1.0
1070
    74
1070
     0
1000
MTEXTEND
  0
MTEXT
  5
55DF
330
1A
100
AcDbEntity
  8
SUNPOU
100
AcDbMText
 10
98766.81216009888
 20
99267.9070230668
 30
0.0
 40
10.5
 41
0.0
 71
     9
 72
     5
  1

1001
ACAD
1000
MTEXTBEGIN
1070
    73
1070
     1
1070
    44
1040
1.0
1070
    74
1070
     0
1000
MTEXTEND
  0
MTEXT
  5
55E0
330
1A
100
AcDbEntity
  8
SUNPOU
100
AcDbMText
 10
100710.2194068083
 20
97466.85794318878
 30
0.0
 40
3.5
 41
0.0
 71
     9
 72
     5
  1

1001
ACAD
1000
MTEXTBEGIN
1070
    73
1070
     1
1070
    44
1040
1.0
1070
    74
1070
     0
1000
MTEXTEND
  0
MTEXT
  5
55E1
330
1A
100
AcDbEntity
  8
SUNPOU
100
AcDbMText
 10
49207.07986589444
 20
45101.07217804185
 30
0.0
 40
10.5
 41
0.0
 71
     9
 72
     5
  1

1001
ACAD
1000
MTEXTBEGIN
1070
    73
1070
     1
1070
    44
1040
1.0
1070
    74
1070
     0
1000
MTEXTEND
  0
MTEXT
  5
55E2
330
1A
100
AcDbEntity
  8
SUNPOU
100
AcDbMText
 10
35259.07976551845
 20
25928.67303892964
 30
0.0
 40
3.5
 41
0.0
 71
     7
 72
     5
  1

1001
ACAD
1000
MTEXTBEGIN
1070
    73
1070
     1
1070
    44
1040
1.0
1070
    74
1070
     0
1000
MTEXTEND
  0
MTEXT
  5
55E3
330
1A
100
AcDbEntity
  8
SUNPOU
100
AcDbMText
 10
48951.43044828905
 20
35287.73625995099
 30
0.0
 40
10.5
 41
0.0
 71
     9
 72
     5
  1

1001
ACAD
1000
MTEXTBEGIN
1070
    73
1070
     1
1070
    44
1040
1.0
1070
    74
1070
     0
1000
MTEXTEND
  0
MTEXT
  5
55E4
330
1A
100
AcDbEntity
  8
SUNPOU
100
AcDbMText
 10
57673.59801420702
 20
42703.57079148847
 30
0.0
 40
10.5
 41
0.0
 71
     9
 72
     5
  1

1001
ACAD
1000
MTEXTBEGIN
1070
    73
1070
     1
1070
    44
1040
1.0
1070
    74
1070
     0
1000
MTEXTEND
  0
MTEXT
  5
55E5
330
1A
100
AcDbEntity
  8
SUNPOU
100
AcDbMText
 10
76627.35673153699
 20
60170.14684398051
 30
0.0
 40
10.5
 41
0.0
 71
     9
 72
     5
  1

1001
ACAD
1000
MTEXTBEGIN
1070
    73
1070
     1
1070
    44
1040
1.0
1070
    74
1070
     0
1000
MTEXTEND
  0
MTEXT
  5
55E6
330
1A
100
AcDbEntity
  8
SUNPOU
100
AcDbMText
 10
78570.76397824641
 20
58369.09776410251
 30
0.0
 40
3.5
 41
0.0
 71
     9
 72
     5
  1

1001
ACAD
1000
MTEXTBEGIN
1070
    73
1070
     1
1070
    44
1040
1.0
1070
    74
1070
     0
1000
MTEXTEND
  0
MTEXT
  5
55E7
330
1A
100
AcDbEntity
  8
SUNPOU
100
AcDbMText
 10
109696.9438108661
 20
100864.0434317598
 30
0.0
 40
10.5
 41
0.0
 71
     9
 72
     5
  1

1001
ACAD
1000
MTEXTBEGIN
1070
    73
1070
     1
1070
    44
1040
1.0
1070
    74
1070
     0
1000
MTEXTEND
  0
MTEXT
  5
55E8
330
1A
100
AcDbEntity
  8
SUNPOU
100
AcDbMText
 10
111640.3510575755
 20
99062.99435188183
 30
0.0
 40
3.5
 41
0.0
 71
     9
 72
     5
  1

1001
ACAD
1000
MTEXTBEGIN
1070
    73
1070
     1
1070
    44
1040
1.0
1070
    74
1070
     0
1000
MTEXTEND
  0
MTEXT
  5
55E9
330
1A
100
AcDbEntity
  8
SUNPOU
100
AcDbMText
 10
60137.21151666167
 20
46697.20858673491
 30
0.0
 40
10.5
 41
0.0
 71
     9
 72
     5
  1

1001
ACAD
1000
MTEXTBEGIN
1070
    73
1070
     1
1070
    44
1040
1.0
1070
    74
1070
     0
1000
MTEXTEND
  0
MTEXT
  5
55EA
330
1A
100
AcDbEntity
  8
SUNPOU
100
AcDbMText
 10
46189.21141628568
 20
27524.80944762269
 30
0.0
 40
3.5
 41
0.0
 71
     7
 72
     5
  1

1001
ACAD
1000
MTEXTBEGIN
1070
    73
1070
     1
1070
    44
1040
1.0
1070
    74
1070
     0
1000
MTEXTEND
  0
MTEXT
  5
55EB
330
1A
100
AcDbEntity
  8
SUNPOU
100
AcDbMText
 10
45007.68847015541
 20
38269.57947701874
 30
0.0
 40
10.5
 41
0.0
 71
     9
 72
     5
  1

1001
ACAD
1000
MTEXTBEGIN
1070
    73
1070
     1
1070
    44
1040
1.0
1070
    74
1070
     0
1000
MTEXTEND
  0
MTEXT
  5
55EC
330
1A
100
AcDbEntity
  8
SUNPOU
100
AcDbMText
 10
63961.44718748539
 20
55736.15552951081
 30
0.0
 40
10.5
 41
0.0
 71
     9
 72
     5
  1

1001
ACAD
1000
MTEXTBEGIN
1070
    73
1070
     1
1070
    44
1040
1.0
1070
    74
1070
     0
1000
MTEXTEND
  0
MTEXT
  5
55ED
330
1A
100
AcDbEntity
  8
SUNPOU
100
AcDbMText
 10
65904.85443419479
 20
53935.10644963279
 30
0.0
 40
3.5
 41
0.0
 71
     9
 72
     5
  1

1001
ACAD
1000
MTEXTBEGIN
1070
    73
1070
     1
1070
    44
1040
1.0
1070
    74
1070
     0
1000
MTEXTEND
  0
MTEXT
  5
55EE
330
1A
100
AcDbEntity
  8
SUNPOU
100
AcDbMText
 10
97031.03426681451
 20
96430.05211729015
 30
0.0
 40
10.5
 41
0.0
 71
     9
 72
     5
  1

1001
ACAD
1000
MTEXTBEGIN
1070
    73
1070
     1
1070
    44
1040
1.0
1070
    74
1070
     0
1000
MTEXTEND
  0
MTEXT
  5
55EF
330
1A
100
AcDbEntity
  8
SUNPOU
100
AcDbMText
 10
98974.44151352393
 20
94629.00303741212
 30
0.0
 40
3.5
 41
0.0
 71
     9
 72
     5
  1

1001
ACAD
1000
MTEXTBEGIN
1070
    73
1070
     1
1070
    44
1040
1.0
1070
    74
1070
     0
1000
MTEXTEND
  0
MTEXT
  5
55F0
330
1A
100
AcDbEntity
  8
SUNPOU
100
AcDbMText
 10
47471.30197261006
 20
42263.21727226519
 30
0.0
 40
10.5
 41
0.0
 71
     9
 72
     5
  1

1001
ACAD
1000
MTEXTBEGIN
1070
    73
1070
     1
1070
    44
1040
1.0
1070
    74
1070
     0
1000
MTEXTEND
  0
MTEXT
  5
55F1
330
1A
100
AcDbEntity
  8
SUNPOU
100
AcDbMText
 10
33523.30187223408
 20
23090.81813315298
 30
0.0
 40
3.5
 41
0.0
 71
     7
 72
     5
  1

1001
ACAD
1000
MTEXTBEGIN
1070
    73
1070
     1
1070
    44
1040
1.0
1070
    74
1070
     0
1000
MTEXTEND
  0
MTEXT
  5
55F2
330
1A
100
AcDbEntity
  8
SUNPOU
100
AcDbMText
 10
57959.46254102503
 20
50038.08111611015
 30
0.0
 40
10.5
 41
0.0
 71
     9
 72
     5
  1

1001
ACAD
1000
MTEXTBEGIN
1070
    73
1070
     1
1070
    44
1040
1.0
1070
    74
1070
     0
1000
MTEXTEND
  0
MTEXT
  5
55F3
330
1A
100
AcDbEntity
  8
SUNPOU
100
AcDbMText
 10
76913.22125835503
 20
67504.65716860222
 30
0.0
 40
10.5
 41
0.0
 71
     9
 72
     5
  1

1001
ACAD
1000
MTEXTBEGIN
1070
    73
1070
     1
1070
    44
1040
1.0
1070
    74
1070
     0
1000
MTEXTEND
  0
MTEXT
  5
55F4
330
1A
100
AcDbEntity
  8
SUNPOU
100
AcDbMText
 10
78856.62850506443
 20
65703.6080887242
 30
0.0
 40
3.5
 41
0.0
 71
     9
 72
     5
  1

1001
ACAD
1000
MTEXTBEGIN
1070
    73
1070
     1
1070
    44
1040
1.0
1070
    74
1070
     0
1000
MTEXTEND
  0
MTEXT
  5
55F5
330
1A
100
AcDbEntity
  8
SUNPOU
100
AcDbMText
 10
109982.8083376841
 20
108198.5537563815
 30
0.0
 40
10.5
 41
0.0
 71
     9
 72
     5
  1

1001
ACAD
1000
MTEXTBEGIN
1070
    73
1070
     1
1070
    44
1040
1.0
1070
    74
1070
     0
1000
MTEXTEND
  0
MTEXT
  5
55F6
330
1A
100
AcDbEntity
  8
SUNPOU
100
AcDbMText
 10
111926.2155843935
 20
106397.5046765035
 30
0.0
 40
3.5
 41
0.0
 71
     9
 72
     5
  1

1001
ACAD
1000
MTEXTBEGIN
1070
    73
1070
     1
1070
    44
1040
1.0
1070
    74
1070
     0
1000
MTEXTEND
  0
MTEXT
  5
55F7
330
1A
100
AcDbEntity
  8
SUNPOU
100
AcDbMText
 10
60423.07604347968
 20
54031.71891135659
 30
0.0
 40
10.5
 41
0.0
 71
     9
 72
     5
  1

1001
ACAD
1000
MTEXTBEGIN
1070
    73
1070
     1
1070
    44
1040
1.0
1070
    74
1070
     0
1000
MTEXTEND
  0
MTEXT
  5
55F8
330
1A
100
AcDbEntity
  8
SUNPOU
100
AcDbMText
 10
46475.07594310369
 20
34859.3197722444
 30
0.0
 40
3.5
 41
0.0
 71
     7
 72
     5
  1

1001
ACAD
1000
MTEXTBEGIN
1070
    73
1070
     1
1070
    44
1040
1.0
1070
    74
1070
     0
1000
MTEXTEND
  0
MTEXT
  5
55F9
330
1A
100
AcDbEntity
  8
SUNPOU
100
AcDbMText
 10
74027.35402123588
 20
68370.58278833383
 30
0.0
 40
10.5
 41
0.0
 71
     9
 72
     5
  1

1001
ACAD
1000
MTEXTBEGIN
1070
    73
1070
     1
1070
    44
1040
1.0
1070
    74
1070
     0
1000
MTEXTEND
  0
MTEXT
  5
55FA
330
1A
100
AcDbEntity
  8
SUNPOU
100
AcDbMText
 10
75970.7612679453
 20
66569.53370845583
 30
0.0
 40
3.5
 41
0.0
 71
     9
 72
     5
  1

1001
ACAD
1000
MTEXTBEGIN
1070
    73
1070
     1
1070
    44
1040
1.0
1070
    74
1070
     0
1000
MTEXTEND
  0
MTEXT
  5
55FB
330
1A
100
AcDbEntity
  8
SUNPOU
100
AcDbMText
 10
107096.941100565
 20
109064.4793761132
 30
0.0
 40
10.5
 41
0.0
 71
     9
 72
     5
  1

1001
ACAD
1000
MTEXTBEGIN
1070
    73
1070
     1
1070
    44
1040
1.0
1070
    74
1070
     0
1000
MTEXTEND
  0
MTEXT
  5
55FC
330
1A
100
AcDbEntity
  8
SUNPOU
100
AcDbMText
 10
109040.3483472744
 20
107263.4302962351
 30
0.0
 40
3.5
 41
0.0
 71
     9
 72
     5
  1

1001
ACAD
1000
MTEXTBEGIN
1070
    73
1070
     1
1070
    44
1040
1.0
1070
    74
1070
     0
1000
MTEXTEND
  0
MTEXT
  5
55FD
330
1A
100
AcDbEntity
  8
SUNPOU
100
AcDbMText
 10
105709.1709283621
 20
108141.3777665285
 30
0.0
 40
10.5
 41
0.0
 71
     9
 72
     5
  1

1001
ACAD
1000
MTEXTBEGIN
1070
    73
1070
     1
1070
    44
1040
1.0
1070
    74
1070
     0
1000
MTEXTEND
  0
MTEXT
  5
55FE
330
1A
100
AcDbEntity
  8
SUNPOU
100
AcDbMText
 10
107652.5781750715
 20
106340.3286866505
 30
0.0
 40
3.5
 41
0.0
 71
     9
 72
     5
  1

1001
ACAD
1000
MTEXTBEGIN
1070
    73
1070
     1
1070
    44
1040
1.0
1070
    74
1070
     0
1000
MTEXTEND
  0
MTEXT
  5
55FF
330
1A
100
AcDbEntity
  8
SUNPOU
100
AcDbMText
 10
73193.09268743351
 20
66158.78082845056
 30
0.0
 40
10.5
 41
0.0
 71
     9
 72
     5
  1

1001
ACAD
1000
MTEXTBEGIN
1070
    73
1070
     1
1070
    44
1040
1.0
1070
    74
1070
     0
1000
MTEXTEND
  0
MTEXT
  5
5600
330
1A
100
AcDbEntity
  8
SUNPOU
100
AcDbMText
 10
75916.39889159806
 20
66563.46252003162
 30
0.0
 40
3.5
 41
0.0
 71
     9
 72
     5
  1

1001
ACAD
1000
MTEXTBEGIN
1070
    73
1070
     1
1070
    44
1040
1.0
1070
    74
1070
     0
1000
MTEXTEND
  0
MTEXT
  5
5601
330
1A
100
AcDbEntity
  8
SUNPOU
100
AcDbMText
 10
75124.04436649058
 20
63402.1566819768
 30
0.0
 40
10.5
 41
0.0
 71
     9
 72
     5
  1

1001
ACAD
1000
MTEXTBEGIN
1070
    73
1070
     1
1070
    44
1040
1.0
1070
    74
1070
     0
1000
MTEXTEND
  0
MTEXT
  5
5602
330
1A
100
AcDbEntity
  8
SUNPOU
100
AcDbMText
 10
77067.4516132
 20
61601.1076020988
 30
0.0
 40
3.5
 41
0.0
 71
     9
 72
     5
  1

1001
ACAD
1000
MTEXTBEGIN
1070
    73
1070
     1
1070
    44
1040
1.0
1070
    74
1070
     0
1000
MTEXTEND
  0
MTEXT
  5
5603
330
1A
100
AcDbEntity
  8
SUNPOU
100
AcDbMText
 10
77012.54710378659
 20
61488.33571981449
 30
0.0
 40
3.5
 41
0.0
 71
     9
 72
     5
  1

1001
ACAD
1000
MTEXTBEGIN
1070
    73
1070
     1
1070
    44
1040
1.0
1070
    74
1070
     0
1000
MTEXTEND
  0
MTEXT
  5
5604
330
1A
100
AcDbEntity
  8
SUNPOU
100
AcDbMText
 10
76376.61896736668
 20
60677.01447874797
 30
0.0
 40
3.5
 41
0.0
 71
     9
 72
     5
  1

1001
ACAD
1000
MTEXTBEGIN
1070
    73
1070
     1
1070
    44
1040
1.0
1070
    74
1070
     0
1000
MTEXTEND
  0
MTEXT
  5
5605
330
1A
100
AcDbEntity
  8
SUNPOU
100
AcDbMText
 10
76375.37854794595
 20
60676.76650181047
 30
0.0
 40
10.5
 41
0.0
 71
     9
 72
     5
  1

1001
ACAD
1000
MTEXTBEGIN
1070
    73
1070
     1
1070
    44
1040
1.0
1070
    74
1070
     0
1000
MTEXTEND
  0
MTEXT
  5
5606
330
1A
100
AcDbEntity
  8
SUNPOU
100
AcDbMText
 10
84709.93991079748
 20
78034.0328293557
 30
0.0
 40
10.5
 41
0.0
 71
     9
 72
     5
  1

1001
ACAD
1000
MTEXTBEGIN
1070
    73
1070
     1
1070
    44
1040
1.0
1070
    74
1070
     0
1000
MTEXTEND
  0
MTEXT
  5
5607
330
1A
100
AcDbEntity
  8
SUNPOU
100
AcDbMText
 10
93432.10747671548
 20
85449.86736089315
 30
0.0
 40
10.5
 41
0.0
 71
     9
 72
     5
  1

1001
ACAD
1000
MTEXTBEGIN
1070
    73
1070
     1
1070
    44
1040
1.0
1070
    74
1070
     0
1000
MTEXTEND
  0
MTEXT
  5
5608
330
1A
100
AcDbEntity
  8
SUNPOU
100
AcDbMText
 10
112385.8661940454
 20
102916.4434133851
 30
0.0
 40
10.5
 41
0.0
 71
     9
 72
     5
  1

1001
ACAD
1000
MTEXTBEGIN
1070
    73
1070
     1
1070
    44
1040
1.0
1070
    74
1070
     0
1000
MTEXTEND
  0
MTEXT
  5
5609
330
1A
100
AcDbEntity
  8
SUNPOU
100
AcDbMText
 10
114329.2734407548
 20
101115.3943335072
 30
0.0
 40
3.5
 41
0.0
 71
     9
 72
     5
  1

1001
ACAD
1000
MTEXTBEGIN
1070
    73
1070
     1
1070
    44
1040
1.0
1070
    74
1070
     0
1000
MTEXTEND
  0
MTEXT
  5
560A
330
1A
100
AcDbEntity
  8
SUNPOU
100
AcDbMText
 10
145455.4532733745
 20
143610.3400011645
 30
0.0
 40
10.5
 41
0.0
 71
     9
 72
     5
  1

1001
ACAD
1000
MTEXTBEGIN
1070
    73
1070
     1
1070
    44
1040
1.0
1070
    74
1070
     0
1000
MTEXTEND
  0
MTEXT
  5
560B
330
1A
100
AcDbEntity
  8
SUNPOU
100
AcDbMText
 10
147398.8605200839
 20
141809.2909212864
 30
0.0
 40
3.5
 41
0.0
 71
     9
 72
     5
  1

1001
ACAD
1000
MTEXTBEGIN
1070
    73
1070
     1
1070
    44
1040
1.0
1070
    74
1070
     0
1000
MTEXTEND
  0
MTEXT
  5
560C
330
1A
100
AcDbEntity
  8
SUNPOU
100
AcDbMText
 10
95895.72097917013
 20
89443.5051561396
 30
0.0
 40
10.5
 41
0.0
 71
     9
 72
     5
  1

1001
ACAD
1000
MTEXTBEGIN
1070
    73
1070
     1
1070
    44
1040
1.0
1070
    74
1070
     0
1000
MTEXTEND
  0
MTEXT
  5
560D
330
1A
100
AcDbEntity
  8
SUNPOU
100
AcDbMText
 10
81947.72087879414
 20
70271.1060170274
 30
0.0
 40
3.5
 41
0.0
 71
     7
 72
     5
  1

1001
ACAD
1000
MTEXTBEGIN
1070
    73
1070
     1
1070
    44
1040
1.0
1070
    74
1070
     0
1000
MTEXTEND
  0
MTEXT
  5
560E
330
1A
100
AcDbEntity
  8
SUNPOU
100
AcDbMText
 10
62932.89027578729
 20
58033.25474784561
 30
0.0
 40
10.5
 41
0.0
 71
     7
 72
     5
  1

1001
ACAD
1000
MTEXTBEGIN
1070
    73
1070
     1
1070
    44
1040
1.0
1070
    74
1070
     0
1000
MTEXTEND
  0
MTEXT
  5
560F
330
1A
100
AcDbEntity
  8
SUNPOU
100
AcDbMText
 10
50475.66201083918
 20
42188.32316974719
 30
0.0
 40
35.0
 41
0.0
 71
     9
 72
     5
  1

1001
ACAD
1000
MTEXTBEGIN
1070
    73
1070
     1
1070
    44
1040
1.0
1070
    74
1070
     0
1000
MTEXTEND
  0
MTEXT
  5
5610
330
1A
100
AcDbEntity
  8
SUNPOU
100
AcDbMText
 10
49384.14706841413
 20
42797.0985797959
 30
0.0
 40
350.0000004171781
 41
0.0
 71
     7
 72
     5
  1

1001
ACAD
1000
MTEXTBEGIN
1070
    73
1070
     1
1070
    44
1040
1.0
1070
    74
1070
     0
1000
MTEXTEND
  0
MTEXT
  5
5611
330
1A
100
AcDbEntity
  8
0
100
AcDbMText
 10
55428.09782635704
 20
40777.02094193211
 30
0.0
 40
8.0
 41
0.0
 71
     7
 72
     5
  1

1001
ACAD
1000
MTEXTBEGIN
1070
    73
1070
     1
1070
    44
1040
1.0
1070
    74
1070
     0
1000
MTEXTEND
  0
MTEXT
  5
5612
330
1A
100
AcDbEntity
  8
0
100
AcDbMText
 10
57713.45551625194
 20
41747.81123668317
 30
0.0
 40
8.0
 41
0.0
 71
     7
 72
     5
  1

1001
ACAD
1000
MTEXTBEGIN
1070
    73
1070
     1
1070
    44
1040
1.0
1070
    74
1070
     0
1000
MTEXTEND
  0
MTEXT
  5
5613
330
1A
100
AcDbEntity
  8
SUNPOU
100
AcDbMText
 10
60379.35253693408
 20
51259.9226290583
 30
0.0
 40
10.5
 41
0.0
 71
     1
 72
     5
  1

1001
ACAD
1000
MTEXTBEGIN
1070
    73
1070
     1
1070
    44
1040
1.0
1070
    74
1070
     0
1000
MTEXTEND
  0
MTEXT
  5
5614
330
1A
100
AcDbEntity
  8
SUNPOU
100
AcDbMText
 10
52448.42934099814
 20
50313.12949514535
 30
0.0
 40
10.5
 41
0.0
 71
     7
 72
     5
  1

1001
ACAD
1000
MTEXTBEGIN
1070
    73
1070
     1
1070
    44
1040
1.0
1070
    74
1070
     0
1000
MTEXTEND
  0
MTEXT
  5
5615
330
1A
100
AcDbEntity
  8
SUNPOU
100
AcDbMText
 10
55397.41300551091
 20
55213.80556698819
 30
0.0
 40
10.5
 41
0.0
 71
     7
 72
     5
  1

1001
ACAD
1000
MTEXTBEGIN
1070
    73
1070
     1
1070
    44
1040
1.0
1070
    74
1070
     0
1000
MTEXTEND
  0
MTEXT
  5
5616
330
1A
100
AcDbEntity
  8
SUNPOU
100
AcDbMText
 10
59906.49113346147
 20
57650.10631460826
 30
0.0
 40
10.5
 41
0.0
 71
     7
 72
     5
  1

1001
ACAD
1000
MTEXTBEGIN
1070
    73
1070
     1
1070
    44
1040
1.0
1070
    74
1070
     0
1000
MTEXTEND
  0
MTEXT
  5
5617
330
1A
100
AcDbEntity
  8
SUNPOU
100
AcDbMText
 10
43507.32902022979
 20
36647.70246499718
 30
0.0
 40
10.5
 41
0.0
 71
     7
 72
     5
  1

1001
ACAD
1000
MTEXTBEGIN
1070
    73
1070
     1
1070
    44
1040
1.0
1070
    74
1070
     0
1000
MTEXTEND
  0
MTEXT
  5
5618
330
1A
100
AcDbEntity
  8
SUNPOU
100
AcDbMText
 10
94698.84745413006
 20
82320.68302864542
 30
0.0
 40
10.5
 41
0.0
 71
     9
 72
     5
  1

1001
ACAD
1000
MTEXTBEGIN
1070
    73
1070
     1
1070
    44
1040
1.0
1070
    74
1070
     0
1000
MTEXTEND
  0
MTEXT
  5
5619
330
1A
100
AcDbEntity
  8
SUNPOU
100
AcDbMText
 10
103421.015020048
 20
89736.5175601829
 30
0.0
 40
10.5
 41
0.0
 71
     9
 72
     5
  1

1001
ACAD
1000
MTEXTBEGIN
1070
    73
1070
     1
1070
    44
1040
1.0
1070
    74
1070
     0
1000
MTEXTEND
  0
MTEXT
  5
561A
330
1A
100
AcDbEntity
  8
SUNPOU
100
AcDbMText
 10
122374.773737378
 20
107203.0936126749
 30
0.0
 40
10.5
 41
0.0
 71
     9
 72
     5
  1

1001
ACAD
1000
MTEXTBEGIN
1070
    73
1070
     1
1070
    44
1040
1.0
1070
    74
1070
     0
1000
MTEXTEND
  0
MTEXT
  5
561B
330
1A
100
AcDbEntity
  8
SUNPOU
100
AcDbMText
 10
124318.1809840874
 20
105402.0445327969
 30
0.0
 40
3.5
 41
0.0
 71
     9
 72
     5
  1

1001
ACAD
1000
MTEXTBEGIN
1070
    73
1070
     1
1070
    44
1040
1.0
1070
    74
1070
     0
1000
MTEXTEND
  0
MTEXT
  5
561C
330
1A
100
AcDbEntity
  8
SUNPOU
100
AcDbMText
 10
155444.3608167071
 20
147896.9902004542
 30
0.0
 40
10.5
 41
0.0
 71
     9
 72
     5
  1

1001
ACAD
1000
MTEXTBEGIN
1070
    73
1070
     1
1070
    44
1040
1.0
1070
    74
1070
     0
1000
MTEXTEND
  0
MTEXT
  5
561D
330
1A
100
AcDbEntity
  8
SUNPOU
100
AcDbMText
 10
157387.7680634165
 20
146095.9411205762
 30
0.0
 40
3.5
 41
0.0
 71
     9
 72
     5
  1

1001
ACAD
1000
MTEXTBEGIN
1070
    73
1070
     1
1070
    44
1040
1.0
1070
    74
1070
     0
1000
MTEXTEND
  0
MTEXT
  5
561E
330
1A
100
AcDbEntity
  8
SUNPOU
100
AcDbMText
 10
105884.6285225027
 20
93730.15535542933
 30
0.0
 40
10.5
 41
0.0
 71
     9
 72
     5
  1

1001
ACAD
1000
MTEXTBEGIN
1070
    73
1070
     1
1070
    44
1040
1.0
1070
    74
1070
     0
1000
MTEXTEND
  0
MTEXT
  5
561F
330
1A
100
AcDbEntity
  8
SUNPOU
100
AcDbMText
 10
91936.6284221267
 20
74557.75621631714
 30
0.0
 40
3.5
 41
0.0
 71
     7
 72
     5
  1

1001
ACAD
1000
MTEXTBEGIN
1070
    73
1070
     1
1070
    44
1040
1.0
1070
    74
1070
     0
1000
MTEXTEND
  0
MTEXT
  5
5620
330
1A
100
AcDbEntity
  8
SUNPOU
100
AcDbMText
 10
72921.79781911986
 20
62319.90494713533
 30
0.0
 40
10.5
 41
0.0
 71
     7
 72
     5
  1

1001
ACAD
1000
MTEXTBEGIN
1070
    73
1070
     1
1070
    44
1040
1.0
1070
    74
1070
     0
1000
MTEXTEND
  0
MTEXT
  5
5621
330
1A
100
AcDbEntity
  8
SUNPOU
100
AcDbMText
 10
60464.56955417175
 20
46474.97336903692
 30
0.0
 40
35.0
 41
0.0
 71
     9
 72
     5
  1

1001
ACAD
1000
MTEXTBEGIN
1070
    73
1070
     1
1070
    44
1040
1.0
1070
    74
1070
     0
1000
MTEXTEND
  0
MTEXT
  5
5622
330
1A
100
AcDbEntity
  8
SUNPOU
100
AcDbMText
 10
59373.05461174672
 20
47083.74877908562
 30
0.0
 40
350.0000004171781
 41
0.0
 71
     7
 72
     5
  1

1001
ACAD
1000
MTEXTBEGIN
1070
    73
1070
     1
1070
    44
1040
1.0
1070
    74
1070
     0
1000
MTEXTEND
  0
MTEXT
  5
5623
330
1A
100
AcDbEntity
  8
0
100
AcDbMText
 10
65417.00536968962
 20
45063.67114122186
 30
0.0
 40
8.0
 41
0.0
 71
     7
 72
     5
  1

1001
ACAD
1000
MTEXTBEGIN
1070
    73
1070
     1
1070
    44
1040
1.0
1070
    74
1070
     0
1000
MTEXTEND
  0
MTEXT
  5
5624
330
1A
100
AcDbEntity
  8
0
100
AcDbMText
 10
67702.36305958452
 20
46034.46143597292
 30
0.0
 40
8.0
 41
0.0
 71
     7
 72
     5
  1

1001
ACAD
1000
MTEXTBEGIN
1070
    73
1070
     1
1070
    44
1040
1.0
1070
    74
1070
     0
1000
MTEXTEND
  0
MTEXT
  5
5625
330
1A
100
AcDbEntity
  8
SUNPOU
100
AcDbMText
 10
70368.26008026666
 20
55546.57282834803
 30
0.0
 40
10.5
 41
0.0
 71
     1
 72
     5
  1

1001
ACAD
1000
MTEXTBEGIN
1070
    73
1070
     1
1070
    44
1040
1.0
1070
    74
1070
     0
1000
MTEXTEND
  0
MTEXT
  5
5626
330
1A
100
AcDbEntity
  8
SUNPOU
100
AcDbMText
 10
62437.33688433072
 20
54599.77969443508
 30
0.0
 40
10.5
 41
0.0
 71
     7
 72
     5
  1

1001
ACAD
1000
MTEXTBEGIN
1070
    73
1070
     1
1070
    44
1040
1.0
1070
    74
1070
     0
1000
MTEXTEND
  0
MTEXT
  5
5627
330
1A
100
AcDbEntity
  8
SUNPOU
100
AcDbMText
 10
65386.32054884349
 20
59500.45576627792
 30
0.0
 40
10.5
 41
0.0
 71
     7
 72
     5
  1

1001
ACAD
1000
MTEXTBEGIN
1070
    73
1070
     1
1070
    44
1040
1.0
1070
    74
1070
     0
1000
MTEXTEND
  0
MTEXT
  5
5628
330
1A
100
AcDbEntity
  8
SUNPOU
100
AcDbMText
 10
69895.39867679405
 20
61936.756513898
 30
0.0
 40
10.5
 41
0.0
 71
     7
 72
     5
  1

1001
ACAD
1000
MTEXTBEGIN
1070
    73
1070
     1
1070
    44
1040
1.0
1070
    74
1070
     0
1000
MTEXTEND
  0
MTEXT
  5
5629
330
1A
100
AcDbEntity
  8
SUNPOU
100
AcDbMText
 10
53496.23656356237
 20
40934.35266428691
 30
0.0
 40
10.5
 41
0.0
 71
     7
 72
     5
  1

1001
ACAD
1000
MTEXTBEGIN
1070
    73
1070
     1
1070
    44
1040
1.0
1070
    74
1070
     0
1000
MTEXTEND
  0
MTEXT
  5
562A
330
1A
100
AcDbEntity
  8
SUNPOU
100
AcDbMText
 10
55306.99947493731
 20
47261.76665176547
 30
0.0
 40
10.5
 41
0.0
 71
     9
 72
     5
  1

1001
ACAD
1000
MTEXTBEGIN
1070
    73
1070
     1
1070
    44
1040
1.0
1070
    74
1070
     0
1000
MTEXTEND
  0
MTEXT
  5
562B
330
1A
100
AcDbEntity
  8
SUNPOU
100
AcDbMText
 10
64029.16704085528
 20
54677.60118330295
 30
0.0
 40
10.5
 41
0.0
 71
     9
 72
     5
  1

1001
ACAD
1000
MTEXTBEGIN
1070
    73
1070
     1
1070
    44
1040
1.0
1070
    74
1070
     0
1000
MTEXTEND
  0
MTEXT
  5
562C
330
1A
100
AcDbEntity
  8
SUNPOU
100
AcDbMText
 10
82982.92575818527
 20
72144.17723579499
 30
0.0
 40
10.5
 41
0.0
 71
     9
 72
     5
  1

1001
ACAD
1000
MTEXTBEGIN
1070
    73
1070
     1
1070
    44
1040
1.0
1070
    74
1070
     0
1000
MTEXTEND
  0
MTEXT
  5
562D
330
1A
100
AcDbEntity
  8
SUNPOU
100
AcDbMText
 10
84926.33300489467
 20
70343.12815591698
 30
0.0
 40
3.5
 41
0.0
 71
     9
 72
     5
  1

1001
ACAD
1000
MTEXTBEGIN
1070
    73
1070
     1
1070
    44
1040
1.0
1070
    74
1070
     0
1000
MTEXTEND
  0
MTEXT
  5
562E
330
1A
100
AcDbEntity
  8
SUNPOU
100
AcDbMText
 10
116052.5128375143
 20
112838.0738235743
 30
0.0
 40
10.5
 41
0.0
 71
     9
 72
     5
  1

1001
ACAD
1000
MTEXTBEGIN
1070
    73
1070
     1
1070
    44
1040
1.0
1070
    74
1070
     0
1000
MTEXTEND
  0
MTEXT
  5
562F
330
1A
100
AcDbEntity
  8
SUNPOU
100
AcDbMText
 10
117995.9200842238
 20
111037.0247436963
 30
0.0
 40
3.5
 41
0.0
 71
     9
 72
     5
  1

1001
ACAD
1000
MTEXTBEGIN
1070
    73
1070
     1
1070
    44
1040
1.0
1070
    74
1070
     0
1000
MTEXTEND
  0
MTEXT
  5
5630
330
1A
100
AcDbEntity
  8
SUNPOU
100
AcDbMText
 10
66492.78054330994
 20
58671.23897854939
 30
0.0
 40
10.5
 41
0.0
 71
     9
 72
     5
  1

1001
ACAD
1000
MTEXTBEGIN
1070
    73
1070
     1
1070
    44
1040
1.0
1070
    74
1070
     0
1000
MTEXTEND
  0
MTEXT
  5
5631
330
1A
100
AcDbEntity
  8
SUNPOU
100
AcDbMText
 10
52544.78044293396
 20
39498.83983943717
 30
0.0
 40
3.5
 41
0.0
 71
     7
 72
     5
  1

1001
ACAD
1000
MTEXTBEGIN
1070
    73
1070
     1
1070
    44
1040
1.0
1070
    74
1070
     0
1000
MTEXTEND
  0
MTEXT
  5
5632
330
1A
100
AcDbEntity
  8
SUNPOU
100
AcDbMText
 10
66237.13112570454
 20
48857.90306045851
 30
0.0
 40
10.5
 41
0.0
 71
     9
 72
     5
  1

1001
ACAD
1000
MTEXTBEGIN
1070
    73
1070
     1
1070
    44
1040
1.0
1070
    74
1070
     0
1000
MTEXTEND
  0
MTEXT
  5
5633
330
1A
100
AcDbEntity
  8
SUNPOU
100
AcDbMText
 10
74959.29869162252
 20
56273.737591996
 30
0.0
 40
10.5
 41
0.0
 71
     9
 72
     5
  1

1001
ACAD
1000
MTEXTBEGIN
1070
    73
1070
     1
1070
    44
1040
1.0
1070
    74
1070
     0
1000
MTEXTEND
  0
MTEXT
  5
5634
330
1A
100
AcDbEntity
  8
SUNPOU
100
AcDbMText
 10
93913.0574089525
 20
73740.31364448805
 30
0.0
 40
10.5
 41
0.0
 71
     9
 72
     5
  1

1001
ACAD
1000
MTEXTBEGIN
1070
    73
1070
     1
1070
    44
1040
1.0
1070
    74
1070
     0
1000
MTEXTEND
  0
MTEXT
  5
5635
330
1A
100
AcDbEntity
  8
SUNPOU
100
AcDbMText
 10
95856.46465566192
 20
71939.26456461004
 30
0.0
 40
3.5
 41
0.0
 71
     9
 72
     5
  1

1001
ACAD
1000
MTEXTBEGIN
1070
    73
1070
     1
1070
    44
1040
1.0
1070
    74
1070
     0
1000
MTEXTEND
  0
MTEXT
  5
5636
330
1A
100
AcDbEntity
  8
SUNPOU
100
AcDbMText
 10
126982.6444882816
 20
114434.2102322673
 30
0.0
 40
10.5
 41
0.0
 71
     9
 72
     5
  1

1001
ACAD
1000
MTEXTBEGIN
1070
    73
1070
     1
1070
    44
1040
1.0
1070
    74
1070
     0
1000
MTEXTEND
  0
MTEXT
  5
5637
330
1A
100
AcDbEntity
  8
SUNPOU
100
AcDbMText
 10
128926.051734991
 20
112633.1611523893
 30
0.0
 40
3.5
 41
0.0
 71
     9
 72
     5
  1

1001
ACAD
1000
MTEXTBEGIN
1070
    73
1070
     1
1070
    44
1040
1.0
1070
    74
1070
     0
1000
MTEXTEND
  0
MTEXT
  5
5638
330
1A
100
AcDbEntity
  8
SUNPOU
100
AcDbMText
 10
77422.91219407717
 20
60267.37538724244
 30
0.0
 40
10.5
 41
0.0
 71
     9
 72
     5
  1

1001
ACAD
1000
MTEXTBEGIN
1070
    73
1070
     1
1070
    44
1040
1.0
1070
    74
1070
     0
1000
MTEXTEND
  0
MTEXT
  5
5639
330
1A
100
AcDbEntity
  8
SUNPOU
100
AcDbMText
 10
63474.91209370119
 20
41094.97624813023
 30
0.0
 40
3.5
 41
0.0
 71
     7
 72
     5
  1

1001
ACAD
1000
MTEXTBEGIN
1070
    73
1070
     1
1070
    44
1040
1.0
1070
    74
1070
     0
1000
MTEXTEND
  0
MTEXT
  5
563A
330
1A
100
AcDbEntity
  8
SUNPOU
100
AcDbMText
 10
48117.65086229006
 20
40806.11043916631
 30
0.0
 40
10.5
 41
0.0
 71
     9
 72
     5
  1

1001
ACAD
1000
MTEXTBEGIN
1070
    73
1070
     1
1070
    44
1040
1.0
1070
    74
1070
     0
1000
MTEXTEND
  0
MTEXT
  5
563B
330
1A
100
AcDbEntity
  8
SUNPOU
100
AcDbMText
 10
67071.40957962004
 20
58272.68649165837
 30
0.0
 40
10.5
 41
0.0
 71
     9
 72
     5
  1

1001
ACAD
1000
MTEXTBEGIN
1070
    73
1070
     1
1070
    44
1040
1.0
1070
    74
1070
     0
1000
MTEXTEND
  0
MTEXT
  5
563C
330
1A
100
AcDbEntity
  8
SUNPOU
100
AcDbMText
 10
69014.81682632945
 20
56471.63741178035
 30
0.0
 40
3.5
 41
0.0
 71
     9
 72
     5
  1

1001
ACAD
1000
MTEXTBEGIN
1070
    73
1070
     1
1070
    44
1040
1.0
1070
    74
1070
     0
1000
MTEXTEND
  0
MTEXT
  5
563D
330
1A
100
AcDbEntity
  8
SUNPOU
100
AcDbMText
 10
100140.9966589491
 20
98966.58307943772
 30
0.0
 40
10.5
 41
0.0
 71
     9
 72
     5
  1

1001
ACAD
1000
MTEXTBEGIN
1070
    73
1070
     1
1070
    44
1040
1.0
1070
    74
1070
     0
1000
MTEXTEND
  0
MTEXT
  5
563E
330
1A
100
AcDbEntity
  8
SUNPOU
100
AcDbMText
 10
102084.4039056586
 20
97165.53399955969
 30
0.0
 40
3.5
 41
0.0
 71
     9
 72
     5
  1

1001
ACAD
1000
MTEXTBEGIN
1070
    73
1070
     1
1070
    44
1040
1.0
1070
    74
1070
     0
1000
MTEXTEND
  0
MTEXT
  5
563F
330
1A
100
AcDbEntity
  8
SUNPOU
100
AcDbMText
 10
50581.26436474472
 20
44799.74823441275
 30
0.0
 40
10.5
 41
0.0
 71
     9
 72
     5
  1

1001
ACAD
1000
MTEXTBEGIN
1070
    73
1070
     1
1070
    44
1040
1.0
1070
    74
1070
     0
1000
MTEXTEND
  0
MTEXT
  5
5640
330
1A
100
AcDbEntity
  8
SUNPOU
100
AcDbMText
 10
36633.26426436873
 20
25627.34909530054
 30
0.0
 40
3.5
 41
0.0
 71
     7
 72
     5
  1

1001
ACAD
1000
MTEXTBEGIN
1070
    73
1070
     1
1070
    44
1040
1.0
1070
    74
1070
     0
1000
MTEXTEND
  0
MTEXT
  5
5641
330
1A
100
AcDbEntity
  8
SUNPOU
100
AcDbMText
 10
61069.42493315968
 20
52574.61207825771
 30
0.0
 40
10.5
 41
0.0
 71
     9
 72
     5
  1

1001
ACAD
1000
MTEXTBEGIN
1070
    73
1070
     1
1070
    44
1040
1.0
1070
    74
1070
     0
1000
MTEXTEND
  0
MTEXT
  5
5642
330
1A
100
AcDbEntity
  8
SUNPOU
100
AcDbMText
 10
80023.18365048967
 20
70041.18813074978
 30
0.0
 40
10.5
 41
0.0
 71
     9
 72
     5
  1

1001
ACAD
1000
MTEXTBEGIN
1070
    73
1070
     1
1070
    44
1040
1.0
1070
    74
1070
     0
1000
MTEXTEND
  0
MTEXT
  5
5643
330
1A
100
AcDbEntity
  8
SUNPOU
100
AcDbMText
 10
81966.59089719908
 20
68240.13905087176
 30
0.0
 40
3.5
 41
0.0
 71
     9
 72
     5
  1

1001
ACAD
1000
MTEXTBEGIN
1070
    73
1070
     1
1070
    44
1040
1.0
1070
    74
1070
     0
1000
MTEXTEND
  0
MTEXT
  5
5644
330
1A
100
AcDbEntity
  8
SUNPOU
100
AcDbMText
 10
113092.7707298187
 20
110735.0847185291
 30
0.0
 40
10.5
 41
0.0
 71
     9
 72
     5
  1

1001
ACAD
1000
MTEXTBEGIN
1070
    73
1070
     1
1070
    44
1040
1.0
1070
    74
1070
     0
1000
MTEXTEND
  0
MTEXT
  5
5645
330
1A
100
AcDbEntity
  8
SUNPOU
100
AcDbMText
 10
115036.1779765282
 20
108934.0356386511
 30
0.0
 40
3.5
 41
0.0
 71
     9
 72
     5
  1

1001
ACAD
1000
MTEXTBEGIN
1070
    73
1070
     1
1070
    44
1040
1.0
1070
    74
1070
     0
1000
MTEXTEND
  0
MTEXT
  5
5646
330
1A
100
AcDbEntity
  8
SUNPOU
100
AcDbMText
 10
63533.03843561433
 20
56568.24987350415
 30
0.0
 40
10.5
 41
0.0
 71
     9
 72
     5
  1

1001
ACAD
1000
MTEXTBEGIN
1070
    73
1070
     1
1070
    44
1040
1.0
1070
    74
1070
     0
1000
MTEXTEND
  0
MTEXT
  5
5647
330
1A
100
AcDbEntity
  8
SUNPOU
100
AcDbMText
 10
49585.03833523835
 20
37395.85073439196
 30
0.0
 40
3.5
 41
0.0
 71
     7
 72
     5
  1

1001
ACAD
1000
MTEXTBEGIN
1070
    73
1070
     1
1070
    44
1040
1.0
1070
    74
1070
     0
1000
MTEXTEND
  0
MTEXT
  5
5648
330
1A
100
AcDbEntity
  8
SUNPOU
100
AcDbMText
 10
77137.31641337052
 20
70907.11375048141
 30
0.0
 40
10.5
 41
0.0
 71
     9
 72
     5
  1

1001
ACAD
1000
MTEXTBEGIN
1070
    73
1070
     1
1070
    44
1040
1.0
1070
    74
1070
     0
1000
MTEXTEND
  0
MTEXT
  5
5649
330
1A
100
AcDbEntity
  8
SUNPOU
100
AcDbMText
 10
79080.72366007995
 20
69106.06467060339
 30
0.0
 40
3.5
 41
0.0
 71
     9
 72
     5
  1

1001
ACAD
1000
MTEXTBEGIN
1070
    73
1070
     1
1070
    44
1040
1.0
1070
    74
1070
     0
1000
MTEXTEND
  0
MTEXT
  5
564A
330
1A
100
AcDbEntity
  8
SUNPOU
100
AcDbMText
 10
110206.9034926996
 20
111601.0103382607
 30
0.0
 40
10.5
 41
0.0
 71
     9
 72
     5
  1

1001
ACAD
1000
MTEXTBEGIN
1070
    73
1070
     1
1070
    44
1040
1.0
1070
    74
1070
     0
1000
MTEXTEND
  0
MTEXT
  5
564B
330
1A
100
AcDbEntity
  8
SUNPOU
100
AcDbMText
 10
112150.310739409
 20
109799.9612583827
 30
0.0
 40
3.5
 41
0.0
 71
     9
 72
     5
  1

1001
ACAD
1000
MTEXTBEGIN
1070
    73
1070
     1
1070
    44
1040
1.0
1070
    74
1070
     0
1000
MTEXTEND
  0
MTEXT
  5
564C
330
1A
100
AcDbEntity
  8
SUNPOU
100
AcDbMText
 10
108819.1333204968
 20
110677.9087286761
 30
0.0
 40
10.5
 41
0.0
 71
     9
 72
     5
  1

1001
ACAD
1000
MTEXTBEGIN
1070
    73
1070
     1
1070
    44
1040
1.0
1070
    74
1070
     0
1000
MTEXTEND
  0
MTEXT
  5
564D
330
1A
100
AcDbEntity
  8
SUNPOU
100
AcDbMText
 10
110762.5405672062
 20
108876.8596487981
 30
0.0
 40
3.5
 41
0.0
 71
     9
 72
     5
  1

1001
ACAD
1000
MTEXTBEGIN
1070
    73
1070
     1
1070
    44
1040
1.0
1070
    74
1070
     0
1000
MTEXTEND
  0
MTEXT
  5
564E
330
1A
100
AcDbEntity
  8
SUNPOU
100
AcDbMText
 10
76303.05507956816
 20
68695.31179059812
 30
0.0
 40
10.5
 41
0.0
 71
     9
 72
     5
  1

1001
ACAD
1000
MTEXTBEGIN
1070
    73
1070
     1
1070
    44
1040
1.0
1070
    74
1070
     0
1000
MTEXTEND
  0
MTEXT
  5
564F
330
1A
100
AcDbEntity
  8
SUNPOU
100
AcDbMText
 10
79026.36128373271
 20
69099.99348217918
 30
0.0
 40
3.5
 41
0.0
 71
     9
 72
     5
  1

1001
ACAD
1000
MTEXTBEGIN
1070
    73
1070
     1
1070
    44
1040
1.0
1070
    74
1070
     0
1000
MTEXTEND
  0
MTEXT
  5
5650
330
1A
100
AcDbEntity
  8
SUNPOU
100
AcDbMText
 10
78234.00675862522
 20
65938.68764412436
 30
0.0
 40
10.5
 41
0.0
 71
     9
 72
     5
  1

1001
ACAD
1000
MTEXTBEGIN
1070
    73
1070
     1
1070
    44
1040
1.0
1070
    74
1070
     0
1000
MTEXTEND
  0
MTEXT
  5
5651
330
1A
100
AcDbEntity
  8
SUNPOU
100
AcDbMText
 10
80177.41400533465
 20
64137.63856424636
 30
0.0
 40
3.5
 41
0.0
 71
     9
 72
     5
  1

1001
ACAD
1000
MTEXTBEGIN
1070
    73
1070
     1
1070
    44
1040
1.0
1070
    74
1070
     0
1000
MTEXTEND
  0
MTEXT
  5
5652
330
1A
100
AcDbEntity
  8
SUNPOU
100
AcDbMText
 10
80122.50949592123
 20
64024.86668196205
 30
0.0
 40
3.5
 41
0.0
 71
     9
 72
     5
  1

1001
ACAD
1000
MTEXTBEGIN
1070
    73
1070
     1
1070
    44
1040
1.0
1070
    74
1070
     0
1000
MTEXTEND
  0
MTEXT
  5
5653
330
1A
100
AcDbEntity
  8
SUNPOU
100
AcDbMText
 10
79486.58135950133
 20
63213.54544089553
 30
0.0
 40
3.5
 41
0.0
 71
     9
 72
     5
  1

1001
ACAD
1000
MTEXTBEGIN
1070
    73
1070
     1
1070
    44
1040
1.0
1070
    74
1070
     0
1000
MTEXTEND
  0
MTEXT
  5
5654
330
1A
100
AcDbEntity
  8
SUNPOU
100
AcDbMText
 10
79485.3409400806
 20
63213.29746395804
 30
0.0
 40
10.5
 41
0.0
 71
     9
 72
     5
  1

1001
ACAD
1000
MTEXTBEGIN
1070
    73
1070
     1
1070
    44
1040
1.0
1070
    74
1070
     0
1000
MTEXTEND
  0
MTEXT
  5
5655
330
1A
100
AcDbEntity
  8
SUNPOU
100
AcDbMText
 10
85473.63363627567
 20
80747.76348077064
 30
0.0
 40
10.5
 41
0.0
 71
     9
 72
     5
  1

1001
ACAD
1000
MTEXTBEGIN
1070
    73
1070
     1
1070
    44
1040
1.0
1070
    74
1070
     0
1000
MTEXTEND
  0
MTEXT
  5
5656
330
1A
100
AcDbEntity
  8
SUNPOU
100
AcDbMText
 10
94195.80120219368
 20
88163.59801230809
 30
0.0
 40
10.5
 41
0.0
 71
     9
 72
     5
  1

1001
ACAD
1000
MTEXTBEGIN
1070
    73
1070
     1
1070
    44
1040
1.0
1070
    74
1070
     0
1000
MTEXTEND
  0
MTEXT
  5
5657
330
1A
100
AcDbEntity
  8
SUNPOU
100
AcDbMText
 10
113149.5599195236
 20
105630.1740648001
 30
0.0
 40
10.5
 41
0.0
 71
     9
 72
     5
  1

1001
ACAD
1000
MTEXTBEGIN
1070
    73
1070
     1
1070
    44
1040
1.0
1070
    74
1070
     0
1000
MTEXTEND
  0
MTEXT
  5
5658
330
1A
100
AcDbEntity
  8
SUNPOU
100
AcDbMText
 10
115092.967166233
 20
103829.1249849221
 30
0.0
 40
3.5
 41
0.0
 71
     9
 72
     5
  1

1001
ACAD
1000
MTEXTBEGIN
1070
    73
1070
     1
1070
    44
1040
1.0
1070
    74
1070
     0
1000
MTEXTEND
  0
MTEXT
  5
5659
330
1A
100
AcDbEntity
  8
SUNPOU
100
AcDbMText
 10
146219.1469988527
 20
146324.0706525794
 30
0.0
 40
10.5
 41
0.0
 71
     9
 72
     5
  1

1001
ACAD
1000
MTEXTBEGIN
1070
    73
1070
     1
1070
    44
1040
1.0
1070
    74
1070
     0
1000
MTEXTEND
  0
MTEXT
  5
565A
330
1A
100
AcDbEntity
  8
SUNPOU
100
AcDbMText
 10
148162.5542455621
 20
144523.0215727014
 30
0.0
 40
3.5
 41
0.0
 71
     9
 72
     5
  1

1001
ACAD
1000
MTEXTBEGIN
1070
    73
1070
     1
1070
    44
1040
1.0
1070
    74
1070
     0
1000
MTEXTEND
  0
MTEXT
  5
565B
330
1A
100
AcDbEntity
  8
SUNPOU
100
AcDbMText
 10
96659.41470464833
 20
92157.23580755453
 30
0.0
 40
10.5
 41
0.0
 71
     9
 72
     5
  1

1001
ACAD
1000
MTEXTBEGIN
1070
    73
1070
     1
1070
    44
1040
1.0
1070
    74
1070
     0
1000
MTEXTEND
  0
MTEXT
  5
565C
330
1A
100
AcDbEntity
  8
SUNPOU
100
AcDbMText
 10
82711.41460427234
 20
72984.83666844234
 30
0.0
 40
3.5
 41
0.0
 71
     7
 72
     5
  1

1001
ACAD
1000
MTEXTBEGIN
1070
    73
1070
     1
1070
    44
1040
1.0
1070
    74
1070
     0
1000
MTEXTEND
  0
MTEXT
  5
565D
330
1A
100
AcDbEntity
  8
SUNPOU
100
AcDbMText
 10
63696.58400126548
 20
60746.98539926055
 30
0.0
 40
10.5
 41
0.0
 71
     7
 72
     5
  1

1001
ACAD
1000
MTEXTBEGIN
1070
    73
1070
     1
1070
    44
1040
1.0
1070
    74
1070
     0
1000
MTEXTEND
  0
MTEXT
  5
565E
330
1A
100
AcDbEntity
  8
SUNPOU
100
AcDbMText
 10
51239.35573631738
 20
44902.05382116213
 30
0.0
 40
35.0
 41
0.0
 71
     9
 72
     5
  1

1001
ACAD
1000
MTEXTBEGIN
1070
    73
1070
     1
1070
    44
1040
1.0
1070
    74
1070
     0
1000
MTEXTEND
  0
MTEXT
  5
565F
330
1A
100
AcDbEntity
  8
SUNPOU
100
AcDbMText
 10
50147.84079389233
 20
45510.82923121084
 30
0.0
 40
350.0000004171781
 41
0.0
 71
     7
 72
     5
  1

1001
ACAD
1000
MTEXTBEGIN
1070
    73
1070
     1
1070
    44
1040
1.0
1070
    74
1070
     0
1000
MTEXTEND
  0
MTEXT
  5
5660
330
1A
100
AcDbEntity
  8
0
100
AcDbMText
 10
56191.79155183523
 20
43490.75159334705
 30
0.0
 40
8.0
 41
0.0
 71
     7
 72
     5
  1

1001
ACAD
1000
MTEXTBEGIN
1070
    73
1070
     1
1070
    44
1040
1.0
1070
    74
1070
     0
1000
MTEXTEND
  0
MTEXT
  5
5661
330
1A
100
AcDbEntity
  8
0
100
AcDbMText
 10
58477.14924173013
 20
44461.54188809812
 30
0.0
 40
8.0
 41
0.0
 71
     7
 72
     5
  1

1001
ACAD
1000
MTEXTBEGIN
1070
    73
1070
     1
1070
    44
1040
1.0
1070
    74
1070
     0
1000
MTEXTEND
  0
MTEXT
  5
5662
330
1A
100
AcDbEntity
  8
SUNPOU
100
AcDbMText
 10
61143.04626241227
 20
53973.65328047324
 30
0.0
 40
10.5
 41
0.0
 71
     1
 72
     5
  1

1001
ACAD
1000
MTEXTBEGIN
1070
    73
1070
     1
1070
    44
1040
1.0
1070
    74
1070
     0
1000
MTEXTEND
  0
MTEXT
  5
5663
330
1A
100
AcDbEntity
  8
SUNPOU
100
AcDbMText
 10
53212.12306647634
 20
53026.86014656028
 30
0.0
 40
10.5
 41
0.0
 71
     7
 72
     5
  1

1001
ACAD
1000
MTEXTBEGIN
1070
    73
1070
     1
1070
    44
1040
1.0
1070
    74
1070
     0
1000
MTEXTEND
  0
MTEXT
  5
5664
330
1A
100
AcDbEntity
  8
SUNPOU
100
AcDbMText
 10
56161.1067309891
 20
57927.53621840312
 30
0.0
 40
10.5
 41
0.0
 71
     7
 72
     5
  1

1001
ACAD
1000
MTEXTBEGIN
1070
    73
1070
     1
1070
    44
1040
1.0
1070
    74
1070
     0
1000
MTEXTEND
  0
MTEXT
  5
5665
330
1A
100
AcDbEntity
  8
SUNPOU
100
AcDbMText
 10
60670.18485893966
 20
60363.8369660232
 30
0.0
 40
10.5
 41
0.0
 71
     7
 72
     5
  1

1001
ACAD
1000
MTEXTBEGIN
1070
    73
1070
     1
1070
    44
1040
1.0
1070
    74
1070
     0
1000
MTEXTEND
  0
MTEXT
  5
5666
330
1A
100
AcDbEntity
  8
SUNPOU
100
AcDbMText
 10
44271.02274570799
 20
39361.43311641212
 30
0.0
 40
10.5
 41
0.0
 71
     7
 72
     5
  1

1001
ACAD
1000
MTEXTBEGIN
1070
    73
1070
     1
1070
    44
1040
1.0
1070
    74
1070
     0
1000
MTEXTEND
  0
MTEXT
  5
5667
330
1A
100
AcDbEntity
  8
SUNPOU
100
AcDbMText
 10
95462.54117960824
 20
85034.41368006038
 30
0.0
 40
10.5
 41
0.0
 71
     9
 72
     5
  1

1001
ACAD
1000
MTEXTBEGIN
1070
    73
1070
     1
1070
    44
1040
1.0
1070
    74
1070
     0
1000
MTEXTEND
  0
MTEXT
  5
5668
330
1A
100
AcDbEntity
  8
SUNPOU
100
AcDbMText
 10
104184.7087455262
 20
92450.24821159784
 30
0.0
 40
10.5
 41
0.0
 71
     9
 72
     5
  1

1001
ACAD
1000
MTEXTBEGIN
1070
    73
1070
     1
1070
    44
1040
1.0
1070
    74
1070
     0
1000
MTEXTEND
  0
MTEXT
  5
5669
330
1A
100
AcDbEntity
  8
SUNPOU
100
AcDbMText
 10
123138.4674628562
 20
109916.8242640898
 30
0.0
 40
10.5
 41
0.0
 71
     9
 72
     5
  1

1001
ACAD
1000
MTEXTBEGIN
1070
    73
1070
     1
1070
    44
1040
1.0
1070
    74
1070
     0
1000
MTEXTEND
  0
MTEXT
  5
566A
330
1A
100
AcDbEntity
  8
SUNPOU
100
AcDbMText
 10
125081.8747095656
 20
108115.7751842118
 30
0.0
 40
3.5
 41
0.0
 71
     9
 72
     5
  1

1001
ACAD
1000
MTEXTBEGIN
1070
    73
1070
     1
1070
    44
1040
1.0
1070
    74
1070
     0
1000
MTEXTEND
  0
MTEXT
  5
566B
330
1A
100
AcDbEntity
  8
SUNPOU
100
AcDbMText
 10
156208.0545421853
 20
150610.7208518691
 30
0.0
 40
10.5
 41
0.0
 71
     9
 72
     5
  1

1001
ACAD
1000
MTEXTBEGIN
1070
    73
1070
     1
1070
    44
1040
1.0
1070
    74
1070
     0
1000
MTEXTEND
  0
MTEXT
  5
566C
330
1A
100
AcDbEntity
  8
SUNPOU
100
AcDbMText
 10
158151.4617888947
 20
148809.6717719911
 30
0.0
 40
3.5
 41
0.0
 71
     9
 72
     5
  1

1001
ACAD
1000
MTEXTBEGIN
1070
    73
1070
     1
1070
    44
1040
1.0
1070
    74
1070
     0
1000
MTEXTEND
  0
MTEXT
  5
566D
330
1A
100
AcDbEntity
  8
SUNPOU
100
AcDbMText
 10
106648.3222479809
 20
96443.88600684427
 30
0.0
 40
10.5
 41
0.0
 71
     9
 72
     5
  1

1001
ACAD
1000
MTEXTBEGIN
1070
    73
1070
     1
1070
    44
1040
1.0
1070
    74
1070
     0
1000
MTEXTEND
  0
MTEXT
  5
566E
330
1A
100
AcDbEntity
  8
SUNPOU
100
AcDbMText
 10
92700.3221476049
 20
77271.48686773207
 30
0.0
 40
3.5
 41
0.0
 71
     7
 72
     5
  1

1001
ACAD
1000
MTEXTBEGIN
1070
    73
1070
     1
1070
    44
1040
1.0
1070
    74
1070
     0
1000
MTEXTEND
  0
MTEXT
  5
566F
330
1A
100
AcDbEntity
  8
SUNPOU
100
AcDbMText
 10
73685.49154459806
 20
65033.63559855027
 30
0.0
 40
10.5
 41
0.0
 71
     7
 72
     5
  1

1001
ACAD
1000
MTEXTBEGIN
1070
    73
1070
     1
1070
    44
1040
1.0
1070
    74
1070
     0
1000
MTEXTEND
  0
MTEXT
  5
5670
330
1A
100
AcDbEntity
  8
SUNPOU
100
AcDbMText
 10
61228.26327964995
 20
49188.70402045185
 30
0.0
 40
35.0
 41
0.0
 71
     9
 72
     5
  1

1001
ACAD
1000
MTEXTBEGIN
1070
    73
1070
     1
1070
    44
1040
1.0
1070
    74
1070
     0
1000
MTEXTEND
  0
MTEXT
  5
5671
330
1A
100
AcDbEntity
  8
SUNPOU
100
AcDbMText
 10
60136.74833722491
 20
49797.47943050056
 30
0.0
 40
350.0000004171781
 41
0.0
 71
     7
 72
     5
  1

1001
ACAD
1000
MTEXTBEGIN
1070
    73
1070
     1
1070
    44
1040
1.0
1070
    74
1070
     0
1000
MTEXTEND
  0
MTEXT
  5
5672
330
1A
100
AcDbEntity
  8
0
100
AcDbMText
 10
66180.69909516782
 20
47777.40179263678
 30
0.0
 40
8.0
 41
0.0
 71
     7
 72
     5
  1

1001
ACAD
1000
MTEXTBEGIN
1070
    73
1070
     1
1070
    44
1040
1.0
1070
    74
1070
     0
1000
MTEXTEND
  0
MTEXT
  5
5673
330
1A
100
AcDbEntity
  8
0
100
AcDbMText
 10
68466.05678506271
 20
48748.19208738784
 30
0.0
 40
8.0
 41
0.0
 71
     7
 72
     5
  1

1001
ACAD
1000
MTEXTBEGIN
1070
    73
1070
     1
1070
    44
1040
1.0
1070
    74
1070
     0
1000
MTEXTEND
  0
MTEXT
  5
5674
330
1A
100
AcDbEntity
  8
SUNPOU
100
AcDbMText
 10
71131.95380574485
 20
58260.30347976296
 30
0.0
 40
10.5
 41
0.0
 71
     1
 72
     5
  1

1001
ACAD
1000
MTEXTBEGIN
1070
    73
1070
     1
1070
    44
1040
1.0
1070
    74
1070
     0
1000
MTEXTEND
  0
MTEXT
  5
5675
330
1A
100
AcDbEntity
  8
SUNPOU
100
AcDbMText
 10
63201.03060980891
 20
57313.51034585002
 30
0.0
 40
10.5
 41
0.0
 71
     7
 72
     5
  1

1001
ACAD
1000
MTEXTBEGIN
1070
    73
1070
     1
1070
    44
1040
1.0
1070
    74
1070
     0
1000
MTEXTEND
  0
MTEXT
  5
5676
330
1A
100
AcDbEntity
  8
SUNPOU
100
AcDbMText
 10
66150.01427432169
 20
62214.18641769286
 30
0.0
 40
10.5
 41
0.0
 71
     7
 72
     5
  1

1001
ACAD
1000
MTEXTBEGIN
1070
    73
1070
     1
1070
    44
1040
1.0
1070
    74
1070
     0
1000
MTEXTEND
  0
MTEXT
  5
5677
330
1A
100
AcDbEntity
  8
SUNPOU
100
AcDbMText
 10
70659.09240227225
 20
64650.48716531294
 30
0.0
 40
10.5
 41
0.0
 71
     7
 72
     5
  1

1001
ACAD
1000
MTEXTBEGIN
1070
    73
1070
     1
1070
    44
1040
1.0
1070
    74
1070
     0
1000
MTEXTEND
  0
MTEXT
  5
5678
330
1A
100
AcDbEntity
  8
SUNPOU
100
AcDbMText
 10
54259.93028904056
 20
43648.08331570185
 30
0.0
 40
10.5
 41
0.0
 71
     7
 72
     5
  1

1001
ACAD
1000
MTEXTBEGIN
1070
    73
1070
     1
1070
    44
1040
1.0
1070
    74
1070
     0
1000
MTEXTEND
  0
MTEXT
  5
5679
330
1A
100
AcDbEntity
  8
SUNPOU
100
AcDbMText
 10
56070.69320041551
 20
49975.4973031804
 30
0.0
 40
10.5
 41
0.0
 71
     9
 72
     5
  1

1001
ACAD
1000
MTEXTBEGIN
1070
    73
1070
     1
1070
    44
1040
1.0
1070
    74
1070
     0
1000
MTEXTEND
  0
MTEXT
  5
567A
330
1A
100
AcDbEntity
  8
SUNPOU
100
AcDbMText
 10
64792.86076633348
 20
57391.33183471788
 30
0.0
 40
10.5
 41
0.0
 71
     9
 72
     5
  1

1001
ACAD
1000
MTEXTBEGIN
1070
    73
1070
     1
1070
    44
1040
1.0
1070
    74
1070
     0
1000
MTEXTEND
  0
MTEXT
  5
567B
330
1A
100
AcDbEntity
  8
SUNPOU
100
AcDbMText
 10
83746.61948366345
 20
74857.90788720994
 30
0.0
 40
10.5
 41
0.0
 71
     9
 72
     5
  1

1001
ACAD
1000
MTEXTBEGIN
1070
    73
1070
     1
1070
    44
1040
1.0
1070
    74
1070
     0
1000
MTEXTEND
  0
MTEXT
  5
567C
330
1A
100
AcDbEntity
  8
SUNPOU
100
AcDbMText
 10
85690.02673037287
 20
73056.85880733192
 30
0.0
 40
3.5
 41
0.0
 71
     9
 72
     5
  1

1001
ACAD
1000
MTEXTBEGIN
1070
    73
1070
     1
1070
    44
1040
1.0
1070
    74
1070
     0
1000
MTEXTEND
  0
MTEXT
  5
567D
330
1A
100
AcDbEntity
  8
SUNPOU
100
AcDbMText
 10
116816.2065629925
 20
115551.8044749892
 30
0.0
 40
10.5
 41
0.0
 71
     9
 72
     5
  1

1001
ACAD
1000
MTEXTBEGIN
1070
    73
1070
     1
1070
    44
1040
1.0
1070
    74
1070
     0
1000
MTEXTEND
  0
MTEXT
  5
567E
330
1A
100
AcDbEntity
  8
SUNPOU
100
AcDbMText
 10
118759.613809702
 20
113750.7553951112
 30
0.0
 40
3.5
 41
0.0
 71
     9
 72
     5
  1

1001
ACAD
1000
MTEXTBEGIN
1070
    73
1070
     1
1070
    44
1040
1.0
1070
    74
1070
     0
1000
MTEXTEND
  0
MTEXT
  5
567F
330
1A
100
AcDbEntity
  8
SUNPOU
100
AcDbMText
 10
67256.47426878814
 20
61384.96962996432
 30
0.0
 40
10.5
 41
0.0
 71
     9
 72
     5
  1

1001
ACAD
1000
MTEXTBEGIN
1070
    73
1070
     1
1070
    44
1040
1.0
1070
    74
1070
     0
1000
MTEXTEND
  0
MTEXT
  5
5680
330
1A
100
AcDbEntity
  8
SUNPOU
100
AcDbMText
 10
53308.47416841216
 20
42212.57049085211
 30
0.0
 40
3.5
 41
0.0
 71
     7
 72
     5
  1

1001
ACAD
1000
MTEXTBEGIN
1070
    73
1070
     1
1070
    44
1040
1.0
1070
    74
1070
     0
1000
MTEXTEND
  0
MTEXT
  5
5681
330
1A
100
AcDbEntity
  8
SUNPOU
100
AcDbMText
 10
67000.82485118274
 20
51571.63371187345
 30
0.0
 40
10.5
 41
0.0
 71
     9
 72
     5
  1

1001
ACAD
1000
MTEXTBEGIN
1070
    73
1070
     1
1070
    44
1040
1.0
1070
    74
1070
     0
1000
MTEXTEND
  0
MTEXT
  5
5682
330
1A
100
AcDbEntity
  8
SUNPOU
100
AcDbMText
 10
75722.99241710071
 20
58987.46824341094
 30
0.0
 40
10.5
 41
0.0
 71
     9
 72
     5
  1

1001
ACAD
1000
MTEXTBEGIN
1070
    73
1070
     1
1070
    44
1040
1.0
1070
    74
1070
     0
1000
MTEXTEND
  0
MTEXT
  5
5683
330
1A
100
AcDbEntity
  8
SUNPOU
100
AcDbMText
 10
94676.75113443068
 20
76454.04429590299
 30
0.0
 40
10.5
 41
0.0
 71
     9
 72
     5
  1

1001
ACAD
1000
MTEXTBEGIN
1070
    73
1070
     1
1070
    44
1040
1.0
1070
    74
1070
     0
1000
MTEXTEND
  0
MTEXT
  5
5684
330
1A
100
AcDbEntity
  8
SUNPOU
100
AcDbMText
 10
96620.1583811401
 20
74652.99521602498
 30
0.0
 40
3.5
 41
0.0
 71
     9
 72
     5
  1

1001
ACAD
1000
MTEXTBEGIN
1070
    73
1070
     1
1070
    44
1040
1.0
1070
    74
1070
     0
1000
MTEXTEND
  0
MTEXT
  5
5685
330
1A
100
AcDbEntity
  8
SUNPOU
100
AcDbMText
 10
127746.3382137598
 20
117147.9408836823
 30
0.0
 40
10.5
 41
0.0
 71
     9
 72
     5
  1

1001
ACAD
1000
MTEXTBEGIN
1070
    73
1070
     1
1070
    44
1040
1.0
1070
    74
1070
     0
1000
MTEXTEND
  0
MTEXT
  5
5686
330
1A
100
AcDbEntity
  8
SUNPOU
100
AcDbMText
 10
129689.7454604692
 20
115346.8918038043
 30
0.0
 40
3.5
 41
0.0
 71
     9
 72
     5
  1

1001
ACAD
1000
MTEXTBEGIN
1070
    73
1070
     1
1070
    44
1040
1.0
1070
    74
1070
     0
1000
MTEXTEND
  0
MTEXT
  5
5687
330
1A
100
AcDbEntity
  8
SUNPOU
100
AcDbMText
 10
78186.60591955537
 20
62981.10603865738
 30
0.0
 40
10.5
 41
0.0
 71
     9
 72
     5
  1

1001
ACAD
1000
MTEXTBEGIN
1070
    73
1070
     1
1070
    44
1040
1.0
1070
    74
1070
     0
1000
MTEXTEND
  0
MTEXT
  5
5688
330
1A
100
AcDbEntity
  8
SUNPOU
100
AcDbMText
 10
64238.60581917939
 20
43808.70689954517
 30
0.0
 40
3.5
 41
0.0
 71
     7
 72
     5
  1

1001
ACAD
1000
MTEXTBEGIN
1070
    73
1070
     1
1070
    44
1040
1.0
1070
    74
1070
     0
1000
MTEXTEND
  0
MTEXT
  5
5689
330
1A
100
AcDbEntity
  8
SUNPOU
100
AcDbMText
 10
33428.13481137435
 20
32770.04710035564
 30
0.0
 40
10.5
 41
0.0
 71
     9
 72
     5
  1

1001
ACAD
1000
MTEXTBEGIN
1070
    73
1070
     1
1070
    44
1040
1.0
1070
    74
1070
     0
1000
MTEXTEND
  0
MTEXT
  5
568A
330
1A
100
AcDbEntity
  8
SUNPOU
100
AcDbMText
 10
52381.89352870432
 20
50236.62315284769
 30
0.0
 40
10.5
 41
0.0
 71
     9
 72
     5
  1

1001
ACAD
1000
MTEXTBEGIN
1070
    73
1070
     1
1070
    44
1040
1.0
1070
    74
1070
     0
1000
MTEXTEND
  0
MTEXT
  5
568B
330
1A
100
AcDbEntity
  8
SUNPOU
100
AcDbMText
 10
54325.30077541374
 20
48435.57407296968
 30
0.0
 40
3.5
 41
0.0
 71
     9
 72
     5
  1

1001
ACAD
1000
MTEXTBEGIN
1070
    73
1070
     1
1070
    44
1040
1.0
1070
    74
1070
     0
1000
MTEXTEND
  0
MTEXT
  5
568C
330
1A
100
AcDbEntity
  8
SUNPOU
100
AcDbMText
 10
85451.48060803343
 20
90930.51974062703
 30
0.0
 40
10.5
 41
0.0
 71
     9
 72
     5
  1

1001
ACAD
1000
MTEXTBEGIN
1070
    73
1070
     1
1070
    44
1040
1.0
1070
    74
1070
     0
1000
MTEXTEND
  0
MTEXT
  5
568D
330
1A
100
AcDbEntity
  8
SUNPOU
100
AcDbMText
 10
87394.88785474286
 20
89129.47066074901
 30
0.0
 40
3.5
 41
0.0
 71
     9
 72
     5
  1

1001
ACAD
1000
MTEXTBEGIN
1070
    73
1070
     1
1070
    44
1040
1.0
1070
    74
1070
     0
1000
MTEXTEND
  0
MTEXT
  5
568E
330
1A
100
AcDbEntity
  8
SUNPOU
100
AcDbMText
 10
35891.74831382901
 20
36763.68489560208
 30
0.0
 40
10.5
 41
0.0
 71
     9
 72
     5
  1

1001
ACAD
1000
MTEXTBEGIN
1070
    73
1070
     1
1070
    44
1040
1.0
1070
    74
1070
     0
1000
MTEXTEND
  0
MTEXT
  5
568F
330
1A
100
AcDbEntity
  8
SUNPOU
100
AcDbMText
 10
21943.74821345303
 20
17591.28575648986
 30
0.0
 40
3.5
 41
0.0
 71
     7
 72
     5
  1

1001
ACAD
1000
MTEXTBEGIN
1070
    73
1070
     1
1070
    44
1040
1.0
1070
    74
1070
     0
1000
MTEXTEND
  0
MTEXT
  5
16E1E
330
1A
100
AcDbEntity
  8
ZISSEN1
100
AcDbMText
 10
-1135.697711857717
 20
1885.173093737599
 30
0.0
 40
5.0
 41
76.2713
 71
     1
 72
     5
  1
2CD-7740G01/QM40X6　　No.SS0001f138
1001
ACAD
1000
MTEXTBEGIN
1070
    73
1070
     1
1070
    44
1040
1.0
1070
    74
1070
     0
1000
MTEXTEND
  0
DIMENSION
  5
16E1F
330
1A
100
AcDbEntity
  8
SUNPOU
100
AcDbDimension
  2
*D0
 10
-955.7654057376547
 20
1674.756711831708
 30
0.0
 11
-983.2654036756562
 21
1677.506711831708
 31
0.0
 70
    32
  3
標準スタイル
100
AcDbAlignedDimension
 13
-1010.765401613657
 23
1686.743417558515
 33
0.0
 14
-955.7654057376547
 24
1686.743417558515
 34
0.0
100
AcDbRotatedDimension
1001
ACAD
1000
DSTYLE
1002
{
1070
   287
1070
     4
1070
   340
1005
10
1070
    40
1040
1.0
1070
   279
1070
     1
1002
}
  0
DIMENSION
  5
16E20
330
1A
100
AcDbEntity
  8
SUNPOU
100
AcDbDimension
  2
*D1
 10
-932.3654176147661
 20
1674.756711831708
 30
0.0
 11
-944.0654116762104
 21
1677.506711831708
 31
0.0
 70
    32
  3
標準スタイル
100
AcDbAlignedDimension
 13
-955.7654057376547
 23
1686.743417558515
 33
0.0
 14
-932.3654176147661
 24
1689.243388690536
 34
0.0
100
AcDbRotatedDimension
1001
ACAD
1000
DSTYLE
1002
{
1070
   287
1070
     4
1070
   340
1005
10
1070
    40
1040
1.0
1070
   279
1070
     1
1002
}
  0
MTEXT
  5
16E21
330
1A
100
AcDbEntity
  8
SUNPOU
100
AcDbMText
 10
-1000.827317071548
 20
1672.729512390308
 30
0.0
 40
3.5
 41
38.69755868151902
 71
     1
 72
     5
  1
(USER取付寸法)
1001
ACAD
1000
MTEXTBEGIN
1070
    73
1070
     1
1070
    44
1040
1.0
1070
    74
1070
     0
1000
MTEXTEND
  0
DIMENSION
  5
16E22
330
1A
100
AcDbEntity
  8
SUNPOU
100
AcDbDimension
  2
*D2
 10
-1044.328405789028
 20
1662.949282929033
 30
0.0
 11
-1095.260527779217
 21
1665.699282929033
 31
0.0
 70
    32
  3
標準スタイル
100
AcDbAlignedDimension
 13
-1146.192649769406
 23
1682.743388896736
 33
0.0
 14
-1044.328405789028
 24
1695.774318142883
 34
0.0
100
AcDbRotatedDimension
1001
ACAD
1000
DSTYLE
1002
{
1070
   340
1005
10
1070
    40
1040
1.0
1002
}
  0
DIMENSION
  5
16E23
330
1A
100
AcDbEntity
  8
SUNPOU
100
AcDbDimension
  2
*D3
 10
-1060.19264440821
 20
1674.824073432893
 30
0.0
 11
-1103.192647088808
 21
1677.574073432893
 31
0.0
 70
    32
  3
標準スタイル
100
AcDbAlignedDimension
 13
-1146.192649769406
 23
1682.743388896736
 33
0.0
 14
-1060.19264440821
 24
1690.043386381097
 34
0.0
100
AcDbRotatedDimension
1001
ACAD
1000
DSTYLE
1002
{
1070
   340
1005
10
1070
    40
1040
1.0
1002
}
  0
LINE
  5
16E24
330
1A
100
AcDbEntity
  8
ZISSEN1
100
AcDbLine
 10
-1061.992645397969
 20
1689.243388690536
 30
0.0
 11
-1144.192649357006
 21
1689.243388690536
 31
0.0
  0
LINE
  5
16E25
330
1A
100
AcDbEntity
  8
ZISSEN1
100
AcDbLine
 10
-1061.992645397969
 20
1689.243388690536
 30
0.0
 11
-1144.192649357006
 21
1689.243388690536
 31
0.0
  0
LINE
  5
16E26
330
1A
100
AcDbEntity
  8
ZISSEN1
100
AcDbLine
 10
-1144.192649357006
 20
1689.243388690536
 30
0.0
 11
-1060.992654470762
 21
1689.243388690536
 31
0.0
  0
LINE
  5
16E27
330
1A
100
AcDbEntity
  8
ZISSEN1
100
AcDbLine
 10
-1061.992645397969
 20
1800.243414671717
 30
0.0
 11
-1144.192649357006
 21
1800.243414671717
 31
0.0
  0
LINE
  5
16E28
330
1A
100
AcDbEntity
  8
ZISSEN1
100
AcDbLine
 10
-1061.992645397969
 20
1800.243414671717
 30
0.0
 11
-1144.192649357006
 21
1800.243414671717
 31
0.0
  0
LINE
  5
16E29
330
1A
100
AcDbEntity
  8
ZISSEN1
100
AcDbLine
 10
-1144.192649357006
 20
1800.243414671717
 30
0.0
 11
-1060.992654470762
 21
1800.243414671717
 31
0.0
  0
LINE
  5
16E2A
330
1A
100
AcDbEntity
  8
ZISSEN1
100
AcDbLine
 10
-1142.692650594205
 20
1738.243432817304
 30
0.0
 11
-1142.692650594205
 21
1690.243385803738
 31
0.0
  0
LINE
  5
16E2B
330
1A
100
AcDbEntity
  8
ZISSEN1
100
AcDbLine
 10
-1144.192649357006
 20
1682.743388896736
 30
0.0
 11
-1144.192649357006
 21
1806.74341137252
 31
0.0
  0
LINE
  5
16E2C
330
1A
100
AcDbEntity
  8
ZISSEN1
100
AcDbLine
 10
-1146.192649769406
 20
1682.743388896736
 30
0.0
 11
-1146.192649769406
 21
1806.74341137252
 31
0.0
  0
LINE
  5
16E2D
330
1A
100
AcDbEntity
  8
CL1
100
AcDbLine
 10
-1147.982800481483
 20
1686.743417092462
 30
0.0
 11
-1142.690292989881
 21
1686.743417558515
 31
0.0
  0
LINE
  5
16E2E
330
1A
100
AcDbEntity
  8
ZISSEN1
100
AcDbLine
 10
-1144.192649357006
 20
1690.043386381097
 30
0.0
 11
-1145.792650924125
 21
1690.043386381097
 31
0.0
  0
LINE
  5
16E2F
330
1A
100
AcDbEntity
  8
ZISSEN1
100
AcDbLine
 10
-1144.192649357006
 20
1690.043386381097
 30
0.0
 11
-1142.492648078567
 21
1690.043386381097
 31
0.0
  0
LINE
  5
16E30
330
1A
100
AcDbEntity
  8
ZISSEN1
100
AcDbLine
 10
-1144.192649357006
 20
1689.243388690536
 30
0.0
 11
-1145.792650924125
 21
1689.243388690536
 31
0.0
  0
LINE
  5
16E31
330
1A
100
AcDbEntity
  8
ZISSEN1
100
AcDbLine
 10
-1144.192649357006
 20
1682.743388896736
 30
0.0
 11
-1146.192649769406
 21
1682.743388896736
 31
0.0
  0
LINE
  5
16E32
330
1A
100
AcDbEntity
  8
ZISSEN1
100
AcDbLine
 10
-1142.692650594205
 20
1690.243385803738
 30
0.0
 11
-1141.692650388005
 21
1689.243388690536
 31
0.0
  0
LINE
  5
16E33
330
1A
100
AcDbEntity
  8
ZISSEN1
100
AcDbLine
 10
-1145.792650924125
 20
1689.243388690536
 30
0.0
 11
-1145.792650924125
 21
1690.043386381097
 31
0.0
  0
LINE
  5
16E34
330
1A
100
AcDbEntity
  8
ZISSEN1
100
AcDbLine
 10
-1142.692650594205
 20
1751.2434385909
 30
0.0
 11
-1142.692650594205
 21
1799.243411372519
 31
0.0
  0
LINE
  5
16E35
330
1A
100
AcDbEntity
  8
ZISSEN1
100
AcDbLine
 10
-1142.692650594205
 20
1751.2434385909
 30
0.0
 11
-1141.692650388005
 21
1750.243435291702
 31
0.0
  0
LINE
  5
16E36
330
1A
100
AcDbEntity
  8
ZISSEN1
100
AcDbLine
 10
-1139.292648037327
 20
1749.243431992504
 30
0.0
 11
-1140.292648243527
 21
1748.243428693307
 31
0.0
  0
LINE
  5
16E37
330
1A
100
AcDbEntity
  8
ZISSEN1
100
AcDbLine
 10
-1141.692650388005
 20
1750.243435291702
 30
0.0
 11
-1131.242648078567
 21
1750.243435291702
 31
0.0
  0
LINE
  5
16E38
330
1A
100
AcDbEntity
  8
ZISSEN1
100
AcDbLine
 10
-1139.292648037327
 20
1740.243439415699
 30
0.0
 11
-1140.292648243527
 21
1741.243430342906
 31
0.0
  0
LINE
  5
16E39
330
1A
100
AcDbEntity
  8
ZISSEN1
100
AcDbLine
 10
-1141.692650388005
 20
1739.243436116502
 30
0.0
 11
-1131.242648078567
 21
1739.243436116502
 31
0.0
  0
LINE
  5
16E3A
330
1A
100
AcDbEntity
  8
ZISSEN1
100
AcDbLine
 10
-1135.042649480726
 20
1749.243419620514
 30
0.0
 11
-1144.192649357006
 21
1749.243419620514
 31
0.0
  0
LINE
  5
16E3B
330
1A
100
AcDbEntity
  8
ZISSEN1
100
AcDbLine
 10
-1135.042649480726
 20
1740.243476531673
 30
0.0
 11
-1144.192649357006
 21
1740.243476531673
 31
0.0
  0
LINE
  5
16E3C
330
1A
100
AcDbEntity
  8
ZISSEN1
100
AcDbLine
 10
-1142.692650594205
 20
1738.243432817304
 30
0.0
 11
-1141.692650388005
 21
1739.243436116502
 31
0.0
  0
LINE
  5
16E3D
330
1A
100
AcDbEntity
  8
ZISSEN1
100
AcDbLine
 10
-1140.292648243527
 20
1748.243428693307
 30
0.0
 11
-1140.292648243527
 21
1741.243430342906
 31
0.0
  0
LINE
  5
16E3E
330
1A
100
AcDbEntity
  8
ZISSEN1
100
AcDbLine
 10
-1131.242648078567
 20
1750.243435291702
 30
0.0
 11
-1131.242648078567
 21
1749.243431992504
 31
0.0
  0
LINE
  5
16E3F
330
1A
100
AcDbEntity
  8
ZISSEN1
100
AcDbLine
 10
-1135.042649480726
 20
1749.243419620514
 30
0.0
 11
-1134.042649274526
 21
1748.243416321316
 31
0.0
  0
LINE
  5
16E40
330
1A
100
AcDbEntity
  8
ZISSEN1
100
AcDbLine
 10
-1139.292648037327
 20
1749.243431992504
 30
0.0
 11
-1131.242648078567
 21
1749.243431992504
 31
0.0
  0
LINE
  5
16E41
330
1A
100
AcDbEntity
  8
ZISSEN1
100
AcDbLine
 10
-1135.492649728166
 20
1744.343430672826
 30
0.0
 11
-1135.492649728166
 21
1745.143428363387
 31
0.0
  0
LINE
  5
16E42
330
1A
100
AcDbEntity
  8
ZISSEN1
100
AcDbLine
 10
-1131.242648078567
 20
1740.243439415699
 30
0.0
 11
-1131.242648078567
 21
1739.243436116502
 31
0.0
  0
LINE
  5
16E43
330
1A
100
AcDbEntity
  8
ZISSEN1
100
AcDbLine
 10
-1134.042649274526
 20
1741.24347983087
 30
0.0
 11
-1135.042649480726
 21
1740.243476531673
 31
0.0
  0
LINE
  5
16E44
330
1A
100
AcDbEntity
  8
ZISSEN1
100
AcDbLine
 10
-1134.042649274526
 20
1741.24347983087
 30
0.0
 11
-1134.042649274526
 21
1743.207199379276
 31
0.0
  0
LINE
  5
16E45
330
1A
100
AcDbEntity
  8
ZISSEN1
100
AcDbLine
 10
-1137.192651006605
 20
1743.443430177946
 30
0.0
 11
-1136.392650223045
 21
1743.443430177946
 31
0.0
  0
LINE
  5
16E46
330
1A
100
AcDbEntity
  8
ZISSEN1
100
AcDbLine
 10
-1136.392650223045
 20
1746.043428858267
 30
0.0
 11
-1137.192651006605
 21
1746.043428858267
 31
0.0
  0
LINE
  5
16E47
330
1A
100
AcDbEntity
  8
ZISSEN1
100
AcDbLine
 10
-1138.092648408487
 20
1745.143428363387
 30
0.0
 11
-1138.092648408487
 21
1744.343430672826
 31
0.0
  0
LINE
  5
16E48
330
1A
100
AcDbEntity
  8
ZISSEN1
100
AcDbLine
 10
-1137.192651006605
 20
1745.143428363387
 30
0.0
 11
-1138.092648408487
 21
1745.143428363387
 31
0.0
  0
LINE
  5
16E49
330
1A
100
AcDbEntity
  8
ZISSEN1
100
AcDbLine
 10
-1138.092648408487
 20
1744.343430672826
 30
0.0
 11
-1137.192651006605
 21
1744.343430672826
 31
0.0
  0
LINE
  5
16E4A
330
1A
100
AcDbEntity
  8
ZISSEN1
100
AcDbLine
 10
-1137.192651006605
 20
1746.043428858267
 30
0.0
 11
-1137.192651006605
 21
1745.143428363387
 31
0.0
  0
LINE
  5
16E4B
330
1A
100
AcDbEntity
  8
ZISSEN1
100
AcDbLine
 10
-1137.192651006605
 20
1744.343430672826
 30
0.0
 11
-1137.192651006605
 21
1743.443430177946
 31
0.0
  0
LINE
  5
16E4C
330
1A
100
AcDbEntity
  8
ZISSEN1
100
AcDbLine
 10
-1136.392650223045
 20
1743.443430177946
 30
0.0
 11
-1136.392650223045
 21
1744.343430672826
 31
0.0
  0
LINE
  5
16E4D
330
1A
100
AcDbEntity
  8
ZISSEN1
100
AcDbLine
 10
-1136.392650223045
 20
1745.143428363387
 30
0.0
 11
-1136.392650223045
 21
1746.043428858267
 31
0.0
  0
LINE
  5
16E4E
330
1A
100
AcDbEntity
  8
ZISSEN1
100
AcDbLine
 10
-1139.292648037327
 20
1740.243439415699
 30
0.0
 11
-1131.242648078567
 21
1740.243439415699
 31
0.0
  0
LINE
  5
16E4F
330
1A
100
AcDbEntity
  8
ZISSEN1
100
AcDbLine
 10
-1135.492649728166
 20
1745.143428363387
 30
0.0
 11
-1136.392650223045
 21
1745.143428363387
 31
0.0
  0
LINE
  5
16E50
330
1A
100
AcDbEntity
  8
ZISSEN1
100
AcDbLine
 10
-1136.392650223045
 20
1744.343430672826
 30
0.0
 11
-1135.492649728166
 21
1744.343430672826
 31
0.0
  0
LINE
  5
16E51
330
1A
100
AcDbEntity
  8
ZISSEN1
100
AcDbLine
 10
-1133.042649068326
 20
1749.243431992504
 30
0.0
 11
-1133.042649068326
 21
1740.243439415699
 31
0.0
  0
LINE
  5
16E52
330
1A
100
AcDbEntity
  8
ZISSEN1
100
AcDbLine
 10
-1134.042649274526
 20
1746.279659656937
 30
0.0
 11
-1134.042649274526
 21
1748.243416321316
 31
0.0
  0
CIRCLE
  5
16E53
330
1A
100
AcDbEntity
  8
ZISSEN1
100
AcDbCircle
 10
-1136.792649068326
 20
1744.743429518107
 30
0.0
 40
3.149999992267505
  0
LINE
  5
16E54
330
1A
100
AcDbEntity
  8
CL1
100
AcDbLine
 10
-1147.982800481483
 20
1802.743472407676
 30
0.0
 11
-1142.690292989881
 21
1802.743472407676
 31
0.0
  0
LINE
  5
16E55
330
1A
100
AcDbEntity
  8
ZISSEN1
100
AcDbLine
 10
-1144.192649357006
 20
1806.74341137252
 30
0.0
 11
-1146.192649769406
 21
1806.74341137252
 31
0.0
  0
LINE
  5
16E56
330
1A
100
AcDbEntity
  8
ZISSEN1
100
AcDbLine
 10
-1142.692650594205
 20
1799.243411372519
 30
0.0
 11
-1141.692650388005
 21
1800.243414671717
 31
0.0
  0
LINE
  5
16E57
330
1A
100
AcDbEntity
  8
ZISSEN1
100
AcDbLine
 10
-1144.192649357006
 20
1800.243414671717
 30
0.0
 11
-1145.792650924125
 21
1800.243414671717
 31
0.0
  0
LINE
  5
16E58
330
1A
100
AcDbEntity
  8
ZISSEN1
100
AcDbLine
 10
-1144.192649357006
 20
1799.443416981155
 30
0.0
 11
-1145.792650924125
 21
1799.443416981155
 31
0.0
  0
LINE
  5
16E59
330
1A
100
AcDbEntity
  8
ZISSEN1
100
AcDbLine
 10
-1145.792650924125
 20
1800.243414671717
 30
0.0
 11
-1145.792650924125
 21
1799.443416981155
 31
0.0
  0
LINE
  5
16E5A
330
1A
100
AcDbEntity
  8
ZISSEN1
100
AcDbLine
 10
-1144.192649357006
 20
1798.243420445313
 30
0.0
 11
-1144.192649357006
 21
1792.243413022118
 31
0.0
  0
LINE
  5
16E5B
330
1A
100
AcDbEntity
  8
ZISSEN1
100
AcDbLine
 10
-1144.192649357006
 20
1799.443416981155
 30
0.0
 11
-1142.492648078567
 21
1799.443416981155
 31
0.0
  0
LINE
  5
16E5C
330
1A
100
AcDbEntity
  8
ZISSEN1
100
AcDbLine
 10
-934.3654242131613
 20
1559.119206743166
 30
0.0
 11
-934.3654242131613
 21
1565.11920179437
 31
0.0
  0
LINE
  5
16E5D
330
1A
100
AcDbEntity
  8
ZISSEN1
100
AcDbLine
 10
-951.5654116762103
 20
1559.81920162941
 30
0.0
 11
-951.5654116762103
 21
1566.819212351802
 31
0.0
  0
LINE
  5
16E5E
330
1A
100
AcDbEntity
  8
ZISSEN1
100
AcDbLine
 10
-948.8653978195802
 20
1560.119210042364
 30
0.0
 11
-948.8653978195802
 21
1568.119211691963
 31
0.0
  0
LINE
  5
16E5F
330
1A
100
AcDbEntity
  8
ZISSEN1
100
AcDbLine
 10
-951.5654116762103
 20
1568.119211691963
 30
0.0
 11
-951.5654116762103
 21
1558.619205093568
 31
0.0
  0
LINE
  5
16E60
330
1A
100
AcDbEntity
  8
ZISSEN1
100
AcDbLine
 10
-949.965416295087
 20
1568.119211691963
 30
0.0
 11
-949.965416295087
 21
1558.619205093568
 31
0.0
  0
LINE
  5
16E61
330
1A
100
AcDbEntity
  8
ZISSEN1
100
AcDbLine
 10
-959.9653997990987
 20
1557.119262004727
 30
0.0
 11
-959.9653997990987
 21
1568.119211691963
 31
0.0
  0
LINE
  5
16E62
330
1A
100
AcDbEntity
  8
ZISSEN1
100
AcDbLine
 10
-987.8654027683767
 20
1560.119210042364
 30
0.0
 11
-987.8654027683767
 21
1568.119211691963
 31
0.0
  0
LINE
  5
16E63
330
1A
100
AcDbEntity
  8
ZISSEN1
100
AcDbLine
 10
-990.7654222336427
 20
1568.119211691963
 30
0.0
 11
-990.7654222336427
 21
1558.619205093568
 31
0.0
  0
LINE
  5
16E64
330
1A
100
AcDbEntity
  8
ZISSEN1
100
AcDbLine
 10
-989.1654268525194
 20
1558.619205093568
 30
0.0
 11
-989.1654268525194
 21
1568.119211691963
 31
0.0
  0
LINE
  5
16E65
330
1A
100
AcDbEntity
  8
ZISSEN1
100
AcDbLine
 10
-999.3654159651672
 20
1558.619205093568
 30
0.0
 11
-999.3654159651672
 21
1568.119211691963
 31
0.0
  0
LINE
  5
16E66
330
1A
100
AcDbEntity
  8
ZISSEN1
100
AcDbLine
 10
-997.765420584044
 20
1558.619205093568
 30
0.0
 11
-997.765420584044
 21
1568.119211691963
 31
0.0
  0
LINE
  5
16E67
330
1A
100
AcDbEntity
  8
ZISSEN1
100
AcDbLine
 10
-997.765420584044
 20
1568.119211691963
 30
0.0
 11
-997.765420584044
 21
1558.619205093568
 31
0.0
  0
LINE
  5
16E68
330
1A
100
AcDbEntity
  8
ZISSEN1
100
AcDbLine
 10
-1011.365406067574
 20
1568.119211691963
 30
0.0
 11
-1011.365406067574
 21
1558.619205093568
 31
0.0
  0
LINE
  5
16E69
330
1A
100
AcDbEntity
  8
ZISSEN1
100
AcDbLine
 10
-1018.965421243883
 20
1568.119211691963
 30
0.0
 11
-1018.965421243883
 21
1557.119262004727
 31
0.0
  0
LINE
  5
16E6A
330
1A
100
AcDbEntity
  8
ZISSEN1
100
AcDbLine
 10
-1012.96542619268
 20
1558.619205093568
 30
0.0
 11
-1012.96542619268
 21
1568.119211691963
 31
0.0
  0
LINE
  5
16E6B
330
1A
100
AcDbEntity
  8
ZISSEN1
100
AcDbLine
 10
-934.3654242131613
 20
1557.119212516762
 30
0.0
 11
-934.3654242131613
 21
1640.319207403006
 31
0.0
  0
LINE
  5
16E6C
330
1A
100
AcDbEntity
  8
ZISSEN1
100
AcDbLine
 10
-932.3654176147661
 20
1640.319207403006
 30
0.0
 11
-932.3654176147661
 21
1557.119212516762
 31
0.0
  0
LINE
  5
16E6D
330
1A
100
AcDbEntity
  8
ZISSEN1
100
AcDbLine
 10
-936.3654060675743
 20
1560.119210042364
 30
0.0
 11
-936.3654060675743
 21
1641.119205093567
 31
0.0
  0
LINE
  5
16E6E
330
1A
100
AcDbEntity
  8
ZISSEN1
100
AcDbLine
 10
-1023.965412995889
 20
1558.619205093568
 30
0.0
 11
-1023.965412995889
 21
1641.119205093567
 31
0.0
  0
LINE
  5
16E6F
330
1A
100
AcDbEntity
  8
ZISSEN1
100
AcDbLine
 10
-1024.765410686451
 20
1558.619205093568
 30
0.0
 11
-1024.765410686451
 21
1641.119205093567
 31
0.0
  0
LINE
  5
16E70
330
1A
100
AcDbEntity
  8
ZISSEN1
100
AcDbLine
 10
-1021.965406397494
 20
1641.119205093567
 30
0.0
 11
-1021.965406397494
 21
1557.119212516762
 31
0.0
  0
LINE
  5
16E71
330
1A
100
AcDbEntity
  8
ZISSEN1
100
AcDbLine
 10
-947.8653945203825
 20
1559.119206743166
 30
0.0
 11
-937.3654093667719
 21
1559.119206743166
 31
0.0
  0
LINE
  5
16E72
330
1A
100
AcDbEntity
  8
ZISSEN1
100
AcDbLine
 10
-1024.765410686451
 20
1555.119205918367
 30
0.0
 11
-934.3654242131613
 21
1555.119205918367
 31
0.0
  0
LINE
  5
16E73
330
1A
100
AcDbEntity
  8
ZISSEN1
100
AcDbLine
 10
-1024.765410686451
 20
1557.119212516762
 30
0.0
 11
-934.3654242131613
 21
1557.119212516762
 31
0.0
  0
LINE
  5
16E74
330
1A
100
AcDbEntity
  8
ZISSEN1
100
AcDbLine
 10
-1012.96542619268
 20
1558.619205093568
 30
0.0
 11
-1011.365406067574
 21
1558.619205093568
 31
0.0
  0
LINE
  5
16E75
330
1A
100
AcDbEntity
  8
ZISSEN1
100
AcDbLine
 10
-1024.765410686451
 20
1557.119212516762
 30
0.0
 11
-1024.765410686451
 21
1555.119205918367
 31
0.0
  0
LINE
  5
16E76
330
1A
100
AcDbEntity
  8
ZISSEN1
100
AcDbLine
 10
-1012.515407387253
 20
1557.119212516762
 30
0.0
 11
-1012.515407387253
 21
1555.119205918367
 31
0.0
  0
LINE
  5
16E77
330
1A
100
AcDbEntity
  8
ZISSEN1
100
AcDbLine
 10
-986.865399469179
 20
1559.119206743166
 30
0.0
 11
-965.9653948503024
 21
1559.119206743166
 31
0.0
  0
LINE
  5
16E78
330
1A
100
AcDbEntity
  8
CL1
100
AcDbLine
 10
-1010.765401613657
 20
1558.619192721576
 30
0.0
 11
-1010.765401613657
 21
1553.634875139987
 31
0.0
  0
LINE
  5
16E79
330
1A
100
AcDbEntity
  8
ZISSEN1
100
AcDbLine
 10
-999.3654159651672
 20
1558.619205093568
 30
0.0
 11
-997.765420584044
 21
1558.619205093568
 31
0.0
  0
LINE
  5
16E7A
330
1A
100
AcDbEntity
  8
ZISSEN1
100
AcDbLine
 10
-1009.015395840061
 20
1557.119212516762
 30
0.0
 11
-1009.015395840061
 21
1555.119205918367
 31
0.0
  0
LINE
  5
16E7B
330
1A
100
AcDbEntity
  8
ZISSEN1
100
AcDbLine
 10
-987.8654027683767
 20
1560.119210042364
 30
0.0
 11
-986.865399469179
 21
1559.119206743166
 31
0.0
  0
LINE
  5
16E7C
330
1A
100
AcDbEntity
  8
ZISSEN1
100
AcDbLine
 10
-990.7654222336427
 20
1558.619205093568
 30
0.0
 11
-989.1654268525194
 21
1558.619205093568
 31
0.0
  0
LINE
  5
16E7D
330
1A
100
AcDbEntity
  8
ZISSEN1
100
AcDbLine
 10
-988.3654044179754
 20
1557.119212516762
 30
0.0
 11
-988.3654044179754
 21
1555.119205918367
 31
0.0
  0
LINE
  5
16E7E
330
1A
100
AcDbEntity
  8
ZISSEN1
100
AcDbLine
 10
-965.9653948503024
 20
1557.119262004727
 30
0.0
 11
-965.9653948503024
 21
1559.119206743166
 31
0.0
  0
LINE
  5
16E7F
330
1A
100
AcDbEntity
  8
ZISSEN1
100
AcDbLine
 10
-967.9654014486976
 20
1557.119212516762
 30
0.0
 11
-967.9654014486976
 21
1555.119205918367
 31
0.0
  0
LINE
  5
16E80
330
1A
100
AcDbEntity
  8
ZISSEN1
100
AcDbLine
 10
-971.1654169549264
 20
1558.619205093568
 30
0.0
 11
-969.5654215738032
 21
1558.619205093568
 31
0.0
  0
LINE
  5
16E81
330
1A
100
AcDbEntity
  8
ZISSEN1
100
AcDbLine
 10
-971.1654169549264
 20
1559.119206743166
 30
0.0
 11
-971.1654169549264
 21
1558.619205093568
 31
0.0
  0
LINE
  5
16E82
330
1A
100
AcDbEntity
  8
ZISSEN1
100
AcDbLine
 10
-969.5654215738032
 20
1558.619205093568
 30
0.0
 11
-969.5654215738032
 21
1559.119206743166
 31
0.0
  0
LINE
  5
16E83
330
1A
100
AcDbEntity
  8
ZISSEN1
100
AcDbLine
 10
-957.5153991392594
 20
1557.119212516762
 30
0.0
 11
-957.5153991392594
 21
1555.119205918367
 31
0.0
  0
LINE
  5
16E84
330
1A
100
AcDbEntity
  8
CL1
100
AcDbLine
 10
-955.7654057376547
 20
1558.619192721576
 30
0.0
 11
-955.7654057376547
 21
1553.634875139987
 31
0.0
  0
LINE
  5
16E85
330
1A
100
AcDbEntity
  8
ZISSEN1
100
AcDbLine
 10
-951.5654116762103
 20
1558.619205093568
 30
0.0
 11
-949.965416295087
 21
1558.619205093568
 31
0.0
  0
LINE
  5
16E86
330
1A
100
AcDbEntity
  8
ZISSEN1
100
AcDbLine
 10
-948.8653978195802
 20
1560.119210042364
 30
0.0
 11
-947.8653945203825
 21
1559.119206743166
 31
0.0
  0
LINE
  5
16E87
330
1A
100
AcDbEntity
  8
ZISSEN1
100
AcDbLine
 10
-948.5654017786172
 20
1557.119212516762
 30
0.0
 11
-948.5654017786172
 21
1555.119205918367
 31
0.0
  0
LINE
  5
16E88
330
1A
100
AcDbEntity
  8
ZISSEN1
100
AcDbLine
 10
-954.0154123360498
 20
1557.119212516762
 30
0.0
 11
-954.0154123360498
 21
1555.119205918367
 31
0.0
  0
ARC
  5
16E89
330
1A
100
AcDbEntity
  8
ZISSEN1
100
AcDbCircle
 10
-934.3654242131613
 20
1557.119212516762
 30
0.0
 40
2.000000025774981
100
AcDbArc
 50
270.0
 51
0.0
  0
LINE
  5
16E8A
330
1A
100
AcDbEntity
  8
ZISSEN1
100
AcDbLine
 10
-936.3654060675743
 20
1560.119210042364
 30
0.0
 11
-937.3654093667719
 21
1559.119206743166
 31
0.0
  0
LINE
  5
16E8B
330
1A
100
AcDbEntity
  8
ZISSEN1
100
AcDbLine
 10
-937.3654093667719
 20
1559.119206743166
 30
0.0
 11
-934.3654242131613
 21
1559.119206743166
 31
0.0
  0
LINE
  5
16E8C
330
1A
100
AcDbEntity
  8
ZISSEN1
100
AcDbLine
 10
-1022.065483433759
 20
1918.789480442995
 30
0.0
 11
-1022.065483433759
 21
1858.789480442995
 31
0.0
  0
LINE
  5
16E8D
330
1A
100
AcDbEntity
  8
ZISSEN1
100
AcDbLine
 10
-1024.065440544189
 20
1918.289478793396
 30
0.0
 11
-1024.065440544189
 21
1835.789466421405
 31
0.0
  0
LINE
  5
16E8E
330
1A
100
AcDbEntity
  8
ZISSEN1
100
AcDbLine
 10
-1024.865438234751
 20
1918.289478793396
 30
0.0
 11
-1024.865438234751
 21
1835.789466421405
 31
0.0
  0
LINE
  5
16E8F
330
1A
100
AcDbEntity
  8
ZISSEN1
100
AcDbLine
 10
-1022.065446317785
 20
1835.789466421405
 30
0.0
 11
-1022.065446317785
 21
1919.78945899821
 31
0.0
  0
LINE
  5
16E90
330
1A
100
AcDbEntity
  8
ZISSEN1
100
AcDbLine
 10
-940.0654355953932
 20
1862.23945965805
 30
0.0
 11
-940.0654355953932
 21
1877.539480442995
 31
0.0
  0
LINE
  5
16E91
330
1A
100
AcDbEntity
  8
ZISSEN1
100
AcDbLine
 10
-959.6654408741095
 20
1862.23945965805
 30
0.0
 11
-959.6654408741095
 21
1877.539480442995
 31
0.0
  0
LINE
  5
16E92
330
1A
100
AcDbEntity
  8
ZISSEN1
100
AcDbLine
 10
-950.565445492986
 20
1877.539480442995
 30
0.0
 11
-950.565445492986
 21
1862.23945965805
 31
0.0
  0
LINE
  5
16E93
330
1A
100
AcDbEntity
  8
ZISSEN1
100
AcDbLine
 10
-950.0654438433873
 20
1877.539480442995
 30
0.0
 11
-950.0654438433873
 21
1862.23945965805
 31
0.0
  0
LINE
  5
16E94
330
1A
100
AcDbEntity
  8
ZISSEN1
100
AcDbLine
 10
-934.4654517614614
 20
1919.78945899821
 30
0.0
 11
-934.4654517614614
 21
1836.589464111966
 31
0.0
  0
LINE
  5
16E95
330
1A
100
AcDbEntity
  8
ZISSEN1
100
AcDbLine
 10
-932.4654451630662
 20
1836.589464111966
 30
0.0
 11
-932.4654451630662
 21
1919.78945899821
 31
0.0
  0
LINE
  5
16E96
330
1A
100
AcDbEntity
  8
ZISSEN1
100
AcDbLine
 10
-936.4654336158746
 20
1916.789473844599
 30
0.0
 11
-936.4654336158746
 21
1835.789466421405
 31
0.0
  0
LINE
  5
16E97
330
1A
100
AcDbEntity
  8
ZISSEN1
100
AcDbLine
 10
-979.2654461528256
 20
1862.23945965805
 30
0.0
 11
-979.2654461528256
 21
1877.539480442995
 31
0.0
  0
LINE
  5
16E98
330
1A
100
AcDbEntity
  8
ZISSEN1
100
AcDbLine
 10
-970.1654383997112
 20
1877.539480442995
 30
0.0
 11
-970.1654383997112
 21
1862.23945965805
 31
0.0
  0
LINE
  5
16E99
330
1A
100
AcDbEntity
  8
ZISSEN1
100
AcDbLine
 10
-969.6654367501123
 20
1877.539480442995
 30
0.0
 11
-969.6654367501123
 21
1862.23945965805
 31
0.0
  0
LINE
  5
16E9A
330
1A
100
AcDbEntity
  8
ZISSEN1
100
AcDbLine
 10
-989.7654436784273
 20
1877.539480442995
 30
0.0
 11
-989.7654436784273
 21
1862.23945965805
 31
0.0
  0
LINE
  5
16E9B
330
1A
100
AcDbEntity
  8
ZISSEN1
100
AcDbLine
 10
-989.2654420288286
 20
1877.539480442995
 30
0.0
 11
-989.2654420288286
 21
1862.23945965805
 31
0.0
  0
DIMENSION
  5
16E9C
330
1A
100
AcDbEntity
  8
SUNPOU
100
AcDbDimension
  2
*D4
 10
-915.6084009545937
 20
1802.743472407676
 30
0.0
 11
-918.358400954594
 21
1744.743444983095
 31
0.0
 70
    32
  1
116(USER取付寸法)
  3
標準スタイル
100
AcDbAlignedDimension
 13
-994.7653983144599
 23
1686.743417558515
 33
0.0
 14
-955.7654057376547
 24
1802.743472407676
 34
0.0
 50
90.0
100
AcDbRotatedDimension
1001
ACAD
1000
DSTYLE
1002
{
1070
   340
1005
10
1070
    40
1040
1.0
1002
}
  0
DIMENSION
  5
16E9D
330
1A
100
AcDbEntity
  8
SUNPOU
100
AcDbDimension
  2
*D5
 10
-901.4156926049643
 20
1806.74341137252
 30
0.0
 11
-904.1656926049647
 21
1744.743414053117
 31
0.0
 70
    32
  3
標準スタイル
100
AcDbAlignedDimension
 13
-949.5654050778151
 23
1682.743416733716
 33
0.0
 14
-949.5654050778151
 24
1806.74341137252
 34
0.0
 50
90.0
100
AcDbRotatedDimension
1001
ACAD
1000
DSTYLE
1002
{
1070
   340
1005
10
1070
    40
1040
1.0
1002
}
  0
DIMENSION
  5
16E9E
330
1A
100
AcDbEntity
  8
SUNPOU
100
AcDbDimension
  2
*D6
 10
-932.3654176147661
 20
1814.874913458798
 30
0.0
 11
-978.6154341107542
 21
1817.624913458798
 31
0.0
 70
    32
  3
標準スタイル
100
AcDbAlignedDimension
 13
-1024.865450606742
 23
1790.773422523807
 33
0.0
 14
-932.3654176147661
 24
1800.243414671717
 34
0.0
100
AcDbRotatedDimension
1001
ACAD
1000
DSTYLE
1002
{
1070
   340
1005
10
1070
    40
1040
1.0
1002
}
  0
LINE
  5
16E9F
330
1A
100
AcDbEntity
  8
ZISSEN1
100
AcDbLine
 10
-932.9654468126651
 20
1835.789466421405
 30
0.0
 11
-1024.865438234751
 21
1835.789466421405
 31
0.0
  0
LINE
  5
16EA0
330
1A
100
AcDbEntity
  8
ZISSEN1
100
AcDbLine
 10
-932.8654192643648
 20
1641.119205093567
 30
0.0
 11
-997.765420584044
 21
1641.119205093567
 31
0.0
  0
LINE
  5
16EA1
330
1A
100
AcDbEntity
  8
ZISSEN1
100
AcDbLine
 10
-936.3654060675743
 20
1800.243414671717
 30
0.0
 11
-948.5654017786174
 21
1800.243414671717
 31
0.0
  0
LINE
  5
16EA2
330
1A
100
AcDbEntity
  8
ZISSEN1
100
AcDbLine
 10
-936.3654060675743
 20
1800.243414671717
 30
0.0
 11
-955.9654113462906
 21
1800.243414671717
 31
0.0
  0
LINE
  5
16EA3
330
1A
100
AcDbEntity
  8
ZISSEN1
100
AcDbLine
 10
-939.9654080470929
 20
1755.043421435072
 30
0.0
 11
-937.8654110163708
 21
1755.043421435072
 31
0.0
  0
LINE
  5
16EA4
330
1A
100
AcDbEntity
  8
ZISSEN1
100
AcDbLine
 10
-952.3654093667721
 20
1696.243417970915
 30
0.0
 11
-937.8654110163708
 21
1696.243417970915
 31
0.0
  0
LINE
  5
16EA5
330
1A
100
AcDbEntity
  8
ZISSEN1
100
AcDbLine
 10
-936.3654060675743
 20
1689.243388690536
 30
0.0
 11
-948.5654017786174
 21
1689.243388690536
 31
0.0
  0
LINE
  5
16EA6
330
1A
100
AcDbEntity
  8
ZISSEN1
100
AcDbLine
 10
-936.3654060675743
 20
1689.243388690536
 30
0.0
 11
-955.9654113462906
 21
1689.243388690536
 31
0.0
  0
DIMENSION
  5
16EA7
330
1A
100
AcDbEntity
  8
SUNPOU
100
AcDbDimension
  2
*D7
 10
-1037.022277025288
 20
1689.243388690536
 30
0.0
 11
-1039.772277025288
 21
1744.743401681127
 31
0.0
 70
    32
  3
標準スタイル
100
AcDbAlignedDimension
 13
-1061.992645397969
 23
1800.243414671717
 33
0.0
 14
-1060.992654470762
 24
1689.243388690536
 34
0.0
 50
90.0
100
AcDbRotatedDimension
1001
ACAD
1000
DSTYLE
1002
{
1070
   340
1005
10
1070
    40
1040
1.0
1002
}
  0
LINE
  5
16EA8
330
1A
100
AcDbEntity
  8
ZISSEN1
100
AcDbLine
 10
-999.3654159651672
 20
1735.24198776874
 30
0.0
 11
-999.3654159651672
 21
1690.545478897198
 31
0.0
  0
LINE
  5
16EA9
330
1A
100
AcDbEntity
  8
ZISSEN1
100
AcDbLine
 10
-1007.865406892373
 20
1690.545478897198
 30
0.0
 11
-1007.865406892373
 21
1729.940051387168
 31
0.0
  0
LINE
  5
16EAA
330
1A
100
AcDbEntity
  8
ZISSEN1
100
AcDbLine
 10
-1014.965408047092
 20
1704.243401062527
 30
0.0
 11
-1014.965408047092
 21
1715.043413187078
 31
0.0
  0
LINE
  5
16EAB
330
1A
100
AcDbEntity
  8
ZISSEN1
100
AcDbLine
 10
-1000.665415305327
 20
1765.702992902292
 30
0.0
 11
-1000.665415305327
 21
1698.175273456161
 31
0.0
  0
LINE
  5
16EAC
330
1A
100
AcDbEntity
  8
ZISSEN1
100
AcDbLine
 10
-1006.865415965167
 20
1765.712197663694
 30
0.0
 11
-1006.865415965167
 21
1698.175273456161
 31
0.0
  0
LINE
  5
16EAD
330
1A
100
AcDbEntity
  8
ZISSEN1
100
AcDbLine
 10
-977.0654092018121
 20
1755.043421435072
 30
0.0
 11
-977.0654092018121
 21
1696.243417970915
 31
0.0
  0
LINE
  5
16EAE
330
1A
100
AcDbEntity
  8
ZISSEN1
100
AcDbLine
 10
-999.3654159651672
 20
1777.327691025708
 30
0.0
 11
-999.3654159651672
 21
1690.743406011324
 31
0.0
  0
LINE
  5
16EAF
330
1A
100
AcDbEntity
  8
ZISSEN1
100
AcDbLine
 10
-997.7654082120528
 20
1777.327691025708
 30
0.0
 11
-997.7654082120528
 21
1690.743406011324
 31
0.0
  0
LINE
  5
16EB0
330
1A
100
AcDbEntity
  8
ZISSEN1
100
AcDbLine
 10
-979.1654186045255
 20
1755.043421435072
 30
0.0
 11
-979.1654186045255
 21
1696.243417970915
 31
0.0
  0
LINE
  5
16EB1
330
1A
100
AcDbEntity
  8
ZISSEN1
100
AcDbLine
 10
-977.565410851411
 20
1755.043421435072
 30
0.0
 11
-977.565410851411
 21
1696.243417970915
 31
0.0
  0
LINE
  5
16EB2
330
1A
100
AcDbEntity
  8
ZISSEN1
100
AcDbLine
 10
-1010.865416789966
 20
1737.543413187078
 30
0.0
 11
-1010.865416789966
 21
1693.343417063635
 31
0.0
  0
LINE
  5
16EB3
330
1A
100
AcDbEntity
  8
ZISSEN1
100
AcDbLine
 10
-1011.365455555539
 20
1737.543413187078
 30
0.0
 11
-1011.365455555539
 21
1693.343417063635
 31
0.0
  0
LINE
  5
16EB4
330
1A
100
AcDbEntity
  8
ZISSEN1
100
AcDbLine
 10
-1012.965450936662
 20
1693.343417063635
 30
0.0
 11
-1012.965450936662
 21
1737.543413187078
 31
0.0
  0
LINE
  5
16EB5
330
1A
100
AcDbEntity
  8
ZISSEN1
100
AcDbLine
 10
-1055.992650346765
 20
1732.543446179055
 30
0.0
 11
-1055.992650346765
 21
1712.943447086334
 31
0.0
  0
LINE
  5
16EB6
330
1A
100
AcDbEntity
  8
ZISSEN1
100
AcDbLine
 10
-1056.992653645963
 20
1694.843409640441
 30
0.0
 11
-1056.992653645963
 21
1730.443412032359
 31
0.0
  0
LINE
  5
16EB7
330
1A
100
AcDbEntity
  8
ZISSEN1
100
AcDbLine
 10
-1060.19264440821
 20
1690.043386381097
 30
0.0
 11
-1060.19264440821
 21
1722.44341038276
 31
0.0
  0
LINE
  5
16EB8
330
1A
100
AcDbEntity
  8
ZISSEN1
100
AcDbLine
 10
-1008.365408541972
 20
1689.243388690536
 30
0.0
 11
-1008.365408541972
 21
1777.327691025708
 31
0.0
  0
LINE
  5
16EB9
330
1A
100
AcDbEntity
  8
ZISSEN1
100
AcDbLine
 10
-995.8654167899666
 20
1689.243388690536
 30
0.0
 11
-995.8654167899666
 21
1777.327691025708
 31
0.0
  0
LINE
  5
16EBA
330
1A
100
AcDbEntity
  8
ZISSEN1
100
AcDbLine
 10
-1024.765410686451
 20
1757.84343809602
 30
0.0
 11
-1024.765410686451
 21
1689.243388690536
 31
0.0
  0
LINE
  5
16EBB
330
1A
100
AcDbEntity
  8
ZISSEN1
100
AcDbLine
 10
-1024.765410686451
 20
1758.373417080131
 30
0.0
 11
-1024.765410686451
 21
1689.243388690536
 31
0.0
  0
LINE
  5
16EBC
330
1A
100
AcDbEntity
  8
ZISSEN1
100
AcDbLine
 10
-991.5654199242045
 20
1696.243417970915
 30
0.0
 11
-991.5654199242045
 21
1788.943419455554
 31
0.0
  0
LINE
  5
16EBD
330
1A
100
AcDbEntity
  8
ZISSEN1
100
AcDbLine
 10
-990.7654098616516
 20
1796.443419455554
 30
0.0
 11
-990.7654098616516
 21
1696.243417970915
 31
0.0
  0
LINE
  5
16EBE
330
1A
100
AcDbEntity
  8
ZISSEN1
100
AcDbLine
 10
-989.1654144805285
 20
1796.443419455554
 30
0.0
 11
-989.1654144805285
 21
1696.243417970915
 31
0.0
  0
LINE
  5
16EBF
330
1A
100
AcDbEntity
  8
ZISSEN1
100
AcDbLine
 10
-971.1654169549266
 20
1796.443419455554
 30
0.0
 11
-971.1654169549266
 21
1696.243417970915
 31
0.0
  0
LINE
  5
16EC0
330
1A
100
AcDbEntity
  8
ZISSEN1
100
AcDbLine
 10
-969.5654092018122
 20
1796.443419455554
 30
0.0
 11
-969.5654092018122
 21
1696.243417970915
 31
0.0
  0
LINE
  5
16EC1
330
1A
100
AcDbEntity
  8
ZISSEN1
100
AcDbLine
 10
-979.4654146454881
 20
1712.943416156356
 30
0.0
 11
-979.4654146454881
 21
1732.543415249077
 31
0.0
  0
LINE
  5
16EC2
330
1A
100
AcDbEntity
  8
ZISSEN1
100
AcDbLine
 10
-967.7654082120529
 20
1712.943416156356
 30
0.0
 11
-967.7654082120529
 21
1732.543415249077
 31
0.0
  0
LINE
  5
16EC3
330
1A
100
AcDbEntity
  8
ZISSEN1
100
AcDbLine
 10
-987.365413490769
 20
1712.943416156356
 30
0.0
 11
-987.365413490769
 21
1732.543415249077
 31
0.0
  0
LINE
  5
16EC4
330
1A
100
AcDbEntity
  8
ZISSEN1
100
AcDbLine
 10
-940.2654040880557
 20
1712.943416156356
 30
0.0
 11
-940.2654040880557
 21
1732.543415249077
 31
0.0
  0
LINE
  5
16EC5
330
1A
100
AcDbEntity
  8
ZISSEN1
100
AcDbLine
 10
-959.865409366772
 20
1712.943416156356
 30
0.0
 11
-959.865409366772
 21
1732.543415249077
 31
0.0
  0
LINE
  5
16EC6
330
1A
100
AcDbEntity
  8
ZISSEN1
100
AcDbLine
 10
-948.1654153053277
 20
1712.943416156356
 30
0.0
 11
-948.1654153053277
 21
1732.543415249077
 31
0.0
  0
LINE
  5
16EC7
330
1A
100
AcDbEntity
  8
ZISSEN1
100
AcDbLine
 10
-957.4654162950871
 20
1755.043421435072
 30
0.0
 11
-957.4654162950871
 21
1696.243417970915
 31
0.0
  0
LINE
  5
16EC8
330
1A
100
AcDbEntity
  8
ZISSEN1
100
AcDbLine
 10
-959.5654133258092
 20
1755.043421435072
 30
0.0
 11
-959.5654133258092
 21
1696.243417970915
 31
0.0
  0
LINE
  5
16EC9
330
1A
100
AcDbEntity
  8
ZISSEN1
100
AcDbLine
 10
-957.9654179446858
 20
1755.043421435072
 30
0.0
 11
-957.9654179446858
 21
1696.243417970915
 31
0.0
  0
LINE
  5
16ECA
330
1A
100
AcDbEntity
  8
ZISSEN1
100
AcDbLine
 10
-939.9654080470929
 20
1755.043421435072
 30
0.0
 11
-939.9654080470929
 21
1696.243417970915
 31
0.0
  0
LINE
  5
16ECB
330
1A
100
AcDbEntity
  8
ZISSEN1
100
AcDbLine
 10
-938.3654126659696
 20
1755.043421435072
 30
0.0
 11
-938.3654126659696
 21
1696.243417970915
 31
0.0
  0
LINE
  5
16ECC
330
1A
100
AcDbEntity
  8
ZISSEN1
100
AcDbLine
 10
-952.3654093667721
 20
1696.243417970915
 30
0.0
 11
-952.3654093667721
 21
1788.943419455554
 31
0.0
  0
LINE
  5
16ECD
330
1A
100
AcDbEntity
  8
ZISSEN1
100
AcDbLine
 10
-951.5654116762103
 20
1796.443419455554
 30
0.0
 11
-951.5654116762103
 21
1696.243417970915
 31
0.0
  0
LINE
  5
16ECE
330
1A
100
AcDbEntity
  8
ZISSEN1
100
AcDbLine
 10
-949.9654162950871
 20
1796.443419455554
 30
0.0
 11
-949.9654162950871
 21
1696.243417970915
 31
0.0
  0
LINE
  5
16ECF
330
1A
100
AcDbEntity
  8
CL1
100
AcDbLine
 10
-1014.069277565903
 20
1686.743417558515
 30
0.0
 11
-1007.509045416428
 21
1686.743417092462
 31
0.0
  0
DIMENSION
  5
16ED0
330
1A
100
AcDbEntity
  8
SUNPOU
100
AcDbDimension
  2
*D8
 10
-1010.765401613657
 20
1674.756711831708
 30
0.0
 11
-1017.765406150054
 21
1677.506711831708
 31
0.0
 70
    32
  3
標準スタイル
100
AcDbAlignedDimension
 13
-1024.765410686451
 23
1683.743416939916
 33
0.0
 14
-1010.765401613657
 24
1686.743417558515
 34
0.0
100
AcDbRotatedDimension
1001
ACAD
1000
DSTYLE
1002
{
1070
   340
1005
10
1070
    40
1040
1.0
1002
}
  0
LINE
  5
16ED1
330
1A
100
AcDbEntity
  8
ZISSEN1
100
AcDbLine
 10
-1012.965450936662
 20
1693.84342489923
 30
0.0
 11
-1011.365455555539
 21
1693.84342489923
 31
0.0
  0
LINE
  5
16ED2
330
1A
100
AcDbEntity
  8
ZISSEN1
100
AcDbLine
 10
-1010.865416789966
 20
1693.343417063635
 30
0.0
 11
-1020.865412665969
 21
1693.343417063635
 31
0.0
  0
LINE
  5
16ED3
330
1A
100
AcDbEntity
  8
ZISSEN1
100
AcDbLine
 10
-1010.865416789966
 20
1693.343417063635
 30
0.0
 11
-1020.865412665969
 21
1693.343417063635
 31
0.0
  0
ARC
  5
16ED4
330
1A
100
AcDbEntity
  8
ZISSEN1
100
AcDbCircle
 10
-1010.765401613657
 20
1686.743417558515
 30
0.0
 40
1.749999974225018
100
AcDbArc
 50
359.9999847412061
 51
179.9999847412061
  0
LINE
  5
16ED5
330
1A
100
AcDbEntity
  8
ZISSEN1
100
AcDbLine
 10
-1021.965418769485
 20
1689.243388690536
 30
0.0
 11
-955.9654113462906
 21
1689.243388690536
 31
0.0
  0
LINE
  5
16ED6
330
1A
100
AcDbEntity
  8
ZISSEN1
100
AcDbLine
 10
-1024.765410686451
 20
1641.119205093567
 30
0.0
 11
-1007.864924384719
 21
1641.119205093567
 31
0.0
  0
LINE
  5
16ED7
330
1A
100
AcDbEntity
  8
ZISSEN1
100
AcDbLine
 10
-1012.96542619268
 20
1644.319195855814
 30
0.0
 11
-1011.365406067574
 21
1644.319195855814
 31
0.0
  0
LINE
  5
16ED8
330
1A
100
AcDbEntity
  8
ZISSEN1
100
AcDbLine
 10
-1018.965421243883
 20
1568.119211691963
 30
0.0
 11
-987.8654027683767
 21
1568.119211691963
 31
0.0
  0
LINE
  5
16ED9
330
1A
100
AcDbEntity
  8
ZISSEN1
100
AcDbLine
 10
-1024.86542586276
 20
1643.819218950198
 30
0.0
 11
-1024.86542586276
 21
1626.219195525894
 31
0.0
  0
LINE
  5
16EDA
330
1A
100
AcDbEntity
  8
ZISSEN1
100
AcDbLine
 10
-1024.86542586276
 20
1626.219195525894
 30
0.0
 11
-1024.765410686451
 21
1626.219195525894
 31
0.0
  0
LINE
  5
16EDB
330
1A
100
AcDbEntity
  8
ZISSEN1
100
AcDbLine
 10
-1023.965412995889
 20
1626.219195525894
 30
0.0
 11
-1021.965406397494
 21
1626.219195525894
 31
0.0
  0
LINE
  5
16EDC
330
1A
100
AcDbEntity
  8
ZISSEN1
100
AcDbLine
 10
-1047.908642877382
 20
1699.789694578944
 30
0.0
 11
-1048.678626117458
 21
1699.789676020957
 31
0.0
  0
LINE
  5
16EDD
330
1A
100
AcDbEntity
  8
ZISSEN1
100
AcDbLine
 10
-1052.077075989449
 20
1696.789845517235
 30
0.0
 11
-1047.601582429483
 21
1696.789752727302
 31
0.0
  0
ARC
  5
16EDE
330
1A
100
AcDbEntity
  8
ZISSEN1
100
AcDbCircle
 10
-1048.261529180433
 20
1673.980038487305
 30
0.0
 40
20.99995020273569
100
AcDbArc
 50
87.42233276367196
 51
100.1022949218707
  0
LINE
  5
16EDF
330
1A
100
AcDbEntity
  8
ZISSEN1
100
AcDbLine
 10
-1054.328592795562
 20
1697.779846061603
 30
0.0
 11
-1046.764580113446
 21
1697.779722341692
 31
0.0
  0
ARC
  5
16EE0
330
1A
100
AcDbEntity
  8
ZISSEN1
100
AcDbCircle
 10
-1048.261529180433
 20
1673.980038487305
 30
0.0
 40
19.99994845003695
100
AcDbArc
 50
81.97235107421558
 51
106.1602935791036
  0
LINE
  5
16EE1
330
1A
100
AcDbEntity
  8
ZISSEN1
100
AcDbLine
 10
-1055.992650346765
 20
1712.943447086334
 30
0.0
 11
-1056.992653645963
 21
1712.943447086334
 31
0.0
  0
LINE
  5
16EE2
330
1A
100
AcDbEntity
  8
ZISSEN1
100
AcDbLine
 10
-1055.992650346765
 20
1706.793447828653
 30
0.0
 11
-1056.992653645963
 21
1706.793447828653
 31
0.0
  0
LINE
  5
16EE3
330
1A
100
AcDbEntity
  8
ZISSEN1
100
AcDbLine
 10
-1056.992653645963
 20
1703.743411784919
 30
0.0
 11
-1060.19264440821
 21
1703.743411784919
 31
0.0
  0
LINE
  5
16EE4
330
1A
100
AcDbEntity
  8
ZISSEN1
100
AcDbLine
 10
-1049.278605827392
 20
1698.68971321941
 30
0.0
 11
-1049.278618199384
 21
1699.189708683014
 31
0.0
  0
LINE
  5
16EE5
330
1A
100
AcDbEntity
  8
ZISSEN1
100
AcDbLine
 10
-1048.678601373475
 20
1699.789638904984
 30
0.0
 11
-1049.278593455401
 21
1699.189622079076
 31
0.0
  0
LINE
  5
16EE6
330
1A
100
AcDbEntity
  8
ZISSEN1
100
AcDbLine
 10
-1049.278605827392
 20
1698.689663731446
 30
0.0
 11
-1048.878594610121
 21
1698.289664886165
 31
0.0
  0
LINE
  5
16EE7
330
1A
100
AcDbEntity
  8
ZISSEN1
100
AcDbLine
 10
-1048.878606982111
 20
1698.289720560125
 30
0.0
 11
-1048.878594610121
 21
1697.789768398491
 31
0.0
  0
LINE
  5
16EE8
330
1A
100
AcDbEntity
  8
ZISSEN1
100
AcDbLine
 10
-1052.827053719865
 20
1696.039781182881
 30
0.0
 11
-1052.827028975882
 21
1695.39288069658
 31
0.0
  0
ARC
  5
16EE9
330
1A
100
AcDbEntity
  8
ZISSEN1
100
AcDbCircle
 10
-1052.077051245467
 20
1696.039793554873
 30
0.0
 40
0.750000009665618
100
AcDbArc
 50
90.00021362304847
 51
180.001358032221
  0
LINE
  5
16EEA
330
1A
100
AcDbEntity
  8
ZISSEN1
100
AcDbLine
 10
-1048.494394797515
 20
1689.871032172641
 30
0.0
 11
-1049.084415054588
 21
1690.36601079384
 31
0.0
  0
ARC
  5
16EEB
330
1A
100
AcDbEntity
  8
ZISSEN1
100
AcDbCircle
 10
-1048.686890607534
 20
1689.64052341987
 30
0.0
 40
0.2999920055672929
100
AcDbArc
 50
336.1482086181577
 51
50.00288391113153
  0
LINE
  5
16EEC
330
1A
100
AcDbEntity
  8
ZISSEN1
100
AcDbLine
 10
-1050.250871122472
 20
1689.908995627429
 30
0.0
 11
-1049.929372560923
 21
1690.29200154289
 31
0.0
  0
LINE
  5
16EED
330
1A
100
AcDbEntity
  8
ZISSEN1
100
AcDbLine
 10
-1049.084427426579
 20
1690.366047909813
 30
0.0
 11
-1049.929941672515
 21
1690.292032472868
 31
0.0
  0
ARC
  5
16EEE
330
1A
100
AcDbEntity
  8
ZISSEN1
100
AcDbCircle
 10
-1052.077038873475
 20
1695.392899254566
 30
0.0
 40
0.750000009665618
100
AcDbArc
 50
180.0013885498087
 51
280.1029968261662
  0
LINE
  5
16EEF
330
1A
100
AcDbEntity
  8
ZISSEN1
100
AcDbLine
 10
-1056.739374243514
 20
1699.193451210331
 30
0.0
 11
-1055.992650346765
 21
1699.193451210331
 31
0.0
  0
LINE
  5
16EF0
330
1A
100
AcDbEntity
  8
ZISSEN1
100
AcDbLine
 10
-1056.992653645963
 20
1699.341970777872
 30
0.0
 11
-1054.328580423571
 21
1697.779740899679
 31
0.0
  0
ARC
  5
16EF1
330
1A
100
AcDbEntity
  8
ZISSEN1
100
AcDbCircle
 10
-1067.937758296512
 20
1726.309422543603
 30
0.0
 40
35.99989607527449
100
AcDbArc
 50
292.2123565673795
 51
293.0745697021418
  0
LINE
  5
16EF2
330
1A
100
AcDbEntity
  8
ZISSEN1
100
AcDbLine
 10
-1060.19264440821
 20
1693.843412527239
 30
0.0
 11
-1056.992653645963
 21
1693.843412527239
 31
0.0
  0
ARC
  5
16EF3
330
1A
100
AcDbEntity
  8
ZISSEN1
100
AcDbCircle
 10
-1067.39826525122
 20
1726.534283482422
 30
0.0
 40
35.99990535426784
100
AcDbArc
 50
281.5461120605535
 51
291.2876586914006
  0
LINE
  5
16EF4
330
1A
100
AcDbEntity
  8
ZISSEN1
100
AcDbLine
 10
-1053.827094135036
 20
1697.77980894563
 30
0.0
 11
-1053.826982787116
 21
1693.190022931589
 31
0.0
  0
LINE
  5
16EF5
330
1A
100
AcDbEntity
  8
ZISSEN1
100
AcDbLine
 10
-1054.328592795562
 20
1697.779740899679
 30
0.0
 11
-1054.32846907565
 21
1692.990679224478
 31
0.0
  0
LINE
  5
16EF6
330
1A
100
AcDbEntity
  8
ZISSEN1
100
AcDbLine
 10
-1055.992650346765
 20
1698.755563142209
 30
0.0
 11
-1055.992650346765
 21
1706.793447828653
 31
0.0
  0
LINE
  5
16EF7
330
1A
100
AcDbEntity
  8
ZISSEN1
100
AcDbLine
 10
-1056.992653645963
 20
1703.743411784919
 30
0.0
 11
-1056.992653645963
 21
1693.843412527239
 31
0.0
  0
LINE
  5
16EF8
330
1A
100
AcDbEntity
  8
ZISSEN1
100
AcDbLine
 10
-1050.201358413963
 20
1689.345519477329
 30
0.0
 11
-1050.522869347504
 21
1688.962519747863
 31
0.0
  0
LINE
  5
16EF9
330
1A
100
AcDbEntity
  8
ZISSEN1
100
AcDbLine
 10
-1049.092729032629
 20
1683.608985977276
 30
0.0
 11
-1048.385756343387
 21
1684.607000478899
 31
0.0
  0
ARC
  5
16EFA
330
1A
100
AcDbEntity
  8
ZISSEN1
100
AcDbCircle
 10
-1049.742270939037
 20
1684.369504644136
 30
0.0
 40
1.00000001288749
100
AcDbArc
 50
221.904205322262
 51
310.4261779785085
  0
ARC
  5
16EFB
330
1A
100
AcDbEntity
  8
ZISSEN1
100
AcDbCircle
 10
-1065.3539298086
 20
1670.325633769783
 30
0.0
 40
19.99990514806799
100
AcDbArc
 50
41.97335815430173
 51
66.16435241699685
  0
LINE
  5
16EFC
330
1A
100
AcDbEntity
  8
ZISSEN1
100
AcDbLine
 10
-1048.903350964375
 20
1687.603518381995
 30
0.0
 11
-1054.996469992827
 21
1692.715866371464
 31
0.0
  0
LINE
  5
16EFD
330
1A
100
AcDbEntity
  8
ZISSEN1
100
AcDbLine
 10
-1050.250834006499
 20
1689.908488375793
 30
0.0
 11
-1050.201308925999
 21
1689.344993667705
 31
0.0
  0
LINE
  5
16EFE
330
1A
100
AcDbEntity
  8
ZISSEN1
100
AcDbLine
 10
-1054.315033093281
 20
1692.143989639385
 30
0.0
 11
-1057.271951345762
 21
1688.619920755438
 31
0.0
  0
LINE
  5
16EFF
330
1A
100
AcDbEntity
  8
ZISSEN1
100
AcDbLine
 10
-1060.19264440821
 20
1690.043386381097
 30
0.0
 11
-1060.992654470762
 21
1689.243388690536
 31
0.0
  0
ARC
  5
16F00
330
1A
100
AcDbEntity
  8
ZISSEN1
100
AcDbCircle
 10
-1042.924833689776
 20
1687.092666496174
 30
0.0
 40
5.999995051203547
100
AcDbArc
 50
156.1412658691344
 51
204.4813385009731
  0
ARC
  5
16F01
330
1A
100
AcDbEntity
  8
ZISSEN1
100
AcDbCircle
 10
-1046.792182025661
 20
1723.060370650523
 30
0.0
 40
35.99990226127006
100
AcDbArc
 50
247.662719726561
 51
253.0762786865269
  0
LINE
  5
16F02
330
1A
100
AcDbEntity
  8
ZISSEN1
100
AcDbLine
 10
-1012.96542619268
 20
1644.319195855814
 30
0.0
 11
-1019.665428502118
 21
1644.319195855814
 31
0.0
  0
LINE
  5
16F03
330
1A
100
AcDbEntity
  8
ZISSEN1
100
AcDbLine
 10
-1019.665428502118
 20
1643.819218950198
 30
0.0
 11
-1024.86542586276
 21
1643.819218950198
 31
0.0
  0
LINE
  5
16F04
330
1A
100
AcDbEntity
  8
ZISSEN1
100
AcDbLine
 10
-1019.665428502118
 20
1644.319195855814
 30
0.0
 11
-1019.665428502118
 21
1641.119205093567
 31
0.0
  0
LINE
  5
16F05
330
1A
100
AcDbEntity
  8
ZISSEN1
100
AcDbLine
 10
-1012.96542619268
 20
1641.119205093567
 30
0.0
 11
-1012.96542619268
 21
1644.319195855814
 31
0.0
  0
LINE
  5
16F06
330
1A
100
AcDbEntity
  8
ZISSEN1
100
AcDbLine
 10
-1044.328535059603
 20
1695.774377229123
 30
0.0
 11
-1044.328510315621
 21
1694.774380115921
 31
0.0
  0
ARC
  5
16F07
330
1A
100
AcDbEntity
  8
ZISSEN1
100
AcDbCircle
 10
-1047.908630505391
 20
1699.489593376056
 30
0.0
 40
0.2999950019088951
100
AcDbArc
 50
16.14721679687516
 51
90.0013275146464
  0
ARC
  5
16F08
330
1A
100
AcDbEntity
  8
ZISSEN1
100
AcDbCircle
 10
-1047.6015576855
 20
1696.039750252904
 30
0.0
 40
0.7499989947757207
100
AcDbArc
 50
42.16143798827474
 51
90.00021362304847
  0
ARC
  5
16F09
330
1A
100
AcDbEntity
  8
ZISSEN1
100
AcDbCircle
 10
-1041.856673091434
 20
1701.241535366264
 30
0.0
 40
7.000005309646194
100
AcDbArc
 50
222.1592559814377
 51
225.5602569580023
  0
ARC
  5
16F0A
330
1A
100
AcDbEntity
  8
ZISSEN1
100
AcDbCircle
 10
-1047.283040773813
 20
1695.708106658626
 30
0.0
 40
0.7500009762274252
100
AcDbArc
 50
267.4208221435561
 51
45.56167602538912
  0
ARC
  5
16F0B
330
1A
100
AcDbEntity
  8
ZISSEN1
100
AcDbCircle
 10
-1041.856673091434
 20
1701.241535366264
 30
0.0
 40
5.999993891329379
100
AcDbArc
 50
196.1392974853589
 51
245.6722412109419
  0
ARC
  5
16F0C
330
1A
100
AcDbEntity
  8
ZISSEN1
100
AcDbCircle
 10
-1045.328513614818
 20
1694.774305883974
 30
0.0
 40
1.000002042667285
100
AcDbArc
 50
261.9041137695257
 51
359.9996032714776
  0
LINE
  5
16F0D
330
1A
100
AcDbEntity
  8
ZISSEN1
100
AcDbLine
 10
-1019.065448792183
 20
1701.843426548829
 30
0.0
 11
-1018.465456710258
 21
1701.843426548829
 31
0.0
  0
LINE
  5
16F0E
330
1A
100
AcDbEntity
  8
ZISSEN1
100
AcDbLine
 10
-1019.065448792183
 20
1702.89342506419
 30
0.0
 11
-1019.065448792183
 21
1701.34342489923
 31
0.0
  0
LINE
  5
16F0F
330
1A
100
AcDbEntity
  8
ZISSEN1
100
AcDbLine
 10
-1019.6654532461
 20
1701.34342489923
 30
0.0
 11
-1018.665449946903
 21
1701.34342489923
 31
0.0
  0
LINE
  5
16F10
330
1A
100
AcDbEntity
  8
ZISSEN1
100
AcDbLine
 10
-1019.6654532461
 20
1703.74342415691
 30
0.0
 11
-1019.6654532461
 21
1701.34342489923
 31
0.0
  0
LINE
  5
16F11
330
1A
100
AcDbEntity
  8
ZISSEN1
100
AcDbLine
 10
-1019.065448792183
 20
1701.843426548829
 30
0.0
 11
-1018.465456710258
 21
1701.843426548829
 31
0.0
  0
LINE
  5
16F12
330
1A
100
AcDbEntity
  8
ZISSEN1
100
AcDbLine
 10
-1019.065448792183
 20
1702.89342506419
 30
0.0
 11
-1019.065448792183
 21
1701.34342489923
 31
0.0
  0
LINE
  5
16F13
330
1A
100
AcDbEntity
  8
ZISSEN1
100
AcDbLine
 10
-1019.6654532461
 20
1701.34342489923
 30
0.0
 11
-1018.665449946903
 21
1701.34342489923
 31
0.0
  0
LINE
  5
16F14
330
1A
100
AcDbEntity
  8
ZISSEN1
100
AcDbLine
 10
-1019.6654532461
 20
1703.74342415691
 30
0.0
 11
-1019.6654532461
 21
1701.34342489923
 31
0.0
  0
LINE
  5
16F15
330
1A
100
AcDbEntity
  8
ZISSEN1
100
AcDbLine
 10
-1013.96545423586
 20
1702.89342506419
 30
0.0
 11
-1019.065448792183
 21
1702.89342506419
 31
0.0
  0
LINE
  5
16F16
330
1A
100
AcDbEntity
  8
ZISSEN1
100
AcDbLine
 10
-1012.965450936662
 20
1703.74342415691
 30
0.0
 11
-1019.6654532461
 21
1703.74342415691
 31
0.0
  0
LINE
  5
16F17
330
1A
100
AcDbEntity
  8
ZISSEN1
100
AcDbLine
 10
-1013.96545423586
 20
1702.89342506419
 30
0.0
 11
-1019.065448792183
 21
1702.89342506419
 31
0.0
  0
LINE
  5
16F18
330
1A
100
AcDbEntity
  8
ZISSEN1
100
AcDbLine
 10
-1012.965450936662
 20
1703.74342415691
 30
0.0
 11
-1019.6654532461
 21
1703.74342415691
 31
0.0
  0
LINE
  5
16F19
330
1A
100
AcDbEntity
  8
ZISSEN1
100
AcDbLine
 10
-1014.965408047092
 20
1704.243401062527
 30
0.0
 11
-1020.865412665969
 21
1704.243401062527
 31
0.0
  0
LINE
  5
16F1A
330
1A
100
AcDbEntity
  8
ZISSEN1
100
AcDbLine
 10
-1019.065448792183
 20
1695.743422507312
 30
0.0
 11
-1018.465456710258
 21
1695.743422507312
 31
0.0
  0
LINE
  5
16F1B
330
1A
100
AcDbEntity
  8
ZISSEN1
100
AcDbLine
 10
-1019.6654532461
 20
1696.243424156911
 30
0.0
 11
-1018.665449946903
 21
1696.243424156911
 31
0.0
  0
LINE
  5
16F1C
330
1A
100
AcDbEntity
  8
ZISSEN1
100
AcDbLine
 10
-1019.065448792183
 20
1695.743422507312
 30
0.0
 11
-1018.465456710258
 21
1695.743422507312
 31
0.0
  0
LINE
  5
16F1D
330
1A
100
AcDbEntity
  8
ZISSEN1
100
AcDbLine
 10
-1019.6654532461
 20
1696.243424156911
 30
0.0
 11
-1018.665449946903
 21
1696.243424156911
 31
0.0
  0
LINE
  5
16F1E
330
1A
100
AcDbEntity
  8
ZISSEN1
100
AcDbLine
 10
-1019.6654532461
 20
1693.84342489923
 30
0.0
 11
-1012.965450936662
 21
1693.84342489923
 31
0.0
  0
LINE
  5
16F1F
330
1A
100
AcDbEntity
  8
ZISSEN1
100
AcDbLine
 10
-1013.96545423586
 20
1694.69342399195
 30
0.0
 11
-1019.065448792183
 21
1694.69342399195
 31
0.0
  0
LINE
  5
16F20
330
1A
100
AcDbEntity
  8
ZISSEN1
100
AcDbLine
 10
-1019.6654532461
 20
1693.84342489923
 30
0.0
 11
-1012.965450936662
 21
1693.84342489923
 31
0.0
  0
LINE
  5
16F21
330
1A
100
AcDbEntity
  8
ZISSEN1
100
AcDbLine
 10
-1013.96545423586
 20
1694.69342399195
 30
0.0
 11
-1019.065448792183
 21
1694.69342399195
 31
0.0
  0
LINE
  5
16F22
330
1A
100
AcDbEntity
  8
ZISSEN1
100
AcDbLine
 10
-1019.6654532461
 20
1693.84342489923
 30
0.0
 11
-1019.6654532461
 21
1696.243424156911
 31
0.0
  0
LINE
  5
16F23
330
1A
100
AcDbEntity
  8
ZISSEN1
100
AcDbLine
 10
-1019.065448792183
 20
1694.69342399195
 30
0.0
 11
-1019.065448792183
 21
1696.243424156911
 31
0.0
  0
LINE
  5
16F24
330
1A
100
AcDbEntity
  8
ZISSEN1
100
AcDbLine
 10
-1019.6654532461
 20
1693.84342489923
 30
0.0
 11
-1019.6654532461
 21
1696.243424156911
 31
0.0
  0
LINE
  5
16F25
330
1A
100
AcDbEntity
  8
ZISSEN1
100
AcDbLine
 10
-1019.065448792183
 20
1694.69342399195
 30
0.0
 11
-1019.065448792183
 21
1696.243424156911
 31
0.0
  0
LINE
  5
16F26
330
1A
100
AcDbEntity
  8
ZISSEN1
100
AcDbLine
 10
-1023.965412995889
 20
1690.043386381097
 30
0.0
 11
-1024.765410686451
 21
1690.043386381097
 31
0.0
  0
LINE
  5
16F27
330
1A
100
AcDbEntity
  8
ZISSEN1
100
AcDbLine
 10
-1023.965412995889
 20
1690.043417311075
 30
0.0
 11
-1024.765410686451
 21
1690.043417311075
 31
0.0
  0
LINE
  5
16F28
330
1A
100
AcDbEntity
  8
ZISSEN1
100
AcDbLine
 10
-1023.965412995889
 20
1690.043417311075
 30
0.0
 11
-1021.965418769485
 21
1690.043417311075
 31
0.0
  0
LINE
  5
16F29
330
1A
100
AcDbEntity
  8
ZISSEN1
100
AcDbLine
 10
-1018.465456710258
 20
1695.743422507312
 30
0.0
 11
-1018.465456710258
 21
1701.843426548829
 31
0.0
  0
LINE
  5
16F2A
330
1A
100
AcDbEntity
  8
ZISSEN1
100
AcDbLine
 10
-1018.665449946903
 20
1696.243424156911
 30
0.0
 11
-1018.665449946903
 21
1701.34342489923
 31
0.0
  0
LINE
  5
16F2B
330
1A
100
AcDbEntity
  8
ZISSEN1
100
AcDbLine
 10
-1013.96545423586
 20
1694.69342399195
 30
0.0
 11
-1013.96545423586
 21
1702.89342506419
 31
0.0
  0
LINE
  5
16F2C
330
1A
100
AcDbEntity
  8
ZISSEN1
100
AcDbLine
 10
-1012.965450936662
 20
1703.74342415691
 30
0.0
 11
-1012.965450936662
 21
1693.84342489923
 31
0.0
  0
LINE
  5
16F2D
330
1A
100
AcDbEntity
  8
ZISSEN1
100
AcDbLine
 10
-1018.465456710258
 20
1695.743422507312
 30
0.0
 11
-1018.465456710258
 21
1701.843426548829
 31
0.0
  0
LINE
  5
16F2E
330
1A
100
AcDbEntity
  8
ZISSEN1
100
AcDbLine
 10
-1018.665449946903
 20
1696.243424156911
 30
0.0
 11
-1018.665449946903
 21
1701.34342489923
 31
0.0
  0
LINE
  5
16F2F
330
1A
100
AcDbEntity
  8
ZISSEN1
100
AcDbLine
 10
-1013.96545423586
 20
1694.69342399195
 30
0.0
 11
-1013.96545423586
 21
1702.89342506419
 31
0.0
  0
LINE
  5
16F30
330
1A
100
AcDbEntity
  8
ZISSEN1
100
AcDbLine
 10
-1012.965450936662
 20
1703.74342415691
 30
0.0
 11
-1012.965450936662
 21
1693.84342489923
 31
0.0
  0
LINE
  5
16F31
330
1A
100
AcDbEntity
  8
ZISSEN1
100
AcDbLine
 10
-1020.865412665969
 20
1704.243401062527
 30
0.0
 11
-1020.865412665969
 21
1693.343417063635
 31
0.0
  0
LINE
  5
16F32
330
1A
100
AcDbEntity
  8
ZISSEN1
100
AcDbLine
 10
-1012.515395015262
 20
1682.743416733716
 30
0.0
 11
-1012.515395015262
 21
1686.743417558515
 31
0.0
  0
LINE
  5
16F33
330
1A
100
AcDbEntity
  8
ZISSEN1
100
AcDbLine
 10
-1024.765410686451
 20
1683.743416939916
 30
0.0
 11
-1024.765410686451
 21
1689.243413434518
 31
0.0
  0
LINE
  5
16F34
330
1A
100
AcDbEntity
  8
ZISSEN1
100
AcDbLine
 10
-1024.765410686451
 20
1689.243388690536
 30
0.0
 11
-1023.965412995889
 21
1689.243388690536
 31
0.0
  0
LINE
  5
16F35
330
1A
100
AcDbEntity
  8
ZISSEN1
100
AcDbLine
 10
-1024.765410686451
 20
1689.243413434518
 30
0.0
 11
-1023.965412995889
 21
1689.243413434518
 31
0.0
  0
LINE
  5
16F36
330
1A
100
AcDbEntity
  8
ZISSEN1
100
AcDbLine
 10
-1023.765419759244
 20
1682.743416733716
 30
0.0
 11
-1024.765410686451
 21
1683.743416939916
 31
0.0
  0
LINE
  5
16F37
330
1A
100
AcDbEntity
  8
ZISSEN1
100
AcDbLine
 10
-1023.765419759244
 20
1682.743416733716
 30
0.0
 11
-1012.515395015262
 21
1682.743416733716
 31
0.0
  0
LINE
  5
16F38
330
1A
100
AcDbEntity
  8
ZISSEN1
100
AcDbLine
 10
-1023.965412995889
 20
1689.243388690536
 30
0.0
 11
-1023.965412995889
 21
1690.043386381097
 31
0.0
  0
LINE
  5
16F39
330
1A
100
AcDbEntity
  8
ZISSEN1
100
AcDbLine
 10
-1023.965412995889
 20
1689.243413434518
 30
0.0
 11
-1023.965412995889
 21
1690.043417311075
 31
0.0
  0
LINE
  5
16F3A
330
1A
100
AcDbEntity
  8
ZISSEN1
100
AcDbLine
 10
-1021.965418769485
 20
1689.243388690536
 30
0.0
 11
-1021.965418769485
 21
1690.043386381097
 31
0.0
  0
LINE
  5
16F3B
330
1A
100
AcDbEntity
  8
ZISSEN1
100
AcDbLine
 10
-995.8654291619577
 20
1641.119205093567
 30
0.0
 11
-995.8654291619577
 21
1634.016692424649
 31
0.0
  0
LINE
  5
16F3C
330
1A
100
AcDbEntity
  8
ZISSEN1
100
AcDbLine
 10
-999.66541200613
 20
1634.016692424649
 30
0.0
 11
-999.66541200613
 21
1643.562945525894
 31
0.0
  0
LINE
  5
16F3D
330
1A
100
AcDbEntity
  8
ZISSEN1
100
AcDbLine
 10
-1008.364926034318
 20
1641.116705951359
 30
0.0
 11
-1008.364926034318
 21
1634.016692424649
 31
0.0
  0
LINE
  5
16F3E
330
1A
100
AcDbEntity
  8
ZISSEN1
100
AcDbLine
 10
-997.765420584044
 20
1644.319195855814
 30
0.0
 11
-997.765420584044
 21
1634.016692424649
 31
0.0
  0
LINE
  5
16F3F
330
1A
100
AcDbEntity
  8
ZISSEN1
100
AcDbLine
 10
-999.3650942933978
 20
1644.319195855814
 30
0.0
 11
-999.3650942933978
 21
1634.016692424649
 31
0.0
  0
LINE
  5
16F40
330
1A
100
AcDbEntity
  8
ZISSEN1
100
AcDbLine
 10
-1002.265410686451
 20
1647.483951187317
 30
0.0
 11
-1002.265410686451
 21
1635.4818825904
 31
0.0
  0
LINE
  5
16F41
330
1A
100
AcDbEntity
  8
ZISSEN1
100
AcDbLine
 10
-1005.065414975407
 20
1647.483951187317
 30
0.0
 11
-1005.065414975407
 21
1635.4818825904
 31
0.0
  0
LINE
  5
16F42
330
1A
100
AcDbEntity
  8
ZISSEN1
100
AcDbLine
 10
-999.6654367501124
 20
1635.473444892448
 30
0.0
 11
-999.6649418704672
 21
1646.973458089239
 31
0.0
  0
LINE
  5
16F43
330
1A
100
AcDbEntity
  8
ZISSEN1
100
AcDbLine
 10
-1007.664918776083
 20
1635.973446542047
 30
0.0
 11
-1007.664918776083
 21
1646.973433345257
 31
0.0
  0
LINE
  5
16F44
330
1A
100
AcDbEntity
  8
ZISSEN1
100
AcDbLine
 10
-1005.164910528089
 20
1646.973433345257
 30
0.0
 11
-1005.164910528089
 21
1634.803946964344
 31
0.0
  0
LINE
  5
16F45
330
1A
100
AcDbEntity
  8
ZISSEN1
100
AcDbLine
 10
-1002.164925374478
 20
1646.973433345257
 30
0.0
 11
-1002.164925374478
 21
1634.803946964344
 31
0.0
  0
LINE
  5
16F46
330
1A
100
AcDbEntity
  8
ZISSEN1
100
AcDbLine
 10
-989.1654268525194
 20
1565.819209052605
 30
0.0
 11
-989.1654268525194
 21
1568.119211691963
 31
0.0
  0
LINE
  5
16F47
330
1A
100
AcDbEntity
  8
ZISSEN1
100
AcDbLine
 10
-999.3654159651672
 20
1634.016692424649
 30
0.0
 11
-999.3654159651672
 21
1638.318458485142
 31
0.0
  0
LINE
  5
16F48
330
1A
100
AcDbEntity
  8
ZISSEN1
100
AcDbLine
 10
-999.5654215738033
 20
1634.016692424649
 30
0.0
 11
-999.5654215738033
 21
1638.503444496544
 31
0.0
  0
LINE
  5
16F49
330
1A
100
AcDbEntity
  8
ZISSEN1
100
AcDbLine
 10
-999.3654159651672
 20
1634.016692424649
 30
0.0
 11
-999.3654159651672
 21
1638.503444496544
 31
0.0
  0
LINE
  5
16F4A
330
1A
100
AcDbEntity
  8
ZISSEN1
100
AcDbLine
 10
-997.765420584044
 20
1634.26846244418
 30
0.0
 11
-999.3654159651672
 21
1634.26846244418
 31
0.0
  0
LINE
  5
16F4B
330
1A
100
AcDbEntity
  8
ZISSEN1
100
AcDbLine
 10
-997.765420584044
 20
1634.26846244418
 30
0.0
 11
-999.3654159651672
 21
1634.26846244418
 31
0.0
  0
LINE
  5
16F4C
330
1A
100
AcDbEntity
  8
ZISSEN1
100
AcDbLine
 10
-1002.164925374478
 20
1634.803946964344
 30
0.0
 11
-1005.164910528089
 21
1634.803946964344
 31
0.0
  0
LINE
  5
16F4D
330
1A
100
AcDbEntity
  8
ZISSEN1
100
AcDbLine
 10
-1002.265410686451
 20
1635.4818825904
 30
0.0
 11
-1005.065414975407
 21
1635.4818825904
 31
0.0
  0
LINE
  5
16F4E
330
1A
100
AcDbEntity
  8
ZISSEN1
100
AcDbLine
 10
-1006.665410356531
 20
1634.503431299754
 30
0.0
 11
-1007.44942343455
 21
1634.503431299754
 31
0.0
  0
LINE
  5
16F4F
330
1A
100
AcDbEntity
  8
ZISSEN1
100
AcDbLine
 10
-1006.665410356531
 20
1635.973446542047
 30
0.0
 11
-1007.664918776083
 21
1635.973446542047
 31
0.0
  0
LINE
  5
16F50
330
1A
100
AcDbEntity
  8
ZISSEN1
100
AcDbLine
 10
-1007.665463143693
 20
1635.973966165675
 30
0.0
 11
-1007.378061789702
 21
1634.016692424649
 31
0.0
  0
LINE
  5
16F51
330
1A
100
AcDbEntity
  8
ZISSEN1
100
AcDbLine
 10
-1006.665088684762
 20
1634.016692424649
 30
0.0
 11
-1006.664940220868
 21
1635.973446542047
 31
0.0
  0
LINE
  5
16F52
330
1A
100
AcDbEntity
  8
ZISSEN1
100
AcDbLine
 10
-1008.364926034318
 20
1634.016692424649
 30
0.0
 11
-998.8654143155683
 21
1634.016692424649
 31
0.0
  0
LINE
  5
16F53
330
1A
100
AcDbEntity
  8
ZISSEN1
100
AcDbLine
 10
-1008.364926034318
 20
1634.016692424649
 30
0.0
 11
-995.8654291619577
 21
1634.016692424649
 31
0.0
  0
LINE
  5
16F54
330
1A
100
AcDbEntity
  8
ZISSEN1
100
AcDbLine
 10
-999.3654159651672
 20
1638.503444496544
 30
0.0
 11
-999.66541200613
 21
1638.503444496544
 31
0.0
  0
LINE
  5
16F55
330
1A
100
AcDbEntity
  8
ZISSEN1
100
AcDbLine
 10
-948.8653978195802
 20
1568.119211691963
 30
0.0
 11
-959.9653997990987
 21
1568.119211691963
 31
0.0
  0
LINE
  5
16F56
330
1A
100
AcDbEntity
  8
ZISSEN1
100
AcDbLine
 10
-987.3654011187779
 20
1689.243413434518
 30
0.0
 11
-968.9653923759042
 21
1689.243413434518
 31
0.0
  0
LINE
  5
16F57
330
1A
100
AcDbEntity
  8
ZISSEN1
100
AcDbLine
 10
-1007.665413655728
 20
1656.973936472896
 30
0.0
 11
-999.66541200613
 21
1656.973936472896
 31
0.0
  0
LINE
  5
16F58
330
1A
100
AcDbEntity
  8
ZISSEN1
100
AcDbLine
 10
-999.3649210855219
 20
1646.673437304294
 30
0.0
 11
-999.6649171264849
 21
1646.673437304294
 31
0.0
  0
LINE
  5
16F59
330
1A
100
AcDbEntity
  8
ZISSEN1
100
AcDbLine
 10
-1005.064920095762
 20
1646.973433345257
 30
0.0
 11
-1005.434916862549
 21
1646.973433345257
 31
0.0
  0
LINE
  5
16F5A
330
1A
100
AcDbEntity
  8
ZISSEN1
100
AcDbLine
 10
-1002.265410686451
 20
1646.326452441012
 30
0.0
 11
-1002.164925374478
 21
1646.326452441012
 31
0.0
  0
LINE
  5
16F5B
330
1A
100
AcDbEntity
  8
ZISSEN1
100
AcDbLine
 10
-1002.265410686451
 20
1646.426442873339
 30
0.0
 11
-1002.164925374478
 21
1646.426442873339
 31
0.0
  0
LINE
  5
16F5C
330
1A
100
AcDbEntity
  8
ZISSEN1
100
AcDbLine
 10
-1005.164910528089
 20
1646.326452441012
 30
0.0
 11
-1005.065414975407
 21
1646.326452441012
 31
0.0
  0
LINE
  5
16F5D
330
1A
100
AcDbEntity
  8
ZISSEN1
100
AcDbLine
 10
-1005.164910528089
 20
1646.426442873339
 30
0.0
 11
-1005.065414975407
 21
1646.426442873339
 31
0.0
  0
LINE
  5
16F5E
330
1A
100
AcDbEntity
  8
ZISSEN1
100
AcDbLine
 10
-1007.665413655728
 20
1647.483951187317
 30
0.0
 11
-1005.065414975407
 21
1647.483951187317
 31
0.0
  0
LINE
  5
16F5F
330
1A
100
AcDbEntity
  8
ZISSEN1
100
AcDbLine
 10
-1005.164910528089
 20
1646.973433345257
 30
0.0
 11
-1007.664918776083
 21
1646.973433345257
 31
0.0
  0
LINE
  5
16F60
330
1A
100
AcDbEntity
  8
ZISSEN1
100
AcDbLine
 10
-1002.265410686451
 20
1647.483951187317
 30
0.0
 11
-999.66541200613
 21
1647.483951187317
 31
0.0
  0
LINE
  5
16F61
330
1A
100
AcDbEntity
  8
ZISSEN1
100
AcDbLine
 10
-999.6649171264849
 20
1646.973433345257
 30
0.0
 11
-1002.164925374478
 21
1646.973433345257
 31
0.0
  0
LINE
  5
16F62
330
1A
100
AcDbEntity
  8
ZISSEN1
100
AcDbLine
 10
-999.6649171264849
 20
1646.973433345257
 30
0.0
 11
-1002.264915806805
 21
1646.973433345257
 31
0.0
  0
LINE
  5
16F63
330
1A
100
AcDbEntity
  8
ZISSEN1
100
AcDbLine
 10
-999.66541200613
 20
1656.973936472896
 30
0.0
 11
-999.66541200613
 21
1647.483951187317
 31
0.0
  0
LINE
  5
16F64
330
1A
100
AcDbEntity
  8
ZISSEN1
100
AcDbLine
 10
-1007.665413655728
 20
1656.973936472896
 30
0.0
 11
-1007.665413655728
 21
1647.483951187317
 31
0.0
  0
LINE
  5
16F65
330
1A
100
AcDbEntity
  8
ZISSEN1
100
AcDbLine
 10
-997.765420584044
 20
1644.319195855814
 30
0.0
 11
-999.3654159651672
 21
1644.319195855814
 31
0.0
  0
LINE
  5
16F66
330
1A
100
AcDbEntity
  8
ZISSEN1
100
AcDbLine
 10
-1002.265410686451
 20
1645.283938980286
 30
0.0
 11
-1002.164925374478
 21
1645.283938980286
 31
0.0
  0
LINE
  5
16F67
330
1A
100
AcDbEntity
  8
ZISSEN1
100
AcDbLine
 10
-1002.265410686451
 20
1645.205945948192
 30
0.0
 11
-1002.164925374478
 21
1645.205945948192
 31
0.0
  0
LINE
  5
16F68
330
1A
100
AcDbEntity
  8
ZISSEN1
100
AcDbLine
 10
-1005.164910528089
 20
1645.283938980286
 30
0.0
 11
-1005.065414975407
 21
1645.283938980286
 31
0.0
  0
LINE
  5
16F69
330
1A
100
AcDbEntity
  8
ZISSEN1
100
AcDbLine
 10
-1005.164910528089
 20
1645.205945948192
 30
0.0
 11
-1005.065414975407
 21
1645.205945948192
 31
0.0
  0
LINE
  5
16F6A
330
1A
100
AcDbEntity
  8
ZISSEN1
100
AcDbLine
 10
-1002.265410686451
 20
1644.483941289724
 30
0.0
 11
-1002.176431326231
 21
1644.483941289724
 31
0.0
  0
LINE
  5
16F6B
330
1A
100
AcDbEntity
  8
ZISSEN1
100
AcDbLine
 10
-1005.164910528089
 20
1644.483941289724
 30
0.0
 11
-1005.065414975407
 21
1644.483941289724
 31
0.0
  0
LINE
  5
16F6C
330
1A
100
AcDbEntity
  8
ZISSEN1
100
AcDbLine
 10
-999.3654159651672
 20
1640.443446937951
 30
0.0
 11
-999.66541200613
 21
1640.443446937951
 31
0.0
  0
LINE
  5
16F6D
330
1A
100
AcDbEntity
  8
ZISSEN1
100
AcDbLine
 10
-1007.664918776083
 20
1640.968464753618
 30
0.0
 11
-1007.864924384719
 21
1640.968464753618
 31
0.0
  0
LINE
  5
16F6E
330
1A
100
AcDbEntity
  8
ZISSEN1
100
AcDbLine
 10
-1007.864924384719
 20
1640.968464753618
 30
0.0
 11
-1007.864924384719
 21
1643.563440405539
 31
0.0
  0
LINE
  5
16F6F
330
1A
100
AcDbEntity
  8
ZISSEN1
100
AcDbLine
 10
-1007.664918776083
 20
1643.563440405539
 30
0.0
 11
-1007.864924384719
 21
1643.563440405539
 31
0.0
  0
LINE
  5
16F70
330
1A
100
AcDbEntity
  8
ZISSEN1
100
AcDbLine
 10
-1011.365406067574
 20
1644.319195855814
 30
0.0
 11
-1011.365406067574
 21
1641.119205093567
 31
0.0
  0
LINE
  5
16F71
330
1A
100
AcDbEntity
  8
ZISSEN1
100
AcDbLine
 10
-999.5654215738033
 20
1640.443446937951
 30
0.0
 11
-999.564926694158
 21
1646.673437304294
 31
0.0
  0
LINE
  5
16F72
330
1A
100
AcDbEntity
  8
ZISSEN1
100
AcDbLine
 10
-999.3654159651672
 20
1640.443446937951
 30
0.0
 11
-999.3649210855219
 21
1646.673437304294
 31
0.0
  0
LINE
  5
16F73
330
1A
100
AcDbEntity
  8
ZISSEN1
100
AcDbLine
 10
-989.1654268525194
 20
1646.519208062845
 30
0.0
 11
-990.7654222336427
 21
1646.519208062845
 31
0.0
  0
LINE
  5
16F74
330
1A
100
AcDbEntity
  8
ZISSEN1
100
AcDbLine
 10
-987.3654258627601
 20
1645.319199155012
 30
0.0
 11
-979.4654146454881
 21
1645.319199155012
 31
0.0
  0
LINE
  5
16F75
330
1A
100
AcDbEntity
  8
ZISSEN1
100
AcDbLine
 10
-979.1654186045253
 20
1642.819215651
 30
0.0
 11
-977.5654232234021
 21
1642.819215651
 31
0.0
  0
LINE
  5
16F76
330
1A
100
AcDbEntity
  8
ZISSEN1
100
AcDbLine
 10
-977.5654232234021
 20
1642.819215651
 30
0.0
 11
-977.5654232234021
 21
1641.119205093567
 31
0.0
  0
LINE
  5
16F77
330
1A
100
AcDbEntity
  8
ZISSEN1
100
AcDbLine
 10
-979.4654146454881
 20
1643.319217300599
 30
0.0
 11
-979.1654186045253
 21
1643.319217300599
 31
0.0
  0
LINE
  5
16F78
330
1A
100
AcDbEntity
  8
ZISSEN1
100
AcDbLine
 10
-979.1654186045253
 20
1642.819215651
 30
0.0
 11
-979.1654186045253
 21
1641.119205093567
 31
0.0
  0
LINE
  5
16F79
330
1A
100
AcDbEntity
  8
ZISSEN1
100
AcDbLine
 10
-979.1654186045253
 20
1643.319217300599
 30
0.0
 11
-979.1654186045253
 21
1641.119205093567
 31
0.0
  0
LINE
  5
16F7A
330
1A
100
AcDbEntity
  8
ZISSEN1
100
AcDbLine
 10
-987.3654258627601
 20
1642.319214001401
 30
0.0
 11
-987.865427512359
 21
1642.319214001401
 31
0.0
  0
LINE
  5
16F7B
330
1A
100
AcDbEntity
  8
ZISSEN1
100
AcDbLine
 10
-987.865427512359
 20
1642.319214001401
 30
0.0
 11
-987.865427512359
 21
1642.819215651
 31
0.0
  0
LINE
  5
16F7C
330
1A
100
AcDbEntity
  8
ZISSEN1
100
AcDbLine
 10
-979.4654146454881
 20
1645.319199155012
 30
0.0
 11
-979.4654146454881
 21
1643.319217300599
 31
0.0
  0
LINE
  5
16F7D
330
1A
100
AcDbEntity
  8
ZISSEN1
100
AcDbLine
 10
-987.865427512359
 20
1642.819215651
 30
0.0
 11
-987.3654258627601
 21
1644.819197505413
 31
0.0
  0
LINE
  5
16F7E
330
1A
100
AcDbEntity
  8
ZISSEN1
100
AcDbLine
 10
-987.3654258627601
 20
1645.319199155012
 30
0.0
 11
-987.3654258627601
 21
1641.119205093567
 31
0.0
  0
LINE
  5
16F7F
330
1A
100
AcDbEntity
  8
ZISSEN1
100
AcDbLine
 10
-990.7654222336427
 20
1646.519208062845
 30
0.0
 11
-990.7654222336427
 21
1641.119205093567
 31
0.0
  0
LINE
  5
16F80
330
1A
100
AcDbEntity
  8
ZISSEN1
100
AcDbLine
 10
-989.1654268525194
 20
1641.119205093567
 30
0.0
 11
-989.1654268525194
 21
1646.519208062845
 31
0.0
  0
LINE
  5
16F81
330
1A
100
AcDbEntity
  8
CL1
100
AcDbLine
 10
-998.3782968017457
 20
1686.743417558515
 30
0.0
 11
-991.0688375775187
 21
1686.743417558515
 31
0.0
  0
LINE
  5
16F82
330
1A
100
AcDbEntity
  8
ZISSEN1
100
AcDbLine
 10
-988.3653920459844
 20
1682.743416733716
 30
0.0
 11
-1009.015395840061
 21
1682.743416733716
 31
0.0
  0
CIRCLE
  5
16F83
330
1A
100
AcDbEntity
  8
ZISSEN1
100
AcDbCircle
 10
-994.7653983144599
 20
1686.743417558515
 30
0.0
 40
1.749999974225018
  0
LINE
  5
16F84
330
1A
100
AcDbEntity
  8
CL1
100
AcDbLine
 10
-994.7653983144599
 20
1689.243388690536
 30
0.0
 11
-994.7653983144599
 21
1683.716015205067
 31
0.0
  0
LINE
  5
16F85
330
1A
100
AcDbEntity
  8
CL1
100
AcDbLine
 10
-1010.765401613657
 20
1689.243388690536
 30
0.0
 11
-1010.765401613657
 21
1683.716015205067
 31
0.0
  0
LINE
  5
16F86
330
1A
100
AcDbEntity
  8
ZISSEN1
100
AcDbLine
 10
-999.3654159651672
 20
1700.178379238335
 30
0.0
 11
-1000.665415305327
 21
1700.178379238335
 31
0.0
  0
LINE
  5
16F87
330
1A
100
AcDbEntity
  8
ZISSEN1
100
AcDbLine
 10
-999.3654159651672
 20
1690.743406011324
 30
0.0
 11
-997.7654082120528
 21
1690.743406011324
 31
0.0
  0
LINE
  5
16F88
330
1A
100
AcDbEntity
  8
ZISSEN1
100
AcDbLine
 10
-1001.295397093756
 20
1693.680355870118
 30
0.0
 11
-1001.895389175682
 21
1693.680355870118
 31
0.0
  0
LINE
  5
16F89
330
1A
100
AcDbEntity
  8
ZISSEN1
100
AcDbLine
 10
-1001.295397093756
 20
1691.100381257443
 30
0.0
 11
-1001.895389175682
 21
1691.100381257443
 31
0.0
  0
LINE
  5
16F8A
330
1A
100
AcDbEntity
  8
ZISSEN1
100
AcDbLine
 10
-1001.295397093756
 20
1691.100381257443
 30
0.0
 11
-1001.295397093756
 21
1693.680355870118
 31
0.0
  0
LINE
  5
16F8B
330
1A
100
AcDbEntity
  8
ZISSEN1
100
AcDbLine
 10
-1001.895389175682
 20
1694.88035240596
 30
0.0
 11
-1001.675402801368
 21
1694.88035240596
 31
0.0
  0
LINE
  5
16F8C
330
1A
100
AcDbEntity
  8
ZISSEN1
100
AcDbLine
 10
-1001.675402801368
 20
1694.88035240596
 30
0.0
 11
-1001.675402801368
 21
1695.150346368428
 31
0.0
  0
LINE
  5
16F8D
330
1A
100
AcDbEntity
  8
ZISSEN1
100
AcDbLine
 10
-1001.895389175682
 20
1690.545478897198
 30
0.0
 11
-1001.895389175682
 21
1695.150346368428
 31
0.0
  0
LINE
  5
16F8E
330
1A
100
AcDbEntity
  8
ZISSEN1
100
AcDbLine
 10
-1001.620384556805
 20
1699.750351647145
 30
0.0
 11
-1001.620384556805
 21
1695.150383484402
 31
0.0
  0
LINE
  5
16F8F
330
1A
100
AcDbEntity
  8
ZISSEN1
100
AcDbLine
 10
-999.3654159651672
 20
1695.129326355496
 30
0.0
 11
-999.3654159651672
 21
1699.169325827624
 31
0.0
  0
LINE
  5
16F90
330
1A
100
AcDbEntity
  8
ZISSEN1
100
AcDbLine
 10
-1006.420370700175
 20
1698.175273456161
 30
0.0
 11
-1007.865406892373
 21
1698.175273456161
 31
0.0
  0
LINE
  5
16F91
330
1A
100
AcDbEntity
  8
ZISSEN1
100
AcDbLine
 10
-1005.545386371364
 20
1699.750326903163
 30
0.0
 11
-1005.545386371364
 21
1700.530343828046
 31
0.0
  0
LINE
  5
16F92
330
1A
100
AcDbEntity
  8
ZISSEN1
100
AcDbLine
 10
-1005.520382577287
 20
1699.750351647145
 30
0.0
 11
-1005.520382577287
 21
1700.150356678421
 31
0.0
  0
LINE
  5
16F93
330
1A
100
AcDbEntity
  8
ZISSEN1
100
AcDbLine
 10
-1006.14537845329
 20
1693.680355870118
 30
0.0
 11
-1006.745382907207
 21
1693.680355870118
 31
0.0
  0
LINE
  5
16F94
330
1A
100
AcDbEntity
  8
ZISSEN1
100
AcDbLine
 10
-1006.14537845329
 20
1691.100381257443
 30
0.0
 11
-1006.745382907207
 21
1691.100381257443
 31
0.0
  0
LINE
  5
16F95
330
1A
100
AcDbEntity
  8
ZISSEN1
100
AcDbLine
 10
-1006.745382907207
 20
1691.100381257443
 30
0.0
 11
-1006.745382907207
 21
1693.680355870118
 31
0.0
  0
LINE
  5
16F96
330
1A
100
AcDbEntity
  8
ZISSEN1
100
AcDbLine
 10
-1006.365377199595
 20
1694.88035240596
 30
0.0
 11
-1006.14537845329
 21
1694.88035240596
 31
0.0
  0
LINE
  5
16F97
330
1A
100
AcDbEntity
  8
ZISSEN1
100
AcDbLine
 10
-1006.365377199595
 20
1694.88035240596
 30
0.0
 11
-1006.365377199595
 21
1695.150346368428
 31
0.0
  0
LINE
  5
16F98
330
1A
100
AcDbEntity
  8
ZISSEN1
100
AcDbLine
 10
-1006.14537845329
 20
1690.545478897198
 30
0.0
 11
-1006.14537845329
 21
1695.150346368428
 31
0.0
  0
LINE
  5
16F99
330
1A
100
AcDbEntity
  8
ZISSEN1
100
AcDbLine
 10
-1006.420370700175
 20
1695.150383484402
 30
0.0
 11
-1006.420370700175
 21
1699.750351647145
 31
0.0
  0
LINE
  5
16F9A
330
1A
100
AcDbEntity
  8
ZISSEN1
100
AcDbLine
 10
-1001.620384556805
 20
1699.750351647145
 30
0.0
 11
-1006.420370700175
 21
1699.750351647145
 31
0.0
  0
LINE
  5
16F9B
330
1A
100
AcDbEntity
  8
ZISSEN1
100
AcDbLine
 10
-1002.495393629599
 20
1700.530343828046
 30
0.0
 11
-1005.545386371364
 21
1700.530343828046
 31
0.0
  0
LINE
  5
16F9C
330
1A
100
AcDbEntity
  8
ZISSEN1
100
AcDbLine
 10
-1001.620384556805
 20
1695.150383484402
 30
0.0
 11
-1006.420370700175
 21
1695.150383484402
 31
0.0
  0
LINE
  5
16F9D
330
1A
100
AcDbEntity
  8
ZISSEN1
100
AcDbLine
 10
-1002.520385051685
 20
1700.150356678421
 30
0.0
 11
-1005.520382577287
 21
1700.150356678421
 31
0.0
  0
LINE
  5
16F9E
330
1A
100
AcDbEntity
  8
ZISSEN1
100
AcDbLine
 10
-1001.620384556805
 20
1699.28078509573
 30
0.0
 11
-1006.420370700175
 21
1699.28078509573
 31
0.0
  0
LINE
  5
16F9F
330
1A
100
AcDbEntity
  8
ZISSEN1
100
AcDbLine
 10
-1001.620384556805
 20
1698.654700484508
 30
0.0
 11
-1006.420370700175
 21
1698.654700484508
 31
0.0
  0
LINE
  5
16FA0
330
1A
100
AcDbEntity
  8
ZISSEN1
100
AcDbLine
 10
-1001.620384556805
 20
1698.028634431272
 30
0.0
 11
-1006.420370700175
 21
1698.028634431272
 31
0.0
  0
LINE
  5
16FA1
330
1A
100
AcDbEntity
  8
ZISSEN1
100
AcDbLine
 10
-1001.620384556805
 20
1697.402549820049
 30
0.0
 11
-1006.420370700175
 21
1697.402549820049
 31
0.0
  0
LINE
  5
16FA2
330
1A
100
AcDbEntity
  8
ZISSEN1
100
AcDbLine
 10
-1001.620384556805
 20
1696.776465208827
 30
0.0
 11
-1006.420370700175
 21
1696.776465208827
 31
0.0
  0
LINE
  5
16FA3
330
1A
100
AcDbEntity
  8
ZISSEN1
100
AcDbLine
 10
-1001.620384556805
 20
1696.150380597604
 30
0.0
 11
-1006.420370700175
 21
1696.150380597604
 31
0.0
  0
LINE
  5
16FA4
330
1A
100
AcDbEntity
  8
ZISSEN1
100
AcDbLine
 10
-1007.865406892373
 20
1690.545478897198
 30
0.0
 11
-999.3654159651672
 21
1690.545478897198
 31
0.0
  0
LINE
  5
16FA5
330
1A
100
AcDbEntity
  8
ZISSEN1
100
AcDbLine
 10
-995.8654167899666
 20
1690.043386381097
 30
0.0
 11
-1008.365408541972
 21
1690.043386381097
 31
0.0
  0
LINE
  5
16FA6
330
1A
100
AcDbEntity
  8
ZISSEN1
100
AcDbLine
 10
-1009.015395840061
 20
1682.743416733716
 30
0.0
 11
-1009.015395840061
 21
1686.743417558515
 31
0.0
  0
LINE
  5
16FA7
330
1A
100
AcDbEntity
  8
ZISSEN1
100
AcDbLine
 10
-1002.495393629599
 20
1699.750326903163
 30
0.0
 11
-1002.495393629599
 21
1700.530343828046
 31
0.0
  0
LINE
  5
16FA8
330
1A
100
AcDbEntity
  8
ZISSEN1
100
AcDbLine
 10
-1002.520385051685
 20
1700.150356678421
 30
0.0
 11
-1002.520385051685
 21
1699.750351647145
 31
0.0
  0
LINE
  5
16FA9
330
1A
100
AcDbEntity
  8
ZISSEN1
100
AcDbLine
 10
-1001.620384556805
 20
1698.175273456161
 30
0.0
 11
-1000.665415305327
 21
1698.175273456161
 31
0.0
  0
LINE
  5
16FAA
330
1A
100
AcDbEntity
  8
ZISSEN1
100
AcDbLine
 10
-987.3654011187779
 20
1683.743416939916
 30
0.0
 11
-987.3654011187779
 21
1689.243413434518
 31
0.0
  0
LINE
  5
16FAB
330
1A
100
AcDbEntity
  8
ZISSEN1
100
AcDbLine
 10
-988.3653920459844
 20
1682.743416733716
 30
0.0
 11
-987.3654011187779
 21
1683.743416939916
 31
0.0
  0
LINE
  5
16FAC
330
1A
100
AcDbEntity
  8
ZISSEN1
100
AcDbLine
 10
-979.4654146454881
 20
1712.943416156356
 30
0.0
 11
-979.1654186045255
 21
1712.943416156356
 31
0.0
  0
LINE
  5
16FAD
330
1A
100
AcDbEntity
  8
ZISSEN1
100
AcDbLine
 10
-987.365413490769
 20
1712.943416156356
 30
0.0
 11
-979.4654146454881
 21
1712.943416156356
 31
0.0
  0
LINE
  5
16FAE
330
1A
100
AcDbEntity
  8
ZISSEN1
100
AcDbLine
 10
-979.4654146454881
 20
1706.793416898675
 30
0.0
 11
-979.1654186045255
 21
1706.793416898675
 31
0.0
  0
LINE
  5
16FAF
330
1A
100
AcDbEntity
  8
ZISSEN1
100
AcDbLine
 10
-979.4654146454881
 20
1697.693415331557
 30
0.0
 11
-979.1654186045255
 21
1697.693415331557
 31
0.0
  0
LINE
  5
16FB0
330
1A
100
AcDbEntity
  8
ZISSEN1
100
AcDbLine
 10
-979.1654186045255
 20
1696.243417970915
 30
0.0
 11
-979.1654186045255
 21
1696.893417640995
 31
0.0
  0
LINE
  5
16FB1
330
1A
100
AcDbEntity
  8
ZISSEN1
100
AcDbLine
 10
-977.565410851411
 20
1696.743413434518
 30
0.0
 11
-979.1654186045255
 21
1696.743413434518
 31
0.0
  0
LINE
  5
16FB2
330
1A
100
AcDbEntity
  8
ZISSEN1
100
AcDbLine
 10
-979.4654146454881
 20
1697.693415331557
 30
0.0
 11
-979.4654146454881
 21
1706.793416898675
 31
0.0
  0
LINE
  5
16FB3
330
1A
100
AcDbEntity
  8
ZISSEN1
100
AcDbLine
 10
-986.7654090368523
 20
1706.093415826436
 30
0.0
 11
-980.2654123360499
 21
1706.093415826436
 31
0.0
  0
LINE
  5
16FB4
330
1A
100
AcDbEntity
  8
ZISSEN1
100
AcDbLine
 10
-986.7654090368523
 20
1698.393416403796
 30
0.0
 11
-980.2654123360499
 21
1698.393416403796
 31
0.0
  0
LINE
  5
16FB5
330
1A
100
AcDbEntity
  8
ZISSEN1
100
AcDbLine
 10
-990.7654098616516
 20
1696.743413434518
 30
0.0
 11
-989.1654144805285
 21
1696.743413434518
 31
0.0
  0
LINE
  5
16FB6
330
1A
100
AcDbEntity
  8
ZISSEN1
100
AcDbLine
 10
-987.365413490769
 20
1697.693415331557
 30
0.0
 11
-987.365413490769
 21
1706.793416898675
 31
0.0
  0
LINE
  5
16FB7
330
1A
100
AcDbEntity
  8
ZISSEN1
100
AcDbLine
 10
-986.7654090368523
 20
1698.393416403796
 30
0.0
 11
-986.7654090368523
 21
1706.093415826436
 31
0.0
  0
LINE
  5
16FB8
330
1A
100
AcDbEntity
  8
ZISSEN1
100
AcDbLine
 10
-980.2654123360499
 20
1698.393416403796
 30
0.0
 11
-980.2654123360499
 21
1706.093415826436
 31
0.0
  0
LINE
  5
16FB9
330
1A
100
AcDbEntity
  8
ZISSEN1
100
AcDbLine
 10
-991.5654199242045
 20
1696.243417970915
 30
0.0
 11
-977.0654092018121
 21
1696.243417970915
 31
0.0
  0
LINE
  5
16FBA
330
1A
100
AcDbEntity
  8
ZISSEN1
100
AcDbLine
 10
-987.365413490769
 20
1697.693415331557
 30
0.0
 11
-979.4654146454881
 21
1697.693415331557
 31
0.0
  0
LINE
  5
16FBB
330
1A
100
AcDbEntity
  8
ZISSEN1
100
AcDbLine
 10
-987.365413490769
 20
1706.793416898675
 30
0.0
 11
-979.4654146454881
 21
1706.793416898675
 31
0.0
  0
LINE
  5
16FBC
330
1A
100
AcDbEntity
  8
ZISSEN1
100
AcDbLine
 10
-969.5654215738032
 20
1646.519208062845
 30
0.0
 11
-971.1654169549264
 21
1646.519208062845
 31
0.0
  0
LINE
  5
16FBD
330
1A
100
AcDbEntity
  8
ZISSEN1
100
AcDbLine
 10
-959.5654133258092
 20
1642.819215651
 30
0.0
 11
-957.9654179446858
 21
1642.819215651
 31
0.0
  0
LINE
  5
16FBE
330
1A
100
AcDbEntity
  8
ZISSEN1
100
AcDbLine
 10
-959.8654093667718
 20
1643.319217300599
 30
0.0
 11
-959.5654133258092
 21
1643.319217300599
 31
0.0
  0
LINE
  5
16FBF
330
1A
100
AcDbEntity
  8
ZISSEN1
100
AcDbLine
 10
-959.5654133258092
 20
1642.819215651
 30
0.0
 11
-959.5654133258092
 21
1641.119205093567
 31
0.0
  0
LINE
  5
16FC0
330
1A
100
AcDbEntity
  8
ZISSEN1
100
AcDbLine
 10
-959.5654133258092
 20
1643.319217300599
 30
0.0
 11
-959.5654133258092
 21
1641.119205093567
 31
0.0
  0
LINE
  5
16FC1
330
1A
100
AcDbEntity
  8
ZISSEN1
100
AcDbLine
 10
-959.8654093667718
 20
1645.319199155012
 30
0.0
 11
-959.8654093667718
 21
1643.319217300599
 31
0.0
  0
LINE
  5
16FC2
330
1A
100
AcDbEntity
  8
ZISSEN1
100
AcDbLine
 10
-967.765420584044
 20
1642.319214001401
 30
0.0
 11
-968.2654222336427
 21
1642.319214001401
 31
0.0
  0
LINE
  5
16FC3
330
1A
100
AcDbEntity
  8
ZISSEN1
100
AcDbLine
 10
-968.2654222336427
 20
1642.319214001401
 30
0.0
 11
-968.2654222336427
 21
1642.819215651
 31
0.0
  0
LINE
  5
16FC4
330
1A
100
AcDbEntity
  8
ZISSEN1
100
AcDbLine
 10
-968.2654222336427
 20
1642.819215651
 30
0.0
 11
-967.765420584044
 21
1644.819197505413
 31
0.0
  0
LINE
  5
16FC5
330
1A
100
AcDbEntity
  8
ZISSEN1
100
AcDbLine
 10
-967.765420584044
 20
1645.319199155012
 30
0.0
 11
-967.765420584044
 21
1641.119205093567
 31
0.0
  0
LINE
  5
16FC6
330
1A
100
AcDbEntity
  8
ZISSEN1
100
AcDbLine
 10
-967.765420584044
 20
1645.319199155012
 30
0.0
 11
-959.8654093667718
 21
1645.319199155012
 31
0.0
  0
LINE
  5
16FC7
330
1A
100
AcDbEntity
  8
ZISSEN1
100
AcDbLine
 10
-957.9654179446858
 20
1642.819215651
 30
0.0
 11
-957.9654179446858
 21
1641.119205093567
 31
0.0
  0
LINE
  5
16FC8
330
1A
100
AcDbEntity
  8
ZISSEN1
100
AcDbLine
 10
-971.1654169549264
 20
1646.519208062845
 30
0.0
 11
-971.1654169549264
 21
1641.119205093567
 31
0.0
  0
LINE
  5
16FC9
330
1A
100
AcDbEntity
  8
ZISSEN1
100
AcDbLine
 10
-969.5654215738032
 20
1641.119205093567
 30
0.0
 11
-969.5654215738032
 21
1646.519208062845
 31
0.0
  0
LINE
  5
16FCA
330
1A
100
AcDbEntity
  8
ZISSEN1
100
AcDbLine
 10
-949.965416295087
 20
1646.519208062845
 30
0.0
 11
-951.5654116762103
 21
1646.519208062845
 31
0.0
  0
LINE
  5
16FCB
330
1A
100
AcDbEntity
  8
ZISSEN1
100
AcDbLine
 10
-938.3654126659696
 20
1642.819215651
 30
0.0
 11
-938.3654126659696
 21
1641.119205093567
 31
0.0
  0
LINE
  5
16FCC
330
1A
100
AcDbEntity
  8
ZISSEN1
100
AcDbLine
 10
-948.1654153053277
 20
1645.319199155012
 30
0.0
 11
-940.265428832038
 21
1645.319199155012
 31
0.0
  0
LINE
  5
16FCD
330
1A
100
AcDbEntity
  8
ZISSEN1
100
AcDbLine
 10
-948.6654169549264
 20
1642.319214001401
 30
0.0
 11
-948.6654169549264
 21
1642.819215651
 31
0.0
  0
LINE
  5
16FCE
330
1A
100
AcDbEntity
  8
ZISSEN1
100
AcDbLine
 10
-948.1654153053277
 20
1642.319214001401
 30
0.0
 11
-948.6654169549264
 21
1642.319214001401
 31
0.0
  0
LINE
  5
16FCF
330
1A
100
AcDbEntity
  8
ZISSEN1
100
AcDbLine
 10
-948.6654169549264
 20
1642.819215651
 30
0.0
 11
-948.1654153053277
 21
1644.819197505413
 31
0.0
  0
LINE
  5
16FD0
330
1A
100
AcDbEntity
  8
ZISSEN1
100
AcDbLine
 10
-948.1654153053277
 20
1645.319199155012
 30
0.0
 11
-948.1654153053277
 21
1641.119205093567
 31
0.0
  0
LINE
  5
16FD1
330
1A
100
AcDbEntity
  8
ZISSEN1
100
AcDbLine
 10
-940.265428832038
 20
1643.319217300599
 30
0.0
 11
-939.9654080470929
 21
1643.319217300599
 31
0.0
  0
LINE
  5
16FD2
330
1A
100
AcDbEntity
  8
ZISSEN1
100
AcDbLine
 10
-939.9654080470929
 20
1642.819215651
 30
0.0
 11
-939.9654080470929
 21
1641.119205093567
 31
0.0
  0
LINE
  5
16FD3
330
1A
100
AcDbEntity
  8
ZISSEN1
100
AcDbLine
 10
-939.9654080470929
 20
1643.319217300599
 30
0.0
 11
-939.9654080470929
 21
1641.119205093567
 31
0.0
  0
LINE
  5
16FD4
330
1A
100
AcDbEntity
  8
ZISSEN1
100
AcDbLine
 10
-940.265428832038
 20
1645.319199155012
 30
0.0
 11
-940.265428832038
 21
1643.319217300599
 31
0.0
  0
LINE
  5
16FD5
330
1A
100
AcDbEntity
  8
ZISSEN1
100
AcDbLine
 10
-939.9654080470929
 20
1642.819215651
 30
0.0
 11
-938.3654126659696
 21
1642.819215651
 31
0.0
  0
LINE
  5
16FD6
330
1A
100
AcDbEntity
  8
ZISSEN1
100
AcDbLine
 10
-951.5654116762103
 20
1646.519208062845
 30
0.0
 11
-951.5654116762103
 21
1641.119205093567
 31
0.0
  0
LINE
  5
16FD7
330
1A
100
AcDbEntity
  8
ZISSEN1
100
AcDbLine
 10
-949.965416295087
 20
1641.119205093567
 30
0.0
 11
-949.965416295087
 21
1646.519208062845
 31
0.0
  0
LINE
  5
16FD8
330
1A
100
AcDbEntity
  8
CL1
100
AcDbLine
 10
-959.055385515697
 20
1686.743417558515
 30
0.0
 11
-952.4951518260946
 21
1686.743417558515
 31
0.0
  0
ARC
  5
16FD9
330
1A
100
AcDbEntity
  8
ZISSEN1
100
AcDbCircle
 10
-955.7654057376547
 20
1686.743417558515
 30
0.0
 40
1.749999974225018
100
AcDbArc
 50
0.0
 51
180.0
  0
LINE
  5
16FDA
330
1A
100
AcDbEntity
  8
ZISSEN1
100
AcDbLine
 10
-968.9653923759042
 20
1683.743416939916
 30
0.0
 11
-968.9653923759042
 21
1689.243413434518
 31
0.0
  0
LINE
  5
16FDB
330
1A
100
AcDbEntity
  8
ZISSEN1
100
AcDbLine
 10
-967.9654014486976
 20
1682.743416733716
 30
0.0
 11
-968.9653923759042
 21
1683.743416939916
 31
0.0
  0
LINE
  5
16FDC
330
1A
100
AcDbEntity
  8
ZISSEN1
100
AcDbLine
 10
-967.9654014486976
 20
1682.743416733716
 30
0.0
 11
-957.5153991392594
 21
1682.743416733716
 31
0.0
  0
LINE
  5
16FDD
330
1A
100
AcDbEntity
  8
ZISSEN1
100
AcDbLine
 10
-971.9654146454882
 20
1696.243417970915
 30
0.0
 11
-957.4654162950871
 21
1696.243417970915
 31
0.0
  0
LINE
  5
16FDE
330
1A
100
AcDbEntity
  8
ZISSEN1
100
AcDbLine
 10
-967.7654082120529
 20
1712.943416156356
 30
0.0
 11
-959.865409366772
 21
1712.943416156356
 31
0.0
  0
LINE
  5
16FDF
330
1A
100
AcDbEntity
  8
ZISSEN1
100
AcDbLine
 10
-967.7654082120529
 20
1697.693415331557
 30
0.0
 11
-959.865409366772
 21
1697.693415331557
 31
0.0
  0
LINE
  5
16FE0
330
1A
100
AcDbEntity
  8
ZISSEN1
100
AcDbLine
 10
-967.1654161301271
 20
1698.393416403796
 30
0.0
 11
-960.6654070573338
 21
1698.393416403796
 31
0.0
  0
LINE
  5
16FE1
330
1A
100
AcDbEntity
  8
ZISSEN1
100
AcDbLine
 10
-967.7654082120529
 20
1706.793416898675
 30
0.0
 11
-959.865409366772
 21
1706.793416898675
 31
0.0
  0
LINE
  5
16FE2
330
1A
100
AcDbEntity
  8
ZISSEN1
100
AcDbLine
 10
-967.1654161301271
 20
1706.093415826436
 30
0.0
 11
-960.6654070573338
 21
1706.093415826436
 31
0.0
  0
LINE
  5
16FE3
330
1A
100
AcDbEntity
  8
ZISSEN1
100
AcDbLine
 10
-971.1654169549266
 20
1696.743413434518
 30
0.0
 11
-969.5654092018122
 21
1696.743413434518
 31
0.0
  0
LINE
  5
16FE4
330
1A
100
AcDbEntity
  8
ZISSEN1
100
AcDbLine
 10
-967.7654082120529
 20
1697.693415331557
 30
0.0
 11
-967.7654082120529
 21
1706.793416898675
 31
0.0
  0
LINE
  5
16FE5
330
1A
100
AcDbEntity
  8
ZISSEN1
100
AcDbLine
 10
-967.1654161301271
 20
1698.393416403796
 30
0.0
 11
-967.1654161301271
 21
1706.093415826436
 31
0.0
  0
LINE
  5
16FE6
330
1A
100
AcDbEntity
  8
ZISSEN1
100
AcDbLine
 10
-959.865409366772
 20
1712.943416156356
 30
0.0
 11
-959.5654133258092
 21
1712.943416156356
 31
0.0
  0
LINE
  5
16FE7
330
1A
100
AcDbEntity
  8
ZISSEN1
100
AcDbLine
 10
-959.865409366772
 20
1706.793416898675
 30
0.0
 11
-959.5654133258092
 21
1706.793416898675
 31
0.0
  0
LINE
  5
16FE8
330
1A
100
AcDbEntity
  8
ZISSEN1
100
AcDbLine
 10
-959.865409366772
 20
1697.693415331557
 30
0.0
 11
-959.5654133258092
 21
1697.693415331557
 31
0.0
  0
LINE
  5
16FE9
330
1A
100
AcDbEntity
  8
ZISSEN1
100
AcDbLine
 10
-959.5654133258092
 20
1696.243417970915
 30
0.0
 11
-959.5654133258092
 21
1696.893417640995
 31
0.0
  0
LINE
  5
16FEA
330
1A
100
AcDbEntity
  8
ZISSEN1
100
AcDbLine
 10
-957.9654179446858
 20
1696.743413434518
 30
0.0
 11
-959.5654133258092
 21
1696.743413434518
 31
0.0
  0
LINE
  5
16FEB
330
1A
100
AcDbEntity
  8
ZISSEN1
100
AcDbLine
 10
-959.865409366772
 20
1697.693415331557
 30
0.0
 11
-959.865409366772
 21
1706.793416898675
 31
0.0
  0
LINE
  5
16FEC
330
1A
100
AcDbEntity
  8
ZISSEN1
100
AcDbLine
 10
-960.6654070573338
 20
1698.393416403796
 30
0.0
 11
-960.6654070573338
 21
1706.093415826436
 31
0.0
  0
LINE
  5
16FED
330
1A
100
AcDbEntity
  8
ZISSEN1
100
AcDbLine
 10
-957.5153991392594
 20
1682.743416733716
 30
0.0
 11
-957.5153991392594
 21
1686.743417558515
 31
0.0
  0
LINE
  5
16FEE
330
1A
100
AcDbEntity
  8
CL1
100
AcDbLine
 10
-955.7654057376547
 20
1689.243388690536
 30
0.0
 11
-955.7654057376547
 21
1683.716015205067
 31
0.0
  0
LINE
  5
16FEF
330
1A
100
AcDbEntity
  8
ZISSEN1
100
AcDbLine
 10
-940.2654040880557
 20
1712.943416156356
 30
0.0
 11
-939.9654080470929
 21
1712.943416156356
 31
0.0
  0
LINE
  5
16FF0
330
1A
100
AcDbEntity
  8
ZISSEN1
100
AcDbLine
 10
-948.1654153053277
 20
1712.943416156356
 30
0.0
 11
-940.2654040880557
 21
1712.943416156356
 31
0.0
  0
LINE
  5
16FF1
330
1A
100
AcDbEntity
  8
ZISSEN1
100
AcDbLine
 10
-940.2654040880557
 20
1706.793416898675
 30
0.0
 11
-939.9654080470929
 21
1706.793416898675
 31
0.0
  0
LINE
  5
16FF2
330
1A
100
AcDbEntity
  8
ZISSEN1
100
AcDbLine
 10
-940.2654040880557
 20
1697.693415331557
 30
0.0
 11
-939.9654080470929
 21
1697.693415331557
 31
0.0
  0
LINE
  5
16FF3
330
1A
100
AcDbEntity
  8
ZISSEN1
100
AcDbLine
 10
-939.9654080470929
 20
1696.243417970915
 30
0.0
 11
-939.9654080470929
 21
1696.893417640995
 31
0.0
  0
LINE
  5
16FF4
330
1A
100
AcDbEntity
  8
ZISSEN1
100
AcDbLine
 10
-938.3654126659696
 20
1696.743413434518
 30
0.0
 11
-939.9654080470929
 21
1696.743413434518
 31
0.0
  0
LINE
  5
16FF5
330
1A
100
AcDbEntity
  8
ZISSEN1
100
AcDbLine
 10
-940.2654040880557
 20
1697.693415331557
 30
0.0
 11
-940.2654040880557
 21
1706.793416898675
 31
0.0
  0
LINE
  5
16FF6
330
1A
100
AcDbEntity
  8
ZISSEN1
100
AcDbLine
 10
-941.0654017786175
 20
1698.393416403796
 30
0.0
 11
-941.0654017786175
 21
1706.093415826436
 31
0.0
  0
LINE
  5
16FF7
330
1A
100
AcDbEntity
  8
ZISSEN1
100
AcDbLine
 10
-951.5654116762103
 20
1696.743413434518
 30
0.0
 11
-949.9654162950871
 21
1696.743413434518
 31
0.0
  0
LINE
  5
16FF8
330
1A
100
AcDbEntity
  8
ZISSEN1
100
AcDbLine
 10
-948.1654153053277
 20
1697.693415331557
 30
0.0
 11
-948.1654153053277
 21
1706.793416898675
 31
0.0
  0
LINE
  5
16FF9
330
1A
100
AcDbEntity
  8
ZISSEN1
100
AcDbLine
 10
-947.565423223402
 20
1698.393416403796
 30
0.0
 11
-947.565423223402
 21
1706.093415826436
 31
0.0
  0
LINE
  5
16FFA
330
1A
100
AcDbEntity
  8
ZISSEN1
100
AcDbLine
 10
-948.1654153053277
 20
1697.693415331557
 30
0.0
 11
-940.2654040880557
 21
1697.693415331557
 31
0.0
  0
LINE
  5
16FFB
330
1A
100
AcDbEntity
  8
ZISSEN1
100
AcDbLine
 10
-947.565423223402
 20
1698.393416403796
 30
0.0
 11
-941.0654017786175
 21
1698.393416403796
 31
0.0
  0
LINE
  5
16FFC
330
1A
100
AcDbEntity
  8
ZISSEN1
100
AcDbLine
 10
-948.1654153053277
 20
1706.793416898675
 30
0.0
 11
-940.2654040880557
 21
1706.793416898675
 31
0.0
  0
LINE
  5
16FFD
330
1A
100
AcDbEntity
  8
ZISSEN1
100
AcDbLine
 10
-947.565423223402
 20
1706.093415826436
 30
0.0
 11
-941.0654017786175
 21
1706.093415826436
 31
0.0
  0
LINE
  5
16FFE
330
1A
100
AcDbEntity
  8
ZISSEN1
100
AcDbLine
 10
-948.5654017786174
 20
1683.743416939916
 30
0.0
 11
-948.5654017786174
 21
1689.243413434518
 31
0.0
  0
LINE
  5
16FFF
330
1A
100
AcDbEntity
  8
ZISSEN1
100
AcDbLine
 10
-949.5654050778151
 20
1682.743416733716
 30
0.0
 11
-954.0153875920676
 21
1682.743416733716
 31
0.0
  0
LINE
  5
17000
330
1A
100
AcDbEntity
  8
ZISSEN1
100
AcDbLine
 10
-954.0153875920676
 20
1682.743416733716
 30
0.0
 11
-954.0153875920676
 21
1686.743417558515
 31
0.0
  0
LINE
  5
17001
330
1A
100
AcDbEntity
  8
ZISSEN1
100
AcDbLine
 10
-949.5654050778151
 20
1682.743416733716
 30
0.0
 11
-948.5654017786174
 21
1683.743416939916
 31
0.0
  0
LINE
  5
17002
330
1A
100
AcDbEntity
  8
CL1
100
AcDbLine
 10
-1014.069277565903
 20
1802.743472407676
 30
0.0
 11
-1007.509045416428
 21
1802.743472407676
 31
0.0
  0
LINE
  5
17003
330
1A
100
AcDbEntity
  8
ZISSEN1
100
AcDbLine
 10
-1021.965418769485
 20
1800.243414671717
 30
0.0
 11
-955.9654113462906
 21
1800.243414671717
 31
0.0
  0
LINE
  5
17004
330
1A
100
AcDbEntity
  8
ZISSEN1
100
AcDbLine
 10
-1009.615412665969
 20
1791.343437271221
 30
0.0
 11
-1024.765410686451
 21
1791.343437271221
 31
0.0
  0
LINE
  5
17005
330
1A
100
AcDbEntity
  8
ZISSEN1
100
AcDbLine
 10
-1024.765410686451
 20
1757.84343809602
 30
0.0
 11
-1009.615412665969
 21
1757.84343809602
 31
0.0
  0
LINE
  5
17006
330
1A
100
AcDbEntity
  8
ZISSEN1
100
AcDbLine
 10
-1010.865416789966
 20
1737.543413187078
 30
0.0
 11
-1016.965414645488
 21
1737.543413187078
 31
0.0
  0
LINE
  5
17007
330
1A
100
AcDbEntity
  8
ZISSEN1
100
AcDbLine
 10
-1012.965450936662
 20
1731.443427703548
 30
0.0
 11
-1011.365455555539
 21
1731.443427703548
 31
0.0
  0
LINE
  5
17008
330
1A
100
AcDbEntity
  8
ZISSEN1
100
AcDbLine
 10
-1012.965450936662
 20
1730.44342440435
 30
0.0
 11
-1011.365455555539
 21
1730.44342440435
 31
0.0
  0
LINE
  5
17009
330
1A
100
AcDbEntity
  8
ZISSEN1
100
AcDbLine
 10
-1013.065466112971
 20
1832.589475659158
 30
0.0
 11
-1011.465470731848
 21
1832.589475659158
 31
0.0
  0
LINE
  5
1700A
330
1A
100
AcDbEntity
  8
ZISSEN1
100
AcDbLine
 10
-1013.065466112971
 20
1833.589466586365
 30
0.0
 11
-1011.465470731848
 21
1833.589466586365
 31
0.0
  0
ARC
  5
1700B
330
1A
100
AcDbEntity
  8
ZISSEN1
100
AcDbCircle
 10
-1010.765401613657
 20
1802.743472407676
 30
0.0
 40
1.749999974225018
100
AcDbArc
 50
180.0
 51
359.9999847412061
  0
LINE
  5
1700C
330
1A
100
AcDbEntity
  8
ZISSEN1
100
AcDbLine
 10
-1054.792653810923
 20
1794.943414506757
 30
0.0
 11
-1054.792653810923
 21
1771.074404200064
 31
0.0
  0
LINE
  5
1700D
330
1A
100
AcDbEntity
  8
ZISSEN1
100
AcDbLine
 10
-1056.992653645963
 20
1781.74345261249
 30
0.0
 11
-1056.992653645963
 21
1794.343422424832
 31
0.0
  0
LINE
  5
1700E
330
1A
100
AcDbEntity
  8
ZISSEN1
100
AcDbLine
 10
-1024.865450606742
 20
1790.773422523807
 30
0.0
 11
-1024.865450606742
 21
1776.173421369088
 31
0.0
  0
LINE
  5
1700F
330
1A
100
AcDbEntity
  8
ZISSEN1
100
AcDbLine
 10
-1023.865459679535
 20
1777.173424668286
 30
0.0
 11
-1023.865459679535
 21
1789.77341922461
 31
0.0
  0
LINE
  5
17010
330
1A
100
AcDbEntity
  8
ZISSEN1
100
AcDbLine
 10
-1012.965450936662
 20
1776.180423916069
 30
0.0
 11
-1012.965450936662
 21
1790.780425070788
 31
0.0
  0
LINE
  5
17011
330
1A
100
AcDbEntity
  8
ZISSEN1
100
AcDbLine
 10
-1024.865450606742
 20
1790.773422523807
 30
0.0
 11
-1024.865450606742
 21
1776.173421369088
 31
0.0
  0
LINE
  5
17012
330
1A
100
AcDbEntity
  8
ZISSEN1
100
AcDbLine
 10
-1023.865459679535
 20
1777.173424668286
 30
0.0
 11
-1023.865459679535
 21
1789.77341922461
 31
0.0
  0
LINE
  5
17013
330
1A
100
AcDbEntity
  8
ZISSEN1
100
AcDbLine
 10
-1012.965450936662
 20
1776.173421369088
 30
0.0
 11
-1012.965450936662
 21
1790.773422523807
 31
0.0
  0
LINE
  5
17014
330
1A
100
AcDbEntity
  8
ZISSEN1
100
AcDbLine
 10
-1075.092647789887
 20
1790.773410151817
 30
0.0
 11
-1075.092647789887
 21
1776.173408997097
 31
0.0
  0
LINE
  5
17015
330
1A
100
AcDbEntity
  8
ZISSEN1
100
AcDbLine
 10
-1057.492655295562
 20
1790.773410151817
 30
0.0
 11
-1057.492655295562
 21
1776.173408997097
 31
0.0
  0
LINE
  5
17016
330
1A
100
AcDbEntity
  8
ZISSEN1
100
AcDbLine
 10
-1082.092652326284
 20
1791.34342489923
 30
0.0
 11
-1082.092652326284
 21
1757.843425724029
 31
0.0
  0
LINE
  5
17017
330
1A
100
AcDbEntity
  8
ZISSEN1
100
AcDbLine
 10
-1012.965450936662
 20
1757.84343809602
 30
0.0
 11
-1012.965450936662
 21
1791.343437271221
 31
0.0
  0
LINE
  5
17018
330
1A
100
AcDbEntity
  8
ZISSEN1
100
AcDbLine
 10
-1014.965457535057
 20
1789.77341922461
 30
0.0
 11
-1014.965457535057
 21
1785.473422358847
 31
0.0
  0
LINE
  5
17019
330
1A
100
AcDbEntity
  8
ZISSEN1
100
AcDbLine
 10
-1014.965457535057
 20
1789.77341922461
 30
0.0
 11
-1014.965457535057
 21
1785.473422358847
 31
0.0
  0
LINE
  5
1701A
330
1A
100
AcDbEntity
  8
ZISSEN1
100
AcDbLine
 10
-1052.076927525555
 20
1767.098095738282
 30
0.0
 11
-1047.601433965589
 21
1767.09829369014
 31
0.0
  0
ARC
  5
1701B
330
1A
100
AcDbEntity
  8
ZISSEN1
100
AcDbCircle
 10
-1048.261912712158
 20
1789.908001744141
 30
0.0
 40
20.99995020273569
100
AcDbArc
 50
259.8990478515637
 51
272.5790100097672
  0
LINE
  5
1701C
330
1A
100
AcDbEntity
  8
ZISSEN1
100
AcDbLine
 10
-1047.908420181542
 20
1764.098345652503
 30
0.0
 11
-1048.678403421618
 21
1764.098345652503
 31
0.0
  0
LINE
  5
1701D
330
1A
100
AcDbEntity
  8
ZISSEN1
100
AcDbLine
 10
-1054.328419587686
 20
1766.108039519954
 30
0.0
 11
-1046.76440690557
 21
1766.108336447741
 31
0.0
  0
ARC
  5
1701E
330
1A
100
AcDbEntity
  8
ZISSEN1
100
AcDbCircle
 10
-1048.261912712158
 20
1789.908001744141
 30
0.0
 40
19.99994845003695
100
AcDbArc
 50
253.8410644531226
 51
278.029006958005
  0
LINE
  5
1701F
330
1A
100
AcDbEntity
  8
ZISSEN1
100
AcDbLine
 10
-1055.992650346765
 20
1753.543453602249
 30
0.0
 11
-1055.992650346765
 21
1733.943448323533
 31
0.0
  0
LINE
  5
17020
330
1A
100
AcDbEntity
  8
ZISSEN1
100
AcDbLine
 10
-1057.735505109487
 20
1758.373417080131
 30
0.0
 11
-1057.723504278089
 21
1731.17425647849
 31
0.0
  0
LINE
  5
17021
330
1A
100
AcDbEntity
  8
ZISSEN1
100
AcDbLine
 10
-1060.19264440821
 20
1732.043413599478
 30
0.0
 11
-1060.19264440821
 21
1758.373417080131
 31
0.0
  0
LINE
  5
17022
330
1A
100
AcDbEntity
  8
ZISSEN1
100
AcDbLine
 10
-1055.992650346765
 20
1732.543446179055
 30
0.0
 11
-1057.724098133663
 21
1732.543446179055
 31
0.0
  0
LINE
  5
17023
330
1A
100
AcDbEntity
  8
ZISSEN1
100
AcDbLine
 10
-1055.992650346765
 20
1733.943448323533
 30
0.0
 11
-1057.72471673322
 21
1733.943448323533
 31
0.0
  0
LINE
  5
17024
330
1A
100
AcDbEntity
  8
ZISSEN1
100
AcDbLine
 10
-1060.988992361387
 20
1731.94341079516
 30
0.0
 11
-1060.988992361387
 21
1732.043413599478
 31
0.0
  0
LINE
  5
17025
330
1A
100
AcDbEntity
  8
ZISSEN1
100
AcDbLine
 10
-1060.488953595815
 20
1731.443409145561
 30
0.0
 11
-1057.99265694516
 21
1731.443409145561
 31
0.0
  0
ARC
  5
17026
330
1A
100
AcDbEntity
  8
ZISSEN1
100
AcDbCircle
 10
-1060.488953595815
 20
1731.94341079516
 30
0.0
 40
0.5000000064437455
100
AcDbArc
 50
180.0
 51
270.0
  0
LINE
  5
17027
330
1A
100
AcDbEntity
  8
ZISSEN1
100
AcDbLine
 10
-1057.99265694516
 20
1731.443409145561
 30
0.0
 11
-1056.992653645963
 21
1730.443412032359
 31
0.0
  0
LINE
  5
17028
330
1A
100
AcDbEntity
  8
ZISSEN1
100
AcDbLine
 10
-1060.642650841645
 20
1723.143411454999
 30
0.0
 11
-1060.642650841645
 21
1722.44341038276
 31
0.0
  0
LINE
  5
17029
330
1A
100
AcDbEntity
  8
ZISSEN1
100
AcDbLine
 10
-1059.692655130602
 20
1730.543414836677
 30
0.0
 11
-1059.692655130602
 21
1723.943409145561
 31
0.0
  0
LINE
  5
1702A
330
1A
100
AcDbEntity
  8
ZISSEN1
100
AcDbLine
 10
-1064.932651138573
 20
1729.523715327598
 30
0.0
 11
-1064.932651138573
 21
1728.763716284365
 31
0.0
  0
LINE
  5
1702B
330
1A
100
AcDbEntity
  8
ZISSEN1
100
AcDbLine
 10
-1064.932651138573
 20
1728.253718065932
 30
0.0
 11
-1064.932651138573
 21
1727.493719022699
 31
0.0
  0
LINE
  5
1702C
330
1A
100
AcDbEntity
  8
ZISSEN1
100
AcDbLine
 10
-1064.932651138573
 20
1726.98371461827
 30
0.0
 11
-1064.932651138573
 21
1726.223715575038
 31
0.0
  0
LINE
  5
1702D
330
1A
100
AcDbEntity
  8
ZISSEN1
100
AcDbLine
 10
-1064.932651138573
 20
1725.713717356604
 30
0.0
 11
-1064.932651138573
 21
1724.953718313371
 31
0.0
  0
LINE
  5
1702E
330
1A
100
AcDbEntity
  8
ZISSEN1
100
AcDbLine
 10
-1064.242652821164
 20
1723.143411454999
 30
0.0
 11
-1064.242652821164
 21
1722.44341038276
 31
0.0
  0
LINE
  5
1702F
330
1A
100
AcDbEntity
  8
ZISSEN1
100
AcDbLine
 10
-1065.088958874531
 20
1732.043413599478
 30
0.0
 11
-1065.088958874531
 21
1722.44341038276
 31
0.0
  0
LINE
  5
17030
330
1A
100
AcDbEntity
  8
ZISSEN1
100
AcDbLine
 10
-1065.09265809988
 20
1723.943409145561
 30
0.0
 11
-1065.09265809988
 21
1730.543414836677
 31
0.0
  0
LINE
  5
17031
330
1A
100
AcDbEntity
  8
ZISSEN1
100
AcDbLine
 10
-1064.932651138573
 20
1723.943409145561
 30
0.0
 11
-1064.932651138573
 21
1730.543414836677
 31
0.0
  0
LINE
  5
17032
330
1A
100
AcDbEntity
  8
ZISSEN1
100
AcDbLine
 10
-1060.19264440821
 20
1732.043413599478
 30
0.0
 11
-1065.088958874531
 21
1732.043413599478
 31
0.0
  0
LINE
  5
17033
330
1A
100
AcDbEntity
  8
ZISSEN1
100
AcDbLine
 10
-1060.19264440821
 20
1722.44341038276
 30
0.0
 11
-1065.088958874531
 21
1722.44341038276
 31
0.0
  0
LINE
  5
17034
330
1A
100
AcDbEntity
  8
ZISSEN1
100
AcDbLine
 10
-1060.642650841645
 20
1723.143411454999
 30
0.0
 11
-1064.242652821164
 21
1723.143411454999
 31
0.0
  0
LINE
  5
17035
330
1A
100
AcDbEntity
  8
ZISSEN1
100
AcDbLine
 10
-1059.692655130602
 20
1723.943409145561
 30
0.0
 11
-1065.09265809988
 21
1723.943409145561
 31
0.0
  0
LINE
  5
17036
330
1A
100
AcDbEntity
  8
ZISSEN1
100
AcDbLine
 10
-1065.09265809988
 20
1730.543414836677
 30
0.0
 11
-1059.692655130602
 21
1730.543414836677
 31
0.0
  0
LINE
  5
17037
330
1A
100
AcDbEntity
  8
ZISSEN1
100
AcDbLine
 10
-1059.852649719918
 20
1723.943409145561
 30
0.0
 11
-1064.932651138573
 21
1723.943409145561
 31
0.0
  0
LINE
  5
17038
330
1A
100
AcDbEntity
  8
ZISSEN1
100
AcDbLine
 10
-1064.932651138573
 20
1730.543414836677
 30
0.0
 11
-1059.852649719918
 21
1730.543414836677
 31
0.0
  0
LINE
  5
17039
330
1A
100
AcDbEntity
  8
ZISSEN1
100
AcDbLine
 10
-1062.242646222768
 20
1776.173408997097
 30
0.0
 11
-1075.092647789887
 21
1776.173408997097
 31
0.0
  0
LINE
  5
1703A
330
1A
100
AcDbEntity
  8
ZISSEN1
100
AcDbLine
 10
-1062.242646222768
 20
1776.173408997097
 30
0.0
 11
-1075.092647789887
 21
1776.173408997097
 31
0.0
  0
LINE
  5
1703B
330
1A
100
AcDbEntity
  8
ZISSEN1
100
AcDbLine
 10
-1062.242646222768
 20
1772.973405862859
 30
0.0
 11
-1075.092647789887
 21
1772.973405862859
 31
0.0
  0
LINE
  5
1703C
330
1A
100
AcDbEntity
  8
ZISSEN1
100
AcDbLine
 10
-1062.242646222768
 20
1758.373417080131
 30
0.0
 11
-1075.092647789887
 21
1758.373417080131
 31
0.0
  0
LINE
  5
1703D
330
1A
100
AcDbEntity
  8
ZISSEN1
100
AcDbLine
 10
-1062.242646222768
 20
1758.373417080131
 30
0.0
 11
-1075.092647789887
 21
1758.373417080131
 31
0.0
  0
LINE
  5
1703E
330
1A
100
AcDbEntity
  8
ZISSEN1
100
AcDbLine
 10
-1060.19264440821
 20
1757.843425724029
 30
0.0
 11
-1082.092652326284
 21
1757.843425724029
 31
0.0
  0
LINE
  5
1703F
330
1A
100
AcDbEntity
  8
ZISSEN1
100
AcDbLine
 10
-1075.092647789887
 20
1772.973405862859
 30
0.0
 11
-1075.092647789887
 21
1758.373417080131
 31
0.0
  0
LINE
  5
17040
330
1A
100
AcDbEntity
  8
ZISSEN1
100
AcDbLine
 10
-1049.092889868514
 20
1780.27904188218
 30
0.0
 11
-1048.38589243529
 21
1779.281042845545
 31
0.0
  0
ARC
  5
17041
330
1A
100
AcDbEntity
  8
ZISSEN1
100
AcDbCircle
 10
-1049.742419402931
 20
1779.518498471337
 30
0.0
 40
1.00000001288749
100
AcDbArc
 50
49.5751647949197
 51
138.0971221923747
  0
LINE
  5
17042
330
1A
100
AcDbEntity
  8
ZISSEN1
100
AcDbLine
 10
-1048.494407169506
 20
1774.016995686814
 30
0.0
 11
-1049.084415054588
 21
1773.522004693624
 31
0.0
  0
ARC
  5
17043
330
1A
100
AcDbEntity
  8
ZISSEN1
100
AcDbCircle
 10
-1048.686902979525
 20
1774.24749825359
 30
0.0
 40
0.2999920055672929
100
AcDbArc
 50
309.9984588623046
 51
23.85314941405911
  0
LINE
  5
17044
330
1A
100
AcDbEntity
  8
ZISSEN1
100
AcDbLine
 10
-1050.201383157946
 20
1774.542471266153
 30
0.0
 11
-1050.522894091487
 21
1774.925470995619
 31
0.0
  0
LINE
  5
17045
330
1A
100
AcDbEntity
  8
ZISSEN1
100
AcDbLine
 10
-1050.250883494464
 20
1773.978988930058
 30
0.0
 11
-1049.929384932914
 21
1773.595989200592
 31
0.0
  0
LINE
  5
17046
330
1A
100
AcDbEntity
  8
ZISSEN1
100
AcDbLine
 10
-1050.250858750481
 20
1773.979496181694
 30
0.0
 11
-1050.201346041972
 21
1774.542990889781
 31
0.0
  0
LINE
  5
17047
330
1A
100
AcDbEntity
  8
ZISSEN1
100
AcDbLine
 10
-1049.084427426579
 20
1773.52195520566
 30
0.0
 11
-1049.929941672515
 21
1773.595952084618
 31
0.0
  0
ARC
  5
17048
330
1A
100
AcDbEntity
  8
ZISSEN1
100
AcDbCircle
 10
-1042.924907921723
 20
1776.795497455184
 30
0.0
 40
5.999995051203547
100
AcDbArc
 50
155.519989013673
 51
203.8600463867193
  0
LINE
  5
17049
330
1A
100
AcDbEntity
  8
ZISSEN1
100
AcDbLine
 10
-1056.992653645963
 20
1781.74345261249
 30
0.0
 11
-1057.492655295562
 21
1781.243450962891
 31
0.0
  0
LINE
  5
1704A
330
1A
100
AcDbEntity
  8
ZISSEN1
100
AcDbLine
 10
-1054.31502072129
 20
1771.743889756177
 30
0.0
 11
-1057.272013205718
 21
1775.267890594173
 31
0.0
  0
ARC
  5
1704B
330
1A
100
AcDbEntity
  8
ZISSEN1
100
AcDbCircle
 10
-1067.936904629124
 20
1737.578153738176
 30
0.0
 40
35.99989607527449
100
AcDbArc
 50
66.92678833008156
 51
67.78900146484954
  0
ARC
  5
1704C
330
1A
100
AcDbEntity
  8
ZISSEN1
100
AcDbCircle
 10
-1067.397411583832
 20
1737.353298985352
 30
0.0
 40
35.99990535426784
100
AcDbArc
 50
68.71369934081442
 51
74.03004455566324
  0
LINE
  5
1704D
330
1A
100
AcDbEntity
  8
ZISSEN1
100
AcDbLine
 10
-1060.19264440821
 20
1773.07343341116
 30
0.0
 11
-1060.19264440821
 21
1776.173421369088
 31
0.0
  0
LINE
  5
1704E
330
1A
100
AcDbEntity
  8
ZISSEN1
100
AcDbLine
 10
-1048.903425196322
 20
1776.284497105469
 30
0.0
 11
-1054.996420504863
 21
1771.172006838102
 31
0.0
  0
ARC
  5
1704F
330
1A
100
AcDbEntity
  8
ZISSEN1
100
AcDbCircle
 10
-1065.354399944263
 20
1793.561995092959
 30
0.0
 40
19.99990514806799
100
AcDbArc
 50
293.8369903564487
 51
318.0279998779236
  0
LINE
  5
17050
330
1A
100
AcDbEntity
  8
ZISSEN1
100
AcDbLine
 10
-1049.278407875534
 20
1765.198339384027
 30
0.0
 11
-1048.878409030253
 21
1765.598350601299
 31
0.0
  0
LINE
  5
17051
330
1A
100
AcDbEntity
  8
ZISSEN1
100
AcDbLine
 10
-1048.878421402245
 20
1765.598301113334
 30
0.0
 11
-1048.878421402245
 21
1766.098253274969
 31
0.0
  0
LINE
  5
17052
330
1A
100
AcDbEntity
  8
ZISSEN1
100
AcDbLine
 10
-1052.826917627963
 20
1767.848147700645
 30
0.0
 11
-1052.826917627963
 21
1768.495042000951
 31
0.0
  0
ARC
  5
17053
330
1A
100
AcDbEntity
  8
ZISSEN1
100
AcDbCircle
 10
-1052.076915153564
 20
1767.848147700645
 30
0.0
 40
0.750000009665618
100
AcDbArc
 50
180.0
 51
270.0011291503916
  0
ARC
  5
17054
330
1A
100
AcDbEntity
  8
ZISSEN1
100
AcDbCircle
 10
-1052.076915153564
 20
1768.495042000951
 30
0.0
 40
0.750000009665618
100
AcDbArc
 50
79.89834594726123
 51
179.9999694824253
  0
LINE
  5
17055
330
1A
100
AcDbEntity
  8
ZISSEN1
100
AcDbLine
 10
-1048.678378677635
 20
1764.098382768476
 30
0.0
 11
-1049.278383131552
 21
1764.698387222393
 31
0.0
  0
LINE
  5
17056
330
1A
100
AcDbEntity
  8
ZISSEN1
100
AcDbLine
 10
-1049.278407875534
 20
1765.198302268053
 30
0.0
 11
-1049.278407875534
 21
1764.698300618455
 31
0.0
  0
LINE
  5
17057
330
1A
100
AcDbEntity
  8
ZISSEN1
100
AcDbLine
 10
-1057.492655295562
 20
1764.252537777978
 30
0.0
 11
-1054.328419587686
 21
1766.108163239866
 31
0.0
  0
LINE
  5
17058
330
1A
100
AcDbEntity
  8
ZISSEN1
100
AcDbLine
 10
-1053.82692092716
 20
1766.108089007919
 30
0.0
 11
-1053.82692092716
 21
1770.69787502196
 31
0.0
  0
LINE
  5
17059
330
1A
100
AcDbEntity
  8
ZISSEN1
100
AcDbLine
 10
-1054.328419587686
 20
1766.108150867874
 30
0.0
 11
-1054.328419587686
 21
1770.897212543075
 31
0.0
  0
LINE
  5
1705A
330
1A
100
AcDbEntity
  8
ZISSEN1
100
AcDbLine
 10
-1054.792653810923
 20
1754.543444529456
 30
0.0
 11
-1055.792644738129
 21
1753.543453602249
 31
0.0
  0
LINE
  5
1705B
330
1A
100
AcDbEntity
  8
ZISSEN1
100
AcDbLine
 10
-1055.992650346765
 20
1753.543453602249
 30
0.0
 11
-1057.492655295562
 21
1753.543453602249
 31
0.0
  0
LINE
  5
1705C
330
1A
100
AcDbEntity
  8
ZISSEN1
100
AcDbLine
 10
-1060.992654470762
 20
1757.843425724029
 30
0.0
 11
-1060.992654470762
 21
1758.373417080131
 31
0.0
  0
LINE
  5
1705D
330
1A
100
AcDbEntity
  8
ZISSEN1
100
AcDbLine
 10
-1060.992679214745
 20
1757.843425724029
 30
0.0
 11
-1060.992679214745
 21
1758.373417080131
 31
0.0
  0
LINE
  5
1705E
330
1A
100
AcDbEntity
  8
ZISSEN1
100
AcDbLine
 10
-1054.792653810923
 20
1765.835917575011
 30
0.0
 11
-1054.792653810923
 21
1754.543444529456
 31
0.0
  0
LINE
  5
1705F
330
1A
100
AcDbEntity
  8
ZISSEN1
100
AcDbLine
 10
-1057.492655295562
 20
1772.973405862859
 30
0.0
 11
-1057.492655295562
 21
1758.373417080131
 31
0.0
  0
LINE
  5
17060
330
1A
100
AcDbEntity
  8
ZISSEN1
100
AcDbLine
 10
-1063.092651501484
 20
1758.373417080131
 30
0.0
 11
-1065.592647377487
 21
1758.373417080131
 31
0.0
  0
LINE
  5
17061
330
1A
100
AcDbEntity
  8
ZISSEN1
100
AcDbLine
 10
-1057.492655295562
 20
1772.973405862859
 30
0.0
 11
-1062.242646222768
 21
1772.973405862859
 31
0.0
  0
LINE
  5
17062
330
1A
100
AcDbEntity
  8
ZISSEN1
100
AcDbLine
 10
-1057.492655295562
 20
1758.373417080131
 30
0.0
 11
-1062.242646222768
 21
1758.373417080131
 31
0.0
  0
LINE
  5
17063
330
1A
100
AcDbEntity
  8
ZISSEN1
100
AcDbLine
 10
-1057.492655295562
 20
1772.973405862859
 30
0.0
 11
-1062.242646222768
 21
1772.973405862859
 31
0.0
  0
LINE
  5
17064
330
1A
100
AcDbEntity
  8
ZISSEN1
100
AcDbLine
 10
-1057.492655295562
 20
1776.173408997097
 30
0.0
 11
-1062.242646222768
 21
1776.173408997097
 31
0.0
  0
LINE
  5
17065
330
1A
100
AcDbEntity
  8
ZISSEN1
100
AcDbLine
 10
-1057.492655295562
 20
1758.373417080131
 30
0.0
 11
-1062.242646222768
 21
1758.373417080131
 31
0.0
  0
ARC
  5
17066
330
1A
100
AcDbEntity
  8
ZISSEN1
100
AcDbCircle
 10
-1046.791414962211
 20
1740.827694324906
 30
0.0
 40
35.99990226127006
100
AcDbArc
 50
106.9250488281257
 51
116.4430236816433
  0
LINE
  5
17067
330
1A
100
AcDbEntity
  8
ZISSEN1
100
AcDbLine
 10
-1016.965414645488
 20
1737.543413187078
 30
0.0
 11
-1016.965414645488
 21
1732.043413599478
 31
0.0
  0
LINE
  5
17068
330
1A
100
AcDbEntity
  8
ZISSEN1
100
AcDbLine
 10
-1012.965450936662
 20
1733.318427703548
 30
0.0
 11
-1012.965450936662
 21
1732.068423579551
 31
0.0
  0
LINE
  5
17069
330
1A
100
AcDbEntity
  8
ZISSEN1
100
AcDbLine
 10
-1012.965450936662
 20
1733.318427703548
 30
0.0
 11
-1014.065457040177
 21
1733.318427703548
 31
0.0
  0
LINE
  5
1706A
330
1A
100
AcDbEntity
  8
ZISSEN1
100
AcDbLine
 10
-1014.065457040177
 20
1733.318427703548
 30
0.0
 11
-1014.065457040177
 21
1732.068423579551
 31
0.0
  0
LINE
  5
1706B
330
1A
100
AcDbEntity
  8
ZISSEN1
100
AcDbLine
 10
-1014.065457040177
 20
1732.068423579551
 30
0.0
 11
-1012.965450936662
 21
1732.068423579551
 31
0.0
  0
LINE
  5
1706C
330
1A
100
AcDbEntity
  8
ZISSEN1
100
AcDbLine
 10
-1012.965450936662
 20
1733.318427703548
 30
0.0
 11
-1012.965450936662
 21
1732.068423579551
 31
0.0
  0
LINE
  5
1706D
330
1A
100
AcDbEntity
  8
ZISSEN1
100
AcDbLine
 10
-1012.965450936662
 20
1733.318427703548
 30
0.0
 11
-1014.065457040177
 21
1733.318427703548
 31
0.0
  0
LINE
  5
1706E
330
1A
100
AcDbEntity
  8
ZISSEN1
100
AcDbLine
 10
-1014.065457040177
 20
1733.318427703548
 30
0.0
 11
-1014.065457040177
 21
1732.068423579551
 31
0.0
  0
LINE
  5
1706F
330
1A
100
AcDbEntity
  8
ZISSEN1
100
AcDbLine
 10
-1014.065457040177
 20
1732.068423579551
 30
0.0
 11
-1012.965450936662
 21
1732.068423579551
 31
0.0
  0
LINE
  5
17070
330
1A
100
AcDbEntity
  8
ZISSEN1
100
AcDbLine
 10
-1012.965450936662
 20
1735.318428115947
 30
0.0
 11
-1012.965450936662
 21
1734.06842399195
 31
0.0
  0
LINE
  5
17071
330
1A
100
AcDbEntity
  8
ZISSEN1
100
AcDbLine
 10
-1012.965450936662
 20
1735.318428115947
 30
0.0
 11
-1014.065457040177
 21
1735.318428115947
 31
0.0
  0
LINE
  5
17072
330
1A
100
AcDbEntity
  8
ZISSEN1
100
AcDbLine
 10
-1014.065457040177
 20
1735.318428115947
 30
0.0
 11
-1014.065457040177
 21
1734.06842399195
 31
0.0
  0
LINE
  5
17073
330
1A
100
AcDbEntity
  8
ZISSEN1
100
AcDbLine
 10
-1014.065457040177
 20
1734.06842399195
 30
0.0
 11
-1012.965450936662
 21
1734.06842399195
 31
0.0
  0
LINE
  5
17074
330
1A
100
AcDbEntity
  8
ZISSEN1
100
AcDbLine
 10
-1012.965450936662
 20
1735.318428115947
 30
0.0
 11
-1012.965450936662
 21
1734.06842399195
 31
0.0
  0
LINE
  5
17075
330
1A
100
AcDbEntity
  8
ZISSEN1
100
AcDbLine
 10
-1012.965450936662
 20
1735.318428115947
 30
0.0
 11
-1014.065457040177
 21
1735.318428115947
 31
0.0
  0
LINE
  5
17076
330
1A
100
AcDbEntity
  8
ZISSEN1
100
AcDbLine
 10
-1014.065457040177
 20
1735.318428115947
 30
0.0
 11
-1014.065457040177
 21
1734.06842399195
 31
0.0
  0
LINE
  5
17077
330
1A
100
AcDbEntity
  8
ZISSEN1
100
AcDbLine
 10
-1014.065457040177
 20
1734.06842399195
 30
0.0
 11
-1012.965450936662
 21
1734.06842399195
 31
0.0
  0
LINE
  5
17078
330
1A
100
AcDbEntity
  8
ZISSEN1
100
AcDbLine
 10
-1013.137978352994
 20
1730.364144685178
 30
0.0
 11
-1013.765448627223
 21
1730.543421022673
 31
0.0
  0
LINE
  5
17079
330
1A
100
AcDbEntity
  8
ZISSEN1
100
AcDbLine
 10
-1013.765448627223
 20
1730.543421022673
 30
0.0
 11
-1015.228250998687
 21
1730.354673925966
 31
0.0
  0
ARC
  5
1707A
330
1A
100
AcDbEntity
  8
ZISSEN1
100
AcDbCircle
 10
-1015.215458359856
 20
1730.255500045054
 30
0.0
 40
0.100000001288749
100
AcDbArc
 50
97.35238647461059
 51
180.0000152587938
  0
ARC
  5
1707B
330
1A
100
AcDbEntity
  8
ZISSEN1
100
AcDbCircle
 10
-1013.165456545298
 20
1730.267995756098
 30
0.0
 40
0.100000001288749
100
AcDbArc
 50
0.0000152587938296
 51
74.05456542969021
  0
LINE
  5
1707C
330
1A
100
AcDbEntity
  8
ZISSEN1
100
AcDbLine
 10
-1013.06545374098
 20
1730.267995756098
 30
0.0
 11
-1012.965450936662
 21
1730.267995756098
 31
0.0
  0
LINE
  5
1707D
330
1A
100
AcDbEntity
  8
ZISSEN1
100
AcDbLine
 10
-1016.965414645488
 20
1732.043413599478
 30
0.0
 11
-1024.765410686451
 21
1732.043413599478
 31
0.0
  0
LINE
  5
1707E
330
1A
100
AcDbEntity
  8
ZISSEN1
100
AcDbLine
 10
-1013.137978352994
 20
1724.122704041042
 30
0.0
 11
-1013.765448627223
 21
1723.943421517552
 31
0.0
  0
LINE
  5
1707F
330
1A
100
AcDbEntity
  8
ZISSEN1
100
AcDbLine
 10
-1013.765448627223
 20
1723.943421517552
 30
0.0
 11
-1015.228250998687
 21
1724.132174800254
 31
0.0
  0
LINE
  5
17080
330
1A
100
AcDbEntity
  8
ZISSEN1
100
AcDbLine
 10
-1012.965450936662
 20
1722.643422177392
 30
0.0
 11
-1013.465452586261
 21
1722.643422177392
 31
0.0
  0
LINE
  5
17081
330
1A
100
AcDbEntity
  8
ZISSEN1
100
AcDbLine
 10
-1013.465452586261
 20
1723.14342382699
 30
0.0
 11
-1013.465452586261
 21
1722.643422177392
 31
0.0
  0
ARC
  5
17082
330
1A
100
AcDbEntity
  8
ZISSEN1
100
AcDbCircle
 10
-1015.215458359856
 20
1724.231348681166
 30
0.0
 40
0.100000001288749
100
AcDbArc
 50
179.9999694824253
 51
262.6475982666042
  0
ARC
  5
17083
330
1A
100
AcDbEntity
  8
ZISSEN1
100
AcDbCircle
 10
-1013.165456545298
 20
1724.218852970123
 30
0.0
 40
0.100000001288749
100
AcDbArc
 50
285.9454650878899
 51
0.0000152587938296
  0
LINE
  5
17084
330
1A
100
AcDbEntity
  8
ZISSEN1
100
AcDbLine
 10
-1020.56545374098
 20
1722.643422177392
 30
0.0
 11
-1020.065452091381
 21
1722.643422177392
 31
0.0
  0
LINE
  5
17085
330
1A
100
AcDbEntity
  8
ZISSEN1
100
AcDbLine
 10
-1020.065452091381
 20
1723.14342382699
 30
0.0
 11
-1020.065452091381
 21
1722.643422177392
 31
0.0
  0
LINE
  5
17086
330
1A
100
AcDbEntity
  8
ZISSEN1
100
AcDbLine
 10
-1020.065452091381
 20
1723.14342382699
 30
0.0
 11
-1013.465452586261
 21
1723.14342382699
 31
0.0
  0
LINE
  5
17087
330
1A
100
AcDbEntity
  8
ZISSEN1
100
AcDbLine
 10
-1013.465452586261
 20
1715.743426631308
 30
0.0
 11
-1013.465452586261
 21
1716.243422094912
 31
0.0
  0
LINE
  5
17088
330
1A
100
AcDbEntity
  8
ZISSEN1
100
AcDbLine
 10
-1012.965450936662
 20
1716.243422094912
 30
0.0
 11
-1013.465452586261
 21
1716.243422094912
 31
0.0
  0
LINE
  5
17089
330
1A
100
AcDbEntity
  8
ZISSEN1
100
AcDbLine
 10
-1020.065452091381
 20
1715.743426631308
 30
0.0
 11
-1020.065452091381
 21
1716.243422094912
 31
0.0
  0
LINE
  5
1708A
330
1A
100
AcDbEntity
  8
ZISSEN1
100
AcDbLine
 10
-1020.56545374098
 20
1716.243422094912
 30
0.0
 11
-1020.065452091381
 21
1716.243422094912
 31
0.0
  0
LINE
  5
1708B
330
1A
100
AcDbEntity
  8
ZISSEN1
100
AcDbLine
 10
-1020.065452091381
 20
1715.743426631308
 30
0.0
 11
-1013.465452586261
 21
1715.743426631308
 31
0.0
  0
LINE
  5
1708C
330
1A
100
AcDbEntity
  8
ZISSEN1
100
AcDbLine
 10
-1012.965450936662
 20
1722.643422177392
 30
0.0
 11
-1012.965450936662
 21
1716.243422094912
 31
0.0
  0
LINE
  5
1708D
330
1A
100
AcDbEntity
  8
ZISSEN1
100
AcDbLine
 10
-1020.56545374098
 20
1722.643422177392
 30
0.0
 11
-1020.56545374098
 21
1716.243422094912
 31
0.0
  0
CIRCLE
  5
1708E
330
1A
100
AcDbEntity
  8
ZISSEN1
100
AcDbCircle
 10
-1016.965451761461
 20
1719.443425229149
 30
0.0
 40
1.600000020619985
  0
LINE
  5
1708F
330
1A
100
AcDbEntity
  8
ZISSEN1
100
AcDbLine
 10
-1020.865412665969
 20
1722.44341038276
 30
0.0
 11
-1024.765410686451
 21
1722.44341038276
 31
0.0
  0
LINE
  5
17090
330
1A
100
AcDbEntity
  8
ZISSEN1
100
AcDbLine
 10
-1020.865412665969
 20
1722.44341038276
 30
0.0
 11
-1020.865412665969
 21
1715.043413187078
 31
0.0
  0
LINE
  5
17091
330
1A
100
AcDbEntity
  8
ZISSEN1
100
AcDbLine
 10
-1014.965408047092
 20
1715.043413187078
 30
0.0
 11
-1020.865412665969
 21
1715.043413187078
 31
0.0
  0
LINE
  5
17092
330
1A
100
AcDbEntity
  8
ZISSEN1
100
AcDbLine
 10
-1020.865412665969
 20
1715.043413187078
 30
0.0
 11
-1014.965408047092
 21
1715.043413187078
 31
0.0
  0
LINE
  5
17093
330
1A
100
AcDbEntity
  8
ZISSEN1
100
AcDbLine
 10
-1015.315448792183
 20
1724.231348681166
 30
0.0
 11
-1015.315448792183
 21
1730.255500045054
 31
0.0
  0
LINE
  5
17094
330
1A
100
AcDbEntity
  8
ZISSEN1
100
AcDbLine
 10
-1013.06545374098
 20
1724.218852970123
 30
0.0
 11
-1012.965450936662
 21
1724.218852970123
 31
0.0
  0
LINE
  5
17095
330
1A
100
AcDbEntity
  8
ZISSEN1
100
AcDbLine
 10
-1023.965412995889
 20
1732.043413599478
 30
0.0
 11
-1023.965412995889
 21
1722.44341038276
 31
0.0
  0
LINE
  5
17096
330
1A
100
AcDbEntity
  8
ZISSEN1
100
AcDbLine
 10
-1044.328411339692
 20
1768.113749606261
 30
0.0
 11
-1044.328411339692
 21
1769.113752905458
 31
0.0
  0
ARC
  5
17097
330
1A
100
AcDbEntity
  8
ZISSEN1
100
AcDbCircle
 10
-1047.282917053902
 20
1768.179952130807
 30
0.0
 40
0.7500009762274252
100
AcDbArc
 50
314.4396667480438
 51
92.58052062988681
  0
ARC
  5
17098
330
1A
100
AcDbEntity
  8
ZISSEN1
100
AcDbCircle
 10
-1047.601421593598
 20
1767.848296164538
 30
0.0
 40
0.7499989947757207
100
AcDbArc
 50
270.0011291503916
 51
317.839904785156
  0
ARC
  5
17099
330
1A
100
AcDbEntity
  8
ZISSEN1
100
AcDbCircle
 10
-1041.85641327962
 20
1762.646653329076
 30
0.0
 40
7.000005309646194
100
AcDbArc
 50
134.4410552978588
 51
137.8420562744137
  0
ARC
  5
1709A
330
1A
100
AcDbEntity
  8
ZISSEN1
100
AcDbCircle
 10
-1047.908420181542
 20
1764.398453041386
 30
0.0
 40
0.2999950019088951
100
AcDbArc
 50
270.0000305175746
 51
343.8541259765619
  0
ARC
  5
1709B
330
1A
100
AcDbEntity
  8
ZISSEN1
100
AcDbCircle
 10
-1041.85641327962
 20
1762.646653329076
 30
0.0
 40
5.999993891329379
100
AcDbArc
 50
114.3290863037163
 51
163.8620147705117
  0
ARC
  5
1709C
330
1A
100
AcDbEntity
  8
ZISSEN1
100
AcDbCircle
 10
-1045.328414638889
 20
1769.113790021432
 30
0.0
 40
1.000002042667285
100
AcDbArc
 50
0.0017395019496881
 51
98.09724426270122
  0
LINE
  5
1709D
330
1A
100
AcDbEntity
  8
ZISSEN1
100
AcDbLine
 10
-1014.965457535057
 20
1785.473422358847
 30
0.0
 11
-1012.965450936662
 21
1785.473422358847
 31
0.0
  0
LINE
  5
1709E
330
1A
100
AcDbEntity
  8
ZISSEN1
100
AcDbLine
 10
-1014.965457535057
 20
1781.473421534048
 30
0.0
 11
-1014.965457535057
 21
1777.173424668286
 31
0.0
  0
LINE
  5
1709F
330
1A
100
AcDbEntity
  8
ZISSEN1
100
AcDbLine
 10
-1012.965450936662
 20
1781.473421534048
 30
0.0
 11
-1014.965457535057
 21
1781.473421534048
 31
0.0
  0
LINE
  5
170A0
330
1A
100
AcDbEntity
  8
ZISSEN1
100
AcDbLine
 10
-1014.965457535057
 20
1781.473421534048
 30
0.0
 11
-1014.965457535057
 21
1777.173424668286
 31
0.0
  0
LINE
  5
170A1
330
1A
100
AcDbEntity
  8
ZISSEN1
100
AcDbLine
 10
-1024.765410686451
 20
1776.173421369088
 30
0.0
 11
-1024.765410686451
 21
1772.97341823485
 31
0.0
  0
LINE
  5
170A2
330
1A
100
AcDbEntity
  8
ZISSEN1
100
AcDbLine
 10
-1023.865459679535
 20
1771.973427307644
 30
0.0
 11
-1014.965457535057
 21
1771.973427307644
 31
0.0
  0
LINE
  5
170A3
330
1A
100
AcDbEntity
  8
ZISSEN1
100
AcDbLine
 10
-1023.865459679535
 20
1777.173424668286
 30
0.0
 11
-1014.965457535057
 21
1777.173424668286
 31
0.0
  0
LINE
  5
170A4
330
1A
100
AcDbEntity
  8
ZISSEN1
100
AcDbLine
 10
-1012.965450936662
 20
1772.973430606842
 30
0.0
 11
-1024.865450606742
 21
1772.973430606842
 31
0.0
  0
LINE
  5
170A5
330
1A
100
AcDbEntity
  8
ZISSEN1
100
AcDbLine
 10
-1023.865459679535
 20
1771.973427307644
 30
0.0
 11
-1014.965457535057
 21
1771.973427307644
 31
0.0
  0
LINE
  5
170A6
330
1A
100
AcDbEntity
  8
ZISSEN1
100
AcDbLine
 10
-1023.865459679535
 20
1777.173424668286
 30
0.0
 11
-1014.965457535057
 21
1777.173424668286
 31
0.0
  0
LINE
  5
170A7
330
1A
100
AcDbEntity
  8
ZISSEN1
100
AcDbLine
 10
-1024.865450606742
 20
1776.173421369088
 30
0.0
 11
-1012.965450936662
 21
1776.173421369088
 31
0.0
  0
LINE
  5
170A8
330
1A
100
AcDbEntity
  8
ZISSEN1
100
AcDbLine
 10
-1012.965450936662
 20
1772.973430606842
 30
0.0
 11
-1024.865450606742
 21
1772.973430606842
 31
0.0
  0
LINE
  5
170A9
330
1A
100
AcDbEntity
  8
ZISSEN1
100
AcDbLine
 10
-1014.965457535057
 20
1767.673430441882
 30
0.0
 11
-1012.965450936662
 21
1767.673430441882
 31
0.0
  0
LINE
  5
170AA
330
1A
100
AcDbEntity
  8
ZISSEN1
100
AcDbLine
 10
-1014.965457535057
 20
1767.673430441882
 30
0.0
 11
-1012.965450936662
 21
1767.673430441882
 31
0.0
  0
LINE
  5
170AB
330
1A
100
AcDbEntity
  8
ZISSEN1
100
AcDbLine
 10
-1012.965450936662
 20
1763.673429617083
 30
0.0
 11
-1014.965457535057
 21
1763.673429617083
 31
0.0
  0
LINE
  5
170AC
330
1A
100
AcDbEntity
  8
ZISSEN1
100
AcDbLine
 10
-1014.965457535057
 20
1763.673429617083
 30
0.0
 11
-1014.965457535057
 21
1759.373420379329
 31
0.0
  0
LINE
  5
170AD
330
1A
100
AcDbEntity
  8
ZISSEN1
100
AcDbLine
 10
-1012.965450936662
 20
1763.673429617083
 30
0.0
 11
-1014.965457535057
 21
1763.673429617083
 31
0.0
  0
LINE
  5
170AE
330
1A
100
AcDbEntity
  8
ZISSEN1
100
AcDbLine
 10
-1014.965457535057
 20
1763.673429617083
 30
0.0
 11
-1014.965457535057
 21
1759.373420379329
 31
0.0
  0
LINE
  5
170AF
330
1A
100
AcDbEntity
  8
ZISSEN1
100
AcDbLine
 10
-1023.865459679535
 20
1759.373420379329
 30
0.0
 11
-1014.965457535057
 21
1759.373420379329
 31
0.0
  0
LINE
  5
170B0
330
1A
100
AcDbEntity
  8
ZISSEN1
100
AcDbLine
 10
-1023.865459679535
 20
1759.373420379329
 30
0.0
 11
-1014.965457535057
 21
1759.373420379329
 31
0.0
  0
LINE
  5
170B1
330
1A
100
AcDbEntity
  8
ZISSEN1
100
AcDbLine
 10
-1014.965457535057
 20
1771.973427307644
 30
0.0
 11
-1014.965457535057
 21
1767.673430441882
 31
0.0
  0
LINE
  5
170B2
330
1A
100
AcDbEntity
  8
ZISSEN1
100
AcDbLine
 10
-1023.865459679535
 20
1759.373420379329
 30
0.0
 11
-1023.865459679535
 21
1771.973427307644
 31
0.0
  0
LINE
  5
170B3
330
1A
100
AcDbEntity
  8
ZISSEN1
100
AcDbLine
 10
-1014.965457535057
 20
1771.973427307644
 30
0.0
 11
-1014.965457535057
 21
1767.673430441882
 31
0.0
  0
LINE
  5
170B4
330
1A
100
AcDbEntity
  8
ZISSEN1
100
AcDbLine
 10
-1023.865459679535
 20
1759.373420379329
 30
0.0
 11
-1023.865459679535
 21
1771.973427307644
 31
0.0
  0
LINE
  5
170B5
330
1A
100
AcDbEntity
  8
ZISSEN1
100
AcDbLine
 10
-1023.965412995889
 20
1757.84343809602
 30
0.0
 11
-1023.965412995889
 21
1758.373417080131
 31
0.0
  0
LINE
  5
170B6
330
1A
100
AcDbEntity
  8
ZISSEN1
100
AcDbLine
 10
-1024.765410686451
 20
1757.84343809602
 30
0.0
 11
-1024.765410686451
 21
1758.373417080131
 31
0.0
  0
LINE
  5
170B7
330
1A
100
AcDbEntity
  8
ZISSEN1
100
AcDbLine
 10
-1024.865450606742
 20
1758.373429452123
 30
0.0
 11
-1012.965450936662
 21
1758.373429452123
 31
0.0
  0
LINE
  5
170B8
330
1A
100
AcDbEntity
  8
ZISSEN1
100
AcDbLine
 10
-1024.865450606742
 20
1758.373429452123
 30
0.0
 11
-1012.965450936662
 21
1758.373429452123
 31
0.0
  0
LINE
  5
170B9
330
1A
100
AcDbEntity
  8
ZISSEN1
100
AcDbLine
 10
-1024.865450606742
 20
1772.973430606842
 30
0.0
 11
-1024.865450606742
 21
1758.373429452123
 31
0.0
  0
LINE
  5
170BA
330
1A
100
AcDbEntity
  8
ZISSEN1
100
AcDbLine
 10
-1012.965450936662
 20
1758.373429452123
 30
0.0
 11
-1012.965450936662
 21
1772.973430606842
 31
0.0
  0
LINE
  5
170BB
330
1A
100
AcDbEntity
  8
ZISSEN1
100
AcDbLine
 10
-1024.865450606742
 20
1772.973430606842
 30
0.0
 11
-1024.865450606742
 21
1758.373429452123
 31
0.0
  0
LINE
  5
170BC
330
1A
100
AcDbEntity
  8
ZISSEN1
100
AcDbLine
 10
-1012.965450936662
 20
1758.373429452123
 30
0.0
 11
-1012.965450936662
 21
1772.973430606842
 31
0.0
  0
LINE
  5
170BD
330
1A
100
AcDbEntity
  8
ZISSEN1
100
AcDbLine
 10
-1062.242646222768
 20
1790.773410151817
 30
0.0
 11
-1075.092647789887
 21
1790.773410151817
 31
0.0
  0
LINE
  5
170BE
330
1A
100
AcDbEntity
  8
ZISSEN1
100
AcDbLine
 10
-1062.242646222768
 20
1790.773410151817
 30
0.0
 11
-1075.092647789887
 21
1790.773410151817
 31
0.0
  0
LINE
  5
170BF
330
1A
100
AcDbEntity
  8
ZISSEN1
100
AcDbLine
 10
-1060.19264440821
 20
1791.34342489923
 30
0.0
 11
-1082.092652326284
 21
1791.34342489923
 31
0.0
  0
LINE
  5
170C0
330
1A
100
AcDbEntity
  8
ZISSEN1
100
AcDbLine
 10
-1055.792644738129
 20
1795.943417805955
 30
0.0
 11
-1054.792653810923
 21
1794.943414506757
 31
0.0
  0
LINE
  5
170C1
330
1A
100
AcDbEntity
  8
ZISSEN1
100
AcDbLine
 10
-1060.19264440821
 20
1795.343425724029
 30
0.0
 11
-1057.992644573169
 21
1795.343425724029
 31
0.0
  0
LINE
  5
170C2
330
1A
100
AcDbEntity
  8
ZISSEN1
100
AcDbLine
 10
-1057.992644573169
 20
1795.343425724029
 30
0.0
 11
-1056.992653645963
 21
1794.343422424832
 31
0.0
  0
LINE
  5
170C3
330
1A
100
AcDbEntity
  8
ZISSEN1
100
AcDbLine
 10
-1060.19264440821
 20
1795.943417805955
 30
0.0
 11
-1055.792644738129
 21
1795.943417805955
 31
0.0
  0
LINE
  5
170C4
330
1A
100
AcDbEntity
  8
ZISSEN1
100
AcDbLine
 10
-1060.19264440821
 20
1799.443416981155
 30
0.0
 11
-1060.992654470762
 21
1800.243414671717
 31
0.0
  0
LINE
  5
170C5
330
1A
100
AcDbEntity
  8
ZISSEN1
100
AcDbLine
 10
-1060.19264440821
 20
1790.773422523807
 30
0.0
 11
-1060.19264440821
 21
1799.443416981155
 31
0.0
  0
LINE
  5
170C6
330
1A
100
AcDbEntity
  8
ZISSEN1
100
AcDbLine
 10
-1065.592647377487
 20
1790.773410151817
 30
0.0
 11
-1063.092651501484
 21
1790.773410151817
 31
0.0
  0
LINE
  5
170C7
330
1A
100
AcDbEntity
  8
ZISSEN1
100
AcDbLine
 10
-1057.492655295562
 20
1790.773410151817
 30
0.0
 11
-1062.242646222768
 21
1790.773410151817
 31
0.0
  0
LINE
  5
170C8
330
1A
100
AcDbEntity
  8
ZISSEN1
100
AcDbLine
 10
-1024.765410686451
 20
1800.243414671717
 30
0.0
 11
-1023.965412995889
 21
1800.243414671717
 31
0.0
  0
LINE
  5
170C9
330
1A
100
AcDbEntity
  8
ZISSEN1
100
AcDbLine
 10
-1024.765410686451
 20
1800.2434394157
 30
0.0
 11
-1023.965412995889
 21
1800.2434394157
 31
0.0
  0
LINE
  5
170CA
330
1A
100
AcDbEntity
  8
ZISSEN1
100
AcDbLine
 10
-1024.765410686451
 20
1799.443416981155
 30
0.0
 11
-1023.965412995889
 21
1799.443416981155
 31
0.0
  0
LINE
  5
170CB
330
1A
100
AcDbEntity
  8
ZISSEN1
100
AcDbLine
 10
-1024.765410686451
 20
1799.443441725138
 30
0.0
 11
-1023.965412995889
 21
1799.443441725138
 31
0.0
  0
LINE
  5
170CC
330
1A
100
AcDbEntity
  8
ZISSEN1
100
AcDbLine
 10
-1023.965412995889
 20
1799.443441725138
 30
0.0
 11
-1021.965418769485
 21
1799.443441725138
 31
0.0
  0
LINE
  5
170CD
330
1A
100
AcDbEntity
  8
ZISSEN1
100
AcDbLine
 10
-1023.965412995889
 20
1800.243414671717
 30
0.0
 11
-1023.965412995889
 21
1799.443416981155
 31
0.0
  0
LINE
  5
170CE
330
1A
100
AcDbEntity
  8
ZISSEN1
100
AcDbLine
 10
-1023.965412995889
 20
1800.2434394157
 30
0.0
 11
-1023.965412995889
 21
1799.443441725138
 31
0.0
  0
LINE
  5
170CF
330
1A
100
AcDbEntity
  8
ZISSEN1
100
AcDbLine
 10
-1021.965418769485
 20
1800.243414671717
 30
0.0
 11
-1021.965418769485
 21
1799.443416981155
 31
0.0
  0
LINE
  5
170D0
330
1A
100
AcDbEntity
  8
ZISSEN1
100
AcDbLine
 10
-1021.965418769485
 20
1800.2434394157
 30
0.0
 11
-1021.965418769485
 21
1799.443441725138
 31
0.0
  0
LINE
  5
170D1
330
1A
100
AcDbEntity
  8
ZISSEN1
100
AcDbLine
 10
-1023.965412995889
 20
1791.343437271221
 30
0.0
 11
-1023.965412995889
 21
1790.773422523807
 31
0.0
  0
LINE
  5
170D2
330
1A
100
AcDbEntity
  8
ZISSEN1
100
AcDbLine
 10
-1023.865459679535
 20
1789.77341922461
 30
0.0
 11
-1014.965457535057
 21
1789.77341922461
 31
0.0
  0
LINE
  5
170D3
330
1A
100
AcDbEntity
  8
ZISSEN1
100
AcDbLine
 10
-1023.865459679535
 20
1789.77341922461
 30
0.0
 11
-1014.965457535057
 21
1789.77341922461
 31
0.0
  0
LINE
  5
170D4
330
1A
100
AcDbEntity
  8
ZISSEN1
100
AcDbLine
 10
-1012.965450936662
 20
1790.773422523807
 30
0.0
 11
-1024.865450606742
 21
1790.773422523807
 31
0.0
  0
LINE
  5
170D5
330
1A
100
AcDbEntity
  8
ZISSEN1
100
AcDbLine
 10
-1024.765410686451
 20
1800.243414671717
 30
0.0
 11
-1024.765410686451
 21
1790.773422523807
 31
0.0
  0
LINE
  5
170D6
330
1A
100
AcDbEntity
  8
ZISSEN1
100
AcDbLine
 10
-1012.515395015262
 20
1806.743473232475
 30
0.0
 11
-1012.515395015262
 21
1802.743472407676
 31
0.0
  0
LINE
  5
170D7
330
1A
100
AcDbEntity
  8
ZISSEN1
100
AcDbLine
 10
-1024.765410686451
 20
1805.743469933278
 30
0.0
 11
-1024.765410686451
 21
1790.773422523807
 31
0.0
  0
LINE
  5
170D8
330
1A
100
AcDbEntity
  8
ZISSEN1
100
AcDbLine
 10
-1023.765419759244
 20
1806.743473232475
 30
0.0
 11
-1024.765410686451
 21
1805.743469933278
 31
0.0
  0
LINE
  5
170D9
330
1A
100
AcDbEntity
  8
ZISSEN1
100
AcDbLine
 10
-1023.765419759244
 20
1806.743473232475
 30
0.0
 11
-1012.515395015262
 21
1806.743473232475
 31
0.0
  0
LINE
  5
170DA
330
1A
100
AcDbEntity
  8
ZISSEN1
100
AcDbLine
 10
-1019.465410521491
 20
1800.2434394157
 30
0.0
 11
-1018.665412830929
 21
1800.2434394157
 31
0.0
  0
LINE
  5
170DB
330
1A
100
AcDbEntity
  8
ZISSEN1
100
AcDbLine
 10
-1024.965465783051
 20
1833.089464936766
 30
0.0
 11
-1024.965465783051
 21
1850.689463617086
 31
0.0
  0
LINE
  5
170DD
330
1A
100
AcDbEntity
  8
ZISSEN1
100
AcDbLine
 10
-1024.965465783051
 20
1850.689463617086
 30
0.0
 11
-1024.865438234751
 21
1850.689463617086
 31
0.0
  0
CIRCLE
  5
170DF
330
1A
100
AcDbEntity
  8
ZISSEN1
100
AcDbCircle
 10
-1018.865443183547
 20
1851.789457348611
 30
0.0
 40
2.600000033507475
  0
CIRCLE
  5
170E0
330
1A
100
AcDbEntity
  8
ZISSEN1
100
AcDbCircle
 10
-1018.865443183547
 20
1851.789457348611
 30
0.0
 40
1.300000016753737
  0
CIRCLE
  5
170E1
330
1A
100
AcDbEntity
  8
ZISSEN1
100
AcDbCircle
 10
-1018.865443183547
 20
1851.789457348611
 30
0.0
 40
1.500000019331236
  0
LINE
  5
170E2
330
1A
100
AcDbEntity
  8
ZISSEN1
100
AcDbLine
 10
-1019.765468422409
 20
1832.589475659158
 30
0.0
 11
-1019.765468422409
 21
1833.089464936766
 31
0.0
  0
LINE
  5
170E3
330
1A
100
AcDbEntity
  8
ZISSEN1
100
AcDbLine
 10
-1013.065466112971
 20
1832.589475659158
 30
0.0
 11
-1019.765468422409
 21
1832.589475659158
 31
0.0
  0
LINE
  5
170E4
330
1A
100
AcDbEntity
  8
ZISSEN1
100
AcDbLine
 10
-1013.065466112971
 20
1835.789466421405
 30
0.0
 11
-1013.065466112971
 21
1832.589475659158
 31
0.0
  0
LINE
  5
170E5
330
1A
100
AcDbEntity
  8
ZISSEN1
100
AcDbLine
 10
-1013.065466112971
 20
1833.089464936766
 30
0.0
 11
-1024.965465783051
 21
1833.089464936766
 31
0.0
  0
LINE
  5
170E6
330
1A
100
AcDbEntity
  8
ZISSEN1
100
AcDbLine
 10
-1002.465416295087
 20
1795.843415001637
 30
0.0
 11
-1002.465416295087
 21
1780.243435291702
 31
0.0
  0
LINE
  5
170E7
330
1A
100
AcDbEntity
  8
ZISSEN1
100
AcDbLine
 10
-997.2654189344451
 20
1795.843415001637
 30
0.0
 11
-997.2654189344451
 21
1780.243435291702
 31
0.0
  0
LINE
  5
170E8
330
1A
100
AcDbEntity
  8
ZISSEN1
100
AcDbLine
 10
-979.1654186045255
 20
1755.043421435072
 30
0.0
 11
-979.1654186045255
 21
1796.443419455554
 31
0.0
  0
LINE
  5
170E9
330
1A
100
AcDbEntity
  8
ZISSEN1
100
AcDbLine
 10
-999.3654159651672
 20
1795.843415001637
 30
0.0
 11
-999.3654159651672
 21
1780.243435291702
 31
0.0
  0
LINE
  5
170EA
330
1A
100
AcDbEntity
  8
ZISSEN1
100
AcDbLine
 10
-997.7654082120528
 20
1795.843415001637
 30
0.0
 11
-997.7654082120528
 21
1780.243435291702
 31
0.0
  0
LINE
  5
170EB
330
1A
100
AcDbEntity
  8
ZISSEN1
100
AcDbLine
 10
-1009.615412665969
 20
1757.84343809602
 30
0.0
 11
-1009.615412665969
 21
1791.343437271221
 31
0.0
  0
LINE
  5
170EC
330
1A
100
AcDbEntity
  8
ZISSEN1
100
AcDbLine
 10
-1011.365455555539
 20
1791.343437271221
 30
0.0
 11
-1011.365455555539
 21
1757.84343809602
 31
0.0
  0
LINE
  5
170ED
330
1A
100
AcDbEntity
  8
ZISSEN1
100
AcDbLine
 10
-947.465408047093
 20
1782.338421666016
 30
0.0
 11
-947.465408047093
 21
1788.948417739971
 31
0.0
  0
LINE
  5
170EE
330
1A
100
AcDbEntity
  8
ZISSEN1
100
AcDbLine
 10
-959.5654133258092
 20
1755.043421435072
 30
0.0
 11
-959.5654133258092
 21
1796.443419455554
 31
0.0
  0
LINE
  5
170EF
330
1A
100
AcDbEntity
  8
ZISSEN1
100
AcDbLine
 10
-939.9654080470929
 20
1755.043421435072
 30
0.0
 11
-939.9654080470929
 21
1796.443419455554
 31
0.0
  0
LINE
  5
170F0
330
1A
100
AcDbEntity
  8
ZISSEN1
100
AcDbLine
 10
-967.0654133258093
 20
1782.338421666016
 30
0.0
 11
-967.0654133258093
 21
1788.948417739971
 31
0.0
  0
LINE
  5
170F1
330
1A
100
AcDbEntity
  8
ZISSEN1
100
AcDbLine
 10
-986.6654186045254
 20
1782.338421666016
 30
0.0
 11
-986.6654186045254
 21
1788.948417739971
 31
0.0
  0
LINE
  5
170F2
330
1A
100
AcDbEntity
  8
ZISSEN1
100
AcDbLine
 10
-999.3654159651672
 20
1795.843415001637
 30
0.0
 11
-999.3654159651672
 21
1787.239932368613
 31
0.0
  0
LINE
  5
170F3
330
1A
100
AcDbEntity
  8
ZISSEN1
100
AcDbLine
 10
-1007.865406892373
 20
1773.341992222657
 30
0.0
 11
-1007.865406892373
 21
1733.940002724003
 31
0.0
  0
LINE
  5
170F4
330
1A
100
AcDbEntity
  8
ZISSEN1
100
AcDbLine
 10
-987.365413490769
 20
1733.943417393555
 30
0.0
 11
-987.365413490769
 21
1753.543416486276
 31
0.0
  0
LINE
  5
170F5
330
1A
100
AcDbEntity
  8
ZISSEN1
100
AcDbLine
 10
-979.4654146454881
 20
1733.943417393555
 30
0.0
 11
-979.4654146454881
 21
1753.543416486276
 31
0.0
  0
LINE
  5
170F6
330
1A
100
AcDbEntity
  8
ZISSEN1
100
AcDbLine
 10
-986.7654090368523
 20
1734.643418465794
 30
0.0
 11
-986.7654090368523
 21
1752.843421600032
 31
0.0
  0
LINE
  5
170F7
330
1A
100
AcDbEntity
  8
ZISSEN1
100
AcDbLine
 10
-980.2654123360499
 20
1734.643418465794
 30
0.0
 11
-980.2654123360499
 21
1752.843421600032
 31
0.0
  0
LINE
  5
170F8
330
1A
100
AcDbEntity
  8
ZISSEN1
100
AcDbLine
 10
-1007.865406892373
 20
1733.940002724003
 30
0.0
 11
-1006.865415965167
 21
1733.940002724003
 31
0.0
  0
LINE
  5
170F9
330
1A
100
AcDbEntity
  8
ZISSEN1
100
AcDbLine
 10
-1007.865406892373
 20
1733.940002724003
 30
0.0
 11
-1006.865415965167
 21
1733.940002724003
 31
0.0
  0
LINE
  5
170FA
330
1A
100
AcDbEntity
  8
ZISSEN1
100
AcDbLine
 10
-1007.865406892373
 20
1729.940051387168
 30
0.0
 11
-1006.865415965167
 21
1729.940051387168
 31
0.0
  0
LINE
  5
170FB
330
1A
100
AcDbEntity
  8
ZISSEN1
100
AcDbLine
 10
-979.4654146454881
 20
1733.943417393555
 30
0.0
 11
-979.1654186045255
 21
1733.943417393555
 31
0.0
  0
LINE
  5
170FC
330
1A
100
AcDbEntity
  8
ZISSEN1
100
AcDbLine
 10
-979.4654146454881
 20
1732.543415249077
 30
0.0
 11
-979.1654186045255
 21
1732.543415249077
 31
0.0
  0
LINE
  5
170FD
330
1A
100
AcDbEntity
  8
ZISSEN1
100
AcDbLine
 10
-986.7654090368523
 20
1734.643418465794
 30
0.0
 11
-980.2654123360499
 21
1734.643418465794
 31
0.0
  0
LINE
  5
170FE
330
1A
100
AcDbEntity
  8
ZISSEN1
100
AcDbLine
 10
-986.7654090368523
 20
1731.843414176838
 30
0.0
 11
-980.2654123360499
 21
1731.843414176838
 31
0.0
  0
LINE
  5
170FF
330
1A
100
AcDbEntity
  8
ZISSEN1
100
AcDbLine
 10
-986.7654090368523
 20
1713.643417228595
 30
0.0
 11
-980.2654123360499
 21
1713.643417228595
 31
0.0
  0
LINE
  5
17100
330
1A
100
AcDbEntity
  8
ZISSEN1
100
AcDbLine
 10
-986.7654090368523
 20
1713.643417228595
 30
0.0
 11
-986.7654090368523
 21
1731.843414176838
 31
0.0
  0
LINE
  5
17101
330
1A
100
AcDbEntity
  8
ZISSEN1
100
AcDbLine
 10
-980.2654123360499
 20
1713.643417228595
 30
0.0
 11
-980.2654123360499
 21
1731.843414176838
 31
0.0
  0
LINE
  5
17102
330
1A
100
AcDbEntity
  8
ZISSEN1
100
AcDbLine
 10
-987.365413490769
 20
1733.943417393555
 30
0.0
 11
-979.4654146454881
 21
1733.943417393555
 31
0.0
  0
LINE
  5
17103
330
1A
100
AcDbEntity
  8
ZISSEN1
100
AcDbLine
 10
-987.365413490769
 20
1732.543415249077
 30
0.0
 11
-979.4654146454881
 21
1732.543415249077
 31
0.0
  0
LINE
  5
17104
330
1A
100
AcDbEntity
  8
ZISSEN1
100
AcDbLine
 10
-1002.465416295087
 20
1780.243435291702
 30
0.0
 11
-997.2654189344451
 21
1780.243435291702
 31
0.0
  0
LINE
  5
17105
330
1A
100
AcDbEntity
  8
ZISSEN1
100
AcDbLine
 10
-1001.295397093756
 20
1772.787083676415
 30
0.0
 11
-1001.895389175682
 21
1772.787083676415
 31
0.0
  0
LINE
  5
17106
330
1A
100
AcDbEntity
  8
ZISSEN1
100
AcDbLine
 10
-1006.14537845329
 20
1772.787083676415
 30
0.0
 11
-1006.745382907207
 21
1772.787083676415
 31
0.0
  0
LINE
  5
17107
330
1A
100
AcDbEntity
  8
ZISSEN1
100
AcDbLine
 10
-1007.865406892373
 20
1773.341992222657
 30
0.0
 11
-999.3654159651672
 21
1773.341992222657
 31
0.0
  0
LINE
  5
17108
330
1A
100
AcDbEntity
  8
ZISSEN1
100
AcDbLine
 10
-1008.365408541972
 20
1777.327691025708
 30
0.0
 11
-998.8654143155685
 21
1777.327691025708
 31
0.0
  0
LINE
  5
17109
330
1A
100
AcDbEntity
  8
ZISSEN1
100
AcDbLine
 10
-1001.620384556805
 20
1765.702992902292
 30
0.0
 11
-1000.665415305327
 21
1765.702992902292
 31
0.0
  0
LINE
  5
1710A
330
1A
100
AcDbEntity
  8
ZISSEN1
100
AcDbLine
 10
-1001.675402801368
 20
1769.007106341903
 30
0.0
 11
-1001.675402801368
 21
1768.737124751426
 31
0.0
  0
LINE
  5
1710B
330
1A
100
AcDbEntity
  8
ZISSEN1
100
AcDbLine
 10
-1001.895389175682
 20
1769.007106341903
 30
0.0
 11
-1001.675402801368
 21
1769.007106341903
 31
0.0
  0
LINE
  5
1710C
330
1A
100
AcDbEntity
  8
ZISSEN1
100
AcDbLine
 10
-1001.295397093756
 20
1770.207102877746
 30
0.0
 11
-1001.895389175682
 21
1770.207102877746
 31
0.0
  0
LINE
  5
1710D
330
1A
100
AcDbEntity
  8
ZISSEN1
100
AcDbLine
 10
-1002.520385051685
 20
1763.737108255438
 30
0.0
 11
-1002.520385051685
 21
1764.137119472709
 31
0.0
  0
LINE
  5
1710E
330
1A
100
AcDbEntity
  8
ZISSEN1
100
AcDbLine
 10
-1002.495393629599
 20
1764.137131844701
 30
0.0
 11
-1002.495393629599
 21
1763.357127291808
 31
0.0
  0
LINE
  5
1710F
330
1A
100
AcDbEntity
  8
ZISSEN1
100
AcDbLine
 10
-999.3654159651672
 20
1763.699880934122
 30
0.0
 11
-1000.665415305327
 21
1763.699880934122
 31
0.0
  0
LINE
  5
17110
330
1A
100
AcDbEntity
  8
ZISSEN1
100
AcDbLine
 10
-1001.620384556805
 20
1764.137119472709
 30
0.0
 11
-1001.620384556805
 21
1768.737087635452
 31
0.0
  0
LINE
  5
17111
330
1A
100
AcDbEntity
  8
ZISSEN1
100
AcDbLine
 10
-1006.365377199595
 20
1769.007106341903
 30
0.0
 11
-1006.365377199595
 21
1768.737124751426
 31
0.0
  0
LINE
  5
17112
330
1A
100
AcDbEntity
  8
ZISSEN1
100
AcDbLine
 10
-1006.365377199595
 20
1769.007106341903
 30
0.0
 11
-1006.14537845329
 21
1769.007106341903
 31
0.0
  0
LINE
  5
17113
330
1A
100
AcDbEntity
  8
ZISSEN1
100
AcDbLine
 10
-1006.14537845329
 20
1770.207102877746
 30
0.0
 11
-1006.745382907207
 21
1770.207102877746
 31
0.0
  0
LINE
  5
17114
330
1A
100
AcDbEntity
  8
ZISSEN1
100
AcDbLine
 10
-1006.420370700175
 20
1765.712197663694
 30
0.0
 11
-1007.865406892373
 21
1765.712197663694
 31
0.0
  0
LINE
  5
17115
330
1A
100
AcDbEntity
  8
ZISSEN1
100
AcDbLine
 10
-1005.520382577287
 20
1764.137119472709
 30
0.0
 11
-1005.520382577287
 21
1763.737108255438
 31
0.0
  0
LINE
  5
17116
330
1A
100
AcDbEntity
  8
ZISSEN1
100
AcDbLine
 10
-1005.545386371364
 20
1764.137131844701
 30
0.0
 11
-1005.545386371364
 21
1763.357127291808
 31
0.0
  0
LINE
  5
17117
330
1A
100
AcDbEntity
  8
ZISSEN1
100
AcDbLine
 10
-1006.420370700175
 20
1768.737087635452
 30
0.0
 11
-1006.420370700175
 21
1764.137119472709
 31
0.0
  0
LINE
  5
17118
330
1A
100
AcDbEntity
  8
ZISSEN1
100
AcDbLine
 10
-1001.620384556805
 20
1767.737084336254
 30
0.0
 11
-1006.420370700175
 21
1767.737084336254
 31
0.0
  0
LINE
  5
17119
330
1A
100
AcDbEntity
  8
ZISSEN1
100
AcDbLine
 10
-1001.620384556805
 20
1767.110999725032
 30
0.0
 11
-1006.420370700175
 21
1767.110999725032
 31
0.0
  0
LINE
  5
1711A
330
1A
100
AcDbEntity
  8
ZISSEN1
100
AcDbLine
 10
-1001.620384556805
 20
1766.484915113809
 30
0.0
 11
-1006.420370700175
 21
1766.484915113809
 31
0.0
  0
LINE
  5
1711B
330
1A
100
AcDbEntity
  8
ZISSEN1
100
AcDbLine
 10
-1001.620384556805
 20
1765.858830502587
 30
0.0
 11
-1006.420370700175
 21
1765.858830502587
 31
0.0
  0
LINE
  5
1711C
330
1A
100
AcDbEntity
  8
ZISSEN1
100
AcDbLine
 10
-1001.620384556805
 20
1765.232758263356
 30
0.0
 11
-1006.420370700175
 21
1765.232758263356
 31
0.0
  0
LINE
  5
1711D
330
1A
100
AcDbEntity
  8
ZISSEN1
100
AcDbLine
 10
-1001.620384556805
 20
1764.606686024125
 30
0.0
 11
-1006.420370700175
 21
1764.606686024125
 31
0.0
  0
LINE
  5
1711E
330
1A
100
AcDbEntity
  8
ZISSEN1
100
AcDbLine
 10
-1002.520385051685
 20
1763.737108255438
 30
0.0
 11
-1005.520382577287
 21
1763.737108255438
 31
0.0
  0
LINE
  5
1711F
330
1A
100
AcDbEntity
  8
ZISSEN1
100
AcDbLine
 10
-1001.620384556805
 20
1764.137119472709
 30
0.0
 11
-1006.420370700175
 21
1764.137119472709
 31
0.0
  0
LINE
  5
17120
330
1A
100
AcDbEntity
  8
ZISSEN1
100
AcDbLine
 10
-1001.620384556805
 20
1768.737087635452
 30
0.0
 11
-1006.420370700175
 21
1768.737087635452
 31
0.0
  0
LINE
  5
17121
330
1A
100
AcDbEntity
  8
ZISSEN1
100
AcDbLine
 10
-1002.495393629599
 20
1763.357127291808
 30
0.0
 11
-1005.545386371364
 21
1763.357127291808
 31
0.0
  0
LINE
  5
17122
330
1A
100
AcDbEntity
  8
ZISSEN1
100
AcDbLine
 10
-1006.14537845329
 20
1773.341992222657
 30
0.0
 11
-1006.14537845329
 21
1768.737124751426
 31
0.0
  0
LINE
  5
17123
330
1A
100
AcDbEntity
  8
ZISSEN1
100
AcDbLine
 10
-1006.745382907207
 20
1772.787083676415
 30
0.0
 11
-1006.745382907207
 21
1770.207102877746
 31
0.0
  0
LINE
  5
17124
330
1A
100
AcDbEntity
  8
ZISSEN1
100
AcDbLine
 10
-1001.895389175682
 20
1773.341992222657
 30
0.0
 11
-1001.895389175682
 21
1768.737124751426
 31
0.0
  0
LINE
  5
17125
330
1A
100
AcDbEntity
  8
ZISSEN1
100
AcDbLine
 10
-1001.295397093756
 20
1772.787083676415
 30
0.0
 11
-1001.295397093756
 21
1770.207102877746
 31
0.0
  0
LINE
  5
17126
330
1A
100
AcDbEntity
  8
ZISSEN1
100
AcDbLine
 10
-1008.365408541972
 20
1777.327691025708
 30
0.0
 11
-995.8654167899666
 21
1777.327691025708
 31
0.0
  0
LINE
  5
17127
330
1A
100
AcDbEntity
  8
ZISSEN1
100
AcDbLine
 10
-999.3654159651672
 20
1783.668423084671
 30
0.0
 11
-999.3654159651672
 21
1782.418431332665
 31
0.0
  0
LINE
  5
17128
330
1A
100
AcDbEntity
  8
ZISSEN1
100
AcDbLine
 10
-999.3654159651672
 20
1783.668423084671
 30
0.0
 11
-999.3654159651672
 21
1782.418431332665
 31
0.0
  0
LINE
  5
17129
330
1A
100
AcDbEntity
  8
ZISSEN1
100
AcDbLine
 10
-999.3654159651672
 20
1785.668429683066
 30
0.0
 11
-999.3654159651672
 21
1784.418425559069
 31
0.0
  0
LINE
  5
1712A
330
1A
100
AcDbEntity
  8
ZISSEN1
100
AcDbLine
 10
-999.3654159651672
 20
1785.668429683066
 30
0.0
 11
-999.3654159651672
 21
1784.418425559069
 31
0.0
  0
LINE
  5
1712B
330
1A
100
AcDbEntity
  8
ZISSEN1
100
AcDbLine
 10
-999.3654159651672
 20
1787.668423909471
 30
0.0
 11
-999.3654159651672
 21
1786.418432157465
 31
0.0
  0
LINE
  5
1712C
330
1A
100
AcDbEntity
  8
ZISSEN1
100
AcDbLine
 10
-999.3654159651672
 20
1787.668423909471
 30
0.0
 11
-999.3654159651672
 21
1786.418432157465
 31
0.0
  0
LINE
  5
1712D
330
1A
100
AcDbEntity
  8
ZISSEN1
100
AcDbLine
 10
-1000.465409696691
 20
1783.668423084671
 30
0.0
 11
-1000.465409696691
 21
1782.418431332665
 31
0.0
  0
LINE
  5
1712E
330
1A
100
AcDbEntity
  8
ZISSEN1
100
AcDbLine
 10
-1000.465409696691
 20
1783.668423084671
 30
0.0
 11
-1000.465409696691
 21
1782.418431332665
 31
0.0
  0
LINE
  5
1712F
330
1A
100
AcDbEntity
  8
ZISSEN1
100
AcDbLine
 10
-1000.465409696691
 20
1785.668429683066
 30
0.0
 11
-1000.465409696691
 21
1784.418425559069
 31
0.0
  0
LINE
  5
17130
330
1A
100
AcDbEntity
  8
ZISSEN1
100
AcDbLine
 10
-1000.465409696691
 20
1785.668429683066
 30
0.0
 11
-1000.465409696691
 21
1784.418425559069
 31
0.0
  0
LINE
  5
17131
330
1A
100
AcDbEntity
  8
ZISSEN1
100
AcDbLine
 10
-1000.465409696691
 20
1787.668423909471
 30
0.0
 11
-1000.465409696691
 21
1786.418432157465
 31
0.0
  0
LINE
  5
17132
330
1A
100
AcDbEntity
  8
ZISSEN1
100
AcDbLine
 10
-1000.465409696691
 20
1787.668423909471
 30
0.0
 11
-1000.465409696691
 21
1786.418432157465
 31
0.0
  0
LINE
  5
17133
330
1A
100
AcDbEntity
  8
ZISSEN1
100
AcDbLine
 10
-999.3654159651672
 20
1783.668423084671
 30
0.0
 11
-1000.465409696691
 21
1783.668423084671
 31
0.0
  0
LINE
  5
17134
330
1A
100
AcDbEntity
  8
ZISSEN1
100
AcDbLine
 10
-1000.465409696691
 20
1782.418431332665
 30
0.0
 11
-999.3654159651672
 21
1782.418431332665
 31
0.0
  0
LINE
  5
17135
330
1A
100
AcDbEntity
  8
ZISSEN1
100
AcDbLine
 10
-999.3654159651672
 20
1783.668423084671
 30
0.0
 11
-1000.465409696691
 21
1783.668423084671
 31
0.0
  0
LINE
  5
17136
330
1A
100
AcDbEntity
  8
ZISSEN1
100
AcDbLine
 10
-1000.465409696691
 20
1782.418431332665
 30
0.0
 11
-999.3654159651672
 21
1782.418431332665
 31
0.0
  0
LINE
  5
17137
330
1A
100
AcDbEntity
  8
ZISSEN1
100
AcDbLine
 10
-999.3654159651672
 20
1785.668429683066
 30
0.0
 11
-1000.465409696691
 21
1785.668429683066
 31
0.0
  0
LINE
  5
17138
330
1A
100
AcDbEntity
  8
ZISSEN1
100
AcDbLine
 10
-1000.465409696691
 20
1784.418425559069
 30
0.0
 11
-999.3654159651672
 21
1784.418425559069
 31
0.0
  0
LINE
  5
17139
330
1A
100
AcDbEntity
  8
ZISSEN1
100
AcDbLine
 10
-999.3654159651672
 20
1785.668429683066
 30
0.0
 11
-1000.465409696691
 21
1785.668429683066
 31
0.0
  0
LINE
  5
1713A
330
1A
100
AcDbEntity
  8
ZISSEN1
100
AcDbLine
 10
-1000.465409696691
 20
1784.418425559069
 30
0.0
 11
-999.3654159651672
 21
1784.418425559069
 31
0.0
  0
LINE
  5
1713B
330
1A
100
AcDbEntity
  8
ZISSEN1
100
AcDbLine
 10
-999.3654159651672
 20
1787.668423909471
 30
0.0
 11
-1000.465409696691
 21
1787.668423909471
 31
0.0
  0
LINE
  5
1713C
330
1A
100
AcDbEntity
  8
ZISSEN1
100
AcDbLine
 10
-1000.465409696691
 20
1786.418432157465
 30
0.0
 11
-999.3654159651672
 21
1786.418432157465
 31
0.0
  0
LINE
  5
1713D
330
1A
100
AcDbEntity
  8
ZISSEN1
100
AcDbLine
 10
-999.3654159651672
 20
1787.668423909471
 30
0.0
 11
-1000.465409696691
 21
1787.668423909471
 31
0.0
  0
LINE
  5
1713E
330
1A
100
AcDbEntity
  8
ZISSEN1
100
AcDbLine
 10
-1000.465409696691
 20
1786.418432157465
 30
0.0
 11
-999.3654159651672
 21
1786.418432157465
 31
0.0
  0
LINE
  5
1713F
330
1A
100
AcDbEntity
  8
ZISSEN1
100
AcDbLine
 10
-982.0654133258091
 20
1775.448410316776
 30
0.0
 11
-982.0654133258091
 21
1774.948421039169
 31
0.0
  0
LINE
  5
17140
330
1A
100
AcDbEntity
  8
ZISSEN1
100
AcDbLine
 10
-981.5654116762104
 20
1774.948421039169
 30
0.0
 11
-982.0654133258091
 21
1774.948421039169
 31
0.0
  0
LINE
  5
17141
330
1A
100
AcDbEntity
  8
ZISSEN1
100
AcDbLine
 10
-982.0654133258091
 20
1775.448410316776
 30
0.0
 11
-986.6654186045254
 21
1775.448410316776
 31
0.0
  0
LINE
  5
17142
330
1A
100
AcDbEntity
  8
ZISSEN1
100
AcDbLine
 10
-986.6654186045254
 20
1774.838421666016
 30
0.0
 11
-986.6654186045254
 21
1781.448417739971
 31
0.0
  0
LINE
  5
17143
330
1A
100
AcDbEntity
  8
ZISSEN1
100
AcDbLine
 10
-986.6654186045254
 20
1774.838421666016
 30
0.0
 11
-989.0654116762103
 21
1774.838421666016
 31
0.0
  0
LINE
  5
17144
330
1A
100
AcDbEntity
  8
ZISSEN1
100
AcDbLine
 10
-986.6654186045254
 20
1781.448417739971
 30
0.0
 11
-989.0654116762103
 21
1781.448417739971
 31
0.0
  0
LINE
  5
17145
330
1A
100
AcDbEntity
  8
ZISSEN1
100
AcDbLine
 10
-981.5654116762104
 20
1768.548414770693
 30
0.0
 11
-982.0654133258091
 21
1768.548414770693
 31
0.0
  0
LINE
  5
17146
330
1A
100
AcDbEntity
  8
ZISSEN1
100
AcDbLine
 10
-982.0654133258091
 20
1768.048413121094
 30
0.0
 11
-982.0654133258091
 21
1768.548414770693
 31
0.0
  0
LINE
  5
17147
330
1A
100
AcDbEntity
  8
ZISSEN1
100
AcDbLine
 10
-982.0654133258091
 20
1768.048413121094
 30
0.0
 11
-986.6654186045254
 21
1768.048413121094
 31
0.0
  0
LINE
  5
17148
330
1A
100
AcDbEntity
  8
ZISSEN1
100
AcDbLine
 10
-986.6654186045254
 20
1762.043419785474
 30
0.0
 11
-986.6654186045254
 21
1768.653415859428
 31
0.0
  0
LINE
  5
17149
330
1A
100
AcDbEntity
  8
ZISSEN1
100
AcDbLine
 10
-986.6654186045254
 20
1762.043419785474
 30
0.0
 11
-989.0654116762103
 21
1762.043419785474
 31
0.0
  0
LINE
  5
1714A
330
1A
100
AcDbEntity
  8
ZISSEN1
100
AcDbLine
 10
-986.6654186045254
 20
1768.653415859428
 30
0.0
 11
-989.0654116762103
 21
1768.653415859428
 31
0.0
  0
LINE
  5
1714B
330
1A
100
AcDbEntity
  8
ZISSEN1
100
AcDbLine
 10
-986.6654186045254
 20
1761.153415859428
 30
0.0
 11
-989.0654116762103
 21
1761.153415859428
 31
0.0
  0
LINE
  5
1714C
330
1A
100
AcDbEntity
  8
ZISSEN1
100
AcDbLine
 10
-981.5654116762104
 20
1768.548414770693
 30
0.0
 11
-981.5654116762104
 21
1774.948421039169
 31
0.0
  0
CIRCLE
  5
1714D
330
1A
100
AcDbEntity
  8
ZISSEN1
100
AcDbCircle
 10
-985.1654136557289
 20
1771.748417904931
 30
0.0
 40
1.600000020619985
  0
LINE
  5
1714E
330
1A
100
AcDbEntity
  8
ZISSEN1
100
AcDbLine
 10
-977.565410851411
 20
1754.543419785473
 30
0.0
 11
-979.1654186045255
 21
1754.543419785473
 31
0.0
  0
LINE
  5
1714F
330
1A
100
AcDbEntity
  8
ZISSEN1
100
AcDbLine
 10
-979.1654186045255
 20
1755.043421435072
 30
0.0
 11
-977.0654092018121
 21
1755.043421435072
 31
0.0
  0
LINE
  5
17150
330
1A
100
AcDbEntity
  8
ZISSEN1
100
AcDbLine
 10
-979.4654146454881
 20
1753.543416486276
 30
0.0
 11
-979.1654186045255
 21
1753.543416486276
 31
0.0
  0
LINE
  5
17151
330
1A
100
AcDbEntity
  8
ZISSEN1
100
AcDbLine
 10
-986.7654090368523
 20
1752.843421600032
 30
0.0
 11
-980.2654123360499
 21
1752.843421600032
 31
0.0
  0
LINE
  5
17152
330
1A
100
AcDbEntity
  8
ZISSEN1
100
AcDbLine
 10
-990.7654098616516
 20
1753.543416486276
 30
0.0
 11
-989.1654144805285
 21
1753.543416486276
 31
0.0
  0
LINE
  5
17153
330
1A
100
AcDbEntity
  8
ZISSEN1
100
AcDbLine
 10
-986.6654186045254
 20
1754.543419785473
 30
0.0
 11
-989.0654116762103
 21
1754.543419785473
 31
0.0
  0
LINE
  5
17154
330
1A
100
AcDbEntity
  8
ZISSEN1
100
AcDbLine
 10
-987.365413490769
 20
1753.543416486276
 30
0.0
 11
-979.4654146454881
 21
1753.543416486276
 31
0.0
  0
LINE
  5
17155
330
1A
100
AcDbEntity
  8
ZISSEN1
100
AcDbLine
 10
-986.6654186045254
 20
1754.543419785473
 30
0.0
 11
-986.6654186045254
 21
1761.153415859428
 31
0.0
  0
LINE
  5
17156
330
1A
100
AcDbEntity
  8
ZISSEN1
100
AcDbLine
 10
-986.6654186045254
 20
1782.338421666016
 30
0.0
 11
-989.0654116762103
 21
1782.338421666016
 31
0.0
  0
LINE
  5
17157
330
1A
100
AcDbEntity
  8
ZISSEN1
100
AcDbLine
 10
-967.7654082120529
 20
1733.943417393555
 30
0.0
 11
-967.7654082120529
 21
1753.543416486276
 31
0.0
  0
LINE
  5
17158
330
1A
100
AcDbEntity
  8
ZISSEN1
100
AcDbLine
 10
-967.1654161301271
 20
1734.643418465794
 30
0.0
 11
-967.1654161301271
 21
1752.843421600032
 31
0.0
  0
LINE
  5
17159
330
1A
100
AcDbEntity
  8
ZISSEN1
100
AcDbLine
 10
-959.865409366772
 20
1733.943417393555
 30
0.0
 11
-959.865409366772
 21
1753.543416486276
 31
0.0
  0
LINE
  5
1715A
330
1A
100
AcDbEntity
  8
ZISSEN1
100
AcDbLine
 10
-960.6654070573338
 20
1734.643418465794
 30
0.0
 11
-960.6654070573338
 21
1752.843421600032
 31
0.0
  0
LINE
  5
1715B
330
1A
100
AcDbEntity
  8
ZISSEN1
100
AcDbLine
 10
-948.1654153053277
 20
1733.943417393555
 30
0.0
 11
-948.1654153053277
 21
1753.543416486276
 31
0.0
  0
LINE
  5
1715C
330
1A
100
AcDbEntity
  8
ZISSEN1
100
AcDbLine
 10
-940.2654040880557
 20
1733.943417393555
 30
0.0
 11
-940.2654040880557
 21
1753.543416486276
 31
0.0
  0
LINE
  5
1715D
330
1A
100
AcDbEntity
  8
ZISSEN1
100
AcDbLine
 10
-947.565423223402
 20
1734.643418465794
 30
0.0
 11
-947.565423223402
 21
1752.843421600032
 31
0.0
  0
LINE
  5
1715E
330
1A
100
AcDbEntity
  8
ZISSEN1
100
AcDbLine
 10
-941.0654017786175
 20
1734.643418465794
 30
0.0
 11
-941.0654017786175
 21
1752.843421600032
 31
0.0
  0
LINE
  5
1715F
330
1A
100
AcDbEntity
  8
ZISSEN1
100
AcDbLine
 10
-967.7654082120529
 20
1733.943417393555
 30
0.0
 11
-959.865409366772
 21
1733.943417393555
 31
0.0
  0
LINE
  5
17160
330
1A
100
AcDbEntity
  8
ZISSEN1
100
AcDbLine
 10
-967.1654161301271
 20
1734.643418465794
 30
0.0
 11
-960.6654070573338
 21
1734.643418465794
 31
0.0
  0
LINE
  5
17161
330
1A
100
AcDbEntity
  8
ZISSEN1
100
AcDbLine
 10
-967.7654082120529
 20
1732.543415249077
 30
0.0
 11
-959.865409366772
 21
1732.543415249077
 31
0.0
  0
LINE
  5
17162
330
1A
100
AcDbEntity
  8
ZISSEN1
100
AcDbLine
 10
-967.1654161301271
 20
1713.643417228595
 30
0.0
 11
-960.6654070573338
 21
1713.643417228595
 31
0.0
  0
LINE
  5
17163
330
1A
100
AcDbEntity
  8
ZISSEN1
100
AcDbLine
 10
-967.1654161301271
 20
1731.843414176838
 30
0.0
 11
-960.6654070573338
 21
1731.843414176838
 31
0.0
  0
LINE
  5
17164
330
1A
100
AcDbEntity
  8
ZISSEN1
100
AcDbLine
 10
-967.1654161301271
 20
1713.643417228595
 30
0.0
 11
-967.1654161301271
 21
1731.843414176838
 31
0.0
  0
LINE
  5
17165
330
1A
100
AcDbEntity
  8
ZISSEN1
100
AcDbLine
 10
-959.865409366772
 20
1733.943417393555
 30
0.0
 11
-959.5654133258092
 21
1733.943417393555
 31
0.0
  0
LINE
  5
17166
330
1A
100
AcDbEntity
  8
ZISSEN1
100
AcDbLine
 10
-959.865409366772
 20
1732.543415249077
 30
0.0
 11
-959.5654133258092
 21
1732.543415249077
 31
0.0
  0
LINE
  5
17167
330
1A
100
AcDbEntity
  8
ZISSEN1
100
AcDbLine
 10
-960.6654070573338
 20
1713.643417228595
 30
0.0
 11
-960.6654070573338
 21
1731.843414176838
 31
0.0
  0
LINE
  5
17168
330
1A
100
AcDbEntity
  8
ZISSEN1
100
AcDbLine
 10
-940.2654040880557
 20
1733.943417393555
 30
0.0
 11
-939.9654080470929
 21
1733.943417393555
 31
0.0
  0
LINE
  5
17169
330
1A
100
AcDbEntity
  8
ZISSEN1
100
AcDbLine
 10
-940.2654040880557
 20
1732.543415249077
 30
0.0
 11
-939.9654080470929
 21
1732.543415249077
 31
0.0
  0
LINE
  5
1716A
330
1A
100
AcDbEntity
  8
ZISSEN1
100
AcDbLine
 10
-941.0654017786175
 20
1713.643417228595
 30
0.0
 11
-941.0654017786175
 21
1731.843414176838
 31
0.0
  0
LINE
  5
1716B
330
1A
100
AcDbEntity
  8
ZISSEN1
100
AcDbLine
 10
-947.565423223402
 20
1713.643417228595
 30
0.0
 11
-947.565423223402
 21
1731.843414176838
 31
0.0
  0
LINE
  5
1716C
330
1A
100
AcDbEntity
  8
ZISSEN1
100
AcDbLine
 10
-948.1654153053277
 20
1733.943417393555
 30
0.0
 11
-940.2654040880557
 21
1733.943417393555
 31
0.0
  0
LINE
  5
1716D
330
1A
100
AcDbEntity
  8
ZISSEN1
100
AcDbLine
 10
-947.565423223402
 20
1734.643418465794
 30
0.0
 11
-941.0654017786175
 21
1734.643418465794
 31
0.0
  0
LINE
  5
1716E
330
1A
100
AcDbEntity
  8
ZISSEN1
100
AcDbLine
 10
-948.1654153053277
 20
1732.543415249077
 30
0.0
 11
-940.2654040880557
 21
1732.543415249077
 31
0.0
  0
LINE
  5
1716F
330
1A
100
AcDbEntity
  8
ZISSEN1
100
AcDbLine
 10
-947.565423223402
 20
1713.643417228595
 30
0.0
 11
-941.0654017786175
 21
1713.643417228595
 31
0.0
  0
LINE
  5
17170
330
1A
100
AcDbEntity
  8
ZISSEN1
100
AcDbLine
 10
-947.565423223402
 20
1731.843414176838
 30
0.0
 11
-941.0654017786175
 21
1731.843414176838
 31
0.0
  0
LINE
  5
17171
330
1A
100
AcDbEntity
  8
ZISSEN1
100
AcDbLine
 10
-962.465408047093
 20
1775.448410316776
 30
0.0
 11
-967.0654133258093
 21
1775.448410316776
 31
0.0
  0
LINE
  5
17172
330
1A
100
AcDbEntity
  8
ZISSEN1
100
AcDbLine
 10
-962.465408047093
 20
1768.048413121094
 30
0.0
 11
-967.0654133258093
 21
1768.048413121094
 31
0.0
  0
LINE
  5
17173
330
1A
100
AcDbEntity
  8
ZISSEN1
100
AcDbLine
 10
-967.7654082120529
 20
1753.543416486276
 30
0.0
 11
-959.865409366772
 21
1753.543416486276
 31
0.0
  0
LINE
  5
17174
330
1A
100
AcDbEntity
  8
ZISSEN1
100
AcDbLine
 10
-967.1654161301271
 20
1752.843421600032
 30
0.0
 11
-960.6654070573338
 21
1752.843421600032
 31
0.0
  0
LINE
  5
17175
330
1A
100
AcDbEntity
  8
ZISSEN1
100
AcDbLine
 10
-967.0654133258093
 20
1781.448417739971
 30
0.0
 11
-969.4654187694853
 21
1781.448417739971
 31
0.0
  0
LINE
  5
17176
330
1A
100
AcDbEntity
  8
ZISSEN1
100
AcDbLine
 10
-967.0654133258093
 20
1774.838421666016
 30
0.0
 11
-969.4654187694853
 21
1774.838421666016
 31
0.0
  0
LINE
  5
17177
330
1A
100
AcDbEntity
  8
ZISSEN1
100
AcDbLine
 10
-967.0654133258093
 20
1774.838421666016
 30
0.0
 11
-967.0654133258093
 21
1781.448417739971
 31
0.0
  0
LINE
  5
17178
330
1A
100
AcDbEntity
  8
ZISSEN1
100
AcDbLine
 10
-967.0654133258093
 20
1768.653415859428
 30
0.0
 11
-969.4654187694853
 21
1768.653415859428
 31
0.0
  0
LINE
  5
17179
330
1A
100
AcDbEntity
  8
ZISSEN1
100
AcDbLine
 10
-967.0654133258093
 20
1762.043419785474
 30
0.0
 11
-969.4654187694853
 21
1762.043419785474
 31
0.0
  0
LINE
  5
1717A
330
1A
100
AcDbEntity
  8
ZISSEN1
100
AcDbLine
 10
-967.0654133258093
 20
1761.153415859428
 30
0.0
 11
-969.4654187694853
 21
1761.153415859428
 31
0.0
  0
LINE
  5
1717B
330
1A
100
AcDbEntity
  8
ZISSEN1
100
AcDbLine
 10
-967.0654133258093
 20
1762.043419785474
 30
0.0
 11
-967.0654133258093
 21
1768.653415859428
 31
0.0
  0
LINE
  5
1717C
330
1A
100
AcDbEntity
  8
ZISSEN1
100
AcDbLine
 10
-969.5654092018122
 20
1768.548414770693
 30
0.0
 11
-969.5654092018122
 21
1774.948421039169
 31
0.0
  0
CIRCLE
  5
1717D
330
1A
100
AcDbEntity
  8
ZISSEN1
100
AcDbCircle
 10
-965.5654083770128
 20
1771.748417904931
 30
0.0
 40
1.600000020619985
  0
LINE
  5
1717E
330
1A
100
AcDbEntity
  8
ZISSEN1
100
AcDbLine
 10
-971.1654169549266
 20
1753.543416486276
 30
0.0
 11
-969.5654092018122
 21
1753.543416486276
 31
0.0
  0
LINE
  5
1717F
330
1A
100
AcDbEntity
  8
ZISSEN1
100
AcDbLine
 10
-971.1654169549266
 20
1754.543419785473
 30
0.0
 11
-969.5654092018122
 21
1754.543419785473
 31
0.0
  0
LINE
  5
17180
330
1A
100
AcDbEntity
  8
ZISSEN1
100
AcDbLine
 10
-967.0654133258093
 20
1754.543419785473
 30
0.0
 11
-969.4654187694853
 21
1754.543419785473
 31
0.0
  0
LINE
  5
17181
330
1A
100
AcDbEntity
  8
ZISSEN1
100
AcDbLine
 10
-967.0654133258093
 20
1754.543419785473
 30
0.0
 11
-967.0654133258093
 21
1761.153415859428
 31
0.0
  0
LINE
  5
17182
330
1A
100
AcDbEntity
  8
ZISSEN1
100
AcDbLine
 10
-962.465408047093
 20
1775.448410316776
 30
0.0
 11
-962.465408047093
 21
1774.948421039169
 31
0.0
  0
LINE
  5
17183
330
1A
100
AcDbEntity
  8
ZISSEN1
100
AcDbLine
 10
-961.9654063974943
 20
1774.948421039169
 30
0.0
 11
-962.465408047093
 21
1774.948421039169
 31
0.0
  0
LINE
  5
17184
330
1A
100
AcDbEntity
  8
ZISSEN1
100
AcDbLine
 10
-961.9654063974943
 20
1768.548414770693
 30
0.0
 11
-962.465408047093
 21
1768.548414770693
 31
0.0
  0
LINE
  5
17185
330
1A
100
AcDbEntity
  8
ZISSEN1
100
AcDbLine
 10
-962.465408047093
 20
1768.048413121094
 30
0.0
 11
-962.465408047093
 21
1768.548414770693
 31
0.0
  0
LINE
  5
17186
330
1A
100
AcDbEntity
  8
ZISSEN1
100
AcDbLine
 10
-961.9654063974943
 20
1768.548414770693
 30
0.0
 11
-961.9654063974943
 21
1774.948421039169
 31
0.0
  0
LINE
  5
17187
330
1A
100
AcDbEntity
  8
ZISSEN1
100
AcDbLine
 10
-959.865409366772
 20
1753.543416486276
 30
0.0
 11
-959.5654133258092
 21
1753.543416486276
 31
0.0
  0
LINE
  5
17188
330
1A
100
AcDbEntity
  8
ZISSEN1
100
AcDbLine
 10
-959.5654133258092
 20
1755.043421435072
 30
0.0
 11
-957.4654162950871
 21
1755.043421435072
 31
0.0
  0
LINE
  5
17189
330
1A
100
AcDbEntity
  8
ZISSEN1
100
AcDbLine
 10
-957.9654179446858
 20
1754.543419785473
 30
0.0
 11
-959.5654133258092
 21
1754.543419785473
 31
0.0
  0
LINE
  5
1718A
330
1A
100
AcDbEntity
  8
ZISSEN1
100
AcDbLine
 10
-967.0654133258093
 20
1782.338421666016
 30
0.0
 11
-969.4654187694853
 21
1782.338421666016
 31
0.0
  0
LINE
  5
1718B
330
1A
100
AcDbEntity
  8
ZISSEN1
100
AcDbLine
 10
-947.465408047093
 20
1782.338421666016
 30
0.0
 11
-949.8654258627601
 21
1782.338421666016
 31
0.0
  0
LINE
  5
1718C
330
1A
100
AcDbEntity
  8
ZISSEN1
100
AcDbLine
 10
-942.8654027683768
 20
1775.448410316776
 30
0.0
 11
-942.8654027683768
 21
1774.948421039169
 31
0.0
  0
LINE
  5
1718D
330
1A
100
AcDbEntity
  8
ZISSEN1
100
AcDbLine
 10
-942.3654258627601
 20
1774.948421039169
 30
0.0
 11
-942.8654027683768
 21
1774.948421039169
 31
0.0
  0
LINE
  5
1718E
330
1A
100
AcDbEntity
  8
ZISSEN1
100
AcDbLine
 10
-942.3654258627601
 20
1768.548414770693
 30
0.0
 11
-942.8654027683768
 21
1768.548414770693
 31
0.0
  0
LINE
  5
1718F
330
1A
100
AcDbEntity
  8
ZISSEN1
100
AcDbLine
 10
-942.8654027683768
 20
1768.048413121094
 30
0.0
 11
-942.8654027683768
 21
1768.548414770693
 31
0.0
  0
LINE
  5
17190
330
1A
100
AcDbEntity
  8
ZISSEN1
100
AcDbLine
 10
-942.3654258627601
 20
1768.548414770693
 30
0.0
 11
-942.3654258627601
 21
1774.948421039169
 31
0.0
  0
LINE
  5
17191
330
1A
100
AcDbEntity
  8
ZISSEN1
100
AcDbLine
 10
-947.465408047093
 20
1781.448417739971
 30
0.0
 11
-949.8654258627601
 21
1781.448417739971
 31
0.0
  0
LINE
  5
17192
330
1A
100
AcDbEntity
  8
ZISSEN1
100
AcDbLine
 10
-947.465408047093
 20
1774.838421666016
 30
0.0
 11
-949.8654258627601
 21
1774.838421666016
 31
0.0
  0
LINE
  5
17193
330
1A
100
AcDbEntity
  8
ZISSEN1
100
AcDbLine
 10
-947.465408047093
 20
1774.838421666016
 30
0.0
 11
-947.465408047093
 21
1781.448417739971
 31
0.0
  0
LINE
  5
17194
330
1A
100
AcDbEntity
  8
ZISSEN1
100
AcDbLine
 10
-947.465408047093
 20
1768.653415859428
 30
0.0
 11
-949.8654258627601
 21
1768.653415859428
 31
0.0
  0
LINE
  5
17195
330
1A
100
AcDbEntity
  8
ZISSEN1
100
AcDbLine
 10
-947.465408047093
 20
1762.043419785474
 30
0.0
 11
-949.8654258627601
 21
1762.043419785474
 31
0.0
  0
LINE
  5
17196
330
1A
100
AcDbEntity
  8
ZISSEN1
100
AcDbLine
 10
-947.465408047093
 20
1761.153415859428
 30
0.0
 11
-949.8654258627601
 21
1761.153415859428
 31
0.0
  0
LINE
  5
17197
330
1A
100
AcDbEntity
  8
ZISSEN1
100
AcDbLine
 10
-947.465408047093
 20
1762.043419785474
 30
0.0
 11
-947.465408047093
 21
1768.653415859428
 31
0.0
  0
LINE
  5
17198
330
1A
100
AcDbEntity
  8
ZISSEN1
100
AcDbLine
 10
-942.8654027683768
 20
1775.448410316776
 30
0.0
 11
-947.465408047093
 21
1775.448410316776
 31
0.0
  0
LINE
  5
17199
330
1A
100
AcDbEntity
  8
ZISSEN1
100
AcDbLine
 10
-942.8654027683768
 20
1768.048413121094
 30
0.0
 11
-947.465408047093
 21
1768.048413121094
 31
0.0
  0
CIRCLE
  5
1719A
330
1A
100
AcDbEntity
  8
ZISSEN1
100
AcDbCircle
 10
-945.9654030982965
 20
1771.748417904931
 30
0.0
 40
1.600000020619985
  0
LINE
  5
1719B
330
1A
100
AcDbEntity
  8
ZISSEN1
100
AcDbLine
 10
-940.2654040880557
 20
1753.543416486276
 30
0.0
 11
-939.9654080470929
 21
1753.543416486276
 31
0.0
  0
LINE
  5
1719C
330
1A
100
AcDbEntity
  8
ZISSEN1
100
AcDbLine
 10
-938.3654126659696
 20
1754.543419785473
 30
0.0
 11
-939.9654080470929
 21
1754.543419785473
 31
0.0
  0
LINE
  5
1719D
330
1A
100
AcDbEntity
  8
ZISSEN1
100
AcDbLine
 10
-947.465408047093
 20
1754.543419785473
 30
0.0
 11
-949.8654258627601
 21
1754.543419785473
 31
0.0
  0
LINE
  5
1719E
330
1A
100
AcDbEntity
  8
ZISSEN1
100
AcDbLine
 10
-951.5654116762103
 20
1753.543416486276
 30
0.0
 11
-949.9654162950871
 21
1753.543416486276
 31
0.0
  0
LINE
  5
1719F
330
1A
100
AcDbEntity
  8
ZISSEN1
100
AcDbLine
 10
-951.5654116762103
 20
1754.543419785473
 30
0.0
 11
-949.9654162950871
 21
1754.543419785473
 31
0.0
  0
LINE
  5
171A0
330
1A
100
AcDbEntity
  8
ZISSEN1
100
AcDbLine
 10
-948.1654153053277
 20
1753.543416486276
 30
0.0
 11
-940.2654040880557
 21
1753.543416486276
 31
0.0
  0
LINE
  5
171A1
330
1A
100
AcDbEntity
  8
ZISSEN1
100
AcDbLine
 10
-947.565423223402
 20
1752.843421600032
 30
0.0
 11
-941.0654017786175
 21
1752.843421600032
 31
0.0
  0
LINE
  5
171A2
330
1A
100
AcDbEntity
  8
ZISSEN1
100
AcDbLine
 10
-947.465408047093
 20
1754.543419785473
 30
0.0
 11
-947.465408047093
 21
1761.153415859428
 31
0.0
  0
LINE
  5
171A3
330
1A
100
AcDbEntity
  8
ZISSEN1
100
AcDbLine
 10
-987.3654011187779
 20
1800.243476531673
 30
0.0
 11
-968.9653923759042
 21
1800.243476531673
 31
0.0
  0
LINE
  5
171A4
330
1A
100
AcDbEntity
  8
ZISSEN1
100
AcDbLine
 10
-999.7654395544302
 20
1819.934735042076
 30
0.0
 11
-999.7654395544302
 21
1829.424732699646
 31
0.0
  0
LINE
  5
171A5
330
1A
100
AcDbEntity
  8
ZISSEN1
100
AcDbLine
 10
-1007.765441204029
 20
1819.934735042076
 30
0.0
 11
-1007.765441204029
 21
1829.424732699646
 31
0.0
  0
LINE
  5
171A6
330
1A
100
AcDbEntity
  8
CL1
100
AcDbLine
 10
-998.3782968017457
 20
1802.743472407676
 30
0.0
 11
-991.0688375775187
 21
1802.743472407676
 31
0.0
  0
LINE
  5
171A7
330
1A
100
AcDbEntity
  8
ZISSEN1
100
AcDbLine
 10
-988.3653920459844
 20
1806.743473232475
 30
0.0
 11
-1009.015395840061
 21
1806.743473232475
 31
0.0
  0
CIRCLE
  5
171A8
330
1A
100
AcDbEntity
  8
ZISSEN1
100
AcDbCircle
 10
-994.7653983144599
 20
1802.743472407676
 30
0.0
 40
1.749999974225018
  0
LINE
  5
171A9
330
1A
100
AcDbEntity
  8
CL1
100
AcDbLine
 10
-994.7653983144599
 20
1805.509588021811
 30
0.0
 11
-994.7653983144599
 21
1800.243414671717
 31
0.0
  0
LINE
  5
171AA
330
1A
100
AcDbEntity
  8
CL1
100
AcDbLine
 10
-1010.765401613657
 20
1806.74341137252
 30
0.0
 11
-1010.765401613657
 21
1798.606357831985
 31
0.0
  0
LINE
  5
171AB
330
1A
100
AcDbEntity
  8
ZISSEN1
100
AcDbLine
 10
-1009.015395840061
 20
1806.743473232475
 30
0.0
 11
-1009.015395840061
 21
1802.743472407676
 31
0.0
  0
LINE
  5
171AC
330
1A
100
AcDbEntity
  8
ZISSEN1
100
AcDbLine
 10
-1007.765441204029
 20
1819.934735042076
 30
0.0
 11
-999.7654395544302
 21
1819.934735042076
 31
0.0
  0
LINE
  5
171AD
330
1A
100
AcDbEntity
  8
ZISSEN1
100
AcDbLine
 10
-997.2654189344451
 20
1795.843415001637
 30
0.0
 11
-1002.465416295087
 21
1795.843415001637
 31
0.0
  0
LINE
  5
171AE
330
1A
100
AcDbEntity
  8
ZISSEN1
100
AcDbLine
 10
-999.3654159651672
 20
1793.668431332665
 30
0.0
 11
-999.3654159651672
 21
1792.418427208668
 31
0.0
  0
LINE
  5
171AF
330
1A
100
AcDbEntity
  8
ZISSEN1
100
AcDbLine
 10
-999.3654159651672
 20
1789.668430507866
 30
0.0
 11
-999.3654159651672
 21
1788.418426383869
 31
0.0
  0
LINE
  5
171B0
330
1A
100
AcDbEntity
  8
ZISSEN1
100
AcDbLine
 10
-999.3654159651672
 20
1789.668430507866
 30
0.0
 11
-999.3654159651672
 21
1788.418426383869
 31
0.0
  0
LINE
  5
171B1
330
1A
100
AcDbEntity
  8
ZISSEN1
100
AcDbLine
 10
-999.3654159651672
 20
1792.668428033468
 30
0.0
 11
-999.3654159651672
 21
1791.418423909471
 31
0.0
  0
LINE
  5
171B2
330
1A
100
AcDbEntity
  8
ZISSEN1
100
AcDbLine
 10
-999.3654159651672
 20
1792.668428033468
 30
0.0
 11
-999.3654159651672
 21
1791.418423909471
 31
0.0
  0
LINE
  5
171B3
330
1A
100
AcDbEntity
  8
ZISSEN1
100
AcDbLine
 10
-1000.465409696691
 20
1791.66842473427
 30
0.0
 11
-1000.465409696691
 21
1790.418432982264
 31
0.0
  0
LINE
  5
171B4
330
1A
100
AcDbEntity
  8
ZISSEN1
100
AcDbLine
 10
-1000.465409696691
 20
1791.66842473427
 30
0.0
 11
-1000.465409696691
 21
1790.418432982264
 31
0.0
  0
LINE
  5
171B5
330
1A
100
AcDbEntity
  8
ZISSEN1
100
AcDbLine
 10
-1000.465409696691
 20
1793.668431332665
 30
0.0
 11
-1000.465409696691
 21
1792.418427208668
 31
0.0
  0
LINE
  5
171B6
330
1A
100
AcDbEntity
  8
ZISSEN1
100
AcDbLine
 10
-1000.465409696691
 20
1789.668430507866
 30
0.0
 11
-1000.465409696691
 21
1788.418426383869
 31
0.0
  0
LINE
  5
171B7
330
1A
100
AcDbEntity
  8
ZISSEN1
100
AcDbLine
 10
-1000.465409696691
 20
1789.668430507866
 30
0.0
 11
-1000.465409696691
 21
1788.418426383869
 31
0.0
  0
LINE
  5
171B8
330
1A
100
AcDbEntity
  8
ZISSEN1
100
AcDbLine
 10
-999.3654159651672
 20
1791.66842473427
 30
0.0
 11
-1000.465409696691
 21
1791.66842473427
 31
0.0
  0
LINE
  5
171B9
330
1A
100
AcDbEntity
  8
ZISSEN1
100
AcDbLine
 10
-1000.465409696691
 20
1790.418432982264
 30
0.0
 11
-999.3654159651672
 21
1790.418432982264
 31
0.0
  0
LINE
  5
171BA
330
1A
100
AcDbEntity
  8
ZISSEN1
100
AcDbLine
 10
-999.3654159651672
 20
1791.66842473427
 30
0.0
 11
-1000.465409696691
 21
1791.66842473427
 31
0.0
  0
LINE
  5
171BB
330
1A
100
AcDbEntity
  8
ZISSEN1
100
AcDbLine
 10
-1000.465409696691
 20
1790.418432982264
 30
0.0
 11
-999.3654159651672
 21
1790.418432982264
 31
0.0
  0
LINE
  5
171BC
330
1A
100
AcDbEntity
  8
ZISSEN1
100
AcDbLine
 10
-1000.465409696691
 20
1792.418427208668
 30
0.0
 11
-999.3654159651672
 21
1792.418427208668
 31
0.0
  0
LINE
  5
171BD
330
1A
100
AcDbEntity
  8
ZISSEN1
100
AcDbLine
 10
-999.3654159651672
 20
1793.668431332665
 30
0.0
 11
-1000.465409696691
 21
1793.668431332665
 31
0.0
  0
LINE
  5
171BE
330
1A
100
AcDbEntity
  8
ZISSEN1
100
AcDbLine
 10
-999.3654159651672
 20
1789.668430507866
 30
0.0
 11
-1000.465409696691
 21
1789.668430507866
 31
0.0
  0
LINE
  5
171BF
330
1A
100
AcDbEntity
  8
ZISSEN1
100
AcDbLine
 10
-1000.465409696691
 20
1788.418426383869
 30
0.0
 11
-999.3654159651672
 21
1788.418426383869
 31
0.0
  0
LINE
  5
171C0
330
1A
100
AcDbEntity
  8
ZISSEN1
100
AcDbLine
 10
-999.3654159651672
 20
1789.668430507866
 30
0.0
 11
-1000.465409696691
 21
1789.668430507866
 31
0.0
  0
LINE
  5
171C1
330
1A
100
AcDbEntity
  8
ZISSEN1
100
AcDbLine
 10
-1000.465409696691
 20
1788.418426383869
 30
0.0
 11
-999.3654159651672
 21
1788.418426383869
 31
0.0
  0
LINE
  5
171C2
330
1A
100
AcDbEntity
  8
ZISSEN1
100
AcDbLine
 10
-988.3653920459844
 20
1806.743473232475
 30
0.0
 11
-987.3654011187779
 21
1805.743469933278
 31
0.0
  0
LINE
  5
171C3
330
1A
100
AcDbEntity
  8
ZISSEN1
100
AcDbLine
 10
-982.0654133258091
 20
1795.743412197319
 30
0.0
 11
-982.0654133258091
 21
1795.24341054772
 31
0.0
  0
LINE
  5
171C4
330
1A
100
AcDbEntity
  8
ZISSEN1
100
AcDbLine
 10
-981.5654116762104
 20
1795.24341054772
 30
0.0
 11
-982.0654133258091
 21
1795.24341054772
 31
0.0
  0
LINE
  5
171C5
330
1A
100
AcDbEntity
  8
ZISSEN1
100
AcDbLine
 10
-987.1654078821331
 20
1796.443419455554
 30
0.0
 11
-987.1654078821331
 21
1795.743412197319
 31
0.0
  0
LINE
  5
171C6
330
1A
100
AcDbEntity
  8
ZISSEN1
100
AcDbLine
 10
-990.7654098616516
 20
1795.943417805955
 30
0.0
 11
-989.1654144805285
 21
1795.943417805955
 31
0.0
  0
LINE
  5
171C7
330
1A
100
AcDbEntity
  8
ZISSEN1
100
AcDbLine
 10
-988.6654128309295
 20
1795.743412197319
 30
0.0
 11
-988.6654128309295
 21
1795.24341054772
 31
0.0
  0
LINE
  5
171C8
330
1A
100
AcDbEntity
  8
ZISSEN1
100
AcDbLine
 10
-989.1654144805285
 20
1795.24341054772
 30
0.0
 11
-988.6654128309295
 21
1795.24341054772
 31
0.0
  0
LINE
  5
171C9
330
1A
100
AcDbEntity
  8
ZISSEN1
100
AcDbLine
 10
-991.5654199242045
 20
1794.273421699008
 30
0.0
 11
-990.7654098616516
 21
1794.273421699008
 31
0.0
  0
LINE
  5
171CA
330
1A
100
AcDbEntity
  8
ZISSEN1
100
AcDbLine
 10
-991.5654199242045
 20
1796.443419455554
 30
0.0
 11
-993.1654153053278
 21
1796.443419455554
 31
0.0
  0
LINE
  5
171CB
330
1A
100
AcDbEntity
  8
ZISSEN1
100
AcDbLine
 10
-982.0654133258091
 20
1795.743412197319
 30
0.0
 11
-988.6654128309295
 21
1795.743412197319
 31
0.0
  0
LINE
  5
171CC
330
1A
100
AcDbEntity
  8
ZISSEN1
100
AcDbLine
 10
-981.5654116762104
 20
1788.843416651236
 30
0.0
 11
-982.0654133258091
 21
1788.843416651236
 31
0.0
  0
LINE
  5
171CD
330
1A
100
AcDbEntity
  8
ZISSEN1
100
AcDbLine
 10
-982.0654133258091
 20
1788.343415001637
 30
0.0
 11
-982.0654133258091
 21
1788.843416651236
 31
0.0
  0
LINE
  5
171CE
330
1A
100
AcDbEntity
  8
ZISSEN1
100
AcDbLine
 10
-982.0654133258091
 20
1788.343415001637
 30
0.0
 11
-986.6654186045254
 21
1788.343415001637
 31
0.0
  0
CIRCLE
  5
171CF
330
1A
100
AcDbEntity
  8
ZISSEN1
100
AcDbCircle
 10
-985.1654136557289
 20
1792.043419785473
 30
0.0
 40
1.600000020619985
  0
LINE
  5
171D0
330
1A
100
AcDbEntity
  8
ZISSEN1
100
AcDbLine
 10
-991.5654199242045
 20
1792.273415100613
 30
0.0
 11
-991.5654199242045
 21
1791.023410976616
 31
0.0
  0
LINE
  5
171D1
330
1A
100
AcDbEntity
  8
ZISSEN1
100
AcDbLine
 10
-991.5654199242045
 20
1792.273415100613
 30
0.0
 11
-990.7654098616516
 21
1792.273415100613
 31
0.0
  0
LINE
  5
171D2
330
1A
100
AcDbEntity
  8
ZISSEN1
100
AcDbLine
 10
-991.5654199242045
 20
1791.023410976616
 30
0.0
 11
-990.7654098616516
 21
1791.023410976616
 31
0.0
  0
LINE
  5
171D3
330
1A
100
AcDbEntity
  8
ZISSEN1
100
AcDbLine
 10
-991.5654199242045
 20
1793.023417575011
 30
0.0
 11
-990.7654098616516
 21
1793.023417575011
 31
0.0
  0
LINE
  5
171D4
330
1A
100
AcDbEntity
  8
ZISSEN1
100
AcDbLine
 10
-991.5654199242045
 20
1788.943419455554
 30
0.0
 11
-993.1654153053278
 21
1788.943419455554
 31
0.0
  0
LINE
  5
171D5
330
1A
100
AcDbEntity
  8
ZISSEN1
100
AcDbLine
 10
-986.6654186045254
 20
1788.948417739971
 30
0.0
 11
-989.0654116762103
 21
1788.948417739971
 31
0.0
  0
LINE
  5
171D6
330
1A
100
AcDbEntity
  8
ZISSEN1
100
AcDbLine
 10
-989.1654144805285
 20
1794.993422094912
 30
0.0
 11
-989.1654144805285
 21
1791.49341054772
 31
0.0
  0
LINE
  5
171D7
330
1A
100
AcDbEntity
  8
ZISSEN1
100
AcDbLine
 10
-989.1654144805285
 20
1794.993422094912
 30
0.0
 11
-989.1654144805285
 21
1791.49341054772
 31
0.0
  0
LINE
  5
171D8
330
1A
100
AcDbEntity
  8
ZISSEN1
100
AcDbLine
 10
-993.1654153053278
 20
1788.943419455554
 30
0.0
 11
-993.1654153053278
 21
1796.443419455554
 31
0.0
  0
LINE
  5
171D9
330
1A
100
AcDbEntity
  8
ZISSEN1
100
AcDbLine
 10
-989.1654144805285
 20
1788.843416651236
 30
0.0
 11
-989.1654144805285
 21
1795.24341054772
 31
0.0
  0
LINE
  5
171DA
330
1A
100
AcDbEntity
  8
ZISSEN1
100
AcDbLine
 10
-981.5654116762104
 20
1788.843416651236
 30
0.0
 11
-981.5654116762104
 21
1795.24341054772
 31
0.0
  0
LINE
  5
171DB
330
1A
100
AcDbEntity
  8
ZISSEN1
100
AcDbLine
 10
-991.5654199242045
 20
1794.273421699008
 30
0.0
 11
-991.5654199242045
 21
1793.023417575011
 31
0.0
  0
LINE
  5
171DC
330
1A
100
AcDbEntity
  8
ZISSEN1
100
AcDbLine
 10
-993.1654153053278
 20
1796.443419455554
 30
0.0
 11
-979.1654186045255
 21
1796.443419455554
 31
0.0
  0
LINE
  5
171DD
330
1A
100
AcDbEntity
  8
ZISSEN1
100
AcDbLine
 10
-987.3654011187779
 20
1805.743469933278
 30
0.0
 11
-987.3654011187779
 21
1800.243476531673
 31
0.0
  0
LINE
  5
171DE
330
1A
100
AcDbEntity
  8
ZISSEN1
100
AcDbLine
 10
-999.4649362618311
 20
1830.235234210678
 30
0.0
 11
-999.764944674785
 21
1830.235234210678
 31
0.0
  0
LINE
  5
171DF
330
1A
100
AcDbEntity
  8
ZISSEN1
100
AcDbLine
 10
-999.4654435134675
 20
1832.589463287167
 30
0.0
 11
-997.8654357603531
 21
1832.589463287167
 31
0.0
  0
LINE
  5
171E0
330
1A
100
AcDbEntity
  8
ZISSEN1
100
AcDbLine
 10
-1002.365438234751
 20
1831.624732534686
 30
0.0
 11
-1002.264940550787
 21
1831.624732534686
 31
0.0
  0
LINE
  5
171E1
330
1A
100
AcDbEntity
  8
ZISSEN1
100
AcDbLine
 10
-1002.365438234751
 20
1830.582231445951
 30
0.0
 11
-1002.264940550787
 21
1830.582231445951
 31
0.0
  0
LINE
  5
171E2
330
1A
100
AcDbEntity
  8
ZISSEN1
100
AcDbLine
 10
-1002.365438234751
 20
1830.482228641633
 30
0.0
 11
-1002.264940550787
 21
1830.482228641633
 31
0.0
  0
LINE
  5
171E3
330
1A
100
AcDbEntity
  8
ZISSEN1
100
AcDbLine
 10
-1002.365438234751
 20
1831.702737938772
 30
0.0
 11
-1002.264940550787
 21
1831.702737938772
 31
0.0
  0
LINE
  5
171E4
330
1A
100
AcDbEntity
  8
ZISSEN1
100
AcDbLine
 10
-1002.365438234751
 20
1832.424730225248
 30
0.0
 11
-1002.27644650254
 21
1832.424730225248
 31
0.0
  0
LINE
  5
171E5
330
1A
100
AcDbEntity
  8
ZISSEN1
100
AcDbLine
 10
-1002.365438234751
 20
1829.424732699646
 30
0.0
 11
-999.7654395544302
 21
1829.424732699646
 31
0.0
  0
LINE
  5
171E6
330
1A
100
AcDbEntity
  8
ZISSEN1
100
AcDbLine
 10
-999.764944674785
 20
1829.935225797724
 30
0.0
 11
-1002.264940550787
 21
1829.935225797724
 31
0.0
  0
LINE
  5
171E7
330
1A
100
AcDbEntity
  8
ZISSEN1
100
AcDbLine
 10
-999.764944674785
 20
1829.935225797724
 30
0.0
 11
-1002.364943355106
 21
1829.935225797724
 31
0.0
  0
LINE
  5
171E8
330
1A
100
AcDbEntity
  8
ZISSEN1
100
AcDbLine
 10
-997.8654357603531
 20
1835.789466421405
 30
0.0
 11
-997.8654357603531
 21
1832.589463287167
 31
0.0
  0
LINE
  5
171E9
330
1A
100
AcDbEntity
  8
ZISSEN1
100
AcDbLine
 10
-999.4653816535118
 20
1835.789466421405
 30
0.0
 11
-999.4649362618311
 21
1830.235234210678
 31
0.0
  0
LINE
  5
171EA
330
1A
100
AcDbEntity
  8
ZISSEN1
100
AcDbLine
 10
-999.6653872621477
 20
1835.789466421405
 30
0.0
 11
-999.6649542424581
 21
1830.235246582669
 31
0.0
  0
LINE
  5
171EB
330
1A
100
AcDbEntity
  8
ZISSEN1
100
AcDbLine
 10
-999.7652044865988
 20
1835.789466421405
 30
0.0
 11
-999.7649570467762
 21
1829.935225797724
 31
0.0
  0
LINE
  5
171EC
330
1A
100
AcDbEntity
  8
ZISSEN1
100
AcDbLine
 10
-1002.264940550787
 20
1829.935225797724
 30
0.0
 11
-1002.264940550787
 21
1835.789466421405
 31
0.0
  0
LINE
  5
171ED
330
1A
100
AcDbEntity
  8
ZISSEN1
100
AcDbLine
 10
-1002.365438234751
 20
1829.424732699646
 30
0.0
 11
-1002.365438234751
 21
1835.789466421405
 31
0.0
  0
LINE
  5
171EE
330
1A
100
AcDbEntity
  8
ZISSEN1
100
AcDbLine
 10
-1007.764946324383
 20
1833.345231109433
 30
0.0
 11
-1007.964939561028
 21
1833.345231109433
 31
0.0
  0
LINE
  5
171EF
330
1A
100
AcDbEntity
  8
ZISSEN1
100
AcDbLine
 10
-1007.964939561028
 20
1835.789466421405
 30
0.0
 11
-1007.964939561028
 21
1833.345231109433
 31
0.0
  0
LINE
  5
171F0
330
1A
100
AcDbEntity
  8
ZISSEN1
100
AcDbLine
 10
-1007.765441204029
 20
1829.424732699646
 30
0.0
 11
-1005.165442523708
 21
1829.424732699646
 31
0.0
  0
LINE
  5
171F1
330
1A
100
AcDbEntity
  8
ZISSEN1
100
AcDbLine
 10
-1005.164947644063
 20
1829.935225797724
 30
0.0
 11
-1005.534944410849
 21
1829.935225797724
 31
0.0
  0
LINE
  5
171F2
330
1A
100
AcDbEntity
  8
ZISSEN1
100
AcDbLine
 10
-1005.26493807639
 20
1831.624732534686
 30
0.0
 11
-1005.165442523708
 21
1831.624732534686
 31
0.0
  0
LINE
  5
171F3
330
1A
100
AcDbEntity
  8
ZISSEN1
100
AcDbLine
 10
-1005.26493807639
 20
1830.582231445951
 30
0.0
 11
-1005.165442523708
 21
1830.582231445951
 31
0.0
  0
LINE
  5
171F4
330
1A
100
AcDbEntity
  8
ZISSEN1
100
AcDbLine
 10
-1005.26493807639
 20
1830.482228641633
 30
0.0
 11
-1005.165442523708
 21
1830.482228641633
 31
0.0
  0
LINE
  5
171F5
330
1A
100
AcDbEntity
  8
ZISSEN1
100
AcDbLine
 10
-1005.26493807639
 20
1831.702737938772
 30
0.0
 11
-1005.165442523708
 21
1831.702737938772
 31
0.0
  0
LINE
  5
171F6
330
1A
100
AcDbEntity
  8
ZISSEN1
100
AcDbLine
 10
-1005.26493807639
 20
1832.424730225248
 30
0.0
 11
-1005.165442523708
 21
1832.424730225248
 31
0.0
  0
LINE
  5
171F7
330
1A
100
AcDbEntity
  8
ZISSEN1
100
AcDbLine
 10
-1005.26493807639
 20
1829.935225797724
 30
0.0
 11
-1007.764946324383
 21
1829.935225797724
 31
0.0
  0
LINE
  5
171F8
330
1A
100
AcDbEntity
  8
ZISSEN1
100
AcDbLine
 10
-1005.165442523708
 20
1829.424732699646
 30
0.0
 11
-1005.165442523708
 21
1835.789466421405
 31
0.0
  0
LINE
  5
171F9
330
1A
100
AcDbEntity
  8
ZISSEN1
100
AcDbLine
 10
-1005.26493807639
 20
1829.935225797724
 30
0.0
 11
-1005.26493807639
 21
1835.789466421405
 31
0.0
  0
LINE
  5
171FA
330
1A
100
AcDbEntity
  8
ZISSEN1
100
AcDbLine
 10
-1007.764946324383
 20
1835.789466421405
 30
0.0
 11
-1007.764946324383
 21
1829.935225797724
 31
0.0
  0
LINE
  5
171FB
330
1A
100
AcDbEntity
  8
ZISSEN1
100
AcDbLine
 10
-1011.465470731848
 20
1832.589475659158
 30
0.0
 11
-1011.465470731848
 21
1835.789466421405
 31
0.0
  0
LINE
  5
171FC
330
1A
100
AcDbEntity
  8
ZISSEN1
100
AcDbLine
 10
-989.7654436784273
 20
1862.23945965805
 30
0.0
 11
-979.2654461528256
 21
1862.23945965805
 31
0.0
  0
LINE
  5
171FD
330
1A
100
AcDbEntity
  8
ZISSEN1
100
AcDbLine
 10
-979.2654461528256
 20
1834.089468235964
 30
0.0
 11
-977.6654383997112
 21
1834.089468235964
 31
0.0
  0
LINE
  5
171FE
330
1A
100
AcDbEntity
  8
ZISSEN1
100
AcDbLine
 10
-979.5654421937884
 20
1833.589466586365
 30
0.0
 11
-979.2654461528256
 21
1833.589466586365
 31
0.0
  0
LINE
  5
171FF
330
1A
100
AcDbEntity
  8
ZISSEN1
100
AcDbLine
 10
-977.6654383997112
 20
1834.089468235964
 30
0.0
 11
-977.6654383997112
 21
1835.789466421405
 31
0.0
  0
LINE
  5
17200
330
1A
100
AcDbEntity
  8
ZISSEN1
100
AcDbLine
 10
-979.2654461528256
 20
1834.089468235964
 30
0.0
 11
-979.2654461528256
 21
1835.789466421405
 31
0.0
  0
LINE
  5
17201
330
1A
100
AcDbEntity
  8
ZISSEN1
100
AcDbLine
 10
-979.2654461528256
 20
1833.589466586365
 30
0.0
 11
-979.2654461528256
 21
1835.789466421405
 31
0.0
  0
LINE
  5
17202
330
1A
100
AcDbEntity
  8
ZISSEN1
100
AcDbLine
 10
-979.5654421937884
 20
1831.589472359961
 30
0.0
 11
-979.5654421937884
 21
1833.589466586365
 31
0.0
  0
LINE
  5
17203
330
1A
100
AcDbEntity
  8
ZISSEN1
100
AcDbLine
 10
-987.4654410390691
 20
1831.589472359961
 30
0.0
 11
-987.4654410390691
 21
1833.029473151768
 31
0.0
  0
LINE
  5
17204
330
1A
100
AcDbEntity
  8
ZISSEN1
100
AcDbLine
 10
-987.700447010617
 20
1833.029473151768
 30
0.0
 11
-987.4654410390691
 21
1832.089474009559
 31
0.0
  0
LINE
  5
17205
330
1A
100
AcDbEntity
  8
ZISSEN1
100
AcDbLine
 10
-986.7654461528257
 20
1833.029473151768
 30
0.0
 11
-986.7654461528257
 21
1835.789466421405
 31
0.0
  0
LINE
  5
17206
330
1A
100
AcDbEntity
  8
ZISSEN1
100
AcDbLine
 10
-989.2654420288286
 20
1833.82947084233
 30
0.0
 11
-989.1654392245106
 21
1833.82947084233
 31
0.0
  0
LINE
  5
17207
330
1A
100
AcDbEntity
  8
ZISSEN1
100
AcDbLine
 10
-989.2654420288286
 20
1830.389463452127
 30
0.0
 11
-990.8654374099519
 21
1830.389463452127
 31
0.0
  0
LINE
  5
17208
330
1A
100
AcDbEntity
  8
ZISSEN1
100
AcDbLine
 10
-989.2654420288286
 20
1830.389463452127
 30
0.0
 11
-990.8654374099519
 21
1830.389463452127
 31
0.0
  0
LINE
  5
17209
330
1A
100
AcDbEntity
  8
ZISSEN1
100
AcDbLine
 10
-990.8654374099519
 20
1831.389466751325
 30
0.0
 11
-989.2654420288286
 21
1831.389466751325
 31
0.0
  0
LINE
  5
1720A
330
1A
100
AcDbEntity
  8
ZISSEN1
100
AcDbLine
 10
-988.2654387296309
 20
1833.029473151768
 30
0.0
 11
-988.2654387296309
 21
1832.92947034745
 31
0.0
  0
LINE
  5
1720B
330
1A
100
AcDbEntity
  8
ZISSEN1
100
AcDbLine
 10
-988.2654387296309
 20
1832.92947034745
 30
0.0
 11
-989.2654420288286
 21
1832.92947034745
 31
0.0
  0
LINE
  5
1720C
330
1A
100
AcDbEntity
  8
ZISSEN1
100
AcDbLine
 10
-989.2654420288286
 20
1832.92947034745
 30
0.0
 11
-989.2654420288286
 21
1833.82947084233
 31
0.0
  0
LINE
  5
1720D
330
1A
100
AcDbEntity
  8
ZISSEN1
100
AcDbLine
 10
-988.3654415339488
 20
1835.789466421405
 30
0.0
 11
-988.3654415339488
 21
1833.029473151768
 31
0.0
  0
LINE
  5
1720E
330
1A
100
AcDbEntity
  8
ZISSEN1
100
AcDbLine
 10
-989.1654392245106
 20
1833.029473151768
 30
0.0
 11
-989.1654392245106
 21
1835.789466421405
 31
0.0
  0
LINE
  5
1720F
330
1A
100
AcDbEntity
  8
ZISSEN1
100
AcDbLine
 10
-989.2654420288286
 20
1835.789466421405
 30
0.0
 11
-989.2654420288286
 21
1830.389463452127
 31
0.0
  0
LINE
  5
17210
330
1A
100
AcDbEntity
  8
ZISSEN1
100
AcDbLine
 10
-990.8654374099519
 20
1830.389463452127
 30
0.0
 11
-990.8654374099519
 21
1835.789466421405
 31
0.0
  0
LINE
  5
17211
330
1A
100
AcDbEntity
  8
ZISSEN1
100
AcDbLine
 10
-986.7654461528257
 20
1833.029473151768
 30
0.0
 11
-989.1654392245106
 21
1833.029473151768
 31
0.0
  0
LINE
  5
17212
330
1A
100
AcDbEntity
  8
ZISSEN1
100
AcDbLine
 10
-987.4654410390691
 20
1831.589472359961
 30
0.0
 11
-979.5654421937884
 21
1831.589472359961
 31
0.0
  0
LINE
  5
17213
330
1A
100
AcDbEntity
  8
CL1
100
AcDbLine
 10
-959.055385515697
 20
1802.743472407676
 30
0.0
 11
-952.4951518260946
 21
1802.743472407676
 31
0.0
  0
ARC
  5
17214
330
1A
100
AcDbEntity
  8
ZISSEN1
100
AcDbCircle
 10
-955.7654057376547
 20
1802.743472407676
 30
0.0
 40
1.749999974225018
100
AcDbArc
 50
180.0
 51
359.9999847412061
  0
LINE
  5
17215
330
1A
100
AcDbEntity
  8
ZISSEN1
100
AcDbLine
 10
-967.9654014486976
 20
1806.74341137252
 30
0.0
 11
-957.5153991392594
 21
1806.74341137252
 31
0.0
  0
LINE
  5
17216
330
1A
100
AcDbEntity
  8
ZISSEN1
100
AcDbLine
 10
-973.5654100266115
 20
1796.443419455554
 30
0.0
 11
-959.5654133258092
 21
1796.443419455554
 31
0.0
  0
LINE
  5
17217
330
1A
100
AcDbEntity
  8
ZISSEN1
100
AcDbLine
 10
-962.465408047093
 20
1795.743412197319
 30
0.0
 11
-969.0654199242045
 21
1795.743412197319
 31
0.0
  0
LINE
  5
17218
330
1A
100
AcDbEntity
  8
ZISSEN1
100
AcDbLine
 10
-962.465408047093
 20
1788.343415001637
 30
0.0
 11
-967.0654133258093
 21
1788.343415001637
 31
0.0
  0
LINE
  5
17219
330
1A
100
AcDbEntity
  8
ZISSEN1
100
AcDbLine
 10
-962.465408047093
 20
1795.743412197319
 30
0.0
 11
-962.465408047093
 21
1795.24341054772
 31
0.0
  0
LINE
  5
1721A
330
1A
100
AcDbEntity
  8
ZISSEN1
100
AcDbLine
 10
-961.9654063974943
 20
1795.24341054772
 30
0.0
 11
-962.465408047093
 21
1795.24341054772
 31
0.0
  0
LINE
  5
1721B
330
1A
100
AcDbEntity
  8
ZISSEN1
100
AcDbLine
 10
-961.9654063974943
 20
1788.843416651236
 30
0.0
 11
-962.465408047093
 21
1788.843416651236
 31
0.0
  0
LINE
  5
1721C
330
1A
100
AcDbEntity
  8
ZISSEN1
100
AcDbLine
 10
-962.465408047093
 20
1788.343415001637
 30
0.0
 11
-962.465408047093
 21
1788.843416651236
 31
0.0
  0
LINE
  5
1721D
330
1A
100
AcDbEntity
  8
ZISSEN1
100
AcDbLine
 10
-961.9654063974943
 20
1788.843416651236
 30
0.0
 11
-961.9654063974943
 21
1795.24341054772
 31
0.0
  0
LINE
  5
1721E
330
1A
100
AcDbEntity
  8
ZISSEN1
100
AcDbLine
 10
-957.5153991392594
 20
1806.743473232475
 30
0.0
 11
-957.5153991392594
 21
1802.743472407676
 31
0.0
  0
LINE
  5
1721F
330
1A
100
AcDbEntity
  8
ZISSEN1
100
AcDbLine
 10
-967.9654014486976
 20
1806.74341137252
 30
0.0
 11
-968.9653923759042
 21
1805.743420445313
 31
0.0
  0
LINE
  5
17220
330
1A
100
AcDbEntity
  8
ZISSEN1
100
AcDbLine
 10
-971.1654169549266
 20
1795.943417805955
 30
0.0
 11
-969.5654092018122
 21
1795.943417805955
 31
0.0
  0
LINE
  5
17221
330
1A
100
AcDbEntity
  8
ZISSEN1
100
AcDbLine
 10
-967.5654149754079
 20
1796.443419455554
 30
0.0
 11
-967.5654149754079
 21
1795.743412197319
 31
0.0
  0
LINE
  5
17222
330
1A
100
AcDbEntity
  8
ZISSEN1
100
AcDbLine
 10
-969.0654199242045
 20
1795.743412197319
 30
0.0
 11
-969.0654199242045
 21
1795.24341054772
 31
0.0
  0
LINE
  5
17223
330
1A
100
AcDbEntity
  8
ZISSEN1
100
AcDbLine
 10
-969.5654092018122
 20
1795.24341054772
 30
0.0
 11
-969.0654199242045
 21
1795.24341054772
 31
0.0
  0
LINE
  5
17224
330
1A
100
AcDbEntity
  8
ZISSEN1
100
AcDbLine
 10
-971.9654146454882
 20
1796.443419455554
 30
0.0
 11
-973.5654100266115
 21
1796.443419455554
 31
0.0
  0
LINE
  5
17225
330
1A
100
AcDbEntity
  8
ZISSEN1
100
AcDbLine
 10
-971.9654146454882
 20
1794.273421699008
 30
0.0
 11
-971.1654169549266
 21
1794.273421699008
 31
0.0
  0
CIRCLE
  5
17226
330
1A
100
AcDbEntity
  8
ZISSEN1
100
AcDbCircle
 10
-965.5654083770128
 20
1792.043419785473
 30
0.0
 40
1.600000020619985
  0
LINE
  5
17227
330
1A
100
AcDbEntity
  8
ZISSEN1
100
AcDbLine
 10
-967.0654133258093
 20
1788.948417739971
 30
0.0
 11
-969.4654187694853
 21
1788.948417739971
 31
0.0
  0
LINE
  5
17228
330
1A
100
AcDbEntity
  8
ZISSEN1
100
AcDbLine
 10
-971.9654146454882
 20
1788.943419455554
 30
0.0
 11
-973.5654100266115
 21
1788.943419455554
 31
0.0
  0
LINE
  5
17229
330
1A
100
AcDbEntity
  8
ZISSEN1
100
AcDbLine
 10
-971.9654146454882
 20
1792.273415100613
 30
0.0
 11
-971.9654146454882
 21
1791.023410976616
 31
0.0
  0
LINE
  5
1722A
330
1A
100
AcDbEntity
  8
ZISSEN1
100
AcDbLine
 10
-971.9654146454882
 20
1792.273415100613
 30
0.0
 11
-971.1654169549266
 21
1792.273415100613
 31
0.0
  0
LINE
  5
1722B
330
1A
100
AcDbEntity
  8
ZISSEN1
100
AcDbLine
 10
-971.9654146454882
 20
1791.023410976616
 30
0.0
 11
-971.1654169549266
 21
1791.023410976616
 31
0.0
  0
LINE
  5
1722C
330
1A
100
AcDbEntity
  8
ZISSEN1
100
AcDbLine
 10
-971.9654146454882
 20
1793.023417575011
 30
0.0
 11
-971.1654169549266
 21
1793.023417575011
 31
0.0
  0
LINE
  5
1722D
330
1A
100
AcDbEntity
  8
ZISSEN1
100
AcDbLine
 10
-973.5654100266115
 20
1788.943419455554
 30
0.0
 11
-973.5654100266115
 21
1796.443419455554
 31
0.0
  0
LINE
  5
1722E
330
1A
100
AcDbEntity
  8
ZISSEN1
100
AcDbLine
 10
-969.5654092018122
 20
1794.993422094912
 30
0.0
 11
-969.5654092018122
 21
1791.49341054772
 31
0.0
  0
LINE
  5
1722F
330
1A
100
AcDbEntity
  8
ZISSEN1
100
AcDbLine
 10
-969.5654092018122
 20
1794.993422094912
 30
0.0
 11
-969.5654092018122
 21
1791.49341054772
 31
0.0
  0
LINE
  5
17230
330
1A
100
AcDbEntity
  8
ZISSEN1
100
AcDbLine
 10
-969.5654092018122
 20
1788.843416651236
 30
0.0
 11
-969.5654092018122
 21
1795.24341054772
 31
0.0
  0
LINE
  5
17231
330
1A
100
AcDbEntity
  8
ZISSEN1
100
AcDbLine
 10
-971.9654146454882
 20
1794.273421699008
 30
0.0
 11
-971.9654146454882
 21
1793.023417575011
 31
0.0
  0
LINE
  5
17232
330
1A
100
AcDbEntity
  8
ZISSEN1
100
AcDbLine
 10
-968.9653923759042
 20
1805.743420445313
 30
0.0
 11
-968.9653923759042
 21
1800.243414671717
 31
0.0
  0
LINE
  5
17233
330
1A
100
AcDbEntity
  8
CL1
100
AcDbLine
 10
-955.7654057376547
 20
1806.74341137252
 30
0.0
 11
-955.7654057376547
 21
1798.606357831985
 31
0.0
  0
LINE
  5
17234
330
1A
100
AcDbEntity
  8
ZISSEN1
100
AcDbLine
 10
-949.5654050778151
 20
1806.74341137252
 30
0.0
 11
-948.5654017786174
 21
1805.743420445313
 31
0.0
  0
LINE
  5
17235
330
1A
100
AcDbEntity
  8
ZISSEN1
100
AcDbLine
 10
-949.5654050778151
 20
1806.74341137252
 30
0.0
 11
-954.0153875920676
 21
1806.74341137252
 31
0.0
  0
LINE
  5
17236
330
1A
100
AcDbEntity
  8
ZISSEN1
100
AcDbLine
 10
-942.8654027683768
 20
1795.743412197319
 30
0.0
 11
-942.8654027683768
 21
1795.24341054772
 31
0.0
  0
LINE
  5
17237
330
1A
100
AcDbEntity
  8
ZISSEN1
100
AcDbLine
 10
-942.3654258627601
 20
1795.24341054772
 30
0.0
 11
-942.8654027683768
 21
1795.24341054772
 31
0.0
  0
LINE
  5
17238
330
1A
100
AcDbEntity
  8
ZISSEN1
100
AcDbLine
 10
-942.3654258627601
 20
1788.843416651236
 30
0.0
 11
-942.8654027683768
 21
1788.843416651236
 31
0.0
  0
LINE
  5
17239
330
1A
100
AcDbEntity
  8
ZISSEN1
100
AcDbLine
 10
-942.8654027683768
 20
1788.343415001637
 30
0.0
 11
-942.8654027683768
 21
1788.843416651236
 31
0.0
  0
LINE
  5
1723A
330
1A
100
AcDbEntity
  8
ZISSEN1
100
AcDbLine
 10
-942.3654258627601
 20
1788.843416651236
 30
0.0
 11
-942.3654258627601
 21
1795.24341054772
 31
0.0
  0
LINE
  5
1723B
330
1A
100
AcDbEntity
  8
ZISSEN1
100
AcDbLine
 10
-947.9654096966918
 20
1796.443419455554
 30
0.0
 11
-947.9654096966918
 21
1795.743412197319
 31
0.0
  0
LINE
  5
1723C
330
1A
100
AcDbEntity
  8
ZISSEN1
100
AcDbLine
 10
-949.4654146454882
 20
1795.743412197319
 30
0.0
 11
-949.4654146454882
 21
1795.24341054772
 31
0.0
  0
LINE
  5
1723D
330
1A
100
AcDbEntity
  8
ZISSEN1
100
AcDbLine
 10
-949.9654162950871
 20
1795.24341054772
 30
0.0
 11
-949.4654146454882
 21
1795.24341054772
 31
0.0
  0
LINE
  5
1723E
330
1A
100
AcDbEntity
  8
ZISSEN1
100
AcDbLine
 10
-952.3654093667721
 20
1794.273421699008
 30
0.0
 11
-951.5654116762103
 21
1794.273421699008
 31
0.0
  0
LINE
  5
1723F
330
1A
100
AcDbEntity
  8
ZISSEN1
100
AcDbLine
 10
-951.5654116762103
 20
1795.943417805955
 30
0.0
 11
-949.9654162950871
 21
1795.943417805955
 31
0.0
  0
LINE
  5
17240
330
1A
100
AcDbEntity
  8
ZISSEN1
100
AcDbLine
 10
-947.465408047093
 20
1788.948417739971
 30
0.0
 11
-949.8654258627601
 21
1788.948417739971
 31
0.0
  0
LINE
  5
17241
330
1A
100
AcDbEntity
  8
ZISSEN1
100
AcDbLine
 10
-952.3654093667721
 20
1788.943419455554
 30
0.0
 11
-953.9654047478954
 21
1788.943419455554
 31
0.0
  0
LINE
  5
17242
330
1A
100
AcDbEntity
  8
ZISSEN1
100
AcDbLine
 10
-952.3654093667721
 20
1792.273415100613
 30
0.0
 11
-952.3654093667721
 21
1791.023410976616
 31
0.0
  0
LINE
  5
17243
330
1A
100
AcDbEntity
  8
ZISSEN1
100
AcDbLine
 10
-952.3654093667721
 20
1792.273415100613
 30
0.0
 11
-951.5654116762103
 21
1792.273415100613
 31
0.0
  0
LINE
  5
17244
330
1A
100
AcDbEntity
  8
ZISSEN1
100
AcDbLine
 10
-952.3654093667721
 20
1791.023410976616
 30
0.0
 11
-951.5654116762103
 21
1791.023410976616
 31
0.0
  0
LINE
  5
17245
330
1A
100
AcDbEntity
  8
ZISSEN1
100
AcDbLine
 10
-952.3654093667721
 20
1793.023417575011
 30
0.0
 11
-951.5654116762103
 21
1793.023417575011
 31
0.0
  0
LINE
  5
17246
330
1A
100
AcDbEntity
  8
ZISSEN1
100
AcDbLine
 10
-953.9654047478954
 20
1788.943419455554
 30
0.0
 11
-953.9654047478954
 21
1796.443419455554
 31
0.0
  0
LINE
  5
17247
330
1A
100
AcDbEntity
  8
ZISSEN1
100
AcDbLine
 10
-949.9654162950871
 20
1794.993422094912
 30
0.0
 11
-949.9654162950871
 21
1791.49341054772
 31
0.0
  0
LINE
  5
17248
330
1A
100
AcDbEntity
  8
ZISSEN1
100
AcDbLine
 10
-949.9654162950871
 20
1794.993422094912
 30
0.0
 11
-949.9654162950871
 21
1791.49341054772
 31
0.0
  0
LINE
  5
17249
330
1A
100
AcDbEntity
  8
ZISSEN1
100
AcDbLine
 10
-949.9654162950871
 20
1788.843416651236
 30
0.0
 11
-949.9654162950871
 21
1795.24341054772
 31
0.0
  0
LINE
  5
1724A
330
1A
100
AcDbEntity
  8
ZISSEN1
100
AcDbLine
 10
-952.3654093667721
 20
1794.273421699008
 30
0.0
 11
-952.3654093667721
 21
1793.023417575011
 31
0.0
  0
LINE
  5
1724B
330
1A
100
AcDbEntity
  8
ZISSEN1
100
AcDbLine
 10
-953.9654047478954
 20
1796.443419455554
 30
0.0
 11
-939.9654080470929
 21
1796.443419455554
 31
0.0
  0
LINE
  5
1724C
330
1A
100
AcDbEntity
  8
ZISSEN1
100
AcDbLine
 10
-942.8654027683768
 20
1795.743412197319
 30
0.0
 11
-949.4654146454882
 21
1795.743412197319
 31
0.0
  0
LINE
  5
1724D
330
1A
100
AcDbEntity
  8
ZISSEN1
100
AcDbLine
 10
-942.8654027683768
 20
1788.343415001637
 30
0.0
 11
-947.465408047093
 21
1788.343415001637
 31
0.0
  0
CIRCLE
  5
1724E
330
1A
100
AcDbEntity
  8
ZISSEN1
100
AcDbCircle
 10
-945.9654030982965
 20
1792.043419785473
 30
0.0
 40
1.600000020619985
  0
LINE
  5
1724F
330
1A
100
AcDbEntity
  8
ZISSEN1
100
AcDbLine
 10
-954.0153875920676
 20
1806.743473232475
 30
0.0
 11
-954.0153875920676
 21
1802.743472407676
 31
0.0
  0
LINE
  5
17250
330
1A
100
AcDbEntity
  8
ZISSEN1
100
AcDbLine
 10
-948.5654017786174
 20
1805.743420445313
 30
0.0
 11
-948.5654017786174
 21
1800.243414671717
 31
0.0
  0
LINE
  5
17251
330
1A
100
AcDbEntity
  8
ZISSEN1
100
AcDbLine
 10
-970.1654383997112
 20
1862.23945965805
 30
0.0
 11
-959.6654408741095
 21
1862.23945965805
 31
0.0
  0
LINE
  5
17252
330
1A
100
AcDbEntity
  8
ZISSEN1
100
AcDbLine
 10
-967.865435760353
 20
1831.589472359961
 30
0.0
 11
-959.9654369150723
 21
1831.589472359961
 31
0.0
  0
LINE
  5
17253
330
1A
100
AcDbEntity
  8
ZISSEN1
100
AcDbLine
 10
-958.0654454929861
 20
1834.089468235964
 30
0.0
 11
-958.0654454929861
 21
1835.789466421405
 31
0.0
  0
LINE
  5
17254
330
1A
100
AcDbEntity
  8
ZISSEN1
100
AcDbLine
 10
-959.9654369150723
 20
1833.589466586365
 30
0.0
 11
-959.6654408741095
 21
1833.589466586365
 31
0.0
  0
LINE
  5
17255
330
1A
100
AcDbEntity
  8
ZISSEN1
100
AcDbLine
 10
-959.6654408741095
 20
1834.089468235964
 30
0.0
 11
-959.6654408741095
 21
1835.789466421405
 31
0.0
  0
LINE
  5
17256
330
1A
100
AcDbEntity
  8
ZISSEN1
100
AcDbLine
 10
-959.6654408741095
 20
1833.589466586365
 30
0.0
 11
-959.6654408741095
 21
1835.789466421405
 31
0.0
  0
LINE
  5
17257
330
1A
100
AcDbEntity
  8
ZISSEN1
100
AcDbLine
 10
-959.6654408741095
 20
1834.089468235964
 30
0.0
 11
-958.0654454929861
 21
1834.089468235964
 31
0.0
  0
LINE
  5
17258
330
1A
100
AcDbEntity
  8
ZISSEN1
100
AcDbLine
 10
-959.9654369150723
 20
1831.589472359961
 30
0.0
 11
-959.9654369150723
 21
1833.589466586365
 31
0.0
  0
LINE
  5
17259
330
1A
100
AcDbEntity
  8
ZISSEN1
100
AcDbLine
 10
-969.6654367501123
 20
1833.82947084233
 30
0.0
 11
-969.5654463177854
 21
1833.82947084233
 31
0.0
  0
LINE
  5
1725A
330
1A
100
AcDbEntity
  8
ZISSEN1
100
AcDbLine
 10
-969.6654367501123
 20
1830.389463452127
 30
0.0
 11
-971.2654445032269
 21
1830.389463452127
 31
0.0
  0
LINE
  5
1725B
330
1A
100
AcDbEntity
  8
ZISSEN1
100
AcDbLine
 10
-969.6654367501123
 20
1830.389463452127
 30
0.0
 11
-971.2654445032269
 21
1830.389463452127
 31
0.0
  0
LINE
  5
1725C
330
1A
100
AcDbEntity
  8
ZISSEN1
100
AcDbLine
 10
-971.2654445032269
 20
1831.389466751325
 30
0.0
 11
-969.6654367501123
 21
1831.389466751325
 31
0.0
  0
LINE
  5
1725D
330
1A
100
AcDbEntity
  8
ZISSEN1
100
AcDbLine
 10
-967.865435760353
 20
1831.589472359961
 30
0.0
 11
-967.865435760353
 21
1833.029473151768
 31
0.0
  0
LINE
  5
1725E
330
1A
100
AcDbEntity
  8
ZISSEN1
100
AcDbLine
 10
-968.1004417319007
 20
1833.029473151768
 30
0.0
 11
-967.865435760353
 21
1832.089474009559
 31
0.0
  0
LINE
  5
1725F
330
1A
100
AcDbEntity
  8
ZISSEN1
100
AcDbLine
 10
-968.6654458229059
 20
1833.029473151768
 30
0.0
 11
-968.6654458229059
 21
1832.92947034745
 31
0.0
  0
LINE
  5
17260
330
1A
100
AcDbEntity
  8
ZISSEN1
100
AcDbLine
 10
-968.6654458229059
 20
1832.92947034745
 30
0.0
 11
-969.6654367501123
 21
1832.92947034745
 31
0.0
  0
LINE
  5
17261
330
1A
100
AcDbEntity
  8
ZISSEN1
100
AcDbLine
 10
-967.1654408741094
 20
1833.029473151768
 30
0.0
 11
-969.5654463177854
 21
1833.029473151768
 31
0.0
  0
LINE
  5
17262
330
1A
100
AcDbEntity
  8
ZISSEN1
100
AcDbLine
 10
-969.6654367501123
 20
1832.92947034745
 30
0.0
 11
-969.6654367501123
 21
1833.82947084233
 31
0.0
  0
LINE
  5
17263
330
1A
100
AcDbEntity
  8
ZISSEN1
100
AcDbLine
 10
-967.1654408741094
 20
1833.029473151768
 30
0.0
 11
-967.1654408741094
 21
1835.789466421405
 31
0.0
  0
LINE
  5
17264
330
1A
100
AcDbEntity
  8
ZISSEN1
100
AcDbLine
 10
-968.7654362552327
 20
1835.789466421405
 30
0.0
 11
-968.7654362552327
 21
1833.029473151768
 31
0.0
  0
LINE
  5
17265
330
1A
100
AcDbEntity
  8
ZISSEN1
100
AcDbLine
 10
-969.5654463177854
 20
1833.029473151768
 30
0.0
 11
-969.5654463177854
 21
1835.789466421405
 31
0.0
  0
LINE
  5
17266
330
1A
100
AcDbEntity
  8
ZISSEN1
100
AcDbLine
 10
-969.6654367501123
 20
1835.789466421405
 30
0.0
 11
-969.6654367501123
 21
1830.389463452127
 31
0.0
  0
LINE
  5
17267
330
1A
100
AcDbEntity
  8
ZISSEN1
100
AcDbLine
 10
-971.2654445032269
 20
1830.389463452127
 30
0.0
 11
-971.2654445032269
 21
1835.789466421405
 31
0.0
  0
LINE
  5
17268
330
1A
100
AcDbEntity
  8
ZISSEN1
100
AcDbLine
 10
-950.565445492986
 20
1862.23945965805
 30
0.0
 11
-940.0654355953932
 21
1862.23945965805
 31
0.0
  0
LINE
  5
17269
330
1A
100
AcDbEntity
  8
ZISSEN1
100
AcDbLine
 10
-938.4654402142698
 20
1834.089468235964
 30
0.0
 11
-938.4654402142698
 21
1835.789466421405
 31
0.0
  0
LINE
  5
1726A
330
1A
100
AcDbEntity
  8
ZISSEN1
100
AcDbLine
 10
-940.365431636356
 20
1833.589466586365
 30
0.0
 11
-940.0654355953932
 21
1833.589466586365
 31
0.0
  0
LINE
  5
1726B
330
1A
100
AcDbEntity
  8
ZISSEN1
100
AcDbLine
 10
-940.0654355953932
 20
1834.089468235964
 30
0.0
 11
-940.0654355953932
 21
1835.789466421405
 31
0.0
  0
LINE
  5
1726C
330
1A
100
AcDbEntity
  8
ZISSEN1
100
AcDbLine
 10
-940.0654355953932
 20
1833.589466586365
 30
0.0
 11
-940.0654355953932
 21
1835.789466421405
 31
0.0
  0
LINE
  5
1726D
330
1A
100
AcDbEntity
  8
ZISSEN1
100
AcDbLine
 10
-940.365431636356
 20
1831.589472359961
 30
0.0
 11
-940.365431636356
 21
1833.589466586365
 31
0.0
  0
LINE
  5
1726E
330
1A
100
AcDbEntity
  8
ZISSEN1
100
AcDbLine
 10
-940.0654355953932
 20
1834.089468235964
 30
0.0
 11
-938.4654402142698
 21
1834.089468235964
 31
0.0
  0
LINE
  5
1726F
330
1A
100
AcDbEntity
  8
ZISSEN1
100
AcDbLine
 10
-950.0654438433873
 20
1833.82947084233
 30
0.0
 11
-949.9654534110604
 21
1833.82947084233
 31
0.0
  0
LINE
  5
17270
330
1A
100
AcDbEntity
  8
ZISSEN1
100
AcDbLine
 10
-948.265442853628
 20
1831.589472359961
 30
0.0
 11
-948.265442853628
 21
1833.029473151768
 31
0.0
  0
LINE
  5
17271
330
1A
100
AcDbEntity
  8
ZISSEN1
100
AcDbLine
 10
-948.5004364531844
 20
1833.029473151768
 30
0.0
 11
-948.265442853628
 21
1832.089474009559
 31
0.0
  0
LINE
  5
17272
330
1A
100
AcDbEntity
  8
ZISSEN1
100
AcDbLine
 10
-947.5654355953931
 20
1833.029473151768
 30
0.0
 11
-949.9654534110604
 21
1833.029473151768
 31
0.0
  0
LINE
  5
17273
330
1A
100
AcDbEntity
  8
ZISSEN1
100
AcDbLine
 10
-949.0654405441896
 20
1833.029473151768
 30
0.0
 11
-949.0654405441896
 21
1832.92947034745
 31
0.0
  0
LINE
  5
17274
330
1A
100
AcDbEntity
  8
ZISSEN1
100
AcDbLine
 10
-949.0654405441896
 20
1832.92947034745
 30
0.0
 11
-950.0654438433873
 21
1832.92947034745
 31
0.0
  0
LINE
  5
17275
330
1A
100
AcDbEntity
  8
ZISSEN1
100
AcDbLine
 10
-950.0654438433873
 20
1830.389463452127
 30
0.0
 11
-951.6654392245106
 21
1830.389463452127
 31
0.0
  0
LINE
  5
17276
330
1A
100
AcDbEntity
  8
ZISSEN1
100
AcDbLine
 10
-951.6654392245106
 20
1831.389466751325
 30
0.0
 11
-950.0654438433873
 21
1831.389466751325
 31
0.0
  0
LINE
  5
17277
330
1A
100
AcDbEntity
  8
ZISSEN1
100
AcDbLine
 10
-950.0654438433873
 20
1832.92947034745
 30
0.0
 11
-950.0654438433873
 21
1833.82947084233
 31
0.0
  0
LINE
  5
17278
330
1A
100
AcDbEntity
  8
ZISSEN1
100
AcDbLine
 10
-947.5654355953931
 20
1833.029473151768
 30
0.0
 11
-947.5654355953931
 21
1835.789466421405
 31
0.0
  0
LINE
  5
17279
330
1A
100
AcDbEntity
  8
ZISSEN1
100
AcDbLine
 10
-949.1654309765165
 20
1835.789466421405
 30
0.0
 11
-949.1654309765165
 21
1833.029473151768
 31
0.0
  0
LINE
  5
1727A
330
1A
100
AcDbEntity
  8
ZISSEN1
100
AcDbLine
 10
-949.9654534110604
 20
1833.029473151768
 30
0.0
 11
-949.9654534110604
 21
1835.789466421405
 31
0.0
  0
LINE
  5
1727B
330
1A
100
AcDbEntity
  8
ZISSEN1
100
AcDbLine
 10
-950.0654438433873
 20
1835.789466421405
 30
0.0
 11
-950.0654438433873
 21
1830.389463452127
 31
0.0
  0
LINE
  5
1727C
330
1A
100
AcDbEntity
  8
ZISSEN1
100
AcDbLine
 10
-951.6654392245106
 20
1830.389463452127
 30
0.0
 11
-951.6654392245106
 21
1835.789466421405
 31
0.0
  0
LINE
  5
1727D
330
1A
100
AcDbEntity
  8
ZISSEN1
100
AcDbLine
 10
-948.265442853628
 20
1831.589472359961
 30
0.0
 11
-940.365431636356
 21
1831.589472359961
 31
0.0
  0
LINE
  5
1727E
330
1A
100
AcDbEntity
  8
ZISSEN1
100
AcDbLine
 10
-937.8654110163708
 20
1755.043421435072
 30
0.0
 11
-937.8654110163708
 21
1696.243417970915
 31
0.0
  0
LINE
  5
1727F
330
1A
100
AcDbEntity
  8
ZISSEN1
100
AcDbLine
 10
-932.3654176147661
 20
1689.243388690536
 30
0.0
 11
-932.3654176147661
 21
1800.243414671717
 31
0.0
  0
LINE
  5
17280
330
1A
100
AcDbEntity
  8
ZISSEN1
100
AcDbLine
 10
-932.865419264365
 20
1798.443413681958
 30
0.0
 11
-932.865419264365
 21
1691.043389680295
 31
0.0
  0
LINE
  5
17281
330
1A
100
AcDbEntity
  8
ZISSEN1
100
AcDbLine
 10
-934.3654242131613
 20
1622.119216640759
 30
0.0
 11
-934.3654242131613
 21
1628.119211691963
 31
0.0
  0
LINE
  5
17282
330
1A
100
AcDbEntity
  8
ZISSEN1
100
AcDbLine
 10
-934.3654242131613
 20
1628.119211691963
 30
0.0
 11
-936.3654060675743
 21
1628.119211691963
 31
0.0
  0
LINE
  5
17283
330
1A
100
AcDbEntity
  8
ZISSEN1
100
AcDbLine
 10
-936.3654060675743
 20
1622.119216640759
 30
0.0
 11
-934.3654242131613
 21
1622.119216640759
 31
0.0
  0
LINE
  5
17284
330
1A
100
AcDbEntity
  8
ZISSEN1
100
AcDbLine
 10
-934.3654242131613
 20
1639.319204103808
 30
0.0
 11
-932.3654176147661
 21
1639.319204103808
 31
0.0
  0
LINE
  5
17285
330
1A
100
AcDbEntity
  8
ZISSEN1
100
AcDbLine
 10
-934.3654242131613
 20
1640.319207403006
 30
0.0
 11
-932.3654176147661
 21
1640.319207403006
 31
0.0
  0
LINE
  5
17286
330
1A
100
AcDbEntity
  8
ZISSEN1
100
AcDbLine
 10
-932.8654192643648
 20
1641.119205093567
 30
0.0
 11
-932.8654192643648
 21
1640.319207403006
 31
0.0
  0
LINE
  5
17287
330
1A
100
AcDbEntity
  8
ZISSEN1
100
AcDbLine
 10
-933.8654225635625
 20
1641.119205093567
 30
0.0
 11
-933.8654225635625
 21
1640.319207403006
 31
0.0
  0
LINE
  5
17288
330
1A
100
AcDbEntity
  8
ZISSEN1
100
AcDbLine
 10
-932.8654192643648
 20
1640.319207403006
 30
0.0
 11
-936.3654060675743
 21
1640.319207403006
 31
0.0
  0
LINE
  5
17289
330
1A
100
AcDbEntity
  8
ZISSEN1
100
AcDbLine
 10
-932.865419264365
 20
1691.043389680295
 30
0.0
 11
-933.8654225635625
 21
1690.043386381097
 31
0.0
  0
LINE
  5
1728A
330
1A
100
AcDbEntity
  8
ZISSEN1
100
AcDbLine
 10
-933.6654169549266
 20
1690.243379617742
 30
0.0
 11
-932.3654176147661
 21
1690.243379617742
 31
0.0
  0
LINE
  5
1728B
330
1A
100
AcDbEntity
  8
ZISSEN1
100
AcDbLine
 10
-933.8654225635625
 20
1690.043386381097
 30
0.0
 11
-936.3654060675743
 21
1690.043386381097
 31
0.0
  0
LINE
  5
1728C
330
1A
100
AcDbEntity
  8
ZISSEN1
100
AcDbLine
 10
-932.3654176147661
 20
1689.243388690536
 30
0.0
 11
-936.3654060675743
 21
1689.243388690536
 31
0.0
  0
LINE
  5
1728D
330
1A
100
AcDbEntity
  8
ZISSEN1
100
AcDbLine
 10
-936.3654060675743
 20
1690.043386381097
 30
0.0
 11
-936.3654060675743
 21
1689.243388690536
 31
0.0
  0
LINE
  5
1728E
330
1A
100
AcDbEntity
  8
ZISSEN1
100
AcDbLine
 10
-934.3654242131613
 20
1689.243388690536
 30
0.0
 11
-934.3654242131613
 21
1690.043386381097
 31
0.0
  0
LINE
  5
1728F
330
1A
100
AcDbEntity
  8
ZISSEN1
100
AcDbLine
 10
-932.3654176147661
 20
1800.243414671717
 30
0.0
 11
-936.3654060675743
 21
1800.243414671717
 31
0.0
  0
LINE
  5
17290
330
1A
100
AcDbEntity
  8
ZISSEN1
100
AcDbLine
 10
-932.865419264365
 20
1798.443413681958
 30
0.0
 11
-933.8654225635625
 21
1799.443416981155
 31
0.0
  0
LINE
  5
17291
330
1A
100
AcDbEntity
  8
ZISSEN1
100
AcDbLine
 10
-933.6654169549266
 20
1799.243411372519
 30
0.0
 11
-932.3654176147661
 21
1799.243411372519
 31
0.0
  0
LINE
  5
17292
330
1A
100
AcDbEntity
  8
ZISSEN1
100
AcDbLine
 10
-933.8654225635625
 20
1799.443416981155
 30
0.0
 11
-936.3654060675743
 21
1799.443416981155
 31
0.0
  0
LINE
  5
17293
330
1A
100
AcDbEntity
  8
ZISSEN1
100
AcDbLine
 10
-936.3654060675743
 20
1799.443416981155
 30
0.0
 11
-936.3654060675743
 21
1800.243414671717
 31
0.0
  0
LINE
  5
17294
330
1A
100
AcDbEntity
  8
ZISSEN1
100
AcDbLine
 10
-934.3654242131613
 20
1799.443416981155
 30
0.0
 11
-934.3654242131613
 21
1800.243414671717
 31
0.0
  0
LINE
  5
17295
330
1A
100
AcDbEntity
  8
ZISSEN1
100
AcDbLine
 10
-936.4654336158746
 20
1854.789467246204
 30
0.0
 11
-934.4654517614614
 21
1854.789467246204
 31
0.0
  0
LINE
  5
17296
330
1A
100
AcDbEntity
  8
ZISSEN1
100
AcDbLine
 10
-934.4654517614614
 20
1848.789472195001
 30
0.0
 11
-936.4654336158746
 21
1848.789472195001
 31
0.0
  0
LINE
  5
17297
330
1A
100
AcDbEntity
  8
ZISSEN1
100
AcDbLine
 10
-934.4654517614614
 20
1854.789467246204
 30
0.0
 11
-934.4654517614614
 21
1848.789472195001
 31
0.0
  0
LINE
  5
17298
330
1A
100
AcDbEntity
  8
ZISSEN1
100
AcDbLine
 10
-934.4654517614614
 20
1837.589467411164
 30
0.0
 11
-932.4654451630662
 21
1837.589467411164
 31
0.0
  0
LINE
  5
17299
330
1A
100
AcDbEntity
  8
ZISSEN1
100
AcDbLine
 10
-934.4654517614614
 20
1836.589464111966
 30
0.0
 11
-932.4654451630662
 21
1836.589464111966
 31
0.0
  0
LINE
  5
1729A
330
1A
100
AcDbEntity
  8
ZISSEN1
100
AcDbLine
 10
-932.9654468126651
 20
1835.789466421405
 30
0.0
 11
-932.9654468126651
 21
1836.589464111966
 31
0.0
  0
LINE
  5
1729B
330
1A
100
AcDbEntity
  8
ZISSEN1
100
AcDbLine
 10
-933.9654501118628
 20
1835.789466421405
 30
0.0
 11
-933.9654501118628
 21
1836.589464111966
 31
0.0
  0
LINE
  5
1729C
330
1A
100
AcDbEntity
  8
ZISSEN1
100
AcDbLine
 10
-932.9654468126651
 20
1836.589464111966
 30
0.0
 11
-936.4654336158746
 21
1836.589464111966
 31
0.0
  0
LINE
  5
1729D
330
1A
100
AcDbEntity
  8
ZISSEN1
100
AcDbLine
 10
-1024.865438234751
 20
1921.789465596605
 30
0.0
 11
-934.4654517614614
 21
1921.789465596605
 31
0.0
  0
LINE
  5
1729E
330
1A
100
AcDbEntity
  8
ZISSEN1
100
AcDbLine
 10
-1024.865438234751
 20
1919.78945899821
 30
0.0
 11
-934.4654517614614
 21
1919.78945899821
 31
0.0
  0
LINE
  5
1729F
330
1A
100
AcDbEntity
  8
ZISSEN1
100
AcDbLine
 10
-947.9654220686828
 20
1917.789477143797
 30
0.0
 11
-937.4654369150722
 21
1917.789477143797
 31
0.0
  0
LINE
  5
172A0
330
1A
100
AcDbEntity
  8
ZISSEN1
100
AcDbLine
 10
-1013.065466112971
 20
1918.289478793396
 30
0.0
 11
-1011.465470731848
 21
1918.289478793396
 31
0.0
  0
LINE
  5
172A1
330
1A
100
AcDbEntity
  8
ZISSEN1
100
AcDbLine
 10
-998.9654418638687
 20
1900.439466916284
 30
0.0
 11
-1011.965435265473
 21
1900.439466916284
 31
0.0
  0
LINE
  5
172A2
330
1A
100
AcDbEntity
  8
ZISSEN1
100
AcDbLine
 10
-1019.065436420192
 20
1908.789472195001
 30
0.0
 11
-987.965430316677
 21
1908.789472195001
 31
0.0
  0
LINE
  5
172A3
330
1A
100
AcDbEntity
  8
ZISSEN1
100
AcDbLine
 10
-998.9654418638687
 20
1885.139470875321
 30
0.0
 11
-1011.965435265473
 21
1885.139470875321
 31
0.0
  0
LINE
  5
172A4
330
1A
100
AcDbEntity
  8
ZISSEN1
100
AcDbLine
 10
-1011.965435265473
 20
1900.439466916284
 30
0.0
 11
-1011.965435265473
 21
1885.139470875321
 31
0.0
  0
LINE
  5
172A5
330
1A
100
AcDbEntity
  8
ZISSEN1
100
AcDbLine
 10
-1012.615422563562
 20
1919.78945899821
 30
0.0
 11
-1012.615422563562
 21
1921.789465596605
 31
0.0
  0
LINE
  5
172A6
330
1A
100
AcDbEntity
  8
ZISSEN1
100
AcDbLine
 10
-1022.065446317785
 20
1921.389479123316
 30
0.0
 11
-1019.065436420192
 21
1921.389479123316
 31
0.0
  0
LINE
  5
172A7
330
1A
100
AcDbEntity
  8
ZISSEN1
100
AcDbLine
 10
-1019.065436420192
 20
1908.789472195001
 30
0.0
 11
-1019.065436420192
 21
1919.78945899821
 31
0.0
  0
LINE
  5
172A8
330
1A
100
AcDbEntity
  8
ZISSEN1
100
AcDbLine
 10
-1013.065466112971
 20
1918.289478793396
 30
0.0
 11
-1013.065466112971
 21
1908.789472195001
 31
0.0
  0
LINE
  5
172A9
330
1A
100
AcDbEntity
  8
ZISSEN1
100
AcDbLine
 10
-1024.865462978733
 20
1918.289478793396
 30
0.0
 11
-1024.065465288171
 21
1918.289478793396
 31
0.0
  0
LINE
  5
172AA
330
1A
100
AcDbEntity
  8
ZISSEN1
100
AcDbLine
 10
-1024.865438234751
 20
1919.78945899821
 30
0.0
 11
-1024.865438234751
 21
1921.789465596605
 31
0.0
  0
LINE
  5
172AB
330
1A
100
AcDbEntity
  8
ZISSEN1
100
AcDbLine
 10
-1019.065436420192
 20
1919.78945899821
 30
0.0
 11
-1019.065436420192
 21
1921.389479123316
 31
0.0
  0
LINE
  5
172AC
330
1A
100
AcDbEntity
  8
ZISSEN1
100
AcDbLine
 10
-1022.065446317785
 20
1919.78945899821
 30
0.0
 11
-1022.065446317785
 21
1921.389479123316
 31
0.0
  0
LINE
  5
172AD
330
1A
100
AcDbEntity
  8
ZISSEN1
100
AcDbLine
 10
-986.9654270174791
 20
1917.789477143797
 30
0.0
 11
-966.0654223986027
 21
1917.789477143797
 31
0.0
  0
LINE
  5
172AE
330
1A
100
AcDbEntity
  8
ZISSEN1
100
AcDbLine
 10
-998.9654418638687
 20
1900.439466916284
 30
0.0
 11
-998.9654418638687
 21
1885.139470875321
 31
0.0
  0
LINE
  5
172AF
330
1A
100
AcDbEntity
  8
ZISSEN1
100
AcDbLine
 10
-999.4654435134675
 20
1900.439466916284
 30
0.0
 11
-999.4654435134675
 21
1885.139470875321
 31
0.0
  0
LINE
  5
172B0
330
1A
100
AcDbEntity
  8
ZISSEN1
100
AcDbLine
 10
-1011.465470731848
 20
1885.139470875321
 30
0.0
 11
-1011.465470731848
 21
1900.439466916284
 31
0.0
  0
LINE
  5
172B1
330
1A
100
AcDbEntity
  8
ZISSEN1
100
AcDbLine
 10
-1001.465437739871
 20
1898.839471535161
 30
0.0
 11
-999.4654435134675
 21
1898.839471535161
 31
0.0
  0
LINE
  5
172B2
330
1A
100
AcDbEntity
  8
ZISSEN1
100
AcDbLine
 10
-1011.465470731848
 20
1898.839471535161
 30
0.0
 11
-1009.465464133452
 21
1898.839471535161
 31
0.0
  0
LINE
  5
172B3
330
1A
100
AcDbEntity
  8
ZISSEN1
100
AcDbLine
 10
-1001.465437739871
 20
1886.739466256445
 30
0.0
 11
-999.4654435134675
 21
1886.739466256445
 31
0.0
  0
LINE
  5
172B4
330
1A
100
AcDbEntity
  8
ZISSEN1
100
AcDbLine
 10
-1011.465470731848
 20
1886.739466256445
 30
0.0
 11
-1009.465464133452
 21
1886.739466256445
 31
0.0
  0
LINE
  5
172B5
330
1A
100
AcDbEntity
  8
ZISSEN1
100
AcDbLine
 10
-999.4654435134675
 20
1886.739466256445
 30
0.0
 11
-999.4654435134675
 21
1898.839471535161
 31
0.0
  0
LINE
  5
172B6
330
1A
100
AcDbEntity
  8
ZISSEN1
100
AcDbLine
 10
-1001.465437739871
 20
1886.739466256445
 30
0.0
 11
-1001.465437739871
 21
1898.839471535161
 31
0.0
  0
LINE
  5
172B7
330
1A
100
AcDbEntity
  8
ZISSEN1
100
AcDbLine
 10
-1009.465464133452
 20
1886.739466256445
 30
0.0
 11
-1009.465464133452
 21
1898.839471535161
 31
0.0
  0
LINE
  5
172B8
330
1A
100
AcDbEntity
  8
ZISSEN1
100
AcDbLine
 10
-989.2654420288286
 20
1875.939460317889
 30
0.0
 11
-987.2654354304332
 21
1875.939460317889
 31
0.0
  0
LINE
  5
172B9
330
1A
100
AcDbEntity
  8
ZISSEN1
100
AcDbLine
 10
-989.2654420288286
 20
1863.839479783155
 30
0.0
 11
-987.2654354304332
 21
1863.839479783155
 31
0.0
  0
LINE
  5
172BA
330
1A
100
AcDbEntity
  8
ZISSEN1
100
AcDbLine
 10
-989.7654436784273
 20
1876.265858187927
 30
0.0
 11
-989.7654436784273
 21
1863.26584004234
 31
0.0
  0
LINE
  5
172BB
330
1A
100
AcDbEntity
  8
ZISSEN1
100
AcDbLine
 10
-987.2654354304332
 20
1863.839479783155
 30
0.0
 11
-987.2654354304332
 21
1875.939460317889
 31
0.0
  0
LINE
  5
172BC
330
1A
100
AcDbEntity
  8
ZISSEN1
100
AcDbLine
 10
-989.7654436784273
 20
1877.539480442995
 30
0.0
 11
-979.2654461528256
 21
1877.539480442995
 31
0.0
  0
LINE
  5
172BD
330
1A
100
AcDbEntity
  8
CL1
100
AcDbLine
 10
-1010.765401613657
 20
1923.385525175505
 30
0.0
 11
-1010.765401613657
 21
1918.289478793396
 31
0.0
  0
LINE
  5
172BE
330
1A
100
AcDbEntity
  8
ZISSEN1
100
AcDbLine
 10
-999.4654435134675
 20
1918.289478793396
 30
0.0
 11
-997.8654357603531
 21
1918.289478793396
 31
0.0
  0
LINE
  5
172BF
330
1A
100
AcDbEntity
  8
ZISSEN1
100
AcDbLine
 10
-997.8654357603531
 20
1918.289478793396
 30
0.0
 11
-997.8654357603531
 21
1908.789472195001
 31
0.0
  0
LINE
  5
172C0
330
1A
100
AcDbEntity
  8
ZISSEN1
100
AcDbLine
 10
-999.4654435134675
 20
1918.289478793396
 30
0.0
 11
-999.4654435134675
 21
1908.789472195001
 31
0.0
  0
LINE
  5
172C1
330
1A
100
AcDbEntity
  8
ZISSEN1
100
AcDbLine
 10
-1011.465470731848
 20
1908.789472195001
 30
0.0
 11
-1011.465470731848
 21
1918.289478793396
 31
0.0
  0
LINE
  5
172C2
330
1A
100
AcDbEntity
  8
ZISSEN1
100
AcDbLine
 10
-1009.115423388361
 20
1919.78945899821
 30
0.0
 11
-1009.115423388361
 21
1921.789465596605
 31
0.0
  0
LINE
  5
172C3
330
1A
100
AcDbEntity
  8
ZISSEN1
100
AcDbLine
 10
-987.965430316677
 20
1916.789473844599
 30
0.0
 11
-986.9654270174791
 21
1917.789477143797
 31
0.0
  0
LINE
  5
172C4
330
1A
100
AcDbEntity
  8
ZISSEN1
100
AcDbLine
 10
-987.965430316677
 20
1916.789473844599
 30
0.0
 11
-987.965430316677
 21
1908.789472195001
 31
0.0
  0
LINE
  5
172C5
330
1A
100
AcDbEntity
  8
ZISSEN1
100
AcDbLine
 10
-990.8654374099519
 20
1918.289478793396
 30
0.0
 11
-989.2654420288286
 21
1918.289478793396
 31
0.0
  0
LINE
  5
172C6
330
1A
100
AcDbEntity
  8
ZISSEN1
100
AcDbLine
 10
-989.2654420288286
 20
1911.089474834358
 30
0.0
 11
-989.2654420288286
 21
1908.789472195001
 31
0.0
  0
LINE
  5
172C7
330
1A
100
AcDbEntity
  8
ZISSEN1
100
AcDbLine
 10
-990.8654374099519
 20
1908.789472195001
 30
0.0
 11
-990.8654374099519
 21
1918.289478793396
 31
0.0
  0
LINE
  5
172C8
330
1A
100
AcDbEntity
  8
ZISSEN1
100
AcDbLine
 10
-989.2654420288286
 20
1918.289478793396
 30
0.0
 11
-989.2654420288286
 21
1908.789472195001
 31
0.0
  0
LINE
  5
172C9
330
1A
100
AcDbEntity
  8
ZISSEN1
100
AcDbLine
 10
-987.4654286670782
 20
1919.78945899821
 30
0.0
 11
-987.4654286670782
 21
1921.789465596605
 31
0.0
  0
LINE
  5
172CA
330
1A
100
AcDbEntity
  8
ZISSEN1
100
AcDbLine
 10
-970.1654383997112
 20
1877.539480442995
 30
0.0
 11
-959.6654408741095
 21
1877.539480442995
 31
0.0
  0
LINE
  5
172CB
330
1A
100
AcDbEntity
  8
ZISSEN1
100
AcDbLine
 10
-969.6654367501123
 20
1875.939460317889
 30
0.0
 11
-967.6654425237082
 21
1875.939460317889
 31
0.0
  0
LINE
  5
172CC
330
1A
100
AcDbEntity
  8
ZISSEN1
100
AcDbLine
 10
-969.6654367501123
 20
1863.839479783155
 30
0.0
 11
-967.6654425237082
 21
1863.839479783155
 31
0.0
  0
LINE
  5
172CD
330
1A
100
AcDbEntity
  8
ZISSEN1
100
AcDbLine
 10
-970.1654383997112
 20
1876.265858187927
 30
0.0
 11
-970.1654383997112
 21
1863.26584004234
 31
0.0
  0
LINE
  5
172CE
330
1A
100
AcDbEntity
  8
ZISSEN1
100
AcDbLine
 10
-967.6654425237082
 20
1863.839479783155
 30
0.0
 11
-967.6654425237082
 21
1875.939460317889
 31
0.0
  0
LINE
  5
172CF
330
1A
100
AcDbEntity
  8
ZISSEN1
100
AcDbLine
 10
-950.0654438433873
 20
1875.939460317889
 30
0.0
 11
-948.0654372449921
 21
1875.939460317889
 31
0.0
  0
LINE
  5
172D0
330
1A
100
AcDbEntity
  8
ZISSEN1
100
AcDbLine
 10
-950.0654438433873
 20
1863.839479783155
 30
0.0
 11
-948.0654372449921
 21
1863.839479783155
 31
0.0
  0
LINE
  5
172D1
330
1A
100
AcDbEntity
  8
ZISSEN1
100
AcDbLine
 10
-950.565445492986
 20
1876.265858187927
 30
0.0
 11
-950.565445492986
 21
1863.26584004234
 31
0.0
  0
LINE
  5
172D2
330
1A
100
AcDbEntity
  8
ZISSEN1
100
AcDbLine
 10
-948.0654372449921
 20
1863.839479783155
 30
0.0
 11
-948.0654372449921
 21
1875.939460317889
 31
0.0
  0
LINE
  5
172D3
330
1A
100
AcDbEntity
  8
ZISSEN1
100
AcDbLine
 10
-950.565445492986
 20
1877.539480442995
 30
0.0
 11
-940.0654355953932
 21
1877.539480442995
 31
0.0
  0
LINE
  5
172D4
330
1A
100
AcDbEntity
  8
ZISSEN1
100
AcDbLine
 10
-948.9654253678805
 20
1908.789472195001
 30
0.0
 11
-960.065427347399
 21
1908.789472195001
 31
0.0
  0
LINE
  5
172D5
330
1A
100
AcDbEntity
  8
ZISSEN1
100
AcDbLine
 10
-966.0654223986027
 20
1921.389404891369
 30
0.0
 11
-960.065427347399
 21
1921.389404891369
 31
0.0
  0
LINE
  5
172D6
330
1A
100
AcDbEntity
  8
ZISSEN1
100
AcDbLine
 10
-960.065427347399
 20
1919.789409510245
 30
0.0
 11
-960.065427347399
 21
1908.789472195001
 31
0.0
  0
LINE
  5
172D7
330
1A
100
AcDbEntity
  8
ZISSEN1
100
AcDbLine
 10
-957.6154266875596
 20
1919.78945899821
 30
0.0
 11
-957.6154266875596
 21
1921.789465596605
 31
0.0
  0
LINE
  5
172D8
330
1A
100
AcDbEntity
  8
ZISSEN1
100
AcDbLine
 10
-960.065427347399
 20
1919.789409510245
 30
0.0
 11
-960.065427347399
 21
1921.389404891369
 31
0.0
  0
LINE
  5
172D9
330
1A
100
AcDbEntity
  8
ZISSEN1
100
AcDbLine
 10
-966.0654223986027
 20
1919.789409510245
 30
0.0
 11
-966.0654223986027
 21
1917.789477143797
 31
0.0
  0
LINE
  5
172DA
330
1A
100
AcDbEntity
  8
ZISSEN1
100
AcDbLine
 10
-971.2654445032269
 20
1918.289478793396
 30
0.0
 11
-969.6654367501123
 21
1918.289478793396
 31
0.0
  0
LINE
  5
172DB
330
1A
100
AcDbEntity
  8
ZISSEN1
100
AcDbLine
 10
-969.6654367501123
 20
1918.289478793396
 30
0.0
 11
-969.6654367501123
 21
1917.789477143797
 31
0.0
  0
LINE
  5
172DC
330
1A
100
AcDbEntity
  8
ZISSEN1
100
AcDbLine
 10
-971.2654445032269
 20
1917.789477143797
 30
0.0
 11
-971.2654445032269
 21
1918.289478793396
 31
0.0
  0
LINE
  5
172DD
330
1A
100
AcDbEntity
  8
ZISSEN1
100
AcDbLine
 10
-969.0654199242045
 20
1919.78945899821
 30
0.0
 11
-969.0654199242045
 21
1921.789465596605
 31
0.0
  0
LINE
  5
172DE
330
1A
100
AcDbEntity
  8
ZISSEN1
100
AcDbLine
 10
-966.0654223986027
 20
1919.789409510245
 30
0.0
 11
-966.0654223986027
 21
1921.389404891369
 31
0.0
  0
LINE
  5
172DF
330
1A
100
AcDbEntity
  8
CL1
100
AcDbLine
 10
-955.7654057376547
 20
1923.385525175505
 30
0.0
 11
-955.7654057376547
 21
1918.289478793396
 31
0.0
  0
LINE
  5
172E0
330
1A
100
AcDbEntity
  8
ZISSEN1
100
AcDbLine
 10
-948.9654253678805
 20
1916.789473844599
 30
0.0
 11
-947.9654220686828
 21
1917.789477143797
 31
0.0
  0
LINE
  5
172E1
330
1A
100
AcDbEntity
  8
ZISSEN1
100
AcDbLine
 10
-951.6654392245106
 20
1918.289478793396
 30
0.0
 11
-950.0654438433873
 21
1918.289478793396
 31
0.0
  0
LINE
  5
172E2
330
1A
100
AcDbEntity
  8
ZISSEN1
100
AcDbLine
 10
-948.9654253678805
 20
1916.789473844599
 30
0.0
 11
-948.9654253678805
 21
1908.789472195001
 31
0.0
  0
LINE
  5
172E3
330
1A
100
AcDbEntity
  8
ZISSEN1
100
AcDbLine
 10
-950.0654438433873
 20
1918.289478793396
 30
0.0
 11
-950.0654438433873
 21
1908.789472195001
 31
0.0
  0
LINE
  5
172E4
330
1A
100
AcDbEntity
  8
ZISSEN1
100
AcDbLine
 10
-951.6654392245106
 20
1908.789472195001
 30
0.0
 11
-951.6654392245106
 21
1918.289478793396
 31
0.0
  0
LINE
  5
172E5
330
1A
100
AcDbEntity
  8
ZISSEN1
100
AcDbLine
 10
-948.6654293269177
 20
1919.78945899821
 30
0.0
 11
-948.6654293269177
 21
1921.789465596605
 31
0.0
  0
LINE
  5
172E6
330
1A
100
AcDbEntity
  8
ZISSEN1
100
AcDbLine
 10
-954.1154151403679
 20
1919.78945899821
 30
0.0
 11
-954.1154151403679
 21
1921.789465596605
 31
0.0
  0
LINE
  5
172E7
330
1A
100
AcDbEntity
  8
ZISSEN1
100
AcDbLine
 10
-936.4654336158746
 20
1916.789473844599
 30
0.0
 11
-937.4654369150722
 21
1917.789477143797
 31
0.0
  0
LINE
  5
172E8
330
1A
100
AcDbEntity
  8
ZISSEN1
100
AcDbLine
 10
-934.4654517614614
 20
1917.789477143797
 30
0.0
 11
-934.4654517614614
 21
1911.789457348611
 31
0.0
  0
ARC
  5
172E9
330
1A
100
AcDbEntity
  8
ZISSEN1
100
AcDbCircle
 10
-934.4654517614614
 20
1919.78945899821
 30
0.0
 40
2.000000025774981
100
AcDbArc
 50
0.0
 51
90.0
  0
VIEWPORT
  5
15177
330
15176
100
AcDbEntity
 67
     1
  8
0
100
AcDbViewport
 10
227.1483566951202
 20
162.7880672782397
 30
0.0
 40
587.8859945908259
 41
330.5281772163012
 68
     1
 69
     1
1001
ACAD
1000
MVIEW
1002
{
1070
    16
1010
0.0
1020
0.0
1030
0.0
1010
0.0
1020
0.0
1030
1.0
1040
0.0
1040
330.5281772163012
1040
227.1483566951202
1040
162.7880672782397
1040
50.0
1040
0.0
1040
0.0
1070
     0
1070
   100
1070
     1
1070
     0
1070
     0
1070
     0
1070
     0
1070
     0
1040
0.0
1040
0.0
1040
0.0
1040
1.0
1040
1.0
1040
10.0
1040
10.0
1070
     0
1002
{
1002
}
1002
}
  0
VIEWPORT
  5
15178
330
15176
100
AcDbEntity
 67
     1
  8
ZISSEN1
100
AcDbViewport
 10
221.7861955525412
 20
157.6960273330388
 30
0.0
 40
385.4999999999997
 41
259.9999999999999
 68
     2
 69
     2
1001
ACAD
1000
MVIEW
1002
{
1070
    16
1010
0.0
1020
0.0
1030
0.0
1010
0.0
1020
0.0
1030
1.0
1040
0.0
1040
520.0000004134766
1040
-1013.390603627497
1040
1754.948928027047
1040
50.0
1040
0.0
1040
0.0
1070
     0
1070
   100
1070
     1
1070
     0
1070
     0
1070
     0
1070
     0
1070
     0
1040
0.0
1040
0.0
1040
0.0
1040
1.0
1040
1.0
1040
10.0
1040
10.0
1070
     0
1002
{
1002
}
1002
}
  0
TEXT
  5
15179
330
15176
100
AcDbEntity
 67
     1
  8
SUNPOU
 62
     0
100
AcDbText
 10
374.1863124306944
 20
60.86794705907585
 30
0.0
 40
3.5
  1
縮尺 1/2
100
AcDbText
  0
ENDSEC
  0
SECTION
  2
OBJECTS
  0
DICTIONARY
  5
C
330
0
100
AcDbDictionary
  3
ACAD_GROUP
350
D
  3
ACAD_LAYOUT
350
5C7D
  3
ACAD_MLINESTYLE
350
E
  3
ACAD_PLOTSETTINGS
350
5C7E
  3
ACAD_PLOTSTYLENAME
350
5C7B
  3
ACDBVARIABLEDICTIONARY
350
13217
  3
DWGPROPS
350
5E8E
  3
ACDBHEADERROUNDTRIPXREC
350
17422
  0
DICTIONARY
  5
17442
330
1A
100
AcDbDictionary
280
     1
  3
ACAD_LAYOUTSELFREF
360
17443
  0
DICTIONARY
  5
17444
330
15176
100
AcDbDictionary
280
     1
  3
ACAD_LAYOUTSELFREF
360
17445
  0
DICTIONARY
  5
D
102
{ACAD_REACTORS
330
C
102
}
330
C
100
AcDbDictionary
  3
*A1
350
477D
  3
*A2
350
4C0F
  3
*A3
350
4C10
  3
*A4
350
4C11
  3
*A5
350
4C12
  3
*A6
350
4C13
  3
*A7
350
4C14
  3
*A8
350
4C15
  3
*A9
350
4C16
  3
*A10
350
4C17
  3
*A11
350
477E
  3
*A12
350
477F
  3
*A13
350
4780
  3
*A14
350
4781
  3
*A15
350
13853
  3
*A16
350
4C0E
  0
DICTIONARY
  5
5C7D
102
{ACAD_REACTORS
330
C
102
}
330
C
100
AcDbDictionary
  0
DICTIONARY
  5
E
102
{ACAD_REACTORS
330
C
102
}
330
C
100
AcDbDictionary
  3
STANDARD
350
13
  0
DICTIONARY
  5
5C7E
102
{ACAD_REACTORS
330
C
102
}
330
C
100
AcDbDictionary
  0
ACDBDICTIONARYWDFLT
  5
5C7B
102
{ACAD_REACTORS
330
C
102
}
330
C
100
AcDbDictionary
281
     1
  3
Normal
350
5C7C
100
AcDbDictionaryWithDefault
340
5C7C
  0
DICTIONARY
  5
13217
102
{ACAD_REACTORS
330
C
102
}
330
C
100
AcDbDictionary
  3
SORTENTS
350
13218
  0
XRECORD
  5
5E8E
102
{ACAD_REACTORS
330
C
102
}
330
C
100
AcDbXrecord
  1
DWGPROPS COOKIE
  2

  3

  4

  6

  7

  8

  9

300
=
301
=
302
=
303
=
304
=
305
=
306
=
307
=
308
=
309
=
 40
0.586753587962963
 41
2450495.493631365
 42
2453208.662277431
  1

 90
        0
  0
DICTIONARY
  5
17422
102
{ACAD_REACTORS
330
C
102
}
330
C
100
AcDbDictionary
  3
TSTACKALIGN
350
17423
  3
TSTACKSIZE
350
17424
  3
HYPERLINKBASE
350
17425
  3
STYLESHEET
350
17426
  3
LAYOUTDICT
350
17427
  3
PLOTSETDICT
350
17428
  3
PLOTSTYLNAMDICT
350
17429
  3
LWETCUNION
350
1742A
  3
INSUNITS
350
1742B
  3
CEPSNTYPE
350
1742C
  3
FINGERPRINTGUID
350
1742D
  3
VERSIONGUID
350
1742E
  3
PSVPSCALE
350
1742F
  3
PUCSORTHOREF
350
17430
  3
PUCSORTHOVIEW
350
17431
  3
PUCSBASE
350
17432
  3
PUCSORGTOP
350
17433
  3
PUCSORGBOTTOM
350
17434
  3
PUCSORGLEFT
350
17435
  3
PUCSORGRIGHT
350
17436
  3
PUCSORGFRONT
350
17437
  3
PUCSORGBACK
350
17438
  3
UCSORTHOREF
350
17439
  3
UCSORTHOVIEW
350
1743A
  3
UCSBASE
350
1743B
  3
UCSORGTOP
350
1743C
  3
UCSORGBOTTOM
350
1743D
  3
UCSORGLEFT
350
1743E
  3
UCSORGRIGHT
350
1743F
  3
UCSORGFRONT
350
17440
  3
UCSORGBACK
350
17441
  0
XRECORD
  5
17443
102
{ACAD_REACTORS
330
17442
102
}
330
17442
100
AcDbXrecord
340
1A
  0
XRECORD
  5
17445
102
{ACAD_REACTORS
330
17444
102
}
330
17444
100
AcDbXrecord
340
15176
  0
GROUP
  5
477D
102
{ACAD_REACTORS
330
D
102
}
330
D
100
AcDbGroup
300

 70
     1
 71
     1
  0
GROUP
  5
4C0F
102
{ACAD_REACTORS
330
D
102
}
330
D
100
AcDbGroup
300

 70
     1
 71
     1
  0
GROUP
  5
4C10
102
{ACAD_REACTORS
330
D
102
}
330
D
100
AcDbGroup
300

 70
     1
 71
     1
  0
GROUP
  5
4C11
102
{ACAD_REACTORS
330
D
102
}
330
D
100
AcDbGroup
300

 70
     1
 71
     1
  0
GROUP
  5
4C12
102
{ACAD_REACTORS
330
D
102
}
330
D
100
AcDbGroup
300

 70
     1
 71
     1
  0
GROUP
  5
4C13
102
{ACAD_REACTORS
330
D
102
}
330
D
100
AcDbGroup
300

 70
     1
 71
     1
  0
GROUP
  5
4C14
102
{ACAD_REACTORS
330
D
102
}
330
D
100
AcDbGroup
300

 70
     1
 71
     1
  0
GROUP
  5
4C15
102
{ACAD_REACTORS
330
D
102
}
330
D
100
AcDbGroup
300

 70
     1
 71
     1
  0
GROUP
  5
4C16
102
{ACAD_REACTORS
330
D
102
}
330
D
100
AcDbGroup
300

 70
     1
 71
     1
  0
GROUP
  5
4C17
102
{ACAD_REACTORS
330
D
102
}
330
D
100
AcDbGroup
300

 70
     1
 71
     1
  0
GROUP
  5
477E
102
{ACAD_REACTORS
330
D
102
}
330
D
100
AcDbGroup
300

 70
     1
 71
     1
  0
GROUP
  5
477F
102
{ACAD_REACTORS
330
D
102
}
330
D
100
AcDbGroup
300

 70
     1
 71
     1
  0
GROUP
  5
4780
102
{ACAD_REACTORS
330
D
102
}
330
D
100
AcDbGroup
300

 70
     1
 71
     1
  0
GROUP
  5
4781
102
{ACAD_REACTORS
330
D
102
}
330
D
100
AcDbGroup
300

 70
     1
 71
     1
  0
GROUP
  5
13853
102
{ACAD_REACTORS
330
D
102
}
330
D
100
AcDbGroup
300

 70
     1
 71
     1
  0
GROUP
  5
4C0E
102
{ACAD_REACTORS
330
D
102
}
330
D
100
AcDbGroup
300

 70
     1
 71
     1
  0
MLINESTYLE
  5
13
102
{ACAD_REACTORS
330
E
102
}
330
E
100
AcDbMlineStyle
  2
STANDARD
 70
     0
  3

 62
     0
 51
90.0
 52
90.0
 71
     2
 49
0.5
 62
   256
  6
BYLAYER
 49
-0.5
 62
   256
  6
BYLAYER
  0
ACDBPLACEHOLDER
  5
5C7C
102
{ACAD_REACTORS
330
5C7B
102
}
330
5C7B
100
AcDbPlaceHolder
280
     0
  0
DICTIONARYVAR
  5
13218
102
{ACAD_REACTORS
330
13217
102
}
330
13217
100
DictionaryVariables
280
     0
  1
96
  0
XRECORD
  5
17423
102
{ACAD_REACTORS
330
17422
102
}
330
17422
100
AcDbXrecord
 90
        1
  0
XRECORD
  5
17424
102
{ACAD_REACTORS
330
17422
102
}
330
17422
100
AcDbXrecord
 90
       70
  0
XRECORD
  5
17425
102
{ACAD_REACTORS
330
17422
102
}
330
17422
100
AcDbXrecord
  1

  0
XRECORD
  5
17426
102
{ACAD_REACTORS
330
17422
102
}
330
17422
100
AcDbXrecord
  1

  0
XRECORD
  5
17427
102
{ACAD_REACTORS
330
17422
102
}
330
17422
100
AcDbXrecord
340
5C7D
  0
XRECORD
  5
17428
102
{ACAD_REACTORS
330
17422
102
}
330
17422
100
AcDbXrecord
340
5C7E
  0
XRECORD
  5
17429
102
{ACAD_REACTORS
330
17422
102
}
330
17422
100
AcDbXrecord
340
5C7B
  0
XRECORD
  5
1742A
102
{ACAD_REACTORS
330
17422
102
}
330
17422
100
AcDbXrecord
 90
    10781
  0
XRECORD
  5
1742B
102
{ACAD_REACTORS
330
17422
102
}
330
17422
100
AcDbXrecord
 90
        0
  0
XRECORD
  5
1742C
102
{ACAD_REACTORS
330
17422
102
}
330
17422
100
AcDbXrecord
 90
        0
  0
XRECORD
  5
1742D
102
{ACAD_REACTORS
330
17422
102
}
330
17422
100
AcDbXrecord
  1
{225A7F0D-DA29-11D8-946A-0000E2416295}
  0
XRECORD
  5
1742E
102
{ACAD_REACTORS
330
17422
102
}
330
17422
100
AcDbXrecord
  1
{8C828BE3-3FA5-4DA7-B1F9-2556E4B037DB}
  0
XRECORD
  5
1742F
102
{ACAD_REACTORS
330
17422
102
}
330
17422
100
AcDbXrecord
 40
0.0
  0
XRECORD
  5
17430
102
{ACAD_REACTORS
330
17422
102
}
330
17422
100
AcDbXrecord
340
0
  0
XRECORD
  5
17431
102
{ACAD_REACTORS
330
17422
102
}
330
17422
100
AcDbXrecord
 70
     0
  0
XRECORD
  5
17432
102
{ACAD_REACTORS
330
17422
102
}
330
17422
100
AcDbXrecord
340
0
  0
XRECORD
  5
17433
102
{ACAD_REACTORS
330
17422
102
}
330
17422
100
AcDbXrecord
 10
0.0
 20
0.0
 30
0.0
  0
XRECORD
  5
17434
102
{ACAD_REACTORS
330
17422
102
}
330
17422
100
AcDbXrecord
 10
0.0
 20
0.0
 30
0.0
  0
XRECORD
  5
17435
102
{ACAD_REACTORS
330
17422
102
}
330
17422
100
AcDbXrecord
 10
0.0
 20
0.0
 30
0.0
  0
XRECORD
  5
17436
102
{ACAD_REACTORS
330
17422
102
}
330
17422
100
AcDbXrecord
 10
0.0
 20
0.0
 30
0.0
  0
XRECORD
  5
17437
102
{ACAD_REACTORS
330
17422
102
}
330
17422
100
AcDbXrecord
 10
0.0
 20
0.0
 30
0.0
  0
XRECORD
  5
17438
102
{ACAD_REACTORS
330
17422
102
}
330
17422
100
AcDbXrecord
 10
0.0
 20
0.0
 30
0.0
  0
XRECORD
  5
17439
102
{ACAD_REACTORS
330
17422
102
}
330
17422
100
AcDbXrecord
340
0
  0
XRECORD
  5
1743A
102
{ACAD_REACTORS
330
17422
102
}
330
17422
100
AcDbXrecord
 70
     0
  0
XRECORD
  5
1743B
102
{ACAD_REACTORS
330
17422
102
}
330
17422
100
AcDbXrecord
340
0
  0
XRECORD
  5
1743C
102
{ACAD_REACTORS
330
17422
102
}
330
17422
100
AcDbXrecord
 10
0.0
 20
0.0
 30
0.0
  0
XRECORD
  5
1743D
102
{ACAD_REACTORS
330
17422
102
}
330
17422
100
AcDbXrecord
 10
0.0
 20
0.0
 30
0.0
  0
XRECORD
  5
1743E
102
{ACAD_REACTORS
330
17422
102
}
330
17422
100
AcDbXrecord
 10
0.0
 20
0.0
 30
0.0
  0
XRECORD
  5
1743F
102
{ACAD_REACTORS
330
17422
102
}
330
17422
100
AcDbXrecord
 10
0.0
 20
0.0
 30
0.0
  0
XRECORD
  5
17440
102
{ACAD_REACTORS
330
17422
102
}
330
17422
100
AcDbXrecord
 10
0.0
 20
0.0
 30
0.0
  0
XRECORD
  5
17441
102
{ACAD_REACTORS
330
17422
102
}
330
17422
100
AcDbXrecord
 10
0.0
 20
0.0
 30
0.0
  0
ENDSEC
  0
EOF
