  0
SECTION
  2
HEADER
  9
$ACADVER
  1
AC1014
  9
$ACADMAINTVER
 70
     9
  9
$DWGCODEPAGE
  3
ANSI_932
  9
$INSBASE
 10
0.0
 20
0.0
 30
0.0
  9
$EXTMIN
 10
-1442.594005697866
 20
1745.603281025256
 30
-0.0015258207003583
  9
$EXTMAX
 10
-1282.73116007341
 20
1903.613226306098
 30
0.0000000349246037
  9
$LIMMIN
 10
0.0
 20
0.0
  9
$LIMMAX
 10
420.0
 20
297.0
  9
$ORTHOMODE
 70
     0
  9
$REGENMODE
 70
     1
  9
$FILLMODE
 70
     1
  9
$QTEXTMODE
 70
     0
  9
$MIRRTEXT
 70
     1
  9
$DRAGMODE
 70
     2
  9
$LTSCALE
 40
1.0
  9
$OSMODE
 70
    37
  9
$ATTMODE
 70
     1
  9
$TEXTSIZE
 40
2.5
  9
$TRACEWID
 40
1.0
  9
$TEXTSTYLE
  7
ゴシック体
  9
$CLAYER
  8
KAKURESEN1
  9
$CELTYPE
  6
BYLAYER
  9
$CECOLOR
 62
   256
  9
$CELTSCALE
 40
1.0
  9
$DELOBJ
 70
     1
  9
$DISPSILH
 70
     0
  9
$DIMSCALE
 40
0.0
  9
$DIMASZ
 40
3.0
  9
$DIMEXO
 40
0.5
  9
$DIMDLI
 40
0.5
  9
$DIMRND
 40
0.0
  9
$DIMDLE
 40
0.0
  9
$DIMEXE
 40
0.5
  9
$DIMTP
 40
0.0
  9
$DIMTM
 40
0.0
  9
$DIMTXT
 40
3.5
  9
$DIMCEN
 40
0.0
  9
$DIMTSZ
 40
0.0
  9
$DIMTOL
 70
     0
  9
$DIMLIM
 70
     0
  9
$DIMTIH
 70
     0
  9
$DIMTOH
 70
     0
  9
$DIMSE1
 70
     0
  9
$DIMSE2
 70
     0
  9
$DIMTAD
 70
     1
  9
$DIMZIN
 70
     8
  9
$DIMBLK
  1

  9
$DIMASO
 70
     1
  9
$DIMSHO
 70
     1
  9
$DIMPOST
  1

  9
$DIMAPOST
  1

  9
$DIMALT
 70
     0
  9
$DIMALTD
 70
     2
  9
$DIMALTF
 40
25.4
  9
$DIMLFAC
 40
1.0
  9
$DIMTOFL
 70
     1
  9
$DIMTVP
 40
0.0
  9
$DIMTIX
 70
     0
  9
$DIMSOXD
 70
     0
  9
$DIMSAH
 70
     0
  9
$DIMBLK1
  1

  9
$DIMBLK2
  1

  9
$DIMSTYLE
  2
標準スタイル
  9
$DIMCLRD
 70
     1
  9
$DIMCLRE
 70
     1
  9
$DIMCLRT
 70
     1
  9
$DIMTFAC
 40
1.0
  9
$DIMGAP
 40
1.0
  9
$DIMJUST
 70
     0
  9
$DIMSD1
 70
     0
  9
$DIMSD2
 70
     0
  9
$DIMTOLJ
 70
     1
  9
$DIMTZIN
 70
     8
  9
$DIMALTZ
 70
     0
  9
$DIMALTTZ
 70
     0
  9
$DIMFIT
 70
     3
  9
$DIMUPT
 70
     0
  9
$DIMUNIT
 70
     2
  9
$DIMDEC
 70
     2
  9
$DIMTDEC
 70
     2
  9
$DIMALTU
 70
     2
  9
$DIMALTTD
 70
     2
  9
$DIMTXSTY
  7
ゴシック体
  9
$DIMAUNIT
 70
     0
  9
$LUNITS
 70
     2
  9
$LUPREC
 70
     4
  9
$SKETCHINC
 40
1.0
  9
$FILLETRAD
 40
1.0
  9
$AUNITS
 70
     0
  9
$AUPREC
 70
     0
  9
$MENU
  1
.
  9
$ELEVATION
 40
0.0
  9
$PELEVATION
 40
0.0
  9
$THICKNESS
 40
0.0
  9
$LIMCHECK
 70
     0
  9
$BLIPMODE
 70
     0
  9
$CHAMFERA
 40
1.0
  9
$CHAMFERB
 40
1.0
  9
$CHAMFERC
 40
2.0
  9
$CHAMFERD
 40
0.7853981633974483
  9
$SKPOLY
 70
     0
  9
$TDCREATE
 40
2450495.493631365
  9
$TDUPDATE
 40
2458781.612571423
  9
$TDINDWG
 40
2.8752847685
  9
$TDUSRTIMER
 40
2.8752847685
  9
$USRTIMER
 70
     1
  9
$ANGBASE
 50
0.0
  9
$ANGDIR
 70
     0
  9
$PDMODE
 70
    99
  9
$PDSIZE
 40
0.0
  9
$PLINEWID
 40
0.0
  9
$COORDS
 70
     1
  9
$SPLFRAME
 70
     0
  9
$SPLINETYPE
 70
     6
  9
$SPLINESEGS
 70
     8
  9
$ATTDIA
 70
     0
  9
$ATTREQ
 70
     1
  9
$HANDLING
 70
 10241
  9
$HANDSEED
  5
17907
  9
$SURFTAB1
 70
     6
  9
$SURFTAB2
 70
     6
  9
$SURFTYPE
 70
     6
  9
$SURFU
 70
     6
  9
$SURFV
 70
     6
  9
$UCSNAME
  2

  9
$UCSORG
 10
0.0
 20
0.0
 30
0.0
  9
$UCSXDIR
 10
1.0
 20
0.0
 30
0.0
  9
$UCSYDIR
 10
0.0
 20
1.0
 30
0.0
  9
$PUCSNAME
  2

  9
$PUCSORG
 10
0.0
 20
0.0
 30
0.0
  9
$PUCSXDIR
 10
1.0
 20
0.0
 30
0.0
  9
$PUCSYDIR
 10
0.0
 20
1.0
 30
0.0
  9
$USERI1
 70
     0
  9
$USERI2
 70
     0
  9
$USERI3
 70
     0
  9
$USERI4
 70
     0
  9
$USERI5
 70
     0
  9
$USERR1
 40
0.0
  9
$USERR2
 40
0.0
  9
$USERR3
 40
0.0
  9
$USERR4
 40
0.0
  9
$USERR5
 40
0.0
  9
$WORLDVIEW
 70
     1
  9
$SHADEDGE
 70
     3
  9
$SHADEDIF
 70
    70
  9
$TILEMODE
 70
     1
  9
$MAXACTVP
 70
    16
  9
$PINSBASE
 10
0.0
 20
0.0
 30
0.0
  9
$PLIMCHECK
 70
     0
  9
$PEXTMIN
 10
29.03619555254135
 20
27.69602733303884
 30
0.0
  9
$PEXTMAX
 10
414.5361955525411
 20
287.6960273330388
 30
0.0
  9
$PLIMMIN
 10
15.15433780389673
 20
13.80781516542163
  9
$PLIMMAX
 10
435.1009930773342
 20
310.8184658001872
  9
$UNITMODE
 70
     0
  9
$VISRETAIN
 70
     0
  9
$PLINEGEN
 70
     0
  9
$PSLTSCALE
 70
     1
  9
$TREEDEPTH
 70
  3020
  9
$PICKSTYLE
 70
     1
  9
$CMLSTYLE
  2
STANDARD
  9
$CMLJUST
 70
     0
  9
$CMLSCALE
 40
1.0
  9
$PROXYGRAPHICS
 70
     1
  9
$MEASUREMENT
 70
     0
  0
ENDSEC
  0
SECTION
  2
CLASSES
  0
CLASS
  1
LWPOLYLINE
  2
AcDbPolyline
  3
AutoCAD 2000
 90
        0
280
     0
281
     1
  0
CLASS
  1
HATCH
  2
AcDbHatch
  3
AutoCAD 2000
 90
        0
280
     0
281
     1
  0
CLASS
  1
ACDBDICTIONARYWDFLT
  2
AcDbDictionaryWithDefault
  3
AutoCAD 2000
 90
        0
280
     0
281
     0
  0
CLASS
  1
ACDBPLACEHOLDER
  2
AcDbPlaceHolder
  3
AutoCAD 2000
 90
        0
280
     0
281
     0
  0
CLASS
  1
LAYOUT
  2
AcDbLayout
  3
AutoCAD 2000
 90
        0
280
     0
281
     0
  0
CLASS
  1
DICTIONARYVAR
  2
AcDbDictionaryVar
  3
AutoCAD 2000
 90
        0
280
     0
281
     0
  0
CLASS
  1
LONG_TRANSACTION
  2
AcDbLongTransaction
  3
AutoCAD 2000
 90
        0
280
     0
281
     0
  0
CLASS
  1
LWPOLYLINE
  2
AcDbPolyline
  3
AutoCAD 2000
 90
        0
280
     0
281
     1
  0
CLASS
  1
HATCH
  2
AcDbHatch
  3
AutoCAD 2000
 90
        0
280
     0
281
     1
  0
CLASS
  1
XRECORD
  2
AcDbXrecord
  3
AutoCAD 2000
 90
        0
280
     0
281
     0
  0
ENDSEC
  0
SECTION
  2
TABLES
  0
TABLE
  2
VPORT
  5
8
330
0
100
AcDbSymbolTable
 70
     3
  0
VPORT
  5
178C5
330
8
100
AcDbSymbolTableRecord
100
AcDbViewportTableRecord
  2
*ACTIVE
 70
     0
 10
0.0
 20
0.0
 11
1.0
 21
1.0
 12
-1358.457618048871
 22
1825.837553344155
 13
0.0
 23
0.0
 14
10.0
 24
10.0
 15
10.0
 25
10.0
 16
0.0
 26
0.0
 36
1.0
 17
0.0
 27
0.0
 37
0.0
 40
152.0352100245707
 41
1.781954887218045
 42
50.0
 43
0.0
 44
0.0
 50
0.0
 51
0.0
 71
     0
 72
   100
 73
     1
 74
     3
 75
     0
 76
     0
 77
     0
 78
     0
  0
ENDTAB
  0
TABLE
  2
LTYPE
  5
5
330
0
100
AcDbSymbolTable
 70
     3
  0
LTYPE
  5
14
330
5
100
AcDbSymbolTableRecord
100
AcDbLinetypeTableRecord
  2
BYBLOCK
 70
     0
  3

 72
    65
 73
     0
 40
0.0
  0
LTYPE
  5
15
330
5
100
AcDbSymbolTableRecord
100
AcDbLinetypeTableRecord
  2
BYLAYER
 70
     0
  3

 72
    65
 73
     0
 40
0.0
  0
LTYPE
  5
16
330
5
100
AcDbSymbolTableRecord
100
AcDbLinetypeTableRecord
  2
CONTINUOUS
 70
     0
  3
Solid line
 72
    65
 73
     0
 40
0.0
  0
LTYPE
  5
329
330
5
100
AcDbSymbolTableRecord
100
AcDbLinetypeTableRecord
  2
DASHEDX2
 70
     0
  3
____  ____  ____  ____  ____  ____  ____  ____ 
 72
    65
 73
     2
 40
1.5
 49
1.0
 74
     0
 49
-0.5
 74
     0
  0
LTYPE
  5
1956
330
5
100
AcDbSymbolTableRecord
100
AcDbLinetypeTableRecord
  2
CENTERX2
 70
     0
  3
________  __  ________  __  ________  __  _____
 72
    65
 73
     4
 40
4.0
 49
2.5
 74
     0
 49
-0.5
 74
     0
 49
0.5
 74
     0
 49
-0.5
 74
     0
  0
ENDTAB
  0
TABLE
  2
LAYER
  5
2
102
{ACAD_XDICTIONARY
360
15F03
102
}
330
0
100
AcDbSymbolTable
 70
     7
  0
LAYER
  5
F
330
2
100
AcDbSymbolTableRecord
100
AcDbLayerTableRecord
  2
0
 70
     0
 62
     7
  6
CONTINUOUS
  0
LAYER
  5
18F
330
2
100
AcDbSymbolTableRecord
100
AcDbLayerTableRecord
  2
ZISSEN1
 70
     0
 62
     7
  6
CONTINUOUS
  0
LAYER
  5
529
330
2
100
AcDbSymbolTableRecord
100
AcDbLayerTableRecord
  2
SUNPOU
 70
     0
 62
     1
  6
CONTINUOUS
  0
LAYER
  5
1959
330
2
100
AcDbSymbolTableRecord
100
AcDbLayerTableRecord
  2
KAKURESEN1
 70
     0
 62
     3
  6
DASHEDX2
  0
LAYER
  5
195A
330
2
100
AcDbSymbolTableRecord
100
AcDbLayerTableRecord
  2
CL1
 70
     0
 62
   210
  6
CENTERX2
  0
LAYER
  5
3A9B
330
2
100
AcDbSymbolTableRecord
100
AcDbLayerTableRecord
  2
DEFPOINTS
 70
     0
 62
     7
  6
CONTINUOUS
  0
LAYER
  5
15FDB
330
2
100
AcDbSymbolTableRecord
100
AcDbLayerTableRecord
  2
KIKOU-SUN
 70
     0
 62
     1
  6
CONTINUOUS
  0
ENDTAB
  0
TABLE
  2
STYLE
  5
3
330
0
100
AcDbSymbolTable
 70
     2
  0
STYLE
  5
10
330
3
100
AcDbSymbolTableRecord
100
AcDbTextStyleTableRecord
  2
STANDARD
 70
     0
 40
0.0
 41
1.0
 50
0.0
 71
     0
 42
3.0
  3
txt
  4
BigFont
  0
STYLE
  5
1960
330
3
100
AcDbSymbolTableRecord
100
AcDbTextStyleTableRecord
  2
ゴシック体
 70
     0
 40
0.0
 41
1.0
 50
0.0
 71
     0
 42
2.5
  3
MS Gothic.ttf
  4

1001
ACAD
1000
MS Gothic
1071
    32817
  0
ENDTAB
  0
TABLE
  2
VIEW
  5
6
330
0
100
AcDbSymbolTable
 70
     0
  0
ENDTAB
  0
TABLE
  2
UCS
  5
7
330
0
100
AcDbSymbolTable
 70
     0
  0
ENDTAB
  0
TABLE
  2
APPID
  5
9
330
0
100
AcDbSymbolTable
 70
     5
  0
APPID
  5
11
330
9
100
AcDbSymbolTableRecord
100
AcDbRegAppTableRecord
  2
ACAD
 70
     0
  0
APPID
  5
4005
330
9
100
AcDbSymbolTableRecord
100
AcDbRegAppTableRecord
  2
CONTENTTABDATA
 70
     0
  0
APPID
  5
4006
330
9
100
AcDbSymbolTableRecord
100
AcDbRegAppTableRecord
  2
CONTENTCURRENTTAB
 70
     0
  0
APPID
  5
477B
330
9
100
AcDbSymbolTableRecord
100
AcDbRegAppTableRecord
  2
CONTENTBLOCKDESCRIPTION
 70
     0
  0
APPID
  5
477C
330
9
100
AcDbSymbolTableRecord
100
AcDbRegAppTableRecord
  2
CONTENTBLOCKICON
 70
     0
  0
ENDTAB
  0
TABLE
  2
DIMSTYLE
  5
A
330
0
100
AcDbSymbolTable
 70
     2
  0
DIMSTYLE
105
1D
330
A
100
AcDbSymbolTableRecord
100
AcDbDimStyleTableRecord
  2
STANDARD
 70
     0
  3

  4

  5

  6

  7

 40
1.0
 41
0.18
 42
0.0625
 43
0.38
 44
0.18
 45
0.0
 46
0.0
 47
0.0
 48
0.0
140
0.18
141
0.09
142
0.0
143
25.4
144
1.0
145
0.0
146
1.0
147
0.09
 71
     0
 72
     0
 73
     1
 74
     1
 75
     0
 76
     0
 77
     0
 78
     0
170
     0
171
     2
172
     0
173
     0
174
     0
175
     0
176
     0
177
     0
178
     0
270
     2
271
     4
272
     4
273
     2
274
     2
340
10
275
     0
280
     0
281
     0
282
     0
283
     1
284
     0
285
     0
286
     0
287
     3
288
     0
  0
DIMSTYLE
105
52E
102
{ACAD_REACTORS
330
16A4A
330
176D2
330
176F6
330
177BA
330
177C9
330
177D6
330
17804
330
17813
330
1782D
330
1783E
330
1784C
102
}
330
A
100
AcDbSymbolTableRecord
100
AcDbDimStyleTableRecord
  2
標準スタイル
 70
     0
  3

  4

  5

  6

  7

 40
0.0
 41
3.0
 42
0.5
 43
0.5
 44
0.5
 45
0.0
 46
0.0
 47
0.0
 48
0.0
140
3.5
141
0.0
142
0.0
143
25.4
144
1.0
145
0.0
146
1.0
147
1.0
 71
     0
 72
     0
 73
     0
 74
     0
 75
     0
 76
     0
 77
     1
 78
     8
170
     0
171
     2
172
     1
173
     0
174
     0
175
     0
176
     1
177
     1
178
     1
270
     2
271
     2
272
     2
273
     2
274
     2
340
1960
275
     0
280
     0
281
     0
282
     0
283
     1
284
     8
285
     0
286
     0
287
     3
288
     0
  0
ENDTAB
  0
TABLE
  2
BLOCK_RECORD
  5
1
330
0
100
AcDbSymbolTable
 70
    11
  0
BLOCK_RECORD
  5
1A
102
{ACAD_XDICTIONARY
360
178E6
102
}
330
1
100
AcDbSymbolTableRecord
100
AcDbBlockTableRecord
  2
*MODEL_SPACE
  0
BLOCK_RECORD
  5
15176
102
{ACAD_XDICTIONARY
360
178E8
102
}
330
1
100
AcDbSymbolTableRecord
100
AcDbBlockTableRecord
  2
*PAPER_SPACE
  0
BLOCK_RECORD
  5
174A8
330
1
100
AcDbSymbolTableRecord
100
AcDbBlockTableRecord
  2
*D0
  0
BLOCK_RECORD
  5
176D3
330
1
100
AcDbSymbolTableRecord
100
AcDbBlockTableRecord
  2
*D1
  0
BLOCK_RECORD
  5
176F7
330
1
100
AcDbSymbolTableRecord
100
AcDbBlockTableRecord
  2
*D2
  0
BLOCK_RECORD
  5
177BB
330
1
100
AcDbSymbolTableRecord
100
AcDbBlockTableRecord
  2
*D3
  0
BLOCK_RECORD
  5
177CA
330
1
100
AcDbSymbolTableRecord
100
AcDbBlockTableRecord
  2
*D4
  0
BLOCK_RECORD
  5
177D7
330
1
100
AcDbSymbolTableRecord
100
AcDbBlockTableRecord
  2
*D5
  0
BLOCK_RECORD
  5
17805
330
1
100
AcDbSymbolTableRecord
100
AcDbBlockTableRecord
  2
*D6
  0
BLOCK_RECORD
  5
17814
330
1
100
AcDbSymbolTableRecord
100
AcDbBlockTableRecord
  2
*D7
  0
BLOCK_RECORD
  5
1782E
330
1
100
AcDbSymbolTableRecord
100
AcDbBlockTableRecord
  2
*D8
  0
BLOCK_RECORD
  5
1783F
330
1
100
AcDbSymbolTableRecord
100
AcDbBlockTableRecord
  2
*D9
  0
BLOCK_RECORD
  5
1784D
330
1
100
AcDbSymbolTableRecord
100
AcDbBlockTableRecord
  2
*D10
  0
ENDTAB
  0
ENDSEC
  0
SECTION
  2
BLOCKS
  0
BLOCK
  5
1B
330
1A
100
AcDbEntity
  8
0
100
AcDbBlockBegin
  2
*MODEL_SPACE
 70
     0
 10
0.0
 20
0.0
 30
0.0
  3
*MODEL_SPACE
  1

  0
ENDBLK
  5
1C
330
1A
100
AcDbEntity
  8
0
100
AcDbBlockEnd
  0
BLOCK
  5
1517A
330
15176
100
AcDbEntity
 67
     1
  8
0
100
AcDbBlockBegin
  2
*PAPER_SPACE
 70
     0
 10
0.0
 20
0.0
 30
0.0
  3
*PAPER_SPACE
  1

  0
ENDBLK
  5
1517B
330
15176
100
AcDbEntity
 67
     1
  8
0
100
AcDbBlockEnd
  0
BLOCK
  5
174B2
330
174A8
100
AcDbEntity
  8
0
100
AcDbBlockBegin
  2
*D0
 70
     1
 10
0.0
 20
0.0
 30
0.0
  3
*D0
  1

  0
LINE
  5
17715
330
174A8
100
AcDbEntity
  8
KIKOU-SUN
 62
     1
100
AcDbLine
 10
-1428.537169910764
 20
1888.583970202267
 30
0.0
 11
-1438.537169910763
 21
1888.583970202267
 31
0.0
  0
LINE
  5
17716
330
174A8
100
AcDbEntity
  8
KIKOU-SUN
 62
     1
100
AcDbLine
 10
-1428.537169910764
 20
1818.583970202267
 30
0.0
 11
-1438.537169910763
 21
1818.583970202267
 31
0.0
  0
LINE
  5
17717
330
174A8
100
AcDbEntity
  8
KIKOU-SUN
 62
     1
100
AcDbLine
 10
-1438.037169910764
 20
1885.583970202267
 30
0.0
 11
-1438.037169910764
 21
1821.583970202267
 31
0.0
  0
SOLID
  5
17718
330
174A8
100
AcDbEntity
  8
KIKOU-SUN
 62
     1
100
AcDbTrace
 10
-1438.537169910763
 20
1885.583970202267
 30
0.0
 11
-1437.537169910763
 21
1885.583970202267
 31
0.0
 12
-1438.037169910764
 22
1888.583970202267
 32
0.0
 13
-1438.037169910764
 23
1888.583970202267
 33
0.0
  0
SOLID
  5
17719
330
174A8
100
AcDbEntity
  8
KIKOU-SUN
 62
     1
100
AcDbTrace
 10
-1438.537169910763
 20
1821.583970202267
 30
0.0
 11
-1437.537169910763
 21
1821.583970202267
 31
0.0
 12
-1438.037169910764
 22
1818.583970202267
 32
0.0
 13
-1438.037169910764
 23
1818.583970202267
 33
0.0
  0
MTEXT
  5
1771A
330
174A8
100
AcDbEntity
  8
KIKOU-SUN
 62
     1
100
AcDbMText
 10
-1440.787169910764
 20
1853.583970202267
 30
0.0
 40
3.5
 41
0.0
 71
     5
 72
     1
  1
\A1;70
 11
0.0000000000000001
 21
1.0
 31
0.0
1001
ACAD
1000
MTEXTBEGIN
1070
    73
1070
     1
1070
    44
1040
1.0
1070
    74
1070
     0
1000
MTEXTEND
  0
POINT
  5
1771B
330
174A8
100
AcDbEntity
  8
DEFPOINTS
 62
     0
100
AcDbPoint
 10
-1428.037169910763
 20
1888.583970202267
 30
0.0
  0
POINT
  5
1771C
330
174A8
100
AcDbEntity
  8
DEFPOINTS
 62
     0
100
AcDbPoint
 10
-1428.037169910763
 20
1818.583970202267
 30
0.0
  0
POINT
  5
1771D
330
174A8
100
AcDbEntity
  8
DEFPOINTS
 62
     0
100
AcDbPoint
 10
-1438.037169910764
 20
1818.583970202267
 30
0.0
  0
ENDBLK
  5
174B3
330
174A8
100
AcDbEntity
  8
0
100
AcDbBlockEnd
  0
BLOCK
  5
176DF
330
176D3
100
AcDbEntity
  8
0
100
AcDbBlockBegin
  2
*D1
 70
     1
 10
0.0
 20
0.0
 30
0.0
  3
*D1
  1

  0
LINE
  5
176E1
330
176D3
100
AcDbEntity
  8
ZISSEN1
 62
     1
100
AcDbLine
 10
-1428.037169910763
 20
1787.116336980646
 30
0.0
 11
-1428.037169910763
 21
1795.327702431951
 31
0.0
  0
LINE
  5
176E2
330
176D3
100
AcDbEntity
  8
ZISSEN1
 62
     1
100
AcDbLine
 10
-1426.037169910763
 20
1787.116336980646
 30
0.0
 11
-1426.037169910763
 21
1795.327702431951
 31
0.0
  0
LINE
  5
176E3
330
176D3
100
AcDbEntity
  8
ZISSEN1
 62
     1
100
AcDbLine
 10
-1431.037169910764
 20
1794.827702431951
 30
0.0
 11
-1434.037169910763
 21
1794.827702431951
 31
0.0
  0
LINE
  5
176E4
330
176D3
100
AcDbEntity
  8
ZISSEN1
 62
     1
100
AcDbLine
 10
-1423.037169910764
 20
1794.827702431951
 30
0.0
 11
-1415.70383657743
 21
1794.827702431951
 31
0.0
  0
LINE
  5
176E5
330
176D3
100
AcDbEntity
  8
ZISSEN1
 62
     1
100
AcDbLine
 10
-1428.037169910763
 20
1794.827702431951
 30
0.0
 11
-1426.037169910763
 21
1794.827702431951
 31
0.0
  0
SOLID
  5
176E6
330
176D3
100
AcDbEntity
  8
ZISSEN1
 62
     1
100
AcDbTrace
 10
-1431.037169910764
 20
1795.327702431951
 30
0.0
 11
-1431.037169910764
 21
1794.327702431951
 31
0.0
 12
-1428.037169910763
 22
1794.827702431951
 32
0.0
 13
-1428.037169910763
 23
1794.827702431951
 33
0.0
  0
SOLID
  5
176E7
330
176D3
100
AcDbEntity
  8
ZISSEN1
 62
     1
100
AcDbTrace
 10
-1423.037169910764
 20
1795.327702431951
 30
0.0
 11
-1423.037169910764
 21
1794.327702431951
 31
0.0
 12
-1426.037169910763
 22
1794.827702431951
 32
0.0
 13
-1426.037169910763
 23
1794.827702431951
 33
0.0
  0
MTEXT
  5
176E8
330
176D3
100
AcDbEntity
  8
ZISSEN1
 62
     1
100
AcDbMText
 10
-1417.870503244097
 20
1797.577702431951
 30
0.0
 40
3.5
 41
0.0
 71
     5
 72
     1
  1
\A1;2
1001
ACAD
1000
MTEXTBEGIN
1070
    73
1070
     1
1070
    44
1040
1.0
1070
    74
1070
     0
1000
MTEXTEND
  0
POINT
  5
176E9
330
176D3
100
AcDbEntity
  8
DEFPOINTS
 62
     0
100
AcDbPoint
 10
-1428.037169910763
 20
1786.616336980645
 30
0.0
  0
POINT
  5
176EA
330
176D3
100
AcDbEntity
  8
DEFPOINTS
 62
     0
100
AcDbPoint
 10
-1426.037169910763
 20
1786.616336980645
 30
0.0
  0
POINT
  5
176EB
330
176D3
100
AcDbEntity
  8
DEFPOINTS
 62
     0
100
AcDbPoint
 10
-1426.037169910763
 20
1794.827702431951
 30
0.0
  0
ENDBLK
  5
176E0
330
176D3
100
AcDbEntity
  8
0
100
AcDbBlockEnd
  0
BLOCK
  5
17701
330
176F7
100
AcDbEntity
  8
0
100
AcDbBlockBegin
  2
*D2
 70
     1
 10
0.0
 20
0.0
 30
0.0
  3
*D2
  1

  0
LINE
  5
1770C
330
176F7
100
AcDbEntity
  8
ZISSEN1
 62
     1
100
AcDbLine
 10
-1428.037169910763
 20
1889.083970202267
 30
0.0
 11
-1428.037169910763
 21
1898.439165060812
 31
0.0
  0
LINE
  5
1770D
330
176F7
100
AcDbEntity
  8
ZISSEN1
 62
     1
100
AcDbLine
 10
-1378.537169910764
 20
1887.083970202267
 30
0.0
 11
-1378.537169910764
 21
1898.439165060812
 31
0.0
  0
LINE
  5
1770E
330
176F7
100
AcDbEntity
  8
ZISSEN1
 62
     1
100
AcDbLine
 10
-1425.037169910764
 20
1897.939165060813
 30
0.0
 11
-1381.537169910763
 21
1897.939165060813
 31
0.0
  0
SOLID
  5
1770F
330
176F7
100
AcDbEntity
  8
ZISSEN1
 62
     1
100
AcDbTrace
 10
-1425.037169910764
 20
1898.439165060812
 30
0.0
 11
-1425.037169910764
 21
1897.439165060812
 31
0.0
 12
-1428.037169910763
 22
1897.939165060813
 32
0.0
 13
-1428.037169910763
 23
1897.939165060813
 33
0.0
  0
SOLID
  5
17710
330
176F7
100
AcDbEntity
  8
ZISSEN1
 62
     1
100
AcDbTrace
 10
-1381.537169910763
 20
1898.439165060812
 30
0.0
 11
-1381.537169910763
 21
1897.439165060812
 31
0.0
 12
-1378.537169910764
 22
1897.939165060813
 32
0.0
 13
-1378.537169910764
 23
1897.939165060813
 33
0.0
  0
MTEXT
  5
17711
330
176F7
100
AcDbEntity
  8
ZISSEN1
 62
     1
100
AcDbMText
 10
-1403.287169910764
 20
1900.689165060812
 30
0.0
 40
3.5
 41
0.0
 71
     5
 72
     1
  1
\A1;49.5
1001
ACAD
1000
MTEXTBEGIN
1070
    73
1070
     1
1070
    44
1040
1.0
1070
    74
1070
     0
1000
MTEXTEND
  0
POINT
  5
17712
330
176F7
100
AcDbEntity
  8
DEFPOINTS
 62
     0
100
AcDbPoint
 10
-1428.037169910763
 20
1888.583970202267
 30
0.0
  0
POINT
  5
17713
330
176F7
100
AcDbEntity
  8
DEFPOINTS
 62
     0
100
AcDbPoint
 10
-1378.537169910764
 20
1886.583970202267
 30
0.0
  0
POINT
  5
17714
330
176F7
100
AcDbEntity
  8
DEFPOINTS
 62
     0
100
AcDbPoint
 10
-1378.537169910764
 20
1897.939165060813
 30
0.0
  0
ENDBLK
  5
17702
330
176F7
100
AcDbEntity
  8
0
100
AcDbBlockEnd
  0
BLOCK
  5
177C7
330
177BB
100
AcDbEntity
  8
0
100
AcDbBlockBegin
  2
*D3
 70
     1
 10
0.0
 20
0.0
 30
0.0
  3
*D3
  1

  0
LINE
  5
177F9
330
177BB
100
AcDbEntity
  8
ZISSEN1
 62
     1
100
AcDbLine
 10
-1342.537169910763
 20
1818.583970202267
 30
0.0
 11
-1354.985393272646
 21
1818.583970202267
 31
0.0
  0
LINE
  5
177FA
330
177BB
100
AcDbEntity
  8
ZISSEN1
 62
     1
100
AcDbLine
 10
-1339.287169910764
 20
1823.583970202267
 30
0.0
 11
-1354.985393272646
 21
1823.583970202267
 31
0.0
  0
LINE
  5
177FB
330
177BB
100
AcDbEntity
  8
ZISSEN1
 62
     1
100
AcDbLine
 10
-1354.485393272646
 20
1815.583970202267
 30
0.0
 11
-1354.485393272646
 21
1812.583970202267
 31
0.0
  0
LINE
  5
177FC
330
177BB
100
AcDbEntity
  8
ZISSEN1
 62
     1
100
AcDbLine
 10
-1354.485393272646
 20
1826.583970202267
 30
0.0
 11
-1354.485393272646
 21
1829.583970202267
 31
0.0
  0
LINE
  5
177FD
330
177BB
100
AcDbEntity
  8
ZISSEN1
 62
     1
100
AcDbLine
 10
-1354.485393272646
 20
1818.583970202267
 30
0.0
 11
-1354.485393272646
 21
1823.583970202267
 31
0.0
  0
SOLID
  5
177FE
330
177BB
100
AcDbEntity
  8
ZISSEN1
 62
     1
100
AcDbTrace
 10
-1354.985393272646
 20
1815.583970202267
 30
0.0
 11
-1353.985393272647
 21
1815.583970202267
 31
0.0
 12
-1354.485393272646
 22
1818.583970202267
 32
0.0
 13
-1354.485393272646
 23
1818.583970202267
 33
0.0
  0
SOLID
  5
177FF
330
177BB
100
AcDbEntity
  8
ZISSEN1
 62
     1
100
AcDbTrace
 10
-1354.985393272646
 20
1826.583970202267
 30
0.0
 11
-1353.985393272647
 21
1826.583970202267
 31
0.0
 12
-1354.485393272646
 22
1823.583970202267
 32
0.0
 13
-1354.485393272646
 23
1823.583970202267
 33
0.0
  0
MTEXT
  5
17800
330
177BB
100
AcDbEntity
  8
ZISSEN1
 62
     1
100
AcDbMText
 10
-1357.235393272647
 20
1821.083970202267
 30
0.0
 40
3.5
 41
0.0
 71
     5
 72
     1
  1
\A1;5
 11
0.0000000000000001
 21
1.0
 31
0.0
1001
ACAD
1000
MTEXTBEGIN
1070
    73
1070
     1
1070
    44
1040
1.0
1070
    74
1070
     0
1000
MTEXTEND
  0
POINT
  5
17801
330
177BB
100
AcDbEntity
  8
DEFPOINTS
 62
     0
100
AcDbPoint
 10
-1342.037169910764
 20
1818.583970202267
 30
0.0
  0
POINT
  5
17802
330
177BB
100
AcDbEntity
  8
DEFPOINTS
 62
     0
100
AcDbPoint
 10
-1338.787169910764
 20
1823.583970202267
 30
0.0
  0
POINT
  5
17803
330
177BB
100
AcDbEntity
  8
DEFPOINTS
 62
     0
100
AcDbPoint
 10
-1354.485393272646
 20
1823.583970202267
 30
0.0
  0
ENDBLK
  5
177C8
330
177BB
100
AcDbEntity
  8
0
100
AcDbBlockEnd
  0
BLOCK
  5
177D4
330
177CA
100
AcDbEntity
  8
0
100
AcDbBlockBegin
  2
*D4
 70
     1
 10
0.0
 20
0.0
 30
0.0
  3
*D4
  1

  0
LINE
  5
178EA
330
177CA
100
AcDbEntity
  8
ZISSEN1
 62
     1
100
AcDbLine
 10
-1339.287169910764
 20
1823.583970202267
 30
0.0
 11
-1354.985393272646
 21
1823.583970202267
 31
0.0
  0
LINE
  5
178EB
330
177CA
100
AcDbEntity
  8
ZISSEN1
 62
     1
100
AcDbLine
 10
-1340.30759599515
 20
1883.583970202267
 30
0.0
 11
-1354.985393272646
 21
1883.583970202267
 31
0.0
  0
LINE
  5
178EC
330
177CA
100
AcDbEntity
  8
ZISSEN1
 62
     1
100
AcDbLine
 10
-1354.485393272646
 20
1826.583970202267
 30
0.0
 11
-1354.485393272646
 21
1880.583970202267
 31
0.0
  0
SOLID
  5
178ED
330
177CA
100
AcDbEntity
  8
ZISSEN1
 62
     1
100
AcDbTrace
 10
-1354.985393272646
 20
1826.583970202267
 30
0.0
 11
-1353.985393272647
 21
1826.583970202267
 31
0.0
 12
-1354.485393272646
 22
1823.583970202267
 32
0.0
 13
-1354.485393272646
 23
1823.583970202267
 33
0.0
  0
SOLID
  5
178EE
330
177CA
100
AcDbEntity
  8
ZISSEN1
 62
     1
100
AcDbTrace
 10
-1354.985393272646
 20
1880.583970202267
 30
0.0
 11
-1353.985393272647
 21
1880.583970202267
 31
0.0
 12
-1354.485393272646
 22
1883.583970202267
 32
0.0
 13
-1354.485393272646
 23
1883.583970202267
 33
0.0
  0
MTEXT
  5
178EF
330
177CA
100
AcDbEntity
  8
ZISSEN1
 62
     1
100
AcDbMText
 10
-1357.235393272647
 20
1853.583970202267
 30
0.0
 40
3.5
 41
0.0
 71
     5
 72
     1
  1
\A1;60
 11
0.0000000000000001
 21
1.0
 31
0.0
  0
POINT
  5
178F0
330
177CA
100
AcDbEntity
  8
DEFPOINTS
 62
     0
100
AcDbPoint
 10
-1338.787169910764
 20
1823.583970202267
 30
0.0
  0
POINT
  5
178F1
330
177CA
100
AcDbEntity
  8
DEFPOINTS
 62
     0
100
AcDbPoint
 10
-1339.80759599515
 20
1883.583970202267
 30
0.0
  0
POINT
  5
178F2
330
177CA
100
AcDbEntity
  8
DEFPOINTS
 62
     0
100
AcDbPoint
 10
-1354.485393272646
 20
1883.583970202267
 30
0.0
  0
ENDBLK
  5
177D5
330
177CA
100
AcDbEntity
  8
0
100
AcDbBlockEnd
  0
BLOCK
  5
177E3
330
177D7
100
AcDbEntity
  8
0
100
AcDbBlockBegin
  2
*D5
 70
     1
 10
0.0
 20
0.0
 30
0.0
  3
*D5
  1

  0
LINE
  5
178F3
330
177D7
100
AcDbEntity
  8
ZISSEN1
 62
     1
100
AcDbLine
 10
-1340.30759599515
 20
1883.583970202267
 30
0.0
 11
-1354.985393272646
 21
1883.583970202267
 31
0.0
  0
LINE
  5
178F4
330
177D7
100
AcDbEntity
  8
ZISSEN1
 62
     1
100
AcDbLine
 10
-1342.537169910764
 20
1888.583970202267
 30
0.0
 11
-1354.985393272646
 21
1888.583970202267
 31
0.0
  0
LINE
  5
178F5
330
177D7
100
AcDbEntity
  8
ZISSEN1
 62
     1
100
AcDbLine
 10
-1354.485393272646
 20
1880.583970202267
 30
0.0
 11
-1354.485393272646
 21
1877.583970202267
 31
0.0
  0
LINE
  5
178F6
330
177D7
100
AcDbEntity
  8
ZISSEN1
 62
     1
100
AcDbLine
 10
-1354.485393272646
 20
1891.583970202267
 30
0.0
 11
-1354.485393272646
 21
1894.583970202267
 31
0.0
  0
LINE
  5
178F7
330
177D7
100
AcDbEntity
  8
ZISSEN1
 62
     1
100
AcDbLine
 10
-1354.485393272646
 20
1883.583970202267
 30
0.0
 11
-1354.485393272646
 21
1888.583970202267
 31
0.0
  0
SOLID
  5
178F8
330
177D7
100
AcDbEntity
  8
ZISSEN1
 62
     1
100
AcDbTrace
 10
-1354.985393272646
 20
1880.583970202267
 30
0.0
 11
-1353.985393272647
 21
1880.583970202267
 31
0.0
 12
-1354.485393272646
 22
1883.583970202267
 32
0.0
 13
-1354.485393272646
 23
1883.583970202267
 33
0.0
  0
SOLID
  5
178F9
330
177D7
100
AcDbEntity
  8
ZISSEN1
 62
     1
100
AcDbTrace
 10
-1354.985393272646
 20
1891.583970202267
 30
0.0
 11
-1353.985393272647
 21
1891.583970202267
 31
0.0
 12
-1354.485393272646
 22
1888.583970202267
 32
0.0
 13
-1354.485393272646
 23
1888.583970202267
 33
0.0
  0
MTEXT
  5
178FA
330
177D7
100
AcDbEntity
  8
ZISSEN1
 62
     1
100
AcDbMText
 10
-1357.235393272647
 20
1886.083970202267
 30
0.0
 40
3.5
 41
0.0
 71
     5
 72
     1
  1
\A1;5
 11
0.0000000000000001
 21
1.0
 31
0.0
  0
POINT
  5
178FB
330
177D7
100
AcDbEntity
  8
DEFPOINTS
 62
     0
100
AcDbPoint
 10
-1339.80759599515
 20
1883.583970202267
 30
0.0
  0
POINT
  5
178FC
330
177D7
100
AcDbEntity
  8
DEFPOINTS
 62
     0
100
AcDbPoint
 10
-1342.037169910764
 20
1888.583970202267
 30
0.0
  0
POINT
  5
178FD
330
177D7
100
AcDbEntity
  8
DEFPOINTS
 62
     0
100
AcDbPoint
 10
-1354.485393272646
 20
1888.583970202267
 30
0.0
  0
ENDBLK
  5
177E4
330
177D7
100
AcDbEntity
  8
0
100
AcDbBlockEnd
  0
BLOCK
  5
17811
330
17805
100
AcDbEntity
  8
0
100
AcDbBlockBegin
  2
*D6
 70
     1
 10
0.0
 20
0.0
 30
0.0
  3
*D6
  1

  0
LINE
  5
17871
330
17805
100
AcDbEntity
  8
ZISSEN1
 62
     1
100
AcDbLine
 10
-1344.037169910764
 20
1820.083970202268
 30
0.0
 11
-1344.037169910764
 21
1807.740719255677
 31
0.0
  0
LINE
  5
17872
330
17805
100
AcDbEntity
  8
ZISSEN1
 62
     1
100
AcDbLine
 10
-1337.037169910765
 20
1820.11536802225
 30
0.0
 11
-1337.037169910765
 21
1807.740719255677
 31
0.0
  0
LINE
  5
17873
330
17805
100
AcDbEntity
  8
ZISSEN1
 62
     1
100
AcDbLine
 10
-1347.037169910764
 20
1808.240719255677
 30
0.0
 11
-1350.037169910764
 21
1808.240719255677
 31
0.0
  0
LINE
  5
17874
330
17805
100
AcDbEntity
  8
ZISSEN1
 62
     1
100
AcDbLine
 10
-1334.037169910764
 20
1808.240719255677
 30
0.0
 11
-1331.037169910764
 21
1808.240719255677
 31
0.0
  0
LINE
  5
17875
330
17805
100
AcDbEntity
  8
ZISSEN1
 62
     1
100
AcDbLine
 10
-1344.037169910764
 20
1808.240719255677
 30
0.0
 11
-1337.037169910765
 21
1808.240719255677
 31
0.0
  0
SOLID
  5
17876
330
17805
100
AcDbEntity
  8
ZISSEN1
 62
     1
100
AcDbTrace
 10
-1347.037169910764
 20
1808.740719255677
 30
0.0
 11
-1347.037169910764
 21
1807.740719255677
 31
0.0
 12
-1344.037169910764
 22
1808.240719255677
 32
0.0
 13
-1344.037169910764
 23
1808.240719255677
 33
0.0
  0
SOLID
  5
17877
330
17805
100
AcDbEntity
  8
ZISSEN1
 62
     1
100
AcDbTrace
 10
-1334.037169910764
 20
1808.740719255677
 30
0.0
 11
-1334.037169910764
 21
1807.740719255677
 31
0.0
 12
-1337.037169910765
 22
1808.240719255677
 32
0.0
 13
-1337.037169910765
 23
1808.240719255677
 33
0.0
  0
MTEXT
  5
17878
330
17805
100
AcDbEntity
  8
ZISSEN1
 62
     1
100
AcDbMText
 10
-1340.537169910764
 20
1810.990719255677
 30
0.0
 40
3.5
 41
0.0
 71
     5
 72
     1
  1
\A1;7
1001
ACAD
1000
MTEXTBEGIN
1070
    73
1070
     1
1070
    44
1040
1.0
1070
    74
1070
     0
1000
MTEXTEND
  0
POINT
  5
17879
330
17805
100
AcDbEntity
  8
DEFPOINTS
 62
     0
100
AcDbPoint
 10
-1344.037169910764
 20
1820.583970202268
 30
0.0
  0
POINT
  5
1787A
330
17805
100
AcDbEntity
  8
DEFPOINTS
 62
     0
100
AcDbPoint
 10
-1337.037169910765
 20
1820.61536802225
 30
0.0
  0
POINT
  5
1787B
330
17805
100
AcDbEntity
  8
DEFPOINTS
 62
     0
100
AcDbPoint
 10
-1337.037169910765
 20
1808.240719255677
 30
0.0
  0
ENDBLK
  5
17812
330
17805
100
AcDbEntity
  8
0
100
AcDbBlockEnd
  0
BLOCK
  5
1781E
330
17814
100
AcDbEntity
  8
0
100
AcDbBlockBegin
  2
*D7
 70
     1
 10
0.0
 20
0.0
 30
0.0
  3
*D7
  1

  0
LINE
  5
178FE
330
17814
100
AcDbEntity
  8
ZISSEN1
 62
     1
100
AcDbLine
 10
-1337.037169910765
 20
1820.11536802225
 30
0.0
 11
-1337.037169910765
 21
1807.740719255677
 31
0.0
  0
LINE
  5
178FF
330
17814
100
AcDbEntity
  8
ZISSEN1
 62
     1
100
AcDbLine
 10
-1305.037169910766
 20
1818.933970202267
 30
0.0
 11
-1305.037169910766
 21
1807.740719255677
 31
0.0
  0
LINE
  5
17900
330
17814
100
AcDbEntity
  8
ZISSEN1
 62
     1
100
AcDbLine
 10
-1334.037169910764
 20
1808.240719255677
 30
0.0
 11
-1308.037169910766
 21
1808.240719255677
 31
0.0
  0
SOLID
  5
17901
330
17814
100
AcDbEntity
  8
ZISSEN1
 62
     1
100
AcDbTrace
 10
-1334.037169910764
 20
1808.740719255677
 30
0.0
 11
-1334.037169910764
 21
1807.740719255677
 31
0.0
 12
-1337.037169910765
 22
1808.240719255677
 32
0.0
 13
-1337.037169910765
 23
1808.240719255677
 33
0.0
  0
SOLID
  5
17902
330
17814
100
AcDbEntity
  8
ZISSEN1
 62
     1
100
AcDbTrace
 10
-1308.037169910766
 20
1808.740719255677
 30
0.0
 11
-1308.037169910766
 21
1807.740719255677
 31
0.0
 12
-1305.037169910766
 22
1808.240719255677
 32
0.0
 13
-1305.037169910766
 23
1808.240719255677
 33
0.0
  0
MTEXT
  5
17903
330
17814
100
AcDbEntity
  8
ZISSEN1
 62
     1
100
AcDbMText
 10
-1321.037169910765
 20
1810.990719255677
 30
0.0
 40
3.5
 41
0.0
 71
     5
 72
     1
  1
\A1;32
  0
POINT
  5
17904
330
17814
100
AcDbEntity
  8
DEFPOINTS
 62
     0
100
AcDbPoint
 10
-1337.037169910765
 20
1820.61536802225
 30
0.0
  0
POINT
  5
17905
330
17814
100
AcDbEntity
  8
DEFPOINTS
 62
     0
100
AcDbPoint
 10
-1305.037169910766
 20
1819.433970202267
 30
0.0
  0
POINT
  5
17906
330
17814
100
AcDbEntity
  8
DEFPOINTS
 62
     0
100
AcDbPoint
 10
-1305.037169910766
 20
1808.240719255677
 30
0.0
  0
ENDBLK
  5
1781F
330
17814
100
AcDbEntity
  8
0
100
AcDbBlockEnd
  0
BLOCK
  5
17838
330
1782E
100
AcDbEntity
  8
0
100
AcDbBlockBegin
  2
*D8
 70
     1
 10
0.0
 20
0.0
 30
0.0
  3
*D8
  1

  0
LINE
  5
17885
330
1782E
100
AcDbEntity
  8
ZISSEN1
 62
     1
100
AcDbLine
 10
-1344.037169910764
 20
1820.083970202268
 30
0.0
 11
-1344.037169910764
 21
1798.188964281316
 31
0.0
  0
LINE
  5
17886
330
1782E
100
AcDbEntity
  8
ZISSEN1
 62
     1
100
AcDbLine
 10
-1305.037169910766
 20
1818.083970202267
 30
0.0
 11
-1305.037169910766
 21
1798.188964281316
 31
0.0
  0
LINE
  5
17887
330
1782E
100
AcDbEntity
  8
ZISSEN1
 62
     1
100
AcDbLine
 10
-1341.037169910764
 20
1798.688964281316
 30
0.0
 11
-1308.037169910766
 21
1798.688964281316
 31
0.0
  0
SOLID
  5
17888
330
1782E
100
AcDbEntity
  8
ZISSEN1
 62
     1
100
AcDbTrace
 10
-1341.037169910764
 20
1799.188964281316
 30
0.0
 11
-1341.037169910764
 21
1798.188964281316
 31
0.0
 12
-1344.037169910764
 22
1798.688964281316
 32
0.0
 13
-1344.037169910764
 23
1798.688964281316
 33
0.0
  0
SOLID
  5
17889
330
1782E
100
AcDbEntity
  8
ZISSEN1
 62
     1
100
AcDbTrace
 10
-1308.037169910766
 20
1799.188964281316
 30
0.0
 11
-1308.037169910766
 21
1798.188964281316
 31
0.0
 12
-1305.037169910766
 22
1798.688964281316
 32
0.0
 13
-1305.037169910766
 23
1798.688964281316
 33
0.0
  0
MTEXT
  5
1788A
330
1782E
100
AcDbEntity
  8
ZISSEN1
 62
     1
100
AcDbMText
 10
-1324.537169910765
 20
1801.438964281316
 30
0.0
 40
3.5
 41
0.0
 71
     5
 72
     1
  1
\A1;39
1001
ACAD
1000
MTEXTBEGIN
1070
    73
1070
     1
1070
    44
1040
1.0
1070
    74
1070
     0
1000
MTEXTEND
  0
POINT
  5
1788B
330
1782E
100
AcDbEntity
  8
DEFPOINTS
 62
     0
100
AcDbPoint
 10
-1344.037169910764
 20
1820.583970202268
 30
0.0
  0
POINT
  5
1788C
330
1782E
100
AcDbEntity
  8
DEFPOINTS
 62
     0
100
AcDbPoint
 10
-1305.037169910766
 20
1818.583970202267
 30
0.0
  0
POINT
  5
1788D
330
1782E
100
AcDbEntity
  8
DEFPOINTS
 62
     0
100
AcDbPoint
 10
-1305.037169910766
 20
1798.688964281316
 30
0.0
  0
ENDBLK
  5
17839
330
1782E
100
AcDbEntity
  8
0
100
AcDbBlockEnd
  0
BLOCK
  5
17849
330
1783F
100
AcDbEntity
  8
0
100
AcDbBlockBegin
  2
*D9
 70
     1
 10
0.0
 20
0.0
 30
0.0
  3
*D9
  1

  0
LINE
  5
1788E
330
1783F
100
AcDbEntity
  8
SUNPOU
 62
     1
100
AcDbLine
 10
-1344.037169910764
 20
1819.583970202268
 30
0.0
 11
-1344.037169910764
 21
1788.359154837254
 31
0.0
  0
LINE
  5
1788F
330
1783F
100
AcDbEntity
  8
SUNPOU
 62
     1
100
AcDbLine
 10
-1302.537169910765
 20
1822.083970202267
 30
0.0
 11
-1302.537169910765
 21
1788.359154837254
 31
0.0
  0
LINE
  5
17890
330
1783F
100
AcDbEntity
  8
SUNPOU
 62
     1
100
AcDbLine
 10
-1341.037169910764
 20
1788.859154837254
 30
0.0
 11
-1305.537169910765
 21
1788.859154837254
 31
0.0
  0
SOLID
  5
17891
330
1783F
100
AcDbEntity
  8
SUNPOU
 62
     1
100
AcDbTrace
 10
-1341.037169910764
 20
1789.359154837254
 30
0.0
 11
-1341.037169910764
 21
1788.359154837254
 31
0.0
 12
-1344.037169910764
 22
1788.859154837254
 32
0.0
 13
-1344.037169910764
 23
1788.859154837254
 33
0.0
  0
SOLID
  5
17892
330
1783F
100
AcDbEntity
  8
SUNPOU
 62
     1
100
AcDbTrace
 10
-1305.537169910765
 20
1789.359154837254
 30
0.0
 11
-1305.537169910765
 21
1788.359154837254
 31
0.0
 12
-1302.537169910765
 22
1788.859154837254
 32
0.0
 13
-1302.537169910765
 23
1788.859154837254
 33
0.0
  0
MTEXT
  5
17893
330
1783F
100
AcDbEntity
  8
SUNPOU
 62
     1
100
AcDbMText
 10
-1323.287169910765
 20
1791.609154837254
 30
0.0
 40
3.5
 41
0.0
 71
     5
 72
     1
  1
\A1;41.5
1001
ACAD
1000
MTEXTBEGIN
1070
    73
1070
     1
1070
    44
1040
1.0
1070
    74
1070
     0
1000
MTEXTEND
  0
POINT
  5
17894
330
1783F
100
AcDbEntity
  8
DEFPOINTS
 62
     0
100
AcDbPoint
 10
-1344.037169910764
 20
1820.083970202268
 30
0.0
  0
POINT
  5
17895
330
1783F
100
AcDbEntity
  8
DEFPOINTS
 62
     0
100
AcDbPoint
 10
-1302.537169910765
 20
1822.583970202267
 30
0.0
  0
POINT
  5
17896
330
1783F
100
AcDbEntity
  8
DEFPOINTS
 62
     0
100
AcDbPoint
 10
-1302.537169910765
 20
1788.859154837254
 30
0.0
  0
ENDBLK
  5
1784A
330
1783F
100
AcDbEntity
  8
0
100
AcDbBlockEnd
  0
BLOCK
  5
17857
330
1784D
100
AcDbEntity
  8
0
100
AcDbBlockBegin
  2
*D10
 70
     1
 10
0.0
 20
0.0
 30
0.0
  3
*D10
  1

  0
LINE
  5
17897
330
1784D
100
AcDbEntity
  8
SUNPOU
 62
     1
100
AcDbLine
 10
-1308.037169910765
 20
1798.688964281316
 30
0.0
 11
-1311.037169910765
 21
1798.688964281316
 31
0.0
  0
LINE
  5
17898
330
1784D
100
AcDbEntity
  8
SUNPOU
 62
     1
100
AcDbLine
 10
-1299.537169910765
 20
1798.688964281316
 30
0.0
 11
-1282.870503244099
 21
1798.688964281316
 31
0.0
  0
LINE
  5
17899
330
1784D
100
AcDbEntity
  8
SUNPOU
 62
     1
100
AcDbLine
 10
-1305.037169910765
 20
1798.688964281316
 30
0.0
 11
-1302.537169910765
 21
1798.688964281316
 31
0.0
  0
SOLID
  5
1789A
330
1784D
100
AcDbEntity
  8
SUNPOU
 62
     1
100
AcDbTrace
 10
-1308.037169910765
 20
1799.188964281316
 30
0.0
 11
-1308.037169910765
 21
1798.188964281316
 31
0.0
 12
-1305.037169910765
 22
1798.688964281316
 32
0.0
 13
-1305.037169910765
 23
1798.688964281316
 33
0.0
  0
SOLID
  5
1789B
330
1784D
100
AcDbEntity
  8
SUNPOU
 62
     1
100
AcDbTrace
 10
-1299.537169910765
 20
1799.188964281316
 30
0.0
 11
-1299.537169910765
 21
1798.188964281316
 31
0.0
 12
-1302.537169910765
 22
1798.688964281316
 32
0.0
 13
-1302.537169910765
 23
1798.688964281316
 33
0.0
  0
MTEXT
  5
1789C
330
1784D
100
AcDbEntity
  8
SUNPOU
 62
     1
100
AcDbMText
 10
-1289.703836577432
 20
1801.438964281316
 30
0.0
 40
3.5
 41
0.0
 71
     5
 72
     1
  1
\A1;(2.5)
1001
ACAD
1000
MTEXTBEGIN
1070
    73
1070
     1
1070
    44
1040
1.0
1070
    74
1070
     0
1000
MTEXTEND
  0
POINT
  5
1789D
330
1784D
100
AcDbEntity
  8
DEFPOINTS
 62
     0
100
AcDbPoint
 10
-1305.037169910765
 20
1798.688964281316
 30
0.0
  0
POINT
  5
1789E
330
1784D
100
AcDbEntity
  8
DEFPOINTS
 62
     0
100
AcDbPoint
 10
-1302.537169910765
 20
1798.688964281316
 30
0.0
  0
POINT
  5
1789F
330
1784D
100
AcDbEntity
  8
DEFPOINTS
 62
     0
100
AcDbPoint
 10
-1302.537169910765
 20
1798.688964281316
 30
0.0
  0
ENDBLK
  5
17858
330
1784D
100
AcDbEntity
  8
0
100
AcDbBlockEnd
  0
ENDSEC
  0
SECTION
  2
ENTITIES
  0
MTEXT
  5
5084
330
1A
100
AcDbEntity
  8
0
100
AcDbMText
 10
1985.239088685435
 20
-948.5420423450428
 30
0.0
 40
8.0
 41
0.0
 71
     7
 72
     5
  1

1001
ACAD
1000
MTEXTBEGIN
1070
    73
1070
     1
1070
    44
1040
1.0
1070
    74
1070
     0
1000
MTEXTEND
  0
MTEXT
  5
5085
330
1A
100
AcDbEntity
  8
0
100
AcDbMText
 10
4270.596778580329
 20
22.24825240601649
 30
0.0
 40
8.0
 41
0.0
 71
     7
 72
     5
  1

1001
ACAD
1000
MTEXTBEGIN
1070
    73
1070
     1
1070
    44
1040
1.0
1070
    74
1070
     0
1000
MTEXTEND
  0
MTEXT
  5
5343
330
1A
100
AcDbEntity
  8
SUNPOU
100
AcDbMText
 10
6936.493799262471
 20
9534.359644781135
 30
0.0
 40
10.5
 41
0.0
 71
     1
 72
     5
  1

1001
ACAD
1000
MTEXTBEGIN
1070
    73
1070
     1
1070
    44
1040
1.0
1070
    74
1070
     0
1000
MTEXTEND
  0
MTEXT
  5
544F
330
1A
100
AcDbEntity
  8
0
100
AcDbMText
 10
16317.2832773148
 20
12833.35428897674
 30
0.0
 40
8.0
 41
0.0
 71
     7
 72
     5
  1

1001
ACAD
1000
MTEXTBEGIN
1070
    73
1070
     1
1070
    44
1040
1.0
1070
    74
1070
     0
1000
MTEXTEND
  0
MTEXT
  5
5450
330
1A
100
AcDbEntity
  8
0
100
AcDbMText
 10
18602.64096720969
 20
13804.1445837278
 30
0.0
 40
8.0
 41
0.0
 71
     7
 72
     5
  1

1001
ACAD
1000
MTEXTBEGIN
1070
    73
1070
     1
1070
    44
1040
1.0
1070
    74
1070
     0
1000
MTEXTEND
  0
MTEXT
  5
5451
330
1A
100
AcDbEntity
  8
SUNPOU
100
AcDbMText
 10
21268.53798789184
 20
23316.25597610292
 30
0.0
 40
10.5
 41
0.0
 71
     1
 72
     5
  1

1001
ACAD
1000
MTEXTBEGIN
1070
    73
1070
     1
1070
    44
1040
1.0
1070
    74
1070
     0
1000
MTEXTEND
  0
MTEXT
  5
5452
330
1A
100
AcDbEntity
  8
SUNPOU
100
AcDbMText
 10
13337.6147919559
 20
22369.46284218996
 30
0.0
 40
10.5
 41
0.0
 71
     7
 72
     5
  1

1001
ACAD
1000
MTEXTBEGIN
1070
    73
1070
     1
1070
    44
1040
1.0
1070
    74
1070
     0
1000
MTEXTEND
  0
MTEXT
  5
5453
330
1A
100
AcDbEntity
  8
SUNPOU
100
AcDbMText
 10
16286.59845646867
 20
27270.13891403281
 30
0.0
 40
10.5
 41
0.0
 71
     7
 72
     5
  1

1001
ACAD
1000
MTEXTBEGIN
1070
    73
1070
     1
1070
    44
1040
1.0
1070
    74
1070
     0
1000
MTEXTEND
  0
MTEXT
  5
5454
330
1A
100
AcDbEntity
  8
SUNPOU
100
AcDbMText
 10
20795.67658441924
 20
29706.43966165288
 30
0.0
 40
10.5
 41
0.0
 71
     7
 72
     5
  1

1001
ACAD
1000
MTEXTBEGIN
1070
    73
1070
     1
1070
    44
1040
1.0
1070
    74
1070
     0
1000
MTEXTEND
  0
MTEXT
  5
5455
330
1A
100
AcDbEntity
  8
0
100
AcDbMText
 10
16611.93789220314
 20
14707.52144344448
 30
0.0
 40
8.0
 41
0.0
 71
     7
 72
     5
  1

1001
ACAD
1000
MTEXTBEGIN
1070
    73
1070
     1
1070
    44
1040
1.0
1070
    74
1070
     0
1000
MTEXTEND
  0
MTEXT
  5
5456
330
1A
100
AcDbEntity
  8
0
100
AcDbMText
 10
18897.29558209804
 20
15678.31173819554
 30
0.0
 40
8.0
 41
0.0
 71
     7
 72
     5
  1

1001
ACAD
1000
MTEXTBEGIN
1070
    73
1070
     1
1070
    44
1040
1.0
1070
    74
1070
     0
1000
MTEXTEND
  0
MTEXT
  5
5457
330
1A
100
AcDbEntity
  8
SUNPOU
100
AcDbMText
 10
21563.19260278019
 20
25190.42313057066
 30
0.0
 40
10.5
 41
0.0
 71
     1
 72
     5
  1

1001
ACAD
1000
MTEXTBEGIN
1070
    73
1070
     1
1070
    44
1040
1.0
1070
    74
1070
     0
1000
MTEXTEND
  0
MTEXT
  5
5458
330
1A
100
AcDbEntity
  8
SUNPOU
100
AcDbMText
 10
13632.26940684426
 20
24243.6299966577
 30
0.0
 40
10.5
 41
0.0
 71
     7
 72
     5
  1

1001
ACAD
1000
MTEXTBEGIN
1070
    73
1070
     1
1070
    44
1040
1.0
1070
    74
1070
     0
1000
MTEXTEND
  0
MTEXT
  5
5459
330
1A
100
AcDbEntity
  8
SUNPOU
100
AcDbMText
 10
16581.25307135702
 20
29144.30606850055
 30
0.0
 40
10.5
 41
0.0
 71
     7
 72
     5
  1

1001
ACAD
1000
MTEXTBEGIN
1070
    73
1070
     1
1070
    44
1040
1.0
1070
    74
1070
     0
1000
MTEXTEND
  0
MTEXT
  5
545A
330
1A
100
AcDbEntity
  8
SUNPOU
100
AcDbMText
 10
21090.33119930759
 20
31580.60681612062
 30
0.0
 40
10.5
 41
0.0
 71
     7
 72
     5
  1

1001
ACAD
1000
MTEXTBEGIN
1070
    73
1070
     1
1070
    44
1040
1.0
1070
    74
1070
     0
1000
MTEXTEND
  0
MTEXT
  5
545B
330
1A
100
AcDbEntity
  8
0
100
AcDbMText
 10
22871.60517627167
 20
23974.88367124799
 30
0.0
 40
8.0
 41
0.0
 71
     7
 72
     5
  1

1001
ACAD
1000
MTEXTBEGIN
1070
    73
1070
     1
1070
    44
1040
1.0
1070
    74
1070
     0
1000
MTEXTEND
  0
MTEXT
  5
545C
330
1A
100
AcDbEntity
  8
0
100
AcDbMText
 10
25156.96286616657
 20
24945.67396599906
 30
0.0
 40
8.0
 41
0.0
 71
     7
 72
     5
  1

1001
ACAD
1000
MTEXTBEGIN
1070
    73
1070
     1
1070
    44
1040
1.0
1070
    74
1070
     0
1000
MTEXTEND
  0
MTEXT
  5
545D
330
1A
100
AcDbEntity
  8
SUNPOU
100
AcDbMText
 10
27822.85988684871
 20
34457.78535837418
 30
0.0
 40
10.5
 41
0.0
 71
     1
 72
     5
  1

1001
ACAD
1000
MTEXTBEGIN
1070
    73
1070
     1
1070
    44
1040
1.0
1070
    74
1070
     0
1000
MTEXTEND
  0
MTEXT
  5
545E
330
1A
100
AcDbEntity
  8
SUNPOU
100
AcDbMText
 10
19891.93669091278
 20
33510.99222446122
 30
0.0
 40
10.5
 41
0.0
 71
     7
 72
     5
  1

1001
ACAD
1000
MTEXTBEGIN
1070
    73
1070
     1
1070
    44
1040
1.0
1070
    74
1070
     0
1000
MTEXTEND
  0
MTEXT
  5
545F
330
1A
100
AcDbEntity
  8
SUNPOU
100
AcDbMText
 10
22840.92035542555
 20
38411.66829630407
 30
0.0
 40
10.5
 41
0.0
 71
     7
 72
     5
  1

1001
ACAD
1000
MTEXTBEGIN
1070
    73
1070
     1
1070
    44
1040
1.0
1070
    74
1070
     0
1000
MTEXTEND
  0
MTEXT
  5
5460
330
1A
100
AcDbEntity
  8
SUNPOU
100
AcDbMText
 10
27349.99848337611
 20
40847.96904392415
 30
0.0
 40
10.5
 41
0.0
 71
     7
 72
     5
  1

1001
ACAD
1000
MTEXTBEGIN
1070
    73
1070
     1
1070
    44
1040
1.0
1070
    74
1070
     0
1000
MTEXTEND
  0
MTEXT
  5
55B7
330
1A
100
AcDbEntity
  8
SUNPOU
100
AcDbMText
 10
67424.23923338197
 20
64463.86602884816
 30
0.0
 40
10.5
 41
0.0
 71
     9
 72
     5
  1

1001
ACAD
1000
MTEXTBEGIN
1070
    73
1070
     1
1070
    44
1040
1.0
1070
    74
1070
     0
1000
MTEXTEND
  0
MTEXT
  5
55B8
330
1A
100
AcDbEntity
  8
SUNPOU
100
AcDbMText
 10
76146.40679929998
 20
71879.70056038563
 30
0.0
 40
10.5
 41
0.0
 71
     9
 72
     5
  1

1001
ACAD
1000
MTEXTBEGIN
1070
    73
1070
     1
1070
    44
1040
1.0
1070
    74
1070
     0
1000
MTEXTEND
  0
MTEXT
  5
55B9
330
1A
100
AcDbEntity
  8
SUNPOU
100
AcDbMText
 10
95100.16551662994
 20
89346.27661287766
 30
0.0
 40
10.5
 41
0.0
 71
     9
 72
     5
  1

1001
ACAD
1000
MTEXTBEGIN
1070
    73
1070
     1
1070
    44
1040
1.0
1070
    74
1070
     0
1000
MTEXTEND
  0
MTEXT
  5
55BA
330
1A
100
AcDbEntity
  8
SUNPOU
100
AcDbMText
 10
97043.57276333936
 20
87545.22753299966
 30
0.0
 40
3.5
 41
0.0
 71
     9
 72
     5
  1

1001
ACAD
1000
MTEXTBEGIN
1070
    73
1070
     1
1070
    44
1040
1.0
1070
    74
1070
     0
1000
MTEXTEND
  0
MTEXT
  5
55BB
330
1A
100
AcDbEntity
  8
SUNPOU
100
AcDbMText
 10
128169.752595959
 20
130040.1732006569
 30
0.0
 40
10.5
 41
0.0
 71
     9
 72
     5
  1

1001
ACAD
1000
MTEXTBEGIN
1070
    73
1070
     1
1070
    44
1040
1.0
1070
    74
1070
     0
1000
MTEXTEND
  0
MTEXT
  5
55BC
330
1A
100
AcDbEntity
  8
SUNPOU
100
AcDbMText
 10
130113.1598426684
 20
128239.1241207789
 30
0.0
 40
3.5
 41
0.0
 71
     9
 72
     5
  1

1001
ACAD
1000
MTEXTBEGIN
1070
    73
1070
     1
1070
    44
1040
1.0
1070
    74
1070
     0
1000
MTEXTEND
  0
MTEXT
  5
55BD
330
1A
100
AcDbEntity
  8
SUNPOU
100
AcDbMText
 10
78610.02030175463
 20
75873.33835563206
 30
0.0
 40
10.5
 41
0.0
 71
     9
 72
     5
  1

1001
ACAD
1000
MTEXTBEGIN
1070
    73
1070
     1
1070
    44
1040
1.0
1070
    74
1070
     0
1000
MTEXTEND
  0
MTEXT
  5
55BE
330
1A
100
AcDbEntity
  8
SUNPOU
100
AcDbMText
 10
64662.02020137863
 20
56700.93921651987
 30
0.0
 40
3.5
 41
0.0
 71
     7
 72
     5
  1

1001
ACAD
1000
MTEXTBEGIN
1070
    73
1070
     1
1070
    44
1040
1.0
1070
    74
1070
     0
1000
MTEXTEND
  0
MTEXT
  5
55BF
330
1A
100
AcDbEntity
  8
SUNPOU
100
AcDbMText
 10
45647.18959837178
 20
44463.08794733807
 30
0.0
 40
10.5
 41
0.0
 71
     7
 72
     5
  1

1001
ACAD
1000
MTEXTBEGIN
1070
    73
1070
     1
1070
    44
1040
1.0
1070
    74
1070
     0
1000
MTEXTEND
  0
MTEXT
  5
55C0
330
1A
100
AcDbEntity
  8
SUNPOU
100
AcDbMText
 10
33189.96133342368
 20
28618.15636923965
 30
0.0
 40
35.0
 41
0.0
 71
     9
 72
     5
  1

1001
ACAD
1000
MTEXTBEGIN
1070
    73
1070
     1
1070
    44
1040
1.0
1070
    74
1070
     0
1000
MTEXTEND
  0
MTEXT
  5
55C1
330
1A
100
AcDbEntity
  8
SUNPOU
100
AcDbMText
 10
32098.44639099864
 20
29226.93177928835
 30
0.0
 40
350.0000004171781
 41
0.0
 71
     7
 72
     5
  1

1001
ACAD
1000
MTEXTBEGIN
1070
    73
1070
     1
1070
    44
1040
1.0
1070
    74
1070
     0
1000
MTEXTEND
  0
MTEXT
  5
55C2
330
1A
100
AcDbEntity
  8
0
100
AcDbMText
 10
38142.39714894154
 20
27206.85414142458
 30
0.0
 40
8.0
 41
0.0
 71
     7
 72
     5
  1

1001
ACAD
1000
MTEXTBEGIN
1070
    73
1070
     1
1070
    44
1040
1.0
1070
    74
1070
     0
1000
MTEXTEND
  0
MTEXT
  5
55C3
330
1A
100
AcDbEntity
  8
0
100
AcDbMText
 10
40427.75483883644
 20
28177.64443617564
 30
0.0
 40
8.0
 41
0.0
 71
     7
 72
     5
  1

1001
ACAD
1000
MTEXTBEGIN
1070
    73
1070
     1
1070
    44
1040
1.0
1070
    74
1070
     0
1000
MTEXTEND
  0
MTEXT
  5
55C4
330
1A
100
AcDbEntity
  8
SUNPOU
100
AcDbMText
 10
43093.65185951858
 20
37689.75582855077
 30
0.0
 40
10.5
 41
0.0
 71
     1
 72
     5
  1

1001
ACAD
1000
MTEXTBEGIN
1070
    73
1070
     1
1070
    44
1040
1.0
1070
    74
1070
     0
1000
MTEXTEND
  0
MTEXT
  5
55C5
330
1A
100
AcDbEntity
  8
SUNPOU
100
AcDbMText
 10
35162.72866358265
 20
36742.96269463781
 30
0.0
 40
10.5
 41
0.0
 71
     7
 72
     5
  1

1001
ACAD
1000
MTEXTBEGIN
1070
    73
1070
     1
1070
    44
1040
1.0
1070
    74
1070
     0
1000
MTEXTEND
  0
MTEXT
  5
55C6
330
1A
100
AcDbEntity
  8
SUNPOU
100
AcDbMText
 10
38111.71232809542
 20
41643.63876648066
 30
0.0
 40
10.5
 41
0.0
 71
     7
 72
     5
  1

1001
ACAD
1000
MTEXTBEGIN
1070
    73
1070
     1
1070
    44
1040
1.0
1070
    74
1070
     0
1000
MTEXTEND
  0
MTEXT
  5
55C7
330
1A
100
AcDbEntity
  8
SUNPOU
100
AcDbMText
 10
42620.79045604597
 20
44079.93951410074
 30
0.0
 40
10.5
 41
0.0
 71
     7
 72
     5
  1

1001
ACAD
1000
MTEXTBEGIN
1070
    73
1070
     1
1070
    44
1040
1.0
1070
    74
1070
     0
1000
MTEXTEND
  0
MTEXT
  5
55C8
330
1A
100
AcDbEntity
  8
SUNPOU
100
AcDbMText
 10
26221.62834281429
 20
23077.53566448964
 30
0.0
 40
10.5
 41
0.0
 71
     7
 72
     5
  1

1001
ACAD
1000
MTEXTBEGIN
1070
    73
1070
     1
1070
    44
1040
1.0
1070
    74
1070
     0
1000
MTEXTEND
  0
MTEXT
  5
55C9
330
1A
100
AcDbEntity
  8
SUNPOU
100
AcDbMText
 10
77413.14677671455
 20
68750.51622813789
 30
0.0
 40
10.5
 41
0.0
 71
     9
 72
     5
  1

1001
ACAD
1000
MTEXTBEGIN
1070
    73
1070
     1
1070
    44
1040
1.0
1070
    74
1070
     0
1000
MTEXTEND
  0
MTEXT
  5
55CA
330
1A
100
AcDbEntity
  8
SUNPOU
100
AcDbMText
 10
86135.31434263256
 20
76166.35075967536
 30
0.0
 40
10.5
 41
0.0
 71
     9
 72
     5
  1

1001
ACAD
1000
MTEXTBEGIN
1070
    73
1070
     1
1070
    44
1040
1.0
1070
    74
1070
     0
1000
MTEXTEND
  0
MTEXT
  5
55CB
330
1A
100
AcDbEntity
  8
SUNPOU
100
AcDbMText
 10
105089.0730599625
 20
93632.92681216739
 30
0.0
 40
10.5
 41
0.0
 71
     9
 72
     5
  1

1001
ACAD
1000
MTEXTBEGIN
1070
    73
1070
     1
1070
    44
1040
1.0
1070
    74
1070
     0
1000
MTEXTEND
  0
MTEXT
  5
55CC
330
1A
100
AcDbEntity
  8
SUNPOU
100
AcDbMText
 10
107032.4803066719
 20
91831.8777322894
 30
0.0
 40
3.5
 41
0.0
 71
     9
 72
     5
  1

1001
ACAD
1000
MTEXTBEGIN
1070
    73
1070
     1
1070
    44
1040
1.0
1070
    74
1070
     0
1000
MTEXTEND
  0
MTEXT
  5
55CD
330
1A
100
AcDbEntity
  8
SUNPOU
100
AcDbMText
 10
138158.6601392916
 20
134326.8233999467
 30
0.0
 40
10.5
 41
0.0
 71
     9
 72
     5
  1

1001
ACAD
1000
MTEXTBEGIN
1070
    73
1070
     1
1070
    44
1040
1.0
1070
    74
1070
     0
1000
MTEXTEND
  0
MTEXT
  5
55CE
330
1A
100
AcDbEntity
  8
SUNPOU
100
AcDbMText
 10
140102.067386001
 20
132525.7743200686
 30
0.0
 40
3.5
 41
0.0
 71
     9
 72
     5
  1

1001
ACAD
1000
MTEXTBEGIN
1070
    73
1070
     1
1070
    44
1040
1.0
1070
    74
1070
     0
1000
MTEXTEND
  0
MTEXT
  5
55CF
330
1A
100
AcDbEntity
  8
SUNPOU
100
AcDbMText
 10
88598.92784508721
 20
80159.98855492179
 30
0.0
 40
10.5
 41
0.0
 71
     9
 72
     5
  1

1001
ACAD
1000
MTEXTBEGIN
1070
    73
1070
     1
1070
    44
1040
1.0
1070
    74
1070
     0
1000
MTEXTEND
  0
MTEXT
  5
55D0
330
1A
100
AcDbEntity
  8
SUNPOU
100
AcDbMText
 10
74650.92774471121
 20
60987.5894158096
 30
0.0
 40
3.5
 41
0.0
 71
     7
 72
     5
  1

1001
ACAD
1000
MTEXTBEGIN
1070
    73
1070
     1
1070
    44
1040
1.0
1070
    74
1070
     0
1000
MTEXTEND
  0
MTEXT
  5
55D1
330
1A
100
AcDbEntity
  8
SUNPOU
100
AcDbMText
 10
55636.09714170436
 20
48749.73814662781
 30
0.0
 40
10.5
 41
0.0
 71
     7
 72
     5
  1

1001
ACAD
1000
MTEXTBEGIN
1070
    73
1070
     1
1070
    44
1040
1.0
1070
    74
1070
     0
1000
MTEXTEND
  0
MTEXT
  5
55D2
330
1A
100
AcDbEntity
  8
SUNPOU
100
AcDbMText
 10
43178.86887675626
 20
32904.80656852938
 30
0.0
 40
35.0
 41
0.0
 71
     9
 72
     5
  1

1001
ACAD
1000
MTEXTBEGIN
1070
    73
1070
     1
1070
    44
1040
1.0
1070
    74
1070
     0
1000
MTEXTEND
  0
MTEXT
  5
55D3
330
1A
100
AcDbEntity
  8
SUNPOU
100
AcDbMText
 10
42087.35393433121
 20
33513.58197857809
 30
0.0
 40
350.0000004171781
 41
0.0
 71
     7
 72
     5
  1

1001
ACAD
1000
MTEXTBEGIN
1070
    73
1070
     1
1070
    44
1040
1.0
1070
    74
1070
     0
1000
MTEXTEND
  0
MTEXT
  5
55D4
330
1A
100
AcDbEntity
  8
0
100
AcDbMText
 10
48131.30469227412
 20
31493.50434071431
 30
0.0
 40
8.0
 41
0.0
 71
     7
 72
     5
  1

1001
ACAD
1000
MTEXTBEGIN
1070
    73
1070
     1
1070
    44
1040
1.0
1070
    74
1070
     0
1000
MTEXTEND
  0
MTEXT
  5
55D5
330
1A
100
AcDbEntity
  8
0
100
AcDbMText
 10
50416.66238216901
 20
32464.29463546537
 30
0.0
 40
8.0
 41
0.0
 71
     7
 72
     5
  1

1001
ACAD
1000
MTEXTBEGIN
1070
    73
1070
     1
1070
    44
1040
1.0
1070
    74
1070
     0
1000
MTEXTEND
  0
MTEXT
  5
55D6
330
1A
100
AcDbEntity
  8
SUNPOU
100
AcDbMText
 10
53082.55940285115
 20
41976.4060278405
 30
0.0
 40
10.5
 41
0.0
 71
     1
 72
     5
  1

1001
ACAD
1000
MTEXTBEGIN
1070
    73
1070
     1
1070
    44
1040
1.0
1070
    74
1070
     0
1000
MTEXTEND
  0
MTEXT
  5
55D7
330
1A
100
AcDbEntity
  8
SUNPOU
100
AcDbMText
 10
45151.63620691522
 20
41029.61289392755
 30
0.0
 40
10.5
 41
0.0
 71
     7
 72
     5
  1

1001
ACAD
1000
MTEXTBEGIN
1070
    73
1070
     1
1070
    44
1040
1.0
1070
    74
1070
     0
1000
MTEXTEND
  0
MTEXT
  5
55D8
330
1A
100
AcDbEntity
  8
SUNPOU
100
AcDbMText
 10
48100.61987142798
 20
45930.28896577039
 30
0.0
 40
10.5
 41
0.0
 71
     7
 72
     5
  1

1001
ACAD
1000
MTEXTBEGIN
1070
    73
1070
     1
1070
    44
1040
1.0
1070
    74
1070
     0
1000
MTEXTEND
  0
MTEXT
  5
55D9
330
1A
100
AcDbEntity
  8
SUNPOU
100
AcDbMText
 10
52609.69799937854
 20
48366.58971339046
 30
0.0
 40
10.5
 41
0.0
 71
     7
 72
     5
  1

1001
ACAD
1000
MTEXTBEGIN
1070
    73
1070
     1
1070
    44
1040
1.0
1070
    74
1070
     0
1000
MTEXTEND
  0
MTEXT
  5
55DA
330
1A
100
AcDbEntity
  8
SUNPOU
100
AcDbMText
 10
36210.53588614687
 20
27364.18586377937
 30
0.0
 40
10.5
 41
0.0
 71
     7
 72
     5
  1

1001
ACAD
1000
MTEXTBEGIN
1070
    73
1070
     1
1070
    44
1040
1.0
1070
    74
1070
     0
1000
MTEXTEND
  0
MTEXT
  5
55DB
330
1A
100
AcDbEntity
  8
SUNPOU
100
AcDbMText
 10
38021.29879752181
 20
33691.59985125794
 30
0.0
 40
10.5
 41
0.0
 71
     9
 72
     5
  1

1001
ACAD
1000
MTEXTBEGIN
1070
    73
1070
     1
1070
    44
1040
1.0
1070
    74
1070
     0
1000
MTEXTEND
  0
MTEXT
  5
55DC
330
1A
100
AcDbEntity
  8
SUNPOU
100
AcDbMText
 10
46743.46636343979
 20
41107.43438279541
 30
0.0
 40
10.5
 41
0.0
 71
     9
 72
     5
  1

1001
ACAD
1000
MTEXTBEGIN
1070
    73
1070
     1
1070
    44
1040
1.0
1070
    74
1070
     0
1000
MTEXTEND
  0
MTEXT
  5
55DD
330
1A
100
AcDbEntity
  8
SUNPOU
100
AcDbMText
 10
65697.22508076975
 20
58574.01043528746
 30
0.0
 40
10.5
 41
0.0
 71
     9
 72
     5
  1

1001
ACAD
1000
MTEXTBEGIN
1070
    73
1070
     1
1070
    44
1040
1.0
1070
    74
1070
     0
1000
MTEXTEND
  0
MTEXT
  5
55DE
330
1A
100
AcDbEntity
  8
SUNPOU
100
AcDbMText
 10
67640.63232747917
 20
56772.96135540945
 30
0.0
 40
3.5
 41
0.0
 71
     9
 72
     5
  1

1001
ACAD
1000
MTEXTBEGIN
1070
    73
1070
     1
1070
    44
1040
1.0
1070
    74
1070
     0
1000
MTEXTEND
  0
MTEXT
  5
55DF
330
1A
100
AcDbEntity
  8
SUNPOU
100
AcDbMText
 10
98766.81216009888
 20
99267.9070230668
 30
0.0
 40
10.5
 41
0.0
 71
     9
 72
     5
  1

1001
ACAD
1000
MTEXTBEGIN
1070
    73
1070
     1
1070
    44
1040
1.0
1070
    74
1070
     0
1000
MTEXTEND
  0
MTEXT
  5
55E0
330
1A
100
AcDbEntity
  8
SUNPOU
100
AcDbMText
 10
100710.2194068083
 20
97466.85794318878
 30
0.0
 40
3.5
 41
0.0
 71
     9
 72
     5
  1

1001
ACAD
1000
MTEXTBEGIN
1070
    73
1070
     1
1070
    44
1040
1.0
1070
    74
1070
     0
1000
MTEXTEND
  0
MTEXT
  5
55E1
330
1A
100
AcDbEntity
  8
SUNPOU
100
AcDbMText
 10
49207.07986589444
 20
45101.07217804185
 30
0.0
 40
10.5
 41
0.0
 71
     9
 72
     5
  1

1001
ACAD
1000
MTEXTBEGIN
1070
    73
1070
     1
1070
    44
1040
1.0
1070
    74
1070
     0
1000
MTEXTEND
  0
MTEXT
  5
55E2
330
1A
100
AcDbEntity
  8
SUNPOU
100
AcDbMText
 10
35259.07976551845
 20
25928.67303892964
 30
0.0
 40
3.5
 41
0.0
 71
     7
 72
     5
  1

1001
ACAD
1000
MTEXTBEGIN
1070
    73
1070
     1
1070
    44
1040
1.0
1070
    74
1070
     0
1000
MTEXTEND
  0
MTEXT
  5
55E3
330
1A
100
AcDbEntity
  8
SUNPOU
100
AcDbMText
 10
48951.43044828905
 20
35287.73625995099
 30
0.0
 40
10.5
 41
0.0
 71
     9
 72
     5
  1

1001
ACAD
1000
MTEXTBEGIN
1070
    73
1070
     1
1070
    44
1040
1.0
1070
    74
1070
     0
1000
MTEXTEND
  0
MTEXT
  5
55E4
330
1A
100
AcDbEntity
  8
SUNPOU
100
AcDbMText
 10
57673.59801420702
 20
42703.57079148847
 30
0.0
 40
10.5
 41
0.0
 71
     9
 72
     5
  1

1001
ACAD
1000
MTEXTBEGIN
1070
    73
1070
     1
1070
    44
1040
1.0
1070
    74
1070
     0
1000
MTEXTEND
  0
MTEXT
  5
55E5
330
1A
100
AcDbEntity
  8
SUNPOU
100
AcDbMText
 10
76627.35673153699
 20
60170.14684398051
 30
0.0
 40
10.5
 41
0.0
 71
     9
 72
     5
  1

1001
ACAD
1000
MTEXTBEGIN
1070
    73
1070
     1
1070
    44
1040
1.0
1070
    74
1070
     0
1000
MTEXTEND
  0
MTEXT
  5
55E6
330
1A
100
AcDbEntity
  8
SUNPOU
100
AcDbMText
 10
78570.76397824641
 20
58369.09776410251
 30
0.0
 40
3.5
 41
0.0
 71
     9
 72
     5
  1

1001
ACAD
1000
MTEXTBEGIN
1070
    73
1070
     1
1070
    44
1040
1.0
1070
    74
1070
     0
1000
MTEXTEND
  0
MTEXT
  5
55E7
330
1A
100
AcDbEntity
  8
SUNPOU
100
AcDbMText
 10
109696.9438108661
 20
100864.0434317598
 30
0.0
 40
10.5
 41
0.0
 71
     9
 72
     5
  1

1001
ACAD
1000
MTEXTBEGIN
1070
    73
1070
     1
1070
    44
1040
1.0
1070
    74
1070
     0
1000
MTEXTEND
  0
MTEXT
  5
55E8
330
1A
100
AcDbEntity
  8
SUNPOU
100
AcDbMText
 10
111640.3510575755
 20
99062.99435188183
 30
0.0
 40
3.5
 41
0.0
 71
     9
 72
     5
  1

1001
ACAD
1000
MTEXTBEGIN
1070
    73
1070
     1
1070
    44
1040
1.0
1070
    74
1070
     0
1000
MTEXTEND
  0
MTEXT
  5
55E9
330
1A
100
AcDbEntity
  8
SUNPOU
100
AcDbMText
 10
60137.21151666167
 20
46697.20858673491
 30
0.0
 40
10.5
 41
0.0
 71
     9
 72
     5
  1

1001
ACAD
1000
MTEXTBEGIN
1070
    73
1070
     1
1070
    44
1040
1.0
1070
    74
1070
     0
1000
MTEXTEND
  0
MTEXT
  5
55EA
330
1A
100
AcDbEntity
  8
SUNPOU
100
AcDbMText
 10
46189.21141628568
 20
27524.80944762269
 30
0.0
 40
3.5
 41
0.0
 71
     7
 72
     5
  1

1001
ACAD
1000
MTEXTBEGIN
1070
    73
1070
     1
1070
    44
1040
1.0
1070
    74
1070
     0
1000
MTEXTEND
  0
MTEXT
  5
55EB
330
1A
100
AcDbEntity
  8
SUNPOU
100
AcDbMText
 10
45007.68847015541
 20
38269.57947701874
 30
0.0
 40
10.5
 41
0.0
 71
     9
 72
     5
  1

1001
ACAD
1000
MTEXTBEGIN
1070
    73
1070
     1
1070
    44
1040
1.0
1070
    74
1070
     0
1000
MTEXTEND
  0
MTEXT
  5
55EC
330
1A
100
AcDbEntity
  8
SUNPOU
100
AcDbMText
 10
63961.44718748539
 20
55736.15552951081
 30
0.0
 40
10.5
 41
0.0
 71
     9
 72
     5
  1

1001
ACAD
1000
MTEXTBEGIN
1070
    73
1070
     1
1070
    44
1040
1.0
1070
    74
1070
     0
1000
MTEXTEND
  0
MTEXT
  5
55ED
330
1A
100
AcDbEntity
  8
SUNPOU
100
AcDbMText
 10
65904.85443419479
 20
53935.10644963279
 30
0.0
 40
3.5
 41
0.0
 71
     9
 72
     5
  1

1001
ACAD
1000
MTEXTBEGIN
1070
    73
1070
     1
1070
    44
1040
1.0
1070
    74
1070
     0
1000
MTEXTEND
  0
MTEXT
  5
55EE
330
1A
100
AcDbEntity
  8
SUNPOU
100
AcDbMText
 10
97031.03426681451
 20
96430.05211729015
 30
0.0
 40
10.5
 41
0.0
 71
     9
 72
     5
  1

1001
ACAD
1000
MTEXTBEGIN
1070
    73
1070
     1
1070
    44
1040
1.0
1070
    74
1070
     0
1000
MTEXTEND
  0
MTEXT
  5
55EF
330
1A
100
AcDbEntity
  8
SUNPOU
100
AcDbMText
 10
98974.44151352393
 20
94629.00303741212
 30
0.0
 40
3.5
 41
0.0
 71
     9
 72
     5
  1

1001
ACAD
1000
MTEXTBEGIN
1070
    73
1070
     1
1070
    44
1040
1.0
1070
    74
1070
     0
1000
MTEXTEND
  0
MTEXT
  5
55F0
330
1A
100
AcDbEntity
  8
SUNPOU
100
AcDbMText
 10
47471.30197261006
 20
42263.21727226519
 30
0.0
 40
10.5
 41
0.0
 71
     9
 72
     5
  1

1001
ACAD
1000
MTEXTBEGIN
1070
    73
1070
     1
1070
    44
1040
1.0
1070
    74
1070
     0
1000
MTEXTEND
  0
MTEXT
  5
55F1
330
1A
100
AcDbEntity
  8
SUNPOU
100
AcDbMText
 10
33523.30187223408
 20
23090.81813315298
 30
0.0
 40
3.5
 41
0.0
 71
     7
 72
     5
  1

1001
ACAD
1000
MTEXTBEGIN
1070
    73
1070
     1
1070
    44
1040
1.0
1070
    74
1070
     0
1000
MTEXTEND
  0
MTEXT
  5
55F2
330
1A
100
AcDbEntity
  8
SUNPOU
100
AcDbMText
 10
57959.46254102503
 20
50038.08111611015
 30
0.0
 40
10.5
 41
0.0
 71
     9
 72
     5
  1

1001
ACAD
1000
MTEXTBEGIN
1070
    73
1070
     1
1070
    44
1040
1.0
1070
    74
1070
     0
1000
MTEXTEND
  0
MTEXT
  5
55F3
330
1A
100
AcDbEntity
  8
SUNPOU
100
AcDbMText
 10
76913.22125835503
 20
67504.65716860222
 30
0.0
 40
10.5
 41
0.0
 71
     9
 72
     5
  1

1001
ACAD
1000
MTEXTBEGIN
1070
    73
1070
     1
1070
    44
1040
1.0
1070
    74
1070
     0
1000
MTEXTEND
  0
MTEXT
  5
55F4
330
1A
100
AcDbEntity
  8
SUNPOU
100
AcDbMText
 10
78856.62850506443
 20
65703.6080887242
 30
0.0
 40
3.5
 41
0.0
 71
     9
 72
     5
  1

1001
ACAD
1000
MTEXTBEGIN
1070
    73
1070
     1
1070
    44
1040
1.0
1070
    74
1070
     0
1000
MTEXTEND
  0
MTEXT
  5
55F5
330
1A
100
AcDbEntity
  8
SUNPOU
100
AcDbMText
 10
109982.8083376841
 20
108198.5537563815
 30
0.0
 40
10.5
 41
0.0
 71
     9
 72
     5
  1

1001
ACAD
1000
MTEXTBEGIN
1070
    73
1070
     1
1070
    44
1040
1.0
1070
    74
1070
     0
1000
MTEXTEND
  0
MTEXT
  5
55F6
330
1A
100
AcDbEntity
  8
SUNPOU
100
AcDbMText
 10
111926.2155843935
 20
106397.5046765035
 30
0.0
 40
3.5
 41
0.0
 71
     9
 72
     5
  1

1001
ACAD
1000
MTEXTBEGIN
1070
    73
1070
     1
1070
    44
1040
1.0
1070
    74
1070
     0
1000
MTEXTEND
  0
MTEXT
  5
55F7
330
1A
100
AcDbEntity
  8
SUNPOU
100
AcDbMText
 10
60423.07604347968
 20
54031.71891135659
 30
0.0
 40
10.5
 41
0.0
 71
     9
 72
     5
  1

1001
ACAD
1000
MTEXTBEGIN
1070
    73
1070
     1
1070
    44
1040
1.0
1070
    74
1070
     0
1000
MTEXTEND
  0
MTEXT
  5
55F8
330
1A
100
AcDbEntity
  8
SUNPOU
100
AcDbMText
 10
46475.07594310369
 20
34859.3197722444
 30
0.0
 40
3.5
 41
0.0
 71
     7
 72
     5
  1

1001
ACAD
1000
MTEXTBEGIN
1070
    73
1070
     1
1070
    44
1040
1.0
1070
    74
1070
     0
1000
MTEXTEND
  0
MTEXT
  5
55F9
330
1A
100
AcDbEntity
  8
SUNPOU
100
AcDbMText
 10
74027.35402123588
 20
68370.58278833383
 30
0.0
 40
10.5
 41
0.0
 71
     9
 72
     5
  1

1001
ACAD
1000
MTEXTBEGIN
1070
    73
1070
     1
1070
    44
1040
1.0
1070
    74
1070
     0
1000
MTEXTEND
  0
MTEXT
  5
55FA
330
1A
100
AcDbEntity
  8
SUNPOU
100
AcDbMText
 10
75970.7612679453
 20
66569.53370845583
 30
0.0
 40
3.5
 41
0.0
 71
     9
 72
     5
  1

1001
ACAD
1000
MTEXTBEGIN
1070
    73
1070
     1
1070
    44
1040
1.0
1070
    74
1070
     0
1000
MTEXTEND
  0
MTEXT
  5
55FB
330
1A
100
AcDbEntity
  8
SUNPOU
100
AcDbMText
 10
107096.941100565
 20
109064.4793761132
 30
0.0
 40
10.5
 41
0.0
 71
     9
 72
     5
  1

1001
ACAD
1000
MTEXTBEGIN
1070
    73
1070
     1
1070
    44
1040
1.0
1070
    74
1070
     0
1000
MTEXTEND
  0
MTEXT
  5
55FC
330
1A
100
AcDbEntity
  8
SUNPOU
100
AcDbMText
 10
109040.3483472744
 20
107263.4302962351
 30
0.0
 40
3.5
 41
0.0
 71
     9
 72
     5
  1

1001
ACAD
1000
MTEXTBEGIN
1070
    73
1070
     1
1070
    44
1040
1.0
1070
    74
1070
     0
1000
MTEXTEND
  0
MTEXT
  5
55FD
330
1A
100
AcDbEntity
  8
SUNPOU
100
AcDbMText
 10
105709.1709283621
 20
108141.3777665285
 30
0.0
 40
10.5
 41
0.0
 71
     9
 72
     5
  1

1001
ACAD
1000
MTEXTBEGIN
1070
    73
1070
     1
1070
    44
1040
1.0
1070
    74
1070
     0
1000
MTEXTEND
  0
MTEXT
  5
55FE
330
1A
100
AcDbEntity
  8
SUNPOU
100
AcDbMText
 10
107652.5781750715
 20
106340.3286866505
 30
0.0
 40
3.5
 41
0.0
 71
     9
 72
     5
  1

1001
ACAD
1000
MTEXTBEGIN
1070
    73
1070
     1
1070
    44
1040
1.0
1070
    74
1070
     0
1000
MTEXTEND
  0
MTEXT
  5
55FF
330
1A
100
AcDbEntity
  8
SUNPOU
100
AcDbMText
 10
73193.09268743351
 20
66158.78082845056
 30
0.0
 40
10.5
 41
0.0
 71
     9
 72
     5
  1

1001
ACAD
1000
MTEXTBEGIN
1070
    73
1070
     1
1070
    44
1040
1.0
1070
    74
1070
     0
1000
MTEXTEND
  0
MTEXT
  5
5600
330
1A
100
AcDbEntity
  8
SUNPOU
100
AcDbMText
 10
75916.39889159806
 20
66563.46252003162
 30
0.0
 40
3.5
 41
0.0
 71
     9
 72
     5
  1

1001
ACAD
1000
MTEXTBEGIN
1070
    73
1070
     1
1070
    44
1040
1.0
1070
    74
1070
     0
1000
MTEXTEND
  0
MTEXT
  5
5601
330
1A
100
AcDbEntity
  8
SUNPOU
100
AcDbMText
 10
75124.04436649058
 20
63402.1566819768
 30
0.0
 40
10.5
 41
0.0
 71
     9
 72
     5
  1

1001
ACAD
1000
MTEXTBEGIN
1070
    73
1070
     1
1070
    44
1040
1.0
1070
    74
1070
     0
1000
MTEXTEND
  0
MTEXT
  5
5602
330
1A
100
AcDbEntity
  8
SUNPOU
100
AcDbMText
 10
77067.4516132
 20
61601.1076020988
 30
0.0
 40
3.5
 41
0.0
 71
     9
 72
     5
  1

1001
ACAD
1000
MTEXTBEGIN
1070
    73
1070
     1
1070
    44
1040
1.0
1070
    74
1070
     0
1000
MTEXTEND
  0
MTEXT
  5
5603
330
1A
100
AcDbEntity
  8
SUNPOU
100
AcDbMText
 10
77012.54710378659
 20
61488.33571981449
 30
0.0
 40
3.5
 41
0.0
 71
     9
 72
     5
  1

1001
ACAD
1000
MTEXTBEGIN
1070
    73
1070
     1
1070
    44
1040
1.0
1070
    74
1070
     0
1000
MTEXTEND
  0
MTEXT
  5
5604
330
1A
100
AcDbEntity
  8
SUNPOU
100
AcDbMText
 10
76376.61896736668
 20
60677.01447874797
 30
0.0
 40
3.5
 41
0.0
 71
     9
 72
     5
  1

1001
ACAD
1000
MTEXTBEGIN
1070
    73
1070
     1
1070
    44
1040
1.0
1070
    74
1070
     0
1000
MTEXTEND
  0
MTEXT
  5
5605
330
1A
100
AcDbEntity
  8
SUNPOU
100
AcDbMText
 10
76375.37854794595
 20
60676.76650181047
 30
0.0
 40
10.5
 41
0.0
 71
     9
 72
     5
  1

1001
ACAD
1000
MTEXTBEGIN
1070
    73
1070
     1
1070
    44
1040
1.0
1070
    74
1070
     0
1000
MTEXTEND
  0
MTEXT
  5
5606
330
1A
100
AcDbEntity
  8
SUNPOU
100
AcDbMText
 10
84709.93991079748
 20
78034.0328293557
 30
0.0
 40
10.5
 41
0.0
 71
     9
 72
     5
  1

1001
ACAD
1000
MTEXTBEGIN
1070
    73
1070
     1
1070
    44
1040
1.0
1070
    74
1070
     0
1000
MTEXTEND
  0
MTEXT
  5
5607
330
1A
100
AcDbEntity
  8
SUNPOU
100
AcDbMText
 10
93432.10747671548
 20
85449.86736089315
 30
0.0
 40
10.5
 41
0.0
 71
     9
 72
     5
  1

1001
ACAD
1000
MTEXTBEGIN
1070
    73
1070
     1
1070
    44
1040
1.0
1070
    74
1070
     0
1000
MTEXTEND
  0
MTEXT
  5
5608
330
1A
100
AcDbEntity
  8
SUNPOU
100
AcDbMText
 10
112385.8661940454
 20
102916.4434133851
 30
0.0
 40
10.5
 41
0.0
 71
     9
 72
     5
  1

1001
ACAD
1000
MTEXTBEGIN
1070
    73
1070
     1
1070
    44
1040
1.0
1070
    74
1070
     0
1000
MTEXTEND
  0
MTEXT
  5
5609
330
1A
100
AcDbEntity
  8
SUNPOU
100
AcDbMText
 10
114329.2734407548
 20
101115.3943335072
 30
0.0
 40
3.5
 41
0.0
 71
     9
 72
     5
  1

1001
ACAD
1000
MTEXTBEGIN
1070
    73
1070
     1
1070
    44
1040
1.0
1070
    74
1070
     0
1000
MTEXTEND
  0
MTEXT
  5
560A
330
1A
100
AcDbEntity
  8
SUNPOU
100
AcDbMText
 10
145455.4532733745
 20
143610.3400011645
 30
0.0
 40
10.5
 41
0.0
 71
     9
 72
     5
  1

1001
ACAD
1000
MTEXTBEGIN
1070
    73
1070
     1
1070
    44
1040
1.0
1070
    74
1070
     0
1000
MTEXTEND
  0
MTEXT
  5
560B
330
1A
100
AcDbEntity
  8
SUNPOU
100
AcDbMText
 10
147398.8605200839
 20
141809.2909212864
 30
0.0
 40
3.5
 41
0.0
 71
     9
 72
     5
  1

1001
ACAD
1000
MTEXTBEGIN
1070
    73
1070
     1
1070
    44
1040
1.0
1070
    74
1070
     0
1000
MTEXTEND
  0
MTEXT
  5
560C
330
1A
100
AcDbEntity
  8
SUNPOU
100
AcDbMText
 10
95895.72097917013
 20
89443.5051561396
 30
0.0
 40
10.5
 41
0.0
 71
     9
 72
     5
  1

1001
ACAD
1000
MTEXTBEGIN
1070
    73
1070
     1
1070
    44
1040
1.0
1070
    74
1070
     0
1000
MTEXTEND
  0
MTEXT
  5
560D
330
1A
100
AcDbEntity
  8
SUNPOU
100
AcDbMText
 10
81947.72087879414
 20
70271.1060170274
 30
0.0
 40
3.5
 41
0.0
 71
     7
 72
     5
  1

1001
ACAD
1000
MTEXTBEGIN
1070
    73
1070
     1
1070
    44
1040
1.0
1070
    74
1070
     0
1000
MTEXTEND
  0
MTEXT
  5
560E
330
1A
100
AcDbEntity
  8
SUNPOU
100
AcDbMText
 10
62932.89027578729
 20
58033.25474784561
 30
0.0
 40
10.5
 41
0.0
 71
     7
 72
     5
  1

1001
ACAD
1000
MTEXTBEGIN
1070
    73
1070
     1
1070
    44
1040
1.0
1070
    74
1070
     0
1000
MTEXTEND
  0
MTEXT
  5
560F
330
1A
100
AcDbEntity
  8
SUNPOU
100
AcDbMText
 10
50475.66201083918
 20
42188.32316974719
 30
0.0
 40
35.0
 41
0.0
 71
     9
 72
     5
  1

1001
ACAD
1000
MTEXTBEGIN
1070
    73
1070
     1
1070
    44
1040
1.0
1070
    74
1070
     0
1000
MTEXTEND
  0
MTEXT
  5
5610
330
1A
100
AcDbEntity
  8
SUNPOU
100
AcDbMText
 10
49384.14706841413
 20
42797.0985797959
 30
0.0
 40
350.0000004171781
 41
0.0
 71
     7
 72
     5
  1

1001
ACAD
1000
MTEXTBEGIN
1070
    73
1070
     1
1070
    44
1040
1.0
1070
    74
1070
     0
1000
MTEXTEND
  0
MTEXT
  5
5611
330
1A
100
AcDbEntity
  8
0
100
AcDbMText
 10
55428.09782635704
 20
40777.02094193211
 30
0.0
 40
8.0
 41
0.0
 71
     7
 72
     5
  1

1001
ACAD
1000
MTEXTBEGIN
1070
    73
1070
     1
1070
    44
1040
1.0
1070
    74
1070
     0
1000
MTEXTEND
  0
MTEXT
  5
5612
330
1A
100
AcDbEntity
  8
0
100
AcDbMText
 10
57713.45551625194
 20
41747.81123668317
 30
0.0
 40
8.0
 41
0.0
 71
     7
 72
     5
  1

1001
ACAD
1000
MTEXTBEGIN
1070
    73
1070
     1
1070
    44
1040
1.0
1070
    74
1070
     0
1000
MTEXTEND
  0
MTEXT
  5
5613
330
1A
100
AcDbEntity
  8
SUNPOU
100
AcDbMText
 10
60379.35253693408
 20
51259.9226290583
 30
0.0
 40
10.5
 41
0.0
 71
     1
 72
     5
  1

1001
ACAD
1000
MTEXTBEGIN
1070
    73
1070
     1
1070
    44
1040
1.0
1070
    74
1070
     0
1000
MTEXTEND
  0
MTEXT
  5
5614
330
1A
100
AcDbEntity
  8
SUNPOU
100
AcDbMText
 10
52448.42934099814
 20
50313.12949514535
 30
0.0
 40
10.5
 41
0.0
 71
     7
 72
     5
  1

1001
ACAD
1000
MTEXTBEGIN
1070
    73
1070
     1
1070
    44
1040
1.0
1070
    74
1070
     0
1000
MTEXTEND
  0
MTEXT
  5
5615
330
1A
100
AcDbEntity
  8
SUNPOU
100
AcDbMText
 10
55397.41300551091
 20
55213.80556698819
 30
0.0
 40
10.5
 41
0.0
 71
     7
 72
     5
  1

1001
ACAD
1000
MTEXTBEGIN
1070
    73
1070
     1
1070
    44
1040
1.0
1070
    74
1070
     0
1000
MTEXTEND
  0
MTEXT
  5
5616
330
1A
100
AcDbEntity
  8
SUNPOU
100
AcDbMText
 10
59906.49113346147
 20
57650.10631460826
 30
0.0
 40
10.5
 41
0.0
 71
     7
 72
     5
  1

1001
ACAD
1000
MTEXTBEGIN
1070
    73
1070
     1
1070
    44
1040
1.0
1070
    74
1070
     0
1000
MTEXTEND
  0
MTEXT
  5
5617
330
1A
100
AcDbEntity
  8
SUNPOU
100
AcDbMText
 10
43507.32902022979
 20
36647.70246499718
 30
0.0
 40
10.5
 41
0.0
 71
     7
 72
     5
  1

1001
ACAD
1000
MTEXTBEGIN
1070
    73
1070
     1
1070
    44
1040
1.0
1070
    74
1070
     0
1000
MTEXTEND
  0
MTEXT
  5
5618
330
1A
100
AcDbEntity
  8
SUNPOU
100
AcDbMText
 10
94698.84745413006
 20
82320.68302864542
 30
0.0
 40
10.5
 41
0.0
 71
     9
 72
     5
  1

1001
ACAD
1000
MTEXTBEGIN
1070
    73
1070
     1
1070
    44
1040
1.0
1070
    74
1070
     0
1000
MTEXTEND
  0
MTEXT
  5
5619
330
1A
100
AcDbEntity
  8
SUNPOU
100
AcDbMText
 10
103421.015020048
 20
89736.5175601829
 30
0.0
 40
10.5
 41
0.0
 71
     9
 72
     5
  1

1001
ACAD
1000
MTEXTBEGIN
1070
    73
1070
     1
1070
    44
1040
1.0
1070
    74
1070
     0
1000
MTEXTEND
  0
MTEXT
  5
561A
330
1A
100
AcDbEntity
  8
SUNPOU
100
AcDbMText
 10
122374.773737378
 20
107203.0936126749
 30
0.0
 40
10.5
 41
0.0
 71
     9
 72
     5
  1

1001
ACAD
1000
MTEXTBEGIN
1070
    73
1070
     1
1070
    44
1040
1.0
1070
    74
1070
     0
1000
MTEXTEND
  0
MTEXT
  5
561B
330
1A
100
AcDbEntity
  8
SUNPOU
100
AcDbMText
 10
124318.1809840874
 20
105402.0445327969
 30
0.0
 40
3.5
 41
0.0
 71
     9
 72
     5
  1

1001
ACAD
1000
MTEXTBEGIN
1070
    73
1070
     1
1070
    44
1040
1.0
1070
    74
1070
     0
1000
MTEXTEND
  0
MTEXT
  5
561C
330
1A
100
AcDbEntity
  8
SUNPOU
100
AcDbMText
 10
155444.3608167071
 20
147896.9902004542
 30
0.0
 40
10.5
 41
0.0
 71
     9
 72
     5
  1

1001
ACAD
1000
MTEXTBEGIN
1070
    73
1070
     1
1070
    44
1040
1.0
1070
    74
1070
     0
1000
MTEXTEND
  0
MTEXT
  5
561D
330
1A
100
AcDbEntity
  8
SUNPOU
100
AcDbMText
 10
157387.7680634165
 20
146095.9411205762
 30
0.0
 40
3.5
 41
0.0
 71
     9
 72
     5
  1

1001
ACAD
1000
MTEXTBEGIN
1070
    73
1070
     1
1070
    44
1040
1.0
1070
    74
1070
     0
1000
MTEXTEND
  0
MTEXT
  5
561E
330
1A
100
AcDbEntity
  8
SUNPOU
100
AcDbMText
 10
105884.6285225027
 20
93730.15535542933
 30
0.0
 40
10.5
 41
0.0
 71
     9
 72
     5
  1

1001
ACAD
1000
MTEXTBEGIN
1070
    73
1070
     1
1070
    44
1040
1.0
1070
    74
1070
     0
1000
MTEXTEND
  0
MTEXT
  5
561F
330
1A
100
AcDbEntity
  8
SUNPOU
100
AcDbMText
 10
91936.6284221267
 20
74557.75621631714
 30
0.0
 40
3.5
 41
0.0
 71
     7
 72
     5
  1

1001
ACAD
1000
MTEXTBEGIN
1070
    73
1070
     1
1070
    44
1040
1.0
1070
    74
1070
     0
1000
MTEXTEND
  0
MTEXT
  5
5620
330
1A
100
AcDbEntity
  8
SUNPOU
100
AcDbMText
 10
72921.79781911986
 20
62319.90494713533
 30
0.0
 40
10.5
 41
0.0
 71
     7
 72
     5
  1

1001
ACAD
1000
MTEXTBEGIN
1070
    73
1070
     1
1070
    44
1040
1.0
1070
    74
1070
     0
1000
MTEXTEND
  0
MTEXT
  5
5621
330
1A
100
AcDbEntity
  8
SUNPOU
100
AcDbMText
 10
60464.56955417175
 20
46474.97336903692
 30
0.0
 40
35.0
 41
0.0
 71
     9
 72
     5
  1

1001
ACAD
1000
MTEXTBEGIN
1070
    73
1070
     1
1070
    44
1040
1.0
1070
    74
1070
     0
1000
MTEXTEND
  0
MTEXT
  5
5622
330
1A
100
AcDbEntity
  8
SUNPOU
100
AcDbMText
 10
59373.05461174672
 20
47083.74877908562
 30
0.0
 40
350.0000004171781
 41
0.0
 71
     7
 72
     5
  1

1001
ACAD
1000
MTEXTBEGIN
1070
    73
1070
     1
1070
    44
1040
1.0
1070
    74
1070
     0
1000
MTEXTEND
  0
MTEXT
  5
5623
330
1A
100
AcDbEntity
  8
0
100
AcDbMText
 10
65417.00536968962
 20
45063.67114122186
 30
0.0
 40
8.0
 41
0.0
 71
     7
 72
     5
  1

1001
ACAD
1000
MTEXTBEGIN
1070
    73
1070
     1
1070
    44
1040
1.0
1070
    74
1070
     0
1000
MTEXTEND
  0
MTEXT
  5
5624
330
1A
100
AcDbEntity
  8
0
100
AcDbMText
 10
67702.36305958452
 20
46034.46143597292
 30
0.0
 40
8.0
 41
0.0
 71
     7
 72
     5
  1

1001
ACAD
1000
MTEXTBEGIN
1070
    73
1070
     1
1070
    44
1040
1.0
1070
    74
1070
     0
1000
MTEXTEND
  0
MTEXT
  5
5625
330
1A
100
AcDbEntity
  8
SUNPOU
100
AcDbMText
 10
70368.26008026666
 20
55546.57282834803
 30
0.0
 40
10.5
 41
0.0
 71
     1
 72
     5
  1

1001
ACAD
1000
MTEXTBEGIN
1070
    73
1070
     1
1070
    44
1040
1.0
1070
    74
1070
     0
1000
MTEXTEND
  0
MTEXT
  5
5626
330
1A
100
AcDbEntity
  8
SUNPOU
100
AcDbMText
 10
62437.33688433072
 20
54599.77969443508
 30
0.0
 40
10.5
 41
0.0
 71
     7
 72
     5
  1

1001
ACAD
1000
MTEXTBEGIN
1070
    73
1070
     1
1070
    44
1040
1.0
1070
    74
1070
     0
1000
MTEXTEND
  0
MTEXT
  5
5627
330
1A
100
AcDbEntity
  8
SUNPOU
100
AcDbMText
 10
65386.32054884349
 20
59500.45576627792
 30
0.0
 40
10.5
 41
0.0
 71
     7
 72
     5
  1

1001
ACAD
1000
MTEXTBEGIN
1070
    73
1070
     1
1070
    44
1040
1.0
1070
    74
1070
     0
1000
MTEXTEND
  0
MTEXT
  5
5628
330
1A
100
AcDbEntity
  8
SUNPOU
100
AcDbMText
 10
69895.39867679405
 20
61936.756513898
 30
0.0
 40
10.5
 41
0.0
 71
     7
 72
     5
  1

1001
ACAD
1000
MTEXTBEGIN
1070
    73
1070
     1
1070
    44
1040
1.0
1070
    74
1070
     0
1000
MTEXTEND
  0
MTEXT
  5
5629
330
1A
100
AcDbEntity
  8
SUNPOU
100
AcDbMText
 10
53496.23656356237
 20
40934.35266428691
 30
0.0
 40
10.5
 41
0.0
 71
     7
 72
     5
  1

1001
ACAD
1000
MTEXTBEGIN
1070
    73
1070
     1
1070
    44
1040
1.0
1070
    74
1070
     0
1000
MTEXTEND
  0
MTEXT
  5
562A
330
1A
100
AcDbEntity
  8
SUNPOU
100
AcDbMText
 10
55306.99947493731
 20
47261.76665176547
 30
0.0
 40
10.5
 41
0.0
 71
     9
 72
     5
  1

1001
ACAD
1000
MTEXTBEGIN
1070
    73
1070
     1
1070
    44
1040
1.0
1070
    74
1070
     0
1000
MTEXTEND
  0
MTEXT
  5
562B
330
1A
100
AcDbEntity
  8
SUNPOU
100
AcDbMText
 10
64029.16704085528
 20
54677.60118330295
 30
0.0
 40
10.5
 41
0.0
 71
     9
 72
     5
  1

1001
ACAD
1000
MTEXTBEGIN
1070
    73
1070
     1
1070
    44
1040
1.0
1070
    74
1070
     0
1000
MTEXTEND
  0
MTEXT
  5
562C
330
1A
100
AcDbEntity
  8
SUNPOU
100
AcDbMText
 10
82982.92575818527
 20
72144.17723579499
 30
0.0
 40
10.5
 41
0.0
 71
     9
 72
     5
  1

1001
ACAD
1000
MTEXTBEGIN
1070
    73
1070
     1
1070
    44
1040
1.0
1070
    74
1070
     0
1000
MTEXTEND
  0
MTEXT
  5
562D
330
1A
100
AcDbEntity
  8
SUNPOU
100
AcDbMText
 10
84926.33300489467
 20
70343.12815591698
 30
0.0
 40
3.5
 41
0.0
 71
     9
 72
     5
  1

1001
ACAD
1000
MTEXTBEGIN
1070
    73
1070
     1
1070
    44
1040
1.0
1070
    74
1070
     0
1000
MTEXTEND
  0
MTEXT
  5
562E
330
1A
100
AcDbEntity
  8
SUNPOU
100
AcDbMText
 10
116052.5128375143
 20
112838.0738235743
 30
0.0
 40
10.5
 41
0.0
 71
     9
 72
     5
  1

1001
ACAD
1000
MTEXTBEGIN
1070
    73
1070
     1
1070
    44
1040
1.0
1070
    74
1070
     0
1000
MTEXTEND
  0
MTEXT
  5
562F
330
1A
100
AcDbEntity
  8
SUNPOU
100
AcDbMText
 10
117995.9200842238
 20
111037.0247436963
 30
0.0
 40
3.5
 41
0.0
 71
     9
 72
     5
  1

1001
ACAD
1000
MTEXTBEGIN
1070
    73
1070
     1
1070
    44
1040
1.0
1070
    74
1070
     0
1000
MTEXTEND
  0
MTEXT
  5
5630
330
1A
100
AcDbEntity
  8
SUNPOU
100
AcDbMText
 10
66492.78054330994
 20
58671.23897854939
 30
0.0
 40
10.5
 41
0.0
 71
     9
 72
     5
  1

1001
ACAD
1000
MTEXTBEGIN
1070
    73
1070
     1
1070
    44
1040
1.0
1070
    74
1070
     0
1000
MTEXTEND
  0
MTEXT
  5
5631
330
1A
100
AcDbEntity
  8
SUNPOU
100
AcDbMText
 10
52544.78044293396
 20
39498.83983943717
 30
0.0
 40
3.5
 41
0.0
 71
     7
 72
     5
  1

1001
ACAD
1000
MTEXTBEGIN
1070
    73
1070
     1
1070
    44
1040
1.0
1070
    74
1070
     0
1000
MTEXTEND
  0
MTEXT
  5
5632
330
1A
100
AcDbEntity
  8
SUNPOU
100
AcDbMText
 10
66237.13112570454
 20
48857.90306045851
 30
0.0
 40
10.5
 41
0.0
 71
     9
 72
     5
  1

1001
ACAD
1000
MTEXTBEGIN
1070
    73
1070
     1
1070
    44
1040
1.0
1070
    74
1070
     0
1000
MTEXTEND
  0
MTEXT
  5
5633
330
1A
100
AcDbEntity
  8
SUNPOU
100
AcDbMText
 10
74959.29869162252
 20
56273.737591996
 30
0.0
 40
10.5
 41
0.0
 71
     9
 72
     5
  1

1001
ACAD
1000
MTEXTBEGIN
1070
    73
1070
     1
1070
    44
1040
1.0
1070
    74
1070
     0
1000
MTEXTEND
  0
MTEXT
  5
5634
330
1A
100
AcDbEntity
  8
SUNPOU
100
AcDbMText
 10
93913.0574089525
 20
73740.31364448805
 30
0.0
 40
10.5
 41
0.0
 71
     9
 72
     5
  1

1001
ACAD
1000
MTEXTBEGIN
1070
    73
1070
     1
1070
    44
1040
1.0
1070
    74
1070
     0
1000
MTEXTEND
  0
MTEXT
  5
5635
330
1A
100
AcDbEntity
  8
SUNPOU
100
AcDbMText
 10
95856.46465566192
 20
71939.26456461004
 30
0.0
 40
3.5
 41
0.0
 71
     9
 72
     5
  1

1001
ACAD
1000
MTEXTBEGIN
1070
    73
1070
     1
1070
    44
1040
1.0
1070
    74
1070
     0
1000
MTEXTEND
  0
MTEXT
  5
5636
330
1A
100
AcDbEntity
  8
SUNPOU
100
AcDbMText
 10
126982.6444882816
 20
114434.2102322673
 30
0.0
 40
10.5
 41
0.0
 71
     9
 72
     5
  1

1001
ACAD
1000
MTEXTBEGIN
1070
    73
1070
     1
1070
    44
1040
1.0
1070
    74
1070
     0
1000
MTEXTEND
  0
MTEXT
  5
5637
330
1A
100
AcDbEntity
  8
SUNPOU
100
AcDbMText
 10
128926.051734991
 20
112633.1611523893
 30
0.0
 40
3.5
 41
0.0
 71
     9
 72
     5
  1

1001
ACAD
1000
MTEXTBEGIN
1070
    73
1070
     1
1070
    44
1040
1.0
1070
    74
1070
     0
1000
MTEXTEND
  0
MTEXT
  5
5638
330
1A
100
AcDbEntity
  8
SUNPOU
100
AcDbMText
 10
77422.91219407717
 20
60267.37538724244
 30
0.0
 40
10.5
 41
0.0
 71
     9
 72
     5
  1

1001
ACAD
1000
MTEXTBEGIN
1070
    73
1070
     1
1070
    44
1040
1.0
1070
    74
1070
     0
1000
MTEXTEND
  0
MTEXT
  5
5639
330
1A
100
AcDbEntity
  8
SUNPOU
100
AcDbMText
 10
63474.91209370119
 20
41094.97624813023
 30
0.0
 40
3.5
 41
0.0
 71
     7
 72
     5
  1

1001
ACAD
1000
MTEXTBEGIN
1070
    73
1070
     1
1070
    44
1040
1.0
1070
    74
1070
     0
1000
MTEXTEND
  0
MTEXT
  5
563A
330
1A
100
AcDbEntity
  8
SUNPOU
100
AcDbMText
 10
48117.65086229006
 20
40806.11043916631
 30
0.0
 40
10.5
 41
0.0
 71
     9
 72
     5
  1

1001
ACAD
1000
MTEXTBEGIN
1070
    73
1070
     1
1070
    44
1040
1.0
1070
    74
1070
     0
1000
MTEXTEND
  0
MTEXT
  5
563B
330
1A
100
AcDbEntity
  8
SUNPOU
100
AcDbMText
 10
67071.40957962004
 20
58272.68649165837
 30
0.0
 40
10.5
 41
0.0
 71
     9
 72
     5
  1

1001
ACAD
1000
MTEXTBEGIN
1070
    73
1070
     1
1070
    44
1040
1.0
1070
    74
1070
     0
1000
MTEXTEND
  0
MTEXT
  5
563C
330
1A
100
AcDbEntity
  8
SUNPOU
100
AcDbMText
 10
69014.81682632945
 20
56471.63741178035
 30
0.0
 40
3.5
 41
0.0
 71
     9
 72
     5
  1

1001
ACAD
1000
MTEXTBEGIN
1070
    73
1070
     1
1070
    44
1040
1.0
1070
    74
1070
     0
1000
MTEXTEND
  0
MTEXT
  5
563D
330
1A
100
AcDbEntity
  8
SUNPOU
100
AcDbMText
 10
100140.9966589491
 20
98966.58307943772
 30
0.0
 40
10.5
 41
0.0
 71
     9
 72
     5
  1

1001
ACAD
1000
MTEXTBEGIN
1070
    73
1070
     1
1070
    44
1040
1.0
1070
    74
1070
     0
1000
MTEXTEND
  0
MTEXT
  5
563E
330
1A
100
AcDbEntity
  8
SUNPOU
100
AcDbMText
 10
102084.4039056586
 20
97165.53399955969
 30
0.0
 40
3.5
 41
0.0
 71
     9
 72
     5
  1

1001
ACAD
1000
MTEXTBEGIN
1070
    73
1070
     1
1070
    44
1040
1.0
1070
    74
1070
     0
1000
MTEXTEND
  0
MTEXT
  5
563F
330
1A
100
AcDbEntity
  8
SUNPOU
100
AcDbMText
 10
50581.26436474472
 20
44799.74823441275
 30
0.0
 40
10.5
 41
0.0
 71
     9
 72
     5
  1

1001
ACAD
1000
MTEXTBEGIN
1070
    73
1070
     1
1070
    44
1040
1.0
1070
    74
1070
     0
1000
MTEXTEND
  0
MTEXT
  5
5640
330
1A
100
AcDbEntity
  8
SUNPOU
100
AcDbMText
 10
36633.26426436873
 20
25627.34909530054
 30
0.0
 40
3.5
 41
0.0
 71
     7
 72
     5
  1

1001
ACAD
1000
MTEXTBEGIN
1070
    73
1070
     1
1070
    44
1040
1.0
1070
    74
1070
     0
1000
MTEXTEND
  0
MTEXT
  5
5641
330
1A
100
AcDbEntity
  8
SUNPOU
100
AcDbMText
 10
61069.42493315968
 20
52574.61207825771
 30
0.0
 40
10.5
 41
0.0
 71
     9
 72
     5
  1

1001
ACAD
1000
MTEXTBEGIN
1070
    73
1070
     1
1070
    44
1040
1.0
1070
    74
1070
     0
1000
MTEXTEND
  0
MTEXT
  5
5642
330
1A
100
AcDbEntity
  8
SUNPOU
100
AcDbMText
 10
80023.18365048967
 20
70041.18813074978
 30
0.0
 40
10.5
 41
0.0
 71
     9
 72
     5
  1

1001
ACAD
1000
MTEXTBEGIN
1070
    73
1070
     1
1070
    44
1040
1.0
1070
    74
1070
     0
1000
MTEXTEND
  0
MTEXT
  5
5643
330
1A
100
AcDbEntity
  8
SUNPOU
100
AcDbMText
 10
81966.59089719908
 20
68240.13905087176
 30
0.0
 40
3.5
 41
0.0
 71
     9
 72
     5
  1

1001
ACAD
1000
MTEXTBEGIN
1070
    73
1070
     1
1070
    44
1040
1.0
1070
    74
1070
     0
1000
MTEXTEND
  0
MTEXT
  5
5644
330
1A
100
AcDbEntity
  8
SUNPOU
100
AcDbMText
 10
113092.7707298187
 20
110735.0847185291
 30
0.0
 40
10.5
 41
0.0
 71
     9
 72
     5
  1

1001
ACAD
1000
MTEXTBEGIN
1070
    73
1070
     1
1070
    44
1040
1.0
1070
    74
1070
     0
1000
MTEXTEND
  0
MTEXT
  5
5645
330
1A
100
AcDbEntity
  8
SUNPOU
100
AcDbMText
 10
115036.1779765282
 20
108934.0356386511
 30
0.0
 40
3.5
 41
0.0
 71
     9
 72
     5
  1

1001
ACAD
1000
MTEXTBEGIN
1070
    73
1070
     1
1070
    44
1040
1.0
1070
    74
1070
     0
1000
MTEXTEND
  0
MTEXT
  5
5646
330
1A
100
AcDbEntity
  8
SUNPOU
100
AcDbMText
 10
63533.03843561433
 20
56568.24987350415
 30
0.0
 40
10.5
 41
0.0
 71
     9
 72
     5
  1

1001
ACAD
1000
MTEXTBEGIN
1070
    73
1070
     1
1070
    44
1040
1.0
1070
    74
1070
     0
1000
MTEXTEND
  0
MTEXT
  5
5647
330
1A
100
AcDbEntity
  8
SUNPOU
100
AcDbMText
 10
49585.03833523835
 20
37395.85073439196
 30
0.0
 40
3.5
 41
0.0
 71
     7
 72
     5
  1

1001
ACAD
1000
MTEXTBEGIN
1070
    73
1070
     1
1070
    44
1040
1.0
1070
    74
1070
     0
1000
MTEXTEND
  0
MTEXT
  5
5648
330
1A
100
AcDbEntity
  8
SUNPOU
100
AcDbMText
 10
77137.31641337052
 20
70907.11375048141
 30
0.0
 40
10.5
 41
0.0
 71
     9
 72
     5
  1

1001
ACAD
1000
MTEXTBEGIN
1070
    73
1070
     1
1070
    44
1040
1.0
1070
    74
1070
     0
1000
MTEXTEND
  0
MTEXT
  5
5649
330
1A
100
AcDbEntity
  8
SUNPOU
100
AcDbMText
 10
79080.72366007995
 20
69106.06467060339
 30
0.0
 40
3.5
 41
0.0
 71
     9
 72
     5
  1

1001
ACAD
1000
MTEXTBEGIN
1070
    73
1070
     1
1070
    44
1040
1.0
1070
    74
1070
     0
1000
MTEXTEND
  0
MTEXT
  5
564A
330
1A
100
AcDbEntity
  8
SUNPOU
100
AcDbMText
 10
110206.9034926996
 20
111601.0103382607
 30
0.0
 40
10.5
 41
0.0
 71
     9
 72
     5
  1

1001
ACAD
1000
MTEXTBEGIN
1070
    73
1070
     1
1070
    44
1040
1.0
1070
    74
1070
     0
1000
MTEXTEND
  0
MTEXT
  5
564B
330
1A
100
AcDbEntity
  8
SUNPOU
100
AcDbMText
 10
112150.310739409
 20
109799.9612583827
 30
0.0
 40
3.5
 41
0.0
 71
     9
 72
     5
  1

1001
ACAD
1000
MTEXTBEGIN
1070
    73
1070
     1
1070
    44
1040
1.0
1070
    74
1070
     0
1000
MTEXTEND
  0
MTEXT
  5
564C
330
1A
100
AcDbEntity
  8
SUNPOU
100
AcDbMText
 10
108819.1333204968
 20
110677.9087286761
 30
0.0
 40
10.5
 41
0.0
 71
     9
 72
     5
  1

1001
ACAD
1000
MTEXTBEGIN
1070
    73
1070
     1
1070
    44
1040
1.0
1070
    74
1070
     0
1000
MTEXTEND
  0
MTEXT
  5
564D
330
1A
100
AcDbEntity
  8
SUNPOU
100
AcDbMText
 10
110762.5405672062
 20
108876.8596487981
 30
0.0
 40
3.5
 41
0.0
 71
     9
 72
     5
  1

1001
ACAD
1000
MTEXTBEGIN
1070
    73
1070
     1
1070
    44
1040
1.0
1070
    74
1070
     0
1000
MTEXTEND
  0
MTEXT
  5
564E
330
1A
100
AcDbEntity
  8
SUNPOU
100
AcDbMText
 10
76303.05507956816
 20
68695.31179059812
 30
0.0
 40
10.5
 41
0.0
 71
     9
 72
     5
  1

1001
ACAD
1000
MTEXTBEGIN
1070
    73
1070
     1
1070
    44
1040
1.0
1070
    74
1070
     0
1000
MTEXTEND
  0
MTEXT
  5
564F
330
1A
100
AcDbEntity
  8
SUNPOU
100
AcDbMText
 10
79026.36128373271
 20
69099.99348217918
 30
0.0
 40
3.5
 41
0.0
 71
     9
 72
     5
  1

1001
ACAD
1000
MTEXTBEGIN
1070
    73
1070
     1
1070
    44
1040
1.0
1070
    74
1070
     0
1000
MTEXTEND
  0
MTEXT
  5
5650
330
1A
100
AcDbEntity
  8
SUNPOU
100
AcDbMText
 10
78234.00675862522
 20
65938.68764412436
 30
0.0
 40
10.5
 41
0.0
 71
     9
 72
     5
  1

1001
ACAD
1000
MTEXTBEGIN
1070
    73
1070
     1
1070
    44
1040
1.0
1070
    74
1070
     0
1000
MTEXTEND
  0
MTEXT
  5
5651
330
1A
100
AcDbEntity
  8
SUNPOU
100
AcDbMText
 10
80177.41400533465
 20
64137.63856424636
 30
0.0
 40
3.5
 41
0.0
 71
     9
 72
     5
  1

1001
ACAD
1000
MTEXTBEGIN
1070
    73
1070
     1
1070
    44
1040
1.0
1070
    74
1070
     0
1000
MTEXTEND
  0
MTEXT
  5
5652
330
1A
100
AcDbEntity
  8
SUNPOU
100
AcDbMText
 10
80122.50949592123
 20
64024.86668196205
 30
0.0
 40
3.5
 41
0.0
 71
     9
 72
     5
  1

1001
ACAD
1000
MTEXTBEGIN
1070
    73
1070
     1
1070
    44
1040
1.0
1070
    74
1070
     0
1000
MTEXTEND
  0
MTEXT
  5
5653
330
1A
100
AcDbEntity
  8
SUNPOU
100
AcDbMText
 10
79486.58135950133
 20
63213.54544089553
 30
0.0
 40
3.5
 41
0.0
 71
     9
 72
     5
  1

1001
ACAD
1000
MTEXTBEGIN
1070
    73
1070
     1
1070
    44
1040
1.0
1070
    74
1070
     0
1000
MTEXTEND
  0
MTEXT
  5
5654
330
1A
100
AcDbEntity
  8
SUNPOU
100
AcDbMText
 10
79485.3409400806
 20
63213.29746395804
 30
0.0
 40
10.5
 41
0.0
 71
     9
 72
     5
  1

1001
ACAD
1000
MTEXTBEGIN
1070
    73
1070
     1
1070
    44
1040
1.0
1070
    74
1070
     0
1000
MTEXTEND
  0
MTEXT
  5
5655
330
1A
100
AcDbEntity
  8
SUNPOU
100
AcDbMText
 10
85473.63363627567
 20
80747.76348077064
 30
0.0
 40
10.5
 41
0.0
 71
     9
 72
     5
  1

1001
ACAD
1000
MTEXTBEGIN
1070
    73
1070
     1
1070
    44
1040
1.0
1070
    74
1070
     0
1000
MTEXTEND
  0
MTEXT
  5
5656
330
1A
100
AcDbEntity
  8
SUNPOU
100
AcDbMText
 10
94195.80120219368
 20
88163.59801230809
 30
0.0
 40
10.5
 41
0.0
 71
     9
 72
     5
  1

1001
ACAD
1000
MTEXTBEGIN
1070
    73
1070
     1
1070
    44
1040
1.0
1070
    74
1070
     0
1000
MTEXTEND
  0
MTEXT
  5
5657
330
1A
100
AcDbEntity
  8
SUNPOU
100
AcDbMText
 10
113149.5599195236
 20
105630.1740648001
 30
0.0
 40
10.5
 41
0.0
 71
     9
 72
     5
  1

1001
ACAD
1000
MTEXTBEGIN
1070
    73
1070
     1
1070
    44
1040
1.0
1070
    74
1070
     0
1000
MTEXTEND
  0
MTEXT
  5
5658
330
1A
100
AcDbEntity
  8
SUNPOU
100
AcDbMText
 10
115092.967166233
 20
103829.1249849221
 30
0.0
 40
3.5
 41
0.0
 71
     9
 72
     5
  1

1001
ACAD
1000
MTEXTBEGIN
1070
    73
1070
     1
1070
    44
1040
1.0
1070
    74
1070
     0
1000
MTEXTEND
  0
MTEXT
  5
5659
330
1A
100
AcDbEntity
  8
SUNPOU
100
AcDbMText
 10
146219.1469988527
 20
146324.0706525794
 30
0.0
 40
10.5
 41
0.0
 71
     9
 72
     5
  1

1001
ACAD
1000
MTEXTBEGIN
1070
    73
1070
     1
1070
    44
1040
1.0
1070
    74
1070
     0
1000
MTEXTEND
  0
MTEXT
  5
565A
330
1A
100
AcDbEntity
  8
SUNPOU
100
AcDbMText
 10
148162.5542455621
 20
144523.0215727014
 30
0.0
 40
3.5
 41
0.0
 71
     9
 72
     5
  1

1001
ACAD
1000
MTEXTBEGIN
1070
    73
1070
     1
1070
    44
1040
1.0
1070
    74
1070
     0
1000
MTEXTEND
  0
MTEXT
  5
565B
330
1A
100
AcDbEntity
  8
SUNPOU
100
AcDbMText
 10
96659.41470464833
 20
92157.23580755453
 30
0.0
 40
10.5
 41
0.0
 71
     9
 72
     5
  1

1001
ACAD
1000
MTEXTBEGIN
1070
    73
1070
     1
1070
    44
1040
1.0
1070
    74
1070
     0
1000
MTEXTEND
  0
MTEXT
  5
565C
330
1A
100
AcDbEntity
  8
SUNPOU
100
AcDbMText
 10
82711.41460427234
 20
72984.83666844234
 30
0.0
 40
3.5
 41
0.0
 71
     7
 72
     5
  1

1001
ACAD
1000
MTEXTBEGIN
1070
    73
1070
     1
1070
    44
1040
1.0
1070
    74
1070
     0
1000
MTEXTEND
  0
MTEXT
  5
565D
330
1A
100
AcDbEntity
  8
SUNPOU
100
AcDbMText
 10
63696.58400126548
 20
60746.98539926055
 30
0.0
 40
10.5
 41
0.0
 71
     7
 72
     5
  1

1001
ACAD
1000
MTEXTBEGIN
1070
    73
1070
     1
1070
    44
1040
1.0
1070
    74
1070
     0
1000
MTEXTEND
  0
MTEXT
  5
565E
330
1A
100
AcDbEntity
  8
SUNPOU
100
AcDbMText
 10
51239.35573631738
 20
44902.05382116213
 30
0.0
 40
35.0
 41
0.0
 71
     9
 72
     5
  1

1001
ACAD
1000
MTEXTBEGIN
1070
    73
1070
     1
1070
    44
1040
1.0
1070
    74
1070
     0
1000
MTEXTEND
  0
MTEXT
  5
565F
330
1A
100
AcDbEntity
  8
SUNPOU
100
AcDbMText
 10
50147.84079389233
 20
45510.82923121084
 30
0.0
 40
350.0000004171781
 41
0.0
 71
     7
 72
     5
  1

1001
ACAD
1000
MTEXTBEGIN
1070
    73
1070
     1
1070
    44
1040
1.0
1070
    74
1070
     0
1000
MTEXTEND
  0
MTEXT
  5
5660
330
1A
100
AcDbEntity
  8
0
100
AcDbMText
 10
56191.79155183523
 20
43490.75159334705
 30
0.0
 40
8.0
 41
0.0
 71
     7
 72
     5
  1

1001
ACAD
1000
MTEXTBEGIN
1070
    73
1070
     1
1070
    44
1040
1.0
1070
    74
1070
     0
1000
MTEXTEND
  0
MTEXT
  5
5661
330
1A
100
AcDbEntity
  8
0
100
AcDbMText
 10
58477.14924173013
 20
44461.54188809812
 30
0.0
 40
8.0
 41
0.0
 71
     7
 72
     5
  1

1001
ACAD
1000
MTEXTBEGIN
1070
    73
1070
     1
1070
    44
1040
1.0
1070
    74
1070
     0
1000
MTEXTEND
  0
MTEXT
  5
5662
330
1A
100
AcDbEntity
  8
SUNPOU
100
AcDbMText
 10
61143.04626241227
 20
53973.65328047324
 30
0.0
 40
10.5
 41
0.0
 71
     1
 72
     5
  1

1001
ACAD
1000
MTEXTBEGIN
1070
    73
1070
     1
1070
    44
1040
1.0
1070
    74
1070
     0
1000
MTEXTEND
  0
MTEXT
  5
5663
330
1A
100
AcDbEntity
  8
SUNPOU
100
AcDbMText
 10
53212.12306647634
 20
53026.86014656028
 30
0.0
 40
10.5
 41
0.0
 71
     7
 72
     5
  1

1001
ACAD
1000
MTEXTBEGIN
1070
    73
1070
     1
1070
    44
1040
1.0
1070
    74
1070
     0
1000
MTEXTEND
  0
MTEXT
  5
5664
330
1A
100
AcDbEntity
  8
SUNPOU
100
AcDbMText
 10
56161.1067309891
 20
57927.53621840312
 30
0.0
 40
10.5
 41
0.0
 71
     7
 72
     5
  1

1001
ACAD
1000
MTEXTBEGIN
1070
    73
1070
     1
1070
    44
1040
1.0
1070
    74
1070
     0
1000
MTEXTEND
  0
MTEXT
  5
5665
330
1A
100
AcDbEntity
  8
SUNPOU
100
AcDbMText
 10
60670.18485893966
 20
60363.8369660232
 30
0.0
 40
10.5
 41
0.0
 71
     7
 72
     5
  1

1001
ACAD
1000
MTEXTBEGIN
1070
    73
1070
     1
1070
    44
1040
1.0
1070
    74
1070
     0
1000
MTEXTEND
  0
MTEXT
  5
5666
330
1A
100
AcDbEntity
  8
SUNPOU
100
AcDbMText
 10
44271.02274570799
 20
39361.43311641212
 30
0.0
 40
10.5
 41
0.0
 71
     7
 72
     5
  1

1001
ACAD
1000
MTEXTBEGIN
1070
    73
1070
     1
1070
    44
1040
1.0
1070
    74
1070
     0
1000
MTEXTEND
  0
MTEXT
  5
5667
330
1A
100
AcDbEntity
  8
SUNPOU
100
AcDbMText
 10
95462.54117960824
 20
85034.41368006038
 30
0.0
 40
10.5
 41
0.0
 71
     9
 72
     5
  1

1001
ACAD
1000
MTEXTBEGIN
1070
    73
1070
     1
1070
    44
1040
1.0
1070
    74
1070
     0
1000
MTEXTEND
  0
MTEXT
  5
5668
330
1A
100
AcDbEntity
  8
SUNPOU
100
AcDbMText
 10
104184.7087455262
 20
92450.24821159784
 30
0.0
 40
10.5
 41
0.0
 71
     9
 72
     5
  1

1001
ACAD
1000
MTEXTBEGIN
1070
    73
1070
     1
1070
    44
1040
1.0
1070
    74
1070
     0
1000
MTEXTEND
  0
MTEXT
  5
5669
330
1A
100
AcDbEntity
  8
SUNPOU
100
AcDbMText
 10
123138.4674628562
 20
109916.8242640898
 30
0.0
 40
10.5
 41
0.0
 71
     9
 72
     5
  1

1001
ACAD
1000
MTEXTBEGIN
1070
    73
1070
     1
1070
    44
1040
1.0
1070
    74
1070
     0
1000
MTEXTEND
  0
MTEXT
  5
566A
330
1A
100
AcDbEntity
  8
SUNPOU
100
AcDbMText
 10
125081.8747095656
 20
108115.7751842118
 30
0.0
 40
3.5
 41
0.0
 71
     9
 72
     5
  1

1001
ACAD
1000
MTEXTBEGIN
1070
    73
1070
     1
1070
    44
1040
1.0
1070
    74
1070
     0
1000
MTEXTEND
  0
MTEXT
  5
566B
330
1A
100
AcDbEntity
  8
SUNPOU
100
AcDbMText
 10
156208.0545421853
 20
150610.7208518691
 30
0.0
 40
10.5
 41
0.0
 71
     9
 72
     5
  1

1001
ACAD
1000
MTEXTBEGIN
1070
    73
1070
     1
1070
    44
1040
1.0
1070
    74
1070
     0
1000
MTEXTEND
  0
MTEXT
  5
566C
330
1A
100
AcDbEntity
  8
SUNPOU
100
AcDbMText
 10
158151.4617888947
 20
148809.6717719911
 30
0.0
 40
3.5
 41
0.0
 71
     9
 72
     5
  1

1001
ACAD
1000
MTEXTBEGIN
1070
    73
1070
     1
1070
    44
1040
1.0
1070
    74
1070
     0
1000
MTEXTEND
  0
MTEXT
  5
566D
330
1A
100
AcDbEntity
  8
SUNPOU
100
AcDbMText
 10
106648.3222479809
 20
96443.88600684427
 30
0.0
 40
10.5
 41
0.0
 71
     9
 72
     5
  1

1001
ACAD
1000
MTEXTBEGIN
1070
    73
1070
     1
1070
    44
1040
1.0
1070
    74
1070
     0
1000
MTEXTEND
  0
MTEXT
  5
566E
330
1A
100
AcDbEntity
  8
SUNPOU
100
AcDbMText
 10
92700.3221476049
 20
77271.48686773207
 30
0.0
 40
3.5
 41
0.0
 71
     7
 72
     5
  1

1001
ACAD
1000
MTEXTBEGIN
1070
    73
1070
     1
1070
    44
1040
1.0
1070
    74
1070
     0
1000
MTEXTEND
  0
MTEXT
  5
566F
330
1A
100
AcDbEntity
  8
SUNPOU
100
AcDbMText
 10
73685.49154459806
 20
65033.63559855027
 30
0.0
 40
10.5
 41
0.0
 71
     7
 72
     5
  1

1001
ACAD
1000
MTEXTBEGIN
1070
    73
1070
     1
1070
    44
1040
1.0
1070
    74
1070
     0
1000
MTEXTEND
  0
MTEXT
  5
5670
330
1A
100
AcDbEntity
  8
SUNPOU
100
AcDbMText
 10
61228.26327964995
 20
49188.70402045185
 30
0.0
 40
35.0
 41
0.0
 71
     9
 72
     5
  1

1001
ACAD
1000
MTEXTBEGIN
1070
    73
1070
     1
1070
    44
1040
1.0
1070
    74
1070
     0
1000
MTEXTEND
  0
MTEXT
  5
5671
330
1A
100
AcDbEntity
  8
SUNPOU
100
AcDbMText
 10
60136.74833722491
 20
49797.47943050056
 30
0.0
 40
350.0000004171781
 41
0.0
 71
     7
 72
     5
  1

1001
ACAD
1000
MTEXTBEGIN
1070
    73
1070
     1
1070
    44
1040
1.0
1070
    74
1070
     0
1000
MTEXTEND
  0
MTEXT
  5
5672
330
1A
100
AcDbEntity
  8
0
100
AcDbMText
 10
66180.69909516782
 20
47777.40179263678
 30
0.0
 40
8.0
 41
0.0
 71
     7
 72
     5
  1

1001
ACAD
1000
MTEXTBEGIN
1070
    73
1070
     1
1070
    44
1040
1.0
1070
    74
1070
     0
1000
MTEXTEND
  0
MTEXT
  5
5673
330
1A
100
AcDbEntity
  8
0
100
AcDbMText
 10
68466.05678506271
 20
48748.19208738784
 30
0.0
 40
8.0
 41
0.0
 71
     7
 72
     5
  1

1001
ACAD
1000
MTEXTBEGIN
1070
    73
1070
     1
1070
    44
1040
1.0
1070
    74
1070
     0
1000
MTEXTEND
  0
MTEXT
  5
5674
330
1A
100
AcDbEntity
  8
SUNPOU
100
AcDbMText
 10
71131.95380574485
 20
58260.30347976296
 30
0.0
 40
10.5
 41
0.0
 71
     1
 72
     5
  1

1001
ACAD
1000
MTEXTBEGIN
1070
    73
1070
     1
1070
    44
1040
1.0
1070
    74
1070
     0
1000
MTEXTEND
  0
MTEXT
  5
5675
330
1A
100
AcDbEntity
  8
SUNPOU
100
AcDbMText
 10
63201.03060980891
 20
57313.51034585002
 30
0.0
 40
10.5
 41
0.0
 71
     7
 72
     5
  1

1001
ACAD
1000
MTEXTBEGIN
1070
    73
1070
     1
1070
    44
1040
1.0
1070
    74
1070
     0
1000
MTEXTEND
  0
MTEXT
  5
5676
330
1A
100
AcDbEntity
  8
SUNPOU
100
AcDbMText
 10
66150.01427432169
 20
62214.18641769286
 30
0.0
 40
10.5
 41
0.0
 71
     7
 72
     5
  1

1001
ACAD
1000
MTEXTBEGIN
1070
    73
1070
     1
1070
    44
1040
1.0
1070
    74
1070
     0
1000
MTEXTEND
  0
MTEXT
  5
5677
330
1A
100
AcDbEntity
  8
SUNPOU
100
AcDbMText
 10
70659.09240227225
 20
64650.48716531294
 30
0.0
 40
10.5
 41
0.0
 71
     7
 72
     5
  1

1001
ACAD
1000
MTEXTBEGIN
1070
    73
1070
     1
1070
    44
1040
1.0
1070
    74
1070
     0
1000
MTEXTEND
  0
MTEXT
  5
5678
330
1A
100
AcDbEntity
  8
SUNPOU
100
AcDbMText
 10
54259.93028904056
 20
43648.08331570185
 30
0.0
 40
10.5
 41
0.0
 71
     7
 72
     5
  1

1001
ACAD
1000
MTEXTBEGIN
1070
    73
1070
     1
1070
    44
1040
1.0
1070
    74
1070
     0
1000
MTEXTEND
  0
MTEXT
  5
5679
330
1A
100
AcDbEntity
  8
SUNPOU
100
AcDbMText
 10
56070.69320041551
 20
49975.4973031804
 30
0.0
 40
10.5
 41
0.0
 71
     9
 72
     5
  1

1001
ACAD
1000
MTEXTBEGIN
1070
    73
1070
     1
1070
    44
1040
1.0
1070
    74
1070
     0
1000
MTEXTEND
  0
MTEXT
  5
567A
330
1A
100
AcDbEntity
  8
SUNPOU
100
AcDbMText
 10
64792.86076633348
 20
57391.33183471788
 30
0.0
 40
10.5
 41
0.0
 71
     9
 72
     5
  1

1001
ACAD
1000
MTEXTBEGIN
1070
    73
1070
     1
1070
    44
1040
1.0
1070
    74
1070
     0
1000
MTEXTEND
  0
MTEXT
  5
567B
330
1A
100
AcDbEntity
  8
SUNPOU
100
AcDbMText
 10
83746.61948366345
 20
74857.90788720994
 30
0.0
 40
10.5
 41
0.0
 71
     9
 72
     5
  1

1001
ACAD
1000
MTEXTBEGIN
1070
    73
1070
     1
1070
    44
1040
1.0
1070
    74
1070
     0
1000
MTEXTEND
  0
MTEXT
  5
567C
330
1A
100
AcDbEntity
  8
SUNPOU
100
AcDbMText
 10
85690.02673037287
 20
73056.85880733192
 30
0.0
 40
3.5
 41
0.0
 71
     9
 72
     5
  1

1001
ACAD
1000
MTEXTBEGIN
1070
    73
1070
     1
1070
    44
1040
1.0
1070
    74
1070
     0
1000
MTEXTEND
  0
MTEXT
  5
567D
330
1A
100
AcDbEntity
  8
SUNPOU
100
AcDbMText
 10
116816.2065629925
 20
115551.8044749892
 30
0.0
 40
10.5
 41
0.0
 71
     9
 72
     5
  1

1001
ACAD
1000
MTEXTBEGIN
1070
    73
1070
     1
1070
    44
1040
1.0
1070
    74
1070
     0
1000
MTEXTEND
  0
MTEXT
  5
567E
330
1A
100
AcDbEntity
  8
SUNPOU
100
AcDbMText
 10
118759.613809702
 20
113750.7553951112
 30
0.0
 40
3.5
 41
0.0
 71
     9
 72
     5
  1

1001
ACAD
1000
MTEXTBEGIN
1070
    73
1070
     1
1070
    44
1040
1.0
1070
    74
1070
     0
1000
MTEXTEND
  0
MTEXT
  5
567F
330
1A
100
AcDbEntity
  8
SUNPOU
100
AcDbMText
 10
67256.47426878814
 20
61384.96962996432
 30
0.0
 40
10.5
 41
0.0
 71
     9
 72
     5
  1

1001
ACAD
1000
MTEXTBEGIN
1070
    73
1070
     1
1070
    44
1040
1.0
1070
    74
1070
     0
1000
MTEXTEND
  0
MTEXT
  5
5680
330
1A
100
AcDbEntity
  8
SUNPOU
100
AcDbMText
 10
53308.47416841216
 20
42212.57049085211
 30
0.0
 40
3.5
 41
0.0
 71
     7
 72
     5
  1

1001
ACAD
1000
MTEXTBEGIN
1070
    73
1070
     1
1070
    44
1040
1.0
1070
    74
1070
     0
1000
MTEXTEND
  0
MTEXT
  5
5681
330
1A
100
AcDbEntity
  8
SUNPOU
100
AcDbMText
 10
67000.82485118274
 20
51571.63371187345
 30
0.0
 40
10.5
 41
0.0
 71
     9
 72
     5
  1

1001
ACAD
1000
MTEXTBEGIN
1070
    73
1070
     1
1070
    44
1040
1.0
1070
    74
1070
     0
1000
MTEXTEND
  0
MTEXT
  5
5682
330
1A
100
AcDbEntity
  8
SUNPOU
100
AcDbMText
 10
75722.99241710071
 20
58987.46824341094
 30
0.0
 40
10.5
 41
0.0
 71
     9
 72
     5
  1

1001
ACAD
1000
MTEXTBEGIN
1070
    73
1070
     1
1070
    44
1040
1.0
1070
    74
1070
     0
1000
MTEXTEND
  0
MTEXT
  5
5683
330
1A
100
AcDbEntity
  8
SUNPOU
100
AcDbMText
 10
94676.75113443068
 20
76454.04429590299
 30
0.0
 40
10.5
 41
0.0
 71
     9
 72
     5
  1

1001
ACAD
1000
MTEXTBEGIN
1070
    73
1070
     1
1070
    44
1040
1.0
1070
    74
1070
     0
1000
MTEXTEND
  0
MTEXT
  5
5684
330
1A
100
AcDbEntity
  8
SUNPOU
100
AcDbMText
 10
96620.1583811401
 20
74652.99521602498
 30
0.0
 40
3.5
 41
0.0
 71
     9
 72
     5
  1

1001
ACAD
1000
MTEXTBEGIN
1070
    73
1070
     1
1070
    44
1040
1.0
1070
    74
1070
     0
1000
MTEXTEND
  0
MTEXT
  5
5685
330
1A
100
AcDbEntity
  8
SUNPOU
100
AcDbMText
 10
127746.3382137598
 20
117147.9408836823
 30
0.0
 40
10.5
 41
0.0
 71
     9
 72
     5
  1

1001
ACAD
1000
MTEXTBEGIN
1070
    73
1070
     1
1070
    44
1040
1.0
1070
    74
1070
     0
1000
MTEXTEND
  0
MTEXT
  5
5686
330
1A
100
AcDbEntity
  8
SUNPOU
100
AcDbMText
 10
129689.7454604692
 20
115346.8918038043
 30
0.0
 40
3.5
 41
0.0
 71
     9
 72
     5
  1

1001
ACAD
1000
MTEXTBEGIN
1070
    73
1070
     1
1070
    44
1040
1.0
1070
    74
1070
     0
1000
MTEXTEND
  0
MTEXT
  5
5687
330
1A
100
AcDbEntity
  8
SUNPOU
100
AcDbMText
 10
78186.60591955537
 20
62981.10603865738
 30
0.0
 40
10.5
 41
0.0
 71
     9
 72
     5
  1

1001
ACAD
1000
MTEXTBEGIN
1070
    73
1070
     1
1070
    44
1040
1.0
1070
    74
1070
     0
1000
MTEXTEND
  0
MTEXT
  5
5688
330
1A
100
AcDbEntity
  8
SUNPOU
100
AcDbMText
 10
64238.60581917939
 20
43808.70689954517
 30
0.0
 40
3.5
 41
0.0
 71
     7
 72
     5
  1

1001
ACAD
1000
MTEXTBEGIN
1070
    73
1070
     1
1070
    44
1040
1.0
1070
    74
1070
     0
1000
MTEXTEND
  0
MTEXT
  5
5689
330
1A
100
AcDbEntity
  8
SUNPOU
100
AcDbMText
 10
33428.13481137435
 20
32770.04710035564
 30
0.0
 40
10.5
 41
0.0
 71
     9
 72
     5
  1

1001
ACAD
1000
MTEXTBEGIN
1070
    73
1070
     1
1070
    44
1040
1.0
1070
    74
1070
     0
1000
MTEXTEND
  0
MTEXT
  5
568A
330
1A
100
AcDbEntity
  8
SUNPOU
100
AcDbMText
 10
52381.89352870432
 20
50236.62315284769
 30
0.0
 40
10.5
 41
0.0
 71
     9
 72
     5
  1

1001
ACAD
1000
MTEXTBEGIN
1070
    73
1070
     1
1070
    44
1040
1.0
1070
    74
1070
     0
1000
MTEXTEND
  0
MTEXT
  5
568B
330
1A
100
AcDbEntity
  8
SUNPOU
100
AcDbMText
 10
54325.30077541374
 20
48435.57407296968
 30
0.0
 40
3.5
 41
0.0
 71
     9
 72
     5
  1

1001
ACAD
1000
MTEXTBEGIN
1070
    73
1070
     1
1070
    44
1040
1.0
1070
    74
1070
     0
1000
MTEXTEND
  0
MTEXT
  5
568C
330
1A
100
AcDbEntity
  8
SUNPOU
100
AcDbMText
 10
85451.48060803343
 20
90930.51974062703
 30
0.0
 40
10.5
 41
0.0
 71
     9
 72
     5
  1

1001
ACAD
1000
MTEXTBEGIN
1070
    73
1070
     1
1070
    44
1040
1.0
1070
    74
1070
     0
1000
MTEXTEND
  0
MTEXT
  5
568D
330
1A
100
AcDbEntity
  8
SUNPOU
100
AcDbMText
 10
87394.88785474286
 20
89129.47066074901
 30
0.0
 40
3.5
 41
0.0
 71
     9
 72
     5
  1

1001
ACAD
1000
MTEXTBEGIN
1070
    73
1070
     1
1070
    44
1040
1.0
1070
    74
1070
     0
1000
MTEXTEND
  0
MTEXT
  5
568E
330
1A
100
AcDbEntity
  8
SUNPOU
100
AcDbMText
 10
35891.74831382901
 20
36763.68489560208
 30
0.0
 40
10.5
 41
0.0
 71
     9
 72
     5
  1

1001
ACAD
1000
MTEXTBEGIN
1070
    73
1070
     1
1070
    44
1040
1.0
1070
    74
1070
     0
1000
MTEXTEND
  0
MTEXT
  5
568F
330
1A
100
AcDbEntity
  8
SUNPOU
100
AcDbMText
 10
21943.74821345303
 20
17591.28575648986
 30
0.0
 40
3.5
 41
0.0
 71
     7
 72
     5
  1

1001
ACAD
1000
MTEXTBEGIN
1070
    73
1070
     1
1070
    44
1040
1.0
1070
    74
1070
     0
1000
MTEXTEND
  0
MTEXT
  5
15AD5
330
1A
100
AcDbEntity
  8
ZISSEN1
100
AcDbMText
 10
-1347.611138534983
 20
1767.403469513125
 30
0.0
 40
5.0
 41
76.2713
 71
     1
 72
     5
  1
ADB-2F13DB　　No.SS0001f135
1001
ACAD
1000
MTEXTBEGIN
1070
    73
1070
     1
1070
    44
1040
1.0
1070
    74
1070
     0
1000
MTEXTEND
  0
MTEXT
  5
15AED
330
1A
100
AcDbEntity
  8
SUNPOU
100
AcDbMText
 10
-1358.815031073693
 20
1903.555129981575
 30
0.0
 40
3.5
 41
16.3794
 71
     1
 72
     5
  1
Φ3.5
1001
ACAD
1000
MTEXTBEGIN
1070
    73
1070
     1
1070
    44
1040
1.0
1070
    74
1070
     0
1000
MTEXTEND
  0
LINE
  5
16A3C
330
1A
100
AcDbEntity
  8
ZISSEN1
 48
0.5
100
AcDbLine
 10
-1428.037169910763
 20
1786.616336980645
 30
0.0
 11
-1426.037169910763
 21
1786.616336980645
 31
0.0
  0
LINE
  5
16A3D
330
1A
100
AcDbEntity
  8
ZISSEN1
 48
0.5
100
AcDbLine
 10
-1426.037169910763
 20
1786.616336980645
 30
0.0
 11
-1426.037169910763
 21
1749.616336980646
 31
0.0
  0
LINE
  5
16A3E
330
1A
100
AcDbEntity
  8
ZISSEN1
 48
0.5
100
AcDbLine
 10
-1378.537169910764
 20
1747.616336980646
 30
0.0
 11
-1378.537169910764
 21
1749.616336980646
 31
0.0
  0
LINE
  5
16A3F
330
1A
100
AcDbEntity
  8
ZISSEN1
 48
0.5
100
AcDbLine
 10
-1378.537169910764
 20
1749.616336980646
 30
0.0
 11
-1426.037169910763
 21
1749.616336980646
 31
0.0
  0
LINE
  5
16A40
330
1A
100
AcDbEntity
  8
ZISSEN1
 48
0.5
100
AcDbLine
 10
-1428.037169910763
 20
1786.616336980645
 30
0.0
 11
-1428.037169910763
 21
1749.616336980646
 31
0.0
  0
LINE
  5
16A41
330
1A
100
AcDbEntity
  8
ZISSEN1
 48
0.5
100
AcDbLine
 10
-1426.037169910763
 20
1747.616336980646
 30
0.0
 11
-1378.537169910764
 21
1747.616336980646
 31
0.0
  0
ARC
  5
16A42
330
1A
100
AcDbEntity
  8
ZISSEN1
 48
0.5
100
AcDbCircle
 10
-1426.037169910763
 20
1749.616336980646
 30
0.0
 40
2.0
100
AcDbArc
 50
180.0
 51
270.0
  0
LINE
  5
16A43
330
1A
100
AcDbEntity
  8
ZISSEN1
 48
0.5
100
AcDbLine
 10
-1428.037169910763
 20
1784.616336980645
 30
0.0
 11
-1426.037169910763
 21
1784.616336980645
 31
0.0
  0
LINE
  5
16A44
330
1A
100
AcDbEntity
  8
ZISSEN1
 48
0.5
100
AcDbLine
 10
-1380.537169910764
 20
1747.616336980646
 30
0.0
 11
-1380.537169910764
 21
1749.616336980646
 31
0.0
  0
LINE
  5
16A45
330
1A
100
AcDbEntity
  8
ZISSEN1
 48
0.5
100
AcDbLine
 10
-1426.037169910763
 20
1820.583970202267
 30
0.0
 11
-1428.037169910763
 21
1820.583970202267
 31
0.0
  0
LINE
  5
16A46
330
1A
100
AcDbEntity
  8
ZISSEN1
 48
0.5
100
AcDbLine
 10
-1426.037169910763
 20
1888.583970202267
 30
0.0
 11
-1428.037169910763
 21
1888.583970202267
 31
0.0
  0
LINE
  5
16A47
330
1A
100
AcDbEntity
  8
ZISSEN1
 48
0.5
100
AcDbLine
 10
-1426.037169910763
 20
1886.583970202267
 30
0.0
 11
-1428.037169910763
 21
1886.583970202267
 31
0.0
  0
DIMENSION
  5
16A4A
330
1A
100
AcDbEntity
  8
KIKOU-SUN
 48
0.5
100
AcDbDimension
  2
*D0
 10
-1438.037169910764
 20
1818.583970202267
 30
0.0
 11
-1440.787169910764
 21
1853.583970202267
 31
0.0
 70
    32
  3
標準スタイル
100
AcDbAlignedDimension
 13
-1428.037169910763
 23
1888.583970202267
 33
0.0
 14
-1428.037169910763
 24
1818.583970202267
 34
0.0
 50
270.0
100
AcDbRotatedDimension
1001
ACAD
1000
DSTYLE
1002
{
1070
   340
1005
10
1070
   140
1040
3.5
1070
    40
1040
1.0
1002
}
  0
LINE
  5
16A5E
330
1A
100
AcDbEntity
  8
ZISSEN1
 48
0.5
100
AcDbLine
 10
-1426.037169910763
 20
1888.583970202267
 30
0.0
 11
-1426.037169910763
 21
1818.583970202267
 31
0.0
  0
LINE
  5
16A5F
330
1A
100
AcDbEntity
  8
ZISSEN1
 48
0.5
100
AcDbLine
 10
-1428.037169910763
 20
1818.583970202267
 30
0.0
 11
-1380.537169910764
 21
1818.583970202267
 31
0.0
  0
LINE
  5
16A60
330
1A
100
AcDbEntity
  8
ZISSEN1
 48
0.5
100
AcDbLine
 10
-1380.537169910764
 20
1818.583970202267
 30
0.0
 11
-1378.537169910764
 21
1820.583970202267
 31
0.0
  0
LINE
  5
16A61
330
1A
100
AcDbEntity
  8
ZISSEN1
 48
0.5
100
AcDbLine
 10
-1378.537169910764
 20
1820.583970202267
 30
0.0
 11
-1378.537169910764
 21
1886.583970202267
 31
0.0
  0
LINE
  5
16A62
330
1A
100
AcDbEntity
  8
ZISSEN1
 48
0.5
100
AcDbLine
 10
-1378.537169910764
 20
1886.583970202267
 30
0.0
 11
-1380.537169910764
 21
1888.583970202267
 31
0.0
  0
LINE
  5
16A63
330
1A
100
AcDbEntity
  8
ZISSEN1
 48
0.5
100
AcDbLine
 10
-1380.537169910764
 20
1888.583970202267
 30
0.0
 11
-1426.037169910763
 21
1888.583970202267
 31
0.0
  0
LINE
  5
16A64
330
1A
100
AcDbEntity
  8
ZISSEN1
 48
0.5
100
AcDbLine
 10
-1428.037169910763
 20
1888.583970202267
 30
0.0
 11
-1428.037169910763
 21
1818.583970202267
 31
0.0
  0
LINE
  5
16A65
330
1A
100
AcDbEntity
  8
ZISSEN1
 48
0.5
100
AcDbLine
 10
-1426.037169910763
 20
1818.583970202267
 30
0.0
 11
-1426.037169910763
 21
1888.583970202267
 31
0.0
  0
LINE
  5
16A66
330
1A
100
AcDbEntity
  8
ZISSEN1
 48
0.5
100
AcDbLine
 10
-1426.037169910763
 20
1888.583970202267
 30
0.0
 11
-1428.037169910763
 21
1888.583970202267
 31
0.0
  0
LINE
  5
16A79
330
1A
100
AcDbEntity
  8
ZISSEN1
 48
0.5
100
AcDbLine
 10
-1380.037169910764
 20
1888.083970202267
 30
0.0
 11
-1421.037169910763
 21
1888.083970202267
 31
0.0
  0
LINE
  5
16A7A
330
1A
100
AcDbEntity
  8
ZISSEN1
 48
0.5
100
AcDbLine
 10
-1422.037169910764
 20
1887.083970202267
 30
0.0
 11
-1422.037169910764
 21
1877.0839672815
 31
0.0
  0
LINE
  5
16A7B
330
1A
100
AcDbEntity
  8
ZISSEN1
 48
0.5
100
AcDbLine
 10
-1421.037169910763
 20
1819.083970202267
 30
0.0
 11
-1380.037169910764
 21
1819.083970202267
 31
0.0
  0
LINE
  5
16A7C
330
1A
100
AcDbEntity
  8
ZISSEN1
 48
0.5
100
AcDbLine
 10
-1379.037169910763
 20
1820.083970202267
 30
0.0
 11
-1379.037169910763
 21
1887.083970202267
 31
0.0
  0
ARC
  5
16A7D
330
1A
100
AcDbEntity
  8
ZISSEN1
 48
0.5
100
AcDbCircle
 10
-1379.037169910763
 20
1888.083970202267
 30
0.0
 40
1.0
100
AcDbArc
 50
180.0
 51
270.0
  0
ARC
  5
16A7E
330
1A
100
AcDbEntity
  8
ZISSEN1
 48
0.5
100
AcDbCircle
 10
-1422.037169910764
 20
1888.083970202267
 30
0.0
 40
0.9999999999995452
100
AcDbArc
 50
269.9999999999478
 51
359.9999999999478
  0
ARC
  5
16A7F
330
1A
100
AcDbEntity
  8
ZISSEN1
 48
0.5
100
AcDbCircle
 10
-1422.037169910764
 20
1819.083970202267
 30
0.0
 40
1.000000000000454
100
AcDbArc
 50
0.0000000000521102
 51
90.0
  0
ARC
  5
16A80
330
1A
100
AcDbEntity
  8
ZISSEN1
 48
0.5
100
AcDbCircle
 10
-1379.037169910765
 20
1819.083970202268
 30
0.0
 40
0.999999999998181
100
AcDbArc
 50
89.99999999989578
 51
180.0000000001042
  0
CIRCLE
  5
16A81
330
1A
100
AcDbEntity
  8
ZISSEN1
 48
0.5
100
AcDbCircle
 10
-1382.537169910763
 20
1822.583970202267
 30
0.0
 40
3.149999999999999
  0
CIRCLE
  5
16A8E
330
1A
100
AcDbEntity
  8
ZISSEN1
 48
0.5
100
AcDbCircle
 10
-1382.537169910763
 20
1884.583970202267
 30
0.0
 40
3.149999999999999
  0
LINE
  5
16BAF
330
1A
100
AcDbEntity
  8
ZISSEN1
 48
0.5
100
AcDbLine
 10
-1418.537169910764
 20
1753.616336980646
 30
0.0
 11
-1418.537169910764
 21
1749.616336980646
 31
0.0
  0
LINE
  5
16BB0
330
1A
100
AcDbEntity
  8
ZISSEN1
 48
0.5
100
AcDbLine
 10
-1421.687169910763
 20
1747.616336980646
 30
0.0
 11
-1421.600014168016
 21
1746.620142282554
 31
0.0
  0
LINE
  5
16BB1
330
1A
100
AcDbEntity
  8
ZISSEN1
 48
0.5
100
AcDbLine
 10
-1415.387169910764
 20
1747.616336980646
 30
0.0
 11
-1415.474325653511
 21
1746.620142282554
 31
0.0
  0
LINE
  5
16BB2
330
1A
100
AcDbEntity
  8
ZISSEN1
 48
0.5
100
AcDbLine
 10
-1415.387169910764
 20
1747.616336980646
 30
0.0
 11
-1421.687169910763
 21
1747.616336980646
 31
0.0
  0
ARC
  5
16BB3
330
1A
100
AcDbEntity
  8
ZISSEN1
 48
0.5
100
AcDbCircle
 10
-1418.537169910764
 20
1750.774284456518
 30
0.0
 40
5.158339171762671
100
AcDbArc
 50
233.570738502659
 51
306.4292614973409
  0
LINE
  5
16BB4
330
1A
100
AcDbEntity
  8
ZISSEN1
 48
0.5
100
AcDbLine
 10
-1421.287169910764
 20
1753.616336980646
 30
0.0
 11
-1421.287169910764
 21
1749.616336980646
 31
0.0
  0
LINE
  5
16BB5
330
1A
100
AcDbEntity
  8
ZISSEN1
 48
0.5
100
AcDbLine
 10
-1415.787169910764
 20
1749.616336980646
 30
0.0
 11
-1415.787169910764
 21
1753.616336980646
 31
0.0
  0
LINE
  5
16BB6
330
1A
100
AcDbEntity
  8
ZISSEN1
 48
0.5
100
AcDbLine
 10
-1415.787169910764
 20
1753.616336980646
 30
0.0
 11
-1421.287169910764
 21
1753.616336980646
 31
0.0
  0
LINE
  5
16BBD
330
1A
100
AcDbEntity
  8
ZISSEN1
 48
0.5
100
AcDbLine
 10
-1425.037169910764
 20
1753.616336980646
 30
0.0
 11
-1379.037169910763
 21
1753.616336980646
 31
0.0
  0
LINE
  5
16BBE
330
1A
100
AcDbEntity
  8
ZISSEN1
 48
0.5
100
AcDbLine
 10
-1425.037169910764
 20
1755.216336980646
 30
0.0
 11
-1379.037169910763
 21
1755.216336980646
 31
0.0
  0
LINE
  5
16BBF
330
1A
100
AcDbEntity
  8
ZISSEN1
 48
0.5
100
AcDbLine
 10
-1422.037169910764
 20
1755.216336980646
 30
0.0
 11
-1422.037169910764
 21
1753.616336980646
 31
0.0
  0
LINE
  5
16BC0
330
1A
100
AcDbEntity
  8
ZISSEN1
 48
0.5
100
AcDbLine
 10
-1421.037169910763
 20
1755.216336980646
 30
0.0
 11
-1421.037169910763
 21
1753.616336980646
 31
0.0
  0
LINE
  5
16BC1
330
1A
100
AcDbEntity
  8
ZISSEN1
 48
0.5
100
AcDbLine
 10
-1380.037169910764
 20
1755.216336980646
 30
0.0
 11
-1380.037169910764
 21
1753.616336980646
 31
0.0
  0
LINE
  5
16BC2
330
1A
100
AcDbEntity
  8
ZISSEN1
 48
0.5
100
AcDbLine
 10
-1379.037169910763
 20
1755.216336980646
 30
0.0
 11
-1379.037169910763
 21
1753.616336980646
 31
0.0
  0
LINE
  5
16BC3
330
1A
100
AcDbEntity
  8
ZISSEN1
 48
0.5
100
AcDbLine
 10
-1421.287169910764
 20
1755.216336980646
 30
0.0
 11
-1421.287169910764
 21
1763.216336980646
 31
0.0
  0
LINE
  5
16BC4
330
1A
100
AcDbEntity
  8
ZISSEN1
 48
0.5
100
AcDbLine
 10
-1415.787169910764
 20
1755.216336980646
 30
0.0
 11
-1415.787169910764
 21
1763.216336980646
 31
0.0
  0
LINE
  5
16BC5
330
1A
100
AcDbEntity
  8
ZISSEN1
 48
0.5
100
AcDbLine
 10
-1418.537169910764
 20
1752.116336980646
 30
0.0
 11
-1418.537169910764
 21
1763.216336980646
 31
0.0
  0
LINE
  5
16BC6
330
1A
100
AcDbEntity
  8
ZISSEN1
 48
0.5
100
AcDbLine
 10
-1415.787169910764
 20
1763.216336980646
 30
0.0
 11
-1421.287169910764
 21
1763.216336980646
 31
0.0
  0
LINE
  5
16BC7
330
1A
100
AcDbEntity
  8
ZISSEN1
 48
0.5
100
AcDbLine
 10
-1382.537169910763
 20
1753.616336980646
 30
0.0
 11
-1382.537169910763
 21
1749.616336980646
 31
0.0
  0
LINE
  5
16BC8
330
1A
100
AcDbEntity
  8
ZISSEN1
 48
0.5
100
AcDbLine
 10
-1385.287169910763
 20
1753.616336980646
 30
0.0
 11
-1385.287169910763
 21
1749.616336980646
 31
0.0
  0
LINE
  5
16BC9
330
1A
100
AcDbEntity
  8
ZISSEN1
 48
0.5
100
AcDbLine
 10
-1379.787169910763
 20
1749.616336980646
 30
0.0
 11
-1379.787169910763
 21
1753.616336980646
 31
0.0
  0
LINE
  5
16BCA
330
1A
100
AcDbEntity
  8
ZISSEN1
 48
0.5
100
AcDbLine
 10
-1379.787169910763
 20
1753.616336980646
 30
0.0
 11
-1385.287169910763
 21
1753.616336980646
 31
0.0
  0
LINE
  5
16BD1
330
1A
100
AcDbEntity
  8
ZISSEN1
 48
0.5
100
AcDbLine
 10
-1385.287169910763
 20
1755.216336980646
 30
0.0
 11
-1385.287169910763
 21
1763.216336980646
 31
0.0
  0
LINE
  5
16BD2
330
1A
100
AcDbEntity
  8
ZISSEN1
 48
0.5
100
AcDbLine
 10
-1379.787169910763
 20
1755.216336980646
 30
0.0
 11
-1379.787169910763
 21
1763.216336980646
 31
0.0
  0
LINE
  5
16BD3
330
1A
100
AcDbEntity
  8
ZISSEN1
 48
0.5
100
AcDbLine
 10
-1382.537169910763
 20
1755.216336980646
 30
0.0
 11
-1382.537169910763
 21
1763.216336980646
 31
0.0
  0
LINE
  5
16BD4
330
1A
100
AcDbEntity
  8
ZISSEN1
 48
0.5
100
AcDbLine
 10
-1379.787169910763
 20
1763.216336980646
 30
0.0
 11
-1385.287169910763
 21
1763.216336980646
 31
0.0
  0
LINE
  5
16BD5
330
1A
100
AcDbEntity
  8
ZISSEN1
 48
0.5
100
AcDbLine
 10
-1425.037169910764
 20
1763.216336980646
 30
0.0
 11
-1379.037169910763
 21
1763.216336980646
 31
0.0
  0
LINE
  5
16BD6
330
1A
100
AcDbEntity
  8
ZISSEN1
 48
0.5
100
AcDbLine
 10
-1425.037169910764
 20
1764.816336980646
 30
0.0
 11
-1379.037169910763
 21
1764.816336980646
 31
0.0
  0
LINE
  5
16BD7
330
1A
100
AcDbEntity
  8
ZISSEN1
 48
0.5
100
AcDbLine
 10
-1422.037169910764
 20
1764.816336980646
 30
0.0
 11
-1422.037169910764
 21
1763.216336980646
 31
0.0
  0
LINE
  5
16BD8
330
1A
100
AcDbEntity
  8
ZISSEN1
 48
0.5
100
AcDbLine
 10
-1421.037169910763
 20
1764.816336980646
 30
0.0
 11
-1421.037169910763
 21
1763.216336980646
 31
0.0
  0
LINE
  5
16BD9
330
1A
100
AcDbEntity
  8
ZISSEN1
 48
0.5
100
AcDbLine
 10
-1380.037169910764
 20
1764.816336980646
 30
0.0
 11
-1380.037169910764
 21
1763.216336980646
 31
0.0
  0
LINE
  5
16BDA
330
1A
100
AcDbEntity
  8
ZISSEN1
 48
0.5
100
AcDbLine
 10
-1379.037169910763
 20
1764.816336980646
 30
0.0
 11
-1379.037169910763
 21
1763.216336980646
 31
0.0
  0
LINE
  5
16BDE
330
1A
100
AcDbEntity
  8
ZISSEN1
 48
0.5
100
AcDbLine
 10
-1385.687169910763
 20
1747.616336980646
 30
0.0
 11
-1385.600014168016
 21
1746.620142282554
 31
0.0
  0
LINE
  5
16BDF
330
1A
100
AcDbEntity
  8
ZISSEN1
 48
0.5
100
AcDbLine
 10
-1379.387169910764
 20
1747.616336980646
 30
0.0
 11
-1379.474325653511
 21
1746.620142282554
 31
0.0
  0
LINE
  5
16BE0
330
1A
100
AcDbEntity
  8
ZISSEN1
 48
0.5
100
AcDbLine
 10
-1379.387169910764
 20
1747.616336980646
 30
0.0
 11
-1385.687169910763
 21
1747.616336980646
 31
0.0
  0
ARC
  5
16BE1
330
1A
100
AcDbEntity
  8
ZISSEN1
 48
0.5
100
AcDbCircle
 10
-1382.537169910763
 20
1750.774284456518
 30
0.0
 40
5.158339171762671
100
AcDbArc
 50
233.570738502659
 51
306.4292614973409
  0
LINE
  5
16BE5
330
1A
100
AcDbEntity
  8
ZISSEN1
 48
0.5
100
AcDbLine
 10
-1385.687169910763
 20
1764.816336980646
 30
0.0
 11
-1385.600014168016
 21
1765.812531678737
 31
0.0
  0
LINE
  5
16BE6
330
1A
100
AcDbEntity
  8
ZISSEN1
 48
0.5
100
AcDbLine
 10
-1379.387169910764
 20
1764.816336980646
 30
0.0
 11
-1379.474325653511
 21
1765.812531678737
 31
0.0
  0
LINE
  5
16BE7
330
1A
100
AcDbEntity
  8
ZISSEN1
 48
0.5
100
AcDbLine
 10
-1379.387169910764
 20
1764.816336980646
 30
0.0
 11
-1385.687169910763
 21
1764.816336980646
 31
0.0
  0
ARC
  5
16BE8
330
1A
100
AcDbEntity
  8
ZISSEN1
 48
0.5
100
AcDbCircle
 10
-1382.537169910763
 20
1761.658389504773
 30
0.0
 40
5.158339171762671
100
AcDbArc
 50
53.57073850265901
 51
126.4292614973409
  0
LINE
  5
16BED
330
1A
100
AcDbEntity
  8
KAKURESEN1
  6
DASHEDX2
 48
0.5
100
AcDbLine
 10
-1428.037169910763
 20
1781.366336980646
 30
0.0
 11
-1426.037169910763
 21
1781.366336980646
 31
0.0
  0
LINE
  5
16BEE
330
1A
100
AcDbEntity
  8
KAKURESEN1
 48
0.5
100
AcDbLine
 10
-1428.037169910763
 20
1777.866336980646
 30
0.0
 11
-1426.037169910763
 21
1777.866336980646
 31
0.0
  0
LINE
  5
16BEF
330
1A
100
AcDbEntity
  8
ZISSEN1
 48
0.5
100
AcDbLine
 10
-1428.037169910763
 20
1770.616336980645
 30
0.0
 11
-1426.037169910763
 21
1770.616336980645
 31
0.0
  0
LINE
  5
16BF0
330
1A
100
AcDbEntity
  8
ZISSEN1
 48
0.5
100
AcDbLine
 10
-1428.037169910763
 20
1772.616336980646
 30
0.0
 11
-1426.037169910763
 21
1772.616336980646
 31
0.0
  0
LINE
  5
16BF1
330
1A
100
AcDbEntity
  8
ZISSEN1
 48
0.5
100
AcDbLine
 10
-1428.037169910763
 20
1757.616336980645
 30
0.0
 11
-1426.037169910763
 21
1757.616336980645
 31
0.0
  0
LINE
  5
16BF2
330
1A
100
AcDbEntity
  8
ZISSEN1
 48
0.5
100
AcDbLine
 10
-1428.037169910763
 20
1755.616336980645
 30
0.0
 11
-1426.037169910763
 21
1755.616336980645
 31
0.0
  0
LINE
  5
16BF5
330
1A
100
AcDbEntity
  8
ZISSEN1
 48
0.5
100
AcDbLine
 10
-1426.037169910763
 20
1776.466336980646
 30
0.0
 11
-1426.037169910763
 21
1782.766336980645
 31
0.0
  0
LINE
  5
16BFA
330
1A
100
AcDbEntity
  8
ZISSEN1
 48
0.5
100
AcDbLine
 10
-1388.837169910764
 20
1776.316336980645
 30
0.0
 11
-1386.837169910764
 21
1776.316336980645
 31
0.0
  0
LINE
  5
16BFB
330
1A
100
AcDbEntity
  8
KAKURESEN1
 48
0.5
100
AcDbLine
 10
-1386.837169910764
 20
1776.316336980645
 30
0.0
 11
-1386.837169910764
 21
1764.816336980645
 31
0.0
  0
LINE
  5
16BFC
330
1A
100
AcDbEntity
  8
ZISSEN1
 48
0.5
100
AcDbLine
 10
-1407.237169910763
 20
1776.316336980645
 30
0.0
 11
-1409.237169910763
 21
1776.316336980645
 31
0.0
  0
LINE
  5
16BFD
330
1A
100
AcDbEntity
  8
ZISSEN1
 48
0.5
100
AcDbLine
 10
-1409.237169910763
 20
1776.316336980645
 30
0.0
 11
-1409.237169910763
 21
1764.816336980645
 31
0.0
  0
LINE
  5
16C35
330
1A
100
AcDbEntity
  8
ZISSEN1
 48
0.5
100
AcDbLine
 10
-1409.237169910763
 20
1776.316336980645
 30
0.0
 11
-1386.837169910764
 21
1776.316336980645
 31
0.0
  0
LINE
  5
16C36
330
1A
100
AcDbEntity
  8
ZISSEN1
 48
0.5
100
AcDbLine
 10
-1386.837169910764
 20
1776.316336980645
 30
0.0
 11
-1386.837169910764
 21
1775.316336980645
 31
0.0
  0
LINE
  5
16CAB
330
1A
100
AcDbEntity
  8
ZISSEN1
 48
0.5
100
AcDbLine
 10
-1425.037169910764
 20
1877.0839672815
 30
0.0
 11
-1425.037169910764
 21
1830.083973123035
 31
0.0
  0
LINE
  5
16CAC
330
1A
100
AcDbEntity
  8
ZISSEN1
 48
0.5
100
AcDbLine
 10
-1422.037169910764
 20
1830.083973123035
 30
0.0
 11
-1422.037169910764
 21
1820.083970202267
 31
0.0
  0
LINE
  5
16CAD
330
1A
100
AcDbEntity
  8
ZISSEN1
 48
0.5
100
AcDbLine
 10
-1422.037169910764
 20
1877.0839672815
 30
0.0
 11
-1425.037169910764
 21
1877.0839672815
 31
0.0
  0
LINE
  5
16CAE
330
1A
100
AcDbEntity
  8
ZISSEN1
 48
0.5
100
AcDbLine
 10
-1422.037169910764
 20
1830.083973123035
 30
0.0
 11
-1425.037169910764
 21
1830.083973123035
 31
0.0
  0
LINE
  5
16CAF
330
1A
100
AcDbEntity
  8
ZISSEN1
 48
0.5
100
AcDbLine
 10
-1425.037169910764
 20
1755.216336980646
 30
0.0
 11
-1425.037169910764
 21
1753.616336980646
 31
0.0
  0
LINE
  5
16CB0
330
1A
100
AcDbEntity
  8
ZISSEN1
 48
0.5
100
AcDbLine
 10
-1425.037169910764
 20
1764.816336980646
 30
0.0
 11
-1425.037169910764
 21
1763.216336980646
 31
0.0
  0
LINE
  5
16CB1
330
1A
100
AcDbEntity
  8
ZISSEN1
 48
0.5
100
AcDbLine
 10
-1305.037169910765
 20
1818.583970202267
 30
0.0
 11
-1313.037169910765
 21
1818.583970202267
 31
0.0
  0
LINE
  5
16CB3
330
1A
100
AcDbEntity
  8
ZISSEN1
 48
0.5
100
AcDbLine
 10
-1328.037169910764
 20
1826.888386231441
 30
0.0
 11
-1328.037169910764
 21
1820.583970202268
 31
0.0
  0
LINE
  5
16CB4
330
1A
100
AcDbEntity
  8
ZISSEN1
 48
0.5
100
AcDbLine
 10
-1330.037169910764
 20
1818.583970202268
 30
0.0
 11
-1342.037169910764
 21
1818.583970202268
 31
0.0
  0
LINE
  5
16CB5
330
1A
100
AcDbEntity
  8
ZISSEN1
 48
0.5
100
AcDbLine
 10
-1342.037169910764
 20
1818.583970202268
 30
0.0
 11
-1344.037169910764
 21
1820.583970202268
 31
0.0
  0
LINE
  5
16CB6
330
1A
100
AcDbEntity
  8
ZISSEN1
 48
0.5
100
AcDbLine
 10
-1344.037169910764
 20
1820.583970202268
 30
0.0
 11
-1344.037169910764
 21
1886.583970202267
 31
0.0
  0
LINE
  5
16CB7
330
1A
100
AcDbEntity
  8
ZISSEN1
 48
0.5
100
AcDbLine
 10
-1305.037169910765
 20
1888.583970202267
 30
0.0
 11
-1305.037169910765
 21
1818.583970202267
 31
0.0
  0
CIRCLE
  5
16CB8
330
1A
100
AcDbEntity
  8
ZISSEN1
 48
0.5
100
AcDbCircle
 10
-1337.037169910765
 20
1823.583970202267
 30
0.0
 40
1.75
  0
LINE
  5
16CBB
330
1A
100
AcDbEntity
  8
ZISSEN1
 48
0.5
100
AcDbLine
 10
-1328.037169910764
 20
1879.165838915021
 30
0.0
 11
-1328.037169910764
 21
1880.483970202267
 31
0.0
  0
LINE
  5
16CBC
330
1A
100
AcDbEntity
  8
ZISSEN1
 48
0.5
100
AcDbLine
 10
-1330.037169910764
 20
1888.583970202267
 30
0.0
 11
-1342.037169910764
 21
1888.583970202267
 31
0.0
  0
LINE
  5
16CBD
330
1A
100
AcDbEntity
  8
ZISSEN1
 48
0.5
100
AcDbLine
 10
-1342.037169910764
 20
1888.583970202267
 30
0.0
 11
-1344.037169910764
 21
1886.583970202267
 31
0.0
  0
LINE
  5
16CBE
330
1A
100
AcDbEntity
  8
ZISSEN1
 48
0.5
100
AcDbLine
 10
-1313.037169910765
 20
1888.583970202267
 30
0.0
 11
-1305.037169910765
 21
1888.583970202267
 31
0.0
  0
LINE
  5
16CC0
330
1A
100
AcDbEntity
  8
ZISSEN1
 48
0.5
100
AcDbLine
 10
-1330.037169910764
 20
1888.583970202267
 30
0.0
 11
-1328.937169910765
 21
1887.483970202268
 31
0.0
  0
LINE
  5
16CC1
330
1A
100
AcDbEntity
  8
ZISSEN1
 48
0.5
100
AcDbLine
 10
-1330.037169910764
 20
1818.583970202268
 30
0.0
 11
-1328.037169910764
 21
1820.583970202268
 31
0.0
  0
LINE
  5
16CC3
330
1A
100
AcDbEntity
  8
ZISSEN1
 48
0.5
100
AcDbLine
 10
-1307.037169910764
 20
1888.583970202267
 30
0.0
 11
-1307.037169910765
 21
1818.583970202267
 31
0.0
  0
LINE
  5
16CC4
330
1A
100
AcDbEntity
  8
ZISSEN1
 48
0.5
100
AcDbLine
 10
-1307.037169910764
 20
1886.583970202267
 30
0.0
 11
-1305.037169910765
 21
1886.583970202267
 31
0.0
  0
LINE
  5
16CC5
330
1A
100
AcDbEntity
  8
ZISSEN1
 48
0.5
100
AcDbLine
 10
-1307.037169910764
 20
1820.583970202267
 30
0.0
 11
-1305.037169910765
 21
1820.583970202267
 31
0.0
  0
LINE
  5
16CC6
330
1A
100
AcDbEntity
  8
ZISSEN1
 48
0.5
100
AcDbLine
 10
-1311.037169910765
 20
1825.75939668281
 30
0.0
 11
-1311.037169910766
 21
1819.408543721723
 31
0.0
  0
LINE
  5
16CC7
330
1A
100
AcDbEntity
  8
ZISSEN1
 48
0.5
100
AcDbLine
 10
-1311.037169910765
 20
1822.583970202267
 30
0.0
 11
-1307.037169910765
 21
1822.583970202267
 31
0.0
  0
LINE
  5
16CC8
330
1A
100
AcDbEntity
  8
ZISSEN1
 48
0.5
100
AcDbLine
 10
-1311.037169910766
 20
1819.408543721723
 30
0.0
 11
-1307.037169910766
 21
1819.408543721723
 31
0.0
  0
LINE
  5
16CC9
330
1A
100
AcDbEntity
  8
ZISSEN1
 48
0.5
100
AcDbLine
 10
-1311.037169910765
 20
1825.75939668281
 30
0.0
 11
-1307.037169910765
 21
1825.75939668281
 31
0.0
  0
LINE
  5
16CCA
330
1A
100
AcDbEntity
  8
ZISSEN1
 48
0.5
100
AcDbLine
 10
-1311.037169910765
 20
1819.083970202267
 30
0.0
 11
-1311.037169910765
 21
1888.083970202267
 31
0.0
  0
LINE
  5
16CCB
330
1A
100
AcDbEntity
  8
ZISSEN1
 48
0.5
100
AcDbLine
 10
-1312.637169910766
 20
1819.083970202267
 30
0.0
 11
-1312.637169910766
 21
1888.083970202267
 31
0.0
  0
LINE
  5
16CCC
330
1A
100
AcDbEntity
  8
ZISSEN1
 48
0.5
100
AcDbLine
 10
-1320.637169910765
 20
1887.75939668281
 30
0.0
 11
-1320.637169910766
 21
1881.408543721723
 31
0.0
  0
LINE
  5
16CCD
330
1A
100
AcDbEntity
  8
ZISSEN1
 48
0.5
100
AcDbLine
 10
-1320.637169910765
 20
1884.583970202267
 30
0.0
 11
-1312.637169910765
 21
1884.583970202267
 31
0.0
  0
LINE
  5
16CCE
330
1A
100
AcDbEntity
  8
ZISSEN1
 48
0.5
100
AcDbLine
 10
-1320.637169910766
 20
1881.408543721723
 30
0.0
 11
-1312.637169910766
 21
1881.408543721723
 31
0.0
  0
LINE
  5
16CCF
330
1A
100
AcDbEntity
  8
ZISSEN1
 48
0.5
100
AcDbLine
 10
-1320.637169910765
 20
1887.75939668281
 30
0.0
 11
-1312.637169910765
 21
1887.75939668281
 31
0.0
  0
LINE
  5
16CD0
330
1A
100
AcDbEntity
  8
ZISSEN1
 48
0.5
100
AcDbLine
 10
-1320.637169910766
 20
1825.75939668281
 30
0.0
 11
-1320.637169910767
 21
1819.408543721723
 31
0.0
  0
LINE
  5
16CD1
330
1A
100
AcDbEntity
  8
ZISSEN1
 48
0.5
100
AcDbLine
 10
-1320.637169910766
 20
1822.583970202267
 30
0.0
 11
-1312.637169910766
 21
1822.583970202267
 31
0.0
  0
LINE
  5
16CD2
330
1A
100
AcDbEntity
  8
ZISSEN1
 48
0.5
100
AcDbLine
 10
-1320.637169910767
 20
1819.408543721723
 30
0.0
 11
-1312.637169910767
 21
1819.408543721723
 31
0.0
  0
LINE
  5
16CD3
330
1A
100
AcDbEntity
  8
ZISSEN1
 48
0.5
100
AcDbLine
 10
-1320.637169910766
 20
1825.75939668281
 30
0.0
 11
-1312.637169910766
 21
1825.75939668281
 31
0.0
  0
LINE
  5
16CD4
330
1A
100
AcDbEntity
  8
ZISSEN1
 48
0.5
100
AcDbLine
 10
-1320.637169910766
 20
1819.083970202267
 30
0.0
 11
-1320.637169910766
 21
1835.883970202268
 31
0.0
  0
LINE
  5
16CD5
330
1A
100
AcDbEntity
  8
ZISSEN1
 48
0.5
100
AcDbLine
 10
-1322.237169910766
 20
1819.083970202267
 30
0.0
 11
-1322.237169910766
 21
1835.883970202268
 31
0.0
  0
LINE
  5
16CD6
330
1A
100
AcDbEntity
  8
ZISSEN1
 48
0.5
100
AcDbLine
 10
-1322.237169910766
 20
1819.083970202267
 30
0.0
 11
-1320.637169910766
 21
1819.083970202267
 31
0.0
  0
LINE
  5
16CD7
330
1A
100
AcDbEntity
  8
ZISSEN1
 48
0.5
100
AcDbLine
 10
-1322.237169910766
 20
1820.083970202267
 30
0.0
 11
-1320.637169910766
 21
1820.083970202267
 31
0.0
  0
LINE
  5
16CD8
330
1A
100
AcDbEntity
  8
ZISSEN1
 48
0.5
100
AcDbLine
 10
-1312.637169910766
 20
1819.083970202267
 30
0.0
 11
-1311.037169910765
 21
1819.083970202267
 31
0.0
  0
LINE
  5
16CD9
330
1A
100
AcDbEntity
  8
ZISSEN1
 48
0.5
100
AcDbLine
 10
-1312.637169910766
 20
1820.083970202267
 30
0.0
 11
-1311.037169910765
 21
1820.083970202267
 31
0.0
  0
LINE
  5
16CDA
330
1A
100
AcDbEntity
  8
ZISSEN1
 48
0.5
100
AcDbLine
 10
-1322.237169910765
 20
1887.083970202267
 30
0.0
 11
-1320.637169910765
 21
1887.083970202267
 31
0.0
  0
LINE
  5
16CDB
330
1A
100
AcDbEntity
  8
ZISSEN1
 48
0.5
100
AcDbLine
 10
-1322.237169910765
 20
1888.083970202267
 30
0.0
 11
-1320.637169910765
 21
1888.083970202267
 31
0.0
  0
LINE
  5
16CDC
330
1A
100
AcDbEntity
  8
ZISSEN1
 48
0.5
100
AcDbLine
 10
-1312.637169910765
 20
1887.083970202267
 30
0.0
 11
-1311.037169910764
 21
1887.083970202267
 31
0.0
  0
LINE
  5
16CDD
330
1A
100
AcDbEntity
  8
ZISSEN1
 48
0.5
100
AcDbLine
 10
-1312.637169910765
 20
1888.083970202267
 30
0.0
 11
-1311.037169910764
 21
1888.083970202267
 31
0.0
  0
LINE
  5
16CDE
330
1A
100
AcDbEntity
  8
ZISSEN1
 48
0.5
100
AcDbLine
 10
-1322.237169910766
 20
1887.733970202267
 30
0.0
 11
-1323.233364608857
 21
1887.646814459519
 31
0.0
  0
LINE
  5
16CDF
330
1A
100
AcDbEntity
  8
ZISSEN1
 48
0.5
100
AcDbLine
 10
-1322.237169910766
 20
1881.433970202267
 30
0.0
 11
-1323.233364608857
 21
1881.521125945014
 31
0.0
  0
LINE
  5
16CE0
330
1A
100
AcDbEntity
  8
ZISSEN1
 48
0.5
100
AcDbLine
 10
-1322.237169910766
 20
1881.433970202267
 30
0.0
 11
-1322.237169910766
 21
1887.733970202267
 31
0.0
  0
ARC
  5
16CE1
330
1A
100
AcDbEntity
  8
ZISSEN1
 48
0.5
100
AcDbCircle
 10
-1319.079222434894
 20
1884.583970202267
 30
0.0
 40
5.158339171762671
100
AcDbArc
 50
143.570738502659
 51
216.429261497341
  0
LINE
  5
16CE5
330
1A
100
AcDbEntity
  8
ZISSEN1
 48
0.5
100
AcDbLine
 10
-1305.037169910765
 20
1887.733970202267
 30
0.0
 11
-1304.040975212674
 21
1887.646814459519
 31
0.0
  0
LINE
  5
16CE6
330
1A
100
AcDbEntity
  8
ZISSEN1
 48
0.5
100
AcDbLine
 10
-1305.037169910765
 20
1881.433970202267
 30
0.0
 11
-1304.040975212674
 21
1881.521125945014
 31
0.0
  0
LINE
  5
16CE7
330
1A
100
AcDbEntity
  8
ZISSEN1
 48
0.5
100
AcDbLine
 10
-1305.037169910765
 20
1881.433970202267
 30
0.0
 11
-1305.037169910765
 21
1887.733970202267
 31
0.0
  0
ARC
  5
16CE8
330
1A
100
AcDbEntity
  8
ZISSEN1
 48
0.5
100
AcDbCircle
 10
-1308.195117386639
 20
1884.583970202267
 30
0.0
 40
5.158339171762671
100
AcDbArc
 50
323.570738502659
 51
36.42926149734098
  0
LINE
  5
16CEC
330
1A
100
AcDbEntity
  8
ZISSEN1
 48
0.5
100
AcDbLine
 10
-1322.237169910767
 20
1825.733970202266
 30
0.0
 11
-1323.233364608858
 21
1825.646814459519
 31
0.0
  0
LINE
  5
16CED
330
1A
100
AcDbEntity
  8
ZISSEN1
 48
0.5
100
AcDbLine
 10
-1322.237169910767
 20
1819.433970202267
 30
0.0
 11
-1323.233364608858
 21
1819.521125945014
 31
0.0
  0
LINE
  5
16CEE
330
1A
100
AcDbEntity
  8
ZISSEN1
 48
0.5
100
AcDbLine
 10
-1322.237169910767
 20
1819.433970202267
 30
0.0
 11
-1322.237169910767
 21
1825.733970202266
 31
0.0
  0
ARC
  5
16CEF
330
1A
100
AcDbEntity
  8
ZISSEN1
 48
0.5
100
AcDbCircle
 10
-1319.079222434895
 20
1822.583970202267
 30
0.0
 40
5.158339171762671
100
AcDbArc
 50
143.570738502659
 51
216.429261497341
  0
LINE
  5
16CF3
330
1A
100
AcDbEntity
  8
ZISSEN1
 48
0.5
100
AcDbLine
 10
-1305.037169910766
 20
1825.733970202266
 30
0.0
 11
-1304.040975212675
 21
1825.646814459519
 31
0.0
  0
LINE
  5
16CF4
330
1A
100
AcDbEntity
  8
ZISSEN1
 48
0.5
100
AcDbLine
 10
-1305.037169910766
 20
1819.433970202267
 30
0.0
 11
-1304.040975212675
 21
1819.521125945014
 31
0.0
  0
LINE
  5
16CF5
330
1A
100
AcDbEntity
  8
ZISSEN1
 48
0.5
100
AcDbLine
 10
-1305.037169910766
 20
1819.433970202267
 30
0.0
 11
-1305.037169910766
 21
1825.733970202266
 31
0.0
  0
ARC
  5
16CF6
330
1A
100
AcDbEntity
  8
ZISSEN1
 48
0.5
100
AcDbCircle
 10
-1308.19511738664
 20
1822.583970202267
 30
0.0
 40
5.158339171762671
100
AcDbArc
 50
323.570738502659
 51
36.42926149734098
  0
LINE
  5
16D00
330
1A
100
AcDbEntity
  8
ZISSEN1
 48
0.5
100
AcDbLine
 10
-1311.037169910764
 20
1887.75939668281
 30
0.0
 11
-1311.037169910765
 21
1881.408543721723
 31
0.0
  0
LINE
  5
16D01
330
1A
100
AcDbEntity
  8
ZISSEN1
 48
0.5
100
AcDbLine
 10
-1311.037169910764
 20
1884.583970202267
 30
0.0
 11
-1307.037169910764
 21
1884.583970202267
 31
0.0
  0
LINE
  5
16D02
330
1A
100
AcDbEntity
  8
ZISSEN1
 48
0.5
100
AcDbLine
 10
-1311.037169910765
 20
1881.408543721723
 30
0.0
 11
-1307.037169910765
 21
1881.408543721723
 31
0.0
  0
LINE
  5
16D03
330
1A
100
AcDbEntity
  8
ZISSEN1
 48
0.5
100
AcDbLine
 10
-1311.037169910764
 20
1887.75939668281
 30
0.0
 11
-1307.037169910764
 21
1887.75939668281
 31
0.0
  0
LINE
  5
16D0D
330
1A
100
AcDbEntity
  8
ZISSEN1
 48
0.5
100
AcDbLine
 10
-1333.737169910764
 20
1885.983970202268
 30
0.0
 11
-1333.737169910764
 21
1887.483970202268
 31
0.0
  0
LINE
  5
16D0E
330
1A
100
AcDbEntity
  8
ZISSEN1
 48
0.5
100
AcDbLine
 10
-1333.737169910764
 20
1887.483970202268
 30
0.0
 11
-1323.345188094735
 21
1887.483970202266
 31
0.0
  0
LINE
  5
16D10
330
1A
100
AcDbEntity
  8
ZISSEN1
 48
0.5
100
AcDbLine
 10
-1333.737169910764
 20
1880.483970202267
 30
0.0
 11
-1333.737169910764
 21
1887.483970202268
 31
0.0
  0
LINE
  5
16D11
330
1A
100
AcDbEntity
  8
ZISSEN1
 48
0.5
100
AcDbLine
 10
-1333.737169910764
 20
1880.483970202267
 30
0.0
 11
-1322.237169910766
 21
1880.483970202267
 31
0.0
  0
LINE
  5
16D25
330
1A
100
AcDbEntity
  8
ZISSEN1
 48
0.5
100
AcDbLine
 10
-1313.861743430221
 20
1887.75939668281
 30
0.0
 11
-1313.037169910765
 21
1888.583970202267
 31
0.0
  0
LINE
  5
16D28
330
1A
100
AcDbEntity
  8
ZISSEN1
 48
0.5
100
AcDbLine
 10
-1315.037169910765
 20
1881.408543721723
 30
0.0
 11
-1315.037169910765
 21
1879.56583891502
 31
0.0
  0
LINE
  5
16D29
330
1A
100
AcDbEntity
  8
ZISSEN1
 48
0.5
100
AcDbLine
 10
-1324.737169910766
 20
1876.583970202267
 30
0.0
 11
-1328.037169910764
 21
1876.583970202268
 31
0.0
  0
LINE
  5
16D2A
330
1A
100
AcDbEntity
  8
ZISSEN1
 48
0.5
100
AcDbLine
 10
-1315.037169910764
 20
1830.583970202267
 30
0.0
 11
-1320.637169910766
 21
1830.583970202267
 31
0.0
  0
LINE
  5
16D2C
330
1A
100
AcDbEntity
  8
ZISSEN1
 48
0.5
100
AcDbLine
 10
-1315.037169910765
 20
1825.75939668281
 30
0.0
 11
-1315.037169910764
 21
1830.583970202267
 31
0.0
  0
LINE
  5
16D2D
330
1A
100
AcDbEntity
  8
ZISSEN1
 48
0.5
100
AcDbLine
 10
-1313.86174343022
 20
1819.408543721723
 30
0.0
 11
-1313.037169910765
 21
1818.583970202267
 31
0.0
  0
CIRCLE
  5
16D2E
330
1A
100
AcDbEntity
  8
ZISSEN1
 48
0.5
100
AcDbCircle
 10
-1418.537169910764
 20
1884.583970202267
 30
0.0
 40
3.149999999999999
  0
LINE
  5
16D49
330
1A
100
AcDbEntity
  8
ZISSEN1
 48
0.5
100
AcDbLine
 10
-1386.837169910764
 20
1887.483970202266
 30
0.0
 11
-1386.837169910764
 21
1880.683970202267
 31
0.0
  0
LINE
  5
16D4A
330
1A
100
AcDbEntity
  8
ZISSEN1
 48
0.5
100
AcDbLine
 10
-1409.237169910763
 20
1880.683970202267
 30
0.0
 11
-1409.237169910763
 21
1887.483970202266
 31
0.0
  0
LINE
  5
16D5A
330
1A
100
AcDbEntity
  8
ZISSEN1
 48
0.5
100
AcDbLine
 10
-1386.837169910764
 20
1880.683970202267
 30
0.0
 11
-1409.237169910763
 21
1880.683970202267
 31
0.0
  0
LINE
  5
16D68
330
1A
100
AcDbEntity
  8
ZISSEN1
 48
0.5
100
AcDbLine
 10
-1409.237169910763
 20
1887.483970202266
 30
0.0
 11
-1386.837169910764
 21
1887.483970202266
 31
0.0
  0
LINE
  5
16D76
330
1A
100
AcDbEntity
  8
ZISSEN1
 48
0.5
100
AcDbLine
 10
-1388.937195401808
 20
1826.883986231441
 30
0.0
 11
-1388.937195401808
 21
1834.28398623144
 31
0.0
  0
LINE
  5
16D79
330
1A
100
AcDbEntity
  8
ZISSEN1
 48
0.5
100
AcDbLine
 10
-1382.137195401808
 20
1826.883986231441
 30
0.0
 11
-1388.937195401808
 21
1826.883986231441
 31
0.0
  0
LINE
  5
16D83
330
1A
100
AcDbEntity
  8
ZISSEN1
 48
0.5
100
AcDbLine
 10
-1388.937195401808
 20
1834.28398623144
 30
0.0
 11
-1382.137195401808
 21
1834.28398623144
 31
0.0
  0
LINE
  5
16D88
330
1A
100
AcDbEntity
  8
ZISSEN1
 48
0.5
100
AcDbLine
 10
-1382.137195401808
 20
1834.28398623144
 30
0.0
 11
-1382.137195401808
 21
1826.883986231441
 31
0.0
  0
LINE
  5
16D8F
330
1A
100
AcDbEntity
  8
ZISSEN1
 48
0.5
100
AcDbLine
 10
-1386.937169910764
 20
1835.883970202268
 30
0.0
 11
-1386.937169910763
 21
1848.283970202268
 31
0.0
  0
LINE
  5
16D95
330
1A
100
AcDbEntity
  8
ZISSEN1
 48
0.5
100
AcDbLine
 10
-1386.937169910763
 20
1848.283970202268
 30
0.0
 11
-1380.137169910764
 21
1848.283970202268
 31
0.0
  0
LINE
  5
16DAF
330
1A
100
AcDbEntity
  8
ZISSEN1
 48
0.5
100
AcDbLine
 10
-1380.137169910764
 20
1848.283970202268
 30
0.0
 11
-1380.137169910764
 21
1835.883970202268
 31
0.0
  0
LINE
  5
16DB1
330
1A
100
AcDbEntity
  8
ZISSEN1
 48
0.5
100
AcDbLine
 10
-1380.137169910764
 20
1835.883970202268
 30
0.0
 11
-1386.937169910763
 21
1835.883970202268
 31
0.0
  0
LINE
  5
16DB3
330
1A
100
AcDbEntity
  8
ZISSEN1
 48
0.5
100
AcDbLine
 10
-1386.937169910765
 20
1849.383970202268
 30
0.0
 11
-1386.937169910763
 21
1861.783970202267
 31
0.0
  0
LINE
  5
16DB9
330
1A
100
AcDbEntity
  8
ZISSEN1
 48
0.5
100
AcDbLine
 10
-1386.937169910763
 20
1861.783970202267
 30
0.0
 11
-1380.137169910764
 21
1861.783970202267
 31
0.0
  0
LINE
  5
16DD3
330
1A
100
AcDbEntity
  8
ZISSEN1
 48
0.5
100
AcDbLine
 10
-1380.137169910764
 20
1861.783970202267
 30
0.0
 11
-1380.137169910764
 21
1849.383970202268
 31
0.0
  0
LINE
  5
16DD5
330
1A
100
AcDbEntity
  8
ZISSEN1
 48
0.5
100
AcDbLine
 10
-1380.137169910764
 20
1849.383970202268
 30
0.0
 11
-1386.937169910764
 21
1849.383970202268
 31
0.0
  0
LINE
  5
16DD6
330
1A
100
AcDbEntity
  8
ZISSEN1
 48
0.5
100
AcDbLine
 10
-1333.737169910763
 20
1832.28838623144
 30
0.0
 11
-1333.737169910763
 21
1834.28838623144
 31
0.0
  0
LINE
  5
16DD7
330
1A
100
AcDbEntity
  8
ZISSEN1
 48
0.5
100
AcDbLine
 10
-1333.737169910763
 20
1834.28838623144
 30
0.0
 11
-1322.237169910763
 21
1834.28838623144
 31
0.0
  0
LINE
  5
16DD8
330
1A
100
AcDbEntity
  8
ZISSEN1
 48
0.5
100
AcDbLine
 10
-1333.737169910763
 20
1828.888386231441
 30
0.0
 11
-1333.737169910763
 21
1826.888386231441
 31
0.0
  0
LINE
  5
16DD9
330
1A
100
AcDbEntity
  8
ZISSEN1
 48
0.5
100
AcDbLine
 10
-1333.737169910763
 20
1826.888386231441
 30
0.0
 11
-1322.237169910763
 21
1826.888386231441
 31
0.0
  0
LINE
  5
16DF4
330
1A
100
AcDbEntity
  8
ZISSEN1
 48
0.5
100
AcDbLine
 10
-1333.737169910763
 20
1826.888386231441
 30
0.0
 11
-1333.737169910763
 21
1834.28838623144
 31
0.0
  0
LINE
  5
16DF5
330
1A
100
AcDbEntity
  8
ZISSEN1
 48
0.5
100
AcDbLine
 10
-1333.737169910763
 20
1834.28838623144
 30
0.0
 11
-1332.737169910763
 21
1834.28838623144
 31
0.0
  0
LINE
  5
16E42
330
1A
100
AcDbEntity
  8
ZISSEN1
 48
0.5
100
AcDbLine
 10
-1324.137169910766
 20
1846.283970202268
 30
0.0
 11
-1324.137169910766
 21
1848.283970202268
 31
0.0
  0
LINE
  5
16E43
330
1A
100
AcDbEntity
  8
ZISSEN1
 48
0.5
100
AcDbLine
 10
-1324.137169910766
 20
1848.283970202268
 30
0.0
 11
-1312.637169910766
 21
1848.283970202268
 31
0.0
  0
LINE
  5
16E44
330
1A
100
AcDbEntity
  8
ZISSEN1
 48
0.5
100
AcDbLine
 10
-1324.137169910766
 20
1837.883970202268
 30
0.0
 11
-1324.137169910766
 21
1835.883970202268
 31
0.0
  0
LINE
  5
16E45
330
1A
100
AcDbEntity
  8
ZISSEN1
 48
0.5
100
AcDbLine
 10
-1324.137169910766
 20
1835.883970202268
 30
0.0
 11
-1312.637169910766
 21
1835.883970202268
 31
0.0
  0
LINE
  5
16E78
330
1A
100
AcDbEntity
  8
ZISSEN1
 48
0.5
100
AcDbLine
 10
-1324.137169910766
 20
1835.883970202268
 30
0.0
 11
-1324.137169910766
 21
1848.283970202268
 31
0.0
  0
LINE
  5
16E79
330
1A
100
AcDbEntity
  8
ZISSEN1
 48
0.5
100
AcDbLine
 10
-1324.137169910766
 20
1848.283970202268
 30
0.0
 11
-1323.137169910766
 21
1848.283970202268
 31
0.0
  0
LINE
  5
16ED9
330
1A
100
AcDbEntity
  8
ZISSEN1
 48
0.5
100
AcDbLine
 10
-1324.137169910766
 20
1859.783970202268
 30
0.0
 11
-1324.137169910766
 21
1861.783970202267
 31
0.0
  0
LINE
  5
16EDA
330
1A
100
AcDbEntity
  8
ZISSEN1
 48
0.5
100
AcDbLine
 10
-1324.137169910766
 20
1861.783970202267
 30
0.0
 11
-1312.637169910766
 21
1861.783970202267
 31
0.0
  0
LINE
  5
16EDB
330
1A
100
AcDbEntity
  8
ZISSEN1
 48
0.5
100
AcDbLine
 10
-1324.137169910766
 20
1851.383970202268
 30
0.0
 11
-1324.137169910766
 21
1849.383970202268
 31
0.0
  0
LINE
  5
16EDC
330
1A
100
AcDbEntity
  8
ZISSEN1
 48
0.5
100
AcDbLine
 10
-1324.137169910766
 20
1849.383970202268
 30
0.0
 11
-1312.637169910766
 21
1849.383970202268
 31
0.0
  0
LINE
  5
16F0F
330
1A
100
AcDbEntity
  8
ZISSEN1
 48
0.5
100
AcDbLine
 10
-1324.137169910766
 20
1849.383970202268
 30
0.0
 11
-1324.137169910766
 21
1861.783970202267
 31
0.0
  0
LINE
  5
16F10
330
1A
100
AcDbEntity
  8
ZISSEN1
 48
0.5
100
AcDbLine
 10
-1324.137169910766
 20
1861.783970202267
 30
0.0
 11
-1323.137169910766
 21
1861.783970202267
 31
0.0
  0
LINE
  5
16F73
330
1A
100
AcDbEntity
  8
ZISSEN1
 48
0.5
100
AcDbLine
 10
-1387.537169910763
 20
1880.583970202266
 30
0.0
 11
-1387.537169910763
 21
1835.083970202266
 31
0.0
  0
LINE
  5
16F74
330
1A
100
AcDbEntity
  8
ZISSEN1
 48
0.5
100
AcDbLine
 10
-1387.537169910763
 20
1835.083970202266
 30
0.0
 11
-1380.037169910764
 21
1835.083970202266
 31
0.0
  0
LINE
  5
16F75
330
1A
100
AcDbEntity
  8
ZISSEN1
 48
0.5
100
AcDbLine
 10
-1387.537169910763
 20
1880.583970202266
 30
0.0
 11
-1380.037169910762
 21
1880.583970202264
 31
0.0
  0
CIRCLE
  5
16F7B
330
1A
100
AcDbEntity
  8
ZISSEN1
 48
0.5
100
AcDbCircle
 10
-1316.637169910766
 20
1875.88583891502
 30
0.0
 40
1.7
  0
CIRCLE
  5
16F7D
330
1A
100
AcDbEntity
  8
ZISSEN1
 48
0.5
100
AcDbCircle
 10
-1316.637169910766
 20
1875.88583891502
 30
0.0
 40
1.75
  0
LINE
  5
16F7E
330
1A
100
AcDbEntity
  8
ZISSEN1
 48
0.5
100
AcDbLine
 10
-1320.237169910766
 20
1878.98583891502
 30
0.0
 11
-1320.237169910766
 21
1872.78583891502
 31
0.0
  0
LINE
  5
16F86
330
1A
100
AcDbEntity
  8
ZISSEN1
 48
0.5
100
AcDbLine
 10
-1319.337169910765
 20
1872.20583891502
 30
0.0
 11
-1313.935155910765
 21
1872.20583891502
 31
0.0
  0
LINE
  5
16F8C
330
1A
100
AcDbEntity
  8
ZISSEN1
 48
0.5
100
AcDbLine
 10
-1313.930819910765
 20
1872.585838915021
 30
0.0
 11
-1312.637169910766
 21
1872.585838915021
 31
0.0
  0
LINE
  5
16F8D
330
1A
100
AcDbEntity
  8
ZISSEN1
 48
0.5
100
AcDbLine
 10
-1313.937169910766
 20
1872.20583891502
 30
0.0
 11
-1313.930819910765
 21
1872.585838915021
 31
0.0
  0
ARC
  5
16FC3
330
1A
100
AcDbEntity
  8
ZISSEN1
 48
0.5
100
AcDbCircle
 10
-1320.037169910765
 20
1872.78583891502
 30
0.0
 40
0.2
100
AcDbArc
 50
179.9999950217034
 51
269.999983835205
  0
LINE
  5
16FC8
330
1A
100
AcDbEntity
  8
ZISSEN1
 48
0.5
100
AcDbLine
 10
-1320.037169910765
 20
1872.585838915021
 30
0.0
 11
-1319.343521910766
 21
1872.585838915021
 31
0.0
  0
LINE
  5
16FCA
330
1A
100
AcDbEntity
  8
ZISSEN1
 48
0.5
100
AcDbLine
 10
-1319.337169910765
 20
1872.20583891502
 30
0.0
 11
-1319.343521910766
 21
1872.585838915021
 31
0.0
  0
LINE
  5
16FE7
330
1A
100
AcDbEntity
  8
ZISSEN1
 48
0.5
100
AcDbLine
 10
-1319.337169910765
 20
1879.56583891502
 30
0.0
 11
-1313.935155910765
 21
1879.56583891502
 31
0.0
  0
LINE
  5
16FED
330
1A
100
AcDbEntity
  8
ZISSEN1
 48
0.5
100
AcDbLine
 10
-1313.930819910765
 20
1879.185838915019
 30
0.0
 11
-1312.637169910766
 21
1879.185838915019
 31
0.0
  0
LINE
  5
16FFF
330
1A
100
AcDbEntity
  8
ZISSEN1
 48
0.5
100
AcDbLine
 10
-1313.937169910766
 20
1879.56583891502
 30
0.0
 11
-1313.930819910765
 21
1879.185838915019
 31
0.0
  0
LINE
  5
17008
330
1A
100
AcDbEntity
  8
ZISSEN1
 48
0.5
100
AcDbLine
 10
-1320.037169910765
 20
1879.185838915019
 30
0.0
 11
-1319.343521910766
 21
1879.185838915019
 31
0.0
  0
LINE
  5
1700C
330
1A
100
AcDbEntity
  8
ZISSEN1
 48
0.5
100
AcDbLine
 10
-1319.337169910765
 20
1879.56583891502
 30
0.0
 11
-1319.343521910766
 21
1879.185838915019
 31
0.0
  0
ARC
  5
1700D
330
1A
100
AcDbEntity
  8
ZISSEN1
 48
0.5
100
AcDbCircle
 10
-1320.037169910765
 20
1878.98583891502
 30
0.0
 40
0.2
100
AcDbArc
 50
90.00001616489916
 51
180.0000049782966
  0
LWPOLYLINE
  5
17027
330
1A
100
AcDbEntity
  8
ZISSEN1
 48
0.5
100
AcDbPolyline
 90
        4
 70
     1
 43
0.0
 10
-1395.417169910763
 20
1870.685838915021
 10
-1395.417169910763
 20
1864.085838915021
 10
-1390.337169910763
 20
1864.085838915021
 10
-1390.337169910763
 20
1870.685838915021
  0
LWPOLYLINE
  5
17030
330
1A
100
AcDbEntity
  8
ZISSEN1
 48
0.5
100
AcDbPolyline
 90
        4
 70
     1
 43
0.0
 10
-1395.577169910763
 20
1870.685838915021
 10
-1395.577169910763
 20
1864.085838915021
 10
-1390.177169910763
 20
1864.085838915021
 10
-1390.177169910763
 20
1870.685838915021
  0
LWPOLYLINE
  5
17049
330
1A
100
AcDbEntity
  8
ZISSEN1
 48
0.5
100
AcDbPolyline
 90
        4
 70
     1
 43
0.0
 10
-1395.417169910763
 20
1878.785838915021
 10
-1395.417169910763
 20
1872.185838915021
 10
-1390.337169910763
 20
1872.185838915021
 10
-1390.337169910763
 20
1878.785838915021
  0
LWPOLYLINE
  5
17052
330
1A
100
AcDbEntity
  8
ZISSEN1
 48
0.5
100
AcDbPolyline
 90
        4
 70
     1
 43
0.0
 10
-1395.577169910763
 20
1878.785838915021
 10
-1395.577169910763
 20
1872.185838915021
 10
-1390.177169910763
 20
1872.185838915021
 10
-1390.177169910763
 20
1878.785838915021
  0
CIRCLE
  5
1705E
330
1A
100
AcDbEntity
  8
ZISSEN1
 48
0.5
100
AcDbCircle
 10
-1316.637169910766
 20
1867.58583891502
 30
0.0
 40
1.7
  0
CIRCLE
  5
17060
330
1A
100
AcDbEntity
  8
ZISSEN1
 48
0.5
100
AcDbCircle
 10
-1316.637169910766
 20
1867.58583891502
 30
0.0
 40
1.75
  0
LINE
  5
17061
330
1A
100
AcDbEntity
  8
ZISSEN1
 48
0.5
100
AcDbLine
 10
-1320.237169910766
 20
1870.68583891502
 30
0.0
 11
-1320.237169910766
 21
1864.48583891502
 31
0.0
  0
LINE
  5
17069
330
1A
100
AcDbEntity
  8
ZISSEN1
 48
0.5
100
AcDbLine
 10
-1319.337169910765
 20
1863.90583891502
 30
0.0
 11
-1313.935155910765
 21
1863.90583891502
 31
0.0
  0
LINE
  5
1706F
330
1A
100
AcDbEntity
  8
ZISSEN1
 48
0.5
100
AcDbLine
 10
-1313.930819910765
 20
1864.28583891502
 30
0.0
 11
-1312.637169910766
 21
1864.28583891502
 31
0.0
  0
ARC
  5
170A6
330
1A
100
AcDbEntity
  8
ZISSEN1
 48
0.5
100
AcDbCircle
 10
-1320.037169910765
 20
1864.48583891502
 30
0.0
 40
0.2
100
AcDbArc
 50
179.9999950217034
 51
269.999983835205
  0
LINE
  5
170AB
330
1A
100
AcDbEntity
  8
ZISSEN1
 48
0.5
100
AcDbLine
 10
-1320.037169910765
 20
1864.28583891502
 30
0.0
 11
-1319.343521910766
 21
1864.28583891502
 31
0.0
  0
LINE
  5
170AD
330
1A
100
AcDbEntity
  8
ZISSEN1
 48
0.5
100
AcDbLine
 10
-1319.337169910765
 20
1863.90583891502
 30
0.0
 11
-1319.343521910766
 21
1864.28583891502
 31
0.0
  0
LINE
  5
170CA
330
1A
100
AcDbEntity
  8
ZISSEN1
 48
0.5
100
AcDbLine
 10
-1319.337169910765
 20
1871.26583891502
 30
0.0
 11
-1313.935155910765
 21
1871.26583891502
 31
0.0
  0
LINE
  5
170D0
330
1A
100
AcDbEntity
  8
ZISSEN1
 48
0.5
100
AcDbLine
 10
-1313.930819910765
 20
1870.885838915019
 30
0.0
 11
-1312.637169910766
 21
1870.885838915019
 31
0.0
  0
LINE
  5
170E2
330
1A
100
AcDbEntity
  8
ZISSEN1
 48
0.5
100
AcDbLine
 10
-1313.937169910766
 20
1871.26583891502
 30
0.0
 11
-1313.930819910765
 21
1870.885838915019
 31
0.0
  0
LINE
  5
170EB
330
1A
100
AcDbEntity
  8
ZISSEN1
 48
0.5
100
AcDbLine
 10
-1320.037169910765
 20
1870.885838915019
 30
0.0
 11
-1319.343521910766
 21
1870.885838915019
 31
0.0
  0
LINE
  5
170EF
330
1A
100
AcDbEntity
  8
ZISSEN1
 48
0.5
100
AcDbLine
 10
-1319.337169910765
 20
1871.26583891502
 30
0.0
 11
-1319.343521910766
 21
1870.885838915019
 31
0.0
  0
ARC
  5
170F0
330
1A
100
AcDbEntity
  8
ZISSEN1
 48
0.5
100
AcDbCircle
 10
-1320.037169910765
 20
1870.68583891502
 30
0.0
 40
0.2
100
AcDbArc
 50
90.00001616489916
 51
180.0000049782966
  0
LINE
  5
170F8
330
1A
100
AcDbEntity
  8
ZISSEN1
 48
0.5
100
AcDbLine
 10
-1328.037169910764
 20
1879.165838915021
 30
0.0
 11
-1328.037169910764
 21
1876.583970202268
 31
0.0
  0
LINE
  5
170FB
330
1A
100
AcDbEntity
  8
ZISSEN1
 48
0.5
100
AcDbLine
 10
-1382.287169910763
 20
1879.585838915019
 30
0.0
 11
-1385.887169910764
 21
1879.585838915019
 31
0.0
  0
LINE
  5
170FC
330
1A
100
AcDbEntity
  8
ZISSEN1
 48
0.5
100
AcDbLine
 10
-1385.887169910764
 20
1872.18583891502
 30
0.0
 11
-1382.287169910763
 21
1872.18583891502
 31
0.0
  0
LINE
  5
170FD
330
1A
100
AcDbEntity
  8
ZISSEN1
 48
0.5
100
AcDbLine
 10
-1382.287169910763
 20
1872.18583891502
 30
0.0
 11
-1382.287169910763
 21
1879.585838915019
 31
0.0
  0
LINE
  5
17104
330
1A
100
AcDbEntity
  8
ZISSEN1
 48
0.5
100
AcDbLine
 10
-1385.887169910764
 20
1872.18583891502
 30
0.0
 11
-1385.887169910764
 21
1879.585838915019
 31
0.0
  0
LINE
  5
17116
330
1A
100
AcDbEntity
  8
ZISSEN1
 48
0.5
100
AcDbLine
 10
-1382.287169910763
 20
1871.285838915019
 30
0.0
 11
-1385.887169910764
 21
1871.285838915019
 31
0.0
  0
LINE
  5
17117
330
1A
100
AcDbEntity
  8
ZISSEN1
 48
0.5
100
AcDbLine
 10
-1385.887169910764
 20
1863.885838915019
 30
0.0
 11
-1382.287169910763
 21
1863.885838915019
 31
0.0
  0
LINE
  5
17118
330
1A
100
AcDbEntity
  8
ZISSEN1
 48
0.5
100
AcDbLine
 10
-1382.287169910763
 20
1863.885838915019
 30
0.0
 11
-1382.287169910763
 21
1871.285838915019
 31
0.0
  0
LINE
  5
1711F
330
1A
100
AcDbEntity
  8
ZISSEN1
 48
0.5
100
AcDbLine
 10
-1385.887169910764
 20
1863.885838915019
 30
0.0
 11
-1385.887169910764
 21
1871.285838915019
 31
0.0
  0
CIRCLE
  5
1712F
330
1A
100
AcDbEntity
  8
ZISSEN1
 48
0.5
100
AcDbCircle
 10
-1418.537169910764
 20
1822.583970202267
 30
0.0
 40
3.149999999999999
  0
ARC
  5
1713C
330
1A
100
AcDbEntity
  8
ZISSEN1
 48
0.5
100
AcDbCircle
 10
-1379.037169910763
 20
1880.583970202266
 30
0.0
 40
0.999999999998181
100
AcDbArc
 50
89.99999999989578
 51
180.0000000001042
  0
ARC
  5
1713D
330
1A
100
AcDbEntity
  8
ZISSEN1
 48
0.5
100
AcDbCircle
 10
-1379.037169910763
 20
1835.083970202266
 30
0.0
 40
1.0
100
AcDbArc
 50
180.0
 51
270.0
  0
LWPOLYLINE
  5
1713E
330
1A
100
AcDbEntity
  8
ZISSEN1
 48
0.5
100
AcDbPolyline
 90
        4
 70
     1
 43
0.0
 10
-1392.239816275152
 20
1860.479491905982
 10
-1390.239816275152
 20
1860.479491905982
 10
-1390.239816275152
 20
1861.979491905982
 10
-1392.239816275152
 20
1861.979491905982
  0
LWPOLYLINE
  5
1713F
330
1A
100
AcDbEntity
  8
ZISSEN1
 48
0.5
100
AcDbPolyline
 90
        4
 70
     1
 43
0.0
 10
-1392.239816275152
 20
1857.979491905982
 10
-1390.239816275152
 20
1857.979491905982
 10
-1390.239816275152
 20
1859.479491905982
 10
-1392.239816275152
 20
1859.479491905982
  0
LINE
  5
17143
330
1A
100
AcDbEntity
  8
ZISSEN1
 48
0.5
100
AcDbLine
 10
-1387.537169910763
 20
1776.316336980645
 30
0.0
 11
-1389.037169910763
 21
1776.316336980645
 31
0.0
  0
LINE
  5
17144
330
1A
100
AcDbEntity
  8
ZISSEN1
 48
0.5
100
AcDbLine
 10
-1389.037169910763
 20
1776.316336980645
 30
0.0
 11
-1389.037169910763
 21
1764.816336980645
 31
0.0
  0
LINE
  5
17146
330
1A
100
AcDbEntity
  8
ZISSEN1
 48
0.5
100
AcDbLine
 10
-1382.137195401808
 20
1776.316336980645
 30
0.0
 11
-1389.037169910763
 21
1776.316336980645
 31
0.0
  0
LINE
  5
1718A
330
1A
100
AcDbEntity
  8
ZISSEN1
 48
0.5
100
AcDbLine
 10
-1414.037169910764
 20
1825.583973123034
 30
0.0
 11
-1414.037169910764
 21
1820.083970202265
 31
0.0
  0
LINE
  5
1718B
330
1A
100
AcDbEntity
  8
ZISSEN1
 48
0.5
100
AcDbLine
 10
-1401.037169910762
 20
1828.583973123035
 30
0.0
 11
-1411.037169910763
 21
1828.583973123035
 31
0.0
  0
LINE
  5
1718C
330
1A
100
AcDbEntity
  8
ZISSEN1
 48
0.5
100
AcDbLine
 10
-1398.037169910762
 20
1825.583973123034
 30
0.0
 11
-1398.037169910762
 21
1820.083970202268
 31
0.0
  0
LINE
  5
1718D
330
1A
100
AcDbEntity
  8
ZISSEN1
 48
0.5
100
AcDbLine
 10
-1414.037169910764
 20
1825.583973123034
 30
0.0
 11
-1411.037169910763
 21
1828.583973123035
 31
0.0
  0
LINE
  5
1718E
330
1A
100
AcDbEntity
  8
ZISSEN1
 48
0.5
100
AcDbLine
 10
-1401.037169910762
 20
1828.583973123035
 30
0.0
 11
-1398.037169910762
 21
1825.583973123034
 31
0.0
  0
LINE
  5
173EE
330
1A
100
AcDbEntity
  8
ZISSEN1
 48
0.5
100
AcDbLine
 10
-1421.687169910763
 20
1764.816336980646
 30
0.0
 11
-1421.600014168016
 21
1765.812531678737
 31
0.0
  0
LINE
  5
173EF
330
1A
100
AcDbEntity
  8
ZISSEN1
 48
0.5
100
AcDbLine
 10
-1415.387169910764
 20
1764.816336980646
 30
0.0
 11
-1415.474325653511
 21
1765.812531678737
 31
0.0
  0
LINE
  5
173F0
330
1A
100
AcDbEntity
  8
ZISSEN1
 48
0.5
100
AcDbLine
 10
-1415.387169910764
 20
1764.816336980646
 30
0.0
 11
-1421.687169910763
 21
1764.816336980646
 31
0.0
  0
ARC
  5
173F1
330
1A
100
AcDbEntity
  8
ZISSEN1
 48
0.5
100
AcDbCircle
 10
-1418.537169910764
 20
1761.658389504773
 30
0.0
 40
5.158339171762671
100
AcDbArc
 50
53.57073850265901
 51
126.4292614973409
  0
ARC
  5
1748E
330
1A
100
AcDbEntity
  8
ZISSEN1
 48
0.5
100
AcDbCircle
 10
-1414.037169910764
 20
1819.083970202267
 30
0.0
 40
0.999999999998181
100
AcDbArc
 50
89.99999999989578
 51
180.0000000001042
  0
ARC
  5
1748F
330
1A
100
AcDbEntity
  8
ZISSEN1
 48
0.5
100
AcDbCircle
 10
-1398.037169910762
 20
1819.083970202267
 30
0.0
 40
1.000000000000454
100
AcDbArc
 50
0.0000000000521102
 51
90.0
  0
LINE
  5
17604
330
1A
100
AcDbEntity
  8
ZISSEN1
100
AcDbLine
 10
-1324.737169910766
 20
1878.785838915021
 30
0.0
 11
-1322.237169910766
 21
1878.785838915021
 31
0.0
  0
LINE
  5
17605
330
1A
100
AcDbEntity
  8
ZISSEN1
100
AcDbLine
 10
-1324.737169910766
 20
1878.785838915021
 30
0.0
 11
-1324.737169910766
 21
1872.185838915021
 31
0.0
  0
LINE
  5
17606
330
1A
100
AcDbEntity
  8
ZISSEN1
100
AcDbLine
 10
-1324.737169910766
 20
1872.185838915021
 30
0.0
 11
-1322.237169910766
 21
1872.185838915021
 31
0.0
  0
LINE
  5
17607
330
1A
100
AcDbEntity
  8
ZISSEN1
100
AcDbLine
 10
-1322.237169910766
 20
1870.685838915021
 30
0.0
 11
-1324.737169910766
 21
1870.685838915021
 31
0.0
  0
LINE
  5
17608
330
1A
100
AcDbEntity
  8
ZISSEN1
100
AcDbLine
 10
-1324.737169910766
 20
1870.685838915021
 30
0.0
 11
-1324.737169910766
 21
1864.085838915021
 31
0.0
  0
LINE
  5
17609
330
1A
100
AcDbEntity
  8
ZISSEN1
100
AcDbLine
 10
-1324.737169910766
 20
1864.085838915021
 30
0.0
 11
-1322.237169910766
 21
1864.085838915021
 31
0.0
  0
CIRCLE
  5
17610
330
1A
100
AcDbEntity
  8
ZISSEN1
 48
0.5
100
AcDbCircle
 10
-1337.037169910765
 20
1883.583970202267
 30
0.0
 40
1.75
  0
LINE
  5
1762B
330
1A
100
AcDbEntity
  8
ZISSEN1
 48
0.5
100
AcDbLine
 10
-1313.937169910766
 20
1863.90583891502
 30
0.0
 11
-1313.930819910765
 21
1864.28583891502
 31
0.0
  0
LINE
  5
1762C
330
1A
100
AcDbEntity
  8
ZISSEN1
 48
0.5
100
AcDbLine
 10
-1313.937169910766
 20
1863.90583891502
 30
0.0
 11
-1313.930819910765
 21
1864.28583891502
 31
0.0
  0
LINE
  5
17630
330
1A
100
AcDbEntity
  8
ZISSEN1
100
AcDbLine
 10
-1320.637169910766
 20
1887.75939668281
 30
0.0
 11
-1320.637169910766
 21
1861.783970202267
 31
0.0
  0
LINE
  5
17631
330
1A
100
AcDbEntity
  8
ZISSEN1
100
AcDbLine
 10
-1322.237169910766
 20
1887.733970202267
 30
0.0
 11
-1322.237169910766
 21
1861.783970202267
 31
0.0
  0
LINE
  5
17658
330
1A
100
AcDbEntity
  8
ZISSEN1
100
AcDbLine
 10
-1382.137195401808
 20
1766.716336980646
 30
0.0
 11
-1382.137195401808
 21
1776.316336980645
 31
0.0
  0
LINE
  5
1766B
330
1A
100
AcDbEntity
  8
CL1
100
AcDbLine
 10
-1429.317334492134
 20
1823.583970202267
 30
0.0
 11
-1424.526499666744
 21
1823.583970202267
 31
0.0
  0
LINE
  5
17672
330
1A
100
AcDbEntity
  8
CL1
100
AcDbLine
 10
-1339.80759599515
 20
1823.583970202267
 30
0.0
 11
-1334.292471118691
 21
1823.583970202267
 31
0.0
  0
LINE
  5
17676
330
1A
100
AcDbEntity
  8
CL1
100
AcDbLine
 10
-1337.037169910765
 20
1826.467251798973
 30
0.0
 11
-1337.037169910765
 21
1820.61536802225
 31
0.0
  0
LINE
  5
17679
330
1A
100
AcDbEntity
  8
CL1
100
AcDbLine
 10
-1337.037169910765
 20
1886.221607130759
 30
0.0
 11
-1337.037169910765
 21
1880.93330417206
 31
0.0
  0
LINE
  5
1767A
330
1A
100
AcDbEntity
  8
CL1
100
AcDbLine
 10
-1339.80759599515
 20
1883.583970202267
 30
0.0
 11
-1334.292471118691
 21
1883.583970202267
 31
0.0
  0
LINE
  5
1767C
330
1A
100
AcDbEntity
  8
CL1
100
AcDbLine
 10
-1429.317334492134
 20
1883.583970202267
 30
0.0
 11
-1424.526499666744
 21
1883.583970202267
 31
0.0
  0
LINE
  5
1767F
330
1A
100
AcDbEntity
  8
CL1
100
AcDbLine
 10
-1429.317334492134
 20
1779.616336980646
 30
0.0
 11
-1424.526499666744
 21
1779.616336980646
 31
0.0
  0
LINE
  5
176CD
330
1A
100
AcDbEntity
  8
ZISSEN1
100
AcDbLine
 10
-1415.037169910762
 20
1764.816336980646
 30
0.0
 11
-1415.037169910762
 21
1763.216336980646
 31
0.0
  0
LINE
  5
176CE
330
1A
100
AcDbEntity
  8
ZISSEN1
100
AcDbLine
 10
-1414.037169910762
 20
1764.816336980646
 30
0.0
 11
-1414.037169910762
 21
1763.216336980646
 31
0.0
  0
LINE
  5
176CF
330
1A
100
AcDbEntity
  8
ZISSEN1
100
AcDbLine
 10
-1398.037169910762
 20
1764.816336980646
 30
0.0
 11
-1398.037169910762
 21
1763.216336980646
 31
0.0
  0
LINE
  5
176D1
330
1A
100
AcDbEntity
  8
ZISSEN1
100
AcDbLine
 10
-1397.037169910761
 20
1764.816336980646
 30
0.0
 11
-1397.037169910761
 21
1763.216336980646
 31
0.0
  0
DIMENSION
  5
176D2
330
1A
100
AcDbEntity
  8
ZISSEN1
100
AcDbDimension
  2
*D1
 10
-1426.037169910763
 20
1794.827702431951
 30
0.0
 11
-1417.870503244097
 21
1797.577702431951
 31
0.0
 70
    32
  3
標準スタイル
100
AcDbAlignedDimension
 13
-1428.037169910763
 23
1786.616336980645
 33
0.0
 14
-1426.037169910763
 24
1786.616336980645
 34
0.0
100
AcDbRotatedDimension
1001
ACAD
1000
DSTYLE
1002
{
1070
   340
1005
10
1070
    40
1040
1.0
1002
}
  0
DIMENSION
  5
176F6
330
1A
100
AcDbEntity
  8
ZISSEN1
100
AcDbDimension
  2
*D2
 10
-1378.537169910764
 20
1897.939165060813
 30
0.0
 11
-1403.287169910764
 21
1900.689165060812
 31
0.0
 70
    32
  3
標準スタイル
100
AcDbAlignedDimension
 13
-1428.037169910763
 23
1888.583970202267
 33
0.0
 14
-1378.537169910764
 24
1886.583970202267
 34
0.0
100
AcDbRotatedDimension
1001
ACAD
1000
DSTYLE
1002
{
1070
   140
1040
3.5
1070
   340
1005
10
1070
    40
1040
1.0
1002
}
  0
DIMENSION
  5
177BA
330
1A
100
AcDbEntity
  8
ZISSEN1
100
AcDbDimension
  2
*D3
 10
-1354.485393272646
 20
1823.583970202267
 30
0.0
 11
-1357.235393272647
 21
1821.083970202267
 31
0.0
 70
    32
  3
標準スタイル
100
AcDbAlignedDimension
 13
-1342.037169910764
 23
1818.583970202267
 33
0.0
 14
-1338.787169910764
 24
1823.583970202267
 34
0.0
 50
90.0
100
AcDbRotatedDimension
1001
ACAD
1000
DSTYLE
1002
{
1070
   340
1005
10
1070
    40
1040
1.0
1002
}
  0
DIMENSION
  5
177C9
330
1A
100
AcDbEntity
  8
ZISSEN1
100
AcDbDimension
  2
*D4
 10
-1354.485393272646
 20
1883.583970202267
 30
0.0
 11
-1357.235393272647
 21
1853.583970202267
 31
0.0
 70
    32
  3
標準スタイル
100
AcDbAlignedDimension
 13
-1338.787169910764
 23
1823.583970202267
 33
0.0
 14
-1339.80759599515
 24
1883.583970202267
 34
0.0
 50
90.0
100
AcDbRotatedDimension
1001
ACAD
1000
DSTYLE
1002
{
1070
   287
1070
     4
1070
   340
1005
10
1070
    40
1040
1.0
1070
   279
1070
     1
1002
}
  0
DIMENSION
  5
177D6
330
1A
100
AcDbEntity
  8
ZISSEN1
100
AcDbDimension
  2
*D5
 10
-1354.485393272646
 20
1888.583970202267
 30
0.0
 11
-1357.235393272647
 21
1886.083970202267
 31
0.0
 70
    32
  1
<>
  3
標準スタイル
100
AcDbAlignedDimension
 13
-1339.80759599515
 23
1883.583970202267
 33
0.0
 14
-1342.037169910764
 24
1888.583970202267
 34
0.0
 50
90.0
100
AcDbRotatedDimension
1001
ACAD
1000
DSTYLE
1002
{
1070
   287
1070
     4
1070
   340
1005
10
1070
    40
1040
1.0
1070
   279
1070
     1
1002
}
  0
DIMENSION
  5
17804
330
1A
100
AcDbEntity
  8
ZISSEN1
100
AcDbDimension
  2
*D6
 10
-1337.037169910765
 20
1808.240719255677
 30
0.0
 11
-1340.537169910764
 21
1810.990719255677
 31
0.0
 70
    32
  3
標準スタイル
100
AcDbAlignedDimension
 13
-1344.037169910764
 23
1820.583970202268
 33
0.0
 14
-1337.037169910765
 24
1820.61536802225
 34
0.0
100
AcDbRotatedDimension
1001
ACAD
1000
DSTYLE
1002
{
1070
   340
1005
10
1070
    40
1040
1.0
1002
}
  0
DIMENSION
  5
17813
330
1A
100
AcDbEntity
  8
ZISSEN1
100
AcDbDimension
  2
*D7
 10
-1305.037169910766
 20
1808.240719255677
 30
0.0
 11
-1321.037169910765
 21
1810.990719255677
 31
0.0
 70
    32
  3
標準スタイル
100
AcDbAlignedDimension
 13
-1337.037169910765
 23
1820.61536802225
 33
0.0
 14
-1305.037169910766
 24
1819.433970202267
 34
0.0
100
AcDbRotatedDimension
1001
ACAD
1000
DSTYLE
1002
{
1070
   287
1070
     4
1070
   340
1005
10
1070
    40
1040
1.0
1070
   279
1070
     1
1002
}
  0
DIMENSION
  5
1782D
330
1A
100
AcDbEntity
  8
ZISSEN1
100
AcDbDimension
  2
*D8
 10
-1305.037169910766
 20
1798.688964281316
 30
0.0
 11
-1324.537169910765
 21
1801.438964281316
 31
0.0
 70
    32
  3
標準スタイル
100
AcDbAlignedDimension
 13
-1344.037169910764
 23
1820.583970202268
 33
0.0
 14
-1305.037169910766
 24
1818.583970202267
 34
0.0
100
AcDbRotatedDimension
1001
ACAD
1000
DSTYLE
1002
{
1070
   340
1005
10
1070
    40
1040
1.0
1002
}
  0
DIMENSION
  5
1783E
330
1A
100
AcDbEntity
  8
SUNPOU
100
AcDbDimension
  2
*D9
 10
-1302.537169910765
 20
1788.859154837254
 30
0.0
 11
-1323.287169910765
 21
1791.609154837254
 31
0.0
 70
    32
  3
標準スタイル
100
AcDbAlignedDimension
 13
-1344.037169910764
 23
1820.083970202268
 33
0.0
 14
-1302.537169910765
 24
1822.583970202267
 34
0.0
100
AcDbRotatedDimension
1001
ACAD
1000
DSTYLE
1002
{
1070
   340
1005
10
1070
    40
1040
1.0
1002
}
  0
DIMENSION
  5
1784C
330
1A
100
AcDbEntity
  8
SUNPOU
100
AcDbDimension
  2
*D10
 10
-1302.537169910765
 20
1798.688964281316
 30
0.0
 11
-1289.703836577432
 21
1801.438964281316
 31
0.0
 70
    32
  1
(2.5)
  3
標準スタイル
100
AcDbAlignedDimension
 13
-1305.037169910765
 23
1798.688964281316
 33
0.0
 14
-1302.537169910765
 24
1798.688964281316
 34
0.0
100
AcDbRotatedDimension
1001
ACAD
1000
DSTYLE
1002
{
1070
   340
1005
10
1070
    40
1040
1.0
1002
}
  0
LEADER
  5
17859
330
1A
100
AcDbEntity
  8
SUNPOU
100
AcDbLeader
  3
標準スタイル
 76
     3
 10
-1337.037169910765
 20
1883.583970202267
 30
0.0
 10
-1344.667403462366
 20
1898.291797883143
 30
0.0
 10
-1358.263653861742
 20
1898.291797883143
 30
0.0
1001
ACAD
1000
DSTYLE
1002
{
1070
     5
1000

1070
    77
1070
     0
1070
   147
1040
1.0
1002
}
  0
VIEWPORT
  5
15177
330
15176
100
AcDbEntity
 67
     1
  8
0
100
AcDbViewport
 10
241.6027182947348
 20
153.8263111828653
 30
0.0
 40
575.6055179245058
 41
323.0191303120644
 68
     1
 69
     1
1001
ACAD
1000
MVIEW
1002
{
1070
    16
1010
0.0
1020
0.0
1030
0.0
1010
0.0
1020
0.0
1030
1.0
1040
0.0
1040
323.0191303120644
1040
241.6027182947348
1040
153.8263111828653
1040
50.0
1040
0.0
1040
0.0
1070
     0
1070
   100
1070
     1
1070
     0
1070
     0
1070
     0
1070
     0
1070
     0
1040
0.0
1040
0.0
1040
0.0
1040
1.0
1040
1.0
1040
10.0
1040
10.0
1070
     0
1002
{
1002
}
1002
}
  0
VIEWPORT
  5
15178
330
15176
100
AcDbEntity
 67
     1
  8
ZISSEN1
100
AcDbViewport
 10
221.7861955525412
 20
157.6960273330388
 30
0.0
 40
385.4999999999997
 41
259.9999999999999
 68
     2
 69
     2
1001
ACAD
1000
MVIEW
1002
{
1070
    16
1010
0.0
1020
0.0
1030
0.0
1010
0.0
1020
0.0
1030
1.0
1040
0.0
1040
259.9999999999999
1040
-1366.912294825606
1040
1816.135030694146
1040
50.0
1040
0.0
1040
0.0
1070
     0
1070
   100
1070
     1
1070
     0
1070
     0
1070
     0
1070
     0
1070
     0
1040
0.0
1040
0.0
1040
0.0
1040
1.0
1040
1.0
1040
10.0
1040
10.0
1070
     0
1002
{
1002
}
1002
}
  0
TEXT
  5
15179
330
15176
100
AcDbEntity
 67
     1
  8
SUNPOU
 62
     0
100
AcDbText
 10
374.1863124306944
 20
60.86794705907585
 30
0.0
 40
3.5
  1
縮尺 1/1
100
AcDbText
  0
ENDSEC
  0
SECTION
  2
OBJECTS
  0
DICTIONARY
  5
C
330
0
100
AcDbDictionary
  3
ACAD_GROUP
350
D
  3
ACAD_LAYOUT
350
5C7D
  3
ACAD_MLINESTYLE
350
E
  3
ACAD_PLOTSETTINGS
350
5C7E
  3
ACAD_PLOTSTYLENAME
350
5C7B
  3
ACADDIM
350
17867
  3
ACDBVARIABLEDICTIONARY
350
13217
  3
DWGPROPS
350
5E8E
  3
ACDBHEADERROUNDTRIPXREC
350
178C6
  0
DICTIONARY
  5
15F03
330
2
100
AcDbDictionary
280
     1
  3
ACAD_LAYERFILTERS
360
15F04
  0
DICTIONARY
  5
178E6
330
1A
100
AcDbDictionary
280
     1
  3
ACAD_LAYOUTSELFREF
360
178E7
  0
DICTIONARY
  5
178E8
330
15176
100
AcDbDictionary
280
     1
  3
ACAD_LAYOUTSELFREF
360
178E9
  0
DICTIONARY
  5
D
102
{ACAD_REACTORS
330
C
102
}
330
C
100
AcDbDictionary
  3
*A1
350
477D
  3
*A2
350
4C17
  3
*A3
350
477E
  3
*A4
350
477F
  3
*A5
350
4780
  3
*A6
350
4781
  3
*A7
350
13853
  3
*A8
350
4C0E
  3
*A9
350
4C0F
  3
*A10
350
4C10
  3
*A11
350
4C11
  3
*A12
350
4C12
  3
*A13
350
4C13
  3
*A14
350
4C14
  3
*A15
350
4C15
  3
*A16
350
4C16
  0
DICTIONARY
  5
5C7D
102
{ACAD_REACTORS
330
C
102
}
330
C
100
AcDbDictionary
  0
DICTIONARY
  5
E
102
{ACAD_REACTORS
330
C
102
}
330
C
100
AcDbDictionary
  3
STANDARD
350
13
  0
DICTIONARY
  5
5C7E
102
{ACAD_REACTORS
330
C
102
}
330
C
100
AcDbDictionary
  0
ACDBDICTIONARYWDFLT
  5
5C7B
102
{ACAD_REACTORS
330
C
102
}
330
C
100
AcDbDictionary
281
     1
  3
Normal
350
5C7C
100
AcDbDictionaryWithDefault
340
5C7C
  0
XRECORD
  5
17867
102
{ACAD_REACTORS
330
C
102
}
330
C
100
AcDbXrecord
 90
   990106
  3

 60
     0
 61
     0
 62
     1
 63
     3
 64
     0
 65
     0
 66
     0
 67
     3
 68
     1
 69
     0
 70
     0
 71
     0
 72
     0
 40
0.0
170
     0
  0
DICTIONARY
  5
13217
102
{ACAD_REACTORS
330
C
102
}
330
C
100
AcDbDictionary
  3
SORTENTS
350
13218
  0
XRECORD
  5
5E8E
102
{ACAD_REACTORS
330
C
102
}
330
C
100
AcDbXrecord
  1
DWGPROPS COOKIE
  2

  3

  4

  6

  7

  8

  9

300
=
301
=
302
=
303
=
304
=
305
=
306
=
307
=
308
=
309
=
 40
0.586753587962963
 41
2450495.493631365
 42
2453208.662277431
  1

 90
        0
  0
DICTIONARY
  5
178C6
102
{ACAD_REACTORS
330
C
102
}
330
C
100
AcDbDictionary
  3
TSTACKALIGN
350
178C7
  3
TSTACKSIZE
350
178C8
  3
HYPERLINKBASE
350
178C9
  3
STYLESHEET
350
178CA
  3
LAYOUTDICT
350
178CB
  3
PLOTSETDICT
350
178CC
  3
PLOTSTYLNAMDICT
350
178CD
  3
LWETCUNION
350
178CE
  3
INSUNITS
350
178CF
  3
CEPSNTYPE
350
178D0
  3
FINGERPRINTGUID
350
178D1
  3
VERSIONGUID
350
178D2
  3
PSVPSCALE
350
178D3
  3
PUCSORTHOREF
350
178D4
  3
PUCSORTHOVIEW
350
178D5
  3
PUCSBASE
350
178D6
  3
PUCSORGTOP
350
178D7
  3
PUCSORGBOTTOM
350
178D8
  3
PUCSORGLEFT
350
178D9
  3
PUCSORGRIGHT
350
178DA
  3
PUCSORGFRONT
350
178DB
  3
PUCSORGBACK
350
178DC
  3
UCSORTHOREF
350
178DD
  3
UCSORTHOVIEW
350
178DE
  3
UCSBASE
350
178DF
  3
UCSORGTOP
350
178E0
  3
UCSORGBOTTOM
350
178E1
  3
UCSORGLEFT
350
178E2
  3
UCSORGRIGHT
350
178E3
  3
UCSORGFRONT
350
178E4
  3
UCSORGBACK
350
178E5
  0
DICTIONARY
  5
15F04
102
{ACAD_REACTORS
330
15F03
102
}
330
15F03
100
AcDbDictionary
280
     1
  3
BASE
360
15F05
  3
CASE
360
15F06
  3
KIKOU
360
15F07
  0
XRECORD
  5
178E7
102
{ACAD_REACTORS
330
178E6
102
}
330
178E6
100
AcDbXrecord
340
1A
  0
XRECORD
  5
178E9
102
{ACAD_REACTORS
330
178E8
102
}
330
178E8
100
AcDbXrecord
340
15176
  0
GROUP
  5
477D
102
{ACAD_REACTORS
330
D
102
}
330
D
100
AcDbGroup
300

 70
     1
 71
     1
  0
GROUP
  5
4C17
102
{ACAD_REACTORS
330
D
102
}
330
D
100
AcDbGroup
300

 70
     1
 71
     1
  0
GROUP
  5
477E
102
{ACAD_REACTORS
330
D
102
}
330
D
100
AcDbGroup
300

 70
     1
 71
     1
  0
GROUP
  5
477F
102
{ACAD_REACTORS
330
D
102
}
330
D
100
AcDbGroup
300

 70
     1
 71
     1
  0
GROUP
  5
4780
102
{ACAD_REACTORS
330
D
102
}
330
D
100
AcDbGroup
300

 70
     1
 71
     1
  0
GROUP
  5
4781
102
{ACAD_REACTORS
330
D
102
}
330
D
100
AcDbGroup
300

 70
     1
 71
     1
  0
GROUP
  5
13853
102
{ACAD_REACTORS
330
D
102
}
330
D
100
AcDbGroup
300

 70
     1
 71
     1
  0
GROUP
  5
4C0E
102
{ACAD_REACTORS
330
D
102
}
330
D
100
AcDbGroup
300

 70
     1
 71
     1
  0
GROUP
  5
4C0F
102
{ACAD_REACTORS
330
D
102
}
330
D
100
AcDbGroup
300

 70
     1
 71
     1
  0
GROUP
  5
4C10
102
{ACAD_REACTORS
330
D
102
}
330
D
100
AcDbGroup
300

 70
     1
 71
     1
  0
GROUP
  5
4C11
102
{ACAD_REACTORS
330
D
102
}
330
D
100
AcDbGroup
300

 70
     1
 71
     1
  0
GROUP
  5
4C12
102
{ACAD_REACTORS
330
D
102
}
330
D
100
AcDbGroup
300

 70
     1
 71
     1
  0
GROUP
  5
4C13
102
{ACAD_REACTORS
330
D
102
}
330
D
100
AcDbGroup
300

 70
     1
 71
     1
  0
GROUP
  5
4C14
102
{ACAD_REACTORS
330
D
102
}
330
D
100
AcDbGroup
300

 70
     1
 71
     1
  0
GROUP
  5
4C15
102
{ACAD_REACTORS
330
D
102
}
330
D
100
AcDbGroup
300

 70
     1
 71
     1
  0
GROUP
  5
4C16
102
{ACAD_REACTORS
330
D
102
}
330
D
100
AcDbGroup
300

 70
     1
 71
     1
  0
MLINESTYLE
  5
13
102
{ACAD_REACTORS
330
E
102
}
330
E
100
AcDbMlineStyle
  2
STANDARD
 70
     0
  3

 62
     0
 51
90.0
 52
90.0
 71
     2
 49
0.5
 62
   256
  6
BYLAYER
 49
-0.5
 62
   256
  6
BYLAYER
  0
ACDBPLACEHOLDER
  5
5C7C
102
{ACAD_REACTORS
330
5C7B
102
}
330
5C7B
100
AcDbPlaceHolder
280
     0
  0
DICTIONARYVAR
  5
13218
102
{ACAD_REACTORS
330
13217
102
}
330
13217
100
DictionaryVariables
280
     0
  1
96
  0
XRECORD
  5
178C7
102
{ACAD_REACTORS
330
178C6
102
}
330
178C6
100
AcDbXrecord
 90
        1
  0
XRECORD
  5
178C8
102
{ACAD_REACTORS
330
178C6
102
}
330
178C6
100
AcDbXrecord
 90
       70
  0
XRECORD
  5
178C9
102
{ACAD_REACTORS
330
178C6
102
}
330
178C6
100
AcDbXrecord
  1

  0
XRECORD
  5
178CA
102
{ACAD_REACTORS
330
178C6
102
}
330
178C6
100
AcDbXrecord
  1

  0
XRECORD
  5
178CB
102
{ACAD_REACTORS
330
178C6
102
}
330
178C6
100
AcDbXrecord
340
5C7D
  0
XRECORD
  5
178CC
102
{ACAD_REACTORS
330
178C6
102
}
330
178C6
100
AcDbXrecord
340
5C7E
  0
XRECORD
  5
178CD
102
{ACAD_REACTORS
330
178C6
102
}
330
178C6
100
AcDbXrecord
340
5C7B
  0
XRECORD
  5
178CE
102
{ACAD_REACTORS
330
178C6
102
}
330
178C6
100
AcDbXrecord
 90
    10781
  0
XRECORD
  5
178CF
102
{ACAD_REACTORS
330
178C6
102
}
330
178C6
100
AcDbXrecord
 90
        0
  0
XRECORD
  5
178D0
102
{ACAD_REACTORS
330
178C6
102
}
330
178C6
100
AcDbXrecord
 90
        0
  0
XRECORD
  5
178D1
102
{ACAD_REACTORS
330
178C6
102
}
330
178C6
100
AcDbXrecord
  1
{225A7F0D-DA29-11D8-946A-0000E2416295}
  0
XRECORD
  5
178D2
102
{ACAD_REACTORS
330
178C6
102
}
330
178C6
100
AcDbXrecord
  1
{5AD527B8-D25D-4A27-9A2F-5B702E94BCB1}
  0
XRECORD
  5
178D3
102
{ACAD_REACTORS
330
178C6
102
}
330
178C6
100
AcDbXrecord
 40
0.0
  0
XRECORD
  5
178D4
102
{ACAD_REACTORS
330
178C6
102
}
330
178C6
100
AcDbXrecord
340
0
  0
XRECORD
  5
178D5
102
{ACAD_REACTORS
330
178C6
102
}
330
178C6
100
AcDbXrecord
 70
     0
  0
XRECORD
  5
178D6
102
{ACAD_REACTORS
330
178C6
102
}
330
178C6
100
AcDbXrecord
340
0
  0
XRECORD
  5
178D7
102
{ACAD_REACTORS
330
178C6
102
}
330
178C6
100
AcDbXrecord
 10
0.0
 20
0.0
 30
0.0
  0
XRECORD
  5
178D8
102
{ACAD_REACTORS
330
178C6
102
}
330
178C6
100
AcDbXrecord
 10
0.0
 20
0.0
 30
0.0
  0
XRECORD
  5
178D9
102
{ACAD_REACTORS
330
178C6
102
}
330
178C6
100
AcDbXrecord
 10
0.0
 20
0.0
 30
0.0
  0
XRECORD
  5
178DA
102
{ACAD_REACTORS
330
178C6
102
}
330
178C6
100
AcDbXrecord
 10
0.0
 20
0.0
 30
0.0
  0
XRECORD
  5
178DB
102
{ACAD_REACTORS
330
178C6
102
}
330
178C6
100
AcDbXrecord
 10
0.0
 20
0.0
 30
0.0
  0
XRECORD
  5
178DC
102
{ACAD_REACTORS
330
178C6
102
}
330
178C6
100
AcDbXrecord
 10
0.0
 20
0.0
 30
0.0
  0
XRECORD
  5
178DD
102
{ACAD_REACTORS
330
178C6
102
}
330
178C6
100
AcDbXrecord
340
0
  0
XRECORD
  5
178DE
102
{ACAD_REACTORS
330
178C6
102
}
330
178C6
100
AcDbXrecord
 70
     0
  0
XRECORD
  5
178DF
102
{ACAD_REACTORS
330
178C6
102
}
330
178C6
100
AcDbXrecord
340
0
  0
XRECORD
  5
178E0
102
{ACAD_REACTORS
330
178C6
102
}
330
178C6
100
AcDbXrecord
 10
0.0
 20
0.0
 30
0.0
  0
XRECORD
  5
178E1
102
{ACAD_REACTORS
330
178C6
102
}
330
178C6
100
AcDbXrecord
 10
0.0
 20
0.0
 30
0.0
  0
XRECORD
  5
178E2
102
{ACAD_REACTORS
330
178C6
102
}
330
178C6
100
AcDbXrecord
 10
0.0
 20
0.0
 30
0.0
  0
XRECORD
  5
178E3
102
{ACAD_REACTORS
330
178C6
102
}
330
178C6
100
AcDbXrecord
 10
0.0
 20
0.0
 30
0.0
  0
XRECORD
  5
178E4
102
{ACAD_REACTORS
330
178C6
102
}
330
178C6
100
AcDbXrecord
 10
0.0
 20
0.0
 30
0.0
  0
XRECORD
  5
178E5
102
{ACAD_REACTORS
330
178C6
102
}
330
178C6
100
AcDbXrecord
 10
0.0
 20
0.0
 30
0.0
  0
XRECORD
  5
15F05
102
{ACAD_REACTORS
330
15F04
102
}
330
15F04
100
AcDbXrecord
  1
BASE
  1
BASE*
  1
*
  1
*
 70
     0
  1
*
  1
*
  0
XRECORD
  5
15F06
102
{ACAD_REACTORS
330
15F04
102
}
330
15F04
100
AcDbXrecord
  1
CASE
  1
CASE*
  1
*
  1
*
 70
     0
  1
*
  1
*
  0
XRECORD
  5
15F07
102
{ACAD_REACTORS
330
15F04
102
}
330
15F04
100
AcDbXrecord
  1
KIKOU
  1
KIKOU*
  1
*
  1
*
 70
     0
  1
*
  1
*
  0
ENDSEC
  0
EOF
