  0
SECTION
  2
HEADER
  9
$ACADVER
  1
AC1014
  9
$ACADMAINTVER
 70
     9
  9
$DWGCODEPAGE
  3
ANSI_932
  9
$INSBASE
 10
0.0
 20
0.0
 30
0.0
  9
$EXTMIN
 10
-1714.245843274112
 20
1535.206474799647
 30
0.0
  9
$EXTMAX
 10
-1549.323597757144
 20
1682.641964649548
 30
0.0
  9
$LIMMIN
 10
0.0
 20
0.0
  9
$LIMMAX
 10
420.0
 20
297.0
  9
$ORTHOMODE
 70
     1
  9
$REGENMODE
 70
     1
  9
$FILLMODE
 70
     1
  9
$QTEXTMODE
 70
     0
  9
$MIRRTEXT
 70
     1
  9
$DRAGMODE
 70
     2
  9
$LTSCALE
 40
1.0
  9
$OSMODE
 70
    37
  9
$ATTMODE
 70
     1
  9
$TEXTSIZE
 40
2.5
  9
$TRACEWID
 40
1.0
  9
$TEXTSTYLE
  7
ゴシック体
  9
$CLAYER
  8
CL1
  9
$CELTYPE
  6
BYLAYER
  9
$CECOLOR
 62
   256
  9
$CELTSCALE
 40
1.0
  9
$DELOBJ
 70
     1
  9
$DISPSILH
 70
     0
  9
$DIMSCALE
 40
0.0
  9
$DIMASZ
 40
3.0
  9
$DIMEXO
 40
0.5
  9
$DIMDLI
 40
0.5
  9
$DIMRND
 40
0.0
  9
$DIMDLE
 40
0.0
  9
$DIMEXE
 40
0.5
  9
$DIMTP
 40
0.0
  9
$DIMTM
 40
0.0
  9
$DIMTXT
 40
3.5
  9
$DIMCEN
 40
0.0
  9
$DIMTSZ
 40
0.0
  9
$DIMTOL
 70
     0
  9
$DIMLIM
 70
     0
  9
$DIMTIH
 70
     0
  9
$DIMTOH
 70
     0
  9
$DIMSE1
 70
     0
  9
$DIMSE2
 70
     0
  9
$DIMTAD
 70
     1
  9
$DIMZIN
 70
     8
  9
$DIMBLK
  1

  9
$DIMASO
 70
     1
  9
$DIMSHO
 70
     1
  9
$DIMPOST
  1

  9
$DIMAPOST
  1

  9
$DIMALT
 70
     0
  9
$DIMALTD
 70
     2
  9
$DIMALTF
 40
25.4
  9
$DIMLFAC
 40
1.0
  9
$DIMTOFL
 70
     1
  9
$DIMTVP
 40
0.0
  9
$DIMTIX
 70
     0
  9
$DIMSOXD
 70
     0
  9
$DIMSAH
 70
     0
  9
$DIMBLK1
  1

  9
$DIMBLK2
  1

  9
$DIMSTYLE
  2
標準スタイル
  9
$DIMCLRD
 70
     1
  9
$DIMCLRE
 70
     1
  9
$DIMCLRT
 70
     1
  9
$DIMTFAC
 40
1.0
  9
$DIMGAP
 40
1.0
  9
$DIMJUST
 70
     0
  9
$DIMSD1
 70
     0
  9
$DIMSD2
 70
     0
  9
$DIMTOLJ
 70
     1
  9
$DIMTZIN
 70
     8
  9
$DIMALTZ
 70
     0
  9
$DIMALTTZ
 70
     0
  9
$DIMFIT
 70
     3
  9
$DIMUPT
 70
     0
  9
$DIMUNIT
 70
     2
  9
$DIMDEC
 70
     2
  9
$DIMTDEC
 70
     2
  9
$DIMALTU
 70
     2
  9
$DIMALTTD
 70
     2
  9
$DIMTXSTY
  7
ゴシック体
  9
$DIMAUNIT
 70
     0
  9
$LUNITS
 70
     2
  9
$LUPREC
 70
     4
  9
$SKETCHINC
 40
1.0
  9
$FILLETRAD
 40
1.0
  9
$AUNITS
 70
     0
  9
$AUPREC
 70
     0
  9
$MENU
  1
.
  9
$ELEVATION
 40
0.0
  9
$PELEVATION
 40
0.0
  9
$THICKNESS
 40
0.0
  9
$LIMCHECK
 70
     0
  9
$BLIPMODE
 70
     0
  9
$CHAMFERA
 40
1.0
  9
$CHAMFERB
 40
1.0
  9
$CHAMFERC
 40
2.0
  9
$CHAMFERD
 40
0.7853981633974483
  9
$SKPOLY
 70
     0
  9
$TDCREATE
 40
2450495.493631365
  9
$TDUPDATE
 40
2458200.718473483
  9
$TDINDWG
 40
2.7520990162
  9
$TDUSRTIMER
 40
2.7520990162
  9
$USRTIMER
 70
     1
  9
$ANGBASE
 50
0.0
  9
$ANGDIR
 70
     0
  9
$PDMODE
 70
    99
  9
$PDSIZE
 40
0.0
  9
$PLINEWID
 40
0.0
  9
$COORDS
 70
     1
  9
$SPLFRAME
 70
     0
  9
$SPLINETYPE
 70
     6
  9
$SPLINESEGS
 70
     8
  9
$ATTDIA
 70
     0
  9
$ATTREQ
 70
     1
  9
$HANDLING
 70
 10241
  9
$HANDSEED
  5
17F53
  9
$SURFTAB1
 70
     6
  9
$SURFTAB2
 70
     6
  9
$SURFTYPE
 70
     6
  9
$SURFU
 70
     6
  9
$SURFV
 70
     6
  9
$UCSNAME
  2

  9
$UCSORG
 10
0.0
 20
0.0
 30
0.0
  9
$UCSXDIR
 10
1.0
 20
0.0
 30
0.0
  9
$UCSYDIR
 10
0.0
 20
1.0
 30
0.0
  9
$PUCSNAME
  2

  9
$PUCSORG
 10
0.0
 20
0.0
 30
0.0
  9
$PUCSXDIR
 10
1.0
 20
0.0
 30
0.0
  9
$PUCSYDIR
 10
0.0
 20
1.0
 30
0.0
  9
$USERI1
 70
     0
  9
$USERI2
 70
     0
  9
$USERI3
 70
     0
  9
$USERI4
 70
     0
  9
$USERI5
 70
     0
  9
$USERR1
 40
0.0
  9
$USERR2
 40
0.0
  9
$USERR3
 40
0.0
  9
$USERR4
 40
0.0
  9
$USERR5
 40
0.0
  9
$WORLDVIEW
 70
     1
  9
$SHADEDGE
 70
     3
  9
$SHADEDIF
 70
    70
  9
$TILEMODE
 70
     0
  9
$MAXACTVP
 70
    16
  9
$PINSBASE
 10
0.0
 20
0.0
 30
0.0
  9
$PLIMCHECK
 70
     0
  9
$PEXTMIN
 10
29.03619555254135
 20
27.69602733303884
 30
0.0
  9
$PEXTMAX
 10
414.5361955525411
 20
287.6960273330388
 30
0.0
  9
$PLIMMIN
 10
15.15433780389673
 20
13.80781516542163
  9
$PLIMMAX
 10
435.1009930773342
 20
310.8184658001872
  9
$UNITMODE
 70
     0
  9
$VISRETAIN
 70
     0
  9
$PLINEGEN
 70
     0
  9
$PSLTSCALE
 70
     1
  9
$TREEDEPTH
 70
  3020
  9
$PICKSTYLE
 70
     1
  9
$CMLSTYLE
  2
STANDARD
  9
$CMLJUST
 70
     0
  9
$CMLSCALE
 40
1.0
  9
$PROXYGRAPHICS
 70
     1
  9
$MEASUREMENT
 70
     0
  0
ENDSEC
  0
SECTION
  2
CLASSES
  0
CLASS
  1
LWPOLYLINE
  2
AcDbPolyline
  3
AutoCAD 2000
 90
        0
280
     0
281
     1
  0
CLASS
  1
HATCH
  2
AcDbHatch
  3
AutoCAD 2000
 90
        0
280
     0
281
     1
  0
CLASS
  1
ACDBDICTIONARYWDFLT
  2
AcDbDictionaryWithDefault
  3
AutoCAD 2000
 90
        0
280
     0
281
     0
  0
CLASS
  1
ACDBPLACEHOLDER
  2
AcDbPlaceHolder
  3
AutoCAD 2000
 90
        0
280
     0
281
     0
  0
CLASS
  1
LAYOUT
  2
AcDbLayout
  3
AutoCAD 2000
 90
        0
280
     0
281
     0
  0
CLASS
  1
DICTIONARYVAR
  2
AcDbDictionaryVar
  3
AutoCAD 2000
 90
        0
280
     0
281
     0
  0
CLASS
  1
LONG_TRANSACTION
  2
AcDbLongTransaction
  3
AutoCAD 2000
 90
        0
280
     0
281
     0
  0
CLASS
  1
LWPOLYLINE
  2
AcDbPolyline
  3
AutoCAD 2000
 90
        0
280
     0
281
     1
  0
CLASS
  1
HATCH
  2
AcDbHatch
  3
AutoCAD 2000
 90
        0
280
     0
281
     1
  0
CLASS
  1
XRECORD
  2
AcDbXrecord
  3
AutoCAD 2000
 90
        0
280
     0
281
     0
  0
ENDSEC
  0
SECTION
  2
TABLES
  0
TABLE
  2
VPORT
  5
8
330
0
100
AcDbSymbolTable
 70
     2
  0
VPORT
  5
17EDC
330
8
100
AcDbSymbolTableRecord
100
AcDbViewportTableRecord
  2
*ACTIVE
 70
     0
 10
0.0
 20
0.0
 11
1.0
 21
1.0
 12
-1631.756143390814
 22
1608.941655747403
 13
0.0
 23
0.0
 14
5.0
 24
5.0
 15
0.0
 25
0.0
 16
0.0
 26
0.0
 36
1.0
 17
0.0
 27
0.0
 37
0.0
 40
149.1637761534138
 41
1.781954887218045
 42
50.0
 43
0.0
 44
0.0
 50
0.0
 51
0.0
 71
     0
 72
   100
 73
     1
 74
     0
 75
     0
 76
     0
 77
     0
 78
     0
  0
ENDTAB
  0
TABLE
  2
LTYPE
  5
5
330
0
100
AcDbSymbolTable
 70
     3
  0
LTYPE
  5
14
330
5
100
AcDbSymbolTableRecord
100
AcDbLinetypeTableRecord
  2
BYBLOCK
 70
     0
  3

 72
    65
 73
     0
 40
0.0
  0
LTYPE
  5
15
330
5
100
AcDbSymbolTableRecord
100
AcDbLinetypeTableRecord
  2
BYLAYER
 70
     0
  3

 72
    65
 73
     0
 40
0.0
  0
LTYPE
  5
16
330
5
100
AcDbSymbolTableRecord
100
AcDbLinetypeTableRecord
  2
CONTINUOUS
 70
     0
  3
Solid line
 72
    65
 73
     0
 40
0.0
  0
LTYPE
  5
1956
330
5
100
AcDbSymbolTableRecord
100
AcDbLinetypeTableRecord
  2
CENTERX2
 70
     0
  3
________  __  ________  __  ________  __  _____
 72
    65
 73
     4
 40
4.0
 49
2.5
 74
     0
 49
-0.5
 74
     0
 49
0.5
 74
     0
 49
-0.5
 74
     0
  0
LTYPE
  5
15F03
330
5
100
AcDbSymbolTableRecord
100
AcDbLinetypeTableRecord
  2
DASHED2
 70
     0
  3
----    ----    ----    ----    
 72
    65
 73
     2
 40
5.0
 49
2.5
 74
     0
 49
-2.5
 74
     0
  0
ENDTAB
  0
TABLE
  2
LAYER
  5
2
330
0
100
AcDbSymbolTable
 70
     5
  0
LAYER
  5
F
330
2
100
AcDbSymbolTableRecord
100
AcDbLayerTableRecord
  2
0
 70
     0
 62
     7
  6
CONTINUOUS
  0
LAYER
  5
18F
330
2
100
AcDbSymbolTableRecord
100
AcDbLayerTableRecord
  2
ZISSEN1
 70
     0
 62
     7
  6
CONTINUOUS
  0
LAYER
  5
529
330
2
100
AcDbSymbolTableRecord
100
AcDbLayerTableRecord
  2
SUNPOU
 70
     0
 62
     1
  6
CONTINUOUS
  0
LAYER
  5
195A
330
2
100
AcDbSymbolTableRecord
100
AcDbLayerTableRecord
  2
CL1
 70
     0
 62
   210
  6
CENTERX2
  0
LAYER
  5
3A9B
330
2
100
AcDbSymbolTableRecord
100
AcDbLayerTableRecord
  2
DEFPOINTS
 70
     0
 62
     7
  6
CONTINUOUS
  0
ENDTAB
  0
TABLE
  2
STYLE
  5
3
330
0
100
AcDbSymbolTable
 70
     2
  0
STYLE
  5
10
330
3
100
AcDbSymbolTableRecord
100
AcDbTextStyleTableRecord
  2
STANDARD
 70
     0
 40
0.0
 41
1.0
 50
0.0
 71
     0
 42
3.0
  3
txt
  4
BigFont
  0
STYLE
  5
1960
330
3
100
AcDbSymbolTableRecord
100
AcDbTextStyleTableRecord
  2
ゴシック体
 70
     0
 40
0.0
 41
1.0
 50
0.0
 71
     0
 42
2.5
  3
MS Gothic.ttf
  4

1001
ACAD
1000
MS Gothic
1071
    32817
  0
ENDTAB
  0
TABLE
  2
VIEW
  5
6
330
0
100
AcDbSymbolTable
 70
     0
  0
ENDTAB
  0
TABLE
  2
UCS
  5
7
330
0
100
AcDbSymbolTable
 70
     0
  0
ENDTAB
  0
TABLE
  2
APPID
  5
9
330
0
100
AcDbSymbolTable
 70
     5
  0
APPID
  5
11
330
9
100
AcDbSymbolTableRecord
100
AcDbRegAppTableRecord
  2
ACAD
 70
     0
  0
APPID
  5
4005
330
9
100
AcDbSymbolTableRecord
100
AcDbRegAppTableRecord
  2
CONTENTTABDATA
 70
     0
  0
APPID
  5
4006
330
9
100
AcDbSymbolTableRecord
100
AcDbRegAppTableRecord
  2
CONTENTCURRENTTAB
 70
     0
  0
APPID
  5
477B
330
9
100
AcDbSymbolTableRecord
100
AcDbRegAppTableRecord
  2
CONTENTBLOCKDESCRIPTION
 70
     0
  0
APPID
  5
477C
330
9
100
AcDbSymbolTableRecord
100
AcDbRegAppTableRecord
  2
CONTENTBLOCKICON
 70
     0
  0
ENDTAB
  0
TABLE
  2
DIMSTYLE
  5
A
330
0
100
AcDbSymbolTable
 70
     2
  0
DIMSTYLE
105
1D
330
A
100
AcDbSymbolTableRecord
100
AcDbDimStyleTableRecord
  2
STANDARD
 70
     0
  3

  4

  5

  6

  7

 40
1.0
 41
0.18
 42
0.0625
 43
0.38
 44
0.18
 45
0.0
 46
0.0
 47
0.0
 48
0.0
140
0.18
141
0.09
142
0.0
143
25.4
144
1.0
145
0.0
146
1.0
147
0.09
 71
     0
 72
     0
 73
     1
 74
     1
 75
     0
 76
     0
 77
     0
 78
     0
170
     0
171
     2
172
     0
173
     0
174
     0
175
     0
176
     0
177
     0
178
     0
270
     2
271
     4
272
     4
273
     2
274
     2
340
10
275
     0
280
     0
281
     0
282
     0
283
     1
284
     0
285
     0
286
     0
287
     3
288
     0
  0
DIMSTYLE
105
52E
102
{ACAD_REACTORS
330
16D6C
330
16D79
330
16D9C
330
16DB2
330
16DBF
330
16DCE
330
16DDB
330
16E09
330
16DFA
330
16E16
330
16DEB
330
16E4B
330
16E65
102
}
330
A
100
AcDbSymbolTableRecord
100
AcDbDimStyleTableRecord
  2
標準スタイル
 70
     0
  3

  4

  5

  6

  7

 40
0.0
 41
3.0
 42
0.5
 43
0.5
 44
0.5
 45
0.0
 46
0.0
 47
0.0
 48
0.0
140
3.5
141
0.0
142
0.0
143
25.4
144
1.0
145
0.0
146
1.0
147
1.0
 71
     0
 72
     0
 73
     0
 74
     0
 75
     0
 76
     0
 77
     1
 78
     8
170
     0
171
     2
172
     1
173
     0
174
     0
175
     0
176
     1
177
     1
178
     1
270
     2
271
     2
272
     2
273
     2
274
     2
340
1960
275
     0
280
     0
281
     0
282
     0
283
     1
284
     8
285
     0
286
     0
287
     3
288
     0
  0
ENDTAB
  0
TABLE
  2
BLOCK_RECORD
  5
1
330
0
100
AcDbSymbolTable
 70
    13
  0
BLOCK_RECORD
  5
1A
102
{ACAD_XDICTIONARY
360
17EFD
102
}
330
1
100
AcDbSymbolTableRecord
100
AcDbBlockTableRecord
  2
*MODEL_SPACE
  0
BLOCK_RECORD
  5
15176
102
{ACAD_XDICTIONARY
360
17EFF
102
}
330
1
100
AcDbSymbolTableRecord
100
AcDbBlockTableRecord
  2
*PAPER_SPACE
  0
BLOCK_RECORD
  5
16D6D
330
1
100
AcDbSymbolTableRecord
100
AcDbBlockTableRecord
  2
*D0
  0
BLOCK_RECORD
  5
16D7A
330
1
100
AcDbSymbolTableRecord
100
AcDbBlockTableRecord
  2
*D1
  0
BLOCK_RECORD
  5
16D9D
330
1
100
AcDbSymbolTableRecord
100
AcDbBlockTableRecord
  2
*D2
  0
BLOCK_RECORD
  5
16DB3
330
1
100
AcDbSymbolTableRecord
100
AcDbBlockTableRecord
  2
*D3
  0
BLOCK_RECORD
  5
16DC0
330
1
100
AcDbSymbolTableRecord
100
AcDbBlockTableRecord
  2
*D4
  0
BLOCK_RECORD
  5
16DCF
330
1
100
AcDbSymbolTableRecord
100
AcDbBlockTableRecord
  2
*D5
  0
BLOCK_RECORD
  5
16DDC
330
1
100
AcDbSymbolTableRecord
100
AcDbBlockTableRecord
  2
*D6
  0
BLOCK_RECORD
  5
16DEC
330
1
100
AcDbSymbolTableRecord
100
AcDbBlockTableRecord
  2
*D7
  0
BLOCK_RECORD
  5
16DFB
330
1
100
AcDbSymbolTableRecord
100
AcDbBlockTableRecord
  2
*D8
  0
BLOCK_RECORD
  5
16E0A
330
1
100
AcDbSymbolTableRecord
100
AcDbBlockTableRecord
  2
*D9
  0
BLOCK_RECORD
  5
16E17
330
1
100
AcDbSymbolTableRecord
100
AcDbBlockTableRecord
  2
*D10
  0
BLOCK_RECORD
  5
16E4C
330
1
100
AcDbSymbolTableRecord
100
AcDbBlockTableRecord
  2
*D11
  0
BLOCK_RECORD
  5
16E66
330
1
100
AcDbSymbolTableRecord
100
AcDbBlockTableRecord
  2
*D12
  0
ENDTAB
  0
ENDSEC
  0
SECTION
  2
BLOCKS
  0
BLOCK
  5
1B
330
1A
100
AcDbEntity
  8
0
100
AcDbBlockBegin
  2
*MODEL_SPACE
 70
     0
 10
0.0
 20
0.0
 30
0.0
  3
*MODEL_SPACE
  1

  0
ENDBLK
  5
1C
330
1A
100
AcDbEntity
  8
0
100
AcDbBlockEnd
  0
BLOCK
  5
1517A
330
15176
100
AcDbEntity
 67
     1
  8
0
100
AcDbBlockBegin
  2
*PAPER_SPACE
 70
     0
 10
0.0
 20
0.0
 30
0.0
  3
*PAPER_SPACE
  1

  0
ENDBLK
  5
1517B
330
15176
100
AcDbEntity
 67
     1
  8
0
100
AcDbBlockEnd
  0
BLOCK
  5
16D77
330
16D6D
100
AcDbEntity
  8
0
100
AcDbBlockBegin
  2
*D0
 70
     1
 10
0.0
 20
0.0
 30
0.0
  3
*D0
  1

  0
LINE
  5
16E72
330
16D6D
100
AcDbEntity
  8
SUNPOU
 62
     1
100
AcDbLine
 10
-1702.993862689297
 20
1670.414028050738
 30
0.0
 11
-1710.245843274112
 21
1670.414028050738
 31
0.0
  0
LINE
  5
16E73
330
16D6D
100
AcDbEntity
  8
SUNPOU
 62
     1
100
AcDbLine
 10
-1702.993862689297
 20
1595.414028050738
 30
0.0
 11
-1710.245843274112
 21
1595.414028050738
 31
0.0
  0
LINE
  5
16E74
330
16D6D
100
AcDbEntity
  8
SUNPOU
 62
     1
100
AcDbLine
 10
-1709.745843274112
 20
1667.414028050738
 30
0.0
 11
-1709.745843274112
 21
1598.414028050738
 31
0.0
  0
SOLID
  5
16E75
330
16D6D
100
AcDbEntity
  8
SUNPOU
 62
     1
100
AcDbTrace
 10
-1710.245843274112
 20
1667.414028050738
 30
0.0
 11
-1709.245843274112
 21
1667.414028050738
 31
0.0
 12
-1709.745843274112
 22
1670.414028050738
 32
0.0
 13
-1709.745843274112
 23
1670.414028050738
 33
0.0
  0
SOLID
  5
16E76
330
16D6D
100
AcDbEntity
  8
SUNPOU
 62
     1
100
AcDbTrace
 10
-1710.245843274112
 20
1598.414028050738
 30
0.0
 11
-1709.245843274112
 21
1598.414028050738
 31
0.0
 12
-1709.745843274112
 22
1595.414028050738
 32
0.0
 13
-1709.745843274112
 23
1595.414028050738
 33
0.0
  0
MTEXT
  5
16E77
330
16D6D
100
AcDbEntity
  8
SUNPOU
 62
     1
100
AcDbMText
 10
-1712.495843274112
 20
1632.914028050737
 30
0.0
 40
3.5
 41
0.0
 71
     5
 72
     1
  1
\A1;75
 11
0.0000000000000001
 21
1.0
 31
0.0
1001
ACAD
1000
MTEXTBEGIN
1070
    73
1070
     1
1070
    44
1040
1.0
1070
    74
1070
     0
1000
MTEXTEND
  0
POINT
  5
16E78
330
16D6D
100
AcDbEntity
  8
DEFPOINTS
 62
     0
100
AcDbPoint
 10
-1702.493862689298
 20
1670.414028050738
 30
0.0
  0
POINT
  5
16E79
330
16D6D
100
AcDbEntity
  8
DEFPOINTS
 62
     0
100
AcDbPoint
 10
-1702.493862689298
 20
1595.414028050738
 30
0.0
  0
POINT
  5
16E7A
330
16D6D
100
AcDbEntity
  8
DEFPOINTS
 62
     0
100
AcDbPoint
 10
-1709.745843274112
 20
1595.414028050738
 30
0.0
  0
ENDBLK
  5
16D78
330
16D6D
100
AcDbEntity
  8
0
100
AcDbBlockEnd
  0
BLOCK
  5
16D86
330
16D7A
100
AcDbEntity
  8
0
100
AcDbBlockBegin
  2
*D1
 70
     1
 10
0.0
 20
0.0
 30
0.0
  3
*D1
  1

  0
LINE
  5
16E84
330
16D7A
100
AcDbEntity
  8
SUNPOU
 62
     1
100
AcDbLine
 10
-1702.493862689298
 20
1594.914028050738
 30
0.0
 11
-1702.493862689298
 21
1587.627791160667
 31
0.0
  0
LINE
  5
16E85
330
16D7A
100
AcDbEntity
  8
SUNPOU
 62
     1
100
AcDbLine
 10
-1694.493862689298
 20
1594.414028050738
 30
0.0
 11
-1694.493862689298
 21
1587.627791160667
 31
0.0
  0
LINE
  5
16E86
330
16D7A
100
AcDbEntity
  8
SUNPOU
 62
     1
100
AcDbLine
 10
-1705.493862689298
 20
1588.127791160667
 30
0.0
 11
-1708.493862689297
 21
1588.127791160667
 31
0.0
  0
LINE
  5
16E87
330
16D7A
100
AcDbEntity
  8
SUNPOU
 62
     1
100
AcDbLine
 10
-1691.493862689298
 20
1588.127791160667
 30
0.0
 11
-1688.493862689298
 21
1588.127791160667
 31
0.0
  0
LINE
  5
16E88
330
16D7A
100
AcDbEntity
  8
SUNPOU
 62
     1
100
AcDbLine
 10
-1702.493862689298
 20
1588.127791160667
 30
0.0
 11
-1694.493862689298
 21
1588.127791160667
 31
0.0
  0
SOLID
  5
16E89
330
16D7A
100
AcDbEntity
  8
SUNPOU
 62
     1
100
AcDbTrace
 10
-1705.493862689298
 20
1588.627791160667
 30
0.0
 11
-1705.493862689298
 21
1587.627791160667
 31
0.0
 12
-1702.493862689298
 22
1588.127791160667
 32
0.0
 13
-1702.493862689298
 23
1588.127791160667
 33
0.0
  0
SOLID
  5
16E8A
330
16D7A
100
AcDbEntity
  8
SUNPOU
 62
     1
100
AcDbTrace
 10
-1691.493862689298
 20
1588.627791160667
 30
0.0
 11
-1691.493862689298
 21
1587.627791160667
 31
0.0
 12
-1694.493862689298
 22
1588.127791160667
 32
0.0
 13
-1694.493862689298
 23
1588.127791160667
 33
0.0
  0
MTEXT
  5
16E8B
330
16D7A
100
AcDbEntity
  8
SUNPOU
 62
     1
100
AcDbMText
 10
-1698.493862689297
 20
1590.877791160667
 30
0.0
 40
3.5
 41
0.0
 71
     5
 72
     1
  1
\A1;8
1001
ACAD
1000
MTEXTBEGIN
1070
    73
1070
     1
1070
    44
1040
1.0
1070
    74
1070
     0
1000
MTEXTEND
  0
POINT
  5
16E8C
330
16D7A
100
AcDbEntity
  8
DEFPOINTS
 62
     0
100
AcDbPoint
 10
-1702.493862689298
 20
1595.414028050738
 30
0.0
  0
POINT
  5
16E8D
330
16D7A
100
AcDbEntity
  8
DEFPOINTS
 62
     0
100
AcDbPoint
 10
-1694.493862689298
 20
1594.914028050738
 30
0.0
  0
POINT
  5
16E8E
330
16D7A
100
AcDbEntity
  8
DEFPOINTS
 62
     0
100
AcDbPoint
 10
-1694.493862689298
 20
1588.127791160667
 30
0.0
  0
ENDBLK
  5
16D87
330
16D7A
100
AcDbEntity
  8
0
100
AcDbBlockEnd
  0
BLOCK
  5
16DA7
330
16D9D
100
AcDbEntity
  8
0
100
AcDbBlockBegin
  2
*D2
 70
     1
 10
0.0
 20
0.0
 30
0.0
  3
*D2
  1

  0
LINE
  5
17F01
330
16D9D
100
AcDbEntity
  8
SUNPOU
 62
     1
100
AcDbLine
 10
-1694.493862689298
 20
1594.414028050738
 30
0.0
 11
-1694.493862689298
 21
1587.627791160667
 31
0.0
  0
LINE
  5
17F02
330
16D9D
100
AcDbEntity
  8
SUNPOU
 62
     1
100
AcDbLine
 10
-1637.493862689298
 20
1601.914028050737
 30
0.0
 11
-1637.493862689298
 21
1587.627791160667
 31
0.0
  0
LINE
  5
17F03
330
16D9D
100
AcDbEntity
  8
SUNPOU
 62
     1
100
AcDbLine
 10
-1691.493862689298
 20
1588.127791160667
 30
0.0
 11
-1640.493862689297
 21
1588.127791160667
 31
0.0
  0
SOLID
  5
17F04
330
16D9D
100
AcDbEntity
  8
SUNPOU
 62
     1
100
AcDbTrace
 10
-1691.493862689298
 20
1588.627791160667
 30
0.0
 11
-1691.493862689298
 21
1587.627791160667
 31
0.0
 12
-1694.493862689298
 22
1588.127791160667
 32
0.0
 13
-1694.493862689298
 23
1588.127791160667
 33
0.0
  0
SOLID
  5
17F05
330
16D9D
100
AcDbEntity
  8
SUNPOU
 62
     1
100
AcDbTrace
 10
-1640.493862689297
 20
1588.627791160667
 30
0.0
 11
-1640.493862689297
 21
1587.627791160667
 31
0.0
 12
-1637.493862689298
 22
1588.127791160667
 32
0.0
 13
-1637.493862689298
 23
1588.127791160667
 33
0.0
  0
MTEXT
  5
17F06
330
16D9D
100
AcDbEntity
  8
SUNPOU
 62
     1
100
AcDbMText
 10
-1665.993862689298
 20
1590.877791160667
 30
0.0
 40
3.5
 41
0.0
 71
     5
 72
     1
  1
\A1;57
  0
POINT
  5
17F07
330
16D9D
100
AcDbEntity
  8
DEFPOINTS
 62
     0
100
AcDbPoint
 10
-1694.493862689298
 20
1594.914028050738
 30
0.0
  0
POINT
  5
17F08
330
16D9D
100
AcDbEntity
  8
DEFPOINTS
 62
     0
100
AcDbPoint
 10
-1637.493862689298
 20
1602.414028050737
 30
0.0
  0
POINT
  5
17F09
330
16D9D
100
AcDbEntity
  8
DEFPOINTS
 62
     0
100
AcDbPoint
 10
-1637.493862689298
 20
1588.127791160667
 30
0.0
  0
ENDBLK
  5
16DA8
330
16D9D
100
AcDbEntity
  8
0
100
AcDbBlockEnd
  0
BLOCK
  5
16DBD
330
16DB3
100
AcDbEntity
  8
0
100
AcDbBlockBegin
  2
*D3
 70
     1
 10
0.0
 20
0.0
 30
0.0
  3
*D3
  1

  0
LINE
  5
16E9A
330
16DB3
100
AcDbEntity
  8
SUNPOU
 62
     1
100
AcDbLine
 10
-1690.993862689298
 20
1667.914028050738
 30
0.0
 11
-1629.322397426428
 21
1667.914028050738
 31
0.0
  0
LINE
  5
16E9B
330
16DB3
100
AcDbEntity
  8
SUNPOU
 62
     1
100
AcDbLine
 10
-1690.934005181579
 20
1597.914028050738
 30
0.0
 11
-1629.322397426428
 21
1597.914028050738
 31
0.0
  0
LINE
  5
16E9C
330
16DB3
100
AcDbEntity
  8
SUNPOU
 62
     1
100
AcDbLine
 10
-1629.822397426428
 20
1664.914028050738
 30
0.0
 11
-1629.822397426428
 21
1600.914028050738
 31
0.0
  0
SOLID
  5
16E9D
330
16DB3
100
AcDbEntity
  8
SUNPOU
 62
     1
100
AcDbTrace
 10
-1630.322397426428
 20
1664.914028050738
 30
0.0
 11
-1629.322397426428
 21
1664.914028050738
 31
0.0
 12
-1629.822397426428
 22
1667.914028050738
 32
0.0
 13
-1629.822397426428
 23
1667.914028050738
 33
0.0
  0
SOLID
  5
16E9E
330
16DB3
100
AcDbEntity
  8
SUNPOU
 62
     1
100
AcDbTrace
 10
-1630.322397426428
 20
1600.914028050738
 30
0.0
 11
-1629.322397426428
 21
1600.914028050738
 31
0.0
 12
-1629.822397426428
 22
1597.914028050738
 32
0.0
 13
-1629.822397426428
 23
1597.914028050738
 33
0.0
  0
MTEXT
  5
16E9F
330
16DB3
100
AcDbEntity
  8
SUNPOU
 62
     1
100
AcDbMText
 10
-1632.572397426429
 20
1632.914028050737
 30
0.0
 40
3.5
 41
0.0
 71
     5
 72
     1
  1
\A1;70
 11
0.0000000000000001
 21
1.0
 31
0.0
1001
ACAD
1000
MTEXTBEGIN
1070
    73
1070
     1
1070
    44
1040
1.0
1070
    74
1070
     0
1000
MTEXTEND
  0
POINT
  5
16EA0
330
16DB3
100
AcDbEntity
  8
DEFPOINTS
 62
     0
100
AcDbPoint
 10
-1691.493862689298
 20
1667.914028050738
 30
0.0
  0
POINT
  5
16EA1
330
16DB3
100
AcDbEntity
  8
DEFPOINTS
 62
     0
100
AcDbPoint
 10
-1691.434005181579
 20
1597.914028050738
 30
0.0
  0
POINT
  5
16EA2
330
16DB3
100
AcDbEntity
  8
DEFPOINTS
 62
     0
100
AcDbPoint
 10
-1629.822397426428
 20
1597.914028050738
 30
0.0
  0
ENDBLK
  5
16DBE
330
16DB3
100
AcDbEntity
  8
0
100
AcDbBlockEnd
  0
BLOCK
  5
16DCC
330
16DC0
100
AcDbEntity
  8
0
100
AcDbBlockBegin
  2
*D4
 70
     1
 10
0.0
 20
0.0
 30
0.0
  3
*D4
  1

  0
LINE
  5
16EAC
330
16DC0
100
AcDbEntity
  8
SUNPOU
 62
     1
100
AcDbLine
 10
-1690.18694050646
 20
1670.414028050738
 30
0.0
 11
-1620.124649298288
 21
1670.414028050738
 31
0.0
  0
LINE
  5
16EAD
330
16DC0
100
AcDbEntity
  8
SUNPOU
 62
     1
100
AcDbLine
 10
-1637.993862689298
 20
1664.414028050738
 30
0.0
 11
-1620.124649298288
 21
1664.414028050738
 31
0.0
  0
LINE
  5
16EAE
330
16DC0
100
AcDbEntity
  8
SUNPOU
 62
     1
100
AcDbLine
 10
-1620.624649298288
 20
1673.414028050738
 30
0.0
 11
-1620.624649298288
 21
1676.414028050738
 31
0.0
  0
LINE
  5
16EAF
330
16DC0
100
AcDbEntity
  8
SUNPOU
 62
     1
100
AcDbLine
 10
-1620.624649298288
 20
1661.414028050738
 30
0.0
 11
-1620.624649298288
 21
1658.414028050738
 31
0.0
  0
LINE
  5
16EB0
330
16DC0
100
AcDbEntity
  8
SUNPOU
 62
     1
100
AcDbLine
 10
-1620.624649298288
 20
1670.414028050738
 30
0.0
 11
-1620.624649298288
 21
1664.414028050738
 31
0.0
  0
SOLID
  5
16EB1
330
16DC0
100
AcDbEntity
  8
SUNPOU
 62
     1
100
AcDbTrace
 10
-1621.124649298288
 20
1673.414028050738
 30
0.0
 11
-1620.124649298288
 21
1673.414028050738
 31
0.0
 12
-1620.624649298288
 22
1670.414028050738
 32
0.0
 13
-1620.624649298288
 23
1670.414028050738
 33
0.0
  0
SOLID
  5
16EB2
330
16DC0
100
AcDbEntity
  8
SUNPOU
 62
     1
100
AcDbTrace
 10
-1621.124649298288
 20
1661.414028050738
 30
0.0
 11
-1620.124649298288
 21
1661.414028050738
 31
0.0
 12
-1620.624649298288
 22
1664.414028050738
 32
0.0
 13
-1620.624649298288
 23
1664.414028050738
 33
0.0
  0
MTEXT
  5
16EB3
330
16DC0
100
AcDbEntity
  8
SUNPOU
 62
     1
100
AcDbMText
 10
-1623.374649298289
 20
1667.414028050737
 30
0.0
 40
3.5
 41
0.0
 71
     5
 72
     1
  1
\A1;6
 11
0.0000000000000001
 21
1.0
 31
0.0
1001
ACAD
1000
MTEXTBEGIN
1070
    73
1070
     1
1070
    44
1040
1.0
1070
    74
1070
     0
1000
MTEXTEND
  0
POINT
  5
16EB4
330
16DC0
100
AcDbEntity
  8
DEFPOINTS
 62
     0
100
AcDbPoint
 10
-1690.68694050646
 20
1670.414028050738
 30
0.0
  0
POINT
  5
16EB5
330
16DC0
100
AcDbEntity
  8
DEFPOINTS
 62
     0
100
AcDbPoint
 10
-1638.493862689298
 20
1664.414028050738
 30
0.0
  0
POINT
  5
16EB6
330
16DC0
100
AcDbEntity
  8
DEFPOINTS
 62
     0
100
AcDbPoint
 10
-1620.624649298288
 20
1664.414028050738
 30
0.0
  0
ENDBLK
  5
16DCD
330
16DC0
100
AcDbEntity
  8
0
100
AcDbBlockEnd
  0
BLOCK
  5
16DD9
330
16DCF
100
AcDbEntity
  8
0
100
AcDbBlockBegin
  2
*D5
 70
     1
 10
0.0
 20
0.0
 30
0.0
  3
*D5
  1

  0
LINE
  5
17F0A
330
16DCF
100
AcDbEntity
  8
SUNPOU
 62
     1
100
AcDbLine
 10
-1637.993862689298
 20
1664.414028050738
 30
0.0
 11
-1620.124649298288
 21
1664.414028050738
 31
0.0
  0
LINE
  5
17F0B
330
16DCF
100
AcDbEntity
  8
SUNPOU
 62
     1
100
AcDbLine
 10
-1637.993862689298
 20
1601.414028050737
 30
0.0
 11
-1620.124649298288
 21
1601.414028050737
 31
0.0
  0
LINE
  5
17F0C
330
16DCF
100
AcDbEntity
  8
SUNPOU
 62
     1
100
AcDbLine
 10
-1620.624649298288
 20
1661.414028050738
 30
0.0
 11
-1620.624649298288
 21
1604.414028050737
 31
0.0
  0
SOLID
  5
17F0D
330
16DCF
100
AcDbEntity
  8
SUNPOU
 62
     1
100
AcDbTrace
 10
-1621.124649298288
 20
1661.414028050738
 30
0.0
 11
-1620.124649298288
 21
1661.414028050738
 31
0.0
 12
-1620.624649298288
 22
1664.414028050738
 32
0.0
 13
-1620.624649298288
 23
1664.414028050738
 33
0.0
  0
SOLID
  5
17F0E
330
16DCF
100
AcDbEntity
  8
SUNPOU
 62
     1
100
AcDbTrace
 10
-1621.124649298288
 20
1604.414028050737
 30
0.0
 11
-1620.124649298288
 21
1604.414028050737
 31
0.0
 12
-1620.624649298288
 22
1601.414028050737
 32
0.0
 13
-1620.624649298288
 23
1601.414028050737
 33
0.0
  0
MTEXT
  5
17F0F
330
16DCF
100
AcDbEntity
  8
SUNPOU
 62
     1
100
AcDbMText
 10
-1623.374649298289
 20
1632.914028050737
 30
0.0
 40
3.5
 41
0.0
 71
     5
 72
     1
  1
\A1;63
 11
0.0000000000000001
 21
1.0
 31
0.0
  0
POINT
  5
17F10
330
16DCF
100
AcDbEntity
  8
DEFPOINTS
 62
     0
100
AcDbPoint
 10
-1638.493862689298
 20
1664.414028050738
 30
0.0
  0
POINT
  5
17F11
330
16DCF
100
AcDbEntity
  8
DEFPOINTS
 62
     0
100
AcDbPoint
 10
-1638.493862689298
 20
1601.414028050737
 30
0.0
  0
POINT
  5
17F12
330
16DCF
100
AcDbEntity
  8
DEFPOINTS
 62
     0
100
AcDbPoint
 10
-1620.624649298288
 20
1601.414028050737
 30
0.0
  0
ENDBLK
  5
16DDA
330
16DCF
100
AcDbEntity
  8
0
100
AcDbBlockEnd
  0
BLOCK
  5
16DE8
330
16DDC
100
AcDbEntity
  8
0
100
AcDbBlockBegin
  2
*D6
 70
     1
 10
0.0
 20
0.0
 30
0.0
  3
*D6
  1

  0
LINE
  5
17F13
330
16DDC
100
AcDbEntity
  8
SUNPOU
 62
     1
100
AcDbLine
 10
-1637.993862689298
 20
1601.414028050737
 30
0.0
 11
-1620.124649298288
 21
1601.414028050737
 31
0.0
  0
LINE
  5
17F14
330
16DDC
100
AcDbEntity
  8
SUNPOU
 62
     1
100
AcDbLine
 10
-1690.18694050646
 20
1595.414028050738
 30
0.0
 11
-1620.124649298288
 21
1595.414028050738
 31
0.0
  0
LINE
  5
17F15
330
16DDC
100
AcDbEntity
  8
SUNPOU
 62
     1
100
AcDbLine
 10
-1620.624649298288
 20
1604.414028050737
 30
0.0
 11
-1620.624649298288
 21
1607.414028050737
 31
0.0
  0
LINE
  5
17F16
330
16DDC
100
AcDbEntity
  8
SUNPOU
 62
     1
100
AcDbLine
 10
-1620.624649298288
 20
1592.414028050738
 30
0.0
 11
-1620.624649298288
 21
1589.414028050738
 31
0.0
  0
LINE
  5
17F17
330
16DDC
100
AcDbEntity
  8
SUNPOU
 62
     1
100
AcDbLine
 10
-1620.624649298288
 20
1601.414028050737
 30
0.0
 11
-1620.624649298288
 21
1595.414028050738
 31
0.0
  0
SOLID
  5
17F18
330
16DDC
100
AcDbEntity
  8
SUNPOU
 62
     1
100
AcDbTrace
 10
-1621.124649298288
 20
1604.414028050737
 30
0.0
 11
-1620.124649298288
 21
1604.414028050737
 31
0.0
 12
-1620.624649298288
 22
1601.414028050737
 32
0.0
 13
-1620.624649298288
 23
1601.414028050737
 33
0.0
  0
SOLID
  5
17F19
330
16DDC
100
AcDbEntity
  8
SUNPOU
 62
     1
100
AcDbTrace
 10
-1621.124649298288
 20
1592.414028050738
 30
0.0
 11
-1620.124649298288
 21
1592.414028050738
 31
0.0
 12
-1620.624649298288
 22
1595.414028050738
 32
0.0
 13
-1620.624649298288
 23
1595.414028050738
 33
0.0
  0
MTEXT
  5
17F1A
330
16DDC
100
AcDbEntity
  8
SUNPOU
 62
     1
100
AcDbMText
 10
-1623.374649298289
 20
1598.414028050737
 30
0.0
 40
3.5
 41
0.0
 71
     5
 72
     1
  1
\A1;6
 11
0.0000000000000001
 21
1.0
 31
0.0
  0
POINT
  5
17F1B
330
16DDC
100
AcDbEntity
  8
DEFPOINTS
 62
     0
100
AcDbPoint
 10
-1638.493862689298
 20
1601.414028050737
 30
0.0
  0
POINT
  5
17F1C
330
16DDC
100
AcDbEntity
  8
DEFPOINTS
 62
     0
100
AcDbPoint
 10
-1690.68694050646
 20
1595.414028050738
 30
0.0
  0
POINT
  5
17F1D
330
16DDC
100
AcDbEntity
  8
DEFPOINTS
 62
     0
100
AcDbPoint
 10
-1620.624649298288
 20
1595.414028050738
 30
0.0
  0
ENDBLK
  5
16DE9
330
16DDC
100
AcDbEntity
  8
0
100
AcDbBlockEnd
  0
BLOCK
  5
16DF8
330
16DEC
100
AcDbEntity
  8
0
100
AcDbBlockBegin
  2
*D7
 70
     1
 10
0.0
 20
0.0
 30
0.0
  3
*D7
  1

  0
LINE
  5
17F1E
330
16DEC
100
AcDbEntity
  8
SUNPOU
 62
     1
100
AcDbLine
 10
-1577.74973421984
 20
1670.914028050738
 30
0.0
 11
-1577.74973421984
 21
1677.864637303464
 31
0.0
  0
LINE
  5
17F1F
330
16DEC
100
AcDbEntity
  8
SUNPOU
 62
     1
100
AcDbLine
 10
-1574.24973421984
 20
1670.914028050738
 30
0.0
 11
-1574.24973421984
 21
1677.864637303464
 31
0.0
  0
LINE
  5
17F20
330
16DEC
100
AcDbEntity
  8
SUNPOU
 62
     1
100
AcDbLine
 10
-1580.74973421984
 20
1677.364637303464
 30
0.0
 11
-1583.74973421984
 21
1677.364637303464
 31
0.0
  0
LINE
  5
17F21
330
16DEC
100
AcDbEntity
  8
SUNPOU
 62
     1
100
AcDbLine
 10
-1571.24973421984
 20
1677.364637303464
 30
0.0
 11
-1568.24973421984
 21
1677.364637303464
 31
0.0
  0
MTEXT
  5
17F22
330
16DEC
100
AcDbEntity
  8
SUNPOU
 62
     1
100
AcDbMText
 10
-1576.233335827042
 20
1680.891964649547
 30
0.0
 40
3.5
 41
0.0
 71
     5
 72
     1
  1
\A1;3.5
  0
LINE
  5
17F23
330
16DEC
100
AcDbEntity
  8
SUNPOU
 62
     1
100
AcDbLine
 10
-1577.74973421984
 20
1677.364637303464
 30
0.0
 11
-1574.24973421984
 21
1677.364637303464
 31
0.0
  0
SOLID
  5
17F24
330
16DEC
100
AcDbEntity
  8
SUNPOU
 62
     1
100
AcDbTrace
 10
-1580.74973421984
 20
1677.864637303464
 30
0.0
 11
-1580.74973421984
 21
1676.864637303464
 31
0.0
 12
-1577.74973421984
 22
1677.364637303464
 32
0.0
 13
-1577.74973421984
 23
1677.364637303464
 33
0.0
  0
SOLID
  5
17F25
330
16DEC
100
AcDbEntity
  8
SUNPOU
 62
     1
100
AcDbTrace
 10
-1571.24973421984
 20
1677.864637303464
 30
0.0
 11
-1571.24973421984
 21
1676.864637303464
 31
0.0
 12
-1574.24973421984
 22
1677.364637303464
 32
0.0
 13
-1574.24973421984
 23
1677.364637303464
 33
0.0
  0
POINT
  5
17F26
330
16DEC
100
AcDbEntity
  8
DEFPOINTS
 62
     0
100
AcDbPoint
 10
-1577.74973421984
 20
1670.414028050738
 30
0.0
  0
POINT
  5
17F27
330
16DEC
100
AcDbEntity
  8
DEFPOINTS
 62
     0
100
AcDbPoint
 10
-1574.24973421984
 20
1670.414028050738
 30
0.0
  0
POINT
  5
17F28
330
16DEC
100
AcDbEntity
  8
DEFPOINTS
 62
     0
100
AcDbPoint
 10
-1574.24973421984
 20
1677.364637303464
 30
0.0
  0
ENDBLK
  5
16DF9
330
16DEC
100
AcDbEntity
  8
0
100
AcDbBlockEnd
  0
BLOCK
  5
16E07
330
16DFB
100
AcDbEntity
  8
0
100
AcDbBlockBegin
  2
*D8
 70
     1
 10
0.0
 20
0.0
 30
0.0
  3
*D8
  1

  0
LINE
  5
17F29
330
16DFB
100
AcDbEntity
  8
SUNPOU
 62
     1
100
AcDbLine
 10
-1587.49973421984
 20
1670.414028050738
 30
0.0
 11
-1596.984922720844
 21
1670.414028050738
 31
0.0
  0
LINE
  5
17F2A
330
16DFB
100
AcDbEntity
  8
SUNPOU
 62
     1
100
AcDbLine
 10
-1579.49973421984
 20
1667.914028050738
 30
0.0
 11
-1596.984922720844
 21
1667.914028050738
 31
0.0
  0
LINE
  5
17F2B
330
16DFB
100
AcDbEntity
  8
SUNPOU
 62
     1
100
AcDbLine
 10
-1596.484922720844
 20
1673.414028050738
 30
0.0
 11
-1596.484922720844
 21
1676.414028050738
 31
0.0
  0
LINE
  5
17F2C
330
16DFB
100
AcDbEntity
  8
SUNPOU
 62
     1
100
AcDbLine
 10
-1596.484922720844
 20
1664.914028050738
 30
0.0
 11
-1596.484922720844
 21
1661.914028050738
 31
0.0
  0
MTEXT
  5
17F2D
330
16DFB
100
AcDbEntity
  8
SUNPOU
 62
     1
100
AcDbMText
 10
-1599.208560127419
 20
1674.427105587361
 30
0.0
 40
3.5
 41
0.0
 71
     5
 72
     1
  1
\A1;2.5
 11
0.0000000000000001
 21
1.0
 31
0.0
  0
LINE
  5
17F2E
330
16DFB
100
AcDbEntity
  8
SUNPOU
 62
     1
100
AcDbLine
 10
-1596.484922720844
 20
1670.414028050738
 30
0.0
 11
-1596.484922720844
 21
1667.914028050738
 31
0.0
  0
SOLID
  5
17F2F
330
16DFB
100
AcDbEntity
  8
SUNPOU
 62
     1
100
AcDbTrace
 10
-1596.984922720844
 20
1673.414028050738
 30
0.0
 11
-1595.984922720844
 21
1673.414028050738
 31
0.0
 12
-1596.484922720844
 22
1670.414028050738
 32
0.0
 13
-1596.484922720844
 23
1670.414028050738
 33
0.0
  0
SOLID
  5
17F30
330
16DFB
100
AcDbEntity
  8
SUNPOU
 62
     1
100
AcDbTrace
 10
-1596.984922720844
 20
1664.914028050738
 30
0.0
 11
-1595.984922720844
 21
1664.914028050738
 31
0.0
 12
-1596.484922720844
 22
1667.914028050738
 32
0.0
 13
-1596.484922720844
 23
1667.914028050738
 33
0.0
  0
POINT
  5
17F31
330
16DFB
100
AcDbEntity
  8
DEFPOINTS
 62
     0
100
AcDbPoint
 10
-1586.99973421984
 20
1670.414028050738
 30
0.0
  0
POINT
  5
17F32
330
16DFB
100
AcDbEntity
  8
DEFPOINTS
 62
     0
100
AcDbPoint
 10
-1578.99973421984
 20
1667.914028050738
 30
0.0
  0
POINT
  5
17F33
330
16DFB
100
AcDbEntity
  8
DEFPOINTS
 62
     0
100
AcDbPoint
 10
-1596.484922720844
 20
1667.914028050738
 30
0.0
  0
ENDBLK
  5
16E08
330
16DFB
100
AcDbEntity
  8
0
100
AcDbBlockEnd
  0
BLOCK
  5
16E14
330
16E0A
100
AcDbEntity
  8
0
100
AcDbBlockBegin
  2
*D9
 70
     1
 10
0.0
 20
0.0
 30
0.0
  3
*D9
  1

  0
LINE
  5
17F34
330
16E0A
100
AcDbEntity
  8
SUNPOU
 62
     1
100
AcDbLine
 10
-1579.49973421984
 20
1667.914028050738
 30
0.0
 11
-1596.984922720844
 21
1667.914028050738
 31
0.0
  0
LINE
  5
17F35
330
16E0A
100
AcDbEntity
  8
SUNPOU
 62
     1
100
AcDbLine
 10
-1579.49973421984
 20
1597.914028050738
 30
0.0
 11
-1596.984922720844
 21
1597.914028050738
 31
0.0
  0
LINE
  5
17F36
330
16E0A
100
AcDbEntity
  8
SUNPOU
 62
     1
100
AcDbLine
 10
-1596.484922720844
 20
1664.914028050738
 30
0.0
 11
-1596.484922720844
 21
1600.914028050738
 31
0.0
  0
SOLID
  5
17F37
330
16E0A
100
AcDbEntity
  8
SUNPOU
 62
     1
100
AcDbTrace
 10
-1596.984922720844
 20
1664.914028050738
 30
0.0
 11
-1595.984922720844
 21
1664.914028050738
 31
0.0
 12
-1596.484922720844
 22
1667.914028050738
 32
0.0
 13
-1596.484922720844
 23
1667.914028050738
 33
0.0
  0
SOLID
  5
17F38
330
16E0A
100
AcDbEntity
  8
SUNPOU
 62
     1
100
AcDbTrace
 10
-1596.984922720844
 20
1600.914028050738
 30
0.0
 11
-1595.984922720844
 21
1600.914028050738
 31
0.0
 12
-1596.484922720844
 22
1597.914028050738
 32
0.0
 13
-1596.484922720844
 23
1597.914028050738
 33
0.0
  0
MTEXT
  5
17F39
330
16E0A
100
AcDbEntity
  8
SUNPOU
 62
     1
100
AcDbMText
 10
-1599.234922720844
 20
1632.914028050737
 30
0.0
 40
3.5
 41
0.0
 71
     5
 72
     1
  1
\A1;70
 11
0.0000000000000001
 21
1.0
 31
0.0
  0
POINT
  5
17F3A
330
16E0A
100
AcDbEntity
  8
DEFPOINTS
 62
     0
100
AcDbPoint
 10
-1578.99973421984
 20
1667.914028050738
 30
0.0
  0
POINT
  5
17F3B
330
16E0A
100
AcDbEntity
  8
DEFPOINTS
 62
     0
100
AcDbPoint
 10
-1578.99973421984
 20
1597.914028050738
 30
0.0
  0
POINT
  5
17F3C
330
16E0A
100
AcDbEntity
  8
DEFPOINTS
 62
     0
100
AcDbPoint
 10
-1596.484922720844
 20
1597.914028050738
 30
0.0
  0
ENDBLK
  5
16E15
330
16E0A
100
AcDbEntity
  8
0
100
AcDbBlockEnd
  0
BLOCK
  5
16E23
330
16E17
100
AcDbEntity
  8
0
100
AcDbBlockBegin
  2
*D10
 70
     1
 10
0.0
 20
0.0
 30
0.0
  3
*D10
  1

  0
LINE
  5
17F3D
330
16E17
100
AcDbEntity
  8
SUNPOU
 62
     1
100
AcDbLine
 10
-1579.49973421984
 20
1597.914028050738
 30
0.0
 11
-1596.984922720844
 21
1597.914028050738
 31
0.0
  0
LINE
  5
17F3E
330
16E17
100
AcDbEntity
  8
SUNPOU
 62
     1
100
AcDbLine
 10
-1587.49973421984
 20
1595.414028050738
 30
0.0
 11
-1596.984922720844
 21
1595.414028050738
 31
0.0
  0
LINE
  5
17F3F
330
16E17
100
AcDbEntity
  8
SUNPOU
 62
     1
100
AcDbLine
 10
-1596.484922720844
 20
1600.914028050738
 30
0.0
 11
-1596.484922720844
 21
1603.914028050738
 31
0.0
  0
LINE
  5
17F40
330
16E17
100
AcDbEntity
  8
SUNPOU
 62
     1
100
AcDbLine
 10
-1596.484922720844
 20
1592.414028050738
 30
0.0
 11
-1596.484922720844
 21
1589.414028050738
 31
0.0
  0
MTEXT
  5
17F41
330
16E17
100
AcDbEntity
  8
SUNPOU
 62
     1
100
AcDbMText
 10
-1599.170449507371
 20
1590.452611592361
 30
0.0
 40
3.5
 41
0.0
 71
     5
 72
     1
  1
\A1;2.5
 11
0.0000000000000001
 21
1.0
 31
0.0
  0
LINE
  5
17F42
330
16E17
100
AcDbEntity
  8
SUNPOU
 62
     1
100
AcDbLine
 10
-1596.484922720844
 20
1597.914028050738
 30
0.0
 11
-1596.484922720844
 21
1595.414028050738
 31
0.0
  0
SOLID
  5
17F43
330
16E17
100
AcDbEntity
  8
SUNPOU
 62
     1
100
AcDbTrace
 10
-1596.984922720844
 20
1600.914028050738
 30
0.0
 11
-1595.984922720844
 21
1600.914028050738
 31
0.0
 12
-1596.484922720844
 22
1597.914028050738
 32
0.0
 13
-1596.484922720844
 23
1597.914028050738
 33
0.0
  0
SOLID
  5
17F44
330
16E17
100
AcDbEntity
  8
SUNPOU
 62
     1
100
AcDbTrace
 10
-1596.984922720844
 20
1592.414028050738
 30
0.0
 11
-1595.984922720844
 21
1592.414028050738
 31
0.0
 12
-1596.484922720844
 22
1595.414028050738
 32
0.0
 13
-1596.484922720844
 23
1595.414028050738
 33
0.0
  0
POINT
  5
17F45
330
16E17
100
AcDbEntity
  8
DEFPOINTS
 62
     0
100
AcDbPoint
 10
-1578.99973421984
 20
1597.914028050738
 30
0.0
  0
POINT
  5
17F46
330
16E17
100
AcDbEntity
  8
DEFPOINTS
 62
     0
100
AcDbPoint
 10
-1586.99973421984
 20
1595.414028050738
 30
0.0
  0
POINT
  5
17F47
330
16E17
100
AcDbEntity
  8
DEFPOINTS
 62
     0
100
AcDbPoint
 10
-1596.484922720844
 20
1595.414028050738
 30
0.0
  0
ENDBLK
  5
16E24
330
16E17
100
AcDbEntity
  8
0
100
AcDbBlockEnd
  0
BLOCK
  5
16E58
330
16E4C
100
AcDbEntity
  8
0
100
AcDbBlockBegin
  2
*D11
 70
     1
 10
0.0
 20
0.0
 30
0.0
  3
*D11
  1

  0
LINE
  5
17F48
330
16E4C
100
AcDbEntity
  8
SUNPOU
 62
     1
100
AcDbLine
 10
-1702.493862689298
 20
1573.234772637117
 30
0.0
 11
-1702.493862689298
 21
1578.384140631416
 31
0.0
  0
LINE
  5
17F49
330
16E4C
100
AcDbEntity
  8
SUNPOU
 62
     1
100
AcDbLine
 10
-1700.493862689298
 20
1573.234772637117
 30
0.0
 11
-1700.493862689298
 21
1578.384140631416
 31
0.0
  0
LINE
  5
17F4A
330
16E4C
100
AcDbEntity
  8
SUNPOU
 62
     1
100
AcDbLine
 10
-1705.493862689298
 20
1577.884140631416
 30
0.0
 11
-1708.493862689297
 21
1577.884140631416
 31
0.0
  0
LINE
  5
17F4B
330
16E4C
100
AcDbEntity
  8
SUNPOU
 62
     1
100
AcDbLine
 10
-1697.493862689297
 20
1577.884140631416
 30
0.0
 11
-1694.493862689298
 21
1577.884140631416
 31
0.0
  0
MTEXT
  5
17F4C
330
16E4C
100
AcDbEntity
  8
SUNPOU
 62
     1
100
AcDbMText
 10
-1701.624531122454
 20
1581.284562646427
 30
0.0
 40
3.5
 41
0.0
 71
     5
 72
     1
  1
\A1;2
  0
LINE
  5
17F4D
330
16E4C
100
AcDbEntity
  8
SUNPOU
 62
     1
100
AcDbLine
 10
-1702.493862689298
 20
1577.884140631416
 30
0.0
 11
-1700.493862689298
 21
1577.884140631416
 31
0.0
  0
SOLID
  5
17F4E
330
16E4C
100
AcDbEntity
  8
SUNPOU
 62
     1
100
AcDbTrace
 10
-1705.493862689298
 20
1578.384140631416
 30
0.0
 11
-1705.493862689298
 21
1577.384140631416
 31
0.0
 12
-1702.493862689298
 22
1577.884140631416
 32
0.0
 13
-1702.493862689298
 23
1577.884140631416
 33
0.0
  0
SOLID
  5
17F4F
330
16E4C
100
AcDbEntity
  8
SUNPOU
 62
     1
100
AcDbTrace
 10
-1697.493862689297
 20
1578.384140631416
 30
0.0
 11
-1697.493862689297
 21
1577.384140631416
 31
0.0
 12
-1700.493862689298
 22
1577.884140631416
 32
0.0
 13
-1700.493862689298
 23
1577.884140631416
 33
0.0
  0
POINT
  5
17F50
330
16E4C
100
AcDbEntity
  8
DEFPOINTS
 62
     0
100
AcDbPoint
 10
-1702.493862689298
 20
1572.734772637116
 30
0.0
  0
POINT
  5
17F51
330
16E4C
100
AcDbEntity
  8
DEFPOINTS
 62
     0
100
AcDbPoint
 10
-1700.493862689298
 20
1572.734772637116
 30
0.0
  0
POINT
  5
17F52
330
16E4C
100
AcDbEntity
  8
DEFPOINTS
 62
     0
100
AcDbPoint
 10
-1700.493862689298
 20
1577.884140631416
 30
0.0
  0
ENDBLK
  5
16E59
330
16E4C
100
AcDbEntity
  8
0
100
AcDbBlockEnd
  0
BLOCK
  5
16E70
330
16E66
100
AcDbEntity
  8
0
100
AcDbBlockBegin
  2
*D12
 70
     1
 10
0.0
 20
0.0
 30
0.0
  3
*D12
  1

  0
LINE
  5
17DD3
330
16E66
100
AcDbEntity
  8
SUNPOU
 62
     1
100
AcDbLine
 10
-1702.493862689298
 20
1544.734772637117
 30
0.0
 11
-1702.493862689298
 21
1535.206474799647
 31
0.0
  0
LINE
  5
17DD4
330
16E66
100
AcDbEntity
  8
SUNPOU
 62
     1
100
AcDbLine
 10
-1637.493862689298
 20
1543.234772637116
 30
0.0
 11
-1637.493862689298
 21
1535.206474799647
 31
0.0
  0
LINE
  5
17DD5
330
16E66
100
AcDbEntity
  8
SUNPOU
 62
     1
100
AcDbLine
 10
-1699.493862689297
 20
1535.706474799647
 30
0.0
 11
-1640.493862689297
 21
1535.706474799647
 31
0.0
  0
SOLID
  5
17DD6
330
16E66
100
AcDbEntity
  8
SUNPOU
 62
     1
100
AcDbTrace
 10
-1699.493862689297
 20
1536.206474799647
 30
0.0
 11
-1699.493862689297
 21
1535.206474799647
 31
0.0
 12
-1702.493862689298
 22
1535.706474799647
 32
0.0
 13
-1702.493862689298
 23
1535.706474799647
 33
0.0
  0
SOLID
  5
17DD7
330
16E66
100
AcDbEntity
  8
SUNPOU
 62
     1
100
AcDbTrace
 10
-1640.493862689297
 20
1536.206474799647
 30
0.0
 11
-1640.493862689297
 21
1535.206474799647
 31
0.0
 12
-1637.493862689298
 22
1535.706474799647
 32
0.0
 13
-1637.493862689298
 23
1535.706474799647
 33
0.0
  0
MTEXT
  5
17DD8
330
16E66
100
AcDbEntity
  8
SUNPOU
 62
     1
100
AcDbMText
 10
-1669.993862689298
 20
1538.456474799647
 30
0.0
 40
3.5
 41
0.0
 71
     5
 72
     1
  1
\A1;65
1001
ACAD
1000
MTEXTBEGIN
1070
    73
1070
     1
1070
    44
1040
1.0
1070
    74
1070
     0
1000
MTEXTEND
  0
POINT
  5
17DD9
330
16E66
100
AcDbEntity
  8
DEFPOINTS
 62
     0
100
AcDbPoint
 10
-1702.493862689298
 20
1545.234772637116
 30
0.0
  0
POINT
  5
17DDA
330
16E66
100
AcDbEntity
  8
DEFPOINTS
 62
     0
100
AcDbPoint
 10
-1637.493862689298
 20
1543.734772637116
 30
0.0
  0
POINT
  5
17DDB
330
16E66
100
AcDbEntity
  8
DEFPOINTS
 62
     0
100
AcDbPoint
 10
-1637.493862689298
 20
1535.706474799647
 30
0.0
  0
ENDBLK
  5
16E71
330
16E66
100
AcDbEntity
  8
0
100
AcDbBlockEnd
  0
ENDSEC
  0
SECTION
  2
ENTITIES
  0
MTEXT
  5
5084
330
1A
100
AcDbEntity
  8
0
100
AcDbMText
 10
1985.239088685435
 20
-948.5420423450428
 30
0.0
 40
8.0
 41
0.0
 71
     7
 72
     5
  1

1001
ACAD
1000
MTEXTBEGIN
1070
    73
1070
     1
1070
    44
1040
1.0
1070
    74
1070
     0
1000
MTEXTEND
  0
MTEXT
  5
5085
330
1A
100
AcDbEntity
  8
0
100
AcDbMText
 10
4270.596778580329
 20
22.24825240601649
 30
0.0
 40
8.0
 41
0.0
 71
     7
 72
     5
  1

1001
ACAD
1000
MTEXTBEGIN
1070
    73
1070
     1
1070
    44
1040
1.0
1070
    74
1070
     0
1000
MTEXTEND
  0
MTEXT
  5
5343
330
1A
100
AcDbEntity
  8
SUNPOU
100
AcDbMText
 10
6936.493799262471
 20
9534.359644781135
 30
0.0
 40
10.5
 41
0.0
 71
     1
 72
     5
  1

1001
ACAD
1000
MTEXTBEGIN
1070
    73
1070
     1
1070
    44
1040
1.0
1070
    74
1070
     0
1000
MTEXTEND
  0
MTEXT
  5
544F
330
1A
100
AcDbEntity
  8
0
100
AcDbMText
 10
16317.2832773148
 20
12833.35428897674
 30
0.0
 40
8.0
 41
0.0
 71
     7
 72
     5
  1

1001
ACAD
1000
MTEXTBEGIN
1070
    73
1070
     1
1070
    44
1040
1.0
1070
    74
1070
     0
1000
MTEXTEND
  0
MTEXT
  5
5450
330
1A
100
AcDbEntity
  8
0
100
AcDbMText
 10
18602.64096720969
 20
13804.1445837278
 30
0.0
 40
8.0
 41
0.0
 71
     7
 72
     5
  1

1001
ACAD
1000
MTEXTBEGIN
1070
    73
1070
     1
1070
    44
1040
1.0
1070
    74
1070
     0
1000
MTEXTEND
  0
MTEXT
  5
5451
330
1A
100
AcDbEntity
  8
SUNPOU
100
AcDbMText
 10
21268.53798789184
 20
23316.25597610292
 30
0.0
 40
10.5
 41
0.0
 71
     1
 72
     5
  1

1001
ACAD
1000
MTEXTBEGIN
1070
    73
1070
     1
1070
    44
1040
1.0
1070
    74
1070
     0
1000
MTEXTEND
  0
MTEXT
  5
5452
330
1A
100
AcDbEntity
  8
SUNPOU
100
AcDbMText
 10
13337.6147919559
 20
22369.46284218996
 30
0.0
 40
10.5
 41
0.0
 71
     7
 72
     5
  1

1001
ACAD
1000
MTEXTBEGIN
1070
    73
1070
     1
1070
    44
1040
1.0
1070
    74
1070
     0
1000
MTEXTEND
  0
MTEXT
  5
5453
330
1A
100
AcDbEntity
  8
SUNPOU
100
AcDbMText
 10
16286.59845646867
 20
27270.13891403281
 30
0.0
 40
10.5
 41
0.0
 71
     7
 72
     5
  1

1001
ACAD
1000
MTEXTBEGIN
1070
    73
1070
     1
1070
    44
1040
1.0
1070
    74
1070
     0
1000
MTEXTEND
  0
MTEXT
  5
5454
330
1A
100
AcDbEntity
  8
SUNPOU
100
AcDbMText
 10
20795.67658441924
 20
29706.43966165288
 30
0.0
 40
10.5
 41
0.0
 71
     7
 72
     5
  1

1001
ACAD
1000
MTEXTBEGIN
1070
    73
1070
     1
1070
    44
1040
1.0
1070
    74
1070
     0
1000
MTEXTEND
  0
MTEXT
  5
5455
330
1A
100
AcDbEntity
  8
0
100
AcDbMText
 10
16611.93789220314
 20
14707.52144344448
 30
0.0
 40
8.0
 41
0.0
 71
     7
 72
     5
  1

1001
ACAD
1000
MTEXTBEGIN
1070
    73
1070
     1
1070
    44
1040
1.0
1070
    74
1070
     0
1000
MTEXTEND
  0
MTEXT
  5
5456
330
1A
100
AcDbEntity
  8
0
100
AcDbMText
 10
18897.29558209804
 20
15678.31173819554
 30
0.0
 40
8.0
 41
0.0
 71
     7
 72
     5
  1

1001
ACAD
1000
MTEXTBEGIN
1070
    73
1070
     1
1070
    44
1040
1.0
1070
    74
1070
     0
1000
MTEXTEND
  0
MTEXT
  5
5457
330
1A
100
AcDbEntity
  8
SUNPOU
100
AcDbMText
 10
21563.19260278019
 20
25190.42313057066
 30
0.0
 40
10.5
 41
0.0
 71
     1
 72
     5
  1

1001
ACAD
1000
MTEXTBEGIN
1070
    73
1070
     1
1070
    44
1040
1.0
1070
    74
1070
     0
1000
MTEXTEND
  0
MTEXT
  5
5458
330
1A
100
AcDbEntity
  8
SUNPOU
100
AcDbMText
 10
13632.26940684426
 20
24243.6299966577
 30
0.0
 40
10.5
 41
0.0
 71
     7
 72
     5
  1

1001
ACAD
1000
MTEXTBEGIN
1070
    73
1070
     1
1070
    44
1040
1.0
1070
    74
1070
     0
1000
MTEXTEND
  0
MTEXT
  5
5459
330
1A
100
AcDbEntity
  8
SUNPOU
100
AcDbMText
 10
16581.25307135702
 20
29144.30606850055
 30
0.0
 40
10.5
 41
0.0
 71
     7
 72
     5
  1

1001
ACAD
1000
MTEXTBEGIN
1070
    73
1070
     1
1070
    44
1040
1.0
1070
    74
1070
     0
1000
MTEXTEND
  0
MTEXT
  5
545A
330
1A
100
AcDbEntity
  8
SUNPOU
100
AcDbMText
 10
21090.33119930759
 20
31580.60681612062
 30
0.0
 40
10.5
 41
0.0
 71
     7
 72
     5
  1

1001
ACAD
1000
MTEXTBEGIN
1070
    73
1070
     1
1070
    44
1040
1.0
1070
    74
1070
     0
1000
MTEXTEND
  0
MTEXT
  5
545B
330
1A
100
AcDbEntity
  8
0
100
AcDbMText
 10
22871.60517627167
 20
23974.88367124799
 30
0.0
 40
8.0
 41
0.0
 71
     7
 72
     5
  1

1001
ACAD
1000
MTEXTBEGIN
1070
    73
1070
     1
1070
    44
1040
1.0
1070
    74
1070
     0
1000
MTEXTEND
  0
MTEXT
  5
545C
330
1A
100
AcDbEntity
  8
0
100
AcDbMText
 10
25156.96286616657
 20
24945.67396599906
 30
0.0
 40
8.0
 41
0.0
 71
     7
 72
     5
  1

1001
ACAD
1000
MTEXTBEGIN
1070
    73
1070
     1
1070
    44
1040
1.0
1070
    74
1070
     0
1000
MTEXTEND
  0
MTEXT
  5
545D
330
1A
100
AcDbEntity
  8
SUNPOU
100
AcDbMText
 10
27822.85988684871
 20
34457.78535837418
 30
0.0
 40
10.5
 41
0.0
 71
     1
 72
     5
  1

1001
ACAD
1000
MTEXTBEGIN
1070
    73
1070
     1
1070
    44
1040
1.0
1070
    74
1070
     0
1000
MTEXTEND
  0
MTEXT
  5
545E
330
1A
100
AcDbEntity
  8
SUNPOU
100
AcDbMText
 10
19891.93669091278
 20
33510.99222446122
 30
0.0
 40
10.5
 41
0.0
 71
     7
 72
     5
  1

1001
ACAD
1000
MTEXTBEGIN
1070
    73
1070
     1
1070
    44
1040
1.0
1070
    74
1070
     0
1000
MTEXTEND
  0
MTEXT
  5
545F
330
1A
100
AcDbEntity
  8
SUNPOU
100
AcDbMText
 10
22840.92035542555
 20
38411.66829630407
 30
0.0
 40
10.5
 41
0.0
 71
     7
 72
     5
  1

1001
ACAD
1000
MTEXTBEGIN
1070
    73
1070
     1
1070
    44
1040
1.0
1070
    74
1070
     0
1000
MTEXTEND
  0
MTEXT
  5
5460
330
1A
100
AcDbEntity
  8
SUNPOU
100
AcDbMText
 10
27349.99848337611
 20
40847.96904392415
 30
0.0
 40
10.5
 41
0.0
 71
     7
 72
     5
  1

1001
ACAD
1000
MTEXTBEGIN
1070
    73
1070
     1
1070
    44
1040
1.0
1070
    74
1070
     0
1000
MTEXTEND
  0
MTEXT
  5
55B7
330
1A
100
AcDbEntity
  8
SUNPOU
100
AcDbMText
 10
67424.23923338197
 20
64463.86602884816
 30
0.0
 40
10.5
 41
0.0
 71
     9
 72
     5
  1

1001
ACAD
1000
MTEXTBEGIN
1070
    73
1070
     1
1070
    44
1040
1.0
1070
    74
1070
     0
1000
MTEXTEND
  0
MTEXT
  5
55B8
330
1A
100
AcDbEntity
  8
SUNPOU
100
AcDbMText
 10
76146.40679929998
 20
71879.70056038563
 30
0.0
 40
10.5
 41
0.0
 71
     9
 72
     5
  1

1001
ACAD
1000
MTEXTBEGIN
1070
    73
1070
     1
1070
    44
1040
1.0
1070
    74
1070
     0
1000
MTEXTEND
  0
MTEXT
  5
55B9
330
1A
100
AcDbEntity
  8
SUNPOU
100
AcDbMText
 10
95100.16551662994
 20
89346.27661287766
 30
0.0
 40
10.5
 41
0.0
 71
     9
 72
     5
  1

1001
ACAD
1000
MTEXTBEGIN
1070
    73
1070
     1
1070
    44
1040
1.0
1070
    74
1070
     0
1000
MTEXTEND
  0
MTEXT
  5
55BA
330
1A
100
AcDbEntity
  8
SUNPOU
100
AcDbMText
 10
97043.57276333936
 20
87545.22753299966
 30
0.0
 40
3.5
 41
0.0
 71
     9
 72
     5
  1

1001
ACAD
1000
MTEXTBEGIN
1070
    73
1070
     1
1070
    44
1040
1.0
1070
    74
1070
     0
1000
MTEXTEND
  0
MTEXT
  5
55BB
330
1A
100
AcDbEntity
  8
SUNPOU
100
AcDbMText
 10
128169.752595959
 20
130040.1732006569
 30
0.0
 40
10.5
 41
0.0
 71
     9
 72
     5
  1

1001
ACAD
1000
MTEXTBEGIN
1070
    73
1070
     1
1070
    44
1040
1.0
1070
    74
1070
     0
1000
MTEXTEND
  0
MTEXT
  5
55BC
330
1A
100
AcDbEntity
  8
SUNPOU
100
AcDbMText
 10
130113.1598426684
 20
128239.1241207789
 30
0.0
 40
3.5
 41
0.0
 71
     9
 72
     5
  1

1001
ACAD
1000
MTEXTBEGIN
1070
    73
1070
     1
1070
    44
1040
1.0
1070
    74
1070
     0
1000
MTEXTEND
  0
MTEXT
  5
55BD
330
1A
100
AcDbEntity
  8
SUNPOU
100
AcDbMText
 10
78610.02030175463
 20
75873.33835563206
 30
0.0
 40
10.5
 41
0.0
 71
     9
 72
     5
  1

1001
ACAD
1000
MTEXTBEGIN
1070
    73
1070
     1
1070
    44
1040
1.0
1070
    74
1070
     0
1000
MTEXTEND
  0
MTEXT
  5
55BE
330
1A
100
AcDbEntity
  8
SUNPOU
100
AcDbMText
 10
64662.02020137863
 20
56700.93921651987
 30
0.0
 40
3.5
 41
0.0
 71
     7
 72
     5
  1

1001
ACAD
1000
MTEXTBEGIN
1070
    73
1070
     1
1070
    44
1040
1.0
1070
    74
1070
     0
1000
MTEXTEND
  0
MTEXT
  5
55BF
330
1A
100
AcDbEntity
  8
SUNPOU
100
AcDbMText
 10
45647.18959837178
 20
44463.08794733807
 30
0.0
 40
10.5
 41
0.0
 71
     7
 72
     5
  1

1001
ACAD
1000
MTEXTBEGIN
1070
    73
1070
     1
1070
    44
1040
1.0
1070
    74
1070
     0
1000
MTEXTEND
  0
MTEXT
  5
55C0
330
1A
100
AcDbEntity
  8
SUNPOU
100
AcDbMText
 10
33189.96133342368
 20
28618.15636923965
 30
0.0
 40
35.0
 41
0.0
 71
     9
 72
     5
  1

1001
ACAD
1000
MTEXTBEGIN
1070
    73
1070
     1
1070
    44
1040
1.0
1070
    74
1070
     0
1000
MTEXTEND
  0
MTEXT
  5
55C1
330
1A
100
AcDbEntity
  8
SUNPOU
100
AcDbMText
 10
32098.44639099864
 20
29226.93177928835
 30
0.0
 40
350.0000004171781
 41
0.0
 71
     7
 72
     5
  1

1001
ACAD
1000
MTEXTBEGIN
1070
    73
1070
     1
1070
    44
1040
1.0
1070
    74
1070
     0
1000
MTEXTEND
  0
MTEXT
  5
55C2
330
1A
100
AcDbEntity
  8
0
100
AcDbMText
 10
38142.39714894154
 20
27206.85414142458
 30
0.0
 40
8.0
 41
0.0
 71
     7
 72
     5
  1

1001
ACAD
1000
MTEXTBEGIN
1070
    73
1070
     1
1070
    44
1040
1.0
1070
    74
1070
     0
1000
MTEXTEND
  0
MTEXT
  5
55C3
330
1A
100
AcDbEntity
  8
0
100
AcDbMText
 10
40427.75483883644
 20
28177.64443617564
 30
0.0
 40
8.0
 41
0.0
 71
     7
 72
     5
  1

1001
ACAD
1000
MTEXTBEGIN
1070
    73
1070
     1
1070
    44
1040
1.0
1070
    74
1070
     0
1000
MTEXTEND
  0
MTEXT
  5
55C4
330
1A
100
AcDbEntity
  8
SUNPOU
100
AcDbMText
 10
43093.65185951858
 20
37689.75582855077
 30
0.0
 40
10.5
 41
0.0
 71
     1
 72
     5
  1

1001
ACAD
1000
MTEXTBEGIN
1070
    73
1070
     1
1070
    44
1040
1.0
1070
    74
1070
     0
1000
MTEXTEND
  0
MTEXT
  5
55C5
330
1A
100
AcDbEntity
  8
SUNPOU
100
AcDbMText
 10
35162.72866358265
 20
36742.96269463781
 30
0.0
 40
10.5
 41
0.0
 71
     7
 72
     5
  1

1001
ACAD
1000
MTEXTBEGIN
1070
    73
1070
     1
1070
    44
1040
1.0
1070
    74
1070
     0
1000
MTEXTEND
  0
MTEXT
  5
55C6
330
1A
100
AcDbEntity
  8
SUNPOU
100
AcDbMText
 10
38111.71232809542
 20
41643.63876648066
 30
0.0
 40
10.5
 41
0.0
 71
     7
 72
     5
  1

1001
ACAD
1000
MTEXTBEGIN
1070
    73
1070
     1
1070
    44
1040
1.0
1070
    74
1070
     0
1000
MTEXTEND
  0
MTEXT
  5
55C7
330
1A
100
AcDbEntity
  8
SUNPOU
100
AcDbMText
 10
42620.79045604597
 20
44079.93951410074
 30
0.0
 40
10.5
 41
0.0
 71
     7
 72
     5
  1

1001
ACAD
1000
MTEXTBEGIN
1070
    73
1070
     1
1070
    44
1040
1.0
1070
    74
1070
     0
1000
MTEXTEND
  0
MTEXT
  5
55C8
330
1A
100
AcDbEntity
  8
SUNPOU
100
AcDbMText
 10
26221.62834281429
 20
23077.53566448964
 30
0.0
 40
10.5
 41
0.0
 71
     7
 72
     5
  1

1001
ACAD
1000
MTEXTBEGIN
1070
    73
1070
     1
1070
    44
1040
1.0
1070
    74
1070
     0
1000
MTEXTEND
  0
MTEXT
  5
55C9
330
1A
100
AcDbEntity
  8
SUNPOU
100
AcDbMText
 10
77413.14677671455
 20
68750.51622813789
 30
0.0
 40
10.5
 41
0.0
 71
     9
 72
     5
  1

1001
ACAD
1000
MTEXTBEGIN
1070
    73
1070
     1
1070
    44
1040
1.0
1070
    74
1070
     0
1000
MTEXTEND
  0
MTEXT
  5
55CA
330
1A
100
AcDbEntity
  8
SUNPOU
100
AcDbMText
 10
86135.31434263256
 20
76166.35075967536
 30
0.0
 40
10.5
 41
0.0
 71
     9
 72
     5
  1

1001
ACAD
1000
MTEXTBEGIN
1070
    73
1070
     1
1070
    44
1040
1.0
1070
    74
1070
     0
1000
MTEXTEND
  0
MTEXT
  5
55CB
330
1A
100
AcDbEntity
  8
SUNPOU
100
AcDbMText
 10
105089.0730599625
 20
93632.92681216739
 30
0.0
 40
10.5
 41
0.0
 71
     9
 72
     5
  1

1001
ACAD
1000
MTEXTBEGIN
1070
    73
1070
     1
1070
    44
1040
1.0
1070
    74
1070
     0
1000
MTEXTEND
  0
MTEXT
  5
55CC
330
1A
100
AcDbEntity
  8
SUNPOU
100
AcDbMText
 10
107032.4803066719
 20
91831.8777322894
 30
0.0
 40
3.5
 41
0.0
 71
     9
 72
     5
  1

1001
ACAD
1000
MTEXTBEGIN
1070
    73
1070
     1
1070
    44
1040
1.0
1070
    74
1070
     0
1000
MTEXTEND
  0
MTEXT
  5
55CD
330
1A
100
AcDbEntity
  8
SUNPOU
100
AcDbMText
 10
138158.6601392916
 20
134326.8233999467
 30
0.0
 40
10.5
 41
0.0
 71
     9
 72
     5
  1

1001
ACAD
1000
MTEXTBEGIN
1070
    73
1070
     1
1070
    44
1040
1.0
1070
    74
1070
     0
1000
MTEXTEND
  0
MTEXT
  5
55CE
330
1A
100
AcDbEntity
  8
SUNPOU
100
AcDbMText
 10
140102.067386001
 20
132525.7743200686
 30
0.0
 40
3.5
 41
0.0
 71
     9
 72
     5
  1

1001
ACAD
1000
MTEXTBEGIN
1070
    73
1070
     1
1070
    44
1040
1.0
1070
    74
1070
     0
1000
MTEXTEND
  0
MTEXT
  5
55CF
330
1A
100
AcDbEntity
  8
SUNPOU
100
AcDbMText
 10
88598.92784508721
 20
80159.98855492179
 30
0.0
 40
10.5
 41
0.0
 71
     9
 72
     5
  1

1001
ACAD
1000
MTEXTBEGIN
1070
    73
1070
     1
1070
    44
1040
1.0
1070
    74
1070
     0
1000
MTEXTEND
  0
MTEXT
  5
55D0
330
1A
100
AcDbEntity
  8
SUNPOU
100
AcDbMText
 10
74650.92774471121
 20
60987.5894158096
 30
0.0
 40
3.5
 41
0.0
 71
     7
 72
     5
  1

1001
ACAD
1000
MTEXTBEGIN
1070
    73
1070
     1
1070
    44
1040
1.0
1070
    74
1070
     0
1000
MTEXTEND
  0
MTEXT
  5
55D1
330
1A
100
AcDbEntity
  8
SUNPOU
100
AcDbMText
 10
55636.09714170436
 20
48749.73814662781
 30
0.0
 40
10.5
 41
0.0
 71
     7
 72
     5
  1

1001
ACAD
1000
MTEXTBEGIN
1070
    73
1070
     1
1070
    44
1040
1.0
1070
    74
1070
     0
1000
MTEXTEND
  0
MTEXT
  5
55D2
330
1A
100
AcDbEntity
  8
SUNPOU
100
AcDbMText
 10
43178.86887675626
 20
32904.80656852938
 30
0.0
 40
35.0
 41
0.0
 71
     9
 72
     5
  1

1001
ACAD
1000
MTEXTBEGIN
1070
    73
1070
     1
1070
    44
1040
1.0
1070
    74
1070
     0
1000
MTEXTEND
  0
MTEXT
  5
55D3
330
1A
100
AcDbEntity
  8
SUNPOU
100
AcDbMText
 10
42087.35393433121
 20
33513.58197857809
 30
0.0
 40
350.0000004171781
 41
0.0
 71
     7
 72
     5
  1

1001
ACAD
1000
MTEXTBEGIN
1070
    73
1070
     1
1070
    44
1040
1.0
1070
    74
1070
     0
1000
MTEXTEND
  0
MTEXT
  5
55D4
330
1A
100
AcDbEntity
  8
0
100
AcDbMText
 10
48131.30469227412
 20
31493.50434071431
 30
0.0
 40
8.0
 41
0.0
 71
     7
 72
     5
  1

1001
ACAD
1000
MTEXTBEGIN
1070
    73
1070
     1
1070
    44
1040
1.0
1070
    74
1070
     0
1000
MTEXTEND
  0
MTEXT
  5
55D5
330
1A
100
AcDbEntity
  8
0
100
AcDbMText
 10
50416.66238216901
 20
32464.29463546537
 30
0.0
 40
8.0
 41
0.0
 71
     7
 72
     5
  1

1001
ACAD
1000
MTEXTBEGIN
1070
    73
1070
     1
1070
    44
1040
1.0
1070
    74
1070
     0
1000
MTEXTEND
  0
MTEXT
  5
55D6
330
1A
100
AcDbEntity
  8
SUNPOU
100
AcDbMText
 10
53082.55940285115
 20
41976.4060278405
 30
0.0
 40
10.5
 41
0.0
 71
     1
 72
     5
  1

1001
ACAD
1000
MTEXTBEGIN
1070
    73
1070
     1
1070
    44
1040
1.0
1070
    74
1070
     0
1000
MTEXTEND
  0
MTEXT
  5
55D7
330
1A
100
AcDbEntity
  8
SUNPOU
100
AcDbMText
 10
45151.63620691522
 20
41029.61289392755
 30
0.0
 40
10.5
 41
0.0
 71
     7
 72
     5
  1

1001
ACAD
1000
MTEXTBEGIN
1070
    73
1070
     1
1070
    44
1040
1.0
1070
    74
1070
     0
1000
MTEXTEND
  0
MTEXT
  5
55D8
330
1A
100
AcDbEntity
  8
SUNPOU
100
AcDbMText
 10
48100.61987142798
 20
45930.28896577039
 30
0.0
 40
10.5
 41
0.0
 71
     7
 72
     5
  1

1001
ACAD
1000
MTEXTBEGIN
1070
    73
1070
     1
1070
    44
1040
1.0
1070
    74
1070
     0
1000
MTEXTEND
  0
MTEXT
  5
55D9
330
1A
100
AcDbEntity
  8
SUNPOU
100
AcDbMText
 10
52609.69799937854
 20
48366.58971339046
 30
0.0
 40
10.5
 41
0.0
 71
     7
 72
     5
  1

1001
ACAD
1000
MTEXTBEGIN
1070
    73
1070
     1
1070
    44
1040
1.0
1070
    74
1070
     0
1000
MTEXTEND
  0
MTEXT
  5
55DA
330
1A
100
AcDbEntity
  8
SUNPOU
100
AcDbMText
 10
36210.53588614687
 20
27364.18586377937
 30
0.0
 40
10.5
 41
0.0
 71
     7
 72
     5
  1

1001
ACAD
1000
MTEXTBEGIN
1070
    73
1070
     1
1070
    44
1040
1.0
1070
    74
1070
     0
1000
MTEXTEND
  0
MTEXT
  5
55DB
330
1A
100
AcDbEntity
  8
SUNPOU
100
AcDbMText
 10
38021.29879752181
 20
33691.59985125794
 30
0.0
 40
10.5
 41
0.0
 71
     9
 72
     5
  1

1001
ACAD
1000
MTEXTBEGIN
1070
    73
1070
     1
1070
    44
1040
1.0
1070
    74
1070
     0
1000
MTEXTEND
  0
MTEXT
  5
55DC
330
1A
100
AcDbEntity
  8
SUNPOU
100
AcDbMText
 10
46743.46636343979
 20
41107.43438279541
 30
0.0
 40
10.5
 41
0.0
 71
     9
 72
     5
  1

1001
ACAD
1000
MTEXTBEGIN
1070
    73
1070
     1
1070
    44
1040
1.0
1070
    74
1070
     0
1000
MTEXTEND
  0
MTEXT
  5
55DD
330
1A
100
AcDbEntity
  8
SUNPOU
100
AcDbMText
 10
65697.22508076975
 20
58574.01043528746
 30
0.0
 40
10.5
 41
0.0
 71
     9
 72
     5
  1

1001
ACAD
1000
MTEXTBEGIN
1070
    73
1070
     1
1070
    44
1040
1.0
1070
    74
1070
     0
1000
MTEXTEND
  0
MTEXT
  5
55DE
330
1A
100
AcDbEntity
  8
SUNPOU
100
AcDbMText
 10
67640.63232747917
 20
56772.96135540945
 30
0.0
 40
3.5
 41
0.0
 71
     9
 72
     5
  1

1001
ACAD
1000
MTEXTBEGIN
1070
    73
1070
     1
1070
    44
1040
1.0
1070
    74
1070
     0
1000
MTEXTEND
  0
MTEXT
  5
55DF
330
1A
100
AcDbEntity
  8
SUNPOU
100
AcDbMText
 10
98766.81216009888
 20
99267.9070230668
 30
0.0
 40
10.5
 41
0.0
 71
     9
 72
     5
  1

1001
ACAD
1000
MTEXTBEGIN
1070
    73
1070
     1
1070
    44
1040
1.0
1070
    74
1070
     0
1000
MTEXTEND
  0
MTEXT
  5
55E0
330
1A
100
AcDbEntity
  8
SUNPOU
100
AcDbMText
 10
100710.2194068083
 20
97466.85794318878
 30
0.0
 40
3.5
 41
0.0
 71
     9
 72
     5
  1

1001
ACAD
1000
MTEXTBEGIN
1070
    73
1070
     1
1070
    44
1040
1.0
1070
    74
1070
     0
1000
MTEXTEND
  0
MTEXT
  5
55E1
330
1A
100
AcDbEntity
  8
SUNPOU
100
AcDbMText
 10
49207.07986589444
 20
45101.07217804185
 30
0.0
 40
10.5
 41
0.0
 71
     9
 72
     5
  1

1001
ACAD
1000
MTEXTBEGIN
1070
    73
1070
     1
1070
    44
1040
1.0
1070
    74
1070
     0
1000
MTEXTEND
  0
MTEXT
  5
55E2
330
1A
100
AcDbEntity
  8
SUNPOU
100
AcDbMText
 10
35259.07976551845
 20
25928.67303892964
 30
0.0
 40
3.5
 41
0.0
 71
     7
 72
     5
  1

1001
ACAD
1000
MTEXTBEGIN
1070
    73
1070
     1
1070
    44
1040
1.0
1070
    74
1070
     0
1000
MTEXTEND
  0
MTEXT
  5
55E3
330
1A
100
AcDbEntity
  8
SUNPOU
100
AcDbMText
 10
48951.43044828905
 20
35287.73625995099
 30
0.0
 40
10.5
 41
0.0
 71
     9
 72
     5
  1

1001
ACAD
1000
MTEXTBEGIN
1070
    73
1070
     1
1070
    44
1040
1.0
1070
    74
1070
     0
1000
MTEXTEND
  0
MTEXT
  5
55E4
330
1A
100
AcDbEntity
  8
SUNPOU
100
AcDbMText
 10
57673.59801420702
 20
42703.57079148847
 30
0.0
 40
10.5
 41
0.0
 71
     9
 72
     5
  1

1001
ACAD
1000
MTEXTBEGIN
1070
    73
1070
     1
1070
    44
1040
1.0
1070
    74
1070
     0
1000
MTEXTEND
  0
MTEXT
  5
55E5
330
1A
100
AcDbEntity
  8
SUNPOU
100
AcDbMText
 10
76627.35673153699
 20
60170.14684398051
 30
0.0
 40
10.5
 41
0.0
 71
     9
 72
     5
  1

1001
ACAD
1000
MTEXTBEGIN
1070
    73
1070
     1
1070
    44
1040
1.0
1070
    74
1070
     0
1000
MTEXTEND
  0
MTEXT
  5
55E6
330
1A
100
AcDbEntity
  8
SUNPOU
100
AcDbMText
 10
78570.76397824641
 20
58369.09776410251
 30
0.0
 40
3.5
 41
0.0
 71
     9
 72
     5
  1

1001
ACAD
1000
MTEXTBEGIN
1070
    73
1070
     1
1070
    44
1040
1.0
1070
    74
1070
     0
1000
MTEXTEND
  0
MTEXT
  5
55E7
330
1A
100
AcDbEntity
  8
SUNPOU
100
AcDbMText
 10
109696.9438108661
 20
100864.0434317598
 30
0.0
 40
10.5
 41
0.0
 71
     9
 72
     5
  1

1001
ACAD
1000
MTEXTBEGIN
1070
    73
1070
     1
1070
    44
1040
1.0
1070
    74
1070
     0
1000
MTEXTEND
  0
MTEXT
  5
55E8
330
1A
100
AcDbEntity
  8
SUNPOU
100
AcDbMText
 10
111640.3510575755
 20
99062.99435188183
 30
0.0
 40
3.5
 41
0.0
 71
     9
 72
     5
  1

1001
ACAD
1000
MTEXTBEGIN
1070
    73
1070
     1
1070
    44
1040
1.0
1070
    74
1070
     0
1000
MTEXTEND
  0
MTEXT
  5
55E9
330
1A
100
AcDbEntity
  8
SUNPOU
100
AcDbMText
 10
60137.21151666167
 20
46697.20858673491
 30
0.0
 40
10.5
 41
0.0
 71
     9
 72
     5
  1

1001
ACAD
1000
MTEXTBEGIN
1070
    73
1070
     1
1070
    44
1040
1.0
1070
    74
1070
     0
1000
MTEXTEND
  0
MTEXT
  5
55EA
330
1A
100
AcDbEntity
  8
SUNPOU
100
AcDbMText
 10
46189.21141628568
 20
27524.80944762269
 30
0.0
 40
3.5
 41
0.0
 71
     7
 72
     5
  1

1001
ACAD
1000
MTEXTBEGIN
1070
    73
1070
     1
1070
    44
1040
1.0
1070
    74
1070
     0
1000
MTEXTEND
  0
MTEXT
  5
55EB
330
1A
100
AcDbEntity
  8
SUNPOU
100
AcDbMText
 10
45007.68847015541
 20
38269.57947701874
 30
0.0
 40
10.5
 41
0.0
 71
     9
 72
     5
  1

1001
ACAD
1000
MTEXTBEGIN
1070
    73
1070
     1
1070
    44
1040
1.0
1070
    74
1070
     0
1000
MTEXTEND
  0
MTEXT
  5
55EC
330
1A
100
AcDbEntity
  8
SUNPOU
100
AcDbMText
 10
63961.44718748539
 20
55736.15552951081
 30
0.0
 40
10.5
 41
0.0
 71
     9
 72
     5
  1

1001
ACAD
1000
MTEXTBEGIN
1070
    73
1070
     1
1070
    44
1040
1.0
1070
    74
1070
     0
1000
MTEXTEND
  0
MTEXT
  5
55ED
330
1A
100
AcDbEntity
  8
SUNPOU
100
AcDbMText
 10
65904.85443419479
 20
53935.10644963279
 30
0.0
 40
3.5
 41
0.0
 71
     9
 72
     5
  1

1001
ACAD
1000
MTEXTBEGIN
1070
    73
1070
     1
1070
    44
1040
1.0
1070
    74
1070
     0
1000
MTEXTEND
  0
MTEXT
  5
55EE
330
1A
100
AcDbEntity
  8
SUNPOU
100
AcDbMText
 10
97031.03426681451
 20
96430.05211729015
 30
0.0
 40
10.5
 41
0.0
 71
     9
 72
     5
  1

1001
ACAD
1000
MTEXTBEGIN
1070
    73
1070
     1
1070
    44
1040
1.0
1070
    74
1070
     0
1000
MTEXTEND
  0
MTEXT
  5
55EF
330
1A
100
AcDbEntity
  8
SUNPOU
100
AcDbMText
 10
98974.44151352393
 20
94629.00303741212
 30
0.0
 40
3.5
 41
0.0
 71
     9
 72
     5
  1

1001
ACAD
1000
MTEXTBEGIN
1070
    73
1070
     1
1070
    44
1040
1.0
1070
    74
1070
     0
1000
MTEXTEND
  0
MTEXT
  5
55F0
330
1A
100
AcDbEntity
  8
SUNPOU
100
AcDbMText
 10
47471.30197261006
 20
42263.21727226519
 30
0.0
 40
10.5
 41
0.0
 71
     9
 72
     5
  1

1001
ACAD
1000
MTEXTBEGIN
1070
    73
1070
     1
1070
    44
1040
1.0
1070
    74
1070
     0
1000
MTEXTEND
  0
MTEXT
  5
55F1
330
1A
100
AcDbEntity
  8
SUNPOU
100
AcDbMText
 10
33523.30187223408
 20
23090.81813315298
 30
0.0
 40
3.5
 41
0.0
 71
     7
 72
     5
  1

1001
ACAD
1000
MTEXTBEGIN
1070
    73
1070
     1
1070
    44
1040
1.0
1070
    74
1070
     0
1000
MTEXTEND
  0
MTEXT
  5
55F2
330
1A
100
AcDbEntity
  8
SUNPOU
100
AcDbMText
 10
57959.46254102503
 20
50038.08111611015
 30
0.0
 40
10.5
 41
0.0
 71
     9
 72
     5
  1

1001
ACAD
1000
MTEXTBEGIN
1070
    73
1070
     1
1070
    44
1040
1.0
1070
    74
1070
     0
1000
MTEXTEND
  0
MTEXT
  5
55F3
330
1A
100
AcDbEntity
  8
SUNPOU
100
AcDbMText
 10
76913.22125835503
 20
67504.65716860222
 30
0.0
 40
10.5
 41
0.0
 71
     9
 72
     5
  1

1001
ACAD
1000
MTEXTBEGIN
1070
    73
1070
     1
1070
    44
1040
1.0
1070
    74
1070
     0
1000
MTEXTEND
  0
MTEXT
  5
55F4
330
1A
100
AcDbEntity
  8
SUNPOU
100
AcDbMText
 10
78856.62850506443
 20
65703.6080887242
 30
0.0
 40
3.5
 41
0.0
 71
     9
 72
     5
  1

1001
ACAD
1000
MTEXTBEGIN
1070
    73
1070
     1
1070
    44
1040
1.0
1070
    74
1070
     0
1000
MTEXTEND
  0
MTEXT
  5
55F5
330
1A
100
AcDbEntity
  8
SUNPOU
100
AcDbMText
 10
109982.8083376841
 20
108198.5537563815
 30
0.0
 40
10.5
 41
0.0
 71
     9
 72
     5
  1

1001
ACAD
1000
MTEXTBEGIN
1070
    73
1070
     1
1070
    44
1040
1.0
1070
    74
1070
     0
1000
MTEXTEND
  0
MTEXT
  5
55F6
330
1A
100
AcDbEntity
  8
SUNPOU
100
AcDbMText
 10
111926.2155843935
 20
106397.5046765035
 30
0.0
 40
3.5
 41
0.0
 71
     9
 72
     5
  1

1001
ACAD
1000
MTEXTBEGIN
1070
    73
1070
     1
1070
    44
1040
1.0
1070
    74
1070
     0
1000
MTEXTEND
  0
MTEXT
  5
55F7
330
1A
100
AcDbEntity
  8
SUNPOU
100
AcDbMText
 10
60423.07604347968
 20
54031.71891135659
 30
0.0
 40
10.5
 41
0.0
 71
     9
 72
     5
  1

1001
ACAD
1000
MTEXTBEGIN
1070
    73
1070
     1
1070
    44
1040
1.0
1070
    74
1070
     0
1000
MTEXTEND
  0
MTEXT
  5
55F8
330
1A
100
AcDbEntity
  8
SUNPOU
100
AcDbMText
 10
46475.07594310369
 20
34859.3197722444
 30
0.0
 40
3.5
 41
0.0
 71
     7
 72
     5
  1

1001
ACAD
1000
MTEXTBEGIN
1070
    73
1070
     1
1070
    44
1040
1.0
1070
    74
1070
     0
1000
MTEXTEND
  0
MTEXT
  5
55F9
330
1A
100
AcDbEntity
  8
SUNPOU
100
AcDbMText
 10
74027.35402123588
 20
68370.58278833383
 30
0.0
 40
10.5
 41
0.0
 71
     9
 72
     5
  1

1001
ACAD
1000
MTEXTBEGIN
1070
    73
1070
     1
1070
    44
1040
1.0
1070
    74
1070
     0
1000
MTEXTEND
  0
MTEXT
  5
55FA
330
1A
100
AcDbEntity
  8
SUNPOU
100
AcDbMText
 10
75970.7612679453
 20
66569.53370845583
 30
0.0
 40
3.5
 41
0.0
 71
     9
 72
     5
  1

1001
ACAD
1000
MTEXTBEGIN
1070
    73
1070
     1
1070
    44
1040
1.0
1070
    74
1070
     0
1000
MTEXTEND
  0
MTEXT
  5
55FB
330
1A
100
AcDbEntity
  8
SUNPOU
100
AcDbMText
 10
107096.941100565
 20
109064.4793761132
 30
0.0
 40
10.5
 41
0.0
 71
     9
 72
     5
  1

1001
ACAD
1000
MTEXTBEGIN
1070
    73
1070
     1
1070
    44
1040
1.0
1070
    74
1070
     0
1000
MTEXTEND
  0
MTEXT
  5
55FC
330
1A
100
AcDbEntity
  8
SUNPOU
100
AcDbMText
 10
109040.3483472744
 20
107263.4302962351
 30
0.0
 40
3.5
 41
0.0
 71
     9
 72
     5
  1

1001
ACAD
1000
MTEXTBEGIN
1070
    73
1070
     1
1070
    44
1040
1.0
1070
    74
1070
     0
1000
MTEXTEND
  0
MTEXT
  5
55FD
330
1A
100
AcDbEntity
  8
SUNPOU
100
AcDbMText
 10
105709.1709283621
 20
108141.3777665285
 30
0.0
 40
10.5
 41
0.0
 71
     9
 72
     5
  1

1001
ACAD
1000
MTEXTBEGIN
1070
    73
1070
     1
1070
    44
1040
1.0
1070
    74
1070
     0
1000
MTEXTEND
  0
MTEXT
  5
55FE
330
1A
100
AcDbEntity
  8
SUNPOU
100
AcDbMText
 10
107652.5781750715
 20
106340.3286866505
 30
0.0
 40
3.5
 41
0.0
 71
     9
 72
     5
  1

1001
ACAD
1000
MTEXTBEGIN
1070
    73
1070
     1
1070
    44
1040
1.0
1070
    74
1070
     0
1000
MTEXTEND
  0
MTEXT
  5
55FF
330
1A
100
AcDbEntity
  8
SUNPOU
100
AcDbMText
 10
73193.09268743351
 20
66158.78082845056
 30
0.0
 40
10.5
 41
0.0
 71
     9
 72
     5
  1

1001
ACAD
1000
MTEXTBEGIN
1070
    73
1070
     1
1070
    44
1040
1.0
1070
    74
1070
     0
1000
MTEXTEND
  0
MTEXT
  5
5600
330
1A
100
AcDbEntity
  8
SUNPOU
100
AcDbMText
 10
75916.39889159806
 20
66563.46252003162
 30
0.0
 40
3.5
 41
0.0
 71
     9
 72
     5
  1

1001
ACAD
1000
MTEXTBEGIN
1070
    73
1070
     1
1070
    44
1040
1.0
1070
    74
1070
     0
1000
MTEXTEND
  0
MTEXT
  5
5601
330
1A
100
AcDbEntity
  8
SUNPOU
100
AcDbMText
 10
75124.04436649058
 20
63402.1566819768
 30
0.0
 40
10.5
 41
0.0
 71
     9
 72
     5
  1

1001
ACAD
1000
MTEXTBEGIN
1070
    73
1070
     1
1070
    44
1040
1.0
1070
    74
1070
     0
1000
MTEXTEND
  0
MTEXT
  5
5602
330
1A
100
AcDbEntity
  8
SUNPOU
100
AcDbMText
 10
77067.4516132
 20
61601.1076020988
 30
0.0
 40
3.5
 41
0.0
 71
     9
 72
     5
  1

1001
ACAD
1000
MTEXTBEGIN
1070
    73
1070
     1
1070
    44
1040
1.0
1070
    74
1070
     0
1000
MTEXTEND
  0
MTEXT
  5
5603
330
1A
100
AcDbEntity
  8
SUNPOU
100
AcDbMText
 10
77012.54710378659
 20
61488.33571981449
 30
0.0
 40
3.5
 41
0.0
 71
     9
 72
     5
  1

1001
ACAD
1000
MTEXTBEGIN
1070
    73
1070
     1
1070
    44
1040
1.0
1070
    74
1070
     0
1000
MTEXTEND
  0
MTEXT
  5
5604
330
1A
100
AcDbEntity
  8
SUNPOU
100
AcDbMText
 10
76376.61896736668
 20
60677.01447874797
 30
0.0
 40
3.5
 41
0.0
 71
     9
 72
     5
  1

1001
ACAD
1000
MTEXTBEGIN
1070
    73
1070
     1
1070
    44
1040
1.0
1070
    74
1070
     0
1000
MTEXTEND
  0
MTEXT
  5
5605
330
1A
100
AcDbEntity
  8
SUNPOU
100
AcDbMText
 10
76375.37854794595
 20
60676.76650181047
 30
0.0
 40
10.5
 41
0.0
 71
     9
 72
     5
  1

1001
ACAD
1000
MTEXTBEGIN
1070
    73
1070
     1
1070
    44
1040
1.0
1070
    74
1070
     0
1000
MTEXTEND
  0
MTEXT
  5
5606
330
1A
100
AcDbEntity
  8
SUNPOU
100
AcDbMText
 10
84709.93991079748
 20
78034.0328293557
 30
0.0
 40
10.5
 41
0.0
 71
     9
 72
     5
  1

1001
ACAD
1000
MTEXTBEGIN
1070
    73
1070
     1
1070
    44
1040
1.0
1070
    74
1070
     0
1000
MTEXTEND
  0
MTEXT
  5
5607
330
1A
100
AcDbEntity
  8
SUNPOU
100
AcDbMText
 10
93432.10747671548
 20
85449.86736089315
 30
0.0
 40
10.5
 41
0.0
 71
     9
 72
     5
  1

1001
ACAD
1000
MTEXTBEGIN
1070
    73
1070
     1
1070
    44
1040
1.0
1070
    74
1070
     0
1000
MTEXTEND
  0
MTEXT
  5
5608
330
1A
100
AcDbEntity
  8
SUNPOU
100
AcDbMText
 10
112385.8661940454
 20
102916.4434133851
 30
0.0
 40
10.5
 41
0.0
 71
     9
 72
     5
  1

1001
ACAD
1000
MTEXTBEGIN
1070
    73
1070
     1
1070
    44
1040
1.0
1070
    74
1070
     0
1000
MTEXTEND
  0
MTEXT
  5
5609
330
1A
100
AcDbEntity
  8
SUNPOU
100
AcDbMText
 10
114329.2734407548
 20
101115.3943335072
 30
0.0
 40
3.5
 41
0.0
 71
     9
 72
     5
  1

1001
ACAD
1000
MTEXTBEGIN
1070
    73
1070
     1
1070
    44
1040
1.0
1070
    74
1070
     0
1000
MTEXTEND
  0
MTEXT
  5
560A
330
1A
100
AcDbEntity
  8
SUNPOU
100
AcDbMText
 10
145455.4532733745
 20
143610.3400011645
 30
0.0
 40
10.5
 41
0.0
 71
     9
 72
     5
  1

1001
ACAD
1000
MTEXTBEGIN
1070
    73
1070
     1
1070
    44
1040
1.0
1070
    74
1070
     0
1000
MTEXTEND
  0
MTEXT
  5
560B
330
1A
100
AcDbEntity
  8
SUNPOU
100
AcDbMText
 10
147398.8605200839
 20
141809.2909212864
 30
0.0
 40
3.5
 41
0.0
 71
     9
 72
     5
  1

1001
ACAD
1000
MTEXTBEGIN
1070
    73
1070
     1
1070
    44
1040
1.0
1070
    74
1070
     0
1000
MTEXTEND
  0
MTEXT
  5
560C
330
1A
100
AcDbEntity
  8
SUNPOU
100
AcDbMText
 10
95895.72097917013
 20
89443.5051561396
 30
0.0
 40
10.5
 41
0.0
 71
     9
 72
     5
  1

1001
ACAD
1000
MTEXTBEGIN
1070
    73
1070
     1
1070
    44
1040
1.0
1070
    74
1070
     0
1000
MTEXTEND
  0
MTEXT
  5
560D
330
1A
100
AcDbEntity
  8
SUNPOU
100
AcDbMText
 10
81947.72087879414
 20
70271.1060170274
 30
0.0
 40
3.5
 41
0.0
 71
     7
 72
     5
  1

1001
ACAD
1000
MTEXTBEGIN
1070
    73
1070
     1
1070
    44
1040
1.0
1070
    74
1070
     0
1000
MTEXTEND
  0
MTEXT
  5
560E
330
1A
100
AcDbEntity
  8
SUNPOU
100
AcDbMText
 10
62932.89027578729
 20
58033.25474784561
 30
0.0
 40
10.5
 41
0.0
 71
     7
 72
     5
  1

1001
ACAD
1000
MTEXTBEGIN
1070
    73
1070
     1
1070
    44
1040
1.0
1070
    74
1070
     0
1000
MTEXTEND
  0
MTEXT
  5
560F
330
1A
100
AcDbEntity
  8
SUNPOU
100
AcDbMText
 10
50475.66201083918
 20
42188.32316974719
 30
0.0
 40
35.0
 41
0.0
 71
     9
 72
     5
  1

1001
ACAD
1000
MTEXTBEGIN
1070
    73
1070
     1
1070
    44
1040
1.0
1070
    74
1070
     0
1000
MTEXTEND
  0
MTEXT
  5
5610
330
1A
100
AcDbEntity
  8
SUNPOU
100
AcDbMText
 10
49384.14706841413
 20
42797.0985797959
 30
0.0
 40
350.0000004171781
 41
0.0
 71
     7
 72
     5
  1

1001
ACAD
1000
MTEXTBEGIN
1070
    73
1070
     1
1070
    44
1040
1.0
1070
    74
1070
     0
1000
MTEXTEND
  0
MTEXT
  5
5611
330
1A
100
AcDbEntity
  8
0
100
AcDbMText
 10
55428.09782635704
 20
40777.02094193211
 30
0.0
 40
8.0
 41
0.0
 71
     7
 72
     5
  1

1001
ACAD
1000
MTEXTBEGIN
1070
    73
1070
     1
1070
    44
1040
1.0
1070
    74
1070
     0
1000
MTEXTEND
  0
MTEXT
  5
5612
330
1A
100
AcDbEntity
  8
0
100
AcDbMText
 10
57713.45551625194
 20
41747.81123668317
 30
0.0
 40
8.0
 41
0.0
 71
     7
 72
     5
  1

1001
ACAD
1000
MTEXTBEGIN
1070
    73
1070
     1
1070
    44
1040
1.0
1070
    74
1070
     0
1000
MTEXTEND
  0
MTEXT
  5
5613
330
1A
100
AcDbEntity
  8
SUNPOU
100
AcDbMText
 10
60379.35253693408
 20
51259.9226290583
 30
0.0
 40
10.5
 41
0.0
 71
     1
 72
     5
  1

1001
ACAD
1000
MTEXTBEGIN
1070
    73
1070
     1
1070
    44
1040
1.0
1070
    74
1070
     0
1000
MTEXTEND
  0
MTEXT
  5
5614
330
1A
100
AcDbEntity
  8
SUNPOU
100
AcDbMText
 10
52448.42934099814
 20
50313.12949514535
 30
0.0
 40
10.5
 41
0.0
 71
     7
 72
     5
  1

1001
ACAD
1000
MTEXTBEGIN
1070
    73
1070
     1
1070
    44
1040
1.0
1070
    74
1070
     0
1000
MTEXTEND
  0
MTEXT
  5
5615
330
1A
100
AcDbEntity
  8
SUNPOU
100
AcDbMText
 10
55397.41300551091
 20
55213.80556698819
 30
0.0
 40
10.5
 41
0.0
 71
     7
 72
     5
  1

1001
ACAD
1000
MTEXTBEGIN
1070
    73
1070
     1
1070
    44
1040
1.0
1070
    74
1070
     0
1000
MTEXTEND
  0
MTEXT
  5
5616
330
1A
100
AcDbEntity
  8
SUNPOU
100
AcDbMText
 10
59906.49113346147
 20
57650.10631460826
 30
0.0
 40
10.5
 41
0.0
 71
     7
 72
     5
  1

1001
ACAD
1000
MTEXTBEGIN
1070
    73
1070
     1
1070
    44
1040
1.0
1070
    74
1070
     0
1000
MTEXTEND
  0
MTEXT
  5
5617
330
1A
100
AcDbEntity
  8
SUNPOU
100
AcDbMText
 10
43507.32902022979
 20
36647.70246499718
 30
0.0
 40
10.5
 41
0.0
 71
     7
 72
     5
  1

1001
ACAD
1000
MTEXTBEGIN
1070
    73
1070
     1
1070
    44
1040
1.0
1070
    74
1070
     0
1000
MTEXTEND
  0
MTEXT
  5
5618
330
1A
100
AcDbEntity
  8
SUNPOU
100
AcDbMText
 10
94698.84745413006
 20
82320.68302864542
 30
0.0
 40
10.5
 41
0.0
 71
     9
 72
     5
  1

1001
ACAD
1000
MTEXTBEGIN
1070
    73
1070
     1
1070
    44
1040
1.0
1070
    74
1070
     0
1000
MTEXTEND
  0
MTEXT
  5
5619
330
1A
100
AcDbEntity
  8
SUNPOU
100
AcDbMText
 10
103421.015020048
 20
89736.5175601829
 30
0.0
 40
10.5
 41
0.0
 71
     9
 72
     5
  1

1001
ACAD
1000
MTEXTBEGIN
1070
    73
1070
     1
1070
    44
1040
1.0
1070
    74
1070
     0
1000
MTEXTEND
  0
MTEXT
  5
561A
330
1A
100
AcDbEntity
  8
SUNPOU
100
AcDbMText
 10
122374.773737378
 20
107203.0936126749
 30
0.0
 40
10.5
 41
0.0
 71
     9
 72
     5
  1

1001
ACAD
1000
MTEXTBEGIN
1070
    73
1070
     1
1070
    44
1040
1.0
1070
    74
1070
     0
1000
MTEXTEND
  0
MTEXT
  5
561B
330
1A
100
AcDbEntity
  8
SUNPOU
100
AcDbMText
 10
124318.1809840874
 20
105402.0445327969
 30
0.0
 40
3.5
 41
0.0
 71
     9
 72
     5
  1

1001
ACAD
1000
MTEXTBEGIN
1070
    73
1070
     1
1070
    44
1040
1.0
1070
    74
1070
     0
1000
MTEXTEND
  0
MTEXT
  5
561C
330
1A
100
AcDbEntity
  8
SUNPOU
100
AcDbMText
 10
155444.3608167071
 20
147896.9902004542
 30
0.0
 40
10.5
 41
0.0
 71
     9
 72
     5
  1

1001
ACAD
1000
MTEXTBEGIN
1070
    73
1070
     1
1070
    44
1040
1.0
1070
    74
1070
     0
1000
MTEXTEND
  0
MTEXT
  5
561D
330
1A
100
AcDbEntity
  8
SUNPOU
100
AcDbMText
 10
157387.7680634165
 20
146095.9411205762
 30
0.0
 40
3.5
 41
0.0
 71
     9
 72
     5
  1

1001
ACAD
1000
MTEXTBEGIN
1070
    73
1070
     1
1070
    44
1040
1.0
1070
    74
1070
     0
1000
MTEXTEND
  0
MTEXT
  5
561E
330
1A
100
AcDbEntity
  8
SUNPOU
100
AcDbMText
 10
105884.6285225027
 20
93730.15535542933
 30
0.0
 40
10.5
 41
0.0
 71
     9
 72
     5
  1

1001
ACAD
1000
MTEXTBEGIN
1070
    73
1070
     1
1070
    44
1040
1.0
1070
    74
1070
     0
1000
MTEXTEND
  0
MTEXT
  5
561F
330
1A
100
AcDbEntity
  8
SUNPOU
100
AcDbMText
 10
91936.6284221267
 20
74557.75621631714
 30
0.0
 40
3.5
 41
0.0
 71
     7
 72
     5
  1

1001
ACAD
1000
MTEXTBEGIN
1070
    73
1070
     1
1070
    44
1040
1.0
1070
    74
1070
     0
1000
MTEXTEND
  0
MTEXT
  5
5620
330
1A
100
AcDbEntity
  8
SUNPOU
100
AcDbMText
 10
72921.79781911986
 20
62319.90494713533
 30
0.0
 40
10.5
 41
0.0
 71
     7
 72
     5
  1

1001
ACAD
1000
MTEXTBEGIN
1070
    73
1070
     1
1070
    44
1040
1.0
1070
    74
1070
     0
1000
MTEXTEND
  0
MTEXT
  5
5621
330
1A
100
AcDbEntity
  8
SUNPOU
100
AcDbMText
 10
60464.56955417175
 20
46474.97336903692
 30
0.0
 40
35.0
 41
0.0
 71
     9
 72
     5
  1

1001
ACAD
1000
MTEXTBEGIN
1070
    73
1070
     1
1070
    44
1040
1.0
1070
    74
1070
     0
1000
MTEXTEND
  0
MTEXT
  5
5622
330
1A
100
AcDbEntity
  8
SUNPOU
100
AcDbMText
 10
59373.05461174672
 20
47083.74877908562
 30
0.0
 40
350.0000004171781
 41
0.0
 71
     7
 72
     5
  1

1001
ACAD
1000
MTEXTBEGIN
1070
    73
1070
     1
1070
    44
1040
1.0
1070
    74
1070
     0
1000
MTEXTEND
  0
MTEXT
  5
5623
330
1A
100
AcDbEntity
  8
0
100
AcDbMText
 10
65417.00536968962
 20
45063.67114122186
 30
0.0
 40
8.0
 41
0.0
 71
     7
 72
     5
  1

1001
ACAD
1000
MTEXTBEGIN
1070
    73
1070
     1
1070
    44
1040
1.0
1070
    74
1070
     0
1000
MTEXTEND
  0
MTEXT
  5
5624
330
1A
100
AcDbEntity
  8
0
100
AcDbMText
 10
67702.36305958452
 20
46034.46143597292
 30
0.0
 40
8.0
 41
0.0
 71
     7
 72
     5
  1

1001
ACAD
1000
MTEXTBEGIN
1070
    73
1070
     1
1070
    44
1040
1.0
1070
    74
1070
     0
1000
MTEXTEND
  0
MTEXT
  5
5625
330
1A
100
AcDbEntity
  8
SUNPOU
100
AcDbMText
 10
70368.26008026666
 20
55546.57282834803
 30
0.0
 40
10.5
 41
0.0
 71
     1
 72
     5
  1

1001
ACAD
1000
MTEXTBEGIN
1070
    73
1070
     1
1070
    44
1040
1.0
1070
    74
1070
     0
1000
MTEXTEND
  0
MTEXT
  5
5626
330
1A
100
AcDbEntity
  8
SUNPOU
100
AcDbMText
 10
62437.33688433072
 20
54599.77969443508
 30
0.0
 40
10.5
 41
0.0
 71
     7
 72
     5
  1

1001
ACAD
1000
MTEXTBEGIN
1070
    73
1070
     1
1070
    44
1040
1.0
1070
    74
1070
     0
1000
MTEXTEND
  0
MTEXT
  5
5627
330
1A
100
AcDbEntity
  8
SUNPOU
100
AcDbMText
 10
65386.32054884349
 20
59500.45576627792
 30
0.0
 40
10.5
 41
0.0
 71
     7
 72
     5
  1

1001
ACAD
1000
MTEXTBEGIN
1070
    73
1070
     1
1070
    44
1040
1.0
1070
    74
1070
     0
1000
MTEXTEND
  0
MTEXT
  5
5628
330
1A
100
AcDbEntity
  8
SUNPOU
100
AcDbMText
 10
69895.39867679405
 20
61936.756513898
 30
0.0
 40
10.5
 41
0.0
 71
     7
 72
     5
  1

1001
ACAD
1000
MTEXTBEGIN
1070
    73
1070
     1
1070
    44
1040
1.0
1070
    74
1070
     0
1000
MTEXTEND
  0
MTEXT
  5
5629
330
1A
100
AcDbEntity
  8
SUNPOU
100
AcDbMText
 10
53496.23656356237
 20
40934.35266428691
 30
0.0
 40
10.5
 41
0.0
 71
     7
 72
     5
  1

1001
ACAD
1000
MTEXTBEGIN
1070
    73
1070
     1
1070
    44
1040
1.0
1070
    74
1070
     0
1000
MTEXTEND
  0
MTEXT
  5
562A
330
1A
100
AcDbEntity
  8
SUNPOU
100
AcDbMText
 10
55306.99947493731
 20
47261.76665176547
 30
0.0
 40
10.5
 41
0.0
 71
     9
 72
     5
  1

1001
ACAD
1000
MTEXTBEGIN
1070
    73
1070
     1
1070
    44
1040
1.0
1070
    74
1070
     0
1000
MTEXTEND
  0
MTEXT
  5
562B
330
1A
100
AcDbEntity
  8
SUNPOU
100
AcDbMText
 10
64029.16704085528
 20
54677.60118330295
 30
0.0
 40
10.5
 41
0.0
 71
     9
 72
     5
  1

1001
ACAD
1000
MTEXTBEGIN
1070
    73
1070
     1
1070
    44
1040
1.0
1070
    74
1070
     0
1000
MTEXTEND
  0
MTEXT
  5
562C
330
1A
100
AcDbEntity
  8
SUNPOU
100
AcDbMText
 10
82982.92575818527
 20
72144.17723579499
 30
0.0
 40
10.5
 41
0.0
 71
     9
 72
     5
  1

1001
ACAD
1000
MTEXTBEGIN
1070
    73
1070
     1
1070
    44
1040
1.0
1070
    74
1070
     0
1000
MTEXTEND
  0
MTEXT
  5
562D
330
1A
100
AcDbEntity
  8
SUNPOU
100
AcDbMText
 10
84926.33300489467
 20
70343.12815591698
 30
0.0
 40
3.5
 41
0.0
 71
     9
 72
     5
  1

1001
ACAD
1000
MTEXTBEGIN
1070
    73
1070
     1
1070
    44
1040
1.0
1070
    74
1070
     0
1000
MTEXTEND
  0
MTEXT
  5
562E
330
1A
100
AcDbEntity
  8
SUNPOU
100
AcDbMText
 10
116052.5128375143
 20
112838.0738235743
 30
0.0
 40
10.5
 41
0.0
 71
     9
 72
     5
  1

1001
ACAD
1000
MTEXTBEGIN
1070
    73
1070
     1
1070
    44
1040
1.0
1070
    74
1070
     0
1000
MTEXTEND
  0
MTEXT
  5
562F
330
1A
100
AcDbEntity
  8
SUNPOU
100
AcDbMText
 10
117995.9200842238
 20
111037.0247436963
 30
0.0
 40
3.5
 41
0.0
 71
     9
 72
     5
  1

1001
ACAD
1000
MTEXTBEGIN
1070
    73
1070
     1
1070
    44
1040
1.0
1070
    74
1070
     0
1000
MTEXTEND
  0
MTEXT
  5
5630
330
1A
100
AcDbEntity
  8
SUNPOU
100
AcDbMText
 10
66492.78054330994
 20
58671.23897854939
 30
0.0
 40
10.5
 41
0.0
 71
     9
 72
     5
  1

1001
ACAD
1000
MTEXTBEGIN
1070
    73
1070
     1
1070
    44
1040
1.0
1070
    74
1070
     0
1000
MTEXTEND
  0
MTEXT
  5
5631
330
1A
100
AcDbEntity
  8
SUNPOU
100
AcDbMText
 10
52544.78044293396
 20
39498.83983943717
 30
0.0
 40
3.5
 41
0.0
 71
     7
 72
     5
  1

1001
ACAD
1000
MTEXTBEGIN
1070
    73
1070
     1
1070
    44
1040
1.0
1070
    74
1070
     0
1000
MTEXTEND
  0
MTEXT
  5
5632
330
1A
100
AcDbEntity
  8
SUNPOU
100
AcDbMText
 10
66237.13112570454
 20
48857.90306045851
 30
0.0
 40
10.5
 41
0.0
 71
     9
 72
     5
  1

1001
ACAD
1000
MTEXTBEGIN
1070
    73
1070
     1
1070
    44
1040
1.0
1070
    74
1070
     0
1000
MTEXTEND
  0
MTEXT
  5
5633
330
1A
100
AcDbEntity
  8
SUNPOU
100
AcDbMText
 10
74959.29869162252
 20
56273.737591996
 30
0.0
 40
10.5
 41
0.0
 71
     9
 72
     5
  1

1001
ACAD
1000
MTEXTBEGIN
1070
    73
1070
     1
1070
    44
1040
1.0
1070
    74
1070
     0
1000
MTEXTEND
  0
MTEXT
  5
5634
330
1A
100
AcDbEntity
  8
SUNPOU
100
AcDbMText
 10
93913.0574089525
 20
73740.31364448805
 30
0.0
 40
10.5
 41
0.0
 71
     9
 72
     5
  1

1001
ACAD
1000
MTEXTBEGIN
1070
    73
1070
     1
1070
    44
1040
1.0
1070
    74
1070
     0
1000
MTEXTEND
  0
MTEXT
  5
5635
330
1A
100
AcDbEntity
  8
SUNPOU
100
AcDbMText
 10
95856.46465566192
 20
71939.26456461004
 30
0.0
 40
3.5
 41
0.0
 71
     9
 72
     5
  1

1001
ACAD
1000
MTEXTBEGIN
1070
    73
1070
     1
1070
    44
1040
1.0
1070
    74
1070
     0
1000
MTEXTEND
  0
MTEXT
  5
5636
330
1A
100
AcDbEntity
  8
SUNPOU
100
AcDbMText
 10
126982.6444882816
 20
114434.2102322673
 30
0.0
 40
10.5
 41
0.0
 71
     9
 72
     5
  1

1001
ACAD
1000
MTEXTBEGIN
1070
    73
1070
     1
1070
    44
1040
1.0
1070
    74
1070
     0
1000
MTEXTEND
  0
MTEXT
  5
5637
330
1A
100
AcDbEntity
  8
SUNPOU
100
AcDbMText
 10
128926.051734991
 20
112633.1611523893
 30
0.0
 40
3.5
 41
0.0
 71
     9
 72
     5
  1

1001
ACAD
1000
MTEXTBEGIN
1070
    73
1070
     1
1070
    44
1040
1.0
1070
    74
1070
     0
1000
MTEXTEND
  0
MTEXT
  5
5638
330
1A
100
AcDbEntity
  8
SUNPOU
100
AcDbMText
 10
77422.91219407717
 20
60267.37538724244
 30
0.0
 40
10.5
 41
0.0
 71
     9
 72
     5
  1

1001
ACAD
1000
MTEXTBEGIN
1070
    73
1070
     1
1070
    44
1040
1.0
1070
    74
1070
     0
1000
MTEXTEND
  0
MTEXT
  5
5639
330
1A
100
AcDbEntity
  8
SUNPOU
100
AcDbMText
 10
63474.91209370119
 20
41094.97624813023
 30
0.0
 40
3.5
 41
0.0
 71
     7
 72
     5
  1

1001
ACAD
1000
MTEXTBEGIN
1070
    73
1070
     1
1070
    44
1040
1.0
1070
    74
1070
     0
1000
MTEXTEND
  0
MTEXT
  5
563A
330
1A
100
AcDbEntity
  8
SUNPOU
100
AcDbMText
 10
48117.65086229006
 20
40806.11043916631
 30
0.0
 40
10.5
 41
0.0
 71
     9
 72
     5
  1

1001
ACAD
1000
MTEXTBEGIN
1070
    73
1070
     1
1070
    44
1040
1.0
1070
    74
1070
     0
1000
MTEXTEND
  0
MTEXT
  5
563B
330
1A
100
AcDbEntity
  8
SUNPOU
100
AcDbMText
 10
67071.40957962004
 20
58272.68649165837
 30
0.0
 40
10.5
 41
0.0
 71
     9
 72
     5
  1

1001
ACAD
1000
MTEXTBEGIN
1070
    73
1070
     1
1070
    44
1040
1.0
1070
    74
1070
     0
1000
MTEXTEND
  0
MTEXT
  5
563C
330
1A
100
AcDbEntity
  8
SUNPOU
100
AcDbMText
 10
69014.81682632945
 20
56471.63741178035
 30
0.0
 40
3.5
 41
0.0
 71
     9
 72
     5
  1

1001
ACAD
1000
MTEXTBEGIN
1070
    73
1070
     1
1070
    44
1040
1.0
1070
    74
1070
     0
1000
MTEXTEND
  0
MTEXT
  5
563D
330
1A
100
AcDbEntity
  8
SUNPOU
100
AcDbMText
 10
100140.9966589491
 20
98966.58307943772
 30
0.0
 40
10.5
 41
0.0
 71
     9
 72
     5
  1

1001
ACAD
1000
MTEXTBEGIN
1070
    73
1070
     1
1070
    44
1040
1.0
1070
    74
1070
     0
1000
MTEXTEND
  0
MTEXT
  5
563E
330
1A
100
AcDbEntity
  8
SUNPOU
100
AcDbMText
 10
102084.4039056586
 20
97165.53399955969
 30
0.0
 40
3.5
 41
0.0
 71
     9
 72
     5
  1

1001
ACAD
1000
MTEXTBEGIN
1070
    73
1070
     1
1070
    44
1040
1.0
1070
    74
1070
     0
1000
MTEXTEND
  0
MTEXT
  5
563F
330
1A
100
AcDbEntity
  8
SUNPOU
100
AcDbMText
 10
50581.26436474472
 20
44799.74823441275
 30
0.0
 40
10.5
 41
0.0
 71
     9
 72
     5
  1

1001
ACAD
1000
MTEXTBEGIN
1070
    73
1070
     1
1070
    44
1040
1.0
1070
    74
1070
     0
1000
MTEXTEND
  0
MTEXT
  5
5640
330
1A
100
AcDbEntity
  8
SUNPOU
100
AcDbMText
 10
36633.26426436873
 20
25627.34909530054
 30
0.0
 40
3.5
 41
0.0
 71
     7
 72
     5
  1

1001
ACAD
1000
MTEXTBEGIN
1070
    73
1070
     1
1070
    44
1040
1.0
1070
    74
1070
     0
1000
MTEXTEND
  0
MTEXT
  5
5641
330
1A
100
AcDbEntity
  8
SUNPOU
100
AcDbMText
 10
61069.42493315968
 20
52574.61207825771
 30
0.0
 40
10.5
 41
0.0
 71
     9
 72
     5
  1

1001
ACAD
1000
MTEXTBEGIN
1070
    73
1070
     1
1070
    44
1040
1.0
1070
    74
1070
     0
1000
MTEXTEND
  0
MTEXT
  5
5642
330
1A
100
AcDbEntity
  8
SUNPOU
100
AcDbMText
 10
80023.18365048967
 20
70041.18813074978
 30
0.0
 40
10.5
 41
0.0
 71
     9
 72
     5
  1

1001
ACAD
1000
MTEXTBEGIN
1070
    73
1070
     1
1070
    44
1040
1.0
1070
    74
1070
     0
1000
MTEXTEND
  0
MTEXT
  5
5643
330
1A
100
AcDbEntity
  8
SUNPOU
100
AcDbMText
 10
81966.59089719908
 20
68240.13905087176
 30
0.0
 40
3.5
 41
0.0
 71
     9
 72
     5
  1

1001
ACAD
1000
MTEXTBEGIN
1070
    73
1070
     1
1070
    44
1040
1.0
1070
    74
1070
     0
1000
MTEXTEND
  0
MTEXT
  5
5644
330
1A
100
AcDbEntity
  8
SUNPOU
100
AcDbMText
 10
113092.7707298187
 20
110735.0847185291
 30
0.0
 40
10.5
 41
0.0
 71
     9
 72
     5
  1

1001
ACAD
1000
MTEXTBEGIN
1070
    73
1070
     1
1070
    44
1040
1.0
1070
    74
1070
     0
1000
MTEXTEND
  0
MTEXT
  5
5645
330
1A
100
AcDbEntity
  8
SUNPOU
100
AcDbMText
 10
115036.1779765282
 20
108934.0356386511
 30
0.0
 40
3.5
 41
0.0
 71
     9
 72
     5
  1

1001
ACAD
1000
MTEXTBEGIN
1070
    73
1070
     1
1070
    44
1040
1.0
1070
    74
1070
     0
1000
MTEXTEND
  0
MTEXT
  5
5646
330
1A
100
AcDbEntity
  8
SUNPOU
100
AcDbMText
 10
63533.03843561433
 20
56568.24987350415
 30
0.0
 40
10.5
 41
0.0
 71
     9
 72
     5
  1

1001
ACAD
1000
MTEXTBEGIN
1070
    73
1070
     1
1070
    44
1040
1.0
1070
    74
1070
     0
1000
MTEXTEND
  0
MTEXT
  5
5647
330
1A
100
AcDbEntity
  8
SUNPOU
100
AcDbMText
 10
49585.03833523835
 20
37395.85073439196
 30
0.0
 40
3.5
 41
0.0
 71
     7
 72
     5
  1

1001
ACAD
1000
MTEXTBEGIN
1070
    73
1070
     1
1070
    44
1040
1.0
1070
    74
1070
     0
1000
MTEXTEND
  0
MTEXT
  5
5648
330
1A
100
AcDbEntity
  8
SUNPOU
100
AcDbMText
 10
77137.31641337052
 20
70907.11375048141
 30
0.0
 40
10.5
 41
0.0
 71
     9
 72
     5
  1

1001
ACAD
1000
MTEXTBEGIN
1070
    73
1070
     1
1070
    44
1040
1.0
1070
    74
1070
     0
1000
MTEXTEND
  0
MTEXT
  5
5649
330
1A
100
AcDbEntity
  8
SUNPOU
100
AcDbMText
 10
79080.72366007995
 20
69106.06467060339
 30
0.0
 40
3.5
 41
0.0
 71
     9
 72
     5
  1

1001
ACAD
1000
MTEXTBEGIN
1070
    73
1070
     1
1070
    44
1040
1.0
1070
    74
1070
     0
1000
MTEXTEND
  0
MTEXT
  5
564A
330
1A
100
AcDbEntity
  8
SUNPOU
100
AcDbMText
 10
110206.9034926996
 20
111601.0103382607
 30
0.0
 40
10.5
 41
0.0
 71
     9
 72
     5
  1

1001
ACAD
1000
MTEXTBEGIN
1070
    73
1070
     1
1070
    44
1040
1.0
1070
    74
1070
     0
1000
MTEXTEND
  0
MTEXT
  5
564B
330
1A
100
AcDbEntity
  8
SUNPOU
100
AcDbMText
 10
112150.310739409
 20
109799.9612583827
 30
0.0
 40
3.5
 41
0.0
 71
     9
 72
     5
  1

1001
ACAD
1000
MTEXTBEGIN
1070
    73
1070
     1
1070
    44
1040
1.0
1070
    74
1070
     0
1000
MTEXTEND
  0
MTEXT
  5
564C
330
1A
100
AcDbEntity
  8
SUNPOU
100
AcDbMText
 10
108819.1333204968
 20
110677.9087286761
 30
0.0
 40
10.5
 41
0.0
 71
     9
 72
     5
  1

1001
ACAD
1000
MTEXTBEGIN
1070
    73
1070
     1
1070
    44
1040
1.0
1070
    74
1070
     0
1000
MTEXTEND
  0
MTEXT
  5
564D
330
1A
100
AcDbEntity
  8
SUNPOU
100
AcDbMText
 10
110762.5405672062
 20
108876.8596487981
 30
0.0
 40
3.5
 41
0.0
 71
     9
 72
     5
  1

1001
ACAD
1000
MTEXTBEGIN
1070
    73
1070
     1
1070
    44
1040
1.0
1070
    74
1070
     0
1000
MTEXTEND
  0
MTEXT
  5
564E
330
1A
100
AcDbEntity
  8
SUNPOU
100
AcDbMText
 10
76303.05507956816
 20
68695.31179059812
 30
0.0
 40
10.5
 41
0.0
 71
     9
 72
     5
  1

1001
ACAD
1000
MTEXTBEGIN
1070
    73
1070
     1
1070
    44
1040
1.0
1070
    74
1070
     0
1000
MTEXTEND
  0
MTEXT
  5
564F
330
1A
100
AcDbEntity
  8
SUNPOU
100
AcDbMText
 10
79026.36128373271
 20
69099.99348217918
 30
0.0
 40
3.5
 41
0.0
 71
     9
 72
     5
  1

1001
ACAD
1000
MTEXTBEGIN
1070
    73
1070
     1
1070
    44
1040
1.0
1070
    74
1070
     0
1000
MTEXTEND
  0
MTEXT
  5
5650
330
1A
100
AcDbEntity
  8
SUNPOU
100
AcDbMText
 10
78234.00675862522
 20
65938.68764412436
 30
0.0
 40
10.5
 41
0.0
 71
     9
 72
     5
  1

1001
ACAD
1000
MTEXTBEGIN
1070
    73
1070
     1
1070
    44
1040
1.0
1070
    74
1070
     0
1000
MTEXTEND
  0
MTEXT
  5
5651
330
1A
100
AcDbEntity
  8
SUNPOU
100
AcDbMText
 10
80177.41400533465
 20
64137.63856424636
 30
0.0
 40
3.5
 41
0.0
 71
     9
 72
     5
  1

1001
ACAD
1000
MTEXTBEGIN
1070
    73
1070
     1
1070
    44
1040
1.0
1070
    74
1070
     0
1000
MTEXTEND
  0
MTEXT
  5
5652
330
1A
100
AcDbEntity
  8
SUNPOU
100
AcDbMText
 10
80122.50949592123
 20
64024.86668196205
 30
0.0
 40
3.5
 41
0.0
 71
     9
 72
     5
  1

1001
ACAD
1000
MTEXTBEGIN
1070
    73
1070
     1
1070
    44
1040
1.0
1070
    74
1070
     0
1000
MTEXTEND
  0
MTEXT
  5
5653
330
1A
100
AcDbEntity
  8
SUNPOU
100
AcDbMText
 10
79486.58135950133
 20
63213.54544089553
 30
0.0
 40
3.5
 41
0.0
 71
     9
 72
     5
  1

1001
ACAD
1000
MTEXTBEGIN
1070
    73
1070
     1
1070
    44
1040
1.0
1070
    74
1070
     0
1000
MTEXTEND
  0
MTEXT
  5
5654
330
1A
100
AcDbEntity
  8
SUNPOU
100
AcDbMText
 10
79485.3409400806
 20
63213.29746395804
 30
0.0
 40
10.5
 41
0.0
 71
     9
 72
     5
  1

1001
ACAD
1000
MTEXTBEGIN
1070
    73
1070
     1
1070
    44
1040
1.0
1070
    74
1070
     0
1000
MTEXTEND
  0
MTEXT
  5
5655
330
1A
100
AcDbEntity
  8
SUNPOU
100
AcDbMText
 10
85473.63363627567
 20
80747.76348077064
 30
0.0
 40
10.5
 41
0.0
 71
     9
 72
     5
  1

1001
ACAD
1000
MTEXTBEGIN
1070
    73
1070
     1
1070
    44
1040
1.0
1070
    74
1070
     0
1000
MTEXTEND
  0
MTEXT
  5
5656
330
1A
100
AcDbEntity
  8
SUNPOU
100
AcDbMText
 10
94195.80120219368
 20
88163.59801230809
 30
0.0
 40
10.5
 41
0.0
 71
     9
 72
     5
  1

1001
ACAD
1000
MTEXTBEGIN
1070
    73
1070
     1
1070
    44
1040
1.0
1070
    74
1070
     0
1000
MTEXTEND
  0
MTEXT
  5
5657
330
1A
100
AcDbEntity
  8
SUNPOU
100
AcDbMText
 10
113149.5599195236
 20
105630.1740648001
 30
0.0
 40
10.5
 41
0.0
 71
     9
 72
     5
  1

1001
ACAD
1000
MTEXTBEGIN
1070
    73
1070
     1
1070
    44
1040
1.0
1070
    74
1070
     0
1000
MTEXTEND
  0
MTEXT
  5
5658
330
1A
100
AcDbEntity
  8
SUNPOU
100
AcDbMText
 10
115092.967166233
 20
103829.1249849221
 30
0.0
 40
3.5
 41
0.0
 71
     9
 72
     5
  1

1001
ACAD
1000
MTEXTBEGIN
1070
    73
1070
     1
1070
    44
1040
1.0
1070
    74
1070
     0
1000
MTEXTEND
  0
MTEXT
  5
5659
330
1A
100
AcDbEntity
  8
SUNPOU
100
AcDbMText
 10
146219.1469988527
 20
146324.0706525794
 30
0.0
 40
10.5
 41
0.0
 71
     9
 72
     5
  1

1001
ACAD
1000
MTEXTBEGIN
1070
    73
1070
     1
1070
    44
1040
1.0
1070
    74
1070
     0
1000
MTEXTEND
  0
MTEXT
  5
565A
330
1A
100
AcDbEntity
  8
SUNPOU
100
AcDbMText
 10
148162.5542455621
 20
144523.0215727014
 30
0.0
 40
3.5
 41
0.0
 71
     9
 72
     5
  1

1001
ACAD
1000
MTEXTBEGIN
1070
    73
1070
     1
1070
    44
1040
1.0
1070
    74
1070
     0
1000
MTEXTEND
  0
MTEXT
  5
565B
330
1A
100
AcDbEntity
  8
SUNPOU
100
AcDbMText
 10
96659.41470464833
 20
92157.23580755453
 30
0.0
 40
10.5
 41
0.0
 71
     9
 72
     5
  1

1001
ACAD
1000
MTEXTBEGIN
1070
    73
1070
     1
1070
    44
1040
1.0
1070
    74
1070
     0
1000
MTEXTEND
  0
MTEXT
  5
565C
330
1A
100
AcDbEntity
  8
SUNPOU
100
AcDbMText
 10
82711.41460427234
 20
72984.83666844234
 30
0.0
 40
3.5
 41
0.0
 71
     7
 72
     5
  1

1001
ACAD
1000
MTEXTBEGIN
1070
    73
1070
     1
1070
    44
1040
1.0
1070
    74
1070
     0
1000
MTEXTEND
  0
MTEXT
  5
565D
330
1A
100
AcDbEntity
  8
SUNPOU
100
AcDbMText
 10
63696.58400126548
 20
60746.98539926055
 30
0.0
 40
10.5
 41
0.0
 71
     7
 72
     5
  1

1001
ACAD
1000
MTEXTBEGIN
1070
    73
1070
     1
1070
    44
1040
1.0
1070
    74
1070
     0
1000
MTEXTEND
  0
MTEXT
  5
565E
330
1A
100
AcDbEntity
  8
SUNPOU
100
AcDbMText
 10
51239.35573631738
 20
44902.05382116213
 30
0.0
 40
35.0
 41
0.0
 71
     9
 72
     5
  1

1001
ACAD
1000
MTEXTBEGIN
1070
    73
1070
     1
1070
    44
1040
1.0
1070
    74
1070
     0
1000
MTEXTEND
  0
MTEXT
  5
565F
330
1A
100
AcDbEntity
  8
SUNPOU
100
AcDbMText
 10
50147.84079389233
 20
45510.82923121084
 30
0.0
 40
350.0000004171781
 41
0.0
 71
     7
 72
     5
  1

1001
ACAD
1000
MTEXTBEGIN
1070
    73
1070
     1
1070
    44
1040
1.0
1070
    74
1070
     0
1000
MTEXTEND
  0
MTEXT
  5
5660
330
1A
100
AcDbEntity
  8
0
100
AcDbMText
 10
56191.79155183523
 20
43490.75159334705
 30
0.0
 40
8.0
 41
0.0
 71
     7
 72
     5
  1

1001
ACAD
1000
MTEXTBEGIN
1070
    73
1070
     1
1070
    44
1040
1.0
1070
    74
1070
     0
1000
MTEXTEND
  0
MTEXT
  5
5661
330
1A
100
AcDbEntity
  8
0
100
AcDbMText
 10
58477.14924173013
 20
44461.54188809812
 30
0.0
 40
8.0
 41
0.0
 71
     7
 72
     5
  1

1001
ACAD
1000
MTEXTBEGIN
1070
    73
1070
     1
1070
    44
1040
1.0
1070
    74
1070
     0
1000
MTEXTEND
  0
MTEXT
  5
5662
330
1A
100
AcDbEntity
  8
SUNPOU
100
AcDbMText
 10
61143.04626241227
 20
53973.65328047324
 30
0.0
 40
10.5
 41
0.0
 71
     1
 72
     5
  1

1001
ACAD
1000
MTEXTBEGIN
1070
    73
1070
     1
1070
    44
1040
1.0
1070
    74
1070
     0
1000
MTEXTEND
  0
MTEXT
  5
5663
330
1A
100
AcDbEntity
  8
SUNPOU
100
AcDbMText
 10
53212.12306647634
 20
53026.86014656028
 30
0.0
 40
10.5
 41
0.0
 71
     7
 72
     5
  1

1001
ACAD
1000
MTEXTBEGIN
1070
    73
1070
     1
1070
    44
1040
1.0
1070
    74
1070
     0
1000
MTEXTEND
  0
MTEXT
  5
5664
330
1A
100
AcDbEntity
  8
SUNPOU
100
AcDbMText
 10
56161.1067309891
 20
57927.53621840312
 30
0.0
 40
10.5
 41
0.0
 71
     7
 72
     5
  1

1001
ACAD
1000
MTEXTBEGIN
1070
    73
1070
     1
1070
    44
1040
1.0
1070
    74
1070
     0
1000
MTEXTEND
  0
MTEXT
  5
5665
330
1A
100
AcDbEntity
  8
SUNPOU
100
AcDbMText
 10
60670.18485893966
 20
60363.8369660232
 30
0.0
 40
10.5
 41
0.0
 71
     7
 72
     5
  1

1001
ACAD
1000
MTEXTBEGIN
1070
    73
1070
     1
1070
    44
1040
1.0
1070
    74
1070
     0
1000
MTEXTEND
  0
MTEXT
  5
5666
330
1A
100
AcDbEntity
  8
SUNPOU
100
AcDbMText
 10
44271.02274570799
 20
39361.43311641212
 30
0.0
 40
10.5
 41
0.0
 71
     7
 72
     5
  1

1001
ACAD
1000
MTEXTBEGIN
1070
    73
1070
     1
1070
    44
1040
1.0
1070
    74
1070
     0
1000
MTEXTEND
  0
MTEXT
  5
5667
330
1A
100
AcDbEntity
  8
SUNPOU
100
AcDbMText
 10
95462.54117960824
 20
85034.41368006038
 30
0.0
 40
10.5
 41
0.0
 71
     9
 72
     5
  1

1001
ACAD
1000
MTEXTBEGIN
1070
    73
1070
     1
1070
    44
1040
1.0
1070
    74
1070
     0
1000
MTEXTEND
  0
MTEXT
  5
5668
330
1A
100
AcDbEntity
  8
SUNPOU
100
AcDbMText
 10
104184.7087455262
 20
92450.24821159784
 30
0.0
 40
10.5
 41
0.0
 71
     9
 72
     5
  1

1001
ACAD
1000
MTEXTBEGIN
1070
    73
1070
     1
1070
    44
1040
1.0
1070
    74
1070
     0
1000
MTEXTEND
  0
MTEXT
  5
5669
330
1A
100
AcDbEntity
  8
SUNPOU
100
AcDbMText
 10
123138.4674628562
 20
109916.8242640898
 30
0.0
 40
10.5
 41
0.0
 71
     9
 72
     5
  1

1001
ACAD
1000
MTEXTBEGIN
1070
    73
1070
     1
1070
    44
1040
1.0
1070
    74
1070
     0
1000
MTEXTEND
  0
MTEXT
  5
566A
330
1A
100
AcDbEntity
  8
SUNPOU
100
AcDbMText
 10
125081.8747095656
 20
108115.7751842118
 30
0.0
 40
3.5
 41
0.0
 71
     9
 72
     5
  1

1001
ACAD
1000
MTEXTBEGIN
1070
    73
1070
     1
1070
    44
1040
1.0
1070
    74
1070
     0
1000
MTEXTEND
  0
MTEXT
  5
566B
330
1A
100
AcDbEntity
  8
SUNPOU
100
AcDbMText
 10
156208.0545421853
 20
150610.7208518691
 30
0.0
 40
10.5
 41
0.0
 71
     9
 72
     5
  1

1001
ACAD
1000
MTEXTBEGIN
1070
    73
1070
     1
1070
    44
1040
1.0
1070
    74
1070
     0
1000
MTEXTEND
  0
MTEXT
  5
566C
330
1A
100
AcDbEntity
  8
SUNPOU
100
AcDbMText
 10
158151.4617888947
 20
148809.6717719911
 30
0.0
 40
3.5
 41
0.0
 71
     9
 72
     5
  1

1001
ACAD
1000
MTEXTBEGIN
1070
    73
1070
     1
1070
    44
1040
1.0
1070
    74
1070
     0
1000
MTEXTEND
  0
MTEXT
  5
566D
330
1A
100
AcDbEntity
  8
SUNPOU
100
AcDbMText
 10
106648.3222479809
 20
96443.88600684427
 30
0.0
 40
10.5
 41
0.0
 71
     9
 72
     5
  1

1001
ACAD
1000
MTEXTBEGIN
1070
    73
1070
     1
1070
    44
1040
1.0
1070
    74
1070
     0
1000
MTEXTEND
  0
MTEXT
  5
566E
330
1A
100
AcDbEntity
  8
SUNPOU
100
AcDbMText
 10
92700.3221476049
 20
77271.48686773207
 30
0.0
 40
3.5
 41
0.0
 71
     7
 72
     5
  1

1001
ACAD
1000
MTEXTBEGIN
1070
    73
1070
     1
1070
    44
1040
1.0
1070
    74
1070
     0
1000
MTEXTEND
  0
MTEXT
  5
566F
330
1A
100
AcDbEntity
  8
SUNPOU
100
AcDbMText
 10
73685.49154459806
 20
65033.63559855027
 30
0.0
 40
10.5
 41
0.0
 71
     7
 72
     5
  1

1001
ACAD
1000
MTEXTBEGIN
1070
    73
1070
     1
1070
    44
1040
1.0
1070
    74
1070
     0
1000
MTEXTEND
  0
MTEXT
  5
5670
330
1A
100
AcDbEntity
  8
SUNPOU
100
AcDbMText
 10
61228.26327964995
 20
49188.70402045185
 30
0.0
 40
35.0
 41
0.0
 71
     9
 72
     5
  1

1001
ACAD
1000
MTEXTBEGIN
1070
    73
1070
     1
1070
    44
1040
1.0
1070
    74
1070
     0
1000
MTEXTEND
  0
MTEXT
  5
5671
330
1A
100
AcDbEntity
  8
SUNPOU
100
AcDbMText
 10
60136.74833722491
 20
49797.47943050056
 30
0.0
 40
350.0000004171781
 41
0.0
 71
     7
 72
     5
  1

1001
ACAD
1000
MTEXTBEGIN
1070
    73
1070
     1
1070
    44
1040
1.0
1070
    74
1070
     0
1000
MTEXTEND
  0
MTEXT
  5
5672
330
1A
100
AcDbEntity
  8
0
100
AcDbMText
 10
66180.69909516782
 20
47777.40179263678
 30
0.0
 40
8.0
 41
0.0
 71
     7
 72
     5
  1

1001
ACAD
1000
MTEXTBEGIN
1070
    73
1070
     1
1070
    44
1040
1.0
1070
    74
1070
     0
1000
MTEXTEND
  0
MTEXT
  5
5673
330
1A
100
AcDbEntity
  8
0
100
AcDbMText
 10
68466.05678506271
 20
48748.19208738784
 30
0.0
 40
8.0
 41
0.0
 71
     7
 72
     5
  1

1001
ACAD
1000
MTEXTBEGIN
1070
    73
1070
     1
1070
    44
1040
1.0
1070
    74
1070
     0
1000
MTEXTEND
  0
MTEXT
  5
5674
330
1A
100
AcDbEntity
  8
SUNPOU
100
AcDbMText
 10
71131.95380574485
 20
58260.30347976296
 30
0.0
 40
10.5
 41
0.0
 71
     1
 72
     5
  1

1001
ACAD
1000
MTEXTBEGIN
1070
    73
1070
     1
1070
    44
1040
1.0
1070
    74
1070
     0
1000
MTEXTEND
  0
MTEXT
  5
5675
330
1A
100
AcDbEntity
  8
SUNPOU
100
AcDbMText
 10
63201.03060980891
 20
57313.51034585002
 30
0.0
 40
10.5
 41
0.0
 71
     7
 72
     5
  1

1001
ACAD
1000
MTEXTBEGIN
1070
    73
1070
     1
1070
    44
1040
1.0
1070
    74
1070
     0
1000
MTEXTEND
  0
MTEXT
  5
5676
330
1A
100
AcDbEntity
  8
SUNPOU
100
AcDbMText
 10
66150.01427432169
 20
62214.18641769286
 30
0.0
 40
10.5
 41
0.0
 71
     7
 72
     5
  1

1001
ACAD
1000
MTEXTBEGIN
1070
    73
1070
     1
1070
    44
1040
1.0
1070
    74
1070
     0
1000
MTEXTEND
  0
MTEXT
  5
5677
330
1A
100
AcDbEntity
  8
SUNPOU
100
AcDbMText
 10
70659.09240227225
 20
64650.48716531294
 30
0.0
 40
10.5
 41
0.0
 71
     7
 72
     5
  1

1001
ACAD
1000
MTEXTBEGIN
1070
    73
1070
     1
1070
    44
1040
1.0
1070
    74
1070
     0
1000
MTEXTEND
  0
MTEXT
  5
5678
330
1A
100
AcDbEntity
  8
SUNPOU
100
AcDbMText
 10
54259.93028904056
 20
43648.08331570185
 30
0.0
 40
10.5
 41
0.0
 71
     7
 72
     5
  1

1001
ACAD
1000
MTEXTBEGIN
1070
    73
1070
     1
1070
    44
1040
1.0
1070
    74
1070
     0
1000
MTEXTEND
  0
MTEXT
  5
5679
330
1A
100
AcDbEntity
  8
SUNPOU
100
AcDbMText
 10
56070.69320041551
 20
49975.4973031804
 30
0.0
 40
10.5
 41
0.0
 71
     9
 72
     5
  1

1001
ACAD
1000
MTEXTBEGIN
1070
    73
1070
     1
1070
    44
1040
1.0
1070
    74
1070
     0
1000
MTEXTEND
  0
MTEXT
  5
567A
330
1A
100
AcDbEntity
  8
SUNPOU
100
AcDbMText
 10
64792.86076633348
 20
57391.33183471788
 30
0.0
 40
10.5
 41
0.0
 71
     9
 72
     5
  1

1001
ACAD
1000
MTEXTBEGIN
1070
    73
1070
     1
1070
    44
1040
1.0
1070
    74
1070
     0
1000
MTEXTEND
  0
MTEXT
  5
567B
330
1A
100
AcDbEntity
  8
SUNPOU
100
AcDbMText
 10
83746.61948366345
 20
74857.90788720994
 30
0.0
 40
10.5
 41
0.0
 71
     9
 72
     5
  1

1001
ACAD
1000
MTEXTBEGIN
1070
    73
1070
     1
1070
    44
1040
1.0
1070
    74
1070
     0
1000
MTEXTEND
  0
MTEXT
  5
567C
330
1A
100
AcDbEntity
  8
SUNPOU
100
AcDbMText
 10
85690.02673037287
 20
73056.85880733192
 30
0.0
 40
3.5
 41
0.0
 71
     9
 72
     5
  1

1001
ACAD
1000
MTEXTBEGIN
1070
    73
1070
     1
1070
    44
1040
1.0
1070
    74
1070
     0
1000
MTEXTEND
  0
MTEXT
  5
567D
330
1A
100
AcDbEntity
  8
SUNPOU
100
AcDbMText
 10
116816.2065629925
 20
115551.8044749892
 30
0.0
 40
10.5
 41
0.0
 71
     9
 72
     5
  1

1001
ACAD
1000
MTEXTBEGIN
1070
    73
1070
     1
1070
    44
1040
1.0
1070
    74
1070
     0
1000
MTEXTEND
  0
MTEXT
  5
567E
330
1A
100
AcDbEntity
  8
SUNPOU
100
AcDbMText
 10
118759.613809702
 20
113750.7553951112
 30
0.0
 40
3.5
 41
0.0
 71
     9
 72
     5
  1

1001
ACAD
1000
MTEXTBEGIN
1070
    73
1070
     1
1070
    44
1040
1.0
1070
    74
1070
     0
1000
MTEXTEND
  0
MTEXT
  5
567F
330
1A
100
AcDbEntity
  8
SUNPOU
100
AcDbMText
 10
67256.47426878814
 20
61384.96962996432
 30
0.0
 40
10.5
 41
0.0
 71
     9
 72
     5
  1

1001
ACAD
1000
MTEXTBEGIN
1070
    73
1070
     1
1070
    44
1040
1.0
1070
    74
1070
     0
1000
MTEXTEND
  0
MTEXT
  5
5680
330
1A
100
AcDbEntity
  8
SUNPOU
100
AcDbMText
 10
53308.47416841216
 20
42212.57049085211
 30
0.0
 40
3.5
 41
0.0
 71
     7
 72
     5
  1

1001
ACAD
1000
MTEXTBEGIN
1070
    73
1070
     1
1070
    44
1040
1.0
1070
    74
1070
     0
1000
MTEXTEND
  0
MTEXT
  5
5681
330
1A
100
AcDbEntity
  8
SUNPOU
100
AcDbMText
 10
67000.82485118274
 20
51571.63371187345
 30
0.0
 40
10.5
 41
0.0
 71
     9
 72
     5
  1

1001
ACAD
1000
MTEXTBEGIN
1070
    73
1070
     1
1070
    44
1040
1.0
1070
    74
1070
     0
1000
MTEXTEND
  0
MTEXT
  5
5682
330
1A
100
AcDbEntity
  8
SUNPOU
100
AcDbMText
 10
75722.99241710071
 20
58987.46824341094
 30
0.0
 40
10.5
 41
0.0
 71
     9
 72
     5
  1

1001
ACAD
1000
MTEXTBEGIN
1070
    73
1070
     1
1070
    44
1040
1.0
1070
    74
1070
     0
1000
MTEXTEND
  0
MTEXT
  5
5683
330
1A
100
AcDbEntity
  8
SUNPOU
100
AcDbMText
 10
94676.75113443068
 20
76454.04429590299
 30
0.0
 40
10.5
 41
0.0
 71
     9
 72
     5
  1

1001
ACAD
1000
MTEXTBEGIN
1070
    73
1070
     1
1070
    44
1040
1.0
1070
    74
1070
     0
1000
MTEXTEND
  0
MTEXT
  5
5684
330
1A
100
AcDbEntity
  8
SUNPOU
100
AcDbMText
 10
96620.1583811401
 20
74652.99521602498
 30
0.0
 40
3.5
 41
0.0
 71
     9
 72
     5
  1

1001
ACAD
1000
MTEXTBEGIN
1070
    73
1070
     1
1070
    44
1040
1.0
1070
    74
1070
     0
1000
MTEXTEND
  0
MTEXT
  5
5685
330
1A
100
AcDbEntity
  8
SUNPOU
100
AcDbMText
 10
127746.3382137598
 20
117147.9408836823
 30
0.0
 40
10.5
 41
0.0
 71
     9
 72
     5
  1

1001
ACAD
1000
MTEXTBEGIN
1070
    73
1070
     1
1070
    44
1040
1.0
1070
    74
1070
     0
1000
MTEXTEND
  0
MTEXT
  5
5686
330
1A
100
AcDbEntity
  8
SUNPOU
100
AcDbMText
 10
129689.7454604692
 20
115346.8918038043
 30
0.0
 40
3.5
 41
0.0
 71
     9
 72
     5
  1

1001
ACAD
1000
MTEXTBEGIN
1070
    73
1070
     1
1070
    44
1040
1.0
1070
    74
1070
     0
1000
MTEXTEND
  0
MTEXT
  5
5687
330
1A
100
AcDbEntity
  8
SUNPOU
100
AcDbMText
 10
78186.60591955537
 20
62981.10603865738
 30
0.0
 40
10.5
 41
0.0
 71
     9
 72
     5
  1

1001
ACAD
1000
MTEXTBEGIN
1070
    73
1070
     1
1070
    44
1040
1.0
1070
    74
1070
     0
1000
MTEXTEND
  0
MTEXT
  5
5688
330
1A
100
AcDbEntity
  8
SUNPOU
100
AcDbMText
 10
64238.60581917939
 20
43808.70689954517
 30
0.0
 40
3.5
 41
0.0
 71
     7
 72
     5
  1

1001
ACAD
1000
MTEXTBEGIN
1070
    73
1070
     1
1070
    44
1040
1.0
1070
    74
1070
     0
1000
MTEXTEND
  0
MTEXT
  5
5689
330
1A
100
AcDbEntity
  8
SUNPOU
100
AcDbMText
 10
33428.13481137435
 20
32770.04710035564
 30
0.0
 40
10.5
 41
0.0
 71
     9
 72
     5
  1

1001
ACAD
1000
MTEXTBEGIN
1070
    73
1070
     1
1070
    44
1040
1.0
1070
    74
1070
     0
1000
MTEXTEND
  0
MTEXT
  5
568A
330
1A
100
AcDbEntity
  8
SUNPOU
100
AcDbMText
 10
52381.89352870432
 20
50236.62315284769
 30
0.0
 40
10.5
 41
0.0
 71
     9
 72
     5
  1

1001
ACAD
1000
MTEXTBEGIN
1070
    73
1070
     1
1070
    44
1040
1.0
1070
    74
1070
     0
1000
MTEXTEND
  0
MTEXT
  5
568B
330
1A
100
AcDbEntity
  8
SUNPOU
100
AcDbMText
 10
54325.30077541374
 20
48435.57407296968
 30
0.0
 40
3.5
 41
0.0
 71
     9
 72
     5
  1

1001
ACAD
1000
MTEXTBEGIN
1070
    73
1070
     1
1070
    44
1040
1.0
1070
    74
1070
     0
1000
MTEXTEND
  0
MTEXT
  5
568C
330
1A
100
AcDbEntity
  8
SUNPOU
100
AcDbMText
 10
85451.48060803343
 20
90930.51974062703
 30
0.0
 40
10.5
 41
0.0
 71
     9
 72
     5
  1

1001
ACAD
1000
MTEXTBEGIN
1070
    73
1070
     1
1070
    44
1040
1.0
1070
    74
1070
     0
1000
MTEXTEND
  0
MTEXT
  5
568D
330
1A
100
AcDbEntity
  8
SUNPOU
100
AcDbMText
 10
87394.88785474286
 20
89129.47066074901
 30
0.0
 40
3.5
 41
0.0
 71
     9
 72
     5
  1

1001
ACAD
1000
MTEXTBEGIN
1070
    73
1070
     1
1070
    44
1040
1.0
1070
    74
1070
     0
1000
MTEXTEND
  0
MTEXT
  5
568E
330
1A
100
AcDbEntity
  8
SUNPOU
100
AcDbMText
 10
35891.74831382901
 20
36763.68489560208
 30
0.0
 40
10.5
 41
0.0
 71
     9
 72
     5
  1

1001
ACAD
1000
MTEXTBEGIN
1070
    73
1070
     1
1070
    44
1040
1.0
1070
    74
1070
     0
1000
MTEXTEND
  0
MTEXT
  5
568F
330
1A
100
AcDbEntity
  8
SUNPOU
100
AcDbMText
 10
21943.74821345303
 20
17591.28575648986
 30
0.0
 40
3.5
 41
0.0
 71
     7
 72
     5
  1

1001
ACAD
1000
MTEXTBEGIN
1070
    73
1070
     1
1070
    44
1040
1.0
1070
    74
1070
     0
1000
MTEXTEND
  0
MTEXT
  5
15AD5
330
1A
100
AcDbEntity
  8
ZISSEN1
100
AcDbMText
 10
-1609.490264423811
 20
1562.682190080352
 30
0.0
 40
5.0
 41
76.2713
 71
     1
 72
     5
  1
GDB-5K40　No.SS0001f125
1001
ACAD
1000
MTEXTBEGIN
1070
    73
1070
     1
1070
    44
1040
1.0
1070
    74
1070
     0
1000
MTEXTEND
  0
DIMENSION
  5
16D6C
330
1A
100
AcDbEntity
  8
SUNPOU
100
AcDbDimension
  2
*D0
 10
-1709.745843274112
 20
1595.414028050738
 30
0.0
 11
-1712.495843274112
 21
1632.914028050737
 31
0.0
 70
    32
  3
標準スタイル
100
AcDbAlignedDimension
 13
-1702.493862689298
 23
1670.414028050738
 33
0.0
 14
-1702.493862689298
 24
1595.414028050738
 34
0.0
 50
90.0
100
AcDbRotatedDimension
1001
ACAD
1000
DSTYLE
1002
{
1070
   340
1005
10
1070
    40
1040
1.0
1002
}
  0
DIMENSION
  5
16D79
330
1A
100
AcDbEntity
  8
SUNPOU
100
AcDbDimension
  2
*D1
 10
-1694.493862689298
 20
1588.127791160667
 30
0.0
 11
-1698.493862689297
 21
1590.877791160667
 31
0.0
 70
    32
  3
標準スタイル
100
AcDbAlignedDimension
 13
-1702.493862689298
 23
1595.414028050738
 33
0.0
 14
-1694.493862689298
 24
1594.914028050738
 34
0.0
100
AcDbRotatedDimension
1001
ACAD
1000
DSTYLE
1002
{
1070
   340
1005
10
1070
    40
1040
1.0
1002
}
  0
LINE
  5
16D88
330
1A
100
AcDbEntity
  8
CL1
100
AcDbLine
 10
-1694.493862689298
 20
1600.914028050738
 30
0.0
 11
-1694.493862689298
 21
1594.914028050738
 31
0.0
  0
LINE
  5
16D89
330
1A
100
AcDbEntity
  8
CL1
100
AcDbLine
 10
-1697.686940506459
 20
1597.914028050738
 30
0.0
 11
-1691.434005181579
 21
1597.914028050738
 31
0.0
  0
LINE
  5
16D8F
330
1A
100
AcDbEntity
  8
CL1
100
AcDbLine
 10
-1578.99973421984
 20
1597.914028050738
 30
0.0
 11
-1572.99973421984
 21
1597.914028050738
 31
0.0
  0
LINE
  5
16D90
330
1A
100
AcDbEntity
  8
CL1
100
AcDbLine
 10
-1575.99973421984
 20
1600.914028050738
 30
0.0
 11
-1575.99973421984
 21
1594.914028050738
 31
0.0
  0
LINE
  5
16D91
330
1A
100
AcDbEntity
  8
CL1
100
AcDbLine
 10
-1578.99973421984
 20
1667.914028050738
 30
0.0
 11
-1572.99973421984
 21
1667.914028050738
 31
0.0
  0
LINE
  5
16D92
330
1A
100
AcDbEntity
  8
CL1
100
AcDbLine
 10
-1575.99973421984
 20
1670.914028050738
 30
0.0
 11
-1575.99973421984
 21
1664.914028050738
 31
0.0
  0
LINE
  5
16D93
330
1A
100
AcDbEntity
  8
CL1
100
AcDbLine
 10
-1694.493862689298
 20
1670.914028050738
 30
0.0
 11
-1694.493862689298
 21
1664.914028050738
 31
0.0
  0
LINE
  5
16D94
330
1A
100
AcDbEntity
  8
CL1
100
AcDbLine
 10
-1697.686940506459
 20
1667.914028050738
 30
0.0
 11
-1691.493862689298
 21
1667.914028050738
 31
0.0
  0
LINE
  5
16D97
330
1A
100
AcDbEntity
  8
CL1
100
AcDbLine
 10
-1703.776857411925
 20
1667.914028050738
 30
0.0
 11
-1699.132154389953
 21
1667.914028050738
 31
0.0
  0
LINE
  5
16D98
330
1A
100
AcDbEntity
  8
CL1
100
AcDbLine
 10
-1703.776857411925
 20
1597.914028050738
 30
0.0
 11
-1699.132154389953
 21
1597.914028050738
 31
0.0
  0
LINE
  5
16D9B
330
1A
100
AcDbEntity
  8
CL1
100
AcDbLine
 10
-1703.776857411925
 20
1560.734772637117
 30
0.0
 11
-1699.132154389953
 21
1560.734772637117
 31
0.0
  0
DIMENSION
  5
16D9C
330
1A
100
AcDbEntity
  8
SUNPOU
100
AcDbDimension
  2
*D2
 10
-1637.493862689298
 20
1588.127791160667
 30
0.0
 11
-1665.993862689298
 21
1590.877791160667
 31
0.0
 70
    32
  3
標準スタイル
100
AcDbAlignedDimension
 13
-1694.493862689298
 23
1594.914028050738
 33
0.0
 14
-1637.493862689298
 24
1602.414028050737
 34
0.0
100
AcDbRotatedDimension
1001
ACAD
1000
DSTYLE
1002
{
1070
   287
1070
     4
1070
   340
1005
10
1070
    40
1040
1.0
1070
   279
1070
     1
1002
}
  0
DIMENSION
  5
16DB2
330
1A
100
AcDbEntity
  8
SUNPOU
100
AcDbDimension
  2
*D3
 10
-1629.822397426428
 20
1597.914028050738
 30
0.0
 11
-1632.572397426429
 21
1632.914028050737
 31
0.0
 70
    32
  3
標準スタイル
100
AcDbAlignedDimension
 13
-1691.493862689298
 23
1667.914028050738
 33
0.0
 14
-1691.434005181579
 24
1597.914028050738
 34
0.0
 50
90.0
100
AcDbRotatedDimension
1001
ACAD
1000
DSTYLE
1002
{
1070
   340
1005
10
1070
    40
1040
1.0
1002
}
  0
DIMENSION
  5
16DBF
330
1A
100
AcDbEntity
  8
SUNPOU
100
AcDbDimension
  2
*D4
 10
-1620.624649298288
 20
1664.414028050738
 30
0.0
 11
-1623.374649298289
 21
1667.414028050737
 31
0.0
 70
    32
  3
標準スタイル
100
AcDbAlignedDimension
 13
-1690.68694050646
 23
1670.414028050738
 33
0.0
 14
-1638.493862689298
 24
1664.414028050738
 34
0.0
 50
90.0
100
AcDbRotatedDimension
1001
ACAD
1000
DSTYLE
1002
{
1070
   340
1005
10
1070
    40
1040
1.0
1002
}
  0
DIMENSION
  5
16DCE
330
1A
100
AcDbEntity
  8
SUNPOU
100
AcDbDimension
  2
*D5
 10
-1620.624649298288
 20
1601.414028050737
 30
0.0
 11
-1623.374649298289
 21
1632.914028050737
 31
0.0
 70
    32
  3
標準スタイル
100
AcDbAlignedDimension
 13
-1638.493862689298
 23
1664.414028050738
 33
0.0
 14
-1638.493862689298
 24
1601.414028050737
 34
0.0
 50
90.0
100
AcDbRotatedDimension
1001
ACAD
1000
DSTYLE
1002
{
1070
   287
1070
     4
1070
   340
1005
10
1070
    40
1040
1.0
1070
   279
1070
     1
1002
}
  0
DIMENSION
  5
16DDB
330
1A
100
AcDbEntity
  8
SUNPOU
100
AcDbDimension
  2
*D6
 10
-1620.624649298288
 20
1595.414028050738
 30
0.0
 11
-1623.374649298289
 21
1598.414028050737
 31
0.0
 70
    32
  3
標準スタイル
100
AcDbAlignedDimension
 13
-1638.493862689298
 23
1601.414028050737
 33
0.0
 14
-1690.68694050646
 24
1595.414028050738
 34
0.0
 50
90.0
100
AcDbRotatedDimension
1001
ACAD
1000
DSTYLE
1002
{
1070
   287
1070
     4
1070
   340
1005
10
1070
    40
1040
1.0
1070
   279
1070
     1
1002
}
  0
DIMENSION
  5
16DEB
330
1A
100
AcDbEntity
  8
SUNPOU
100
AcDbDimension
  2
*D7
 10
-1574.24973421984
 20
1677.364637303464
 30
0.0
 11
-1576.233335827042
 21
1678.141964649547
 31
0.0
 70
   160
  3
標準スタイル
100
AcDbAlignedDimension
 13
-1577.74973421984
 23
1670.414028050738
 33
0.0
 14
-1574.24973421984
 24
1670.414028050738
 34
0.0
100
AcDbRotatedDimension
1001
ACAD
1000
DSTYLE
1002
{
1070
   287
1070
     4
1070
   340
1005
10
1070
    40
1040
1.0
1070
   279
1070
     1
1002
}
  0
DIMENSION
  5
16DFA
330
1A
100
AcDbEntity
  8
SUNPOU
100
AcDbDimension
  2
*D8
 10
-1596.484922720844
 20
1667.914028050738
 30
0.0
 11
-1596.458560127419
 21
1674.427105587361
 31
0.0
 70
   160
  3
標準スタイル
100
AcDbAlignedDimension
 13
-1586.99973421984
 23
1670.414028050738
 33
0.0
 14
-1578.99973421984
 24
1667.914028050738
 34
0.0
 50
90.0
100
AcDbRotatedDimension
1001
ACAD
1000
DSTYLE
1002
{
1070
   287
1070
     4
1070
   340
1005
10
1070
    40
1040
1.0
1070
   279
1070
     1
1002
}
  0
DIMENSION
  5
16E09
330
1A
100
AcDbEntity
  8
SUNPOU
100
AcDbDimension
  2
*D9
 10
-1596.484922720844
 20
1597.914028050738
 30
0.0
 11
-1599.234922720844
 21
1632.914028050737
 31
0.0
 70
    32
  3
標準スタイル
100
AcDbAlignedDimension
 13
-1578.99973421984
 23
1667.914028050738
 33
0.0
 14
-1578.99973421984
 24
1597.914028050738
 34
0.0
 50
90.0
100
AcDbRotatedDimension
1001
ACAD
1000
DSTYLE
1002
{
1070
   287
1070
     4
1070
   340
1005
10
1070
    40
1040
1.0
1070
   279
1070
     1
1002
}
  0
DIMENSION
  5
16E16
330
1A
100
AcDbEntity
  8
SUNPOU
100
AcDbDimension
  2
*D10
 10
-1596.484922720844
 20
1595.414028050738
 30
0.0
 11
-1596.420449507371
 21
1590.452611592361
 31
0.0
 70
   160
  3
標準スタイル
100
AcDbAlignedDimension
 13
-1578.99973421984
 23
1597.914028050738
 33
0.0
 14
-1586.99973421984
 24
1595.414028050738
 34
0.0
 50
90.0
100
AcDbRotatedDimension
1001
ACAD
1000
DSTYLE
1002
{
1070
   287
1070
     4
1070
   340
1005
10
1070
    40
1040
1.0
1070
   279
1070
     1
1002
}
  0
LINE
  5
16E47
330
1A
100
AcDbEntity
  8
CL1
100
AcDbLine
 10
-1578.99973421984
 20
1667.914028050738
 30
0.0
 11
-1572.99973421984
 21
1667.914028050738
 31
0.0
  0
LINE
  5
16E48
330
1A
100
AcDbEntity
  8
CL1
100
AcDbLine
 10
-1575.99973421984
 20
1664.914028050738
 30
0.0
 11
-1575.99973421984
 21
1670.914028050738
 31
0.0
  0
LINE
  5
16E49
330
1A
100
AcDbEntity
  8
CL1
100
AcDbLine
 10
-1575.99973421984
 20
1600.914028050738
 30
0.0
 11
-1575.99973421984
 21
1594.914028050738
 31
0.0
  0
LINE
  5
16E4A
330
1A
100
AcDbEntity
  8
CL1
100
AcDbLine
 10
-1578.99973421984
 20
1597.914028050738
 30
0.0
 11
-1572.99973421984
 21
1597.914028050738
 31
0.0
  0
DIMENSION
  5
16E4B
330
1A
100
AcDbEntity
  8
SUNPOU
100
AcDbDimension
  2
*D11
 10
-1700.493862689298
 20
1577.884140631416
 30
0.0
 11
-1701.624531122454
 21
1578.534562646427
 31
0.0
 70
   160
  3
標準スタイル
100
AcDbAlignedDimension
 13
-1702.493862689298
 23
1572.734772637116
 33
0.0
 14
-1700.493862689298
 24
1572.734772637116
 34
0.0
100
AcDbRotatedDimension
1001
ACAD
1000
DSTYLE
1002
{
1070
   287
1070
     4
1070
   340
1005
10
1070
    40
1040
1.0
1070
   279
1070
     1
1002
}
  0
DIMENSION
  5
16E65
330
1A
100
AcDbEntity
  8
SUNPOU
100
AcDbDimension
  2
*D12
 10
-1637.493862689298
 20
1535.706474799647
 30
0.0
 11
-1669.993862689298
 21
1538.456474799647
 31
0.0
 70
    32
  3
標準スタイル
100
AcDbAlignedDimension
 13
-1702.493862689298
 23
1545.234772637116
 33
0.0
 14
-1637.493862689298
 24
1543.734772637116
 34
0.0
100
AcDbRotatedDimension
1001
ACAD
1000
DSTYLE
1002
{
1070
   340
1005
10
1070
    40
1040
1.0
1002
}
  0
LINE
  5
17661
330
1A
100
AcDbEntity
  8
ZISSEN1
  6
CONTINUOUS
 62
     7
100
AcDbLine
 10
-1700.493862689298
 20
1543.734772637116
 30
0.0
 11
-1647.993862689298
 21
1543.734772637116
 31
0.0
  0
LINE
  5
17662
330
1A
100
AcDbEntity
  8
ZISSEN1
  6
CONTINUOUS
 62
     7
100
AcDbLine
 10
-1700.493862689298
 20
1545.734772637116
 30
0.0
 11
-1647.993862689298
 21
1545.734772637116
 31
0.0
  0
LINE
  5
17663
330
1A
100
AcDbEntity
  8
ZISSEN1
  6
CONTINUOUS
 62
     7
100
AcDbLine
 10
-1700.493862689298
 20
1550.334772637116
 30
0.0
 11
-1644.875913496866
 21
1550.334772637116
 31
0.0
  0
LINE
  5
17664
330
1A
100
AcDbEntity
  8
ZISSEN1
  6
CONTINUOUS
 62
     7
100
AcDbLine
 10
-1637.993862689298
 20
1548.734772637116
 30
0.0
 11
-1700.493862689298
 21
1548.734772637116
 31
0.0
  0
LINE
  5
17665
330
1A
100
AcDbEntity
  8
ZISSEN1
  6
CONTINUOUS
 62
     7
100
AcDbLine
 10
-1695.835719034026
 20
1572.334772637116
 30
0.0
 11
-1683.335719034026
 21
1572.334772637116
 31
0.0
  0
LINE
  5
17666
330
1A
100
AcDbEntity
  8
ZISSEN1
  6
CONTINUOUS
 62
     7
100
AcDbLine
 10
-1637.993862689298
 20
1557.934772637116
 30
0.0
 11
-1700.493862689298
 21
1557.934772637116
 31
0.0
  0
LINE
  5
17667
330
1A
100
AcDbEntity
  8
ZISSEN1
  6
CONTINUOUS
 62
     7
100
AcDbLine
 10
-1637.993862689298
 20
1556.334772637116
 30
0.0
 11
-1700.493862689298
 21
1556.334772637116
 31
0.0
  0
LINE
  5
1766E
330
1A
100
AcDbEntity
  8
ZISSEN1
  6
CONTINUOUS
 62
     7
100
AcDbLine
 10
-1690.821727763922
 20
1656.874028050739
 30
0.0
 11
-1684.211727763922
 21
1656.874028050739
 31
0.0
  0
LINE
  5
1766F
330
1A
100
AcDbEntity
  8
ZISSEN1
  6
CONTINUOUS
 62
     7
100
AcDbLine
 10
-1690.821727763922
 20
1662.274028050739
 30
0.0
 11
-1684.211727763922
 21
1662.274028050739
 31
0.0
  0
LINE
  5
17670
330
1A
100
AcDbEntity
  8
ZISSEN1
  6
CONTINUOUS
 62
     7
100
AcDbLine
 10
-1645.493862689297
 20
1664.414028050738
 30
0.0
 11
-1689.68694050646
 21
1664.414028050738
 31
0.0
  0
LINE
  5
17671
330
1A
100
AcDbEntity
  8
ZISSEN1
  6
CONTINUOUS
 62
     7
100
AcDbLine
 10
-1688.473902527321
 20
1650.910789379337
 30
0.0
 11
-1683.295719034026
 21
1645.732605886042
 31
0.0
  0
LINE
  5
17672
330
1A
100
AcDbEntity
  8
ZISSEN1
  6
CONTINUOUS
 62
     7
100
AcDbLine
 10
-1688.493902527321
 20
1606.136577581294
 30
0.0
 11
-1683.295719034026
 21
1611.334761074589
 31
0.0
  0
LINE
  5
17673
330
1A
100
AcDbEntity
  8
ZISSEN1
  6
CONTINUOUS
 62
     7
100
AcDbLine
 10
-1688.493902527322
 20
1606.136577581294
 30
0.0
 11
-1683.295719034026
 21
1611.334761074589
 31
0.0
  0
LINE
  5
17674
330
1A
100
AcDbEntity
  8
ZISSEN1
  6
CONTINUOUS
 62
     7
100
AcDbLine
 10
-1638.993862689297
 20
1601.914028050739
 30
0.0
 11
-1688.493902527321
 21
1601.914028050739
 31
0.0
  0
LINE
  5
17675
330
1A
100
AcDbEntity
  8
ZISSEN1
  6
CONTINUOUS
 62
     7
100
AcDbLine
 10
-1639.493862689298
 20
1601.914028050739
 30
0.0
 11
-1688.493902527321
 21
1601.914028050739
 31
0.0
  0
LINE
  5
17676
330
1A
100
AcDbEntity
  8
ZISSEN1
  6
CONTINUOUS
 62
     7
100
AcDbLine
 10
-1691.845719034026
 20
1617.150789379337
 30
0.0
 11
-1684.845719034026
 21
1617.150789379337
 31
0.0
  0
LINE
  5
17677
330
1A
100
AcDbEntity
  8
ZISSEN1
  6
CONTINUOUS
 62
     7
100
AcDbLine
 10
-1691.845719034026
 20
1639.150789379337
 30
0.0
 11
-1684.845719034026
 21
1639.150789379337
 31
0.0
  0
LINE
  5
17678
330
1A
100
AcDbEntity
  8
ZISSEN1
  6
CONTINUOUS
 62
     7
100
AcDbLine
 10
-1681.993862689298
 20
1663.914028050739
 30
0.0
 11
-1699.993862689298
 21
1663.914028050739
 31
0.0
  0
LINE
  5
17679
330
1A
100
AcDbEntity
  8
ZISSEN1
  6
CONTINUOUS
 62
     7
100
AcDbLine
 10
-1681.993862689298
 20
1663.914028050739
 30
0.0
 11
-1699.993862689298
 21
1663.914028050739
 31
0.0
  0
LINE
  5
1767B
330
1A
100
AcDbEntity
  8
ZISSEN1
  6
CONTINUOUS
 62
     7
100
AcDbLine
 10
-1702.493862689298
 20
1545.734772637116
 30
0.0
 11
-1702.493862689298
 21
1572.734772637116
 31
0.0
  0
LINE
  5
1767C
330
1A
100
AcDbEntity
  8
ZISSEN1
  6
CONTINUOUS
 62
     7
100
AcDbLine
 10
-1700.493862689298
 20
1572.734772637116
 30
0.0
 11
-1700.493862689298
 21
1543.734772637116
 31
0.0
  0
LINE
  5
1767D
330
1A
100
AcDbEntity
  8
ZISSEN1
  6
CONTINUOUS
 62
     7
100
AcDbLine
 10
-1695.835719034026
 20
1557.934772637116
 30
0.0
 11
-1695.835719034026
 21
1572.334772637116
 31
0.0
  0
ARC
  5
17680
330
1A
100
AcDbEntity
  8
ZISSEN1
  6
CONTINUOUS
 62
     7
100
AcDbCircle
 10
-1700.493862689298
 20
1545.734772637116
 30
0.0
 40
2.0
100
AcDbArc
 50
180.0
 51
270.0
  0
LINE
  5
17681
330
1A
100
AcDbEntity
  8
ZISSEN1
  6
CONTINUOUS
 62
     7
100
AcDbLine
 10
-1700.493862689298
 20
1546.734772637116
 30
0.0
 11
-1702.493862689298
 21
1546.734772637116
 31
0.0
  0
LINE
  5
17682
330
1A
100
AcDbEntity
  8
ZISSEN1
  6
CONTINUOUS
 62
     7
100
AcDbLine
 10
-1700.493862689298
 20
1545.734772637116
 30
0.0
 11
-1702.493862689298
 21
1545.734772637116
 31
0.0
  0
LINE
  5
17683
330
1A
100
AcDbEntity
  8
ZISSEN1
  6
CONTINUOUS
 62
     7
100
AcDbLine
 10
-1700.493862689298
 20
1545.734772637116
 30
0.0
 11
-1700.493862689298
 21
1546.734772637116
 31
0.0
  0
LINE
  5
17684
330
1A
100
AcDbEntity
  8
ZISSEN1
  6
CONTINUOUS
 62
     7
100
AcDbLine
 10
-1699.493862689297
 20
1545.734772637116
 30
0.0
 11
-1699.493862689297
 21
1543.734772637116
 31
0.0
  0
LINE
  5
17685
330
1A
100
AcDbEntity
  8
ZISSEN1
  6
CONTINUOUS
 62
     7
100
AcDbLine
 10
-1700.493862689298
 20
1543.734772637116
 30
0.0
 11
-1700.493862689298
 21
1545.734772637116
 31
0.0
  0
LINE
  5
17686
330
1A
100
AcDbEntity
  8
ZISSEN1
  6
CONTINUOUS
 62
     7
100
AcDbLine
 10
-1696.243862689298
 20
1543.734772637116
 30
0.0
 11
-1696.243862689298
 21
1545.734772637116
 31
0.0
  0
LINE
  5
17687
330
1A
100
AcDbEntity
  8
ZISSEN1
  6
CONTINUOUS
 62
     7
100
AcDbLine
 10
-1692.743862689298
 20
1543.734772637116
 30
0.0
 11
-1692.743862689298
 21
1545.734772637116
 31
0.0
  0
LINE
  5
17688
330
1A
100
AcDbEntity
  8
ZISSEN1
  6
CONTINUOUS
 62
     7
100
AcDbLine
 10
-1690.68694050646
 20
1543.734772637116
 30
0.0
 11
-1690.68694050646
 21
1545.734772637116
 31
0.0
  0
LINE
  5
17689
330
1A
100
AcDbEntity
  8
ZISSEN1
  6
CONTINUOUS
 62
     7
100
AcDbLine
 10
-1689.68694050646
 20
1545.734772637116
 30
0.0
 11
-1689.68694050646
 21
1543.734772637116
 31
0.0
  0
LINE
  5
1768B
330
1A
100
AcDbEntity
  8
ZISSEN1
  6
CONTINUOUS
 62
     7
100
AcDbLine
 10
-1695.835719034026
 20
1550.334772637116
 30
0.0
 11
-1695.835719034026
 21
1556.334772637116
 31
0.0
  0
LINE
  5
1768E
330
1A
100
AcDbEntity
  8
ZISSEN1
  6
CONTINUOUS
 62
     7
100
AcDbLine
 10
-1688.493902527321
 20
1557.934772637116
 30
0.0
 11
-1688.493902527321
 21
1556.334772637116
 31
0.0
  0
LINE
  5
17692
330
1A
100
AcDbEntity
  8
ZISSEN1
  6
CONTINUOUS
 62
     7
100
AcDbLine
 10
-1702.493862689298
 20
1670.414028050738
 30
0.0
 11
-1702.493862689298
 21
1595.414028050738
 31
0.0
  0
LINE
  5
17693
330
1A
100
AcDbEntity
  8
ZISSEN1
  6
CONTINUOUS
 62
     7
100
AcDbLine
 10
-1700.493862689298
 20
1595.414028050738
 30
0.0
 11
-1700.493862689298
 21
1670.414028050738
 31
0.0
  0
LINE
  5
17694
330
1A
100
AcDbEntity
  8
ZISSEN1
  6
CONTINUOUS
 62
     7
100
AcDbLine
 10
-1697.345719034026
 20
1639.150789379337
 30
0.0
 11
-1697.345719034026
 21
1628.150789379337
 31
0.0
  0
LINE
  5
17695
330
1A
100
AcDbEntity
  8
ZISSEN1
  6
CONTINUOUS
 62
     7
100
AcDbLine
 10
-1700.493862689298
 20
1572.734772637116
 30
0.0
 11
-1702.493862689298
 21
1572.734772637116
 31
0.0
  0
LINE
  5
17696
330
1A
100
AcDbEntity
  8
ZISSEN1
  6
CONTINUOUS
 62
     7
100
AcDbLine
 10
-1700.493862689298
 20
1571.734772637116
 30
0.0
 11
-1702.493862689298
 21
1571.734772637116
 31
0.0
  0
LINE
  5
17697
330
1A
100
AcDbEntity
  8
ZISSEN1
  6
CONTINUOUS
 62
     7
100
AcDbLine
 10
-1686.859436433254
 20
1607.771043675361
 30
0.0
 11
-1686.859436433254
 21
1615.350789379336
 31
0.0
  0
LINE
  5
17698
330
1A
100
AcDbEntity
  8
ZISSEN1
  6
CONTINUOUS
 62
     7
100
AcDbLine
 10
-1697.159436433254
 20
1616.350789379336
 30
0.0
 11
-1697.159436433254
 21
1606.050789379337
 31
0.0
  0
CIRCLE
  5
17699
330
1A
100
AcDbEntity
  8
ZISSEN1
  6
CONTINUOUS
 62
     7
100
AcDbCircle
 10
-1692.009436433254
 20
1611.200789379337
 30
0.0
 40
5.0
  0
LINE
  5
1769A
330
1A
100
AcDbEntity
  8
ZISSEN1
  6
CONTINUOUS
 62
     7
100
AcDbLine
 10
-1700.493862689298
 20
1596.414028050738
 30
0.0
 11
-1702.493862689298
 21
1596.414028050738
 31
0.0
  0
LINE
  5
1769B
330
1A
100
AcDbEntity
  8
ZISSEN1
  6
CONTINUOUS
 62
     7
100
AcDbLine
 10
-1700.493862689298
 20
1595.414028050738
 30
0.0
 11
-1702.493862689298
 21
1595.414028050738
 31
0.0
  0
LINE
  5
1769C
330
1A
100
AcDbEntity
  8
ZISSEN1
  6
CONTINUOUS
 62
     7
100
AcDbLine
 10
-1700.493862689298
 20
1606.914028050738
 30
0.0
 11
-1700.493862689298
 21
1596.414028050738
 31
0.0
  0
LINE
  5
1769D
330
1A
100
AcDbEntity
  8
ZISSEN1
  6
CONTINUOUS
 62
     7
100
AcDbLine
 10
-1688.493902527321
 20
1606.136577581294
 30
0.0
 11
-1688.493902527321
 21
1601.914028050739
 31
0.0
  0
LINE
  5
1769E
330
1A
100
AcDbEntity
  8
ZISSEN1
  6
CONTINUOUS
 62
     7
100
AcDbLine
 10
-1688.493902527321
 20
1606.136577581294
 30
0.0
 11
-1688.493902527321
 21
1601.914028050739
 31
0.0
  0
LINE
  5
176A0
330
1A
100
AcDbEntity
  8
ZISSEN1
  6
CONTINUOUS
 62
     7
100
AcDbLine
 10
-1688.493902527321
 20
1601.914028050739
 30
0.0
 11
-1700.493862689298
 21
1601.914028050739
 31
0.0
  0
ARC
  5
176A1
330
1A
100
AcDbEntity
  8
ZISSEN1
  6
CONTINUOUS
 62
     7
100
AcDbCircle
 10
-1694.493862689298
 20
1598.914028050738
 30
0.0
 40
1.75
100
AcDbArc
 50
0.0
 51
180.0
  0
LINE
  5
176A3
330
1A
100
AcDbEntity
  8
ZISSEN1
  6
CONTINUOUS
 62
     7
100
AcDbLine
 10
-1696.243862689298
 20
1598.914028050738
 30
0.0
 11
-1696.243862689298
 21
1595.414028050738
 31
0.0
  0
LINE
  5
176A4
330
1A
100
AcDbEntity
  8
ZISSEN1
  6
CONTINUOUS
 62
     7
100
AcDbLine
 10
-1696.43694050646
 20
1595.414028050738
 30
0.0
 11
-1699.493862689297
 21
1595.414028050738
 31
0.0
  0
LINE
  5
176A5
330
1A
100
AcDbEntity
  8
ZISSEN1
  6
CONTINUOUS
 62
     7
100
AcDbLine
 10
-1700.493862689298
 20
1596.414028050738
 30
0.0
 11
-1699.493862689297
 21
1595.414028050738
 31
0.0
  0
LINE
  5
176A8
330
1A
100
AcDbEntity
  8
ZISSEN1
  6
CONTINUOUS
 62
     7
100
AcDbLine
 10
-1689.68694050646
 20
1601.914028050739
 30
0.0
 11
-1689.68694050646
 21
1596.414028050738
 31
0.0
  0
LINE
  5
176A9
330
1A
100
AcDbEntity
  8
ZISSEN1
  6
CONTINUOUS
 62
     7
100
AcDbLine
 10
-1692.743862689298
 20
1598.914028050738
 30
0.0
 11
-1692.743862689298
 21
1595.414028050738
 31
0.0
  0
LINE
  5
176AA
330
1A
100
AcDbEntity
  8
ZISSEN1
  6
CONTINUOUS
 62
     7
100
AcDbLine
 10
-1689.68694050646
 20
1596.414028050738
 30
0.0
 11
-1690.68694050646
 21
1595.414028050738
 31
0.0
  0
LINE
  5
176AB
330
1A
100
AcDbEntity
  8
ZISSEN1
  6
CONTINUOUS
 62
     7
100
AcDbLine
 10
-1690.68694050646
 20
1595.414028050738
 30
0.0
 11
-1692.93694050646
 21
1595.414028050738
 31
0.0
  0
LINE
  5
176AC
330
1A
100
AcDbEntity
  8
ZISSEN1
  6
CONTINUOUS
 62
     7
100
AcDbLine
 10
-1688.493902527321
 20
1606.050789379337
 30
0.0
 11
-1697.159436433254
 21
1606.050789379337
 31
0.0
  0
LINE
  5
176AD
330
1A
100
AcDbEntity
  8
ZISSEN1
  6
CONTINUOUS
 62
     7
100
AcDbLine
 10
-1697.509436433254
 20
1611.650789379337
 30
0.0
 11
-1697.509436433254
 21
1610.750789379337
 31
0.0
  0
LINE
  5
176AE
330
1A
100
AcDbEntity
  8
ZISSEN1
  6
CONTINUOUS
 62
     7
100
AcDbLine
 10
-1697.509436433254
 20
1611.650789379337
 30
0.0
 11
-1697.159436433254
 21
1611.650789379337
 31
0.0
  0
LINE
  5
176AF
330
1A
100
AcDbEntity
  8
ZISSEN1
  6
CONTINUOUS
 62
     7
100
AcDbLine
 10
-1697.509436433254
 20
1610.750789379337
 30
0.0
 11
-1697.159436433254
 21
1610.750789379337
 31
0.0
  0
LINE
  5
176B8
330
1A
100
AcDbEntity
  8
ZISSEN1
  6
CONTINUOUS
 62
     7
100
AcDbLine
 10
-1686.509436433254
 20
1611.650789379337
 30
0.0
 11
-1686.509436433254
 21
1610.750789379337
 31
0.0
  0
LINE
  5
176B9
330
1A
100
AcDbEntity
  8
ZISSEN1
  6
CONTINUOUS
 62
     7
100
AcDbLine
 10
-1686.859436433254
 20
1611.650789379337
 30
0.0
 11
-1686.509436433254
 21
1611.650789379337
 31
0.0
  0
LINE
  5
176BA
330
1A
100
AcDbEntity
  8
ZISSEN1
  6
CONTINUOUS
 62
     7
100
AcDbLine
 10
-1686.859436433254
 20
1610.750789379337
 30
0.0
 11
-1686.509436433254
 21
1610.750789379337
 31
0.0
  0
LINE
  5
176BB
330
1A
100
AcDbEntity
  8
ZISSEN1
  6
CONTINUOUS
 62
     7
100
AcDbLine
 10
-1697.345719034026
 20
1628.150789379337
 30
0.0
 11
-1697.345719034026
 21
1617.150789379337
 31
0.0
  0
LINE
  5
176BC
330
1A
100
AcDbEntity
  8
ZISSEN1
  6
CONTINUOUS
 62
     7
100
AcDbLine
 10
-1687.859436433254
 20
1616.350789379336
 30
0.0
 11
-1697.159436433254
 21
1616.350789379336
 31
0.0
  0
LINE
  5
176BD
330
1A
100
AcDbEntity
  8
ZISSEN1
  6
CONTINUOUS
 62
     7
100
AcDbLine
 10
-1697.345719034026
 20
1617.150789379337
 30
0.0
 11
-1691.845719034026
 21
1617.150789379337
 31
0.0
  0
LINE
  5
176BE
330
1A
100
AcDbEntity
  8
ZISSEN1
  6
CONTINUOUS
 62
     7
100
AcDbLine
 10
-1687.859436433254
 20
1616.350789379336
 30
0.0
 11
-1686.859436433254
 21
1615.350789379336
 31
0.0
  0
LINE
  5
176C7
330
1A
100
AcDbEntity
  8
ZISSEN1
  6
CONTINUOUS
 62
     7
100
AcDbLine
 10
-1698.218696548424
 20
1662.274028050739
 30
0.0
 11
-1698.218696548424
 21
1656.874028050739
 31
0.0
  0
LINE
  5
176C8
330
1A
100
AcDbEntity
  8
ZISSEN1
  6
CONTINUOUS
 62
     7
100
AcDbLine
 10
-1691.608696548424
 20
1662.274028050739
 30
0.0
 11
-1691.608696548424
 21
1656.874028050739
 31
0.0
  0
LINE
  5
176D0
330
1A
100
AcDbEntity
  8
ZISSEN1
  6
CONTINUOUS
 62
     7
100
AcDbLine
 10
-1690.821727763922
 20
1662.274028050739
 30
0.0
 11
-1690.821727763922
 21
1656.874028050739
 31
0.0
  0
LINE
  5
176D1
330
1A
100
AcDbEntity
  8
ZISSEN1
  6
CONTINUOUS
 62
     7
100
AcDbLine
 10
-1699.993862689298
 20
1659.414028050739
 30
0.0
 11
-1699.993862689298
 21
1663.914028050739
 31
0.0
  0
LINE
  5
176D2
330
1A
100
AcDbEntity
  8
ZISSEN1
  6
CONTINUOUS
 62
     7
100
AcDbLine
 10
-1699.993862689298
 20
1659.414028050739
 30
0.0
 11
-1699.993862689298
 21
1663.914028050739
 31
0.0
  0
LINE
  5
176D3
330
1A
100
AcDbEntity
  8
ZISSEN1
  6
CONTINUOUS
 62
     7
100
AcDbLine
 10
-1686.859436433254
 20
1640.950789379337
 30
0.0
 11
-1686.859436433254
 21
1649.250789379337
 31
0.0
  0
LINE
  5
176D4
330
1A
100
AcDbEntity
  8
ZISSEN1
  6
CONTINUOUS
 62
     7
100
AcDbLine
 10
-1697.159436433254
 20
1650.250789379337
 30
0.0
 11
-1697.159436433254
 21
1639.950789379336
 31
0.0
  0
CIRCLE
  5
176D5
330
1A
100
AcDbEntity
  8
ZISSEN1
  6
CONTINUOUS
 62
     7
100
AcDbCircle
 10
-1692.009436433254
 20
1645.100789379337
 30
0.0
 40
5.0
  0
LINE
  5
176D6
330
1A
100
AcDbEntity
  8
ZISSEN1
  6
CONTINUOUS
 62
     7
100
AcDbLine
 10
-1687.859436433254
 20
1639.950789379336
 30
0.0
 11
-1697.159436433254
 21
1639.950789379336
 31
0.0
  0
LINE
  5
176D7
330
1A
100
AcDbEntity
  8
ZISSEN1
  6
CONTINUOUS
 62
     7
100
AcDbLine
 10
-1697.345719034026
 20
1639.150789379337
 30
0.0
 11
-1691.845719034026
 21
1639.150789379337
 31
0.0
  0
LINE
  5
176D8
330
1A
100
AcDbEntity
  8
ZISSEN1
  6
CONTINUOUS
 62
     7
100
AcDbLine
 10
-1697.509436433254
 20
1645.550789379337
 30
0.0
 11
-1697.509436433254
 21
1644.650789379337
 31
0.0
  0
LINE
  5
176D9
330
1A
100
AcDbEntity
  8
ZISSEN1
  6
CONTINUOUS
 62
     7
100
AcDbLine
 10
-1697.509436433254
 20
1645.550789379337
 30
0.0
 11
-1697.159436433254
 21
1645.550789379337
 31
0.0
  0
LINE
  5
176DA
330
1A
100
AcDbEntity
  8
ZISSEN1
  6
CONTINUOUS
 62
     7
100
AcDbLine
 10
-1697.509436433254
 20
1644.650789379337
 30
0.0
 11
-1697.159436433254
 21
1644.650789379337
 31
0.0
  0
LINE
  5
176DB
330
1A
100
AcDbEntity
  8
ZISSEN1
  6
CONTINUOUS
 62
     7
100
AcDbLine
 10
-1686.859436433254
 20
1640.950789379337
 30
0.0
 11
-1687.859436433254
 21
1639.950789379336
 31
0.0
  0
LINE
  5
176DC
330
1A
100
AcDbEntity
  8
ZISSEN1
  6
CONTINUOUS
 62
     7
100
AcDbLine
 10
-1686.509436433254
 20
1645.550789379337
 30
0.0
 11
-1686.509436433254
 21
1644.650789379337
 31
0.0
  0
LINE
  5
176DD
330
1A
100
AcDbEntity
  8
ZISSEN1
  6
CONTINUOUS
 62
     7
100
AcDbLine
 10
-1686.859436433254
 20
1645.550789379337
 30
0.0
 11
-1686.509436433254
 21
1645.550789379337
 31
0.0
  0
LINE
  5
176DE
330
1A
100
AcDbEntity
  8
ZISSEN1
  6
CONTINUOUS
 62
     7
100
AcDbLine
 10
-1686.859436433254
 20
1644.650789379337
 30
0.0
 11
-1686.509436433254
 21
1644.650789379337
 31
0.0
  0
LINE
  5
176DF
330
1A
100
AcDbEntity
  8
ZISSEN1
  6
CONTINUOUS
 62
     7
100
AcDbLine
 10
-1688.473902527321
 20
1650.910789379337
 30
0.0
 11
-1700.493862689298
 21
1650.910789379337
 31
0.0
  0
LINE
  5
176E0
330
1A
100
AcDbEntity
  8
ZISSEN1
  6
CONTINUOUS
 62
     7
100
AcDbLine
 10
-1698.218696548424
 20
1656.874028050739
 30
0.0
 11
-1691.608696548424
 21
1656.874028050739
 31
0.0
  0
LINE
  5
176E1
330
1A
100
AcDbEntity
  8
ZISSEN1
  6
CONTINUOUS
 62
     7
100
AcDbLine
 10
-1687.859436433254
 20
1650.250789379337
 30
0.0
 11
-1697.159436433254
 21
1650.250789379337
 31
0.0
  0
LINE
  5
176E2
330
1A
100
AcDbEntity
  8
ZISSEN1
  6
CONTINUOUS
 62
     7
100
AcDbLine
 10
-1700.493862689298
 20
1659.414028050739
 30
0.0
 11
-1699.993862689298
 21
1659.414028050739
 31
0.0
  0
LINE
  5
176EF
330
1A
100
AcDbEntity
  8
ZISSEN1
  6
CONTINUOUS
 62
     7
100
AcDbLine
 10
-1687.859436433254
 20
1650.250789379337
 30
0.0
 11
-1686.859436433254
 21
1649.250789379337
 31
0.0
  0
LINE
  5
17701
330
1A
100
AcDbEntity
  8
ZISSEN1
  6
CONTINUOUS
 62
     7
100
AcDbLine
 10
-1700.493862689298
 20
1669.414028050738
 30
0.0
 11
-1702.493862689298
 21
1669.414028050738
 31
0.0
  0
LINE
  5
17702
330
1A
100
AcDbEntity
  8
ZISSEN1
  6
CONTINUOUS
 62
     7
100
AcDbLine
 10
-1700.493862689298
 20
1670.414028050738
 30
0.0
 11
-1702.493862689298
 21
1670.414028050738
 31
0.0
  0
LINE
  5
17703
330
1A
100
AcDbEntity
  8
ZISSEN1
  6
CONTINUOUS
 62
     7
100
AcDbLine
 10
-1700.493862689298
 20
1670.414028050738
 30
0.0
 11
-1702.493862689298
 21
1670.414028050738
 31
0.0
  0
LINE
  5
17705
330
1A
100
AcDbEntity
  8
ZISSEN1
  6
CONTINUOUS
 62
     7
100
AcDbLine
 10
-1698.218696548424
 20
1662.274028050739
 30
0.0
 11
-1691.608696548424
 21
1662.274028050739
 31
0.0
  0
ARC
  5
17706
330
1A
100
AcDbEntity
  8
ZISSEN1
  6
CONTINUOUS
 62
     7
100
AcDbCircle
 10
-1694.493862689298
 20
1666.914028050738
 30
0.0
 40
1.75
100
AcDbArc
 50
180.0
 51
0.0
  0
LINE
  5
17708
330
1A
100
AcDbEntity
  8
ZISSEN1
  6
DASHED2
 62
     7
100
AcDbLine
 10
-1699.993862689298
 20
1660.914028050739
 30
0.0
 11
-1699.993862689298
 21
1662.914028050739
 31
0.0
  0
LINE
  5
17715
330
1A
100
AcDbEntity
  8
ZISSEN1
  6
CONTINUOUS
 62
     7
100
AcDbLine
 10
-1699.493862689298
 20
1670.414028050738
 30
0.0
 11
-1696.243862689298
 21
1670.414028050738
 31
0.0
  0
LINE
  5
17716
330
1A
100
AcDbEntity
  8
ZISSEN1
  6
CONTINUOUS
 62
     7
100
AcDbLine
 10
-1699.493862689298
 20
1670.414028050738
 30
0.0
 11
-1700.493862689298
 21
1669.414028050738
 31
0.0
  0
LINE
  5
17719
330
1A
100
AcDbEntity
  8
ZISSEN1
  6
CONTINUOUS
 62
     7
100
AcDbLine
 10
-1696.243862689298
 20
1666.914028050738
 30
0.0
 11
-1696.243862689298
 21
1670.414028050738
 31
0.0
  0
LINE
  5
1771A
330
1A
100
AcDbEntity
  8
ZISSEN1
  6
CONTINUOUS
 62
     7
100
AcDbLine
 10
-1689.68694050646
 20
1669.414028050738
 30
0.0
 11
-1689.68694050646
 21
1664.414028050738
 31
0.0
  0
LINE
  5
1772C
330
1A
100
AcDbEntity
  8
ZISSEN1
  6
CONTINUOUS
 62
     7
100
AcDbLine
 10
-1690.68694050646
 20
1670.414028050738
 30
0.0
 11
-1689.68694050646
 21
1669.414028050738
 31
0.0
  0
LINE
  5
1772D
330
1A
100
AcDbEntity
  8
ZISSEN1
  6
CONTINUOUS
 62
     7
100
AcDbLine
 10
-1692.743862689298
 20
1670.414028050738
 30
0.0
 11
-1690.68694050646
 21
1670.414028050738
 31
0.0
  0
LINE
  5
1772E
330
1A
100
AcDbEntity
  8
ZISSEN1
  6
CONTINUOUS
 62
     7
100
AcDbLine
 10
-1692.743862689298
 20
1666.914028050738
 30
0.0
 11
-1692.743862689298
 21
1670.414028050738
 31
0.0
  0
LINE
  5
17747
330
1A
100
AcDbEntity
  8
ZISSEN1
  6
CONTINUOUS
 62
     7
100
AcDbLine
 10
-1683.335719034026
 20
1557.934772637116
 30
0.0
 11
-1683.335719034026
 21
1572.334772637116
 31
0.0
  0
LINE
  5
1774D
330
1A
100
AcDbEntity
  8
ZISSEN1
  6
CONTINUOUS
 62
     7
100
AcDbLine
 10
-1650.797080395673
 20
1569.434772637116
 30
0.0
 11
-1683.197080395673
 21
1569.434772637116
 31
0.0
  0
LINE
  5
1779F
330
1A
100
AcDbEntity
  8
ZISSEN1
  6
CONTINUOUS
 62
     7
100
AcDbLine
 10
-1683.197080395673
 20
1569.434772637116
 30
0.0
 11
-1683.197080395673
 21
1557.934772637116
 31
0.0
  0
LINE
  5
177BE
330
1A
100
AcDbEntity
  8
ZISSEN1
  6
CONTINUOUS
 62
     7
100
AcDbLine
 10
-1678.994567813858
 20
1557.934772637116
 30
0.0
 11
-1680.694567813858
 21
1557.934772637116
 31
0.0
  0
LINE
  5
1780B
330
1A
100
AcDbEntity
  8
ZISSEN1
  6
CONTINUOUS
 62
     7
100
AcDbLine
 10
-1678.694567813858
 20
1569.434772637116
 30
0.0
 11
-1680.694567813858
 21
1569.434772637116
 31
0.0
  0
LINE
  5
1789D
330
1A
100
AcDbEntity
  8
ZISSEN1
  6
CONTINUOUS
 62
     7
100
AcDbLine
 10
-1637.493862689298
 20
1548.734772637116
 30
0.0
 11
-1637.493862689298
 21
1546.734772637116
 31
0.0
  0
ARC
  5
1789E
330
1A
100
AcDbEntity
  8
ZISSEN1
  6
CONTINUOUS
 62
     7
100
AcDbCircle
 10
-1645.993862689297
 20
1546.734772637116
 30
0.0
 40
2.0
100
AcDbArc
 50
90.0
 51
180.0
  0
LINE
  5
178A2
330
1A
100
AcDbEntity
  8
ZISSEN1
  6
CONTINUOUS
 62
     7
100
AcDbLine
 10
-1645.993862689297
 20
1546.734772637116
 30
0.0
 11
-1637.493862689298
 21
1546.734772637116
 31
0.0
  0
LINE
  5
178A3
330
1A
100
AcDbEntity
  8
ZISSEN1
  6
CONTINUOUS
 62
     7
100
AcDbLine
 10
-1647.993862689298
 20
1545.734772637116
 30
0.0
 11
-1637.493862689298
 21
1545.734772637116
 31
0.0
  0
LINE
  5
178A4
330
1A
100
AcDbEntity
  8
ZISSEN1
  6
CONTINUOUS
 62
     7
100
AcDbLine
 10
-1647.993862689298
 20
1543.734772637116
 30
0.0
 11
-1637.493862689298
 21
1543.734772637116
 31
0.0
  0
LINE
  5
178A6
330
1A
100
AcDbEntity
  8
ZISSEN1
  6
CONTINUOUS
 62
     7
100
AcDbLine
 10
-1648.624818409239
 20
1545.734772637116
 30
0.0
 11
-1648.624818409239
 21
1543.734772637116
 31
0.0
  0
LINE
  5
178A7
330
1A
100
AcDbEntity
  8
ZISSEN1
  6
CONTINUOUS
 62
     7
100
AcDbLine
 10
-1647.993862689298
 20
1545.734772637116
 30
0.0
 11
-1647.993862689298
 21
1546.734772637116
 31
0.0
  0
LINE
  5
178A8
330
1A
100
AcDbEntity
  8
ZISSEN1
  6
CONTINUOUS
 62
     7
100
AcDbLine
 10
-1645.993862689297
 20
1545.734772637116
 30
0.0
 11
-1645.993862689297
 21
1546.734772637116
 31
0.0
  0
LINE
  5
178AF
330
1A
100
AcDbEntity
  8
ZISSEN1
  6
CONTINUOUS
 62
     7
100
AcDbLine
 10
-1637.493862689298
 20
1543.734772637116
 30
0.0
 11
-1637.493862689298
 21
1545.734772637116
 31
0.0
  0
LINE
  5
178B0
330
1A
100
AcDbEntity
  8
ZISSEN1
  6
CONTINUOUS
 62
     7
100
AcDbLine
 10
-1638.493862689298
 20
1545.734772637116
 30
0.0
 11
-1638.493862689298
 21
1543.734772637116
 31
0.0
  0
LINE
  5
178B1
330
1A
100
AcDbEntity
  8
ZISSEN1
  6
CONTINUOUS
 62
     7
100
AcDbLine
 10
-1642.368862689298
 20
1559.454019702028
 30
0.0
 11
-1642.761528615936
 21
1559.365211613717
 31
0.0
  0
LINE
  5
178B2
330
1A
100
AcDbEntity
  8
ZISSEN1
  6
CONTINUOUS
 62
     7
100
AcDbLine
 10
-1639.22619676266
 20
1559.365211613717
 30
0.0
 11
-1639.618862689298
 21
1559.454019702028
 31
0.0
  0
LINE
  5
178B3
330
1A
100
AcDbEntity
  8
ZISSEN1
  6
CONTINUOUS
 62
     7
100
AcDbLine
 10
-1651.164170618975
 20
1560.434772637116
 30
0.0
 11
-1651.164170618975
 21
1558.034772637116
 31
0.0
  0
LINE
  5
178B4
330
1A
100
AcDbEntity
  8
ZISSEN1
  6
CONTINUOUS
 62
     7
100
AcDbLine
 10
-1647.620784872136
 20
1565.534772637116
 30
0.0
 11
-1647.620784872136
 21
1557.934772637116
 31
0.0
  0
LINE
  5
178B5
330
1A
100
AcDbEntity
  8
ZISSEN1
  6
CONTINUOUS
 62
     7
100
AcDbLine
 10
-1644.020784872136
 20
1565.534772637116
 30
0.0
 11
-1644.020784872136
 21
1557.934772637116
 31
0.0
  0
LINE
  5
178B6
330
1A
100
AcDbEntity
  8
ZISSEN1
  6
CONTINUOUS
 62
     7
100
AcDbLine
 10
-1645.993862689297
 20
1548.734772637116
 30
0.0
 11
-1637.493862689298
 21
1548.734772637116
 31
0.0
  0
LINE
  5
178B7
330
1A
100
AcDbEntity
  8
ZISSEN1
  6
CONTINUOUS
 62
     7
100
AcDbLine
 10
-1641.275913496866
 20
1556.334772637116
 30
0.0
 11
-1644.875913496866
 21
1556.334772637116
 31
0.0
  0
LINE
  5
178B8
330
1A
100
AcDbEntity
  8
ZISSEN1
  6
CONTINUOUS
 62
     7
100
AcDbLine
 10
-1641.275913496867
 20
1548.734772637116
 30
0.0
 11
-1644.875913496866
 21
1548.734772637116
 31
0.0
  0
LINE
  5
178B9
330
1A
100
AcDbEntity
  8
ZISSEN1
  6
CONTINUOUS
 62
     7
100
AcDbLine
 10
-1644.020784872136
 20
1557.934772637116
 30
0.0
 11
-1647.620784872136
 21
1557.934772637116
 31
0.0
  0
LINE
  5
178BA
330
1A
100
AcDbEntity
  8
ZISSEN1
  6
CONTINUOUS
 62
     7
100
AcDbLine
 10
-1644.875913496866
 20
1548.734772637116
 30
0.0
 11
-1644.875913496866
 21
1556.334772637116
 31
0.0
  0
LINE
  5
178BE
330
1A
100
AcDbEntity
  8
ZISSEN1
  6
CONTINUOUS
 62
     7
100
AcDbLine
 10
-1649.023862689297
 20
1556.284772637116
 30
0.0
 11
-1649.023862689297
 21
1550.334772637116
 31
0.0
  0
LINE
  5
178BF
330
1A
100
AcDbEntity
  8
ZISSEN1
  6
CONTINUOUS
 62
     7
100
AcDbLine
 10
-1648.624818409239
 20
1548.734772637116
 30
0.0
 11
-1648.624818409239
 21
1550.334772637116
 31
0.0
  0
LINE
  5
178C0
330
1A
100
AcDbEntity
  8
ZISSEN1
  6
CONTINUOUS
 62
     7
100
AcDbLine
 10
-1647.620784872136
 20
1558.034772637116
 30
0.0
 11
-1651.164170618975
 21
1558.034772637116
 31
0.0
  0
LINE
  5
178C1
330
1A
100
AcDbEntity
  8
ZISSEN1
  6
CONTINUOUS
 62
     7
100
AcDbLine
 10
-1651.164170618975
 20
1558.834772637117
 30
0.0
 11
-1647.620784872136
 21
1558.834772637117
 31
0.0
  0
LINE
  5
178C4
330
1A
100
AcDbEntity
  8
ZISSEN1
  6
CONTINUOUS
 62
     7
100
AcDbLine
 10
-1650.364170618975
 20
1557.934772637116
 30
0.0
 11
-1650.364170618975
 21
1558.034772637116
 31
0.0
  0
LINE
  5
178C5
330
1A
100
AcDbEntity
  8
ZISSEN1
  6
CONTINUOUS
 62
     7
100
AcDbLine
 10
-1651.264170618975
 20
1558.934772637116
 30
0.0
 11
-1651.164170618975
 21
1558.934772637116
 31
0.0
  0
LINE
  5
178C6
330
1A
100
AcDbEntity
  8
ZISSEN1
  6
CONTINUOUS
 62
     7
100
AcDbLine
 10
-1651.264170618975
 20
1557.934772637116
 30
0.0
 11
-1650.364170618975
 21
1557.934772637116
 31
0.0
  0
LINE
  5
178C7
330
1A
100
AcDbEntity
  8
ZISSEN1
  6
CONTINUOUS
 62
     7
100
AcDbLine
 10
-1651.264170618975
 20
1557.934772637116
 30
0.0
 11
-1651.264170618975
 21
1558.934772637116
 31
0.0
  0
LINE
  5
178CA
330
1A
100
AcDbEntity
  8
ZISSEN1
  6
CONTINUOUS
 62
     7
100
AcDbLine
 10
-1649.333456702746
 20
1556.334772637116
 30
0.0
 11
-1649.294567813857
 21
1556.284772637116
 31
0.0
  0
LINE
  5
178CB
330
1A
100
AcDbEntity
  8
ZISSEN1
  6
CONTINUOUS
 62
     7
100
AcDbLine
 10
-1648.955678924969
 20
1556.334772637116
 30
0.0
 11
-1648.994567813858
 21
1556.284772637116
 31
0.0
  0
LINE
  5
178CC
330
1A
100
AcDbEntity
  8
ZISSEN1
  6
CONTINUOUS
 62
     7
100
AcDbLine
 10
-1649.294567813857
 20
1556.284772637116
 30
0.0
 11
-1648.994567813858
 21
1556.284772637116
 31
0.0
  0
LINE
  5
178D4
330
1A
100
AcDbEntity
  8
ZISSEN1
  6
CONTINUOUS
 62
     7
100
AcDbLine
 10
-1645.875913496866
 20
1556.184772637116
 30
0.0
 11
-1644.875913496866
 21
1556.184772637116
 31
0.0
  0
LINE
  5
178D5
330
1A
100
AcDbEntity
  8
ZISSEN1
  6
CONTINUOUS
 62
     7
100
AcDbLine
 10
-1645.875913496866
 20
1556.334772637116
 30
0.0
 11
-1645.875913496866
 21
1556.184772637116
 31
0.0
  0
LINE
  5
178D6
330
1A
100
AcDbEntity
  8
ZISSEN1
  6
CONTINUOUS
 62
     7
100
AcDbLine
 10
-1644.875913496866
 20
1556.334772637116
 30
0.0
 11
-1645.875913496866
 21
1556.334772637116
 31
0.0
  0
LINE
  5
178D7
330
1A
100
AcDbEntity
  8
ZISSEN1
  6
CONTINUOUS
 62
     7
100
AcDbLine
 10
-1648.620784872136
 20
1558.084772637116
 30
0.0
 11
-1647.620784872136
 21
1558.084772637116
 31
0.0
  0
LINE
  5
178D8
330
1A
100
AcDbEntity
  8
ZISSEN1
  6
CONTINUOUS
 62
     7
100
AcDbLine
 10
-1648.620784872136
 20
1557.934772637116
 30
0.0
 11
-1648.620784872136
 21
1558.084772637116
 31
0.0
  0
LINE
  5
178D9
330
1A
100
AcDbEntity
  8
ZISSEN1
  6
CONTINUOUS
 62
     7
100
AcDbLine
 10
-1647.620784872136
 20
1557.934772637116
 30
0.0
 11
-1648.620784872136
 21
1557.934772637116
 31
0.0
  0
LINE
  5
178DA
330
1A
100
AcDbEntity
  8
ZISSEN1
  6
CONTINUOUS
 62
     7
100
AcDbLine
 10
-1641.275913496867
 20
1548.734772637116
 30
0.0
 11
-1641.275913496866
 21
1556.334772637116
 31
0.0
  0
LINE
  5
178DB
330
1A
100
AcDbEntity
  8
ZISSEN1
  6
CONTINUOUS
 62
     7
100
AcDbLine
 10
-1638.493862689298
 20
1550.334772637117
 30
0.0
 11
-1638.493862689298
 21
1556.334772637116
 31
0.0
  0
LINE
  5
178DC
330
1A
100
AcDbEntity
  8
ZISSEN1
  6
CONTINUOUS
 62
     7
100
AcDbLine
 10
-1637.993862689298
 20
1550.334772637116
 30
0.0
 11
-1641.275913496866
 21
1550.334772637116
 31
0.0
  0
LINE
  5
178DD
330
1A
100
AcDbEntity
  8
ZISSEN1
  6
CONTINUOUS
 62
     7
100
AcDbLine
 10
-1637.993862689298
 20
1550.334772637116
 30
0.0
 11
-1637.993862689298
 21
1548.734772637116
 31
0.0
  0
LINE
  5
178DE
330
1A
100
AcDbEntity
  8
ZISSEN1
  6
CONTINUOUS
 62
     7
100
AcDbLine
 10
-1638.243862689298
 20
1557.934772637116
 30
0.0
 11
-1642.920784872136
 21
1557.934772637116
 31
0.0
  0
LINE
  5
178DF
330
1A
100
AcDbEntity
  8
ZISSEN1
  6
CONTINUOUS
 62
     7
100
AcDbLine
 10
-1640.175913496866
 20
1556.154772637116
 30
0.0
 11
-1641.275913496867
 21
1556.154772637116
 31
0.0
  0
LINE
  5
178E0
330
1A
100
AcDbEntity
  8
ZISSEN1
  6
CONTINUOUS
 62
     7
100
AcDbLine
 10
-1641.275913496866
 20
1556.334772637116
 30
0.0
 11
-1640.175913496866
 21
1556.334772637116
 31
0.0
  0
LINE
  5
178E1
330
1A
100
AcDbEntity
  8
ZISSEN1
  6
CONTINUOUS
 62
     7
100
AcDbLine
 10
-1643.743862689298
 20
1558.114772637116
 30
0.0
 11
-1643.743862689298
 21
1558.684772637116
 31
0.0
  0
LINE
  5
178E2
330
1A
100
AcDbEntity
  8
ZISSEN1
  6
CONTINUOUS
 62
     7
100
AcDbLine
 10
-1643.702084010081
 20
1558.839015630929
 30
0.0
 11
-1643.743862689298
 21
1558.684772637116
 31
0.0
  0
LINE
  5
178E3
330
1A
100
AcDbEntity
  8
ZISSEN1
  6
CONTINUOUS
 62
     7
100
AcDbLine
 10
-1643.578017396459
 20
1558.988572029425
 30
0.0
 11
-1643.702084010081
 21
1558.839015630929
 31
0.0
  0
LINE
  5
178E4
330
1A
100
AcDbEntity
  8
ZISSEN1
  6
CONTINUOUS
 62
     7
100
AcDbLine
 10
-1643.375432549705
 20
1559.128897637116
 30
0.0
 11
-1643.578017396459
 21
1558.988572029425
 31
0.0
  0
LINE
  5
178E5
330
1A
100
AcDbEntity
  8
ZISSEN1
  6
CONTINUOUS
 62
     7
100
AcDbLine
 10
-1643.100484907875
 20
1559.25572873142
 30
0.0
 11
-1643.375432549705
 21
1559.128897637116
 31
0.0
  0
LINE
  5
178E6
330
1A
100
AcDbEntity
  8
ZISSEN1
  6
CONTINUOUS
 62
     7
100
AcDbLine
 10
-1642.761528615936
 20
1559.365211613717
 30
0.0
 11
-1643.100484907875
 21
1559.25572873142
 31
0.0
  0
LINE
  5
178E7
330
1A
100
AcDbEntity
  8
ZISSEN1
  6
CONTINUOUS
 62
     7
100
AcDbLine
 10
-1642.920784872136
 20
1558.114772637116
 30
0.0
 11
-1644.020784872136
 21
1558.114772637116
 31
0.0
  0
LINE
  5
178E8
330
1A
100
AcDbEntity
  8
ZISSEN1
  6
CONTINUOUS
 62
     7
100
AcDbLine
 10
-1642.920784872136
 20
1557.934772637116
 30
0.0
 11
-1642.920784872136
 21
1558.114772637116
 31
0.0
  0
LINE
  5
178E9
330
1A
100
AcDbEntity
  8
ZISSEN1
  6
CONTINUOUS
 62
     7
100
AcDbLine
 10
-1644.020784872136
 20
1557.934772637116
 30
0.0
 11
-1642.920784872136
 21
1557.934772637116
 31
0.0
  0
LINE
  5
178EA
330
1A
100
AcDbEntity
  8
ZISSEN1
  6
CONTINUOUS
 62
     7
100
AcDbLine
 10
-1638.243862689298
 20
1557.934772637116
 30
0.0
 11
-1638.243862689298
 21
1558.684772637116
 31
0.0
  0
LINE
  5
178EB
330
1A
100
AcDbEntity
  8
ZISSEN1
  6
CONTINUOUS
 62
     7
100
AcDbLine
 10
-1638.88724047072
 20
1559.25572873142
 30
0.0
 11
-1639.22619676266
 21
1559.365211613717
 31
0.0
  0
LINE
  5
178EC
330
1A
100
AcDbEntity
  8
ZISSEN1
  6
CONTINUOUS
 62
     7
100
AcDbLine
 10
-1638.612292828891
 20
1559.128897637116
 30
0.0
 11
-1638.88724047072
 21
1559.25572873142
 31
0.0
  0
LINE
  5
178ED
330
1A
100
AcDbEntity
  8
ZISSEN1
  6
CONTINUOUS
 62
     7
100
AcDbLine
 10
-1638.409707982136
 20
1558.988572029425
 30
0.0
 11
-1638.612292828891
 21
1559.128897637116
 31
0.0
  0
LINE
  5
178EE
330
1A
100
AcDbEntity
  8
ZISSEN1
  6
CONTINUOUS
 62
     7
100
AcDbLine
 10
-1638.285641368514
 20
1558.839015630929
 30
0.0
 11
-1638.409707982136
 21
1558.988572029425
 31
0.0
  0
LINE
  5
178EF
330
1A
100
AcDbEntity
  8
ZISSEN1
  6
CONTINUOUS
 62
     7
100
AcDbLine
 10
-1638.243862689298
 20
1558.684772637116
 30
0.0
 11
-1638.285641368514
 21
1558.839015630929
 31
0.0
  0
LINE
  5
178F0
330
1A
100
AcDbEntity
  8
ZISSEN1
  6
CONTINUOUS
 62
     7
100
AcDbLine
 10
-1640.175913496866
 20
1556.334772637116
 30
0.0
 11
-1640.175913496866
 21
1556.154772637116
 31
0.0
  0
LINE
  5
178F1
330
1A
100
AcDbEntity
  8
ZISSEN1
  6
CONTINUOUS
 62
     7
100
AcDbLine
 10
-1638.993862689297
 20
1557.934772637116
 30
0.0
 11
-1638.993862689297
 21
1556.334772637116
 31
0.0
  0
LINE
  5
178F2
330
1A
100
AcDbEntity
  8
ZISSEN1
  6
CONTINUOUS
 62
     7
100
AcDbLine
 10
-1637.993862689298
 20
1557.934772637116
 30
0.0
 11
-1637.993862689298
 21
1556.334772637116
 31
0.0
  0
LINE
  5
178F3
330
1A
100
AcDbEntity
  8
ZISSEN1
  6
CONTINUOUS
 62
     7
100
AcDbLine
 10
-1644.020784872136
 20
1565.534772637116
 30
0.0
 11
-1647.620784872136
 21
1565.534772637116
 31
0.0
  0
LINE
  5
178F4
330
1A
100
AcDbEntity
  8
ZISSEN1
  6
CONTINUOUS
 62
     7
100
AcDbLine
 10
-1641.923862689298
 20
1566.834772637116
 30
0.0
 11
-1649.023862689297
 21
1566.834772637116
 31
0.0
  0
LINE
  5
178F6
330
1A
100
AcDbEntity
  8
ZISSEN1
  6
CONTINUOUS
 62
     7
100
AcDbLine
 10
-1650.797080395673
 20
1569.434772637116
 30
0.0
 11
-1650.797080395673
 21
1560.434772637116
 31
0.0
  0
LINE
  5
178F7
330
1A
100
AcDbEntity
  8
ZISSEN1
  6
CONTINUOUS
 62
     7
100
AcDbLine
 10
-1648.523862689297
 20
1565.334772637116
 30
0.0
 11
-1648.523862689297
 21
1560.834772637116
 31
0.0
  0
LINE
  5
178F8
330
1A
100
AcDbEntity
  8
ZISSEN1
  6
CONTINUOUS
 62
     7
100
AcDbLine
 10
-1647.620784872136
 20
1560.434772637116
 30
0.0
 11
-1651.164170618975
 21
1560.434772637116
 31
0.0
  0
LINE
  5
178F9
330
1A
100
AcDbEntity
  8
ZISSEN1
  6
CONTINUOUS
 62
     7
100
AcDbLine
 10
-1648.523862689297
 20
1560.834772637116
 30
0.0
 11
-1649.023862689297
 21
1560.834772637116
 31
0.0
  0
LINE
  5
178FA
330
1A
100
AcDbEntity
  8
ZISSEN1
  6
CONTINUOUS
 62
     7
100
AcDbLine
 10
-1649.023862689297
 20
1560.834772637116
 30
0.0
 11
-1649.023862689297
 21
1560.434772637116
 31
0.0
  0
LINE
  5
178FB
330
1A
100
AcDbEntity
  8
ZISSEN1
  6
CONTINUOUS
 62
     7
100
AcDbLine
 10
-1648.523862689297
 20
1560.834772637116
 30
0.0
 11
-1647.620784872136
 21
1560.834772637116
 31
0.0
  0
LINE
  5
178FC
330
1A
100
AcDbEntity
  8
ZISSEN1
  6
CONTINUOUS
 62
     7
100
AcDbLine
 10
-1650.797080395673
 20
1569.434772637116
 30
0.0
 11
-1650.797080395673
 21
1569.434772637116
 31
0.0
  0
LINE
  5
178FD
330
1A
100
AcDbEntity
  8
ZISSEN1
  6
CONTINUOUS
 62
     7
100
AcDbLine
 10
-1648.523862689297
 20
1565.334772637116
 30
0.0
 11
-1649.023862689297
 21
1565.334772637116
 31
0.0
  0
LINE
  5
178FF
330
1A
100
AcDbEntity
  8
ZISSEN1
  6
CONTINUOUS
 62
     7
100
AcDbLine
 10
-1649.023862689297
 20
1566.834772637116
 30
0.0
 11
-1649.023862689297
 21
1565.334772637116
 31
0.0
  0
LINE
  5
17901
330
1A
100
AcDbEntity
  8
ZISSEN1
  6
CONTINUOUS
 62
     7
100
AcDbLine
 10
-1640.123862689298
 20
1559.527400338061
 30
0.0
 11
-1640.123862689298
 21
1565.334772637116
 31
0.0
  0
LINE
  5
17902
330
1A
100
AcDbEntity
  8
ZISSEN1
  6
CONTINUOUS
 62
     7
100
AcDbLine
 10
-1641.923862689298
 20
1566.834772637116
 30
0.0
 11
-1641.923862689298
 21
1560.834772637116
 31
0.0
  0
LINE
  5
17903
330
1A
100
AcDbEntity
  8
ZISSEN1
  6
CONTINUOUS
 62
     7
100
AcDbLine
 10
-1640.053307295152
 20
1559.519454607529
 30
0.0
 11
-1640.516330200713
 21
1559.559528123729
 31
0.0
  0
LINE
  5
17904
330
1A
100
AcDbEntity
  8
ZISSEN1
  6
CONTINUOUS
 62
     7
100
AcDbLine
 10
-1641.934418083443
 20
1559.519454607529
 30
0.0
 11
-1642.368862689298
 21
1559.454019702028
 31
0.0
  0
LINE
  5
17905
330
1A
100
AcDbEntity
  8
ZISSEN1
  6
CONTINUOUS
 62
     7
100
AcDbLine
 10
-1641.471395177881
 20
1559.559528123729
 30
0.0
 11
-1641.934418083443
 21
1559.519454607529
 31
0.0
  0
LINE
  5
17906
330
1A
100
AcDbEntity
  8
ZISSEN1
  6
CONTINUOUS
 62
     7
100
AcDbLine
 10
-1640.993862689298
 20
1559.573022637116
 30
0.0
 11
-1641.471395177881
 21
1559.559528123729
 31
0.0
  0
LINE
  5
17907
330
1A
100
AcDbEntity
  8
ZISSEN1
  6
CONTINUOUS
 62
     7
100
AcDbLine
 10
-1640.516330200713
 20
1559.559528123729
 30
0.0
 11
-1640.993862689298
 21
1559.573022637116
 31
0.0
  0
LINE
  5
17908
330
1A
100
AcDbEntity
  8
ZISSEN1
  6
CONTINUOUS
 62
     7
100
AcDbLine
 10
-1641.457597876756
 20
1560.834772637116
 30
0.0
 11
-1641.457597876756
 21
1559.560302235268
 31
0.0
  0
LINE
  5
17909
330
1A
100
AcDbEntity
  8
ZISSEN1
  6
CONTINUOUS
 62
     7
100
AcDbLine
 10
-1641.457597876756
 20
1560.834772637116
 30
0.0
 11
-1644.020784872136
 21
1560.834772637116
 31
0.0
  0
LINE
  5
1790A
330
1A
100
AcDbEntity
  8
ZISSEN1
  6
CONTINUOUS
 62
     7
100
AcDbLine
 10
-1639.618862689298
 20
1559.454019702028
 30
0.0
 11
-1640.053307295152
 21
1559.519454607529
 31
0.0
  0
LINE
  5
1790B
330
1A
100
AcDbEntity
  8
ZISSEN1
  6
CONTINUOUS
 62
     7
100
AcDbLine
 10
-1639.623862689298
 20
1566.334772637116
 30
0.0
 11
-1641.923862689298
 21
1566.334772637116
 31
0.0
  0
LINE
  5
1790C
330
1A
100
AcDbEntity
  8
ZISSEN1
  6
CONTINUOUS
 62
     7
100
AcDbLine
 10
-1639.623862689298
 20
1565.334772637116
 30
0.0
 11
-1640.123862689298
 21
1565.334772637116
 31
0.0
  0
LINE
  5
1790D
330
1A
100
AcDbEntity
  8
ZISSEN1
  6
CONTINUOUS
 62
     7
100
AcDbLine
 10
-1639.623862689298
 20
1565.334772637116
 30
0.0
 11
-1639.623862689298
 21
1566.334772637116
 31
0.0
  0
ARC
  5
1790E
330
1A
100
AcDbEntity
  8
ZISSEN1
  6
CONTINUOUS
 62
     7
100
AcDbCircle
 10
-1576.59973421984
 20
1628.087550707934
 30
0.0
 40
11.0
100
AcDbArc
 50
87.39474873494527
 51
250.3445186845655
  0
LINE
  5
1790F
330
1A
100
AcDbEntity
  8
ZISSEN1
  6
CONTINUOUS
 62
     7
100
AcDbLine
 10
-1565.599734219839
 20
1662.92611581766
 30
0.0
 11
-1565.599734219839
 21
1609.607309342205
 31
0.0
  0
LINE
  5
17915
330
1A
100
AcDbEntity
  8
ZISSEN1
  6
CONTINUOUS
 62
     7
100
AcDbLine
 10
-1576.099734219839
 20
1646.814028050739
 30
0.0
 11
-1576.099734219839
 21
1627.214028050739
 31
0.0
  0
LINE
  5
17916
330
1A
100
AcDbEntity
  8
ZISSEN1
  6
CONTINUOUS
 62
     7
100
AcDbLine
 10
-1560.99973421984
 20
1626.714028050738
 30
0.0
 11
-1560.99973421984
 21
1657.414028050739
 31
0.0
  0
LINE
  5
17917
330
1A
100
AcDbEntity
  8
ZISSEN1
  6
CONTINUOUS
 62
     7
100
AcDbLine
 10
-1563.99973421984
 20
1601.914028050739
 30
0.0
 11
-1563.99973421984
 21
1663.914028050739
 31
0.0
  0
LINE
  5
17918
330
1A
100
AcDbEntity
  8
ZISSEN1
  6
CONTINUOUS
 62
     7
100
AcDbLine
 10
-1587.99973421984
 20
1669.414028050738
 30
0.0
 11
-1587.99973421984
 21
1596.414028050738
 31
0.0
  0
LINE
  5
17919
330
1A
100
AcDbEntity
  8
ZISSEN1
  6
CONTINUOUS
 62
     7
100
AcDbLine
 10
-1558.99973421984
 20
1670.414028050738
 30
0.0
 11
-1558.99973421984
 21
1595.414028050738
 31
0.0
  0
LINE
  5
1791A
330
1A
100
AcDbEntity
  8
ZISSEN1
  6
CONTINUOUS
 62
     7
100
AcDbLine
 10
-1640.923862689297
 20
1637.914028050739
 30
0.0
 11
-1640.923862689297
 21
1635.914028050739
 31
0.0
  0
LINE
  5
1791B
330
1A
100
AcDbEntity
  8
ZISSEN1
  6
CONTINUOUS
 62
     7
100
AcDbLine
 10
-1649.023862689297
 20
1646.714028050739
 30
0.0
 11
-1649.023862689297
 21
1627.114028050739
 31
0.0
  0
LINE
  5
1791C
330
1A
100
AcDbEntity
  8
ZISSEN1
  6
CONTINUOUS
 62
     7
100
AcDbLine
 10
-1641.423862689297
 20
1646.714028050739
 30
0.0
 11
-1641.423862689297
 21
1627.114028050739
 31
0.0
  0
LINE
  5
1791D
330
1A
100
AcDbEntity
  8
ZISSEN1
  6
CONTINUOUS
 62
     7
100
AcDbLine
 10
-1642.023862689297
 20
1646.014028050739
 30
0.0
 11
-1642.023862689297
 21
1627.814028050739
 31
0.0
  0
LINE
  5
17920
330
1A
100
AcDbEntity
  8
ZISSEN1
  6
CONTINUOUS
 62
     7
100
AcDbLine
 10
-1648.423862689297
 20
1646.014028050739
 30
0.0
 11
-1648.423862689297
 21
1627.814028050739
 31
0.0
  0
LINE
  5
17921
330
1A
100
AcDbEntity
  8
ZISSEN1
  6
CONTINUOUS
 62
     7
100
AcDbLine
 10
-1637.993862689298
 20
1642.914028050739
 30
0.0
 11
-1637.993862689298
 21
1626.614028050739
 31
0.0
  0
LINE
  5
17922
330
1A
100
AcDbEntity
  8
ZISSEN1
  6
CONTINUOUS
 62
     7
100
AcDbLine
 10
-1683.295719034026
 20
1645.732605886042
 30
0.0
 11
-1683.295719034026
 21
1612.626617419318
 31
0.0
  0
LINE
  5
17923
330
1A
100
AcDbEntity
  8
ZISSEN1
  6
CONTINUOUS
 62
     7
100
AcDbLine
 10
-1683.295719034026
 20
1639.087550707934
 30
0.0
 11
-1683.295719034026
 21
1611.334761074589
 31
0.0
  0
LINE
  5
17924
330
1A
100
AcDbEntity
  8
ZISSEN1
  6
CONTINUOUS
 62
     7
100
AcDbLine
 10
-1684.845719034026
 20
1639.150789379337
 30
0.0
 11
-1684.845719034026
 21
1628.150789379337
 31
0.0
  0
LINE
  5
17925
330
1A
100
AcDbEntity
  8
ZISSEN1
  6
CONTINUOUS
 62
     7
100
AcDbLine
 10
-1649.493862689297
 20
1657.414028050739
 30
0.0
 11
-1649.493862689297
 21
1626.614028050739
 31
0.0
  0
LINE
  5
17AA1
330
1A
100
AcDbEntity
  8
ZISSEN1
  6
CONTINUOUS
 62
     7
100
AcDbLine
 10
-1684.845719034026
 20
1628.150789379337
 30
0.0
 11
-1684.845719034026
 21
1617.150789379337
 31
0.0
  0
LINE
  5
17AA3
330
1A
100
AcDbEntity
  8
ZISSEN1
  6
CONTINUOUS
 62
     7
100
AcDbLine
 10
-1647.624818409239
 20
1618.014028050739
 30
0.0
 11
-1647.624818409239
 21
1610.614028050739
 31
0.0
  0
LINE
  5
17AA4
330
1A
100
AcDbEntity
  8
ZISSEN1
  6
CONTINUOUS
 62
     7
100
AcDbLine
 10
-1644.024818409239
 20
1618.014028050739
 30
0.0
 11
-1644.024818409239
 21
1610.614028050739
 31
0.0
  0
LINE
  5
17AA5
330
1A
100
AcDbEntity
  8
ZISSEN1
  6
CONTINUOUS
 62
     7
100
AcDbLine
 10
-1637.493862689298
 20
1616.714028050737
 30
0.0
 11
-1637.493862689298
 21
1602.414028050737
 31
0.0
  0
LINE
  5
17AA6
330
1A
100
AcDbEntity
  8
ZISSEN1
  6
CONTINUOUS
 62
     7
100
AcDbLine
 10
-1637.993862689298
 20
1626.614028050739
 30
0.0
 11
-1637.993862689298
 21
1602.914028050739
 31
0.0
  0
LINE
  5
17AA7
330
1A
100
AcDbEntity
  8
ZISSEN1
  6
CONTINUOUS
 62
     7
100
AcDbLine
 10
-1637.993862689298
 20
1626.614028050739
 30
0.0
 11
-1637.993862689298
 21
1602.914028050739
 31
0.0
  0
LINE
  5
17AA8
330
1A
100
AcDbEntity
  8
ZISSEN1
  6
CONTINUOUS
 62
     7
100
AcDbLine
 10
-1647.624818409239
 20
1609.614028050739
 30
0.0
 11
-1647.624818409239
 21
1602.214028050739
 31
0.0
  0
LINE
  5
17AA9
330
1A
100
AcDbEntity
  8
ZISSEN1
  6
CONTINUOUS
 62
     7
100
AcDbLine
 10
-1644.024818409239
 20
1609.614028050739
 30
0.0
 11
-1644.024818409239
 21
1602.214028050739
 31
0.0
  0
ARC
  5
17AAA
330
1A
100
AcDbEntity
  8
ZISSEN1
  6
CONTINUOUS
 62
     7
100
AcDbCircle
 10
-1637.993862689298
 20
1601.914028050739
 30
0.0
 40
1.0
100
AcDbArc
 50
90.0
 51
180.0
  0
ARC
  5
17AAB
330
1A
100
AcDbEntity
  8
ZISSEN1
  6
CONTINUOUS
 62
     7
100
AcDbCircle
 10
-1637.993862689298
 20
1601.914028050739
 30
0.0
 40
1.0
100
AcDbArc
 50
90.0
 51
180.0
  0
LINE
  5
17AAC
330
1A
100
AcDbEntity
  8
ZISSEN1
  6
CONTINUOUS
 62
     7
100
AcDbLine
 10
-1644.024818409239
 20
1602.214028050739
 30
0.0
 11
-1647.624818409239
 21
1602.214028050739
 31
0.0
  0
LINE
  5
17AAD
330
1A
100
AcDbEntity
  8
ZISSEN1
  6
CONTINUOUS
 62
     7
100
AcDbLine
 10
-1638.493862689298
 20
1601.414028050737
 30
0.0
 11
-1648.624818409239
 21
1601.414028050737
 31
0.0
  0
LINE
  5
17AAE
330
1A
100
AcDbEntity
  8
ZISSEN1
  6
CONTINUOUS
 62
     7
100
AcDbLine
 10
-1648.624818409239
 20
1601.414028050737
 30
0.0
 11
-1648.624818409239
 21
1601.914028050739
 31
0.0
  0
LINE
  5
17AAF
330
1A
100
AcDbEntity
  8
ZISSEN1
  6
CONTINUOUS
 62
     7
100
AcDbLine
 10
-1637.493862689299
 20
1602.414028050736
 30
0.0
 11
-1638.493862689298
 21
1601.414028050737
 31
0.0
  0
LINE
  5
17AB0
330
1A
100
AcDbEntity
  8
ZISSEN1
  6
CONTINUOUS
 62
     7
100
AcDbLine
 10
-1644.024818409239
 20
1609.614028050739
 30
0.0
 11
-1647.624818409239
 21
1609.614028050739
 31
0.0
  0
LINE
  5
17AB1
330
1A
100
AcDbEntity
  8
ZISSEN1
  6
CONTINUOUS
 62
     7
100
AcDbLine
 10
-1644.024818409239
 20
1610.614028050739
 30
0.0
 11
-1647.624818409239
 21
1610.614028050739
 31
0.0
  0
LINE
  5
17ADD
330
1A
100
AcDbEntity
  8
ZISSEN1
  6
CONTINUOUS
 62
     7
100
AcDbLine
 10
-1641.859881982845
 20
1609.478516470727
 30
0.0
 11
-1639.859881982845
 21
1609.478516470727
 31
0.0
  0
LINE
  5
17ADE
330
1A
100
AcDbEntity
  8
ZISSEN1
  6
CONTINUOUS
 62
     7
100
AcDbLine
 10
-1641.859881982845
 20
1610.728516470727
 30
0.0
 11
-1639.859881982845
 21
1610.728516470727
 31
0.0
  0
LINE
  5
17AE3
330
1A
100
AcDbEntity
  8
ZISSEN1
  6
CONTINUOUS
 62
     7
100
AcDbLine
 10
-1641.459881982845
 20
1610.728516470727
 30
0.0
 11
-1641.459881982845
 21
1609.478516470727
 31
0.0
  0
LINE
  5
17AE4
330
1A
100
AcDbEntity
  8
ZISSEN1
  6
CONTINUOUS
 62
     7
100
AcDbLine
 10
-1641.859881982845
 20
1610.728516470727
 30
0.0
 11
-1641.859881982845
 21
1609.478516470727
 31
0.0
  0
LINE
  5
17AE5
330
1A
100
AcDbEntity
  8
ZISSEN1
  6
CONTINUOUS
 62
     7
100
AcDbLine
 10
-1640.259881982845
 20
1610.728516470727
 30
0.0
 11
-1640.259881982845
 21
1609.478516470727
 31
0.0
  0
LINE
  5
17AE6
330
1A
100
AcDbEntity
  8
ZISSEN1
  6
CONTINUOUS
 62
     7
100
AcDbLine
 10
-1639.859881982845
 20
1610.728516470727
 30
0.0
 11
-1639.859881982845
 21
1609.478516470727
 31
0.0
  0
CIRCLE
  5
17AE7
330
1A
100
AcDbEntity
  8
ZISSEN1
  6
CONTINUOUS
 62
     7
100
AcDbCircle
 10
-1640.993862689298
 20
1623.214028050737
 30
0.0
 40
2.75
  0
CIRCLE
  5
17AE8
330
1A
100
AcDbEntity
  8
ZISSEN1
  6
CONTINUOUS
 62
     7
100
AcDbCircle
 10
-1640.993862689298
 20
1623.214028050738
 30
0.0
 40
2.75
  0
LINE
  5
17AE9
330
1A
100
AcDbEntity
  8
ZISSEN1
  6
CONTINUOUS
 62
     7
100
AcDbLine
 10
-1637.493862689298
 20
1626.714028050738
 30
0.0
 11
-1637.493862689298
 21
1619.714028050738
 31
0.0
  0
LINE
  5
17AEA
330
1A
100
AcDbEntity
  8
ZISSEN1
  6
CONTINUOUS
 62
     7
100
AcDbLine
 10
-1644.024818409239
 20
1618.014028050739
 30
0.0
 11
-1647.624818409239
 21
1618.014028050739
 31
0.0
  0
LINE
  5
17AEB
330
1A
100
AcDbEntity
  8
ZISSEN1
  6
CONTINUOUS
 62
     7
100
AcDbLine
 10
-1651.164170618975
 20
1625.493022434976
 30
0.0
 11
-1651.164170618975
 21
1618.883022434976
 31
0.0
  0
LINE
  5
17AEC
330
1A
100
AcDbEntity
  8
ZISSEN1
  6
CONTINUOUS
 62
     7
100
AcDbLine
 10
-1645.764170618975
 20
1625.493022434976
 30
0.0
 11
-1645.764170618975
 21
1618.883022434976
 31
0.0
  0
LINE
  5
17AED
330
1A
100
AcDbEntity
  8
ZISSEN1
  6
CONTINUOUS
 62
     7
100
AcDbLine
 10
-1645.764170618975
 20
1618.883022434976
 30
0.0
 11
-1651.164170618975
 21
1618.883022434976
 31
0.0
  0
LINE
  5
17AFD
330
1A
100
AcDbEntity
  8
ZISSEN1
  6
CONTINUOUS
 62
     7
100
AcDbLine
 10
-1645.764170618975
 20
1625.493022434976
 30
0.0
 11
-1651.164170618975
 21
1625.493022434976
 31
0.0
  0
LINE
  5
17B1E
330
1A
100
AcDbEntity
  8
ZISSEN1
  6
CONTINUOUS
 62
     7
100
AcDbLine
 10
-1641.859881982845
 20
1617.739028050739
 30
0.0
 11
-1639.859881982845
 21
1617.739028050739
 31
0.0
  0
LINE
  5
17B1F
330
1A
100
AcDbEntity
  8
ZISSEN1
  6
CONTINUOUS
 62
     7
100
AcDbLine
 10
-1641.859881982845
 20
1618.989028050739
 30
0.0
 11
-1639.859881982845
 21
1618.989028050739
 31
0.0
  0
LINE
  5
17B20
330
1A
100
AcDbEntity
  8
ZISSEN1
  6
CONTINUOUS
 62
     7
100
AcDbLine
 10
-1641.459881982845
 20
1618.989028050739
 30
0.0
 11
-1641.459881982845
 21
1617.739028050739
 31
0.0
  0
LINE
  5
17B21
330
1A
100
AcDbEntity
  8
ZISSEN1
  6
CONTINUOUS
 62
     7
100
AcDbLine
 10
-1641.859881982845
 20
1618.989028050739
 30
0.0
 11
-1641.859881982845
 21
1617.739028050739
 31
0.0
  0
LINE
  5
17B25
330
1A
100
AcDbEntity
  8
ZISSEN1
  6
CONTINUOUS
 62
     7
100
AcDbLine
 10
-1640.259881982845
 20
1618.989028050739
 30
0.0
 11
-1640.259881982845
 21
1617.739028050739
 31
0.0
  0
LINE
  5
17B26
330
1A
100
AcDbEntity
  8
ZISSEN1
  6
CONTINUOUS
 62
     7
100
AcDbLine
 10
-1639.859881982845
 20
1618.989028050739
 30
0.0
 11
-1639.859881982845
 21
1617.739028050739
 31
0.0
  0
LINE
  5
17B27
330
1A
100
AcDbEntity
  8
ZISSEN1
  6
CONTINUOUS
 62
     7
100
AcDbLine
 10
-1637.993862689298
 20
1619.714028050738
 30
0.0
 11
-1637.493862689298
 21
1619.714028050738
 31
0.0
  0
LINE
  5
17B28
330
1A
100
AcDbEntity
  8
ZISSEN1
  6
CONTINUOUS
 62
     7
100
AcDbLine
 10
-1637.493862689298
 20
1616.714028050737
 30
0.0
 11
-1637.993862689298
 21
1616.714028050737
 31
0.0
  0
LINE
  5
17B39
330
1A
100
AcDbEntity
  8
ZISSEN1
  6
CONTINUOUS
 62
     7
100
AcDbLine
 10
-1641.423862689297
 20
1627.114028050739
 30
0.0
 11
-1649.023862689297
 21
1627.114028050739
 31
0.0
  0
LINE
  5
17B3A
330
1A
100
AcDbEntity
  8
ZISSEN1
  6
CONTINUOUS
 62
     7
100
AcDbLine
 10
-1642.023862689297
 20
1627.814028050739
 30
0.0
 11
-1648.423862689297
 21
1627.814028050739
 31
0.0
  0
LINE
  5
17B40
330
1A
100
AcDbEntity
  8
ZISSEN1
  6
CONTINUOUS
 62
     7
100
AcDbLine
 10
-1649.493862689297
 20
1626.614028050739
 30
0.0
 11
-1638.493862689298
 21
1626.614028050739
 31
0.0
  0
LINE
  5
17B41
330
1A
100
AcDbEntity
  8
ZISSEN1
  6
CONTINUOUS
 62
     7
100
AcDbLine
 10
-1648.993862689297
 20
1626.614028050739
 30
0.0
 11
-1637.993862689298
 21
1626.614028050739
 31
0.0
  0
LINE
  5
17B45
330
1A
100
AcDbEntity
  8
ZISSEN1
  6
CONTINUOUS
 62
     7
100
AcDbLine
 10
-1637.493862689298
 20
1626.714028050738
 30
0.0
 11
-1637.993862689298
 21
1626.714028050738
 31
0.0
  0
LINE
  5
17B46
330
1A
100
AcDbEntity
  8
ZISSEN1
  6
CONTINUOUS
 62
     7
100
AcDbLine
 10
-1641.423862689297
 20
1635.914028050739
 30
0.0
 11
-1640.923862689297
 21
1635.914028050739
 31
0.0
  0
LINE
  5
17B4D
330
1A
100
AcDbEntity
  8
ZISSEN1
  6
CONTINUOUS
 62
     7
100
AcDbLine
 10
-1563.99973421984
 20
1619.714028050738
 30
0.0
 11
-1558.99973421984
 21
1619.714028050738
 31
0.0
  0
LINE
  5
17B4E
330
1A
100
AcDbEntity
  8
ZISSEN1
  6
CONTINUOUS
 62
     7
100
AcDbLine
 10
-1563.99973421984
 20
1626.714028050738
 30
0.0
 11
-1558.99973421984
 21
1626.714028050738
 31
0.0
  0
LINE
  5
17B4F
330
1A
100
AcDbEntity
  8
ZISSEN1
  6
CONTINUOUS
 62
     7
100
AcDbLine
 10
-1574.24973421984
 20
1595.414028050738
 30
0.0
 11
-1561.99973421984
 21
1595.414028050738
 31
0.0
  0
LINE
  5
17B52
330
1A
100
AcDbEntity
  8
ZISSEN1
  6
CONTINUOUS
 62
     7
100
AcDbLine
 10
-1573.19973421984
 20
1627.214028050739
 30
0.0
 11
-1573.19973421984
 21
1601.914028050739
 31
0.0
  0
LINE
  5
17B53
330
1A
100
AcDbEntity
  8
ZISSEN1
  6
CONTINUOUS
 62
     7
100
AcDbLine
 10
-1571.599734219839
 20
1601.914028050739
 30
0.0
 11
-1571.599734219839
 21
1627.214028050739
 31
0.0
  0
LINE
  5
17B54
330
1A
100
AcDbEntity
  8
ZISSEN1
  6
CONTINUOUS
 62
     7
100
AcDbLine
 10
-1580.799734219839
 20
1617.514028050739
 30
0.0
 11
-1580.799734219839
 21
1611.114028050739
 31
0.0
  0
LINE
  5
17B55
330
1A
100
AcDbEntity
  8
ZISSEN1
  6
CONTINUOUS
 62
     7
100
AcDbLine
 10
-1573.19973421984
 20
1617.514028050739
 30
0.0
 11
-1573.19973421984
 21
1611.114028050739
 31
0.0
  0
LINE
  5
17B5D
330
1A
100
AcDbEntity
  8
ZISSEN1
  6
CONTINUOUS
 62
     7
100
AcDbLine
 10
-1580.299734219839
 20
1609.614028050739
 30
0.0
 11
-1573.699734219839
 21
1609.614028050739
 31
0.0
  0
LINE
  5
17B5E
330
1A
100
AcDbEntity
  8
ZISSEN1
  6
CONTINUOUS
 62
     7
100
AcDbLine
 10
-1580.299734219839
 20
1602.214028050739
 30
0.0
 11
-1573.699734219839
 21
1602.214028050739
 31
0.0
  0
LINE
  5
17B5F
330
1A
100
AcDbEntity
  8
ZISSEN1
  6
CONTINUOUS
 62
     7
100
AcDbLine
 10
-1580.299734219839
 20
1610.614028050739
 30
0.0
 11
-1573.699734219839
 21
1610.614028050739
 31
0.0
  0
LINE
  5
17B60
330
1A
100
AcDbEntity
  8
ZISSEN1
  6
CONTINUOUS
 62
     7
100
AcDbLine
 10
-1586.99973421984
 20
1595.414028050738
 30
0.0
 11
-1577.74973421984
 21
1595.414028050738
 31
0.0
  0
LINE
  5
17B61
330
1A
100
AcDbEntity
  8
ZISSEN1
  6
CONTINUOUS
 62
     7
100
AcDbLine
 10
-1580.299734219839
 20
1602.214028050739
 30
0.0
 11
-1580.299734219839
 21
1602.714028050739
 31
0.0
  0
LINE
  5
17B62
330
1A
100
AcDbEntity
  8
ZISSEN1
  6
CONTINUOUS
 62
     7
100
AcDbLine
 10
-1587.99973421984
 20
1596.414028050738
 30
0.0
 11
-1586.99973421984
 21
1595.414028050738
 31
0.0
  0
LINE
  5
17B63
330
1A
100
AcDbEntity
  8
ZISSEN1
  6
CONTINUOUS
 62
     7
100
AcDbLine
 10
-1580.799734219839
 20
1609.114028050739
 30
0.0
 11
-1580.799734219839
 21
1602.714028050739
 31
0.0
  0
LINE
  5
17B64
330
1A
100
AcDbEntity
  8
ZISSEN1
  6
CONTINUOUS
 62
     7
100
AcDbLine
 10
-1580.799734219839
 20
1602.714028050739
 30
0.0
 11
-1580.299734219839
 21
1602.714028050739
 31
0.0
  0
LINE
  5
17B65
330
1A
100
AcDbEntity
  8
ZISSEN1
  6
CONTINUOUS
 62
     7
100
AcDbLine
 10
-1580.299734219839
 20
1609.614028050739
 30
0.0
 11
-1580.299734219839
 21
1609.114028050739
 31
0.0
  0
LINE
  5
17B66
330
1A
100
AcDbEntity
  8
ZISSEN1
  6
CONTINUOUS
 62
     7
100
AcDbLine
 10
-1580.799734219839
 20
1609.114028050739
 30
0.0
 11
-1580.299734219839
 21
1609.114028050739
 31
0.0
  0
LINE
  5
17B67
330
1A
100
AcDbEntity
  8
ZISSEN1
  6
CONTINUOUS
 62
     7
100
AcDbLine
 10
-1580.799734219839
 20
1611.114028050739
 30
0.0
 11
-1580.299734219839
 21
1611.114028050739
 31
0.0
  0
LINE
  5
17B68
330
1A
100
AcDbEntity
  8
ZISSEN1
  6
CONTINUOUS
 62
     7
100
AcDbLine
 10
-1580.299734219839
 20
1610.614028050739
 30
0.0
 11
-1580.299734219839
 21
1611.114028050739
 31
0.0
  0
LINE
  5
17B69
330
1A
100
AcDbEntity
  8
ZISSEN1
  6
CONTINUOUS
 62
     7
100
AcDbLine
 10
-1564.49973421984
 20
1602.207309342205
 30
0.0
 11
-1564.49973421984
 21
1602.707309342205
 31
0.0
  0
LINE
  5
17B6A
330
1A
100
AcDbEntity
  8
ZISSEN1
  6
CONTINUOUS
 62
     7
100
AcDbLine
 10
-1571.09973421984
 20
1602.207309342205
 30
0.0
 11
-1571.09973421984
 21
1602.707309342205
 31
0.0
  0
LINE
  5
17B6B
330
1A
100
AcDbEntity
  8
ZISSEN1
  6
CONTINUOUS
 62
     7
100
AcDbLine
 10
-1573.699734219839
 20
1602.214028050739
 30
0.0
 11
-1573.699734219839
 21
1602.714028050739
 31
0.0
  0
LINE
  5
17B6C
330
1A
100
AcDbEntity
  8
ZISSEN1
  6
CONTINUOUS
 62
     7
100
AcDbLine
 10
-1573.19973421984
 20
1601.914028050739
 30
0.0
 11
-1571.599734219839
 21
1601.914028050739
 31
0.0
  0
LINE
  5
17B6E
330
1A
100
AcDbEntity
  8
ZISSEN1
  6
CONTINUOUS
 62
     7
100
AcDbLine
 10
-1577.74973421984
 20
1595.414028050738
 30
0.0
 11
-1577.74973421984
 21
1598.914028050738
 31
0.0
  0
LINE
  5
17B6F
330
1A
100
AcDbEntity
  8
ZISSEN1
  6
CONTINUOUS
 62
     7
100
AcDbLine
 10
-1574.24973421984
 20
1595.414028050738
 30
0.0
 11
-1574.24973421984
 21
1598.914028050738
 31
0.0
  0
ARC
  5
17B71
330
1A
100
AcDbEntity
  8
ZISSEN1
  6
CONTINUOUS
 62
     7
100
AcDbCircle
 10
-1575.99973421984
 20
1598.914028050738
 30
0.0
 40
1.75
100
AcDbArc
 50
0.0
 51
180.0
  0
LINE
  5
17B74
330
1A
100
AcDbEntity
  8
ZISSEN1
  6
CONTINUOUS
 62
     7
100
AcDbLine
 10
-1564.49973421984
 20
1602.207309342205
 30
0.0
 11
-1571.09973421984
 21
1602.207309342205
 31
0.0
  0
LINE
  5
17B75
330
1A
100
AcDbEntity
  8
ZISSEN1
  6
CONTINUOUS
 62
     7
100
AcDbLine
 10
-1565.599734219839
 20
1602.207309342205
 30
0.0
 11
-1565.599734219839
 21
1601.914028050739
 31
0.0
  0
LINE
  5
17B76
330
1A
100
AcDbEntity
  8
ZISSEN1
  6
CONTINUOUS
 62
     7
100
AcDbLine
 10
-1565.599734219839
 20
1601.914028050739
 30
0.0
 11
-1563.99973421984
 21
1601.914028050739
 31
0.0
  0
LINE
  5
17B77
330
1A
100
AcDbEntity
  8
ZISSEN1
  6
CONTINUOUS
 62
     7
100
AcDbLine
 10
-1573.19973421984
 20
1602.714028050739
 30
0.0
 11
-1571.599734219839
 21
1602.714028050739
 31
0.0
  0
LINE
  5
17B7D
330
1A
100
AcDbEntity
  8
ZISSEN1
  6
CONTINUOUS
 62
     7
100
AcDbLine
 10
-1573.19973421984
 20
1609.114028050739
 30
0.0
 11
-1573.19973421984
 21
1602.714028050739
 31
0.0
  0
LINE
  5
17B9B
330
1A
100
AcDbEntity
  8
ZISSEN1
  6
CONTINUOUS
 62
     7
100
AcDbLine
 10
-1573.19973421984
 20
1602.714028050739
 30
0.0
 11
-1573.699734219839
 21
1602.714028050739
 31
0.0
  0
LINE
  5
17BA9
330
1A
100
AcDbEntity
  8
ZISSEN1
  6
CONTINUOUS
 62
     7
100
AcDbLine
 10
-1573.699734219839
 20
1609.614028050739
 30
0.0
 11
-1573.699734219839
 21
1609.114028050739
 31
0.0
  0
LINE
  5
17BAA
330
1A
100
AcDbEntity
  8
ZISSEN1
  6
CONTINUOUS
 62
     7
100
AcDbLine
 10
-1573.19973421984
 20
1609.114028050739
 30
0.0
 11
-1573.699734219839
 21
1609.114028050739
 31
0.0
  0
LINE
  5
17BAE
330
1A
100
AcDbEntity
  8
ZISSEN1
  6
CONTINUOUS
 62
     7
100
AcDbLine
 10
-1573.19973421984
 20
1611.114028050739
 30
0.0
 11
-1573.699734219839
 21
1611.114028050739
 31
0.0
  0
LINE
  5
17BAF
330
1A
100
AcDbEntity
  8
ZISSEN1
  6
CONTINUOUS
 62
     7
100
AcDbLine
 10
-1573.699734219839
 20
1610.614028050739
 30
0.0
 11
-1573.699734219839
 21
1611.114028050739
 31
0.0
  0
LINE
  5
17BB5
330
1A
100
AcDbEntity
  8
ZISSEN1
  6
CONTINUOUS
 62
     7
100
AcDbLine
 10
-1563.99973421984
 20
1602.707309342205
 30
0.0
 11
-1563.99973421984
 21
1609.107309342205
 31
0.0
  0
LINE
  5
17BB6
330
1A
100
AcDbEntity
  8
ZISSEN1
  6
CONTINUOUS
 62
     7
100
AcDbLine
 10
-1571.59973421984
 20
1602.707309342205
 30
0.0
 11
-1571.59973421984
 21
1609.107309342205
 31
0.0
  0
LINE
  5
17BC5
330
1A
100
AcDbEntity
  8
ZISSEN1
  6
CONTINUOUS
 62
     7
100
AcDbLine
 10
-1571.59973421984
 20
1602.707309342205
 30
0.0
 11
-1571.09973421984
 21
1602.707309342205
 31
0.0
  0
LINE
  5
17BD0
330
1A
100
AcDbEntity
  8
ZISSEN1
  6
CONTINUOUS
 62
     7
100
AcDbLine
 10
-1563.99973421984
 20
1602.707309342205
 30
0.0
 11
-1564.49973421984
 21
1602.707309342205
 31
0.0
  0
LINE
  5
17BD9
330
1A
100
AcDbEntity
  8
ZISSEN1
  6
CONTINUOUS
 62
     7
100
AcDbLine
 10
-1564.49973421984
 20
1609.607309342205
 30
0.0
 11
-1571.09973421984
 21
1609.607309342205
 31
0.0
  0
LINE
  5
17BDB
330
1A
100
AcDbEntity
  8
ZISSEN1
  6
CONTINUOUS
 62
     7
100
AcDbLine
 10
-1571.59973421984
 20
1609.107309342205
 30
0.0
 11
-1571.09973421984
 21
1609.107309342205
 31
0.0
  0
LINE
  5
17BDC
330
1A
100
AcDbEntity
  8
ZISSEN1
  6
CONTINUOUS
 62
     7
100
AcDbLine
 10
-1571.09973421984
 20
1609.607309342205
 30
0.0
 11
-1571.09973421984
 21
1609.107309342205
 31
0.0
  0
LINE
  5
17BDD
330
1A
100
AcDbEntity
  8
ZISSEN1
  6
CONTINUOUS
 62
     7
100
AcDbLine
 10
-1563.99973421984
 20
1609.107309342205
 30
0.0
 11
-1564.49973421984
 21
1609.107309342205
 31
0.0
  0
LINE
  5
17BDE
330
1A
100
AcDbEntity
  8
ZISSEN1
  6
CONTINUOUS
 62
     7
100
AcDbLine
 10
-1564.49973421984
 20
1609.607309342205
 30
0.0
 11
-1564.49973421984
 21
1609.107309342205
 31
0.0
  0
ARC
  5
17BDF
330
1A
100
AcDbEntity
  8
ZISSEN1
  6
CONTINUOUS
 62
     7
100
AcDbCircle
 10
-1576.59973421984
 20
1628.087550707934
 30
0.0
 40
5.0
100
AcDbArc
 50
84.26082952272533
 51
280.36975980548
  0
LINE
  5
17BE1
330
1A
100
AcDbEntity
  8
ZISSEN1
  6
CONTINUOUS
 62
     7
100
AcDbLine
 10
-1580.299734219839
 20
1618.014028050739
 30
0.0
 11
-1573.699734219839
 21
1618.014028050739
 31
0.0
  0
LINE
  5
17BE2
330
1A
100
AcDbEntity
  8
ZISSEN1
  6
CONTINUOUS
 62
     7
100
AcDbLine
 10
-1580.299734219839
 20
1618.014028050739
 30
0.0
 11
-1580.299734219839
 21
1617.514028050739
 31
0.0
  0
LINE
  5
17BE3
330
1A
100
AcDbEntity
  8
ZISSEN1
  6
CONTINUOUS
 62
     7
100
AcDbLine
 10
-1580.799734219839
 20
1617.514028050739
 30
0.0
 11
-1580.299734219839
 21
1617.514028050739
 31
0.0
  0
LINE
  5
17BE4
330
1A
100
AcDbEntity
  8
ZISSEN1
  6
CONTINUOUS
 62
     7
100
AcDbLine
 10
-1574.253533612148
 20
1625.798182757899
 30
0.0
 11
-1574.393859219839
 21
1625.595597911145
 31
0.0
  0
LINE
  5
17BE5
330
1A
100
AcDbEntity
  8
ZISSEN1
  6
CONTINUOUS
 62
     7
100
AcDbLine
 10
-1573.19973421984
 20
1625.964028050738
 30
0.0
 11
-1573.19973421984
 21
1620.464028050738
 31
0.0
  0
LINE
  5
17BE6
330
1A
100
AcDbEntity
  8
ZISSEN1
  6
CONTINUOUS
 62
     7
100
AcDbLine
 10
-1563.99973421984
 20
1619.714028050738
 30
0.0
 11
-1563.99973421984
 21
1626.714028050738
 31
0.0
  0
LINE
  5
17BE7
330
1A
100
AcDbEntity
  8
ZISSEN1
  6
CONTINUOUS
 62
     7
100
AcDbLine
 10
-1574.099734219839
 20
1618.883022434976
 30
0.0
 11
-1574.099734219839
 21
1620.083022434976
 31
0.0
  0
LINE
  5
17BE8
330
1A
100
AcDbEntity
  8
ZISSEN1
  6
CONTINUOUS
 62
     7
100
AcDbLine
 10
-1573.29973421984
 20
1618.883022434976
 30
0.0
 11
-1573.29973421984
 21
1620.083022434976
 31
0.0
  0
LINE
  5
17BE9
330
1A
100
AcDbEntity
  8
ZISSEN1
  6
CONTINUOUS
 62
     7
100
AcDbLine
 10
-1575.699734219839
 20
1618.883022434976
 30
0.0
 11
-1575.699734219839
 21
1625.493022434976
 31
0.0
  0
LINE
  5
17BFA
330
1A
100
AcDbEntity
  8
ZISSEN1
  6
CONTINUOUS
 62
     7
100
AcDbLine
 10
-1573.699734219839
 20
1618.014028050739
 30
0.0
 11
-1573.699734219839
 21
1617.514028050739
 31
0.0
  0
LINE
  5
17BFB
330
1A
100
AcDbEntity
  8
ZISSEN1
  6
CONTINUOUS
 62
     7
100
AcDbLine
 10
-1573.19973421984
 20
1617.514028050739
 30
0.0
 11
-1573.699734219839
 21
1617.514028050739
 31
0.0
  0
LINE
  5
17BFC
330
1A
100
AcDbEntity
  8
ZISSEN1
  6
CONTINUOUS
 62
     7
100
AcDbLine
 10
-1575.699734219839
 20
1618.883022434976
 30
0.0
 11
-1573.29973421984
 21
1618.883022434976
 31
0.0
  0
LINE
  5
17BFD
330
1A
100
AcDbEntity
  8
ZISSEN1
  6
CONTINUOUS
 62
     7
100
AcDbLine
 10
-1575.699734219839
 20
1625.493022434976
 30
0.0
 11
-1574.441176446511
 21
1625.493022434976
 31
0.0
  0
LINE
  5
17BFE
330
1A
100
AcDbEntity
  8
ZISSEN1
  6
CONTINUOUS
 62
     7
100
AcDbLine
 10
-1574.019859717951
 20
1620.483022434975
 30
0.0
 11
-1574.199734219839
 21
1620.483022434975
 31
0.0
  0
LINE
  5
17BFF
330
1A
100
AcDbEntity
  8
ZISSEN1
  6
CONTINUOUS
 62
     7
100
AcDbLine
 10
-1573.19973421984
 20
1620.464028050738
 30
0.0
 11
-1573.94973421984
 21
1620.464028050738
 31
0.0
  0
LINE
  5
17C00
330
1A
100
AcDbEntity
  8
ZISSEN1
  6
CONTINUOUS
 62
     7
100
AcDbLine
 10
-1574.103977213652
 20
1620.505806729954
 30
0.0
 11
-1573.94973421984
 21
1620.464028050738
 31
0.0
  0
LINE
  5
17C01
330
1A
100
AcDbEntity
  8
ZISSEN1
  6
CONTINUOUS
 62
     7
100
AcDbLine
 10
-1574.253533612148
 20
1620.629873343577
 30
0.0
 11
-1574.103977213652
 21
1620.505806729954
 31
0.0
  0
LINE
  5
17C02
330
1A
100
AcDbEntity
  8
ZISSEN1
  6
CONTINUOUS
 62
     7
100
AcDbLine
 10
-1574.393859219839
 20
1620.832458190331
 30
0.0
 11
-1574.253533612148
 21
1620.629873343577
 31
0.0
  0
LINE
  5
17C03
330
1A
100
AcDbEntity
  8
ZISSEN1
  6
CONTINUOUS
 62
     7
100
AcDbLine
 10
-1574.520690314144
 20
1621.107405832161
 30
0.0
 11
-1574.393859219839
 21
1620.832458190331
 31
0.0
  0
LINE
  5
17C04
330
1A
100
AcDbEntity
  8
ZISSEN1
  6
CONTINUOUS
 62
     7
100
AcDbLine
 10
-1574.63017319644
 20
1621.4463621241
 30
0.0
 11
-1574.520690314144
 21
1621.107405832161
 31
0.0
  0
LINE
  5
17C05
330
1A
100
AcDbEntity
  8
ZISSEN1
  6
CONTINUOUS
 62
     7
100
AcDbLine
 10
-1574.718981284751
 20
1621.839028050738
 30
0.0
 11
-1574.63017319644
 21
1621.4463621241
 31
0.0
  0
LINE
  5
17C06
330
1A
100
AcDbEntity
  8
ZISSEN1
  6
CONTINUOUS
 62
     7
100
AcDbLine
 10
-1574.784416190253
 20
1622.273472656592
 30
0.0
 11
-1574.718981284751
 21
1621.839028050738
 31
0.0
  0
LINE
  5
17C07
330
1A
100
AcDbEntity
  8
ZISSEN1
  6
CONTINUOUS
 62
     7
100
AcDbLine
 10
-1574.824489706453
 20
1622.736495562153
 30
0.0
 11
-1574.784416190253
 21
1622.273472656592
 31
0.0
  0
LINE
  5
17C08
330
1A
100
AcDbEntity
  8
ZISSEN1
  6
CONTINUOUS
 62
     7
100
AcDbLine
 10
-1574.83798421984
 20
1623.214028050738
 30
0.0
 11
-1574.824489706453
 21
1622.736495562153
 31
0.0
  0
LINE
  5
17C09
330
1A
100
AcDbEntity
  8
ZISSEN1
  6
CONTINUOUS
 62
     7
100
AcDbLine
 10
-1574.824489706453
 20
1623.691560539322
 30
0.0
 11
-1574.83798421984
 21
1623.214028050738
 31
0.0
  0
LINE
  5
17C0A
330
1A
100
AcDbEntity
  8
ZISSEN1
  6
CONTINUOUS
 62
     7
100
AcDbLine
 10
-1574.784416190253
 20
1624.154583444883
 30
0.0
 11
-1574.824489706453
 21
1623.691560539322
 31
0.0
  0
LINE
  5
17C0B
330
1A
100
AcDbEntity
  8
ZISSEN1
  6
CONTINUOUS
 62
     7
100
AcDbLine
 10
-1574.718981284751
 20
1624.589028050738
 30
0.0
 11
-1574.784416190253
 21
1624.154583444883
 31
0.0
  0
LINE
  5
17C0C
330
1A
100
AcDbEntity
  8
ZISSEN1
  6
CONTINUOUS
 62
     7
100
AcDbLine
 10
-1574.63017319644
 20
1624.981693977376
 30
0.0
 11
-1574.718981284751
 21
1624.589028050738
 31
0.0
  0
LINE
  5
17C0D
330
1A
100
AcDbEntity
  8
ZISSEN1
  6
CONTINUOUS
 62
     7
100
AcDbLine
 10
-1574.520690314144
 20
1625.320650269315
 30
0.0
 11
-1574.63017319644
 21
1624.981693977376
 31
0.0
  0
LINE
  5
17C0E
330
1A
100
AcDbEntity
  8
ZISSEN1
  6
CONTINUOUS
 62
     7
100
AcDbLine
 10
-1574.393859219839
 20
1625.595597911145
 30
0.0
 11
-1574.520690314144
 21
1625.320650269315
 31
0.0
  0
LINE
  5
17C0F
330
1A
100
AcDbEntity
  8
ZISSEN1
  6
CONTINUOUS
 62
     7
100
AcDbLine
 10
-1574.199734219839
 20
1620.083022434976
 30
0.0
 11
-1574.199734219839
 21
1620.483022434975
 31
0.0
  0
LINE
  5
17C10
330
1A
100
AcDbEntity
  8
ZISSEN1
  6
CONTINUOUS
 62
     7
100
AcDbLine
 10
-1573.19973421984
 20
1620.083022434976
 30
0.0
 11
-1574.199734219839
 21
1620.083022434976
 31
0.0
  0
LINE
  5
17C11
330
1A
100
AcDbEntity
  8
ZISSEN1
  6
CONTINUOUS
 62
     7
100
AcDbLine
 10
-1573.19973421984
 20
1620.083022434976
 30
0.0
 11
-1573.19973421984
 21
1620.483022434975
 31
0.0
  0
ARC
  5
17C12
330
1A
100
AcDbEntity
  8
ZISSEN1
  6
CONTINUOUS
 62
     7
100
AcDbCircle
 10
-1576.59973421984
 20
1628.087550707934
 30
0.0
 40
11.0
100
AcDbArc
 50
297.0356917894129
 51
317.9082139885734
  0
LINE
  5
17C13
330
1A
100
AcDbEntity
  8
ZISSEN1
  6
CONTINUOUS
 62
     7
100
AcDbLine
 10
-1565.599734219839
 20
1618.414028050739
 30
0.0
 11
-1563.99973421984
 21
1618.414028050739
 31
0.0
  0
LINE
  5
17C14
330
1A
100
AcDbEntity
  8
ZISSEN1
  6
CONTINUOUS
 62
     7
100
AcDbLine
 10
-1565.599734219839
 20
1625.714028050738
 30
0.0
 11
-1571.599734219839
 21
1625.714028050738
 31
0.0
  0
LINE
  5
17C15
330
1A
100
AcDbEntity
  8
ZISSEN1
  6
CONTINUOUS
 62
     7
100
AcDbLine
 10
-1571.599734219839
 20
1620.714028050738
 30
0.0
 11
-1565.599734219839
 21
1620.714028050738
 31
0.0
  0
LINE
  5
17C16
330
1A
100
AcDbEntity
  8
ZISSEN1
  6
CONTINUOUS
 62
     7
100
AcDbLine
 10
-1571.599734219839
 20
1625.714028050738
 30
0.0
 11
-1571.599734219839
 21
1620.714028050738
 31
0.0
  0
LINE
  5
17C17
330
1A
100
AcDbEntity
  8
ZISSEN1
  6
CONTINUOUS
 62
     7
100
AcDbLine
 10
-1565.599734219839
 20
1620.714028050738
 30
0.0
 11
-1565.599734219839
 21
1625.714028050738
 31
0.0
  0
LINE
  5
17C18
330
1A
100
AcDbEntity
  8
ZISSEN1
  6
CONTINUOUS
 62
     7
100
AcDbLine
 10
-1576.099734219839
 20
1627.214028050739
 30
0.0
 11
-1565.599734219839
 21
1627.214028050739
 31
0.0
  0
LINE
  5
17C1B
330
1A
100
AcDbEntity
  8
ZISSEN1
  6
CONTINUOUS
 62
     7
100
AcDbLine
 10
-1573.19973421984
 20
1626.214028050739
 30
0.0
 11
-1571.599734219839
 21
1626.214028050739
 31
0.0
  0
LINE
  5
17C1C
330
1A
100
AcDbEntity
  8
ZISSEN1
  6
CONTINUOUS
 62
     7
100
AcDbLine
 10
-1573.19973421984
 20
1625.964028050738
 30
0.0
 11
-1573.94973421984
 21
1625.964028050738
 31
0.0
  0
LINE
  5
17C1D
330
1A
100
AcDbEntity
  8
ZISSEN1
  6
CONTINUOUS
 62
     7
100
AcDbLine
 10
-1574.103977213652
 20
1625.922249371521
 30
0.0
 11
-1574.253533612148
 21
1625.798182757899
 31
0.0
  0
LINE
  5
17C1E
330
1A
100
AcDbEntity
  8
ZISSEN1
  6
CONTINUOUS
 62
     7
100
AcDbLine
 10
-1573.94973421984
 20
1625.964028050738
 30
0.0
 11
-1574.103977213652
 21
1625.922249371521
 31
0.0
  0
LINE
  5
17C25
330
1A
100
AcDbEntity
  8
ZISSEN1
  6
CONTINUOUS
 62
     7
100
AcDbLine
 10
-1565.599734219839
 20
1629.314028050739
 30
0.0
 11
-1565.599734219839
 21
1627.214028050739
 31
0.0
  0
LINE
  5
17C38
330
1A
100
AcDbEntity
  8
ZISSEN1
  6
CONTINUOUS
 62
     7
100
AcDbLine
 10
-1560.99973421984
 20
1619.714028050738
 30
0.0
 11
-1560.99973421984
 21
1595.414028050738
 31
0.0
  0
LINE
  5
17C39
330
1A
100
AcDbEntity
  8
ZISSEN1
  6
CONTINUOUS
 62
     7
100
AcDbLine
 10
-1560.99973421984
 20
1596.414028050738
 30
0.0
 11
-1558.99973421984
 21
1596.414028050738
 31
0.0
  0
LINE
  5
17C3A
330
1A
100
AcDbEntity
  8
ZISSEN1
  6
CONTINUOUS
 62
     7
100
AcDbLine
 10
-1560.99973421984
 20
1595.414028050738
 30
0.0
 11
-1558.99973421984
 21
1595.414028050738
 31
0.0
  0
LINE
  5
17C3B
330
1A
100
AcDbEntity
  8
ZISSEN1
  6
CONTINUOUS
 62
     7
100
AcDbLine
 10
-1560.99973421984
 20
1596.414028050738
 30
0.0
 11
-1561.99973421984
 21
1595.414028050738
 31
0.0
  0
LINE
  5
17C3C
330
1A
100
AcDbEntity
  8
ZISSEN1
  6
CONTINUOUS
 62
     7
100
AcDbLine
 10
-1560.99973421984
 20
1602.414028050736
 30
0.0
 11
-1558.99973421984
 21
1602.414028050736
 31
0.0
  0
LINE
  5
17C3D
330
1A
100
AcDbEntity
  8
ZISSEN1
  6
CONTINUOUS
 62
     7
100
AcDbLine
 10
-1560.99973421984
 20
1601.414028050737
 30
0.0
 11
-1558.99973421984
 21
1601.414028050737
 31
0.0
  0
LINE
  5
17C3E
330
1A
100
AcDbEntity
  8
ZISSEN1
  6
CONTINUOUS
 62
     7
100
AcDbLine
 10
-1561.99973421984
 20
1619.714028050738
 30
0.0
 11
-1561.99973421984
 21
1626.714028050738
 31
0.0
  0
LINE
  5
17C3F
330
1A
100
AcDbEntity
  8
ZISSEN1
  6
CONTINUOUS
 62
     7
100
AcDbLine
 10
-1558.99973421984
 20
1616.714028050737
 30
0.0
 11
-1560.99973421984
 21
1616.714028050737
 31
0.0
  0
LINE
  5
17C47
330
1A
100
AcDbEntity
  8
ZISSEN1
  6
CONTINUOUS
 62
     7
100
AcDbLine
 10
-1652.647080395673
 20
1658.614028050739
 30
0.0
 11
-1681.347080395672
 21
1658.614028050739
 31
0.0
  0
LINE
  5
17C48
330
1A
100
AcDbEntity
  8
ZISSEN1
  6
CONTINUOUS
 62
     7
100
AcDbLine
 10
-1682.347080395673
 20
1663.214028050739
 30
0.0
 11
-1651.647080395673
 21
1663.214028050739
 31
0.0
  0
LINE
  5
17C49
330
1A
100
AcDbEntity
  8
ZISSEN1
  6
CONTINUOUS
 62
     7
100
AcDbLine
 10
-1650.797080395673
 20
1663.914028050739
 30
0.0
 11
-1683.197080395673
 21
1663.914028050739
 31
0.0
  0
LINE
  5
17C4A
330
1A
100
AcDbEntity
  8
ZISSEN1
  6
CONTINUOUS
 62
     7
100
AcDbLine
 10
-1650.797080395673
 20
1657.214028050739
 30
0.0
 11
-1662.547080395673
 21
1657.214028050739
 31
0.0
  0
LINE
  5
17C4B
330
1A
100
AcDbEntity
  8
ZISSEN1
  6
CONTINUOUS
 62
     7
100
AcDbLine
 10
-1651.647080395673
 20
1657.914028050739
 30
0.0
 11
-1653.147080395673
 21
1657.914028050739
 31
0.0
  0
LINE
  5
17C4C
330
1A
100
AcDbEntity
  8
ZISSEN1
  6
CONTINUOUS
 62
     7
100
AcDbLine
 10
-1681.993862689298
 20
1663.914028050739
 30
0.0
 11
-1638.993862689297
 21
1663.914028050739
 31
0.0
  0
LINE
  5
17C4D
330
1A
100
AcDbEntity
  8
ZISSEN1
  6
CONTINUOUS
 62
     7
100
AcDbLine
 10
-1681.993862689298
 20
1663.914028050739
 30
0.0
 11
-1638.993862689297
 21
1663.914028050739
 31
0.0
  0
LINE
  5
17C52
330
1A
100
AcDbEntity
  8
ZISSEN1
  6
CONTINUOUS
 62
     7
100
AcDbLine
 10
-1682.347080395673
 20
1663.214028050739
 30
0.0
 11
-1682.347080395673
 21
1657.914028050739
 31
0.0
  0
LINE
  5
17C53
330
1A
100
AcDbEntity
  8
ZISSEN1
  6
CONTINUOUS
 62
     7
100
AcDbLine
 10
-1683.197080395673
 20
1657.214028050739
 30
0.0
 11
-1683.197080395673
 21
1663.914028050739
 31
0.0
  0
LINE
  5
17C5C
330
1A
100
AcDbEntity
  8
ZISSEN1
  6
CONTINUOUS
 62
     7
100
AcDbLine
 10
-1684.211727763922
 20
1662.274028050739
 30
0.0
 11
-1684.211727763922
 21
1656.874028050739
 31
0.0
  0
LINE
  5
17C5E
330
1A
100
AcDbEntity
  8
ZISSEN1
  6
CONTINUOUS
 62
     7
100
AcDbLine
 10
-1653.147080395673
 20
1658.114028050739
 30
0.0
 11
-1680.847080395673
 21
1658.114028050739
 31
0.0
  0
LINE
  5
17C5F
330
1A
100
AcDbEntity
  8
ZISSEN1
  6
CONTINUOUS
 62
     7
100
AcDbLine
 10
-1664.447080395673
 20
1657.214028050739
 30
0.0
 11
-1669.547080395673
 21
1657.214028050739
 31
0.0
  0
LINE
  5
17C60
330
1A
100
AcDbEntity
  8
ZISSEN1
  6
CONTINUOUS
 62
     7
100
AcDbLine
 10
-1683.197080395673
 20
1657.214028050739
 30
0.0
 11
-1671.447080395673
 21
1657.214028050739
 31
0.0
  0
LINE
  5
17C61
330
1A
100
AcDbEntity
  8
ZISSEN1
  6
CONTINUOUS
 62
     7
100
AcDbLine
 10
-1682.347080395673
 20
1657.914028050739
 30
0.0
 11
-1680.847080395673
 21
1657.914028050739
 31
0.0
  0
LINE
  5
17C63
330
1A
100
AcDbEntity
  8
ZISSEN1
  6
CONTINUOUS
 62
     7
100
AcDbLine
 10
-1680.847080395673
 20
1657.214028050739
 30
0.0
 11
-1680.847080395673
 21
1658.114028050739
 31
0.0
  0
LINE
  5
17C64
330
1A
100
AcDbEntity
  8
ZISSEN1
  6
CONTINUOUS
 62
     7
100
AcDbLine
 10
-1681.347080395672
 20
1658.614028050739
 30
0.0
 11
-1681.347080395672
 21
1657.914028050739
 31
0.0
  0
LINE
  5
17C65
330
1A
100
AcDbEntity
  8
ZISSEN1
  6
CONTINUOUS
 62
     7
100
AcDbLine
 10
-1669.747080395673
 20
1657.514028050739
 30
0.0
 11
-1671.247080395673
 21
1657.514028050739
 31
0.0
  0
LINE
  5
17C66
330
1A
100
AcDbEntity
  8
ZISSEN1
  6
CONTINUOUS
 62
     7
100
AcDbLine
 10
-1669.547080395673
 20
1658.114028050739
 30
0.0
 11
-1669.547080395673
 21
1657.214028050739
 31
0.0
  0
LINE
  5
17C67
330
1A
100
AcDbEntity
  8
ZISSEN1
  6
CONTINUOUS
 62
     7
100
AcDbLine
 10
-1671.447080395673
 20
1658.114028050739
 30
0.0
 11
-1671.447080395673
 21
1657.214028050739
 31
0.0
  0
LINE
  5
17C68
330
1A
100
AcDbEntity
  8
ZISSEN1
  6
CONTINUOUS
 62
     7
100
AcDbLine
 10
-1671.247080395673
 20
1658.114028050739
 30
0.0
 11
-1671.247080395673
 21
1657.514028050739
 31
0.0
  0
LINE
  5
17C69
330
1A
100
AcDbEntity
  8
ZISSEN1
  6
CONTINUOUS
 62
     7
100
AcDbLine
 10
-1669.747080395673
 20
1658.114028050739
 30
0.0
 11
-1669.747080395673
 21
1657.514028050739
 31
0.0
  0
LINE
  5
17C6A
330
1A
100
AcDbEntity
  8
ZISSEN1
  6
CONTINUOUS
 62
     7
100
AcDbLine
 10
-1662.547080395673
 20
1658.114028050739
 30
0.0
 11
-1662.547080395673
 21
1657.214028050739
 31
0.0
  0
LINE
  5
17C6B
330
1A
100
AcDbEntity
  8
ZISSEN1
  6
CONTINUOUS
 62
     7
100
AcDbLine
 10
-1664.447080395673
 20
1658.114028050739
 30
0.0
 11
-1664.447080395673
 21
1657.214028050739
 31
0.0
  0
LINE
  5
17C6C
330
1A
100
AcDbEntity
  8
ZISSEN1
  6
CONTINUOUS
 62
     7
100
AcDbLine
 10
-1664.247080395673
 20
1658.114028050739
 30
0.0
 11
-1664.247080395673
 21
1657.514028050739
 31
0.0
  0
LINE
  5
17C6D
330
1A
100
AcDbEntity
  8
ZISSEN1
  6
CONTINUOUS
 62
     7
100
AcDbLine
 10
-1662.747080395673
 20
1658.114028050739
 30
0.0
 11
-1662.747080395673
 21
1657.514028050739
 31
0.0
  0
LINE
  5
17C6E
330
1A
100
AcDbEntity
  8
ZISSEN1
  6
CONTINUOUS
 62
     7
100
AcDbLine
 10
-1662.747080395673
 20
1657.514028050739
 30
0.0
 11
-1664.247080395673
 21
1657.514028050739
 31
0.0
  0
LINE
  5
17C6F
330
1A
100
AcDbEntity
  8
ZISSEN1
  6
CONTINUOUS
 62
     7
100
AcDbLine
 10
-1653.147080395673
 20
1658.114028050739
 30
0.0
 11
-1653.147080395673
 21
1657.214028050739
 31
0.0
  0
LINE
  5
17C71
330
1A
100
AcDbEntity
  8
ZISSEN1
  6
CONTINUOUS
 62
     7
100
AcDbLine
 10
-1651.647080395673
 20
1663.214028050739
 30
0.0
 11
-1651.647080395673
 21
1657.914028050739
 31
0.0
  0
LINE
  5
17C72
330
1A
100
AcDbEntity
  8
ZISSEN1
  6
CONTINUOUS
 62
     7
100
AcDbLine
 10
-1650.797080395673
 20
1657.214028050739
 30
0.0
 11
-1650.797080395673
 21
1663.914028050739
 31
0.0
  0
CIRCLE
  5
17C75
330
1A
100
AcDbEntity
  8
ZISSEN1
  6
CONTINUOUS
 62
     7
100
AcDbCircle
 10
-1640.993862689298
 20
1660.914028050738
 30
0.0
 40
2.75
  0
LINE
  5
17C76
330
1A
100
AcDbEntity
  8
ZISSEN1
  6
CONTINUOUS
 62
     7
100
AcDbLine
 10
-1637.493862689298
 20
1657.414028050738
 30
0.0
 11
-1637.493862689298
 21
1663.414028050738
 31
0.0
  0
LINE
  5
17C77
330
1A
100
AcDbEntity
  8
ZISSEN1
  6
CONTINUOUS
 62
     7
100
AcDbLine
 10
-1637.993862689298
 20
1662.914028050739
 30
0.0
 11
-1637.993862689298
 21
1657.414028050739
 31
0.0
  0
LINE
  5
17C78
330
1A
100
AcDbEntity
  8
ZISSEN1
  6
CONTINUOUS
 62
     7
100
AcDbLine
 10
-1637.993862689298
 20
1662.914028050739
 30
0.0
 11
-1637.993862689298
 21
1657.714028050739
 31
0.0
  0
LINE
  5
17C79
330
1A
100
AcDbEntity
  8
ZISSEN1
  6
CONTINUOUS
 62
     7
100
AcDbLine
 10
-1648.423862689298
 20
1655.714028050739
 30
0.0
 11
-1648.423862689298
 21
1648.014028050739
 31
0.0
  0
LINE
  5
17C7A
330
1A
100
AcDbEntity
  8
ZISSEN1
  6
CONTINUOUS
 62
     7
100
AcDbLine
 10
-1642.023862689297
 20
1655.714028050739
 30
0.0
 11
-1642.023862689297
 21
1648.014028050739
 31
0.0
  0
LINE
  5
17C7B
330
1A
100
AcDbEntity
  8
ZISSEN1
  6
CONTINUOUS
 62
     7
100
AcDbLine
 10
-1641.423862689298
 20
1656.41402805074
 30
0.0
 11
-1641.423862689298
 21
1647.314028050739
 31
0.0
  0
LINE
  5
17C7C
330
1A
100
AcDbEntity
  8
ZISSEN1
  6
CONTINUOUS
 62
     7
100
AcDbLine
 10
-1649.023862689297
 20
1656.41402805074
 30
0.0
 11
-1649.023862689297
 21
1647.314028050739
 31
0.0
  0
LINE
  5
17C7D
330
1A
100
AcDbEntity
  8
ZISSEN1
  6
CONTINUOUS
 62
     7
100
AcDbLine
 10
-1637.993862689298
 20
1652.614028050739
 30
0.0
 11
-1637.993862689298
 21
1644.114028050739
 31
0.0
  0
LINE
  5
17C7E
330
1A
100
AcDbEntity
  8
ZISSEN1
  6
CONTINUOUS
 62
     7
100
AcDbLine
 10
-1641.423862689298
 20
1647.314028050739
 30
0.0
 11
-1649.023862689297
 21
1647.314028050739
 31
0.0
  0
LINE
  5
17C7F
330
1A
100
AcDbEntity
  8
ZISSEN1
  6
CONTINUOUS
 62
     7
100
AcDbLine
 10
-1642.023862689297
 20
1648.014028050739
 30
0.0
 11
-1648.423862689298
 21
1648.014028050739
 31
0.0
  0
LINE
  5
17C80
330
1A
100
AcDbEntity
  8
ZISSEN1
  6
CONTINUOUS
 62
     7
100
AcDbLine
 10
-1641.423862689297
 20
1646.714028050739
 30
0.0
 11
-1649.023862689297
 21
1646.714028050739
 31
0.0
  0
LINE
  5
17C81
330
1A
100
AcDbEntity
  8
ZISSEN1
  6
CONTINUOUS
 62
     7
100
AcDbLine
 10
-1642.023862689297
 20
1646.014028050739
 30
0.0
 11
-1648.423862689297
 21
1646.014028050739
 31
0.0
  0
ARC
  5
17C89
330
1A
100
AcDbEntity
  8
ZISSEN1
  6
CONTINUOUS
 62
     7
100
AcDbCircle
 10
-1639.393862689297
 20
1643.514028050739
 30
0.0
 40
0.5999999999999998
100
AcDbArc
 50
90.0
 51
269.9999999999739
  0
LINE
  5
17C8A
330
1A
100
AcDbEntity
  8
ZISSEN1
  6
CONTINUOUS
 62
     7
100
AcDbLine
 10
-1641.423862689297
 20
1637.914028050739
 30
0.0
 11
-1640.923862689297
 21
1637.914028050739
 31
0.0
  0
LINE
  5
17C8C
330
1A
100
AcDbEntity
  8
ZISSEN1
  6
CONTINUOUS
 62
     7
100
AcDbLine
 10
-1639.393862689297
 20
1642.914028050739
 30
0.0
 11
-1637.993862689298
 21
1642.914028050739
 31
0.0
  0
LINE
  5
17C8E
330
1A
100
AcDbEntity
  8
ZISSEN1
  6
CONTINUOUS
 62
     7
100
AcDbLine
 10
-1639.393862689297
 20
1644.114028050739
 30
0.0
 11
-1637.993862689298
 21
1644.114028050739
 31
0.0
  0
LINE
  5
17C91
330
1A
100
AcDbEntity
  8
ZISSEN1
  6
CONTINUOUS
 62
     7
100
AcDbLine
 10
-1641.423862689298
 20
1656.41402805074
 30
0.0
 11
-1649.023862689297
 21
1656.41402805074
 31
0.0
  0
LINE
  5
17C92
330
1A
100
AcDbEntity
  8
ZISSEN1
  6
CONTINUOUS
 62
     7
100
AcDbLine
 10
-1642.023862689297
 20
1655.714028050739
 30
0.0
 11
-1648.423862689298
 21
1655.714028050739
 31
0.0
  0
LINE
  5
17C95
330
1A
100
AcDbEntity
  8
ZISSEN1
  6
CONTINUOUS
 62
     7
100
AcDbLine
 10
-1637.993862689298
 20
1657.414028050739
 30
0.0
 11
-1649.493862689297
 21
1657.414028050739
 31
0.0
  0
LINE
  5
17C96
330
1A
100
AcDbEntity
  8
ZISSEN1
  6
CONTINUOUS
 62
     7
100
AcDbLine
 10
-1637.993862689298
 20
1657.414028050739
 30
0.0
 11
-1646.593862689299
 21
1657.414028050739
 31
0.0
  0
LINE
  5
17C97
330
1A
100
AcDbEntity
  8
ZISSEN1
  6
CONTINUOUS
 62
     7
100
AcDbLine
 10
-1637.993862689298
 20
1657.414028050739
 30
0.0
 11
-1646.593862689299
 21
1657.414028050739
 31
0.0
  0
LINE
  5
17C9A
330
1A
100
AcDbEntity
  8
ZISSEN1
  6
CONTINUOUS
 62
     7
100
AcDbLine
 10
-1651.647080395673
 20
1658.314028050739
 30
0.0
 11
-1651.647080395673
 21
1659.314028050739
 31
0.0
  0
LINE
  5
17C9B
330
1A
100
AcDbEntity
  8
ZISSEN1
  6
CONTINUOUS
 62
     7
100
AcDbLine
 10
-1651.647080395673
 20
1658.314028050739
 30
0.0
 11
-1652.647080395673
 21
1658.314028050739
 31
0.0
  0
LINE
  5
17C9C
330
1A
100
AcDbEntity
  8
ZISSEN1
  6
CONTINUOUS
 62
     7
100
AcDbLine
 10
-1652.647080395673
 20
1658.614028050739
 30
0.0
 11
-1652.647080395673
 21
1657.914028050739
 31
0.0
  0
LINE
  5
17C9D
330
1A
100
AcDbEntity
  8
ZISSEN1
  6
CONTINUOUS
 62
     7
100
AcDbLine
 10
-1637.993862689298
 20
1657.414028050739
 30
0.0
 11
-1637.993862689298
 21
1653.814028050739
 31
0.0
  0
LINE
  5
17CA0
330
1A
100
AcDbEntity
  8
ZISSEN1
  6
CONTINUOUS
 62
     7
100
AcDbLine
 10
-1640.923862689297
 20
1652.864028050739
 30
0.0
 11
-1640.923862689297
 21
1650.864028050739
 31
0.0
  0
LINE
  5
17CA1
330
1A
100
AcDbEntity
  8
ZISSEN1
  6
CONTINUOUS
 62
     7
100
AcDbLine
 10
-1641.423862689298
 20
1650.864028050739
 30
0.0
 11
-1640.923862689297
 21
1650.864028050739
 31
0.0
  0
LINE
  5
17CA2
330
1A
100
AcDbEntity
  8
ZISSEN1
  6
CONTINUOUS
 62
     7
100
AcDbLine
 10
-1641.423862689298
 20
1652.864028050739
 30
0.0
 11
-1640.923862689297
 21
1652.864028050739
 31
0.0
  0
ARC
  5
17CA3
330
1A
100
AcDbEntity
  8
ZISSEN1
  6
CONTINUOUS
 62
     7
100
AcDbCircle
 10
-1639.393862689297
 20
1653.214028050739
 30
0.0
 40
0.5999999999999998
100
AcDbArc
 50
90.0
 51
270.0
  0
LINE
  5
17CA4
330
1A
100
AcDbEntity
  8
ZISSEN1
  6
CONTINUOUS
 62
     7
100
AcDbLine
 10
-1639.393862689297
 20
1652.614028050739
 30
0.0
 11
-1637.993862689298
 21
1652.614028050739
 31
0.0
  0
LINE
  5
17CA5
330
1A
100
AcDbEntity
  8
ZISSEN1
  6
CONTINUOUS
 62
     7
100
AcDbLine
 10
-1639.393862689297
 20
1653.814028050739
 30
0.0
 11
-1637.993862689298
 21
1653.814028050739
 31
0.0
  0
LINE
  5
17CAC
330
1A
100
AcDbEntity
  8
ZISSEN1
  6
CONTINUOUS
 62
     7
100
AcDbLine
 10
-1637.493862689298
 20
1656.740159486461
 30
0.0
 11
-1637.993862689298
 21
1656.740159486461
 31
0.0
  0
LINE
  5
17CAD
330
1A
100
AcDbEntity
  8
ZISSEN1
  6
CONTINUOUS
 62
     7
100
AcDbLine
 10
-1637.493862689298
 20
1657.414028050738
 30
0.0
 11
-1637.493862689298
 21
1656.740159486461
 31
0.0
  0
LINE
  5
17CAE
330
1A
100
AcDbEntity
  8
ZISSEN1
  6
DASHED2
 62
     7
100
AcDbLine
 10
-1637.993862689298
 20
1657.414028050739
 30
0.0
 11
-1637.993862689298
 21
1658.214028050739
 31
0.0
  0
LINE
  5
17CAF
330
1A
100
AcDbEntity
  8
ZISSEN1
  6
CONTINUOUS
 62
     7
100
AcDbLine
 10
-1646.993862689297
 20
1664.414028050738
 30
0.0
 11
-1638.493862689298
 21
1664.414028050738
 31
0.0
  0
LINE
  5
17CB0
330
1A
100
AcDbEntity
  8
ZISSEN1
  6
CONTINUOUS
 62
     7
100
AcDbLine
 10
-1650.797080395673
 20
1663.614028050739
 30
0.0
 11
-1650.797080395673
 21
1663.914028050739
 31
0.0
  0
LINE
  5
17CB9
330
1A
100
AcDbEntity
  8
ZISSEN1
  6
CONTINUOUS
 62
     7
100
AcDbLine
 10
-1638.493862689298
 20
1664.414028050738
 30
0.0
 11
-1637.493862689298
 21
1663.414028050738
 31
0.0
  0
LINE
  5
17CBA
330
1A
100
AcDbEntity
  8
ZISSEN1
  6
CONTINUOUS
 62
     7
100
AcDbLine
 10
-1637.493862689299
 20
1663.414028050739
 30
0.0
 11
-1638.493862689298
 21
1664.414028050738
 31
0.0
  0
ARC
  5
17CBB
330
1A
100
AcDbEntity
  8
ZISSEN1
  6
CONTINUOUS
 62
     7
100
AcDbCircle
 10
-1637.993862689298
 20
1663.914028050739
 30
0.0
 40
1.0
100
AcDbArc
 50
180.0
 51
270.0
  0
ARC
  5
17CBC
330
1A
100
AcDbEntity
  8
ZISSEN1
  6
CONTINUOUS
 62
     7
100
AcDbCircle
 10
-1637.993862689298
 20
1663.914028050739
 30
0.0
 40
1.0
100
AcDbArc
 50
180.0
 51
270.0
  0
LINE
  5
17CC5
330
1A
100
AcDbEntity
  8
ZISSEN1
  6
CONTINUOUS
 62
     7
100
AcDbLine
 10
-1563.99973421984
 20
1657.414028050739
 30
0.0
 11
-1558.99973421984
 21
1657.414028050739
 31
0.0
  0
LINE
  5
17CC6
330
1A
100
AcDbEntity
  8
ZISSEN1
  6
CONTINUOUS
 62
     7
100
AcDbLine
 10
-1563.99973421984
 20
1664.414028050739
 30
0.0
 11
-1558.99973421984
 21
1664.414028050739
 31
0.0
  0
LINE
  5
17CC7
330
1A
100
AcDbEntity
  8
ZISSEN1
  6
CONTINUOUS
 62
     7
100
AcDbLine
 10
-1563.99973421984
 20
1663.414028050739
 30
0.0
 11
-1561.95492707538
 21
1663.414028050739
 31
0.0
  0
LINE
  5
17CC8
330
1A
100
AcDbEntity
  8
ZISSEN1
  6
CONTINUOUS
 62
     7
100
AcDbLine
 10
-1574.24973421984
 20
1670.414028050738
 30
0.0
 11
-1561.99973421984
 21
1670.414028050738
 31
0.0
  0
LINE
  5
17CC9
330
1A
100
AcDbEntity
  8
ZISSEN1
  6
CONTINUOUS
 62
     7
100
AcDbLine
 10
-1573.19973421984
 20
1662.92611581766
 30
0.0
 11
-1573.19973421984
 21
1656.714028050739
 31
0.0
  0
LINE
  5
17CCA
330
1A
100
AcDbEntity
  8
ZISSEN1
  6
CONTINUOUS
 62
     7
100
AcDbLine
 10
-1571.599734219839
 20
1656.714028050739
 30
0.0
 11
-1571.599734219839
 21
1663.914028050739
 31
0.0
  0
LINE
  5
17CCB
330
1A
100
AcDbEntity
  8
ZISSEN1
  6
CONTINUOUS
 62
     7
100
AcDbLine
 10
-1573.19973421984
 20
1663.914028050739
 30
0.0
 11
-1573.19973421984
 21
1657.114028050739
 31
0.0
  0
LINE
  5
17CCC
330
1A
100
AcDbEntity
  8
ZISSEN1
  6
CONTINUOUS
 62
     7
100
AcDbLine
 10
-1581.69973421984
 20
1661.914028050739
 30
0.0
 11
-1581.69973421984
 21
1657.114028050739
 31
0.0
  0
LINE
  5
17CCD
330
1A
100
AcDbEntity
  8
ZISSEN1
  6
CONTINUOUS
 62
     7
100
AcDbLine
 10
-1574.83798421984
 20
1660.914028050738
 30
0.0
 11
-1574.824489706453
 21
1660.436495562154
 31
0.0
  0
LINE
  5
17CCE
330
1A
100
AcDbEntity
  8
ZISSEN1
  6
CONTINUOUS
 62
     7
100
AcDbLine
 10
-1573.19973421984
 20
1663.664028050738
 30
0.0
 11
-1573.19973421984
 21
1658.164028050738
 31
0.0
  0
LINE
  5
17CCF
330
1A
100
AcDbEntity
  8
ZISSEN1
  6
CONTINUOUS
 62
     7
100
AcDbLine
 10
-1563.99973421984
 20
1664.414028050739
 30
0.0
 11
-1563.99973421984
 21
1657.414028050739
 31
0.0
  0
LINE
  5
17CD0
330
1A
100
AcDbEntity
  8
ZISSEN1
  6
CONTINUOUS
 62
     7
100
AcDbLine
 10
-1565.599734219839
 20
1658.414028050738
 30
0.0
 11
-1565.599734219839
 21
1663.414028050738
 31
0.0
  0
LINE
  5
17CD1
330
1A
100
AcDbEntity
  8
ZISSEN1
  6
CONTINUOUS
 62
     7
100
AcDbLine
 10
-1571.599734219839
 20
1663.414028050738
 30
0.0
 11
-1571.599734219839
 21
1658.414028050738
 31
0.0
  0
LINE
  5
17CD2
330
1A
100
AcDbEntity
  8
ZISSEN1
  6
CONTINUOUS
 62
     7
100
AcDbLine
 10
-1587.155432281546
 20
1639.229301815026
 30
0.0
 11
-1578.155432281546
 21
1639.229301815026
 31
0.0
  0
LINE
  5
17CD3
330
1A
100
AcDbEntity
  8
ZISSEN1
  6
CONTINUOUS
 62
     7
100
AcDbLine
 10
-1581.69973421984
 20
1657.114028050739
 30
0.0
 11
-1573.19973421984
 21
1657.114028050739
 31
0.0
  0
LINE
  5
17CD4
330
1A
100
AcDbEntity
  8
ZISSEN1
  6
CONTINUOUS
 62
     7
100
AcDbLine
 10
-1587.155432281546
 20
1659.229301815026
 30
0.0
 11
-1587.155432281546
 21
1639.229301815026
 31
0.0
  0
LINE
  5
17CD5
330
1A
100
AcDbEntity
  8
ZISSEN1
  6
CONTINUOUS
 62
     7
100
AcDbLine
 10
-1581.69973421984
 20
1659.229301815026
 30
0.0
 11
-1587.155432281546
 21
1659.229301815026
 31
0.0
  0
LINE
  5
17CD6
330
1A
100
AcDbEntity
  8
ZISSEN1
  6
CONTINUOUS
 62
     7
100
AcDbLine
 10
-1578.155432281546
 20
1639.229301815026
 30
0.0
 11
-1578.155432281546
 21
1657.114028050739
 31
0.0
  0
LINE
  5
17CD7
330
1A
100
AcDbEntity
  8
ZISSEN1
  6
CONTINUOUS
 62
     7
100
AcDbLine
 10
-1576.09973421984
 20
1656.714028050739
 30
0.0
 11
-1576.09973421984
 21
1647.614028050739
 31
0.0
  0
LINE
  5
17CD8
330
1A
100
AcDbEntity
  8
ZISSEN1
  6
CONTINUOUS
 62
     7
100
AcDbLine
 10
-1565.59973421984
 20
1649.714028050739
 30
0.0
 11
-1565.59973421984
 21
1647.614028050739
 31
0.0
  0
LINE
  5
17CD9
330
1A
100
AcDbEntity
  8
ZISSEN1
  6
CONTINUOUS
 62
     7
100
AcDbLine
 10
-1576.099734219839
 20
1646.814028050739
 30
0.0
 11
-1565.599734219839
 21
1646.814028050739
 31
0.0
  0
LINE
  5
17CDC
330
1A
100
AcDbEntity
  8
ZISSEN1
  6
CONTINUOUS
 62
     7
100
AcDbLine
 10
-1576.09973421984
 20
1647.614028050739
 30
0.0
 11
-1565.59973421984
 21
1647.614028050739
 31
0.0
  0
LINE
  5
17CEF
330
1A
100
AcDbEntity
  8
ZISSEN1
  6
CONTINUOUS
 62
     7
100
AcDbLine
 10
-1565.599734219839
 20
1646.814028050739
 30
0.0
 11
-1565.599734219839
 21
1644.714028050739
 31
0.0
  0
LINE
  5
17CF6
330
1A
100
AcDbEntity
  8
ZISSEN1
  6
CONTINUOUS
 62
     7
100
AcDbLine
 10
-1576.09973421984
 20
1656.714028050739
 30
0.0
 11
-1565.59973421984
 21
1656.714028050739
 31
0.0
  0
LINE
  5
17CFB
330
1A
100
AcDbEntity
  8
ZISSEN1
  6
CONTINUOUS
 62
     7
100
AcDbLine
 10
-1573.19973421984
 20
1657.714028050739
 30
0.0
 11
-1571.599734219839
 21
1657.714028050739
 31
0.0
  0
LINE
  5
17D00
330
1A
100
AcDbEntity
  8
ZISSEN1
  6
CONTINUOUS
 62
     7
100
AcDbLine
 10
-1573.19973421984
 20
1658.164028050738
 30
0.0
 11
-1573.94973421984
 21
1658.164028050738
 31
0.0
  0
LINE
  5
17D01
330
1A
100
AcDbEntity
  8
ZISSEN1
  6
CONTINUOUS
 62
     7
100
AcDbLine
 10
-1574.103977213652
 20
1658.205806729954
 30
0.0
 11
-1573.94973421984
 21
1658.164028050738
 31
0.0
  0
LINE
  5
17D02
330
1A
100
AcDbEntity
  8
ZISSEN1
  6
CONTINUOUS
 62
     7
100
AcDbLine
 10
-1574.253533612148
 20
1658.329873343576
 30
0.0
 11
-1574.103977213652
 21
1658.205806729954
 31
0.0
  0
LINE
  5
17D03
330
1A
100
AcDbEntity
  8
ZISSEN1
  6
CONTINUOUS
 62
     7
100
AcDbLine
 10
-1574.393859219839
 20
1658.53245819033
 30
0.0
 11
-1574.253533612148
 21
1658.329873343576
 31
0.0
  0
LINE
  5
17D04
330
1A
100
AcDbEntity
  8
ZISSEN1
  6
CONTINUOUS
 62
     7
100
AcDbLine
 10
-1574.520690314144
 20
1658.807405832161
 30
0.0
 11
-1574.393859219839
 21
1658.53245819033
 31
0.0
  0
LINE
  5
17D05
330
1A
100
AcDbEntity
  8
ZISSEN1
  6
CONTINUOUS
 62
     7
100
AcDbLine
 10
-1574.63017319644
 20
1659.1463621241
 30
0.0
 11
-1574.520690314144
 21
1658.807405832161
 31
0.0
  0
LINE
  5
17D06
330
1A
100
AcDbEntity
  8
ZISSEN1
  6
CONTINUOUS
 62
     7
100
AcDbLine
 10
-1574.718981284751
 20
1659.539028050738
 30
0.0
 11
-1574.63017319644
 21
1659.1463621241
 31
0.0
  0
LINE
  5
17D07
330
1A
100
AcDbEntity
  8
ZISSEN1
  6
CONTINUOUS
 62
     7
100
AcDbLine
 10
-1574.784416190253
 20
1659.973472656592
 30
0.0
 11
-1574.718981284751
 21
1659.539028050738
 31
0.0
  0
LINE
  5
17D08
330
1A
100
AcDbEntity
  8
ZISSEN1
  6
CONTINUOUS
 62
     7
100
AcDbLine
 10
-1574.824489706453
 20
1660.436495562154
 30
0.0
 11
-1574.784416190253
 21
1659.973472656592
 31
0.0
  0
LINE
  5
17D09
330
1A
100
AcDbEntity
  8
ZISSEN1
  6
CONTINUOUS
 62
     7
100
AcDbLine
 10
-1565.59973421984
 20
1656.714028050739
 30
0.0
 11
-1565.59973421984
 21
1654.614028050739
 31
0.0
  0
LINE
  5
17D21
330
1A
100
AcDbEntity
  8
ZISSEN1
  6
CONTINUOUS
 62
     7
100
AcDbLine
 10
-1571.599734219839
 20
1658.414028050738
 30
0.0
 11
-1565.599734219839
 21
1658.414028050738
 31
0.0
  0
LINE
  5
17D22
330
1A
100
AcDbEntity
  8
ZISSEN1
  6
CONTINUOUS
 62
     7
100
AcDbLine
 10
-1584.69973421984
 20
1663.914028050739
 30
0.0
 11
-1573.19973421984
 21
1663.914028050739
 31
0.0
  0
LINE
  5
17D23
330
1A
100
AcDbEntity
  8
ZISSEN1
  6
CONTINUOUS
 62
     7
100
AcDbLine
 10
-1586.99973421984
 20
1670.414028050738
 30
0.0
 11
-1577.74973421984
 21
1670.414028050738
 31
0.0
  0
LINE
  5
17D24
330
1A
100
AcDbEntity
  8
ZISSEN1
  6
CONTINUOUS
 62
     7
100
AcDbLine
 10
-1584.199734219839
 20
1661.914028050739
 30
0.0
 11
-1581.69973421984
 21
1661.914028050739
 31
0.0
  0
LINE
  5
17D25
330
1A
100
AcDbEntity
  8
ZISSEN1
  6
CONTINUOUS
 62
     7
100
AcDbLine
 10
-1584.69973421984
 20
1662.414028050739
 30
0.0
 11
-1584.199734219839
 21
1661.914028050739
 31
0.0
  0
LINE
  5
17D26
330
1A
100
AcDbEntity
  8
ZISSEN1
  6
CONTINUOUS
 62
     7
100
AcDbLine
 10
-1584.69973421984
 20
1662.414028050739
 30
0.0
 11
-1584.69973421984
 21
1663.914028050739
 31
0.0
  0
LINE
  5
17D27
330
1A
100
AcDbEntity
  8
ZISSEN1
  6
CONTINUOUS
 62
     7
100
AcDbLine
 10
-1587.99973421984
 20
1669.414028050738
 30
0.0
 11
-1586.99973421984
 21
1670.414028050738
 31
0.0
  0
LINE
  5
17D28
330
1A
100
AcDbEntity
  8
ZISSEN1
  6
CONTINUOUS
 62
     7
100
AcDbLine
 10
-1571.599734219839
 20
1663.914028050739
 30
0.0
 11
-1573.19973421984
 21
1663.914028050739
 31
0.0
  0
LINE
  5
17D29
330
1A
100
AcDbEntity
  8
ZISSEN1
  6
CONTINUOUS
 62
     7
100
AcDbLine
 10
-1573.19973421984
 20
1662.914028050739
 30
0.0
 11
-1571.599734219839
 21
1662.914028050739
 31
0.0
  0
ARC
  5
17D2B
330
1A
100
AcDbEntity
  8
ZISSEN1
  6
CONTINUOUS
 62
     7
100
AcDbCircle
 10
-1575.99973421984
 20
1666.914028050738
 30
0.0
 40
1.75
100
AcDbArc
 50
180.0
 51
0.0
  0
LINE
  5
17D2C
330
1A
100
AcDbEntity
  8
ZISSEN1
  6
CONTINUOUS
 62
     7
100
AcDbLine
 10
-1573.19973421984
 20
1663.664028050738
 30
0.0
 11
-1573.94973421984
 21
1663.664028050738
 31
0.0
  0
LINE
  5
17D2D
330
1A
100
AcDbEntity
  8
ZISSEN1
  6
CONTINUOUS
 62
     7
100
AcDbLine
 10
-1574.824489706453
 20
1661.391560539322
 30
0.0
 11
-1574.83798421984
 21
1660.914028050738
 31
0.0
  0
LINE
  5
17D2E
330
1A
100
AcDbEntity
  8
ZISSEN1
  6
CONTINUOUS
 62
     7
100
AcDbLine
 10
-1574.784416190253
 20
1661.854583444883
 30
0.0
 11
-1574.824489706453
 21
1661.391560539322
 31
0.0
  0
LINE
  5
17D2F
330
1A
100
AcDbEntity
  8
ZISSEN1
  6
CONTINUOUS
 62
     7
100
AcDbLine
 10
-1574.718981284751
 20
1662.289028050738
 30
0.0
 11
-1574.784416190253
 21
1661.854583444883
 31
0.0
  0
LINE
  5
17D30
330
1A
100
AcDbEntity
  8
ZISSEN1
  6
CONTINUOUS
 62
     7
100
AcDbLine
 10
-1574.63017319644
 20
1662.681693977376
 30
0.0
 11
-1574.718981284751
 21
1662.289028050738
 31
0.0
  0
LINE
  5
17D31
330
1A
100
AcDbEntity
  8
ZISSEN1
  6
CONTINUOUS
 62
     7
100
AcDbLine
 10
-1574.520690314144
 20
1663.020650269315
 30
0.0
 11
-1574.63017319644
 21
1662.681693977376
 31
0.0
  0
LINE
  5
17D32
330
1A
100
AcDbEntity
  8
ZISSEN1
  6
CONTINUOUS
 62
     7
100
AcDbLine
 10
-1574.393859219839
 20
1663.295597911145
 30
0.0
 11
-1574.520690314144
 21
1663.020650269315
 31
0.0
  0
LINE
  5
17D33
330
1A
100
AcDbEntity
  8
ZISSEN1
  6
CONTINUOUS
 62
     7
100
AcDbLine
 10
-1574.253533612148
 20
1663.498182757899
 30
0.0
 11
-1574.393859219839
 21
1663.295597911145
 31
0.0
  0
LINE
  5
17D34
330
1A
100
AcDbEntity
  8
ZISSEN1
  6
CONTINUOUS
 62
     7
100
AcDbLine
 10
-1574.103977213652
 20
1663.622249371521
 30
0.0
 11
-1574.253533612148
 21
1663.498182757899
 31
0.0
  0
LINE
  5
17D35
330
1A
100
AcDbEntity
  8
ZISSEN1
  6
CONTINUOUS
 62
     7
100
AcDbLine
 10
-1573.94973421984
 20
1663.664028050738
 30
0.0
 11
-1574.103977213652
 21
1663.622249371521
 31
0.0
  0
LINE
  5
17D36
330
1A
100
AcDbEntity
  8
ZISSEN1
  6
CONTINUOUS
 62
     7
100
AcDbLine
 10
-1573.19973421984
 20
1663.914028050739
 30
0.0
 11
-1573.19973421984
 21
1662.92611581766
 31
0.0
  0
LINE
  5
17D3A
330
1A
100
AcDbEntity
  8
ZISSEN1
  6
CONTINUOUS
 62
     7
100
AcDbLine
 10
-1577.74973421984
 20
1670.414028050738
 30
0.0
 11
-1577.74973421984
 21
1666.914028050738
 31
0.0
  0
LINE
  5
17D3B
330
1A
100
AcDbEntity
  8
ZISSEN1
  6
CONTINUOUS
 62
     7
100
AcDbLine
 10
-1574.24973421984
 20
1670.414028050738
 30
0.0
 11
-1574.24973421984
 21
1666.914028050738
 31
0.0
  0
LINE
  5
17D3C
330
1A
100
AcDbEntity
  8
ZISSEN1
  6
CONTINUOUS
 62
     7
100
AcDbLine
 10
-1565.599734219839
 20
1663.414028050738
 30
0.0
 11
-1571.599734219839
 21
1663.414028050738
 31
0.0
  0
LINE
  5
17D3D
330
1A
100
AcDbEntity
  8
ZISSEN1
  6
CONTINUOUS
 62
     7
100
AcDbLine
 10
-1565.599734219839
 20
1663.914028050739
 30
0.0
 11
-1565.599734219839
 21
1662.92611581766
 31
0.0
  0
LINE
  5
17D3E
330
1A
100
AcDbEntity
  8
ZISSEN1
  6
CONTINUOUS
 62
     7
100
AcDbLine
 10
-1565.599734219839
 20
1662.914028050739
 30
0.0
 11
-1563.99973421984
 21
1662.914028050739
 31
0.0
  0
LINE
  5
17D3F
330
1A
100
AcDbEntity
  8
ZISSEN1
  6
CONTINUOUS
 62
     7
100
AcDbLine
 10
-1563.99973421984
 20
1663.914028050739
 30
0.0
 11
-1565.599734219839
 21
1663.914028050739
 31
0.0
  0
LINE
  5
17D42
330
1A
100
AcDbEntity
  8
ZISSEN1
  6
CONTINUOUS
 62
     7
100
AcDbLine
 10
-1561.95492707538
 20
1664.414028050739
 30
0.0
 11
-1561.95492707538
 21
1657.414028050739
 31
0.0
  0
LINE
  5
17D48
330
1A
100
AcDbEntity
  8
ZISSEN1
  6
CONTINUOUS
 62
     7
100
AcDbLine
 10
-1560.99973421984
 20
1664.414028050739
 30
0.0
 11
-1560.99973421984
 21
1670.414028050738
 31
0.0
  0
LINE
  5
17D4A
330
1A
100
AcDbEntity
  8
ZISSEN1
  6
CONTINUOUS
 62
     7
100
AcDbLine
 10
-1558.99973421984
 20
1669.414028050738
 30
0.0
 11
-1560.99973421984
 21
1669.414028050738
 31
0.0
  0
LINE
  5
17D4B
330
1A
100
AcDbEntity
  8
ZISSEN1
  6
CONTINUOUS
 62
     7
100
AcDbLine
 10
-1560.99973421984
 20
1670.414028050738
 30
0.0
 11
-1558.99973421984
 21
1670.414028050738
 31
0.0
  0
LINE
  5
17D4C
330
1A
100
AcDbEntity
  8
ZISSEN1
  6
CONTINUOUS
 62
     7
100
AcDbLine
 10
-1560.99973421984
 20
1669.414028050738
 30
0.0
 11
-1561.99973421984
 21
1670.414028050738
 31
0.0
  0
LINE
  5
17DDF
330
1A
100
AcDbEntity
  8
CL1
100
AcDbLine
 10
-1694.493862689298
 20
1546.696222777806
 30
0.0
 11
-1694.493862689298
 21
1542.620349421803
 31
0.0
  0
VIEWPORT
  5
15177
330
15176
100
AcDbEntity
 67
     1
  8
0
100
AcDbViewport
 10
240.1711476434996
 20
158.7585342051849
 30
0.0
 40
588.0946684228701
 41
330.0278097056613
 68
     1
 69
     1
1001
ACAD
1000
MVIEW
1002
{
1070
    16
1010
0.0
1020
0.0
1030
0.0
1010
0.0
1020
0.0
1030
1.0
1040
0.0
1040
330.0278097056613
1040
240.1711476434996
1040
158.7585342051849
1040
50.0
1040
0.0
1040
0.0
1070
     0
1070
   100
1070
     1
1070
     0
1070
     0
1070
     0
1070
     0
1070
     0
1040
0.0
1040
0.0
1040
0.0
1040
1.0
1040
1.0
1040
10.0
1040
10.0
1070
     0
1002
{
1002
}
1002
}
  0
VIEWPORT
  5
15178
330
15176
100
AcDbEntity
 67
     1
  8
ZISSEN1
100
AcDbViewport
 10
221.7861955525412
 20
157.6960273330388
 30
0.0
 40
385.4999999999997
 41
259.9999999999999
 68
     2
 69
     2
1001
ACAD
1000
MVIEW
1002
{
1070
    16
1010
0.0
1020
0.0
1030
0.0
1010
0.0
1020
0.0
1030
1.0
1040
0.0
1040
259.9999999999999
1040
-1629.061909200241
1040
1604.54816290242
1040
50.0
1040
0.0
1040
0.0
1070
     0
1070
   100
1070
     1
1070
     0
1070
     0
1070
     0
1070
     0
1070
     0
1040
0.0
1040
0.0
1040
0.0
1040
1.0
1040
1.0
1040
10.0
1040
10.0
1070
     0
1002
{
1002
}
1002
}
  0
TEXT
  5
15179
330
15176
100
AcDbEntity
 67
     1
  8
SUNPOU
 62
     0
100
AcDbText
 10
374.1863124306944
 20
60.86794705907585
 30
0.0
 40
3.5
  1
縮尺 1/1
100
AcDbText
  0
ENDSEC
  0
SECTION
  2
OBJECTS
  0
DICTIONARY
  5
C
330
0
100
AcDbDictionary
  3
ACAD_GROUP
350
D
  3
ACAD_LAYOUT
350
5C7D
  3
ACAD_MLINESTYLE
350
E
  3
ACAD_PLOTSETTINGS
350
5C7E
  3
ACAD_PLOTSTYLENAME
350
5C7B
  3
ACDBVARIABLEDICTIONARY
350
13217
  3
DWGPROPS
350
5E8E
  3
ACDBHEADERROUNDTRIPXREC
350
17EDD
  0
DICTIONARY
  5
17EFD
330
1A
100
AcDbDictionary
280
     1
  3
ACAD_LAYOUTSELFREF
360
17EFE
  0
DICTIONARY
  5
17EFF
330
15176
100
AcDbDictionary
280
     1
  3
ACAD_LAYOUTSELFREF
360
17F00
  0
DICTIONARY
  5
D
102
{ACAD_REACTORS
330
C
102
}
330
C
100
AcDbDictionary
  3
*A1
350
477D
  3
*A2
350
4C0F
  3
*A3
350
4C10
  3
*A4
350
4C11
  3
*A5
350
4C12
  3
*A6
350
4C13
  3
*A7
350
4C14
  3
*A8
350
4C15
  3
*A9
350
4C16
  3
*A10
350
4C17
  3
*A11
350
477E
  3
*A12
350
477F
  3
*A13
350
4780
  3
*A14
350
4781
  3
*A15
350
13853
  3
*A16
350
4C0E
  0
DICTIONARY
  5
5C7D
102
{ACAD_REACTORS
330
C
102
}
330
C
100
AcDbDictionary
  0
DICTIONARY
  5
E
102
{ACAD_REACTORS
330
C
102
}
330
C
100
AcDbDictionary
  3
STANDARD
350
13
  0
DICTIONARY
  5
5C7E
102
{ACAD_REACTORS
330
C
102
}
330
C
100
AcDbDictionary
  0
ACDBDICTIONARYWDFLT
  5
5C7B
102
{ACAD_REACTORS
330
C
102
}
330
C
100
AcDbDictionary
281
     1
  3
Normal
350
5C7C
100
AcDbDictionaryWithDefault
340
5C7C
  0
DICTIONARY
  5
13217
102
{ACAD_REACTORS
330
C
102
}
330
C
100
AcDbDictionary
  3
SORTENTS
350
13218
  0
XRECORD
  5
5E8E
102
{ACAD_REACTORS
330
C
102
}
330
C
100
AcDbXrecord
  1
DWGPROPS COOKIE
  2

  3

  4

  6

  7

  8

  9

300
=
301
=
302
=
303
=
304
=
305
=
306
=
307
=
308
=
309
=
 40
0.586753587962963
 41
2450495.493631365
 42
2453208.662277431
  1

 90
        0
  0
DICTIONARY
  5
17EDD
102
{ACAD_REACTORS
330
C
102
}
330
C
100
AcDbDictionary
  3
TSTACKALIGN
350
17EDE
  3
TSTACKSIZE
350
17EDF
  3
HYPERLINKBASE
350
17EE0
  3
STYLESHEET
350
17EE1
  3
LAYOUTDICT
350
17EE2
  3
PLOTSETDICT
350
17EE3
  3
PLOTSTYLNAMDICT
350
17EE4
  3
LWETCUNION
350
17EE5
  3
INSUNITS
350
17EE6
  3
CEPSNTYPE
350
17EE7
  3
FINGERPRINTGUID
350
17EE8
  3
VERSIONGUID
350
17EE9
  3
PSVPSCALE
350
17EEA
  3
PUCSORTHOREF
350
17EEB
  3
PUCSORTHOVIEW
350
17EEC
  3
PUCSBASE
350
17EED
  3
PUCSORGTOP
350
17EEE
  3
PUCSORGBOTTOM
350
17EEF
  3
PUCSORGLEFT
350
17EF0
  3
PUCSORGRIGHT
350
17EF1
  3
PUCSORGFRONT
350
17EF2
  3
PUCSORGBACK
350
17EF3
  3
UCSORTHOREF
350
17EF4
  3
UCSORTHOVIEW
350
17EF5
  3
UCSBASE
350
17EF6
  3
UCSORGTOP
350
17EF7
  3
UCSORGBOTTOM
350
17EF8
  3
UCSORGLEFT
350
17EF9
  3
UCSORGRIGHT
350
17EFA
  3
UCSORGFRONT
350
17EFB
  3
UCSORGBACK
350
17EFC
  0
XRECORD
  5
17EFE
102
{ACAD_REACTORS
330
17EFD
102
}
330
17EFD
100
AcDbXrecord
340
1A
  0
XRECORD
  5
17F00
102
{ACAD_REACTORS
330
17EFF
102
}
330
17EFF
100
AcDbXrecord
340
15176
  0
GROUP
  5
477D
102
{ACAD_REACTORS
330
D
102
}
330
D
100
AcDbGroup
300

 70
     1
 71
     1
  0
GROUP
  5
4C0F
102
{ACAD_REACTORS
330
D
102
}
330
D
100
AcDbGroup
300

 70
     1
 71
     1
  0
GROUP
  5
4C10
102
{ACAD_REACTORS
330
D
102
}
330
D
100
AcDbGroup
300

 70
     1
 71
     1
  0
GROUP
  5
4C11
102
{ACAD_REACTORS
330
D
102
}
330
D
100
AcDbGroup
300

 70
     1
 71
     1
  0
GROUP
  5
4C12
102
{ACAD_REACTORS
330
D
102
}
330
D
100
AcDbGroup
300

 70
     1
 71
     1
  0
GROUP
  5
4C13
102
{ACAD_REACTORS
330
D
102
}
330
D
100
AcDbGroup
300

 70
     1
 71
     1
  0
GROUP
  5
4C14
102
{ACAD_REACTORS
330
D
102
}
330
D
100
AcDbGroup
300

 70
     1
 71
     1
  0
GROUP
  5
4C15
102
{ACAD_REACTORS
330
D
102
}
330
D
100
AcDbGroup
300

 70
     1
 71
     1
  0
GROUP
  5
4C16
102
{ACAD_REACTORS
330
D
102
}
330
D
100
AcDbGroup
300

 70
     1
 71
     1
  0
GROUP
  5
4C17
102
{ACAD_REACTORS
330
D
102
}
330
D
100
AcDbGroup
300

 70
     1
 71
     1
  0
GROUP
  5
477E
102
{ACAD_REACTORS
330
D
102
}
330
D
100
AcDbGroup
300

 70
     1
 71
     1
  0
GROUP
  5
477F
102
{ACAD_REACTORS
330
D
102
}
330
D
100
AcDbGroup
300

 70
     1
 71
     1
  0
GROUP
  5
4780
102
{ACAD_REACTORS
330
D
102
}
330
D
100
AcDbGroup
300

 70
     1
 71
     1
  0
GROUP
  5
4781
102
{ACAD_REACTORS
330
D
102
}
330
D
100
AcDbGroup
300

 70
     1
 71
     1
  0
GROUP
  5
13853
102
{ACAD_REACTORS
330
D
102
}
330
D
100
AcDbGroup
300

 70
     1
 71
     1
  0
GROUP
  5
4C0E
102
{ACAD_REACTORS
330
D
102
}
330
D
100
AcDbGroup
300

 70
     1
 71
     1
  0
MLINESTYLE
  5
13
102
{ACAD_REACTORS
330
E
102
}
330
E
100
AcDbMlineStyle
  2
STANDARD
 70
     0
  3

 62
     0
 51
90.0
 52
90.0
 71
     2
 49
0.5
 62
   256
  6
BYLAYER
 49
-0.5
 62
   256
  6
BYLAYER
  0
ACDBPLACEHOLDER
  5
5C7C
102
{ACAD_REACTORS
330
5C7B
102
}
330
5C7B
100
AcDbPlaceHolder
280
     0
  0
DICTIONARYVAR
  5
13218
102
{ACAD_REACTORS
330
13217
102
}
330
13217
100
DictionaryVariables
280
     0
  1
96
  0
XRECORD
  5
17EDE
102
{ACAD_REACTORS
330
17EDD
102
}
330
17EDD
100
AcDbXrecord
 90
        1
  0
XRECORD
  5
17EDF
102
{ACAD_REACTORS
330
17EDD
102
}
330
17EDD
100
AcDbXrecord
 90
       70
  0
XRECORD
  5
17EE0
102
{ACAD_REACTORS
330
17EDD
102
}
330
17EDD
100
AcDbXrecord
  1

  0
XRECORD
  5
17EE1
102
{ACAD_REACTORS
330
17EDD
102
}
330
17EDD
100
AcDbXrecord
  1

  0
XRECORD
  5
17EE2
102
{ACAD_REACTORS
330
17EDD
102
}
330
17EDD
100
AcDbXrecord
340
5C7D
  0
XRECORD
  5
17EE3
102
{ACAD_REACTORS
330
17EDD
102
}
330
17EDD
100
AcDbXrecord
340
5C7E
  0
XRECORD
  5
17EE4
102
{ACAD_REACTORS
330
17EDD
102
}
330
17EDD
100
AcDbXrecord
340
5C7B
  0
XRECORD
  5
17EE5
102
{ACAD_REACTORS
330
17EDD
102
}
330
17EDD
100
AcDbXrecord
 90
    10781
  0
XRECORD
  5
17EE6
102
{ACAD_REACTORS
330
17EDD
102
}
330
17EDD
100
AcDbXrecord
 90
        0
  0
XRECORD
  5
17EE7
102
{ACAD_REACTORS
330
17EDD
102
}
330
17EDD
100
AcDbXrecord
 90
        0
  0
XRECORD
  5
17EE8
102
{ACAD_REACTORS
330
17EDD
102
}
330
17EDD
100
AcDbXrecord
  1
{225A7F0D-DA29-11D8-946A-0000E2416295}
  0
XRECORD
  5
17EE9
102
{ACAD_REACTORS
330
17EDD
102
}
330
17EDD
100
AcDbXrecord
  1
{7BC1C482-FB22-44FE-804A-42E73FBB5713}
  0
XRECORD
  5
17EEA
102
{ACAD_REACTORS
330
17EDD
102
}
330
17EDD
100
AcDbXrecord
 40
0.0
  0
XRECORD
  5
17EEB
102
{ACAD_REACTORS
330
17EDD
102
}
330
17EDD
100
AcDbXrecord
340
0
  0
XRECORD
  5
17EEC
102
{ACAD_REACTORS
330
17EDD
102
}
330
17EDD
100
AcDbXrecord
 70
     0
  0
XRECORD
  5
17EED
102
{ACAD_REACTORS
330
17EDD
102
}
330
17EDD
100
AcDbXrecord
340
0
  0
XRECORD
  5
17EEE
102
{ACAD_REACTORS
330
17EDD
102
}
330
17EDD
100
AcDbXrecord
 10
0.0
 20
0.0
 30
0.0
  0
XRECORD
  5
17EEF
102
{ACAD_REACTORS
330
17EDD
102
}
330
17EDD
100
AcDbXrecord
 10
0.0
 20
0.0
 30
0.0
  0
XRECORD
  5
17EF0
102
{ACAD_REACTORS
330
17EDD
102
}
330
17EDD
100
AcDbXrecord
 10
0.0
 20
0.0
 30
0.0
  0
XRECORD
  5
17EF1
102
{ACAD_REACTORS
330
17EDD
102
}
330
17EDD
100
AcDbXrecord
 10
0.0
 20
0.0
 30
0.0
  0
XRECORD
  5
17EF2
102
{ACAD_REACTORS
330
17EDD
102
}
330
17EDD
100
AcDbXrecord
 10
0.0
 20
0.0
 30
0.0
  0
XRECORD
  5
17EF3
102
{ACAD_REACTORS
330
17EDD
102
}
330
17EDD
100
AcDbXrecord
 10
0.0
 20
0.0
 30
0.0
  0
XRECORD
  5
17EF4
102
{ACAD_REACTORS
330
17EDD
102
}
330
17EDD
100
AcDbXrecord
340
0
  0
XRECORD
  5
17EF5
102
{ACAD_REACTORS
330
17EDD
102
}
330
17EDD
100
AcDbXrecord
 70
     0
  0
XRECORD
  5
17EF6
102
{ACAD_REACTORS
330
17EDD
102
}
330
17EDD
100
AcDbXrecord
340
0
  0
XRECORD
  5
17EF7
102
{ACAD_REACTORS
330
17EDD
102
}
330
17EDD
100
AcDbXrecord
 10
0.0
 20
0.0
 30
0.0
  0
XRECORD
  5
17EF8
102
{ACAD_REACTORS
330
17EDD
102
}
330
17EDD
100
AcDbXrecord
 10
0.0
 20
0.0
 30
0.0
  0
XRECORD
  5
17EF9
102
{ACAD_REACTORS
330
17EDD
102
}
330
17EDD
100
AcDbXrecord
 10
0.0
 20
0.0
 30
0.0
  0
XRECORD
  5
17EFA
102
{ACAD_REACTORS
330
17EDD
102
}
330
17EDD
100
AcDbXrecord
 10
0.0
 20
0.0
 30
0.0
  0
XRECORD
  5
17EFB
102
{ACAD_REACTORS
330
17EDD
102
}
330
17EDD
100
AcDbXrecord
 10
0.0
 20
0.0
 30
0.0
  0
XRECORD
  5
17EFC
102
{ACAD_REACTORS
330
17EDD
102
}
330
17EDD
100
AcDbXrecord
 10
0.0
 20
0.0
 30
0.0
  0
ENDSEC
  0
EOF
