  0
SECTION
  2
HEADER
  9
$ACADVER
  1
AC1014
  9
$ACADMAINTVER
 70
     9
  9
$DWGCODEPAGE
  3
ANSI_932
  9
$INSBASE
 10
0.0
 20
0.0
 30
0.0
  9
$EXTMIN
 10
-2593.215120991152
 20
1809.799299727276
 30
0.0
  9
$EXTMAX
 10
-2280.193789055322
 20
2111.990398932805
 30
0.0
  9
$LIMMIN
 10
0.0
 20
0.0
  9
$LIMMAX
 10
420.0
 20
297.0
  9
$ORTHOMODE
 70
     1
  9
$REGENMODE
 70
     1
  9
$FILLMODE
 70
     1
  9
$QTEXTMODE
 70
     0
  9
$MIRRTEXT
 70
     1
  9
$DRAGMODE
 70
     2
  9
$LTSCALE
 40
1.0
  9
$OSMODE
 70
    37
  9
$ATTMODE
 70
     1
  9
$TEXTSIZE
 40
2.5
  9
$TRACEWID
 40
1.0
  9
$TEXTSTYLE
  7
ゴシック体
  9
$CLAYER
  8
CL1
  9
$CELTYPE
  6
BYLAYER
  9
$CECOLOR
 62
   256
  9
$CELTSCALE
 40
1.0
  9
$DELOBJ
 70
     1
  9
$DISPSILH
 70
     0
  9
$DIMSCALE
 40
0.0
  9
$DIMASZ
 40
3.0
  9
$DIMEXO
 40
0.5
  9
$DIMDLI
 40
0.5
  9
$DIMRND
 40
0.0
  9
$DIMDLE
 40
0.0
  9
$DIMEXE
 40
0.5
  9
$DIMTP
 40
0.0
  9
$DIMTM
 40
0.0
  9
$DIMTXT
 40
3.5
  9
$DIMCEN
 40
0.0
  9
$DIMTSZ
 40
0.0
  9
$DIMTOL
 70
     0
  9
$DIMLIM
 70
     0
  9
$DIMTIH
 70
     0
  9
$DIMTOH
 70
     0
  9
$DIMSE1
 70
     0
  9
$DIMSE2
 70
     0
  9
$DIMTAD
 70
     1
  9
$DIMZIN
 70
     8
  9
$DIMBLK
  1

  9
$DIMASO
 70
     1
  9
$DIMSHO
 70
     1
  9
$DIMPOST
  1

  9
$DIMAPOST
  1

  9
$DIMALT
 70
     0
  9
$DIMALTD
 70
     2
  9
$DIMALTF
 40
25.4
  9
$DIMLFAC
 40
1.0
  9
$DIMTOFL
 70
     1
  9
$DIMTVP
 40
0.0
  9
$DIMTIX
 70
     0
  9
$DIMSOXD
 70
     0
  9
$DIMSAH
 70
     0
  9
$DIMBLK1
  1

  9
$DIMBLK2
  1

  9
$DIMSTYLE
  2
標準スタイル
  9
$DIMCLRD
 70
     1
  9
$DIMCLRE
 70
     1
  9
$DIMCLRT
 70
     1
  9
$DIMTFAC
 40
1.0
  9
$DIMGAP
 40
1.0
  9
$DIMJUST
 70
     0
  9
$DIMSD1
 70
     0
  9
$DIMSD2
 70
     0
  9
$DIMTOLJ
 70
     1
  9
$DIMTZIN
 70
     8
  9
$DIMALTZ
 70
     0
  9
$DIMALTTZ
 70
     0
  9
$DIMFIT
 70
     3
  9
$DIMUPT
 70
     0
  9
$DIMUNIT
 70
     2
  9
$DIMDEC
 70
     2
  9
$DIMTDEC
 70
     2
  9
$DIMALTU
 70
     2
  9
$DIMALTTD
 70
     2
  9
$DIMTXSTY
  7
ゴシック体
  9
$DIMAUNIT
 70
     0
  9
$LUNITS
 70
     2
  9
$LUPREC
 70
     4
  9
$SKETCHINC
 40
1.0
  9
$FILLETRAD
 40
0.0
  9
$AUNITS
 70
     0
  9
$AUPREC
 70
     0
  9
$MENU
  1
.
  9
$ELEVATION
 40
0.0
  9
$PELEVATION
 40
0.0
  9
$THICKNESS
 40
0.0
  9
$LIMCHECK
 70
     0
  9
$BLIPMODE
 70
     0
  9
$CHAMFERA
 40
10.0
  9
$CHAMFERB
 40
10.0
  9
$CHAMFERC
 40
2.0
  9
$CHAMFERD
 40
0.7853981633974483
  9
$SKPOLY
 70
     0
  9
$TDCREATE
 40
2450495.493631365
  9
$TDUPDATE
 40
2457452.572224930
  9
$TDINDWG
 40
1.8917161343
  9
$TDUSRTIMER
 40
1.8917161343
  9
$USRTIMER
 70
     1
  9
$ANGBASE
 50
0.0
  9
$ANGDIR
 70
     0
  9
$PDMODE
 70
    99
  9
$PDSIZE
 40
0.0
  9
$PLINEWID
 40
0.0
  9
$COORDS
 70
     1
  9
$SPLFRAME
 70
     0
  9
$SPLINETYPE
 70
     6
  9
$SPLINESEGS
 70
     8
  9
$ATTDIA
 70
     0
  9
$ATTREQ
 70
     1
  9
$HANDLING
 70
 10241
  9
$HANDSEED
  5
14F69
  9
$SURFTAB1
 70
     6
  9
$SURFTAB2
 70
     6
  9
$SURFTYPE
 70
     6
  9
$SURFU
 70
     6
  9
$SURFV
 70
     6
  9
$UCSNAME
  2

  9
$UCSORG
 10
0.0
 20
0.0
 30
0.0
  9
$UCSXDIR
 10
1.0
 20
0.0
 30
0.0
  9
$UCSYDIR
 10
0.0
 20
1.0
 30
0.0
  9
$PUCSNAME
  2

  9
$PUCSORG
 10
0.0
 20
0.0
 30
0.0
  9
$PUCSXDIR
 10
1.0
 20
0.0
 30
0.0
  9
$PUCSYDIR
 10
0.0
 20
1.0
 30
0.0
  9
$USERI1
 70
     0
  9
$USERI2
 70
     0
  9
$USERI3
 70
     0
  9
$USERI4
 70
     0
  9
$USERI5
 70
     0
  9
$USERR1
 40
0.0
  9
$USERR2
 40
0.0
  9
$USERR3
 40
0.0
  9
$USERR4
 40
0.0
  9
$USERR5
 40
0.0
  9
$WORLDVIEW
 70
     1
  9
$SHADEDGE
 70
     3
  9
$SHADEDIF
 70
    70
  9
$TILEMODE
 70
     0
  9
$MAXACTVP
 70
    16
  9
$PINSBASE
 10
0.0
 20
0.0
 30
0.0
  9
$PLIMCHECK
 70
     0
  9
$PEXTMIN
 10
29.03619555254135
 20
27.69602733303884
 30
0.0
  9
$PEXTMAX
 10
414.5361955525411
 20
287.6960273330388
 30
0.0
  9
$PLIMMIN
 10
11.13088392171084
 20
6.367460636892701
  9
$PLIMMAX
 10
431.0775391951483
 20
303.3781112716583
  9
$UNITMODE
 70
     0
  9
$VISRETAIN
 70
     0
  9
$PLINEGEN
 70
     0
  9
$PSLTSCALE
 70
     1
  9
$TREEDEPTH
 70
  3020
  9
$PICKSTYLE
 70
     1
  9
$CMLSTYLE
  2
STANDARD
  9
$CMLJUST
 70
     0
  9
$CMLSCALE
 40
1.0
  9
$PROXYGRAPHICS
 70
     1
  9
$MEASUREMENT
 70
     1
  0
ENDSEC
  0
SECTION
  2
CLASSES
  0
CLASS
  1
LWPOLYLINE
  2
AcDbPolyline
  3
AutoCAD 2000
 90
        0
280
     0
281
     1
  0
CLASS
  1
HATCH
  2
AcDbHatch
  3
AutoCAD 2000
 90
        0
280
     0
281
     1
  0
CLASS
  1
ACDBDICTIONARYWDFLT
  2
AcDbDictionaryWithDefault
  3
AutoCAD 2000
 90
        0
280
     0
281
     0
  0
CLASS
  1
ACDBPLACEHOLDER
  2
AcDbPlaceHolder
  3
AutoCAD 2000
 90
        0
280
     0
281
     0
  0
CLASS
  1
LAYOUT
  2
AcDbLayout
  3
AutoCAD 2000
 90
        0
280
     0
281
     0
  0
CLASS
  1
LONG_TRANSACTION
  2
AcDbLongTransaction
  3
AutoCAD 2000
 90
        0
280
     0
281
     0
  0
CLASS
  1
LWPOLYLINE
  2
AcDbPolyline
  3
AutoCAD 2000
 90
        0
280
     0
281
     1
  0
CLASS
  1
HATCH
  2
AcDbHatch
  3
AutoCAD 2000
 90
        0
280
     0
281
     1
  0
CLASS
  1
XRECORD
  2
AcDbXrecord
  3
AutoCAD 2000
 90
        0
280
     0
281
     0
  0
ENDSEC
  0
SECTION
  2
TABLES
  0
TABLE
  2
VPORT
  5
8
330
0
100
AcDbSymbolTable
 70
    19
  0
VPORT
  5
14F44
330
8
100
AcDbSymbolTableRecord
100
AcDbViewportTableRecord
  2
*ACTIVE
 70
     0
 10
0.0
 20
0.0
 11
1.0
 21
1.0
 12
-2436.675106852444
 22
1960.944425996237
 13
0.0
 23
0.0
 14
5.0
 24
5.0
 15
0.0
 25
0.0
 16
0.0
 26
0.0
 36
1.0
 17
0.0
 27
0.0
 37
0.0
 40
305.8209310997838
 41
1.781954887218044
 42
50.0
 43
0.0
 44
0.0
 50
0.0
 51
0.0
 71
     0
 72
   100
 73
     1
 74
     0
 75
     0
 76
     0
 77
     0
 78
     0
  0
ENDTAB
  0
TABLE
  2
LTYPE
  5
5
330
0
100
AcDbSymbolTable
 70
    13
  0
LTYPE
  5
14
330
5
100
AcDbSymbolTableRecord
100
AcDbLinetypeTableRecord
  2
BYBLOCK
 70
     0
  3

 72
    65
 73
     0
 40
0.0
  0
LTYPE
  5
15
330
5
100
AcDbSymbolTableRecord
100
AcDbLinetypeTableRecord
  2
BYLAYER
 70
     0
  3

 72
    65
 73
     0
 40
0.0
  0
LTYPE
  5
16
330
5
100
AcDbSymbolTableRecord
100
AcDbLinetypeTableRecord
  2
CONTINUOUS
 70
     0
  3
Solid line
 72
    65
 73
     0
 40
0.0
  0
LTYPE
  5
329
330
5
100
AcDbSymbolTableRecord
100
AcDbLinetypeTableRecord
  2
DASHEDX2
 70
     0
  3
____  ____  ____  ____  ____  ____  ____  ____ 
 72
    65
 73
     2
 40
1.5
 49
1.0
 74
     0
 49
-0.5
 74
     0
  0
LTYPE
  5
1956
330
5
100
AcDbSymbolTableRecord
100
AcDbLinetypeTableRecord
  2
CENTERX2
 70
     0
  3
________  __  ________  __  ________  __  _____
 72
    65
 73
     4
 40
4.0
 49
2.5
 74
     0
 49
-0.5
 74
     0
 49
0.5
 74
     0
 49
-0.5
 74
     0
  0
ENDTAB
  0
TABLE
  2
LAYER
  5
2
102
{ACAD_XDICTIONARY
360
13B78
102
}
330
0
100
AcDbSymbolTable
 70
    35
  0
LAYER
  5
F
330
2
100
AcDbSymbolTableRecord
100
AcDbLayerTableRecord
  2
0
 70
     0
 62
     7
  6
CONTINUOUS
  0
LAYER
  5
18F
330
2
100
AcDbSymbolTableRecord
100
AcDbLayerTableRecord
  2
ZISSEN1
 70
     0
 62
     7
  6
CONTINUOUS
  0
LAYER
  5
190
330
2
100
AcDbSymbolTableRecord
100
AcDbLayerTableRecord
  2
ZISSEN2
 70
     0
 62
   150
  6
CONTINUOUS
  0
LAYER
  5
529
330
2
100
AcDbSymbolTableRecord
100
AcDbLayerTableRecord
  2
SUNPOU
 70
     0
 62
     1
  6
CONTINUOUS
  0
LAYER
  5
195A
330
2
100
AcDbSymbolTableRecord
100
AcDbLayerTableRecord
  2
CL1
 70
     0
 62
   210
  6
CENTERX2
  0
LAYER
  5
3A9B
330
2
100
AcDbSymbolTableRecord
100
AcDbLayerTableRecord
  2
DEFPOINTS
 70
     0
 62
     7
  6
CONTINUOUS
  0
ENDTAB
  0
TABLE
  2
STYLE
  5
3
330
0
100
AcDbSymbolTable
 70
     5
  0
STYLE
  5
10
330
3
100
AcDbSymbolTableRecord
100
AcDbTextStyleTableRecord
  2
STANDARD
 70
     0
 40
0.0
 41
1.0
 50
0.0
 71
     0
 42
3.0
  3
txt
  4
BigFont
  0
STYLE
  5
1960
330
3
100
AcDbSymbolTableRecord
100
AcDbTextStyleTableRecord
  2
ゴシック体
 70
     0
 40
0.0
 41
1.0
 50
0.0
 71
     0
 42
2.5
  3
MS Gothic.ttf
  4

1001
ACAD
1000
MS Gothic
1071
    32817
  0
ENDTAB
  0
TABLE
  2
VIEW
  5
6
330
0
100
AcDbSymbolTable
 70
     0
  0
ENDTAB
  0
TABLE
  2
UCS
  5
7
330
0
100
AcDbSymbolTable
 70
     0
  0
ENDTAB
  0
TABLE
  2
APPID
  5
9
330
0
100
AcDbSymbolTable
 70
     5
  0
APPID
  5
11
330
9
100
AcDbSymbolTableRecord
100
AcDbRegAppTableRecord
  2
ACAD
 70
     0
  0
APPID
  5
4005
330
9
100
AcDbSymbolTableRecord
100
AcDbRegAppTableRecord
  2
CONTENTTABDATA
 70
     0
  0
APPID
  5
4006
330
9
100
AcDbSymbolTableRecord
100
AcDbRegAppTableRecord
  2
CONTENTCURRENTTAB
 70
     0
  0
APPID
  5
477B
330
9
100
AcDbSymbolTableRecord
100
AcDbRegAppTableRecord
  2
CONTENTBLOCKDESCRIPTION
 70
     0
  0
APPID
  5
477C
330
9
100
AcDbSymbolTableRecord
100
AcDbRegAppTableRecord
  2
CONTENTBLOCKICON
 70
     0
  0
ENDTAB
  0
TABLE
  2
DIMSTYLE
  5
A
330
0
100
AcDbSymbolTable
 70
    12
  0
DIMSTYLE
105
1D
330
A
100
AcDbSymbolTableRecord
100
AcDbDimStyleTableRecord
  2
STANDARD
 70
     0
  3

  4

  5

  6

  7

 40
1.0
 41
0.18
 42
0.0625
 43
0.38
 44
0.18
 45
0.0
 46
0.0
 47
0.0
 48
0.0
140
0.18
141
0.09
142
0.0
143
25.4
144
1.0
145
0.0
146
1.0
147
0.09
 71
     0
 72
     0
 73
     1
 74
     1
 75
     0
 76
     0
 77
     0
 78
     0
170
     0
171
     2
172
     0
173
     0
174
     0
175
     0
176
     0
177
     0
178
     0
270
     2
271
     4
272
     4
273
     2
274
     2
340
10
275
     0
280
     0
281
     0
282
     0
283
     1
284
     0
285
     0
286
     0
287
     3
288
     0
  0
DIMSTYLE
105
52E
102
{ACAD_REACTORS
330
14472
330
14473
330
14474
330
14475
330
14476
330
14477
330
14480
330
14481
330
14482
330
14484
330
14485
330
14486
330
14487
330
14495
330
14496
330
144BC
330
14503
330
14504
330
14505
330
14506
330
14507
330
14508
330
14509
330
14494
330
14ED9
330
14EE7
330
14EF4
330
14483
330
13720
330
13705
330
1377A
330
13761
330
13711
330
1373A
330
13746
330
13752
330
1372D
330
137F2
330
137D6
330
1376E
330
137AE
330
13794
330
13787
330
137C9
330
137BA
330
137FF
330
1381A
330
1380D
330
13836
330
13829
330
136EB
102
}
330
A
100
AcDbSymbolTableRecord
100
AcDbDimStyleTableRecord
  2
標準スタイル
 70
     0
  3

  4

  5

  6

  7

 40
0.0
 41
3.0
 42
0.5
 43
0.5
 44
0.5
 45
0.0
 46
0.0
 47
0.0
 48
0.0
140
3.5
141
0.0
142
0.0
143
25.4
144
1.0
145
0.0
146
1.0
147
1.0
 71
     0
 72
     0
 73
     0
 74
     0
 75
     0
 76
     0
 77
     1
 78
     8
170
     0
171
     2
172
     1
173
     0
174
     0
175
     0
176
     1
177
     1
178
     1
270
     2
271
     2
272
     2
273
     2
274
     2
340
1960
275
     0
280
     0
281
     0
282
     0
283
     1
284
     8
285
     0
286
     0
287
     3
288
     0
  0
ENDTAB
  0
TABLE
  2
BLOCK_RECORD
  5
1
330
0
100
AcDbSymbolTable
 70
   126
  0
BLOCK_RECORD
  5
1A
102
{ACAD_XDICTIONARY
360
14F65
102
}
330
1
100
AcDbSymbolTableRecord
100
AcDbBlockTableRecord
  2
*MODEL_SPACE
  0
BLOCK_RECORD
  5
5D8E
102
{ACAD_XDICTIONARY
360
14F67
102
}
330
1
100
AcDbSymbolTableRecord
100
AcDbBlockTableRecord
  2
*PAPER_SPACE
  0
BLOCK_RECORD
  5
1451E
330
1
100
AcDbSymbolTableRecord
100
AcDbBlockTableRecord
  2
*D97
  0
BLOCK_RECORD
  5
1452C
330
1
100
AcDbSymbolTableRecord
100
AcDbBlockTableRecord
  2
*D98
  0
BLOCK_RECORD
  5
14538
330
1
100
AcDbSymbolTableRecord
100
AcDbBlockTableRecord
  2
*D99
  0
BLOCK_RECORD
  5
14546
330
1
100
AcDbSymbolTableRecord
100
AcDbBlockTableRecord
  2
*D100
  0
BLOCK_RECORD
  5
14552
330
1
100
AcDbSymbolTableRecord
100
AcDbBlockTableRecord
  2
*D101
  0
BLOCK_RECORD
  5
1455E
330
1
100
AcDbSymbolTableRecord
100
AcDbBlockTableRecord
  2
*D102
  0
BLOCK_RECORD
  5
1456A
330
1
100
AcDbSymbolTableRecord
100
AcDbBlockTableRecord
  2
*D103
  0
BLOCK_RECORD
  5
14578
330
1
100
AcDbSymbolTableRecord
100
AcDbBlockTableRecord
  2
*D104
  0
BLOCK_RECORD
  5
14586
330
1
100
AcDbSymbolTableRecord
100
AcDbBlockTableRecord
  2
*D105
  0
BLOCK_RECORD
  5
14592
330
1
100
AcDbSymbolTableRecord
100
AcDbBlockTableRecord
  2
*D106
  0
BLOCK_RECORD
  5
1459E
330
1
100
AcDbSymbolTableRecord
100
AcDbBlockTableRecord
  2
*D107
  0
BLOCK_RECORD
  5
145AA
330
1
100
AcDbSymbolTableRecord
100
AcDbBlockTableRecord
  2
*D108
  0
BLOCK_RECORD
  5
145B6
330
1
100
AcDbSymbolTableRecord
100
AcDbBlockTableRecord
  2
*D109
  0
BLOCK_RECORD
  5
145C2
330
1
100
AcDbSymbolTableRecord
100
AcDbBlockTableRecord
  2
*D110
  0
BLOCK_RECORD
  5
145CE
330
1
100
AcDbSymbolTableRecord
100
AcDbBlockTableRecord
  2
*D111
  0
BLOCK_RECORD
  5
145DC
330
1
100
AcDbSymbolTableRecord
100
AcDbBlockTableRecord
  2
*D112
  0
BLOCK_RECORD
  5
145E8
330
1
100
AcDbSymbolTableRecord
100
AcDbBlockTableRecord
  2
*D113
  0
BLOCK_RECORD
  5
145F4
330
1
100
AcDbSymbolTableRecord
100
AcDbBlockTableRecord
  2
*D114
  0
BLOCK_RECORD
  5
14600
330
1
100
AcDbSymbolTableRecord
100
AcDbBlockTableRecord
  2
*D115
  0
BLOCK_RECORD
  5
1460C
330
1
100
AcDbSymbolTableRecord
100
AcDbBlockTableRecord
  2
*D116
  0
BLOCK_RECORD
  5
14618
330
1
100
AcDbSymbolTableRecord
100
AcDbBlockTableRecord
  2
*D117
  0
BLOCK_RECORD
  5
14624
330
1
100
AcDbSymbolTableRecord
100
AcDbBlockTableRecord
  2
*D118
  0
BLOCK_RECORD
  5
14630
330
1
100
AcDbSymbolTableRecord
100
AcDbBlockTableRecord
  2
*D119
  0
BLOCK_RECORD
  5
1463E
330
1
100
AcDbSymbolTableRecord
100
AcDbBlockTableRecord
  2
*D120
  0
BLOCK_RECORD
  5
1464C
330
1
100
AcDbSymbolTableRecord
100
AcDbBlockTableRecord
  2
*D121
  0
BLOCK_RECORD
  5
14EDA
330
1
100
AcDbSymbolTableRecord
100
AcDbBlockTableRecord
  2
*D123
  0
BLOCK_RECORD
  5
14EE8
330
1
100
AcDbSymbolTableRecord
100
AcDbBlockTableRecord
  2
*D124
  0
BLOCK_RECORD
  5
14EF5
330
1
100
AcDbSymbolTableRecord
100
AcDbBlockTableRecord
  2
*D125
  0
ENDTAB
  0
ENDSEC
  0
SECTION
  2
BLOCKS
  0
BLOCK
  5
1B
330
1A
100
AcDbEntity
  8
0
100
AcDbBlockBegin
  2
*MODEL_SPACE
 70
     0
 10
0.0
 20
0.0
 30
0.0
  3
*MODEL_SPACE
  1

  0
ENDBLK
  5
1C
330
1A
100
AcDbEntity
  8
0
100
AcDbBlockEnd
  0
BLOCK
  5
5E60
330
5D8E
100
AcDbEntity
 67
     1
  8
0
100
AcDbBlockBegin
  2
*PAPER_SPACE
 70
     0
 10
0.0
 20
0.0
 30
0.0
  3
*PAPER_SPACE
  1

  0
ENDBLK
  5
5E61
330
5D8E
100
AcDbEntity
 67
     1
  8
0
100
AcDbBlockEnd
  0
BLOCK
  5
1452A
330
1451E
100
AcDbEntity
  8
0
100
AcDbBlockBegin
  2
*D97
 70
     1
 10
0.0
 20
0.0
 30
0.0
  3
*D97
  1

  0
LINE
  5
14D85
330
1451E
100
AcDbEntity
  8
SUNPOU
 62
     1
100
AcDbLine
 10
-2321.513640425389
 20
2010.299299727276
 30
0.0
 11
-2296.515001583954
 21
2010.299299727276
 31
0.0
  0
LINE
  5
14D86
330
1451E
100
AcDbEntity
  8
SUNPOU
 62
     1
100
AcDbLine
 10
-2324.013640425389
 20
2005.299299727276
 30
0.0
 11
-2296.515001583954
 21
2005.299299727276
 31
0.0
  0
LINE
  5
14D87
330
1451E
100
AcDbEntity
  8
SUNPOU
 62
     1
100
AcDbLine
 10
-2297.015001583953
 20
2013.299299727276
 30
0.0
 11
-2297.015001583953
 21
2016.299299727276
 31
0.0
  0
LINE
  5
14D88
330
1451E
100
AcDbEntity
  8
SUNPOU
 62
     1
100
AcDbLine
 10
-2297.015001583953
 20
2002.299299727276
 30
0.0
 11
-2297.015001583953
 21
1999.299299727276
 31
0.0
  0
LINE
  5
14D89
330
1451E
100
AcDbEntity
  8
SUNPOU
 62
     1
100
AcDbLine
 10
-2297.015001583953
 20
2010.299299727276
 30
0.0
 11
-2297.015001583953
 21
2005.299299727276
 31
0.0
  0
SOLID
  5
14D8A
330
1451E
100
AcDbEntity
  8
SUNPOU
 62
     1
100
AcDbTrace
 10
-2297.515001583954
 20
2013.299299727276
 30
0.0
 11
-2296.515001583954
 21
2013.299299727276
 31
0.0
 12
-2297.015001583953
 22
2010.299299727276
 32
0.0
 13
-2297.015001583953
 23
2010.299299727276
 33
0.0
  0
SOLID
  5
14D8B
330
1451E
100
AcDbEntity
  8
SUNPOU
 62
     1
100
AcDbTrace
 10
-2297.515001583954
 20
2002.299299727276
 30
0.0
 11
-2296.515001583954
 21
2002.299299727276
 31
0.0
 12
-2297.015001583953
 22
2005.299299727276
 32
0.0
 13
-2297.015001583953
 23
2005.299299727276
 33
0.0
  0
MTEXT
  5
14D8C
330
1451E
100
AcDbEntity
  8
SUNPOU
 62
     1
100
AcDbMText
 10
-2299.765001583954
 20
2007.799299727276
 30
0.0
 40
3.5
 41
0.0
 71
     5
 72
     1
  1
\A1;5
 11
0.0000000000000001
 21
1.0
 31
0.0
1001
ACAD
1000
MTEXTBEGIN
1070
    73
1070
     1
1070
    44
1040
1.0
1070
    74
1070
     0
1000
MTEXTEND
  0
POINT
  5
14D8D
330
1451E
100
AcDbEntity
  8
DEFPOINTS
 62
     0
100
AcDbPoint
 10
-2322.013640425389
 20
2010.299299727276
 30
0.0
  0
POINT
  5
14D8E
330
1451E
100
AcDbEntity
  8
DEFPOINTS
 62
     0
100
AcDbPoint
 10
-2324.513640425389
 20
2005.299299727276
 30
0.0
  0
POINT
  5
14D8F
330
1451E
100
AcDbEntity
  8
DEFPOINTS
 62
     0
100
AcDbPoint
 10
-2297.015001583953
 20
2005.299299727276
 30
0.0
  0
ENDBLK
  5
1452B
330
1451E
100
AcDbEntity
  8
0
100
AcDbBlockEnd
  0
BLOCK
  5
14536
330
1452C
100
AcDbEntity
  8
0
100
AcDbBlockBegin
  2
*D98
 70
     1
 10
0.0
 20
0.0
 30
0.0
  3
*D98
  1

  0
LINE
  5
14D7C
330
1452C
100
AcDbEntity
  8
SUNPOU
 62
     1
100
AcDbLine
 10
-2324.013640425389
 20
2005.299299727276
 30
0.0
 11
-2296.515001583954
 21
2005.299299727276
 31
0.0
  0
LINE
  5
14D7D
330
1452C
100
AcDbEntity
  8
SUNPOU
 62
     1
100
AcDbLine
 10
-2324.013640425389
 20
1845.299299727276
 30
0.0
 11
-2296.515001583954
 21
1845.299299727276
 31
0.0
  0
LINE
  5
14D7E
330
1452C
100
AcDbEntity
  8
SUNPOU
 62
     1
100
AcDbLine
 10
-2297.015001583953
 20
2002.299299727276
 30
0.0
 11
-2297.015001583953
 21
1848.299299727277
 31
0.0
  0
SOLID
  5
14D7F
330
1452C
100
AcDbEntity
  8
SUNPOU
 62
     1
100
AcDbTrace
 10
-2297.515001583954
 20
2002.299299727276
 30
0.0
 11
-2296.515001583954
 21
2002.299299727276
 31
0.0
 12
-2297.015001583953
 22
2005.299299727276
 32
0.0
 13
-2297.015001583953
 23
2005.299299727276
 33
0.0
  0
SOLID
  5
14D80
330
1452C
100
AcDbEntity
  8
SUNPOU
 62
     1
100
AcDbTrace
 10
-2297.515001583954
 20
1848.299299727277
 30
0.0
 11
-2296.515001583954
 21
1848.299299727277
 31
0.0
 12
-2297.015001583953
 22
1845.299299727276
 32
0.0
 13
-2297.015001583953
 23
1845.299299727276
 33
0.0
  0
MTEXT
  5
14D81
330
1452C
100
AcDbEntity
  8
SUNPOU
 62
     1
100
AcDbMText
 10
-2299.765001583954
 20
1925.299299727276
 30
0.0
 40
3.5
 41
0.0
 71
     5
 72
     1
  1
\A1;160 (ユーザー取付寸法)
 11
0.0000000000000001
 21
1.0
 31
0.0
1001
ACAD
1000
MTEXTBEGIN
1070
    73
1070
     1
1070
    44
1040
1.0
1070
    74
1070
     0
1000
MTEXTEND
  0
POINT
  5
14D82
330
1452C
100
AcDbEntity
  8
DEFPOINTS
 62
     0
100
AcDbPoint
 10
-2324.513640425389
 20
2005.299299727276
 30
0.0
  0
POINT
  5
14D83
330
1452C
100
AcDbEntity
  8
DEFPOINTS
 62
     0
100
AcDbPoint
 10
-2324.513640425389
 20
1845.299299727276
 30
0.0
  0
POINT
  5
14D84
330
1452C
100
AcDbEntity
  8
DEFPOINTS
 62
     0
100
AcDbPoint
 10
-2297.015001583953
 20
1845.299299727276
 30
0.0
  0
ENDBLK
  5
14537
330
1452C
100
AcDbEntity
  8
0
100
AcDbBlockEnd
  0
BLOCK
  5
14544
330
14538
100
AcDbEntity
  8
0
100
AcDbBlockBegin
  2
*D99
 70
     1
 10
0.0
 20
0.0
 30
0.0
  3
*D99
  1

  0
LINE
  5
14D71
330
14538
100
AcDbEntity
  8
SUNPOU
 62
     1
100
AcDbLine
 10
-2324.013640425389
 20
1845.299299727276
 30
0.0
 11
-2296.515001583954
 21
1845.299299727276
 31
0.0
  0
LINE
  5
14D72
330
14538
100
AcDbEntity
  8
SUNPOU
 62
     1
100
AcDbLine
 10
-2321.513640425389
 20
1840.299299727276
 30
0.0
 11
-2296.515001583954
 21
1840.299299727276
 31
0.0
  0
LINE
  5
14D73
330
14538
100
AcDbEntity
  8
SUNPOU
 62
     1
100
AcDbLine
 10
-2297.015001583953
 20
1848.299299727277
 30
0.0
 11
-2297.015001583953
 21
1851.299299727277
 31
0.0
  0
LINE
  5
14D74
330
14538
100
AcDbEntity
  8
SUNPOU
 62
     1
100
AcDbLine
 10
-2297.015001583953
 20
1837.299299727276
 30
0.0
 11
-2297.015001583953
 21
1834.299299727276
 31
0.0
  0
LINE
  5
14D75
330
14538
100
AcDbEntity
  8
SUNPOU
 62
     1
100
AcDbLine
 10
-2297.015001583953
 20
1845.299299727276
 30
0.0
 11
-2297.015001583953
 21
1840.299299727276
 31
0.0
  0
SOLID
  5
14D76
330
14538
100
AcDbEntity
  8
SUNPOU
 62
     1
100
AcDbTrace
 10
-2297.515001583954
 20
1848.299299727277
 30
0.0
 11
-2296.515001583954
 21
1848.299299727277
 31
0.0
 12
-2297.015001583953
 22
1845.299299727276
 32
0.0
 13
-2297.015001583953
 23
1845.299299727276
 33
0.0
  0
SOLID
  5
14D77
330
14538
100
AcDbEntity
  8
SUNPOU
 62
     1
100
AcDbTrace
 10
-2297.515001583954
 20
1837.299299727276
 30
0.0
 11
-2296.515001583954
 21
1837.299299727276
 31
0.0
 12
-2297.015001583953
 22
1840.299299727276
 32
0.0
 13
-2297.015001583953
 23
1840.299299727276
 33
0.0
  0
MTEXT
  5
14D78
330
14538
100
AcDbEntity
  8
SUNPOU
 62
     1
100
AcDbMText
 10
-2299.765001583954
 20
1842.799299727276
 30
0.0
 40
3.5
 41
0.0
 71
     5
 72
     1
  1
\A1;5
 11
0.0000000000000001
 21
1.0
 31
0.0
1001
ACAD
1000
MTEXTBEGIN
1070
    73
1070
     1
1070
    44
1040
1.0
1070
    74
1070
     0
1000
MTEXTEND
  0
POINT
  5
14D79
330
14538
100
AcDbEntity
  8
DEFPOINTS
 62
     0
100
AcDbPoint
 10
-2324.513640425389
 20
1845.299299727276
 30
0.0
  0
POINT
  5
14D7A
330
14538
100
AcDbEntity
  8
DEFPOINTS
 62
     0
100
AcDbPoint
 10
-2322.013640425389
 20
1840.299299727276
 30
0.0
  0
POINT
  5
14D7B
330
14538
100
AcDbEntity
  8
DEFPOINTS
 62
     0
100
AcDbPoint
 10
-2297.015001583953
 20
1840.299299727276
 30
0.0
  0
ENDBLK
  5
14545
330
14538
100
AcDbEntity
  8
0
100
AcDbBlockEnd
  0
BLOCK
  5
14550
330
14546
100
AcDbEntity
  8
0
100
AcDbBlockBegin
  2
*D100
 70
     1
 10
0.0
 20
0.0
 30
0.0
  3
*D100
  1

  0
LINE
  5
14D2E
330
14546
100
AcDbEntity
  8
SUNPOU
 62
     1
100
AcDbLine
 10
-2328.513640425389
 20
1840.299299727277
 30
0.0
 11
-2328.513640425389
 21
1829.799299727276
 31
0.0
  0
LINE
  5
14D2F
330
14546
100
AcDbEntity
  8
SUNPOU
 62
     1
100
AcDbLine
 10
-2348.513640425389
 20
1840.799299727277
 30
0.0
 11
-2348.513640425389
 21
1829.799299727276
 31
0.0
  0
LINE
  5
14D30
330
14546
100
AcDbEntity
  8
SUNPOU
 62
     1
100
AcDbLine
 10
-2331.513640425389
 20
1830.299299727276
 30
0.0
 11
-2345.513640425389
 21
1830.299299727276
 31
0.0
  0
SOLID
  5
14D31
330
14546
100
AcDbEntity
  8
SUNPOU
 62
     1
100
AcDbTrace
 10
-2331.513640425389
 20
1830.799299727276
 30
0.0
 11
-2331.513640425389
 21
1829.799299727276
 31
0.0
 12
-2328.513640425389
 22
1830.299299727276
 32
0.0
 13
-2328.513640425389
 23
1830.299299727276
 33
0.0
  0
SOLID
  5
14D32
330
14546
100
AcDbEntity
  8
SUNPOU
 62
     1
100
AcDbTrace
 10
-2345.513640425389
 20
1830.799299727276
 30
0.0
 11
-2345.513640425389
 21
1829.799299727276
 31
0.0
 12
-2348.513640425389
 22
1830.299299727276
 32
0.0
 13
-2348.513640425389
 23
1830.299299727276
 33
0.0
  0
MTEXT
  5
14D33
330
14546
100
AcDbEntity
  8
SUNPOU
 62
     1
100
AcDbMText
 10
-2338.513640425389
 20
1833.049299727275
 30
0.0
 40
3.5
 41
0.0
 71
     5
 72
     1
  1
\A1;20
1001
ACAD
1000
MTEXTBEGIN
1070
    73
1070
     1
1070
    44
1040
1.0
1070
    74
1070
     0
1000
MTEXTEND
  0
POINT
  5
14D34
330
14546
100
AcDbEntity
  8
DEFPOINTS
 62
     0
100
AcDbPoint
 10
-2328.513640425389
 20
1840.799299727277
 30
0.0
  0
POINT
  5
14D35
330
14546
100
AcDbEntity
  8
DEFPOINTS
 62
     0
100
AcDbPoint
 10
-2348.513640425389
 20
1841.299299727277
 30
0.0
  0
POINT
  5
14D36
330
14546
100
AcDbEntity
  8
DEFPOINTS
 62
     0
100
AcDbPoint
 10
-2348.513640425389
 20
1830.299299727276
 30
0.0
  0
ENDBLK
  5
14551
330
14546
100
AcDbEntity
  8
0
100
AcDbBlockEnd
  0
BLOCK
  5
1455C
330
14552
100
AcDbEntity
  8
0
100
AcDbBlockBegin
  2
*D101
 70
     1
 10
0.0
 20
0.0
 30
0.0
  3
*D101
  1

  0
LINE
  5
14D68
330
14552
100
AcDbEntity
  8
SUNPOU
 62
     1
100
AcDbLine
 10
-2328.513640425389
 20
1840.799299727277
 30
0.0
 11
-2328.513640425389
 21
1829.799299727276
 31
0.0
  0
LINE
  5
14D69
330
14552
100
AcDbEntity
  8
SUNPOU
 62
     1
100
AcDbLine
 10
-2312.015001583954
 20
1874.299299727277
 30
0.0
 11
-2312.015001583954
 21
1829.799299727276
 31
0.0
  0
LINE
  5
14D6A
330
14552
100
AcDbEntity
  8
SUNPOU
 62
     1
100
AcDbLine
 10
-2325.513640425389
 20
1830.299299727276
 30
0.0
 11
-2315.015001583954
 21
1830.299299727276
 31
0.0
  0
SOLID
  5
14D6B
330
14552
100
AcDbEntity
  8
SUNPOU
 62
     1
100
AcDbTrace
 10
-2325.513640425389
 20
1830.799299727276
 30
0.0
 11
-2325.513640425389
 21
1829.799299727276
 31
0.0
 12
-2328.513640425389
 22
1830.299299727276
 32
0.0
 13
-2328.513640425389
 23
1830.299299727276
 33
0.0
  0
SOLID
  5
14D6C
330
14552
100
AcDbEntity
  8
SUNPOU
 62
     1
100
AcDbTrace
 10
-2315.015001583954
 20
1830.799299727276
 30
0.0
 11
-2315.015001583954
 21
1829.799299727276
 31
0.0
 12
-2312.015001583954
 22
1830.299299727276
 32
0.0
 13
-2312.015001583954
 23
1830.299299727276
 33
0.0
  0
MTEXT
  5
14D6D
330
14552
100
AcDbEntity
  8
SUNPOU
 62
     1
100
AcDbMText
 10
-2320.264321004671
 20
1833.049299727275
 30
0.0
 40
3.5
 41
0.0
 71
     5
 72
     1
  1
\A1;16.5
1001
ACAD
1000
MTEXTBEGIN
1070
    73
1070
     1
1070
    44
1040
1.0
1070
    74
1070
     0
1000
MTEXTEND
  0
POINT
  5
14D6E
330
14552
100
AcDbEntity
  8
DEFPOINTS
 62
     0
100
AcDbPoint
 10
-2328.513640425389
 20
1841.299299727277
 30
0.0
  0
POINT
  5
14D6F
330
14552
100
AcDbEntity
  8
DEFPOINTS
 62
     0
100
AcDbPoint
 10
-2312.015001583954
 20
1874.799299727277
 30
0.0
  0
POINT
  5
14D70
330
14552
100
AcDbEntity
  8
DEFPOINTS
 62
     0
100
AcDbPoint
 10
-2312.015001583954
 20
1830.299299727276
 30
0.0
  0
ENDBLK
  5
1455D
330
14552
100
AcDbEntity
  8
0
100
AcDbBlockEnd
  0
BLOCK
  5
14568
330
1455E
100
AcDbEntity
  8
0
100
AcDbBlockBegin
  2
*D102
 70
     1
 10
0.0
 20
0.0
 30
0.0
  3
*D102
  1

  0
LINE
  5
14D37
330
1455E
100
AcDbEntity
  8
SUNPOU
 62
     1
100
AcDbLine
 10
-2365.013640425478
 20
1855.299299727426
 30
0.0
 11
-2365.013640425478
 21
1829.799299727276
 31
0.0
  0
LINE
  5
14D38
330
1455E
100
AcDbEntity
  8
SUNPOU
 62
     1
100
AcDbLine
 10
-2348.513640425389
 20
1840.799299727277
 30
0.0
 11
-2348.513640425389
 21
1829.799299727276
 31
0.0
  0
LINE
  5
14D39
330
1455E
100
AcDbEntity
  8
SUNPOU
 62
     1
100
AcDbLine
 10
-2362.013640425478
 20
1830.299299727276
 30
0.0
 11
-2351.513640425389
 21
1830.299299727276
 31
0.0
  0
SOLID
  5
14D3A
330
1455E
100
AcDbEntity
  8
SUNPOU
 62
     1
100
AcDbTrace
 10
-2362.013640425478
 20
1830.799299727276
 30
0.0
 11
-2362.013640425478
 21
1829.799299727276
 31
0.0
 12
-2365.013640425478
 22
1830.299299727276
 32
0.0
 13
-2365.013640425478
 23
1830.299299727276
 33
0.0
  0
SOLID
  5
14D3B
330
1455E
100
AcDbEntity
  8
SUNPOU
 62
     1
100
AcDbTrace
 10
-2351.513640425389
 20
1830.799299727276
 30
0.0
 11
-2351.513640425389
 21
1829.799299727276
 31
0.0
 12
-2348.513640425389
 22
1830.299299727276
 32
0.0
 13
-2348.513640425389
 23
1830.299299727276
 33
0.0
  0
MTEXT
  5
14D3C
330
1455E
100
AcDbEntity
  8
SUNPOU
 62
     1
100
AcDbMText
 10
-2356.763640425433
 20
1833.049299727275
 30
0.0
 40
3.5
 41
0.0
 71
     5
 72
     1
  1
\A1;16.5
1001
ACAD
1000
MTEXTBEGIN
1070
    73
1070
     1
1070
    44
1040
1.0
1070
    74
1070
     0
1000
MTEXTEND
  0
POINT
  5
14D3D
330
1455E
100
AcDbEntity
  8
DEFPOINTS
 62
     0
100
AcDbPoint
 10
-2365.013640425478
 20
1855.799299727426
 30
0.0
  0
POINT
  5
14D3E
330
1455E
100
AcDbEntity
  8
DEFPOINTS
 62
     0
100
AcDbPoint
 10
-2348.513640425389
 20
1841.299299727277
 30
0.0
  0
POINT
  5
14D3F
330
1455E
100
AcDbEntity
  8
DEFPOINTS
 62
     0
100
AcDbPoint
 10
-2348.513640425389
 20
1830.299299727276
 30
0.0
  0
ENDBLK
  5
14569
330
1455E
100
AcDbEntity
  8
0
100
AcDbBlockEnd
  0
BLOCK
  5
14576
330
1456A
100
AcDbEntity
  8
0
100
AcDbBlockBegin
  2
*D103
 70
     1
 10
0.0
 20
0.0
 30
0.0
  3
*D103
  1

  0
LINE
  5
14D5D
330
1456A
100
AcDbEntity
  8
SUNPOU
 62
     1
100
AcDbLine
 10
-2309.013725497771
 20
1879.299299727277
 30
0.0
 11
-2309.013725497771
 21
1829.799299727275
 31
0.0
  0
LINE
  5
14D5E
330
1456A
100
AcDbEntity
  8
SUNPOU
 62
     1
100
AcDbLine
 10
-2312.01364042539
 20
1874.299299727277
 30
0.0
 11
-2312.01364042539
 21
1829.799299727275
 31
0.0
  0
LINE
  5
14D5F
330
1456A
100
AcDbEntity
  8
SUNPOU
 62
     1
100
AcDbLine
 10
-2315.01364042539
 20
1830.299299727275
 30
0.0
 11
-2318.01364042539
 21
1830.299299727275
 31
0.0
  0
LINE
  5
14D60
330
1456A
100
AcDbEntity
  8
SUNPOU
 62
     1
100
AcDbLine
 10
-2306.013725497771
 20
1830.299299727275
 30
0.0
 11
-2294.013725497771
 21
1830.299299727275
 31
0.0
  0
LINE
  5
14D61
330
1456A
100
AcDbEntity
  8
SUNPOU
 62
     1
100
AcDbLine
 10
-2312.01364042539
 20
1830.299299727275
 30
0.0
 11
-2309.013725497771
 21
1830.299299727275
 31
0.0
  0
SOLID
  5
14D62
330
1456A
100
AcDbEntity
  8
SUNPOU
 62
     1
100
AcDbTrace
 10
-2315.01364042539
 20
1830.799299727275
 30
0.0
 11
-2315.01364042539
 21
1829.799299727275
 31
0.0
 12
-2312.01364042539
 22
1830.299299727275
 32
0.0
 13
-2312.01364042539
 23
1830.299299727275
 33
0.0
  0
SOLID
  5
14D63
330
1456A
100
AcDbEntity
  8
SUNPOU
 62
     1
100
AcDbTrace
 10
-2306.013725497771
 20
1830.799299727275
 30
0.0
 11
-2306.013725497771
 21
1829.799299727275
 31
0.0
 12
-2309.013725497771
 22
1830.299299727275
 32
0.0
 13
-2309.013725497771
 23
1830.299299727275
 33
0.0
  0
MTEXT
  5
14D64
330
1456A
100
AcDbEntity
  8
SUNPOU
 62
     1
100
AcDbMText
 10
-2298.513725497771
 20
1833.049299727275
 30
0.0
 40
3.5
 41
0.0
 71
     5
 72
     1
  1
\A1;(3)
1001
ACAD
1000
MTEXTBEGIN
1070
    73
1070
     1
1070
    44
1040
1.0
1070
    74
1070
     0
1000
MTEXTEND
  0
POINT
  5
14D65
330
1456A
100
AcDbEntity
  8
DEFPOINTS
 62
     0
100
AcDbPoint
 10
-2309.013725497771
 20
1879.799299727277
 30
0.0
  0
POINT
  5
14D66
330
1456A
100
AcDbEntity
  8
DEFPOINTS
 62
     0
100
AcDbPoint
 10
-2312.01364042539
 20
1874.799299727277
 30
0.0
  0
POINT
  5
14D67
330
1456A
100
AcDbEntity
  8
DEFPOINTS
 62
     0
100
AcDbPoint
 10
-2312.01364042539
 20
1830.299299727275
 30
0.0
  0
ENDBLK
  5
14577
330
1456A
100
AcDbEntity
  8
0
100
AcDbBlockEnd
  0
BLOCK
  5
14584
330
14578
100
AcDbEntity
  8
0
100
AcDbBlockBegin
  2
*D104
 70
     1
 10
0.0
 20
0.0
 30
0.0
  3
*D104
  1

  0
LINE
  5
14D49
330
14578
100
AcDbEntity
  8
SUNPOU
 62
     1
100
AcDbLine
 10
-2365.013640425478
 20
1855.299299727426
 30
0.0
 11
-2365.013640425478
 21
1829.799299727276
 31
0.0
  0
LINE
  5
14D4A
330
14578
100
AcDbEntity
  8
SUNPOU
 62
     1
100
AcDbLine
 10
-2368.013640425389
 20
1872.718507003822
 30
0.0
 11
-2368.013640425389
 21
1829.799299727276
 31
0.0
  0
LINE
  5
14D4B
330
14578
100
AcDbEntity
  8
SUNPOU
 62
     1
100
AcDbLine
 10
-2362.013640425478
 20
1830.299299727276
 30
0.0
 11
-2359.013640425478
 21
1830.299299727276
 31
0.0
  0
LINE
  5
14D4C
330
14578
100
AcDbEntity
  8
SUNPOU
 62
     1
100
AcDbLine
 10
-2371.013640425389
 20
1830.299299727276
 30
0.0
 11
-2383.013640425389
 21
1830.299299727276
 31
0.0
  0
LINE
  5
14D4D
330
14578
100
AcDbEntity
  8
SUNPOU
 62
     1
100
AcDbLine
 10
-2365.013640425478
 20
1830.299299727276
 30
0.0
 11
-2368.013640425389
 21
1830.299299727276
 31
0.0
  0
SOLID
  5
14D4E
330
14578
100
AcDbEntity
  8
SUNPOU
 62
     1
100
AcDbTrace
 10
-2362.013640425478
 20
1830.799299727276
 30
0.0
 11
-2362.013640425478
 21
1829.799299727276
 31
0.0
 12
-2365.013640425478
 22
1830.299299727276
 32
0.0
 13
-2365.013640425478
 23
1830.299299727276
 33
0.0
  0
SOLID
  5
14D4F
330
14578
100
AcDbEntity
  8
SUNPOU
 62
     1
100
AcDbTrace
 10
-2371.013640425389
 20
1830.799299727276
 30
0.0
 11
-2371.013640425389
 21
1829.799299727276
 31
0.0
 12
-2368.013640425389
 22
1830.299299727276
 32
0.0
 13
-2368.013640425389
 23
1830.299299727276
 33
0.0
  0
MTEXT
  5
14D50
330
14578
100
AcDbEntity
  8
SUNPOU
 62
     1
100
AcDbMText
 10
-2378.513640425389
 20
1833.049299727275
 30
0.0
 40
3.5
 41
0.0
 71
     5
 72
     1
  1
\A1;(3)
1001
ACAD
1000
MTEXTBEGIN
1070
    73
1070
     1
1070
    44
1040
1.0
1070
    74
1070
     0
1000
MTEXTEND
  0
POINT
  5
14D51
330
14578
100
AcDbEntity
  8
DEFPOINTS
 62
     0
100
AcDbPoint
 10
-2365.013640425478
 20
1855.799299727426
 30
0.0
  0
POINT
  5
14D52
330
14578
100
AcDbEntity
  8
DEFPOINTS
 62
     0
100
AcDbPoint
 10
-2368.013640425389
 20
1873.218507003823
 30
0.0
  0
POINT
  5
14D53
330
14578
100
AcDbEntity
  8
DEFPOINTS
 62
     0
100
AcDbPoint
 10
-2368.013640425389
 20
1830.299299727276
 30
0.0
  0
ENDBLK
  5
14585
330
14578
100
AcDbEntity
  8
0
100
AcDbBlockEnd
  0
BLOCK
  5
14590
330
14586
100
AcDbEntity
  8
0
100
AcDbBlockBegin
  2
*D105
 70
     1
 10
0.0
 20
0.0
 30
0.0
  3
*D105
  1

  0
LINE
  5
14D1C
330
14586
100
AcDbEntity
  8
SUNPOU
 62
     1
100
AcDbLine
 10
-2435.013025780783
 20
1853.799299727277
 30
0.0
 11
-2435.013025780783
 21
1829.799299727277
 31
0.0
  0
LINE
  5
14D1D
330
14586
100
AcDbEntity
  8
SUNPOU
 62
     1
100
AcDbLine
 10
-2570.013025780783
 20
1839.799299727277
 30
0.0
 11
-2570.013025780783
 21
1829.799299727277
 31
0.0
  0
LINE
  5
14D1E
330
14586
100
AcDbEntity
  8
SUNPOU
 62
     1
100
AcDbLine
 10
-2438.013025780783
 20
1830.299299727277
 30
0.0
 11
-2567.013025780783
 21
1830.299299727277
 31
0.0
  0
SOLID
  5
14D1F
330
14586
100
AcDbEntity
  8
SUNPOU
 62
     1
100
AcDbTrace
 10
-2438.013025780783
 20
1830.799299727277
 30
0.0
 11
-2438.013025780783
 21
1829.799299727277
 31
0.0
 12
-2435.013025780783
 22
1830.299299727277
 32
0.0
 13
-2435.013025780783
 23
1830.299299727277
 33
0.0
  0
SOLID
  5
14D20
330
14586
100
AcDbEntity
  8
SUNPOU
 62
     1
100
AcDbTrace
 10
-2567.013025780783
 20
1830.799299727277
 30
0.0
 11
-2567.013025780783
 21
1829.799299727277
 31
0.0
 12
-2570.013025780783
 22
1830.299299727277
 32
0.0
 13
-2570.013025780783
 23
1830.299299727277
 33
0.0
  0
MTEXT
  5
14D21
330
14586
100
AcDbEntity
  8
SUNPOU
 62
     1
100
AcDbMText
 10
-2502.513025780783
 20
1833.049299727277
 30
0.0
 40
3.5
 41
0.0
 71
     5
 72
     1
  1
\A1;135
1001
ACAD
1000
MTEXTBEGIN
1070
    73
1070
     1
1070
    44
1040
1.0
1070
    74
1070
     0
1000
MTEXTEND
  0
POINT
  5
14D22
330
14586
100
AcDbEntity
  8
DEFPOINTS
 62
     0
100
AcDbPoint
 10
-2435.013025780783
 20
1854.299299727277
 30
0.0
  0
POINT
  5
14D23
330
14586
100
AcDbEntity
  8
DEFPOINTS
 62
     0
100
AcDbPoint
 10
-2570.013025780783
 20
1840.299299727277
 30
0.0
  0
POINT
  5
14D24
330
14586
100
AcDbEntity
  8
DEFPOINTS
 62
     0
100
AcDbPoint
 10
-2570.013025780783
 20
1830.299299727277
 30
0.0
  0
ENDBLK
  5
14591
330
14586
100
AcDbEntity
  8
0
100
AcDbBlockEnd
  0
BLOCK
  5
1459C
330
14592
100
AcDbEntity
  8
0
100
AcDbBlockBegin
  2
*D106
 70
     1
 10
0.0
 20
0.0
 30
0.0
  3
*D106
  1

  0
LINE
  5
14F38
330
14592
100
AcDbEntity
  8
SUNPOU
 62
     1
100
AcDbLine
 10
-2420.513025780782
 20
1862.759299727277
 30
0.0
 11
-2420.513025780782
 21
1829.781213540757
 31
0.0
  0
LINE
  5
14F39
330
14592
100
AcDbEntity
  8
SUNPOU
 62
     1
100
AcDbLine
 10
-2435.013025780783
 20
1853.799299727277
 30
0.0
 11
-2435.013025780783
 21
1829.781213540757
 31
0.0
  0
LINE
  5
14F3A
330
14592
100
AcDbEntity
  8
SUNPOU
 62
     1
100
AcDbLine
 10
-2432.013025780783
 20
1830.281213540757
 30
0.0
 11
-2423.513025780782
 21
1830.281213540757
 31
0.0
  0
LINE
  5
14F3B
330
14592
100
AcDbEntity
  8
SUNPOU
 62
     1
100
AcDbLine
 10
-2420.513025780782
 20
1830.281213540757
 30
0.0
 11
-2401.513025780782
 21
1830.281213540757
 31
0.0
  0
SOLID
  5
14F3C
330
14592
100
AcDbEntity
  8
SUNPOU
 62
     1
100
AcDbTrace
 10
-2432.013025780783
 20
1830.781213540757
 30
0.0
 11
-2432.013025780783
 21
1829.781213540757
 31
0.0
 12
-2435.013025780783
 22
1830.281213540757
 32
0.0
 13
-2435.013025780783
 23
1830.281213540757
 33
0.0
  0
SOLID
  5
14F3D
330
14592
100
AcDbEntity
  8
SUNPOU
 62
     1
100
AcDbTrace
 10
-2423.513025780782
 20
1830.781213540757
 30
0.0
 11
-2423.513025780782
 21
1829.781213540757
 31
0.0
 12
-2420.513025780782
 22
1830.281213540757
 32
0.0
 13
-2420.513025780782
 23
1830.281213540757
 33
0.0
  0
MTEXT
  5
14F3E
330
14592
100
AcDbEntity
  8
SUNPOU
 62
     1
100
AcDbMText
 10
-2409.513025780782
 20
1833.031213540757
 30
0.0
 40
3.5
 41
0.0
 71
     5
 72
     1
  1
\A1;(14.5)
1001
ACAD
1000
MTEXTBEGIN
1070
    73
1070
     1
1070
    44
1040
1.0
1070
    74
1070
     0
1000
MTEXTEND
  0
POINT
  5
14F3F
330
14592
100
AcDbEntity
  8
DEFPOINTS
 62
     0
100
AcDbPoint
 10
-2420.513025780782
 20
1863.259299727277
 30
0.0
  0
POINT
  5
14F40
330
14592
100
AcDbEntity
  8
DEFPOINTS
 62
     0
100
AcDbPoint
 10
-2435.013025780783
 20
1854.299299727277
 30
0.0
  0
POINT
  5
14F41
330
14592
100
AcDbEntity
  8
DEFPOINTS
 62
     0
100
AcDbPoint
 10
-2435.013025780783
 20
1830.281213540757
 30
0.0
  0
ENDBLK
  5
1459D
330
14592
100
AcDbEntity
  8
0
100
AcDbBlockEnd
  0
BLOCK
  5
145A8
330
1459E
100
AcDbEntity
  8
0
100
AcDbBlockBegin
  2
*D107
 70
     1
 10
0.0
 20
0.0
 30
0.0
  3
*D107
  1

  0
LINE
  5
14CF7
330
1459E
100
AcDbEntity
  8
SUNPOU
 62
     1
100
AcDbLine
 10
-2566.513025780783
 20
2010.299299727277
 30
0.0
 11
-2404.013025780783
 21
2010.299299727277
 31
0.0
  0
LINE
  5
14CF8
330
1459E
100
AcDbEntity
  8
SUNPOU
 62
     1
100
AcDbLine
 10
-2434.513025780783
 20
1996.299299727277
 30
0.0
 11
-2404.013025780783
 21
1996.299299727277
 31
0.0
  0
LINE
  5
14CF9
330
1459E
100
AcDbEntity
  8
SUNPOU
 62
     1
100
AcDbLine
 10
-2404.513025780783
 20
2007.299299727277
 30
0.0
 11
-2404.513025780783
 21
1999.299299727277
 31
0.0
  0
SOLID
  5
14CFA
330
1459E
100
AcDbEntity
  8
SUNPOU
 62
     1
100
AcDbTrace
 10
-2405.013025780783
 20
2007.299299727277
 30
0.0
 11
-2404.013025780783
 21
2007.299299727277
 31
0.0
 12
-2404.513025780783
 22
2010.299299727277
 32
0.0
 13
-2404.513025780783
 23
2010.299299727277
 33
0.0
  0
SOLID
  5
14CFB
330
1459E
100
AcDbEntity
  8
SUNPOU
 62
     1
100
AcDbTrace
 10
-2405.013025780783
 20
1999.299299727277
 30
0.0
 11
-2404.013025780783
 21
1999.299299727277
 31
0.0
 12
-2404.513025780783
 22
1996.299299727277
 32
0.0
 13
-2404.513025780783
 23
1996.299299727277
 33
0.0
  0
MTEXT
  5
14CFC
330
1459E
100
AcDbEntity
  8
SUNPOU
 62
     1
100
AcDbMText
 10
-2407.263025780784
 20
2003.299299727277
 30
0.0
 40
3.5
 41
0.0
 71
     5
 72
     1
  1
\A1;14
 11
0.0000000000000001
 21
1.0
 31
0.0
1001
ACAD
1000
MTEXTBEGIN
1070
    73
1070
     1
1070
    44
1040
1.0
1070
    74
1070
     0
1000
MTEXTEND
  0
POINT
  5
14CFD
330
1459E
100
AcDbEntity
  8
DEFPOINTS
 62
     0
100
AcDbPoint
 10
-2567.013025780783
 20
2010.299299727277
 30
0.0
  0
POINT
  5
14CFE
330
1459E
100
AcDbEntity
  8
DEFPOINTS
 62
     0
100
AcDbPoint
 10
-2435.013025780783
 20
1996.299299727277
 30
0.0
  0
POINT
  5
14CFF
330
1459E
100
AcDbEntity
  8
DEFPOINTS
 62
     0
100
AcDbPoint
 10
-2404.513025780783
 20
1996.299299727277
 30
0.0
  0
ENDBLK
  5
145A9
330
1459E
100
AcDbEntity
  8
0
100
AcDbBlockEnd
  0
BLOCK
  5
145B4
330
145AA
100
AcDbEntity
  8
0
100
AcDbBlockBegin
  2
*D108
 70
     1
 10
0.0
 20
0.0
 30
0.0
  3
*D108
  1

  0
LINE
  5
14D00
330
145AA
100
AcDbEntity
  8
SUNPOU
 62
     1
100
AcDbLine
 10
-2434.513025780783
 20
1996.299299727277
 30
0.0
 11
-2404.013025780783
 21
1996.299299727277
 31
0.0
  0
LINE
  5
14D01
330
145AA
100
AcDbEntity
  8
SUNPOU
 62
     1
100
AcDbLine
 10
-2434.513025780783
 20
1854.299299727277
 30
0.0
 11
-2404.013025780783
 21
1854.299299727277
 31
0.0
  0
LINE
  5
14D02
330
145AA
100
AcDbEntity
  8
SUNPOU
 62
     1
100
AcDbLine
 10
-2404.513025780783
 20
1993.299299727277
 30
0.0
 11
-2404.513025780783
 21
1857.299299727277
 31
0.0
  0
SOLID
  5
14D03
330
145AA
100
AcDbEntity
  8
SUNPOU
 62
     1
100
AcDbTrace
 10
-2405.013025780783
 20
1993.299299727277
 30
0.0
 11
-2404.013025780783
 21
1993.299299727277
 31
0.0
 12
-2404.513025780783
 22
1996.299299727277
 32
0.0
 13
-2404.513025780783
 23
1996.299299727277
 33
0.0
  0
SOLID
  5
14D04
330
145AA
100
AcDbEntity
  8
SUNPOU
 62
     1
100
AcDbTrace
 10
-2405.013025780783
 20
1857.299299727277
 30
0.0
 11
-2404.013025780783
 21
1857.299299727277
 31
0.0
 12
-2404.513025780783
 22
1854.299299727277
 32
0.0
 13
-2404.513025780783
 23
1854.299299727277
 33
0.0
  0
MTEXT
  5
14D05
330
145AA
100
AcDbEntity
  8
SUNPOU
 62
     1
100
AcDbMText
 10
-2407.263025780784
 20
1925.299299727277
 30
0.0
 40
3.5
 41
0.0
 71
     5
 72
     1
  1
\A1;142
 11
0.0000000000000001
 21
1.0
 31
0.0
1001
ACAD
1000
MTEXTBEGIN
1070
    73
1070
     1
1070
    44
1040
1.0
1070
    74
1070
     0
1000
MTEXTEND
  0
POINT
  5
14D06
330
145AA
100
AcDbEntity
  8
DEFPOINTS
 62
     0
100
AcDbPoint
 10
-2435.013025780783
 20
1996.299299727277
 30
0.0
  0
POINT
  5
14D07
330
145AA
100
AcDbEntity
  8
DEFPOINTS
 62
     0
100
AcDbPoint
 10
-2435.013025780783
 20
1854.299299727277
 30
0.0
  0
POINT
  5
14D08
330
145AA
100
AcDbEntity
  8
DEFPOINTS
 62
     0
100
AcDbPoint
 10
-2404.513025780783
 20
1854.299299727277
 30
0.0
  0
ENDBLK
  5
145B5
330
145AA
100
AcDbEntity
  8
0
100
AcDbBlockEnd
  0
BLOCK
  5
145C0
330
145B6
100
AcDbEntity
  8
0
100
AcDbBlockBegin
  2
*D109
 70
     1
 10
0.0
 20
0.0
 30
0.0
  3
*D109
  1

  0
LINE
  5
14D09
330
145B6
100
AcDbEntity
  8
SUNPOU
 62
     1
100
AcDbLine
 10
-2434.513025780783
 20
1854.299299727277
 30
0.0
 11
-2404.013025780783
 21
1854.299299727277
 31
0.0
  0
LINE
  5
14D0A
330
145B6
100
AcDbEntity
  8
SUNPOU
 62
     1
100
AcDbLine
 10
-2566.513025780783
 20
1840.299299727277
 30
0.0
 11
-2404.013025780783
 21
1840.299299727277
 31
0.0
  0
LINE
  5
14D0B
330
145B6
100
AcDbEntity
  8
SUNPOU
 62
     1
100
AcDbLine
 10
-2404.513025780783
 20
1851.299299727277
 30
0.0
 11
-2404.513025780783
 21
1843.299299727277
 31
0.0
  0
SOLID
  5
14D0C
330
145B6
100
AcDbEntity
  8
SUNPOU
 62
     1
100
AcDbTrace
 10
-2405.013025780783
 20
1851.299299727277
 30
0.0
 11
-2404.013025780783
 21
1851.299299727277
 31
0.0
 12
-2404.513025780783
 22
1854.299299727277
 32
0.0
 13
-2404.513025780783
 23
1854.299299727277
 33
0.0
  0
SOLID
  5
14D0D
330
145B6
100
AcDbEntity
  8
SUNPOU
 62
     1
100
AcDbTrace
 10
-2405.013025780783
 20
1843.299299727277
 30
0.0
 11
-2404.013025780783
 21
1843.299299727277
 31
0.0
 12
-2404.513025780783
 22
1840.299299727277
 32
0.0
 13
-2404.513025780783
 23
1840.299299727277
 33
0.0
  0
MTEXT
  5
14D0E
330
145B6
100
AcDbEntity
  8
SUNPOU
 62
     1
100
AcDbMText
 10
-2407.263025780784
 20
1847.299299727277
 30
0.0
 40
3.5
 41
0.0
 71
     5
 72
     1
  1
\A1;14
 11
0.0000000000000001
 21
1.0
 31
0.0
1001
ACAD
1000
MTEXTBEGIN
1070
    73
1070
     1
1070
    44
1040
1.0
1070
    74
1070
     0
1000
MTEXTEND
  0
POINT
  5
14D0F
330
145B6
100
AcDbEntity
  8
DEFPOINTS
 62
     0
100
AcDbPoint
 10
-2435.013025780783
 20
1854.299299727277
 30
0.0
  0
POINT
  5
14D10
330
145B6
100
AcDbEntity
  8
DEFPOINTS
 62
     0
100
AcDbPoint
 10
-2567.013025780783
 20
1840.299299727277
 30
0.0
  0
POINT
  5
14D11
330
145B6
100
AcDbEntity
  8
DEFPOINTS
 62
     0
100
AcDbPoint
 10
-2404.513025780783
 20
1840.299299727277
 30
0.0
  0
ENDBLK
  5
145C1
330
145B6
100
AcDbEntity
  8
0
100
AcDbBlockEnd
  0
BLOCK
  5
145CC
330
145C2
100
AcDbEntity
  8
0
100
AcDbBlockBegin
  2
*D110
 70
     1
 10
0.0
 20
0.0
 30
0.0
  3
*D110
  1

  0
LINE
  5
14D40
330
145C2
100
AcDbEntity
  8
SUNPOU
 62
     1
100
AcDbLine
 10
-2309.013725497771
 20
1879.299299727277
 30
0.0
 11
-2309.013725497771
 21
1809.799299727276
 31
0.0
  0
LINE
  5
14D41
330
145C2
100
AcDbEntity
  8
SUNPOU
 62
     1
100
AcDbLine
 10
-2368.013640425389
 20
1872.718507003822
 30
0.0
 11
-2368.013640425389
 21
1809.799299727276
 31
0.0
  0
LINE
  5
14D42
330
145C2
100
AcDbEntity
  8
SUNPOU
 62
     1
100
AcDbLine
 10
-2312.013725497771
 20
1810.299299727276
 30
0.0
 11
-2365.013640425389
 21
1810.299299727276
 31
0.0
  0
SOLID
  5
14D43
330
145C2
100
AcDbEntity
  8
SUNPOU
 62
     1
100
AcDbTrace
 10
-2312.013725497771
 20
1810.799299727276
 30
0.0
 11
-2312.013725497771
 21
1809.799299727276
 31
0.0
 12
-2309.013725497771
 22
1810.299299727276
 32
0.0
 13
-2309.013725497771
 23
1810.299299727276
 33
0.0
  0
SOLID
  5
14D44
330
145C2
100
AcDbEntity
  8
SUNPOU
 62
     1
100
AcDbTrace
 10
-2365.013640425389
 20
1810.799299727276
 30
0.0
 11
-2365.013640425389
 21
1809.799299727276
 31
0.0
 12
-2368.013640425389
 22
1810.299299727276
 32
0.0
 13
-2368.013640425389
 23
1810.299299727276
 33
0.0
  0
MTEXT
  5
14D45
330
145C2
100
AcDbEntity
  8
SUNPOU
 62
     1
100
AcDbMText
 10
-2338.51368296158
 20
1813.049299727276
 30
0.0
 40
3.5
 41
0.0
 71
     5
 72
     1
  1
\A1;59
1001
ACAD
1000
MTEXTBEGIN
1070
    73
1070
     1
1070
    44
1040
1.0
1070
    74
1070
     0
1000
MTEXTEND
  0
POINT
  5
14D46
330
145C2
100
AcDbEntity
  8
DEFPOINTS
 62
     0
100
AcDbPoint
 10
-2309.013725497771
 20
1879.799299727277
 30
0.0
  0
POINT
  5
14D47
330
145C2
100
AcDbEntity
  8
DEFPOINTS
 62
     0
100
AcDbPoint
 10
-2368.013640425389
 20
1873.218507003823
 30
0.0
  0
POINT
  5
14D48
330
145C2
100
AcDbEntity
  8
DEFPOINTS
 62
     0
100
AcDbPoint
 10
-2368.013640425389
 20
1810.299299727276
 30
0.0
  0
ENDBLK
  5
145CD
330
145C2
100
AcDbEntity
  8
0
100
AcDbBlockEnd
  0
BLOCK
  5
145DA
330
145CE
100
AcDbEntity
  8
0
100
AcDbBlockBegin
  2
*D111
 70
     1
 10
0.0
 20
0.0
 30
0.0
  3
*D111
  1

  0
LINE
  5
14E7E
330
145CE
100
AcDbEntity
  8
SUNPOU
 62
     1
100
AcDbLine
 10
-2365.013640425389
 20
1995.299299727276
 30
0.0
 11
-2365.013640425389
 21
2023.230219168496
 31
0.0
  0
LINE
  5
14E7F
330
145CE
100
AcDbEntity
  8
SUNPOU
 62
     1
100
AcDbLine
 10
-2348.513640425389
 20
2009.799299727276
 30
0.0
 11
-2348.513640425389
 21
2023.230219168496
 31
0.0
  0
LINE
  5
14E80
330
145CE
100
AcDbEntity
  8
SUNPOU
 62
     1
100
AcDbLine
 10
-2351.513640425389
 20
2022.730219168497
 30
0.0
 11
-2362.013640425389
 21
2022.730219168497
 31
0.0
  0
LINE
  5
14E81
330
145CE
100
AcDbEntity
  8
SUNPOU
 62
     1
100
AcDbLine
 10
-2365.013640425389
 20
2022.730219168497
 30
0.0
 11
-2379.346973758722
 21
2022.730219168497
 31
0.0
  0
SOLID
  5
14E82
330
145CE
100
AcDbEntity
  8
SUNPOU
 62
     1
100
AcDbTrace
 10
-2351.513640425389
 20
2023.230219168496
 30
0.0
 11
-2351.513640425389
 21
2022.230219168497
 31
0.0
 12
-2348.513640425389
 22
2022.730219168497
 32
0.0
 13
-2348.513640425389
 23
2022.730219168497
 33
0.0
  0
SOLID
  5
14E83
330
145CE
100
AcDbEntity
  8
SUNPOU
 62
     1
100
AcDbTrace
 10
-2362.013640425389
 20
2023.230219168496
 30
0.0
 11
-2362.013640425389
 21
2022.230219168497
 31
0.0
 12
-2365.013640425389
 22
2022.730219168497
 32
0.0
 13
-2365.013640425389
 23
2022.730219168497
 33
0.0
  0
MTEXT
  5
14E84
330
145CE
100
AcDbEntity
  8
SUNPOU
 62
     1
100
AcDbMText
 10
-2373.680307092056
 20
2025.480219168497
 30
0.0
 40
3.5
 41
0.0
 71
     5
 72
     1
  1
\A1;16.5
1001
ACAD
1000
MTEXTBEGIN
1070
    73
1070
     1
1070
    44
1040
1.0
1070
    74
1070
     0
1000
MTEXTEND
  0
POINT
  5
14E85
330
145CE
100
AcDbEntity
  8
DEFPOINTS
 62
     0
100
AcDbPoint
 10
-2365.013640425389
 20
1994.799299727277
 30
0.0
  0
POINT
  5
14E86
330
145CE
100
AcDbEntity
  8
DEFPOINTS
 62
     0
100
AcDbPoint
 10
-2348.513640425389
 20
2009.299299727276
 30
0.0
  0
POINT
  5
14E87
330
145CE
100
AcDbEntity
  8
DEFPOINTS
 62
     0
100
AcDbPoint
 10
-2348.513640425389
 20
2022.730219168497
 30
0.0
  0
ENDBLK
  5
145DB
330
145CE
100
AcDbEntity
  8
0
100
AcDbBlockEnd
  0
BLOCK
  5
145E6
330
145DC
100
AcDbEntity
  8
0
100
AcDbBlockBegin
  2
*D112
 70
     1
 10
0.0
 20
0.0
 30
0.0
  3
*D112
  1

  0
LINE
  5
14D99
330
145DC
100
AcDbEntity
  8
SUNPOU
 62
     1
100
AcDbLine
 10
-2348.513640425389
 20
2009.799299727276
 30
0.0
 11
-2348.513640425389
 21
2015.799299727276
 31
0.0
  0
LINE
  5
14D9A
330
145DC
100
AcDbEntity
  8
SUNPOU
 62
     1
100
AcDbLine
 10
-2332.513640425389
 20
2009.799299727276
 30
0.0
 11
-2332.513640425389
 21
2015.799299727276
 31
0.0
  0
LINE
  5
14D9B
330
145DC
100
AcDbEntity
  8
SUNPOU
 62
     1
100
AcDbLine
 10
-2345.513640425389
 20
2015.299299727276
 30
0.0
 11
-2335.513640425389
 21
2015.299299727276
 31
0.0
  0
SOLID
  5
14D9C
330
145DC
100
AcDbEntity
  8
SUNPOU
 62
     1
100
AcDbTrace
 10
-2345.513640425389
 20
2015.799299727276
 30
0.0
 11
-2345.513640425389
 21
2014.799299727276
 31
0.0
 12
-2348.513640425389
 22
2015.299299727276
 32
0.0
 13
-2348.513640425389
 23
2015.299299727276
 33
0.0
  0
SOLID
  5
14D9D
330
145DC
100
AcDbEntity
  8
SUNPOU
 62
     1
100
AcDbTrace
 10
-2335.513640425389
 20
2015.799299727276
 30
0.0
 11
-2335.513640425389
 21
2014.799299727276
 31
0.0
 12
-2332.513640425389
 22
2015.299299727276
 32
0.0
 13
-2332.513640425389
 23
2015.299299727276
 33
0.0
  0
MTEXT
  5
14D9E
330
145DC
100
AcDbEntity
  8
SUNPOU
 62
     1
100
AcDbMText
 10
-2340.513640425389
 20
2018.049299727276
 30
0.0
 40
3.5
 41
0.0
 71
     5
 72
     1
  1
\A1;16
1001
ACAD
1000
MTEXTBEGIN
1070
    73
1070
     1
1070
    44
1040
1.0
1070
    74
1070
     0
1000
MTEXTEND
  0
POINT
  5
14D9F
330
145DC
100
AcDbEntity
  8
DEFPOINTS
 62
     0
100
AcDbPoint
 10
-2348.513640425389
 20
2009.299299727276
 30
0.0
  0
POINT
  5
14DA0
330
145DC
100
AcDbEntity
  8
DEFPOINTS
 62
     0
100
AcDbPoint
 10
-2332.513640425389
 20
2009.299299727276
 30
0.0
  0
POINT
  5
14DA1
330
145DC
100
AcDbEntity
  8
DEFPOINTS
 62
     0
100
AcDbPoint
 10
-2332.513640425389
 20
2015.299299727276
 30
0.0
  0
ENDBLK
  5
145E7
330
145DC
100
AcDbEntity
  8
0
100
AcDbBlockEnd
  0
BLOCK
  5
145F2
330
145E8
100
AcDbEntity
  8
0
100
AcDbBlockBegin
  2
*D113
 70
     1
 10
0.0
 20
0.0
 30
0.0
  3
*D113
  1

  0
LINE
  5
14DC1
330
145E8
100
AcDbEntity
  8
SUNPOU
 62
     1
100
AcDbLine
 10
-2348.513640425389
 20
2009.799299727276
 30
0.0
 11
-2348.513640425389
 21
2023.236691600456
 31
0.0
  0
LINE
  5
14DC2
330
145E8
100
AcDbEntity
  8
SUNPOU
 62
     1
100
AcDbLine
 10
-2328.513640425389
 20
2009.799299727276
 30
0.0
 11
-2328.513640425389
 21
2023.236691600456
 31
0.0
  0
LINE
  5
14DC3
330
145E8
100
AcDbEntity
  8
SUNPOU
 62
     1
100
AcDbLine
 10
-2345.513640425389
 20
2022.736691600456
 30
0.0
 11
-2331.513640425389
 21
2022.736691600456
 31
0.0
  0
SOLID
  5
14DC4
330
145E8
100
AcDbEntity
  8
SUNPOU
 62
     1
100
AcDbTrace
 10
-2345.513640425389
 20
2023.236691600456
 30
0.0
 11
-2345.513640425389
 21
2022.236691600456
 31
0.0
 12
-2348.513640425389
 22
2022.736691600456
 32
0.0
 13
-2348.513640425389
 23
2022.736691600456
 33
0.0
  0
SOLID
  5
14DC5
330
145E8
100
AcDbEntity
  8
SUNPOU
 62
     1
100
AcDbTrace
 10
-2331.513640425389
 20
2023.236691600456
 30
0.0
 11
-2331.513640425389
 21
2022.236691600456
 31
0.0
 12
-2328.513640425389
 22
2022.736691600456
 32
0.0
 13
-2328.513640425389
 23
2022.736691600456
 33
0.0
  0
MTEXT
  5
14DC6
330
145E8
100
AcDbEntity
  8
SUNPOU
 62
     1
100
AcDbMText
 10
-2338.513640425389
 20
2025.486691600456
 30
0.0
 40
3.5
 41
0.0
 71
     5
 72
     1
  1
\A1;20
1001
ACAD
1000
MTEXTBEGIN
1070
    73
1070
     1
1070
    44
1040
1.0
1070
    74
1070
     0
1000
MTEXTEND
  0
POINT
  5
14DC7
330
145E8
100
AcDbEntity
  8
DEFPOINTS
 62
     0
100
AcDbPoint
 10
-2348.513640425389
 20
2009.299299727276
 30
0.0
  0
POINT
  5
14DC8
330
145E8
100
AcDbEntity
  8
DEFPOINTS
 62
     0
100
AcDbPoint
 10
-2328.513640425389
 20
2009.299299727276
 30
0.0
  0
POINT
  5
14DC9
330
145E8
100
AcDbEntity
  8
DEFPOINTS
 62
     0
100
AcDbPoint
 10
-2328.513640425389
 20
2022.736691600456
 30
0.0
  0
ENDBLK
  5
145F3
330
145E8
100
AcDbEntity
  8
0
100
AcDbBlockEnd
  0
BLOCK
  5
145FE
330
145F4
100
AcDbEntity
  8
0
100
AcDbBlockBegin
  2
*D114
 70
     1
 10
0.0
 20
0.0
 30
0.0
  3
*D114
  1

  0
LINE
  5
14DAD
330
145F4
100
AcDbEntity
  8
SUNPOU
 62
     1
100
AcDbLine
 10
-2320.013640425389
 20
2008.799299727276
 30
0.0
 11
-2320.013640425389
 21
2030.799299727276
 31
0.0
  0
LINE
  5
14DAE
330
145F4
100
AcDbEntity
  8
SUNPOU
 62
     1
100
AcDbLine
 10
-2357.013640425389
 20
2008.799299727276
 30
0.0
 11
-2357.013640425389
 21
2030.799299727276
 31
0.0
  0
LINE
  5
14DAF
330
145F4
100
AcDbEntity
  8
SUNPOU
 62
     1
100
AcDbLine
 10
-2323.013640425389
 20
2030.299299727276
 30
0.0
 11
-2354.013640425389
 21
2030.299299727276
 31
0.0
  0
SOLID
  5
14DB0
330
145F4
100
AcDbEntity
  8
SUNPOU
 62
     1
100
AcDbTrace
 10
-2323.013640425389
 20
2030.799299727276
 30
0.0
 11
-2323.013640425389
 21
2029.799299727276
 31
0.0
 12
-2320.013640425389
 22
2030.299299727276
 32
0.0
 13
-2320.013640425389
 23
2030.299299727276
 33
0.0
  0
SOLID
  5
14DB1
330
145F4
100
AcDbEntity
  8
SUNPOU
 62
     1
100
AcDbTrace
 10
-2354.013640425389
 20
2030.799299727276
 30
0.0
 11
-2354.013640425389
 21
2029.799299727276
 31
0.0
 12
-2357.013640425389
 22
2030.299299727276
 32
0.0
 13
-2357.013640425389
 23
2030.299299727276
 33
0.0
  0
MTEXT
  5
14DB2
330
145F4
100
AcDbEntity
  8
SUNPOU
 62
     1
100
AcDbMText
 10
-2338.513640425389
 20
2033.049299727276
 30
0.0
 40
3.5
 41
0.0
 71
     5
 72
     1
  1
\A1;37
1001
ACAD
1000
MTEXTBEGIN
1070
    73
1070
     1
1070
    44
1040
1.0
1070
    74
1070
     0
1000
MTEXTEND
  0
POINT
  5
14DB3
330
145F4
100
AcDbEntity
  8
DEFPOINTS
 62
     0
100
AcDbPoint
 10
-2320.013640425389
 20
2008.299299727276
 30
0.0
  0
POINT
  5
14DB4
330
145F4
100
AcDbEntity
  8
DEFPOINTS
 62
     0
100
AcDbPoint
 10
-2357.013640425389
 20
2008.299299727277
 30
0.0
  0
POINT
  5
14DB5
330
145F4
100
AcDbEntity
  8
DEFPOINTS
 62
     0
100
AcDbPoint
 10
-2357.013640425389
 20
2030.299299727276
 30
0.0
  0
ENDBLK
  5
145FF
330
145F4
100
AcDbEntity
  8
0
100
AcDbBlockEnd
  0
BLOCK
  5
1460A
330
14600
100
AcDbEntity
  8
0
100
AcDbBlockBegin
  2
*D115
 70
     1
 10
0.0
 20
0.0
 30
0.0
  3
*D115
  1

  0
LINE
  5
14D25
330
14600
100
AcDbEntity
  8
SUNPOU
 62
     1
100
AcDbLine
 10
-2570.013025780783
 20
1839.799299727277
 30
0.0
 11
-2570.013025780783
 21
1819.860321535341
 31
0.0
  0
LINE
  5
14D26
330
14600
100
AcDbEntity
  8
SUNPOU
 62
     1
100
AcDbLine
 10
-2420.513025780782
 20
1862.759299727277
 30
0.0
 11
-2420.513025780782
 21
1819.860321535341
 31
0.0
  0
LINE
  5
14D27
330
14600
100
AcDbEntity
  8
SUNPOU
 62
     1
100
AcDbLine
 10
-2567.013025780783
 20
1820.360321535341
 30
0.0
 11
-2423.513025780782
 21
1820.360321535341
 31
0.0
  0
SOLID
  5
14D28
330
14600
100
AcDbEntity
  8
SUNPOU
 62
     1
100
AcDbTrace
 10
-2567.013025780783
 20
1820.860321535341
 30
0.0
 11
-2567.013025780783
 21
1819.860321535341
 31
0.0
 12
-2570.013025780783
 22
1820.360321535341
 32
0.0
 13
-2570.013025780783
 23
1820.360321535341
 33
0.0
  0
SOLID
  5
14D29
330
14600
100
AcDbEntity
  8
SUNPOU
 62
     1
100
AcDbTrace
 10
-2423.513025780782
 20
1820.860321535341
 30
0.0
 11
-2423.513025780782
 21
1819.860321535341
 31
0.0
 12
-2420.513025780782
 22
1820.360321535341
 32
0.0
 13
-2420.513025780782
 23
1820.360321535341
 33
0.0
  0
MTEXT
  5
14D2A
330
14600
100
AcDbEntity
  8
SUNPOU
 62
     1
100
AcDbMText
 10
-2495.263025780783
 20
1823.110321535341
 30
0.0
 40
3.5
 41
0.0
 71
     5
 72
     1
  1
\A1;149.5
1001
ACAD
1000
MTEXTBEGIN
1070
    73
1070
     1
1070
    44
1040
1.0
1070
    74
1070
     0
1000
MTEXTEND
  0
POINT
  5
14D2B
330
14600
100
AcDbEntity
  8
DEFPOINTS
 62
     0
100
AcDbPoint
 10
-2570.013025780783
 20
1840.299299727277
 30
0.0
  0
POINT
  5
14D2C
330
14600
100
AcDbEntity
  8
DEFPOINTS
 62
     0
100
AcDbPoint
 10
-2420.513025780782
 20
1863.259299727277
 30
0.0
  0
POINT
  5
14D2D
330
14600
100
AcDbEntity
  8
DEFPOINTS
 62
     0
100
AcDbPoint
 10
-2420.513025780782
 20
1820.360321535341
 30
0.0
  0
ENDBLK
  5
1460B
330
14600
100
AcDbEntity
  8
0
100
AcDbBlockEnd
  0
BLOCK
  5
14616
330
1460C
100
AcDbEntity
  8
0
100
AcDbBlockBegin
  2
*D116
 70
     1
 10
0.0
 20
0.0
 30
0.0
  3
*D116
  1

  0
LINE
  5
14CEE
330
1460C
100
AcDbEntity
  8
SUNPOU
 62
     1
100
AcDbLine
 10
-2556.513025780783
 20
2010.299299727277
 30
0.0
 11
-2394.013025780783
 21
2010.299299727277
 31
0.0
  0
LINE
  5
14CEF
330
1460C
100
AcDbEntity
  8
SUNPOU
 62
     1
100
AcDbLine
 10
-2556.513025780783
 20
1840.299299727277
 30
0.0
 11
-2394.013025780783
 21
1840.299299727277
 31
0.0
  0
LINE
  5
14CF0
330
1460C
100
AcDbEntity
  8
SUNPOU
 62
     1
100
AcDbLine
 10
-2394.513025780783
 20
2007.299299727277
 30
0.0
 11
-2394.513025780783
 21
1843.299299727277
 31
0.0
  0
SOLID
  5
14CF1
330
1460C
100
AcDbEntity
  8
SUNPOU
 62
     1
100
AcDbTrace
 10
-2395.013025780783
 20
2007.299299727277
 30
0.0
 11
-2394.013025780783
 21
2007.299299727277
 31
0.0
 12
-2394.513025780783
 22
2010.299299727277
 32
0.0
 13
-2394.513025780783
 23
2010.299299727277
 33
0.0
  0
SOLID
  5
14CF2
330
1460C
100
AcDbEntity
  8
SUNPOU
 62
     1
100
AcDbTrace
 10
-2395.013025780783
 20
1843.299299727277
 30
0.0
 11
-2394.013025780783
 21
1843.299299727277
 31
0.0
 12
-2394.513025780783
 22
1840.299299727277
 32
0.0
 13
-2394.513025780783
 23
1840.299299727277
 33
0.0
  0
MTEXT
  5
14CF3
330
1460C
100
AcDbEntity
  8
SUNPOU
 62
     1
100
AcDbMText
 10
-2397.263025780783
 20
1925.299299727277
 30
0.0
 40
3.5
 41
0.0
 71
     5
 72
     1
  1
\A1;170
 11
0.0000000000000001
 21
1.0
 31
0.0
1001
ACAD
1000
MTEXTBEGIN
1070
    73
1070
     1
1070
    44
1040
1.0
1070
    74
1070
     0
1000
MTEXTEND
  0
POINT
  5
14CF4
330
1460C
100
AcDbEntity
  8
DEFPOINTS
 62
     0
100
AcDbPoint
 10
-2557.013025780783
 20
2010.299299727277
 30
0.0
  0
POINT
  5
14CF5
330
1460C
100
AcDbEntity
  8
DEFPOINTS
 62
     0
100
AcDbPoint
 10
-2557.013025780783
 20
1840.299299727277
 30
0.0
  0
POINT
  5
14CF6
330
1460C
100
AcDbEntity
  8
DEFPOINTS
 62
     0
100
AcDbPoint
 10
-2394.513025780783
 20
1840.299299727277
 30
0.0
  0
ENDBLK
  5
14617
330
1460C
100
AcDbEntity
  8
0
100
AcDbBlockEnd
  0
BLOCK
  5
14622
330
14618
100
AcDbEntity
  8
0
100
AcDbBlockBegin
  2
*D117
 70
     1
 10
0.0
 20
0.0
 30
0.0
  3
*D117
  1

  0
LINE
  5
14E13
330
14618
100
AcDbEntity
  8
SUNPOU
 62
     1
100
AcDbLine
 10
-2442.013025780784
 20
2096.990398932804
 30
0.0
 11
-2394.013025780784
 21
2096.990398932804
 31
0.0
  0
LINE
  5
14E14
330
14618
100
AcDbEntity
  8
SUNPOU
 62
     1
100
AcDbLine
 10
-2536.513025780783
 20
2037.990398932802
 30
0.0
 11
-2394.013025780784
 21
2037.990398932802
 31
0.0
  0
LINE
  5
14E15
330
14618
100
AcDbEntity
  8
SUNPOU
 62
     1
100
AcDbLine
 10
-2394.513025780784
 20
2093.990398932805
 30
0.0
 11
-2394.513025780784
 21
2040.990398932802
 31
0.0
  0
SOLID
  5
14E16
330
14618
100
AcDbEntity
  8
SUNPOU
 62
     1
100
AcDbTrace
 10
-2395.013025780784
 20
2093.990398932805
 30
0.0
 11
-2394.013025780784
 21
2093.990398932805
 31
0.0
 12
-2394.513025780784
 22
2096.990398932804
 32
0.0
 13
-2394.513025780784
 23
2096.990398932804
 33
0.0
  0
SOLID
  5
14E17
330
14618
100
AcDbEntity
  8
SUNPOU
 62
     1
100
AcDbTrace
 10
-2395.013025780784
 20
2040.990398932802
 30
0.0
 11
-2394.013025780784
 21
2040.990398932802
 31
0.0
 12
-2394.513025780784
 22
2037.990398932802
 32
0.0
 13
-2394.513025780784
 23
2037.990398932802
 33
0.0
  0
MTEXT
  5
14E18
330
14618
100
AcDbEntity
  8
SUNPOU
 62
     1
100
AcDbMText
 10
-2397.263025780784
 20
2067.490398932803
 30
0.0
 40
3.5
 41
0.0
 71
     5
 72
     1
  1
\A1;59
 11
0.0000000000000001
 21
1.0
 31
0.0
1001
ACAD
1000
MTEXTBEGIN
1070
    73
1070
     1
1070
    44
1040
1.0
1070
    74
1070
     0
1000
MTEXTEND
  0
POINT
  5
14E19
330
14618
100
AcDbEntity
  8
DEFPOINTS
 62
     0
100
AcDbPoint
 10
-2442.513025780784
 20
2096.990398932804
 30
0.0
  0
POINT
  5
14E1A
330
14618
100
AcDbEntity
  8
DEFPOINTS
 62
     0
100
AcDbPoint
 10
-2537.013025780783
 20
2037.990398932802
 30
0.0
  0
POINT
  5
14E1B
330
14618
100
AcDbEntity
  8
DEFPOINTS
 62
     0
100
AcDbPoint
 10
-2394.513025780784
 20
2037.990398932802
 30
0.0
  0
ENDBLK
  5
14623
330
14618
100
AcDbEntity
  8
0
100
AcDbBlockEnd
  0
BLOCK
  5
1462E
330
14624
100
AcDbEntity
  8
0
100
AcDbBlockBegin
  2
*D118
 70
     1
 10
0.0
 20
0.0
 30
0.0
  3
*D118
  1

  0
LINE
  5
14E0A
330
14624
100
AcDbEntity
  8
SUNPOU
 62
     1
100
AcDbLine
 10
-2436.013025780785
 20
2093.990398932804
 30
0.0
 11
-2404.013025780784
 21
2093.990398932804
 31
0.0
  0
LINE
  5
14E0B
330
14624
100
AcDbEntity
  8
SUNPOU
 62
     1
100
AcDbLine
 10
-2436.013025780783
 20
2040.990398932805
 30
0.0
 11
-2404.013025780784
 21
2040.990398932805
 31
0.0
  0
LINE
  5
14E0C
330
14624
100
AcDbEntity
  8
SUNPOU
 62
     1
100
AcDbLine
 10
-2404.513025780784
 20
2090.990398932804
 30
0.0
 11
-2404.513025780784
 21
2043.990398932805
 31
0.0
  0
SOLID
  5
14E0D
330
14624
100
AcDbEntity
  8
SUNPOU
 62
     1
100
AcDbTrace
 10
-2405.013025780784
 20
2090.990398932804
 30
0.0
 11
-2404.013025780784
 21
2090.990398932804
 31
0.0
 12
-2404.513025780784
 22
2093.990398932804
 32
0.0
 13
-2404.513025780784
 23
2093.990398932804
 33
0.0
  0
SOLID
  5
14E0E
330
14624
100
AcDbEntity
  8
SUNPOU
 62
     1
100
AcDbTrace
 10
-2405.013025780784
 20
2043.990398932805
 30
0.0
 11
-2404.013025780784
 21
2043.990398932805
 31
0.0
 12
-2404.513025780784
 22
2040.990398932805
 32
0.0
 13
-2404.513025780784
 23
2040.990398932805
 33
0.0
  0
MTEXT
  5
14E0F
330
14624
100
AcDbEntity
  8
SUNPOU
 62
     1
100
AcDbMText
 10
-2407.263025780784
 20
2067.490398932803
 30
0.0
 40
3.5
 41
0.0
 71
     5
 72
     1
  1
\A1;53
 11
0.0000000000000001
 21
1.0
 31
0.0
1001
ACAD
1000
MTEXTBEGIN
1070
    73
1070
     1
1070
    44
1040
1.0
1070
    74
1070
     0
1000
MTEXTEND
  0
POINT
  5
14E10
330
14624
100
AcDbEntity
  8
DEFPOINTS
 62
     0
100
AcDbPoint
 10
-2436.513025780785
 20
2093.990398932804
 30
0.0
  0
POINT
  5
14E11
330
14624
100
AcDbEntity
  8
DEFPOINTS
 62
     0
100
AcDbPoint
 10
-2436.513025780783
 20
2040.990398932805
 30
0.0
  0
POINT
  5
14E12
330
14624
100
AcDbEntity
  8
DEFPOINTS
 62
     0
100
AcDbPoint
 10
-2404.513025780784
 20
2040.990398932805
 30
0.0
  0
ENDBLK
  5
1462F
330
14624
100
AcDbEntity
  8
0
100
AcDbBlockEnd
  0
BLOCK
  5
1463C
330
14630
100
AcDbEntity
  8
0
100
AcDbBlockBegin
  2
*D119
 70
     1
 10
0.0
 20
0.0
 30
0.0
  3
*D119
  1

  0
LINE
  5
14DFF
330
14630
100
AcDbEntity
  8
SUNPOU
 62
     1
100
AcDbLine
 10
-2436.013025780917
 20
2040.990398932806
 30
0.0
 11
-2404.013025780784
 21
2040.990398932806
 31
0.0
  0
LINE
  5
14E00
330
14630
100
AcDbEntity
  8
SUNPOU
 62
     1
100
AcDbLine
 10
-2436.013025780917
 20
2037.990398932802
 30
0.0
 11
-2404.013025780784
 21
2037.990398932802
 31
0.0
  0
LINE
  5
14E01
330
14630
100
AcDbEntity
  8
SUNPOU
 62
     1
100
AcDbLine
 10
-2404.513025780784
 20
2043.990398932806
 30
0.0
 11
-2404.513025780784
 21
2046.990398932805
 31
0.0
  0
LINE
  5
14E02
330
14630
100
AcDbEntity
  8
SUNPOU
 62
     1
100
AcDbLine
 10
-2404.513025780784
 20
2034.990398932802
 30
0.0
 11
-2404.513025780784
 21
2022.990398932802
 31
0.0
  0
LINE
  5
14E03
330
14630
100
AcDbEntity
  8
SUNPOU
 62
     1
100
AcDbLine
 10
-2404.513025780784
 20
2040.990398932806
 30
0.0
 11
-2404.513025780784
 21
2037.990398932802
 31
0.0
  0
SOLID
  5
14E04
330
14630
100
AcDbEntity
  8
SUNPOU
 62
     1
100
AcDbTrace
 10
-2405.013025780784
 20
2043.990398932806
 30
0.0
 11
-2404.013025780784
 21
2043.990398932806
 31
0.0
 12
-2404.513025780784
 22
2040.990398932806
 32
0.0
 13
-2404.513025780784
 23
2040.990398932806
 33
0.0
  0
SOLID
  5
14E05
330
14630
100
AcDbEntity
  8
SUNPOU
 62
     1
100
AcDbTrace
 10
-2405.013025780784
 20
2034.990398932802
 30
0.0
 11
-2404.013025780784
 21
2034.990398932802
 31
0.0
 12
-2404.513025780784
 22
2037.990398932802
 32
0.0
 13
-2404.513025780784
 23
2037.990398932802
 33
0.0
  0
MTEXT
  5
14E06
330
14630
100
AcDbEntity
  8
SUNPOU
 62
     1
100
AcDbMText
 10
-2407.263025780784
 20
2027.490398932802
 30
0.0
 40
3.5
 41
0.0
 71
     5
 72
     1
  1
\A1;(3)
 11
0.0000000000000001
 21
1.0
 31
0.0
1001
ACAD
1000
MTEXTBEGIN
1070
    73
1070
     1
1070
    44
1040
1.0
1070
    74
1070
     0
1000
MTEXTEND
  0
POINT
  5
14E07
330
14630
100
AcDbEntity
  8
DEFPOINTS
 62
     0
100
AcDbPoint
 10
-2436.513025780917
 20
2040.990398932806
 30
0.0
  0
POINT
  5
14E08
330
14630
100
AcDbEntity
  8
DEFPOINTS
 62
     0
100
AcDbPoint
 10
-2436.513025780917
 20
2037.990398932802
 30
0.0
  0
POINT
  5
14E09
330
14630
100
AcDbEntity
  8
DEFPOINTS
 62
     0
100
AcDbPoint
 10
-2404.513025780784
 20
2037.990398932802
 30
0.0
  0
ENDBLK
  5
1463D
330
14630
100
AcDbEntity
  8
0
100
AcDbBlockEnd
  0
BLOCK
  5
1464A
330
1463E
100
AcDbEntity
  8
0
100
AcDbBlockBegin
  2
*D120
 70
     1
 10
0.0
 20
0.0
 30
0.0
  3
*D120
  1

  0
LINE
  5
14DF4
330
1463E
100
AcDbEntity
  8
SUNPOU
 62
     1
100
AcDbLine
 10
-2436.013025780785
 20
2093.990398932804
 30
0.0
 11
-2404.013025780784
 21
2093.990398932804
 31
0.0
  0
LINE
  5
14DF5
330
1463E
100
AcDbEntity
  8
SUNPOU
 62
     1
100
AcDbLine
 10
-2436.013025780785
 20
2096.990398932804
 30
0.0
 11
-2404.013025780784
 21
2096.990398932804
 31
0.0
  0
LINE
  5
14DF6
330
1463E
100
AcDbEntity
  8
SUNPOU
 62
     1
100
AcDbLine
 10
-2404.513025780784
 20
2090.990398932804
 30
0.0
 11
-2404.513025780784
 21
2087.990398932804
 31
0.0
  0
LINE
  5
14DF7
330
1463E
100
AcDbEntity
  8
SUNPOU
 62
     1
100
AcDbLine
 10
-2404.513025780784
 20
2099.990398932805
 30
0.0
 11
-2404.513025780784
 21
2111.990398932805
 31
0.0
  0
LINE
  5
14DF8
330
1463E
100
AcDbEntity
  8
SUNPOU
 62
     1
100
AcDbLine
 10
-2404.513025780784
 20
2093.990398932804
 30
0.0
 11
-2404.513025780784
 21
2096.990398932804
 31
0.0
  0
SOLID
  5
14DF9
330
1463E
100
AcDbEntity
  8
SUNPOU
 62
     1
100
AcDbTrace
 10
-2405.013025780784
 20
2090.990398932804
 30
0.0
 11
-2404.013025780784
 21
2090.990398932804
 31
0.0
 12
-2404.513025780784
 22
2093.990398932804
 32
0.0
 13
-2404.513025780784
 23
2093.990398932804
 33
0.0
  0
SOLID
  5
14DFA
330
1463E
100
AcDbEntity
  8
SUNPOU
 62
     1
100
AcDbTrace
 10
-2405.013025780784
 20
2099.990398932805
 30
0.0
 11
-2404.013025780784
 21
2099.990398932805
 31
0.0
 12
-2404.513025780784
 22
2096.990398932804
 32
0.0
 13
-2404.513025780784
 23
2096.990398932804
 33
0.0
  0
MTEXT
  5
14DFB
330
1463E
100
AcDbEntity
  8
SUNPOU
 62
     1
100
AcDbMText
 10
-2407.263025780784
 20
2107.490398932804
 30
0.0
 40
3.5
 41
0.0
 71
     5
 72
     1
  1
\A1;(3)
 11
0.0000000000000001
 21
1.0
 31
0.0
1001
ACAD
1000
MTEXTBEGIN
1070
    73
1070
     1
1070
    44
1040
1.0
1070
    74
1070
     0
1000
MTEXTEND
  0
POINT
  5
14DFC
330
1463E
100
AcDbEntity
  8
DEFPOINTS
 62
     0
100
AcDbPoint
 10
-2436.513025780785
 20
2093.990398932804
 30
0.0
  0
POINT
  5
14DFD
330
1463E
100
AcDbEntity
  8
DEFPOINTS
 62
     0
100
AcDbPoint
 10
-2436.513025780785
 20
2096.990398932804
 30
0.0
  0
POINT
  5
14DFE
330
1463E
100
AcDbEntity
  8
DEFPOINTS
 62
     0
100
AcDbPoint
 10
-2404.513025780784
 20
2096.990398932804
 30
0.0
  0
ENDBLK
  5
1464B
330
1463E
100
AcDbEntity
  8
0
100
AcDbBlockEnd
  0
BLOCK
  5
14656
330
1464C
100
AcDbEntity
  8
0
100
AcDbBlockBegin
  2
*D121
 70
     1
 10
0.0
 20
0.0
 30
0.0
  3
*D121
  1

  0
LINE
  5
14D54
330
1464C
100
AcDbEntity
  8
SUNPOU
 62
     1
100
AcDbLine
 10
-2312.01364042539
 20
1874.299299727277
 30
0.0
 11
-2312.01364042539
 21
1819.799299727275
 31
0.0
  0
LINE
  5
14D55
330
1464C
100
AcDbEntity
  8
SUNPOU
 62
     1
100
AcDbLine
 10
-2365.013640425478
 20
1854.799299727426
 30
0.0
 11
-2365.013640425478
 21
1819.799299727275
 31
0.0
  0
LINE
  5
14D56
330
1464C
100
AcDbEntity
  8
SUNPOU
 62
     1
100
AcDbLine
 10
-2315.01364042539
 20
1820.299299727276
 30
0.0
 11
-2362.013640425478
 21
1820.299299727276
 31
0.0
  0
SOLID
  5
14D57
330
1464C
100
AcDbEntity
  8
SUNPOU
 62
     1
100
AcDbTrace
 10
-2315.01364042539
 20
1820.799299727276
 30
0.0
 11
-2315.01364042539
 21
1819.799299727275
 31
0.0
 12
-2312.01364042539
 22
1820.299299727276
 32
0.0
 13
-2312.01364042539
 23
1820.299299727276
 33
0.0
  0
SOLID
  5
14D58
330
1464C
100
AcDbEntity
  8
SUNPOU
 62
     1
100
AcDbTrace
 10
-2362.013640425478
 20
1820.799299727276
 30
0.0
 11
-2362.013640425478
 21
1819.799299727275
 31
0.0
 12
-2365.013640425478
 22
1820.299299727276
 32
0.0
 13
-2365.013640425478
 23
1820.299299727276
 33
0.0
  0
MTEXT
  5
14D59
330
1464C
100
AcDbEntity
  8
SUNPOU
 62
     1
100
AcDbMText
 10
-2338.513640425434
 20
1823.049299727276
 30
0.0
 40
3.5
 41
0.0
 71
     5
 72
     1
  1
\A1;53
1001
ACAD
1000
MTEXTBEGIN
1070
    73
1070
     1
1070
    44
1040
1.0
1070
    74
1070
     0
1000
MTEXTEND
  0
POINT
  5
14D5A
330
1464C
100
AcDbEntity
  8
DEFPOINTS
 62
     0
100
AcDbPoint
 10
-2312.01364042539
 20
1874.799299727277
 30
0.0
  0
POINT
  5
14D5B
330
1464C
100
AcDbEntity
  8
DEFPOINTS
 62
     0
100
AcDbPoint
 10
-2365.013640425478
 20
1855.299299727426
 30
0.0
  0
POINT
  5
14D5C
330
1464C
100
AcDbEntity
  8
DEFPOINTS
 62
     0
100
AcDbPoint
 10
-2365.013640425478
 20
1820.299299727276
 30
0.0
  0
ENDBLK
  5
14657
330
1464C
100
AcDbEntity
  8
0
100
AcDbBlockEnd
  0
BLOCK
  5
14EE4
330
14EDA
100
AcDbEntity
  8
0
100
AcDbBlockBegin
  2
*D123
 70
     1
 10
0.0
 20
0.0
 30
0.0
  3
*D123
  1

  0
LINE
  5
14EDB
330
14EDA
100
AcDbEntity
  8
ZISSEN2
 62
     1
100
AcDbLine
 10
-2570.513025780784
 20
2057.490398932802
 30
0.0
 11
-2581.080580325606
 21
2057.490398932802
 31
0.0
  0
LINE
  5
14EDC
330
14EDA
100
AcDbEntity
  8
ZISSEN2
 62
     1
100
AcDbLine
 10
-2567.513025780783
 20
2040.990398932803
 30
0.0
 11
-2581.080580325606
 21
2040.990398932803
 31
0.0
  0
LINE
  5
14EDD
330
14EDA
100
AcDbEntity
  8
ZISSEN2
 62
     1
100
AcDbLine
 10
-2580.580580325606
 20
2054.490398932802
 30
0.0
 11
-2580.580580325606
 21
2043.990398932803
 31
0.0
  0
SOLID
  5
14EDE
330
14EDA
100
AcDbEntity
  8
ZISSEN2
 62
     1
100
AcDbTrace
 10
-2581.080580325606
 20
2054.490398932802
 30
0.0
 11
-2580.080580325606
 21
2054.490398932802
 31
0.0
 12
-2580.580580325606
 22
2057.490398932802
 32
0.0
 13
-2580.580580325606
 23
2057.490398932802
 33
0.0
  0
SOLID
  5
14EDF
330
14EDA
100
AcDbEntity
  8
ZISSEN2
 62
     1
100
AcDbTrace
 10
-2581.080580325606
 20
2043.990398932803
 30
0.0
 11
-2580.080580325606
 21
2043.990398932803
 31
0.0
 12
-2580.580580325606
 22
2040.990398932803
 32
0.0
 13
-2580.580580325606
 23
2040.990398932803
 33
0.0
  0
MTEXT
  5
14EE0
330
14EDA
100
AcDbEntity
  8
ZISSEN2
 62
     1
100
AcDbMText
 10
-2583.330580325606
 20
2049.240398932802
 30
0.0
 40
3.5
 41
0.0
 71
     5
 72
     1
  1
\A1;16.5
  7
ゴシック体
 11
0.0000000000000001
 21
1.0
 31
0.0
1001
ACAD
1000
MTEXTBEGIN
1070
    73
1070
     1
1070
    44
1040
1.0
1070
    74
1070
     0
1000
MTEXTEND
  0
POINT
  5
14EE1
330
14EDA
100
AcDbEntity
  8
DEFPOINTS
 62
     0
100
AcDbPoint
 10
-2570.013025780784
 20
2057.490398932802
 30
0.0
  0
POINT
  5
14EE2
330
14EDA
100
AcDbEntity
  8
DEFPOINTS
 62
     0
100
AcDbPoint
 10
-2567.013025780783
 20
2040.990398932803
 30
0.0
  0
POINT
  5
14EE3
330
14EDA
100
AcDbEntity
  8
DEFPOINTS
 62
     0
100
AcDbPoint
 10
-2580.580580325606
 20
2040.990398932803
 30
0.0
  0
ENDBLK
  5
14EE5
330
14EDA
100
AcDbEntity
  8
0
100
AcDbBlockEnd
  0
BLOCK
  5
14EF2
330
14EE8
100
AcDbEntity
  8
0
100
AcDbBlockBegin
  2
*D124
 70
     1
 10
0.0
 20
0.0
 30
0.0
  3
*D124
  1

  0
LINE
  5
14EE9
330
14EE8
100
AcDbEntity
  8
ZISSEN2
 62
     1
100
AcDbLine
 10
-2571.013025780784
 20
2057.490398932802
 30
0.0
 11
-2588.806491549527
 21
2057.490398932802
 31
0.0
  0
LINE
  5
14EEA
330
14EE8
100
AcDbEntity
  8
ZISSEN2
 62
     1
100
AcDbLine
 10
-2570.513025780784
 20
2073.490398932802
 30
0.0
 11
-2588.806491549527
 21
2073.490398932802
 31
0.0
  0
LINE
  5
14EEB
330
14EE8
100
AcDbEntity
  8
ZISSEN2
 62
     1
100
AcDbLine
 10
-2588.306491549527
 20
2060.490398932802
 30
0.0
 11
-2588.306491549527
 21
2070.490398932802
 31
0.0
  0
SOLID
  5
14EEC
330
14EE8
100
AcDbEntity
  8
ZISSEN2
 62
     1
100
AcDbTrace
 10
-2588.806491549527
 20
2060.490398932802
 30
0.0
 11
-2587.806491549526
 21
2060.490398932802
 31
0.0
 12
-2588.306491549527
 22
2057.490398932802
 32
0.0
 13
-2588.306491549527
 23
2057.490398932802
 33
0.0
  0
SOLID
  5
14EED
330
14EE8
100
AcDbEntity
  8
ZISSEN2
 62
     1
100
AcDbTrace
 10
-2588.806491549527
 20
2070.490398932802
 30
0.0
 11
-2587.806491549526
 21
2070.490398932802
 31
0.0
 12
-2588.306491549527
 22
2073.490398932802
 32
0.0
 13
-2588.306491549527
 23
2073.490398932802
 33
0.0
  0
MTEXT
  5
14EEE
330
14EE8
100
AcDbEntity
  8
ZISSEN2
 62
     1
100
AcDbMText
 10
-2591.056491549527
 20
2065.490398932802
 30
0.0
 40
3.5
 41
0.0
 71
     5
 72
     1
  1
\A1;16
  7
ゴシック体
 11
0.0000000000000001
 21
1.0
 31
0.0
1001
ACAD
1000
MTEXTBEGIN
1070
    73
1070
     1
1070
    44
1040
1.0
1070
    74
1070
     0
1000
MTEXTEND
  0
POINT
  5
14EEF
330
14EE8
100
AcDbEntity
  8
DEFPOINTS
 62
     0
100
AcDbPoint
 10
-2570.513025780784
 20
2057.490398932802
 30
0.0
  0
POINT
  5
14EF0
330
14EE8
100
AcDbEntity
  8
DEFPOINTS
 62
     0
100
AcDbPoint
 10
-2570.013025780784
 20
2073.490398932802
 30
0.0
  0
POINT
  5
14EF1
330
14EE8
100
AcDbEntity
  8
DEFPOINTS
 62
     0
100
AcDbPoint
 10
-2588.306491549527
 20
2073.490398932802
 30
0.0
  0
ENDBLK
  5
14EF3
330
14EE8
100
AcDbEntity
  8
0
100
AcDbBlockEnd
  0
BLOCK
  5
14EFF
330
14EF5
100
AcDbEntity
  8
0
100
AcDbBlockBegin
  2
*D125
 70
     1
 10
0.0
 20
0.0
 30
0.0
  3
*D125
  1

  0
LINE
  5
14EF6
330
14EF5
100
AcDbEntity
  8
ZISSEN2
 62
     1
100
AcDbLine
 10
-2571.013025780784
 20
2057.490398932802
 30
0.0
 11
-2580.428464662862
 21
2057.490398932802
 31
0.0
  0
LINE
  5
14EF7
330
14EF5
100
AcDbEntity
  8
ZISSEN2
 62
     1
100
AcDbLine
 10
-2572.607170552297
 20
2077.490398932802
 30
0.0
 11
-2580.428464662862
 21
2077.490398932802
 31
0.0
  0
LINE
  5
14EF8
330
14EF5
100
AcDbEntity
  8
ZISSEN2
 62
     1
100
AcDbLine
 10
-2579.928464662862
 20
2060.490398932802
 30
0.0
 11
-2579.928464662862
 21
2074.490398932802
 31
0.0
  0
SOLID
  5
14EF9
330
14EF5
100
AcDbEntity
  8
ZISSEN2
 62
     1
100
AcDbTrace
 10
-2580.428464662862
 20
2060.490398932802
 30
0.0
 11
-2579.428464662862
 21
2060.490398932802
 31
0.0
 12
-2579.928464662862
 22
2057.490398932802
 32
0.0
 13
-2579.928464662862
 23
2057.490398932802
 33
0.0
  0
SOLID
  5
14EFA
330
14EF5
100
AcDbEntity
  8
ZISSEN2
 62
     1
100
AcDbTrace
 10
-2580.428464662862
 20
2074.490398932802
 30
0.0
 11
-2579.428464662862
 21
2074.490398932802
 31
0.0
 12
-2579.928464662862
 22
2077.490398932802
 32
0.0
 13
-2579.928464662862
 23
2077.490398932802
 33
0.0
  0
MTEXT
  5
14EFB
330
14EF5
100
AcDbEntity
  8
ZISSEN2
 62
     1
100
AcDbMText
 10
-2582.678464662862
 20
2067.490398932802
 30
0.0
 40
3.5
 41
0.0
 71
     5
 72
     1
  1
\A1;20
  7
ゴシック体
 11
0.0000000000000001
 21
1.0
 31
0.0
1001
ACAD
1000
MTEXTBEGIN
1070
    73
1070
     1
1070
    44
1040
1.0
1070
    74
1070
     0
1000
MTEXTEND
  0
POINT
  5
14EFC
330
14EF5
100
AcDbEntity
  8
DEFPOINTS
 62
     0
100
AcDbPoint
 10
-2570.513025780784
 20
2057.490398932802
 30
0.0
  0
POINT
  5
14EFD
330
14EF5
100
AcDbEntity
  8
DEFPOINTS
 62
     0
100
AcDbPoint
 10
-2572.107170552297
 20
2077.490398932802
 30
0.0
  0
POINT
  5
14EFE
330
14EF5
100
AcDbEntity
  8
DEFPOINTS
 62
     0
100
AcDbPoint
 10
-2579.928464662862
 20
2077.490398932802
 30
0.0
  0
ENDBLK
  5
14F00
330
14EF5
100
AcDbEntity
  8
0
100
AcDbBlockEnd
  0
ENDSEC
  0
SECTION
  2
ENTITIES
  0
MTEXT
  5
5084
330
1A
100
AcDbEntity
  8
0
100
AcDbMText
 10
1985.239088685435
 20
-948.5420423450428
 30
0.0
 40
8.0
 41
0.0
 71
     7
 72
     5
  1

1001
ACAD
1000
MTEXTBEGIN
1070
    73
1070
     1
1070
    44
1040
1.0
1070
    74
1070
     0
1000
MTEXTEND
  0
MTEXT
  5
5085
330
1A
100
AcDbEntity
  8
0
100
AcDbMText
 10
4270.596778580329
 20
22.24825240601649
 30
0.0
 40
8.0
 41
0.0
 71
     7
 72
     5
  1

1001
ACAD
1000
MTEXTBEGIN
1070
    73
1070
     1
1070
    44
1040
1.0
1070
    74
1070
     0
1000
MTEXTEND
  0
MTEXT
  5
5343
330
1A
100
AcDbEntity
  8
SUNPOU
100
AcDbMText
 10
6936.493799262471
 20
9534.359644781135
 30
0.0
 40
10.5
 41
0.0
 71
     1
 72
     5
  1

1001
ACAD
1000
MTEXTBEGIN
1070
    73
1070
     1
1070
    44
1040
1.0
1070
    74
1070
     0
1000
MTEXTEND
  0
MTEXT
  5
544F
330
1A
100
AcDbEntity
  8
0
100
AcDbMText
 10
16317.2832773148
 20
12833.35428897674
 30
0.0
 40
8.0
 41
0.0
 71
     7
 72
     5
  1

1001
ACAD
1000
MTEXTBEGIN
1070
    73
1070
     1
1070
    44
1040
1.0
1070
    74
1070
     0
1000
MTEXTEND
  0
MTEXT
  5
5450
330
1A
100
AcDbEntity
  8
0
100
AcDbMText
 10
18602.64096720969
 20
13804.1445837278
 30
0.0
 40
8.0
 41
0.0
 71
     7
 72
     5
  1

1001
ACAD
1000
MTEXTBEGIN
1070
    73
1070
     1
1070
    44
1040
1.0
1070
    74
1070
     0
1000
MTEXTEND
  0
MTEXT
  5
5451
330
1A
100
AcDbEntity
  8
SUNPOU
100
AcDbMText
 10
21268.53798789184
 20
23316.25597610292
 30
0.0
 40
10.5
 41
0.0
 71
     1
 72
     5
  1

1001
ACAD
1000
MTEXTBEGIN
1070
    73
1070
     1
1070
    44
1040
1.0
1070
    74
1070
     0
1000
MTEXTEND
  0
MTEXT
  5
5452
330
1A
100
AcDbEntity
  8
SUNPOU
100
AcDbMText
 10
13337.6147919559
 20
22369.46284218996
 30
0.0
 40
10.5
 41
0.0
 71
     7
 72
     5
  1

1001
ACAD
1000
MTEXTBEGIN
1070
    73
1070
     1
1070
    44
1040
1.0
1070
    74
1070
     0
1000
MTEXTEND
  0
MTEXT
  5
5453
330
1A
100
AcDbEntity
  8
SUNPOU
100
AcDbMText
 10
16286.59845646867
 20
27270.13891403281
 30
0.0
 40
10.5
 41
0.0
 71
     7
 72
     5
  1

1001
ACAD
1000
MTEXTBEGIN
1070
    73
1070
     1
1070
    44
1040
1.0
1070
    74
1070
     0
1000
MTEXTEND
  0
MTEXT
  5
5454
330
1A
100
AcDbEntity
  8
SUNPOU
100
AcDbMText
 10
20795.67658441924
 20
29706.43966165288
 30
0.0
 40
10.5
 41
0.0
 71
     7
 72
     5
  1

1001
ACAD
1000
MTEXTBEGIN
1070
    73
1070
     1
1070
    44
1040
1.0
1070
    74
1070
     0
1000
MTEXTEND
  0
MTEXT
  5
5455
330
1A
100
AcDbEntity
  8
0
100
AcDbMText
 10
16611.93789220314
 20
14707.52144344448
 30
0.0
 40
8.0
 41
0.0
 71
     7
 72
     5
  1

1001
ACAD
1000
MTEXTBEGIN
1070
    73
1070
     1
1070
    44
1040
1.0
1070
    74
1070
     0
1000
MTEXTEND
  0
MTEXT
  5
5456
330
1A
100
AcDbEntity
  8
0
100
AcDbMText
 10
18897.29558209804
 20
15678.31173819554
 30
0.0
 40
8.0
 41
0.0
 71
     7
 72
     5
  1

1001
ACAD
1000
MTEXTBEGIN
1070
    73
1070
     1
1070
    44
1040
1.0
1070
    74
1070
     0
1000
MTEXTEND
  0
MTEXT
  5
5457
330
1A
100
AcDbEntity
  8
SUNPOU
100
AcDbMText
 10
21563.19260278019
 20
25190.42313057066
 30
0.0
 40
10.5
 41
0.0
 71
     1
 72
     5
  1

1001
ACAD
1000
MTEXTBEGIN
1070
    73
1070
     1
1070
    44
1040
1.0
1070
    74
1070
     0
1000
MTEXTEND
  0
MTEXT
  5
5458
330
1A
100
AcDbEntity
  8
SUNPOU
100
AcDbMText
 10
13632.26940684426
 20
24243.6299966577
 30
0.0
 40
10.5
 41
0.0
 71
     7
 72
     5
  1

1001
ACAD
1000
MTEXTBEGIN
1070
    73
1070
     1
1070
    44
1040
1.0
1070
    74
1070
     0
1000
MTEXTEND
  0
MTEXT
  5
5459
330
1A
100
AcDbEntity
  8
SUNPOU
100
AcDbMText
 10
16581.25307135702
 20
29144.30606850055
 30
0.0
 40
10.5
 41
0.0
 71
     7
 72
     5
  1

1001
ACAD
1000
MTEXTBEGIN
1070
    73
1070
     1
1070
    44
1040
1.0
1070
    74
1070
     0
1000
MTEXTEND
  0
MTEXT
  5
545A
330
1A
100
AcDbEntity
  8
SUNPOU
100
AcDbMText
 10
21090.33119930759
 20
31580.60681612062
 30
0.0
 40
10.5
 41
0.0
 71
     7
 72
     5
  1

1001
ACAD
1000
MTEXTBEGIN
1070
    73
1070
     1
1070
    44
1040
1.0
1070
    74
1070
     0
1000
MTEXTEND
  0
MTEXT
  5
545B
330
1A
100
AcDbEntity
  8
0
100
AcDbMText
 10
22871.60517627167
 20
23974.88367124799
 30
0.0
 40
8.0
 41
0.0
 71
     7
 72
     5
  1

1001
ACAD
1000
MTEXTBEGIN
1070
    73
1070
     1
1070
    44
1040
1.0
1070
    74
1070
     0
1000
MTEXTEND
  0
MTEXT
  5
545C
330
1A
100
AcDbEntity
  8
0
100
AcDbMText
 10
25156.96286616657
 20
24945.67396599906
 30
0.0
 40
8.0
 41
0.0
 71
     7
 72
     5
  1

1001
ACAD
1000
MTEXTBEGIN
1070
    73
1070
     1
1070
    44
1040
1.0
1070
    74
1070
     0
1000
MTEXTEND
  0
MTEXT
  5
545D
330
1A
100
AcDbEntity
  8
SUNPOU
100
AcDbMText
 10
27822.85988684871
 20
34457.78535837418
 30
0.0
 40
10.5
 41
0.0
 71
     1
 72
     5
  1

1001
ACAD
1000
MTEXTBEGIN
1070
    73
1070
     1
1070
    44
1040
1.0
1070
    74
1070
     0
1000
MTEXTEND
  0
MTEXT
  5
545E
330
1A
100
AcDbEntity
  8
SUNPOU
100
AcDbMText
 10
19891.93669091278
 20
33510.99222446122
 30
0.0
 40
10.5
 41
0.0
 71
     7
 72
     5
  1

1001
ACAD
1000
MTEXTBEGIN
1070
    73
1070
     1
1070
    44
1040
1.0
1070
    74
1070
     0
1000
MTEXTEND
  0
MTEXT
  5
545F
330
1A
100
AcDbEntity
  8
SUNPOU
100
AcDbMText
 10
22840.92035542555
 20
38411.66829630407
 30
0.0
 40
10.5
 41
0.0
 71
     7
 72
     5
  1

1001
ACAD
1000
MTEXTBEGIN
1070
    73
1070
     1
1070
    44
1040
1.0
1070
    74
1070
     0
1000
MTEXTEND
  0
MTEXT
  5
5460
330
1A
100
AcDbEntity
  8
SUNPOU
100
AcDbMText
 10
27349.99848337611
 20
40847.96904392415
 30
0.0
 40
10.5
 41
0.0
 71
     7
 72
     5
  1

1001
ACAD
1000
MTEXTBEGIN
1070
    73
1070
     1
1070
    44
1040
1.0
1070
    74
1070
     0
1000
MTEXTEND
  0
MTEXT
  5
55B7
330
1A
100
AcDbEntity
  8
SUNPOU
100
AcDbMText
 10
67424.23923338197
 20
64463.86602884816
 30
0.0
 40
10.5
 41
0.0
 71
     9
 72
     5
  1

1001
ACAD
1000
MTEXTBEGIN
1070
    73
1070
     1
1070
    44
1040
1.0
1070
    74
1070
     0
1000
MTEXTEND
  0
MTEXT
  5
55B8
330
1A
100
AcDbEntity
  8
SUNPOU
100
AcDbMText
 10
76146.40679929998
 20
71879.70056038563
 30
0.0
 40
10.5
 41
0.0
 71
     9
 72
     5
  1

1001
ACAD
1000
MTEXTBEGIN
1070
    73
1070
     1
1070
    44
1040
1.0
1070
    74
1070
     0
1000
MTEXTEND
  0
MTEXT
  5
55B9
330
1A
100
AcDbEntity
  8
SUNPOU
100
AcDbMText
 10
95100.16551662994
 20
89346.27661287766
 30
0.0
 40
10.5
 41
0.0
 71
     9
 72
     5
  1

1001
ACAD
1000
MTEXTBEGIN
1070
    73
1070
     1
1070
    44
1040
1.0
1070
    74
1070
     0
1000
MTEXTEND
  0
MTEXT
  5
55BA
330
1A
100
AcDbEntity
  8
SUNPOU
100
AcDbMText
 10
97043.57276333936
 20
87545.22753299966
 30
0.0
 40
3.5
 41
0.0
 71
     9
 72
     5
  1

1001
ACAD
1000
MTEXTBEGIN
1070
    73
1070
     1
1070
    44
1040
1.0
1070
    74
1070
     0
1000
MTEXTEND
  0
MTEXT
  5
55BB
330
1A
100
AcDbEntity
  8
SUNPOU
100
AcDbMText
 10
128169.752595959
 20
130040.1732006569
 30
0.0
 40
10.5
 41
0.0
 71
     9
 72
     5
  1

1001
ACAD
1000
MTEXTBEGIN
1070
    73
1070
     1
1070
    44
1040
1.0
1070
    74
1070
     0
1000
MTEXTEND
  0
MTEXT
  5
55BC
330
1A
100
AcDbEntity
  8
SUNPOU
100
AcDbMText
 10
130113.1598426684
 20
128239.1241207789
 30
0.0
 40
3.5
 41
0.0
 71
     9
 72
     5
  1

1001
ACAD
1000
MTEXTBEGIN
1070
    73
1070
     1
1070
    44
1040
1.0
1070
    74
1070
     0
1000
MTEXTEND
  0
MTEXT
  5
55BD
330
1A
100
AcDbEntity
  8
SUNPOU
100
AcDbMText
 10
78610.02030175463
 20
75873.33835563206
 30
0.0
 40
10.5
 41
0.0
 71
     9
 72
     5
  1

1001
ACAD
1000
MTEXTBEGIN
1070
    73
1070
     1
1070
    44
1040
1.0
1070
    74
1070
     0
1000
MTEXTEND
  0
MTEXT
  5
55BE
330
1A
100
AcDbEntity
  8
SUNPOU
100
AcDbMText
 10
64662.02020137863
 20
56700.93921651987
 30
0.0
 40
3.5
 41
0.0
 71
     7
 72
     5
  1

1001
ACAD
1000
MTEXTBEGIN
1070
    73
1070
     1
1070
    44
1040
1.0
1070
    74
1070
     0
1000
MTEXTEND
  0
MTEXT
  5
55BF
330
1A
100
AcDbEntity
  8
SUNPOU
100
AcDbMText
 10
45647.18959837178
 20
44463.08794733807
 30
0.0
 40
10.5
 41
0.0
 71
     7
 72
     5
  1

1001
ACAD
1000
MTEXTBEGIN
1070
    73
1070
     1
1070
    44
1040
1.0
1070
    74
1070
     0
1000
MTEXTEND
  0
MTEXT
  5
55C0
330
1A
100
AcDbEntity
  8
SUNPOU
100
AcDbMText
 10
33189.96133342368
 20
28618.15636923965
 30
0.0
 40
35.0
 41
0.0
 71
     9
 72
     5
  1

1001
ACAD
1000
MTEXTBEGIN
1070
    73
1070
     1
1070
    44
1040
1.0
1070
    74
1070
     0
1000
MTEXTEND
  0
MTEXT
  5
55C1
330
1A
100
AcDbEntity
  8
SUNPOU
100
AcDbMText
 10
32098.44639099864
 20
29226.93177928835
 30
0.0
 40
350.0000004171781
 41
0.0
 71
     7
 72
     5
  1

1001
ACAD
1000
MTEXTBEGIN
1070
    73
1070
     1
1070
    44
1040
1.0
1070
    74
1070
     0
1000
MTEXTEND
  0
MTEXT
  5
55C2
330
1A
100
AcDbEntity
  8
0
100
AcDbMText
 10
38142.39714894154
 20
27206.85414142458
 30
0.0
 40
8.0
 41
0.0
 71
     7
 72
     5
  1

1001
ACAD
1000
MTEXTBEGIN
1070
    73
1070
     1
1070
    44
1040
1.0
1070
    74
1070
     0
1000
MTEXTEND
  0
MTEXT
  5
55C3
330
1A
100
AcDbEntity
  8
0
100
AcDbMText
 10
40427.75483883644
 20
28177.64443617564
 30
0.0
 40
8.0
 41
0.0
 71
     7
 72
     5
  1

1001
ACAD
1000
MTEXTBEGIN
1070
    73
1070
     1
1070
    44
1040
1.0
1070
    74
1070
     0
1000
MTEXTEND
  0
MTEXT
  5
55C4
330
1A
100
AcDbEntity
  8
SUNPOU
100
AcDbMText
 10
43093.65185951858
 20
37689.75582855077
 30
0.0
 40
10.5
 41
0.0
 71
     1
 72
     5
  1

1001
ACAD
1000
MTEXTBEGIN
1070
    73
1070
     1
1070
    44
1040
1.0
1070
    74
1070
     0
1000
MTEXTEND
  0
MTEXT
  5
55C5
330
1A
100
AcDbEntity
  8
SUNPOU
100
AcDbMText
 10
35162.72866358265
 20
36742.96269463781
 30
0.0
 40
10.5
 41
0.0
 71
     7
 72
     5
  1

1001
ACAD
1000
MTEXTBEGIN
1070
    73
1070
     1
1070
    44
1040
1.0
1070
    74
1070
     0
1000
MTEXTEND
  0
MTEXT
  5
55C6
330
1A
100
AcDbEntity
  8
SUNPOU
100
AcDbMText
 10
38111.71232809542
 20
41643.63876648066
 30
0.0
 40
10.5
 41
0.0
 71
     7
 72
     5
  1

1001
ACAD
1000
MTEXTBEGIN
1070
    73
1070
     1
1070
    44
1040
1.0
1070
    74
1070
     0
1000
MTEXTEND
  0
MTEXT
  5
55C7
330
1A
100
AcDbEntity
  8
SUNPOU
100
AcDbMText
 10
42620.79045604597
 20
44079.93951410074
 30
0.0
 40
10.5
 41
0.0
 71
     7
 72
     5
  1

1001
ACAD
1000
MTEXTBEGIN
1070
    73
1070
     1
1070
    44
1040
1.0
1070
    74
1070
     0
1000
MTEXTEND
  0
MTEXT
  5
55C8
330
1A
100
AcDbEntity
  8
SUNPOU
100
AcDbMText
 10
26221.62834281429
 20
23077.53566448964
 30
0.0
 40
10.5
 41
0.0
 71
     7
 72
     5
  1

1001
ACAD
1000
MTEXTBEGIN
1070
    73
1070
     1
1070
    44
1040
1.0
1070
    74
1070
     0
1000
MTEXTEND
  0
MTEXT
  5
55C9
330
1A
100
AcDbEntity
  8
SUNPOU
100
AcDbMText
 10
77413.14677671455
 20
68750.51622813789
 30
0.0
 40
10.5
 41
0.0
 71
     9
 72
     5
  1

1001
ACAD
1000
MTEXTBEGIN
1070
    73
1070
     1
1070
    44
1040
1.0
1070
    74
1070
     0
1000
MTEXTEND
  0
MTEXT
  5
55CA
330
1A
100
AcDbEntity
  8
SUNPOU
100
AcDbMText
 10
86135.31434263256
 20
76166.35075967536
 30
0.0
 40
10.5
 41
0.0
 71
     9
 72
     5
  1

1001
ACAD
1000
MTEXTBEGIN
1070
    73
1070
     1
1070
    44
1040
1.0
1070
    74
1070
     0
1000
MTEXTEND
  0
MTEXT
  5
55CB
330
1A
100
AcDbEntity
  8
SUNPOU
100
AcDbMText
 10
105089.0730599625
 20
93632.92681216739
 30
0.0
 40
10.5
 41
0.0
 71
     9
 72
     5
  1

1001
ACAD
1000
MTEXTBEGIN
1070
    73
1070
     1
1070
    44
1040
1.0
1070
    74
1070
     0
1000
MTEXTEND
  0
MTEXT
  5
55CC
330
1A
100
AcDbEntity
  8
SUNPOU
100
AcDbMText
 10
107032.4803066719
 20
91831.8777322894
 30
0.0
 40
3.5
 41
0.0
 71
     9
 72
     5
  1

1001
ACAD
1000
MTEXTBEGIN
1070
    73
1070
     1
1070
    44
1040
1.0
1070
    74
1070
     0
1000
MTEXTEND
  0
MTEXT
  5
55CD
330
1A
100
AcDbEntity
  8
SUNPOU
100
AcDbMText
 10
138158.6601392916
 20
134326.8233999467
 30
0.0
 40
10.5
 41
0.0
 71
     9
 72
     5
  1

1001
ACAD
1000
MTEXTBEGIN
1070
    73
1070
     1
1070
    44
1040
1.0
1070
    74
1070
     0
1000
MTEXTEND
  0
MTEXT
  5
55CE
330
1A
100
AcDbEntity
  8
SUNPOU
100
AcDbMText
 10
140102.067386001
 20
132525.7743200686
 30
0.0
 40
3.5
 41
0.0
 71
     9
 72
     5
  1

1001
ACAD
1000
MTEXTBEGIN
1070
    73
1070
     1
1070
    44
1040
1.0
1070
    74
1070
     0
1000
MTEXTEND
  0
MTEXT
  5
55CF
330
1A
100
AcDbEntity
  8
SUNPOU
100
AcDbMText
 10
88598.92784508721
 20
80159.98855492179
 30
0.0
 40
10.5
 41
0.0
 71
     9
 72
     5
  1

1001
ACAD
1000
MTEXTBEGIN
1070
    73
1070
     1
1070
    44
1040
1.0
1070
    74
1070
     0
1000
MTEXTEND
  0
MTEXT
  5
55D0
330
1A
100
AcDbEntity
  8
SUNPOU
100
AcDbMText
 10
74650.92774471121
 20
60987.5894158096
 30
0.0
 40
3.5
 41
0.0
 71
     7
 72
     5
  1

1001
ACAD
1000
MTEXTBEGIN
1070
    73
1070
     1
1070
    44
1040
1.0
1070
    74
1070
     0
1000
MTEXTEND
  0
MTEXT
  5
55D1
330
1A
100
AcDbEntity
  8
SUNPOU
100
AcDbMText
 10
55636.09714170436
 20
48749.73814662781
 30
0.0
 40
10.5
 41
0.0
 71
     7
 72
     5
  1

1001
ACAD
1000
MTEXTBEGIN
1070
    73
1070
     1
1070
    44
1040
1.0
1070
    74
1070
     0
1000
MTEXTEND
  0
MTEXT
  5
55D2
330
1A
100
AcDbEntity
  8
SUNPOU
100
AcDbMText
 10
43178.86887675626
 20
32904.80656852938
 30
0.0
 40
35.0
 41
0.0
 71
     9
 72
     5
  1

1001
ACAD
1000
MTEXTBEGIN
1070
    73
1070
     1
1070
    44
1040
1.0
1070
    74
1070
     0
1000
MTEXTEND
  0
MTEXT
  5
55D3
330
1A
100
AcDbEntity
  8
SUNPOU
100
AcDbMText
 10
42087.35393433121
 20
33513.58197857809
 30
0.0
 40
350.0000004171781
 41
0.0
 71
     7
 72
     5
  1

1001
ACAD
1000
MTEXTBEGIN
1070
    73
1070
     1
1070
    44
1040
1.0
1070
    74
1070
     0
1000
MTEXTEND
  0
MTEXT
  5
55D4
330
1A
100
AcDbEntity
  8
0
100
AcDbMText
 10
48131.30469227412
 20
31493.50434071431
 30
0.0
 40
8.0
 41
0.0
 71
     7
 72
     5
  1

1001
ACAD
1000
MTEXTBEGIN
1070
    73
1070
     1
1070
    44
1040
1.0
1070
    74
1070
     0
1000
MTEXTEND
  0
MTEXT
  5
55D5
330
1A
100
AcDbEntity
  8
0
100
AcDbMText
 10
50416.66238216901
 20
32464.29463546537
 30
0.0
 40
8.0
 41
0.0
 71
     7
 72
     5
  1

1001
ACAD
1000
MTEXTBEGIN
1070
    73
1070
     1
1070
    44
1040
1.0
1070
    74
1070
     0
1000
MTEXTEND
  0
MTEXT
  5
55D6
330
1A
100
AcDbEntity
  8
SUNPOU
100
AcDbMText
 10
53082.55940285115
 20
41976.4060278405
 30
0.0
 40
10.5
 41
0.0
 71
     1
 72
     5
  1

1001
ACAD
1000
MTEXTBEGIN
1070
    73
1070
     1
1070
    44
1040
1.0
1070
    74
1070
     0
1000
MTEXTEND
  0
MTEXT
  5
55D7
330
1A
100
AcDbEntity
  8
SUNPOU
100
AcDbMText
 10
45151.63620691522
 20
41029.61289392755
 30
0.0
 40
10.5
 41
0.0
 71
     7
 72
     5
  1

1001
ACAD
1000
MTEXTBEGIN
1070
    73
1070
     1
1070
    44
1040
1.0
1070
    74
1070
     0
1000
MTEXTEND
  0
MTEXT
  5
55D8
330
1A
100
AcDbEntity
  8
SUNPOU
100
AcDbMText
 10
48100.61987142798
 20
45930.28896577039
 30
0.0
 40
10.5
 41
0.0
 71
     7
 72
     5
  1

1001
ACAD
1000
MTEXTBEGIN
1070
    73
1070
     1
1070
    44
1040
1.0
1070
    74
1070
     0
1000
MTEXTEND
  0
MTEXT
  5
55D9
330
1A
100
AcDbEntity
  8
SUNPOU
100
AcDbMText
 10
52609.69799937854
 20
48366.58971339046
 30
0.0
 40
10.5
 41
0.0
 71
     7
 72
     5
  1

1001
ACAD
1000
MTEXTBEGIN
1070
    73
1070
     1
1070
    44
1040
1.0
1070
    74
1070
     0
1000
MTEXTEND
  0
MTEXT
  5
55DA
330
1A
100
AcDbEntity
  8
SUNPOU
100
AcDbMText
 10
36210.53588614687
 20
27364.18586377937
 30
0.0
 40
10.5
 41
0.0
 71
     7
 72
     5
  1

1001
ACAD
1000
MTEXTBEGIN
1070
    73
1070
     1
1070
    44
1040
1.0
1070
    74
1070
     0
1000
MTEXTEND
  0
MTEXT
  5
55DB
330
1A
100
AcDbEntity
  8
SUNPOU
100
AcDbMText
 10
38021.29879752181
 20
33691.59985125794
 30
0.0
 40
10.5
 41
0.0
 71
     9
 72
     5
  1

1001
ACAD
1000
MTEXTBEGIN
1070
    73
1070
     1
1070
    44
1040
1.0
1070
    74
1070
     0
1000
MTEXTEND
  0
MTEXT
  5
55DC
330
1A
100
AcDbEntity
  8
SUNPOU
100
AcDbMText
 10
46743.46636343979
 20
41107.43438279541
 30
0.0
 40
10.5
 41
0.0
 71
     9
 72
     5
  1

1001
ACAD
1000
MTEXTBEGIN
1070
    73
1070
     1
1070
    44
1040
1.0
1070
    74
1070
     0
1000
MTEXTEND
  0
MTEXT
  5
55DD
330
1A
100
AcDbEntity
  8
SUNPOU
100
AcDbMText
 10
65697.22508076975
 20
58574.01043528746
 30
0.0
 40
10.5
 41
0.0
 71
     9
 72
     5
  1

1001
ACAD
1000
MTEXTBEGIN
1070
    73
1070
     1
1070
    44
1040
1.0
1070
    74
1070
     0
1000
MTEXTEND
  0
MTEXT
  5
55DE
330
1A
100
AcDbEntity
  8
SUNPOU
100
AcDbMText
 10
67640.63232747917
 20
56772.96135540945
 30
0.0
 40
3.5
 41
0.0
 71
     9
 72
     5
  1

1001
ACAD
1000
MTEXTBEGIN
1070
    73
1070
     1
1070
    44
1040
1.0
1070
    74
1070
     0
1000
MTEXTEND
  0
MTEXT
  5
55DF
330
1A
100
AcDbEntity
  8
SUNPOU
100
AcDbMText
 10
98766.81216009888
 20
99267.9070230668
 30
0.0
 40
10.5
 41
0.0
 71
     9
 72
     5
  1

1001
ACAD
1000
MTEXTBEGIN
1070
    73
1070
     1
1070
    44
1040
1.0
1070
    74
1070
     0
1000
MTEXTEND
  0
MTEXT
  5
55E0
330
1A
100
AcDbEntity
  8
SUNPOU
100
AcDbMText
 10
100710.2194068083
 20
97466.85794318878
 30
0.0
 40
3.5
 41
0.0
 71
     9
 72
     5
  1

1001
ACAD
1000
MTEXTBEGIN
1070
    73
1070
     1
1070
    44
1040
1.0
1070
    74
1070
     0
1000
MTEXTEND
  0
MTEXT
  5
55E1
330
1A
100
AcDbEntity
  8
SUNPOU
100
AcDbMText
 10
49207.07986589444
 20
45101.07217804185
 30
0.0
 40
10.5
 41
0.0
 71
     9
 72
     5
  1

1001
ACAD
1000
MTEXTBEGIN
1070
    73
1070
     1
1070
    44
1040
1.0
1070
    74
1070
     0
1000
MTEXTEND
  0
MTEXT
  5
55E2
330
1A
100
AcDbEntity
  8
SUNPOU
100
AcDbMText
 10
35259.07976551845
 20
25928.67303892964
 30
0.0
 40
3.5
 41
0.0
 71
     7
 72
     5
  1

1001
ACAD
1000
MTEXTBEGIN
1070
    73
1070
     1
1070
    44
1040
1.0
1070
    74
1070
     0
1000
MTEXTEND
  0
MTEXT
  5
55E3
330
1A
100
AcDbEntity
  8
SUNPOU
100
AcDbMText
 10
48951.43044828905
 20
35287.73625995099
 30
0.0
 40
10.5
 41
0.0
 71
     9
 72
     5
  1

1001
ACAD
1000
MTEXTBEGIN
1070
    73
1070
     1
1070
    44
1040
1.0
1070
    74
1070
     0
1000
MTEXTEND
  0
MTEXT
  5
55E4
330
1A
100
AcDbEntity
  8
SUNPOU
100
AcDbMText
 10
57673.59801420702
 20
42703.57079148847
 30
0.0
 40
10.5
 41
0.0
 71
     9
 72
     5
  1

1001
ACAD
1000
MTEXTBEGIN
1070
    73
1070
     1
1070
    44
1040
1.0
1070
    74
1070
     0
1000
MTEXTEND
  0
MTEXT
  5
55E5
330
1A
100
AcDbEntity
  8
SUNPOU
100
AcDbMText
 10
76627.35673153699
 20
60170.14684398051
 30
0.0
 40
10.5
 41
0.0
 71
     9
 72
     5
  1

1001
ACAD
1000
MTEXTBEGIN
1070
    73
1070
     1
1070
    44
1040
1.0
1070
    74
1070
     0
1000
MTEXTEND
  0
MTEXT
  5
55E6
330
1A
100
AcDbEntity
  8
SUNPOU
100
AcDbMText
 10
78570.76397824641
 20
58369.09776410251
 30
0.0
 40
3.5
 41
0.0
 71
     9
 72
     5
  1

1001
ACAD
1000
MTEXTBEGIN
1070
    73
1070
     1
1070
    44
1040
1.0
1070
    74
1070
     0
1000
MTEXTEND
  0
MTEXT
  5
55E7
330
1A
100
AcDbEntity
  8
SUNPOU
100
AcDbMText
 10
109696.9438108661
 20
100864.0434317598
 30
0.0
 40
10.5
 41
0.0
 71
     9
 72
     5
  1

1001
ACAD
1000
MTEXTBEGIN
1070
    73
1070
     1
1070
    44
1040
1.0
1070
    74
1070
     0
1000
MTEXTEND
  0
MTEXT
  5
55E8
330
1A
100
AcDbEntity
  8
SUNPOU
100
AcDbMText
 10
111640.3510575755
 20
99062.99435188183
 30
0.0
 40
3.5
 41
0.0
 71
     9
 72
     5
  1

1001
ACAD
1000
MTEXTBEGIN
1070
    73
1070
     1
1070
    44
1040
1.0
1070
    74
1070
     0
1000
MTEXTEND
  0
MTEXT
  5
55E9
330
1A
100
AcDbEntity
  8
SUNPOU
100
AcDbMText
 10
60137.21151666167
 20
46697.20858673491
 30
0.0
 40
10.5
 41
0.0
 71
     9
 72
     5
  1

1001
ACAD
1000
MTEXTBEGIN
1070
    73
1070
     1
1070
    44
1040
1.0
1070
    74
1070
     0
1000
MTEXTEND
  0
MTEXT
  5
55EA
330
1A
100
AcDbEntity
  8
SUNPOU
100
AcDbMText
 10
46189.21141628568
 20
27524.80944762269
 30
0.0
 40
3.5
 41
0.0
 71
     7
 72
     5
  1

1001
ACAD
1000
MTEXTBEGIN
1070
    73
1070
     1
1070
    44
1040
1.0
1070
    74
1070
     0
1000
MTEXTEND
  0
MTEXT
  5
55EB
330
1A
100
AcDbEntity
  8
SUNPOU
100
AcDbMText
 10
45007.68847015541
 20
38269.57947701874
 30
0.0
 40
10.5
 41
0.0
 71
     9
 72
     5
  1

1001
ACAD
1000
MTEXTBEGIN
1070
    73
1070
     1
1070
    44
1040
1.0
1070
    74
1070
     0
1000
MTEXTEND
  0
MTEXT
  5
55EC
330
1A
100
AcDbEntity
  8
SUNPOU
100
AcDbMText
 10
63961.44718748539
 20
55736.15552951081
 30
0.0
 40
10.5
 41
0.0
 71
     9
 72
     5
  1

1001
ACAD
1000
MTEXTBEGIN
1070
    73
1070
     1
1070
    44
1040
1.0
1070
    74
1070
     0
1000
MTEXTEND
  0
MTEXT
  5
55ED
330
1A
100
AcDbEntity
  8
SUNPOU
100
AcDbMText
 10
65904.85443419479
 20
53935.10644963279
 30
0.0
 40
3.5
 41
0.0
 71
     9
 72
     5
  1

1001
ACAD
1000
MTEXTBEGIN
1070
    73
1070
     1
1070
    44
1040
1.0
1070
    74
1070
     0
1000
MTEXTEND
  0
MTEXT
  5
55EE
330
1A
100
AcDbEntity
  8
SUNPOU
100
AcDbMText
 10
97031.03426681451
 20
96430.05211729015
 30
0.0
 40
10.5
 41
0.0
 71
     9
 72
     5
  1

1001
ACAD
1000
MTEXTBEGIN
1070
    73
1070
     1
1070
    44
1040
1.0
1070
    74
1070
     0
1000
MTEXTEND
  0
MTEXT
  5
55EF
330
1A
100
AcDbEntity
  8
SUNPOU
100
AcDbMText
 10
98974.44151352393
 20
94629.00303741212
 30
0.0
 40
3.5
 41
0.0
 71
     9
 72
     5
  1

1001
ACAD
1000
MTEXTBEGIN
1070
    73
1070
     1
1070
    44
1040
1.0
1070
    74
1070
     0
1000
MTEXTEND
  0
MTEXT
  5
55F0
330
1A
100
AcDbEntity
  8
SUNPOU
100
AcDbMText
 10
47471.30197261006
 20
42263.21727226519
 30
0.0
 40
10.5
 41
0.0
 71
     9
 72
     5
  1

1001
ACAD
1000
MTEXTBEGIN
1070
    73
1070
     1
1070
    44
1040
1.0
1070
    74
1070
     0
1000
MTEXTEND
  0
MTEXT
  5
55F1
330
1A
100
AcDbEntity
  8
SUNPOU
100
AcDbMText
 10
33523.30187223408
 20
23090.81813315298
 30
0.0
 40
3.5
 41
0.0
 71
     7
 72
     5
  1

1001
ACAD
1000
MTEXTBEGIN
1070
    73
1070
     1
1070
    44
1040
1.0
1070
    74
1070
     0
1000
MTEXTEND
  0
MTEXT
  5
55F2
330
1A
100
AcDbEntity
  8
SUNPOU
100
AcDbMText
 10
57959.46254102503
 20
50038.08111611015
 30
0.0
 40
10.5
 41
0.0
 71
     9
 72
     5
  1

1001
ACAD
1000
MTEXTBEGIN
1070
    73
1070
     1
1070
    44
1040
1.0
1070
    74
1070
     0
1000
MTEXTEND
  0
MTEXT
  5
55F3
330
1A
100
AcDbEntity
  8
SUNPOU
100
AcDbMText
 10
76913.22125835503
 20
67504.65716860222
 30
0.0
 40
10.5
 41
0.0
 71
     9
 72
     5
  1

1001
ACAD
1000
MTEXTBEGIN
1070
    73
1070
     1
1070
    44
1040
1.0
1070
    74
1070
     0
1000
MTEXTEND
  0
MTEXT
  5
55F4
330
1A
100
AcDbEntity
  8
SUNPOU
100
AcDbMText
 10
78856.62850506443
 20
65703.6080887242
 30
0.0
 40
3.5
 41
0.0
 71
     9
 72
     5
  1

1001
ACAD
1000
MTEXTBEGIN
1070
    73
1070
     1
1070
    44
1040
1.0
1070
    74
1070
     0
1000
MTEXTEND
  0
MTEXT
  5
55F5
330
1A
100
AcDbEntity
  8
SUNPOU
100
AcDbMText
 10
109982.8083376841
 20
108198.5537563815
 30
0.0
 40
10.5
 41
0.0
 71
     9
 72
     5
  1

1001
ACAD
1000
MTEXTBEGIN
1070
    73
1070
     1
1070
    44
1040
1.0
1070
    74
1070
     0
1000
MTEXTEND
  0
MTEXT
  5
55F6
330
1A
100
AcDbEntity
  8
SUNPOU
100
AcDbMText
 10
111926.2155843935
 20
106397.5046765035
 30
0.0
 40
3.5
 41
0.0
 71
     9
 72
     5
  1

1001
ACAD
1000
MTEXTBEGIN
1070
    73
1070
     1
1070
    44
1040
1.0
1070
    74
1070
     0
1000
MTEXTEND
  0
MTEXT
  5
55F7
330
1A
100
AcDbEntity
  8
SUNPOU
100
AcDbMText
 10
60423.07604347968
 20
54031.71891135659
 30
0.0
 40
10.5
 41
0.0
 71
     9
 72
     5
  1

1001
ACAD
1000
MTEXTBEGIN
1070
    73
1070
     1
1070
    44
1040
1.0
1070
    74
1070
     0
1000
MTEXTEND
  0
MTEXT
  5
55F8
330
1A
100
AcDbEntity
  8
SUNPOU
100
AcDbMText
 10
46475.07594310369
 20
34859.3197722444
 30
0.0
 40
3.5
 41
0.0
 71
     7
 72
     5
  1

1001
ACAD
1000
MTEXTBEGIN
1070
    73
1070
     1
1070
    44
1040
1.0
1070
    74
1070
     0
1000
MTEXTEND
  0
MTEXT
  5
55F9
330
1A
100
AcDbEntity
  8
SUNPOU
100
AcDbMText
 10
74027.35402123588
 20
68370.58278833383
 30
0.0
 40
10.5
 41
0.0
 71
     9
 72
     5
  1

1001
ACAD
1000
MTEXTBEGIN
1070
    73
1070
     1
1070
    44
1040
1.0
1070
    74
1070
     0
1000
MTEXTEND
  0
MTEXT
  5
55FA
330
1A
100
AcDbEntity
  8
SUNPOU
100
AcDbMText
 10
75970.7612679453
 20
66569.53370845583
 30
0.0
 40
3.5
 41
0.0
 71
     9
 72
     5
  1

1001
ACAD
1000
MTEXTBEGIN
1070
    73
1070
     1
1070
    44
1040
1.0
1070
    74
1070
     0
1000
MTEXTEND
  0
MTEXT
  5
55FB
330
1A
100
AcDbEntity
  8
SUNPOU
100
AcDbMText
 10
107096.941100565
 20
109064.4793761132
 30
0.0
 40
10.5
 41
0.0
 71
     9
 72
     5
  1

1001
ACAD
1000
MTEXTBEGIN
1070
    73
1070
     1
1070
    44
1040
1.0
1070
    74
1070
     0
1000
MTEXTEND
  0
MTEXT
  5
55FC
330
1A
100
AcDbEntity
  8
SUNPOU
100
AcDbMText
 10
109040.3483472744
 20
107263.4302962351
 30
0.0
 40
3.5
 41
0.0
 71
     9
 72
     5
  1

1001
ACAD
1000
MTEXTBEGIN
1070
    73
1070
     1
1070
    44
1040
1.0
1070
    74
1070
     0
1000
MTEXTEND
  0
MTEXT
  5
55FD
330
1A
100
AcDbEntity
  8
SUNPOU
100
AcDbMText
 10
105709.1709283621
 20
108141.3777665285
 30
0.0
 40
10.5
 41
0.0
 71
     9
 72
     5
  1

1001
ACAD
1000
MTEXTBEGIN
1070
    73
1070
     1
1070
    44
1040
1.0
1070
    74
1070
     0
1000
MTEXTEND
  0
MTEXT
  5
55FE
330
1A
100
AcDbEntity
  8
SUNPOU
100
AcDbMText
 10
107652.5781750715
 20
106340.3286866505
 30
0.0
 40
3.5
 41
0.0
 71
     9
 72
     5
  1

1001
ACAD
1000
MTEXTBEGIN
1070
    73
1070
     1
1070
    44
1040
1.0
1070
    74
1070
     0
1000
MTEXTEND
  0
MTEXT
  5
55FF
330
1A
100
AcDbEntity
  8
SUNPOU
100
AcDbMText
 10
73193.09268743351
 20
66158.78082845056
 30
0.0
 40
10.5
 41
0.0
 71
     9
 72
     5
  1

1001
ACAD
1000
MTEXTBEGIN
1070
    73
1070
     1
1070
    44
1040
1.0
1070
    74
1070
     0
1000
MTEXTEND
  0
MTEXT
  5
5600
330
1A
100
AcDbEntity
  8
SUNPOU
100
AcDbMText
 10
75916.39889159806
 20
66563.46252003162
 30
0.0
 40
3.5
 41
0.0
 71
     9
 72
     5
  1

1001
ACAD
1000
MTEXTBEGIN
1070
    73
1070
     1
1070
    44
1040
1.0
1070
    74
1070
     0
1000
MTEXTEND
  0
MTEXT
  5
5601
330
1A
100
AcDbEntity
  8
SUNPOU
100
AcDbMText
 10
75124.04436649058
 20
63402.1566819768
 30
0.0
 40
10.5
 41
0.0
 71
     9
 72
     5
  1

1001
ACAD
1000
MTEXTBEGIN
1070
    73
1070
     1
1070
    44
1040
1.0
1070
    74
1070
     0
1000
MTEXTEND
  0
MTEXT
  5
5602
330
1A
100
AcDbEntity
  8
SUNPOU
100
AcDbMText
 10
77067.4516132
 20
61601.1076020988
 30
0.0
 40
3.5
 41
0.0
 71
     9
 72
     5
  1

1001
ACAD
1000
MTEXTBEGIN
1070
    73
1070
     1
1070
    44
1040
1.0
1070
    74
1070
     0
1000
MTEXTEND
  0
MTEXT
  5
5603
330
1A
100
AcDbEntity
  8
SUNPOU
100
AcDbMText
 10
77012.54710378659
 20
61488.33571981449
 30
0.0
 40
3.5
 41
0.0
 71
     9
 72
     5
  1

1001
ACAD
1000
MTEXTBEGIN
1070
    73
1070
     1
1070
    44
1040
1.0
1070
    74
1070
     0
1000
MTEXTEND
  0
MTEXT
  5
5604
330
1A
100
AcDbEntity
  8
SUNPOU
100
AcDbMText
 10
76376.61896736668
 20
60677.01447874797
 30
0.0
 40
3.5
 41
0.0
 71
     9
 72
     5
  1

1001
ACAD
1000
MTEXTBEGIN
1070
    73
1070
     1
1070
    44
1040
1.0
1070
    74
1070
     0
1000
MTEXTEND
  0
MTEXT
  5
5605
330
1A
100
AcDbEntity
  8
SUNPOU
100
AcDbMText
 10
76375.37854794595
 20
60676.76650181047
 30
0.0
 40
10.5
 41
0.0
 71
     9
 72
     5
  1

1001
ACAD
1000
MTEXTBEGIN
1070
    73
1070
     1
1070
    44
1040
1.0
1070
    74
1070
     0
1000
MTEXTEND
  0
MTEXT
  5
5606
330
1A
100
AcDbEntity
  8
SUNPOU
100
AcDbMText
 10
84709.93991079748
 20
78034.0328293557
 30
0.0
 40
10.5
 41
0.0
 71
     9
 72
     5
  1

1001
ACAD
1000
MTEXTBEGIN
1070
    73
1070
     1
1070
    44
1040
1.0
1070
    74
1070
     0
1000
MTEXTEND
  0
MTEXT
  5
5607
330
1A
100
AcDbEntity
  8
SUNPOU
100
AcDbMText
 10
93432.10747671548
 20
85449.86736089315
 30
0.0
 40
10.5
 41
0.0
 71
     9
 72
     5
  1

1001
ACAD
1000
MTEXTBEGIN
1070
    73
1070
     1
1070
    44
1040
1.0
1070
    74
1070
     0
1000
MTEXTEND
  0
MTEXT
  5
5608
330
1A
100
AcDbEntity
  8
SUNPOU
100
AcDbMText
 10
112385.8661940454
 20
102916.4434133851
 30
0.0
 40
10.5
 41
0.0
 71
     9
 72
     5
  1

1001
ACAD
1000
MTEXTBEGIN
1070
    73
1070
     1
1070
    44
1040
1.0
1070
    74
1070
     0
1000
MTEXTEND
  0
MTEXT
  5
5609
330
1A
100
AcDbEntity
  8
SUNPOU
100
AcDbMText
 10
114329.2734407548
 20
101115.3943335072
 30
0.0
 40
3.5
 41
0.0
 71
     9
 72
     5
  1

1001
ACAD
1000
MTEXTBEGIN
1070
    73
1070
     1
1070
    44
1040
1.0
1070
    74
1070
     0
1000
MTEXTEND
  0
MTEXT
  5
560A
330
1A
100
AcDbEntity
  8
SUNPOU
100
AcDbMText
 10
145455.4532733745
 20
143610.3400011645
 30
0.0
 40
10.5
 41
0.0
 71
     9
 72
     5
  1

1001
ACAD
1000
MTEXTBEGIN
1070
    73
1070
     1
1070
    44
1040
1.0
1070
    74
1070
     0
1000
MTEXTEND
  0
MTEXT
  5
560B
330
1A
100
AcDbEntity
  8
SUNPOU
100
AcDbMText
 10
147398.8605200839
 20
141809.2909212864
 30
0.0
 40
3.5
 41
0.0
 71
     9
 72
     5
  1

1001
ACAD
1000
MTEXTBEGIN
1070
    73
1070
     1
1070
    44
1040
1.0
1070
    74
1070
     0
1000
MTEXTEND
  0
MTEXT
  5
560C
330
1A
100
AcDbEntity
  8
SUNPOU
100
AcDbMText
 10
95895.72097917013
 20
89443.5051561396
 30
0.0
 40
10.5
 41
0.0
 71
     9
 72
     5
  1

1001
ACAD
1000
MTEXTBEGIN
1070
    73
1070
     1
1070
    44
1040
1.0
1070
    74
1070
     0
1000
MTEXTEND
  0
MTEXT
  5
560D
330
1A
100
AcDbEntity
  8
SUNPOU
100
AcDbMText
 10
81947.72087879414
 20
70271.1060170274
 30
0.0
 40
3.5
 41
0.0
 71
     7
 72
     5
  1

1001
ACAD
1000
MTEXTBEGIN
1070
    73
1070
     1
1070
    44
1040
1.0
1070
    74
1070
     0
1000
MTEXTEND
  0
MTEXT
  5
560E
330
1A
100
AcDbEntity
  8
SUNPOU
100
AcDbMText
 10
62932.89027578729
 20
58033.25474784561
 30
0.0
 40
10.5
 41
0.0
 71
     7
 72
     5
  1

1001
ACAD
1000
MTEXTBEGIN
1070
    73
1070
     1
1070
    44
1040
1.0
1070
    74
1070
     0
1000
MTEXTEND
  0
MTEXT
  5
560F
330
1A
100
AcDbEntity
  8
SUNPOU
100
AcDbMText
 10
50475.66201083918
 20
42188.32316974719
 30
0.0
 40
35.0
 41
0.0
 71
     9
 72
     5
  1

1001
ACAD
1000
MTEXTBEGIN
1070
    73
1070
     1
1070
    44
1040
1.0
1070
    74
1070
     0
1000
MTEXTEND
  0
MTEXT
  5
5610
330
1A
100
AcDbEntity
  8
SUNPOU
100
AcDbMText
 10
49384.14706841413
 20
42797.0985797959
 30
0.0
 40
350.0000004171781
 41
0.0
 71
     7
 72
     5
  1

1001
ACAD
1000
MTEXTBEGIN
1070
    73
1070
     1
1070
    44
1040
1.0
1070
    74
1070
     0
1000
MTEXTEND
  0
MTEXT
  5
5611
330
1A
100
AcDbEntity
  8
0
100
AcDbMText
 10
55428.09782635704
 20
40777.02094193211
 30
0.0
 40
8.0
 41
0.0
 71
     7
 72
     5
  1

1001
ACAD
1000
MTEXTBEGIN
1070
    73
1070
     1
1070
    44
1040
1.0
1070
    74
1070
     0
1000
MTEXTEND
  0
MTEXT
  5
5612
330
1A
100
AcDbEntity
  8
0
100
AcDbMText
 10
57713.45551625194
 20
41747.81123668317
 30
0.0
 40
8.0
 41
0.0
 71
     7
 72
     5
  1

1001
ACAD
1000
MTEXTBEGIN
1070
    73
1070
     1
1070
    44
1040
1.0
1070
    74
1070
     0
1000
MTEXTEND
  0
MTEXT
  5
5613
330
1A
100
AcDbEntity
  8
SUNPOU
100
AcDbMText
 10
60379.35253693408
 20
51259.9226290583
 30
0.0
 40
10.5
 41
0.0
 71
     1
 72
     5
  1

1001
ACAD
1000
MTEXTBEGIN
1070
    73
1070
     1
1070
    44
1040
1.0
1070
    74
1070
     0
1000
MTEXTEND
  0
MTEXT
  5
5614
330
1A
100
AcDbEntity
  8
SUNPOU
100
AcDbMText
 10
52448.42934099814
 20
50313.12949514535
 30
0.0
 40
10.5
 41
0.0
 71
     7
 72
     5
  1

1001
ACAD
1000
MTEXTBEGIN
1070
    73
1070
     1
1070
    44
1040
1.0
1070
    74
1070
     0
1000
MTEXTEND
  0
MTEXT
  5
5615
330
1A
100
AcDbEntity
  8
SUNPOU
100
AcDbMText
 10
55397.41300551091
 20
55213.80556698819
 30
0.0
 40
10.5
 41
0.0
 71
     7
 72
     5
  1

1001
ACAD
1000
MTEXTBEGIN
1070
    73
1070
     1
1070
    44
1040
1.0
1070
    74
1070
     0
1000
MTEXTEND
  0
MTEXT
  5
5616
330
1A
100
AcDbEntity
  8
SUNPOU
100
AcDbMText
 10
59906.49113346147
 20
57650.10631460826
 30
0.0
 40
10.5
 41
0.0
 71
     7
 72
     5
  1

1001
ACAD
1000
MTEXTBEGIN
1070
    73
1070
     1
1070
    44
1040
1.0
1070
    74
1070
     0
1000
MTEXTEND
  0
MTEXT
  5
5617
330
1A
100
AcDbEntity
  8
SUNPOU
100
AcDbMText
 10
43507.32902022979
 20
36647.70246499718
 30
0.0
 40
10.5
 41
0.0
 71
     7
 72
     5
  1

1001
ACAD
1000
MTEXTBEGIN
1070
    73
1070
     1
1070
    44
1040
1.0
1070
    74
1070
     0
1000
MTEXTEND
  0
MTEXT
  5
5618
330
1A
100
AcDbEntity
  8
SUNPOU
100
AcDbMText
 10
94698.84745413006
 20
82320.68302864542
 30
0.0
 40
10.5
 41
0.0
 71
     9
 72
     5
  1

1001
ACAD
1000
MTEXTBEGIN
1070
    73
1070
     1
1070
    44
1040
1.0
1070
    74
1070
     0
1000
MTEXTEND
  0
MTEXT
  5
5619
330
1A
100
AcDbEntity
  8
SUNPOU
100
AcDbMText
 10
103421.015020048
 20
89736.5175601829
 30
0.0
 40
10.5
 41
0.0
 71
     9
 72
     5
  1

1001
ACAD
1000
MTEXTBEGIN
1070
    73
1070
     1
1070
    44
1040
1.0
1070
    74
1070
     0
1000
MTEXTEND
  0
MTEXT
  5
561A
330
1A
100
AcDbEntity
  8
SUNPOU
100
AcDbMText
 10
122374.773737378
 20
107203.0936126749
 30
0.0
 40
10.5
 41
0.0
 71
     9
 72
     5
  1

1001
ACAD
1000
MTEXTBEGIN
1070
    73
1070
     1
1070
    44
1040
1.0
1070
    74
1070
     0
1000
MTEXTEND
  0
MTEXT
  5
561B
330
1A
100
AcDbEntity
  8
SUNPOU
100
AcDbMText
 10
124318.1809840874
 20
105402.0445327969
 30
0.0
 40
3.5
 41
0.0
 71
     9
 72
     5
  1

1001
ACAD
1000
MTEXTBEGIN
1070
    73
1070
     1
1070
    44
1040
1.0
1070
    74
1070
     0
1000
MTEXTEND
  0
MTEXT
  5
561C
330
1A
100
AcDbEntity
  8
SUNPOU
100
AcDbMText
 10
155444.3608167071
 20
147896.9902004542
 30
0.0
 40
10.5
 41
0.0
 71
     9
 72
     5
  1

1001
ACAD
1000
MTEXTBEGIN
1070
    73
1070
     1
1070
    44
1040
1.0
1070
    74
1070
     0
1000
MTEXTEND
  0
MTEXT
  5
561D
330
1A
100
AcDbEntity
  8
SUNPOU
100
AcDbMText
 10
157387.7680634165
 20
146095.9411205762
 30
0.0
 40
3.5
 41
0.0
 71
     9
 72
     5
  1

1001
ACAD
1000
MTEXTBEGIN
1070
    73
1070
     1
1070
    44
1040
1.0
1070
    74
1070
     0
1000
MTEXTEND
  0
MTEXT
  5
561E
330
1A
100
AcDbEntity
  8
SUNPOU
100
AcDbMText
 10
105884.6285225027
 20
93730.15535542933
 30
0.0
 40
10.5
 41
0.0
 71
     9
 72
     5
  1

1001
ACAD
1000
MTEXTBEGIN
1070
    73
1070
     1
1070
    44
1040
1.0
1070
    74
1070
     0
1000
MTEXTEND
  0
MTEXT
  5
561F
330
1A
100
AcDbEntity
  8
SUNPOU
100
AcDbMText
 10
91936.6284221267
 20
74557.75621631714
 30
0.0
 40
3.5
 41
0.0
 71
     7
 72
     5
  1

1001
ACAD
1000
MTEXTBEGIN
1070
    73
1070
     1
1070
    44
1040
1.0
1070
    74
1070
     0
1000
MTEXTEND
  0
MTEXT
  5
5620
330
1A
100
AcDbEntity
  8
SUNPOU
100
AcDbMText
 10
72921.79781911986
 20
62319.90494713533
 30
0.0
 40
10.5
 41
0.0
 71
     7
 72
     5
  1

1001
ACAD
1000
MTEXTBEGIN
1070
    73
1070
     1
1070
    44
1040
1.0
1070
    74
1070
     0
1000
MTEXTEND
  0
MTEXT
  5
5621
330
1A
100
AcDbEntity
  8
SUNPOU
100
AcDbMText
 10
60464.56955417175
 20
46474.97336903692
 30
0.0
 40
35.0
 41
0.0
 71
     9
 72
     5
  1

1001
ACAD
1000
MTEXTBEGIN
1070
    73
1070
     1
1070
    44
1040
1.0
1070
    74
1070
     0
1000
MTEXTEND
  0
MTEXT
  5
5622
330
1A
100
AcDbEntity
  8
SUNPOU
100
AcDbMText
 10
59373.05461174672
 20
47083.74877908562
 30
0.0
 40
350.0000004171781
 41
0.0
 71
     7
 72
     5
  1

1001
ACAD
1000
MTEXTBEGIN
1070
    73
1070
     1
1070
    44
1040
1.0
1070
    74
1070
     0
1000
MTEXTEND
  0
MTEXT
  5
5623
330
1A
100
AcDbEntity
  8
0
100
AcDbMText
 10
65417.00536968962
 20
45063.67114122186
 30
0.0
 40
8.0
 41
0.0
 71
     7
 72
     5
  1

1001
ACAD
1000
MTEXTBEGIN
1070
    73
1070
     1
1070
    44
1040
1.0
1070
    74
1070
     0
1000
MTEXTEND
  0
MTEXT
  5
5624
330
1A
100
AcDbEntity
  8
0
100
AcDbMText
 10
67702.36305958452
 20
46034.46143597292
 30
0.0
 40
8.0
 41
0.0
 71
     7
 72
     5
  1

1001
ACAD
1000
MTEXTBEGIN
1070
    73
1070
     1
1070
    44
1040
1.0
1070
    74
1070
     0
1000
MTEXTEND
  0
MTEXT
  5
5625
330
1A
100
AcDbEntity
  8
SUNPOU
100
AcDbMText
 10
70368.26008026666
 20
55546.57282834803
 30
0.0
 40
10.5
 41
0.0
 71
     1
 72
     5
  1

1001
ACAD
1000
MTEXTBEGIN
1070
    73
1070
     1
1070
    44
1040
1.0
1070
    74
1070
     0
1000
MTEXTEND
  0
MTEXT
  5
5626
330
1A
100
AcDbEntity
  8
SUNPOU
100
AcDbMText
 10
62437.33688433072
 20
54599.77969443508
 30
0.0
 40
10.5
 41
0.0
 71
     7
 72
     5
  1

1001
ACAD
1000
MTEXTBEGIN
1070
    73
1070
     1
1070
    44
1040
1.0
1070
    74
1070
     0
1000
MTEXTEND
  0
MTEXT
  5
5627
330
1A
100
AcDbEntity
  8
SUNPOU
100
AcDbMText
 10
65386.32054884349
 20
59500.45576627792
 30
0.0
 40
10.5
 41
0.0
 71
     7
 72
     5
  1

1001
ACAD
1000
MTEXTBEGIN
1070
    73
1070
     1
1070
    44
1040
1.0
1070
    74
1070
     0
1000
MTEXTEND
  0
MTEXT
  5
5628
330
1A
100
AcDbEntity
  8
SUNPOU
100
AcDbMText
 10
69895.39867679405
 20
61936.756513898
 30
0.0
 40
10.5
 41
0.0
 71
     7
 72
     5
  1

1001
ACAD
1000
MTEXTBEGIN
1070
    73
1070
     1
1070
    44
1040
1.0
1070
    74
1070
     0
1000
MTEXTEND
  0
MTEXT
  5
5629
330
1A
100
AcDbEntity
  8
SUNPOU
100
AcDbMText
 10
53496.23656356237
 20
40934.35266428691
 30
0.0
 40
10.5
 41
0.0
 71
     7
 72
     5
  1

1001
ACAD
1000
MTEXTBEGIN
1070
    73
1070
     1
1070
    44
1040
1.0
1070
    74
1070
     0
1000
MTEXTEND
  0
MTEXT
  5
562A
330
1A
100
AcDbEntity
  8
SUNPOU
100
AcDbMText
 10
55306.99947493731
 20
47261.76665176547
 30
0.0
 40
10.5
 41
0.0
 71
     9
 72
     5
  1

1001
ACAD
1000
MTEXTBEGIN
1070
    73
1070
     1
1070
    44
1040
1.0
1070
    74
1070
     0
1000
MTEXTEND
  0
MTEXT
  5
562B
330
1A
100
AcDbEntity
  8
SUNPOU
100
AcDbMText
 10
64029.16704085528
 20
54677.60118330295
 30
0.0
 40
10.5
 41
0.0
 71
     9
 72
     5
  1

1001
ACAD
1000
MTEXTBEGIN
1070
    73
1070
     1
1070
    44
1040
1.0
1070
    74
1070
     0
1000
MTEXTEND
  0
MTEXT
  5
562C
330
1A
100
AcDbEntity
  8
SUNPOU
100
AcDbMText
 10
82982.92575818527
 20
72144.17723579499
 30
0.0
 40
10.5
 41
0.0
 71
     9
 72
     5
  1

1001
ACAD
1000
MTEXTBEGIN
1070
    73
1070
     1
1070
    44
1040
1.0
1070
    74
1070
     0
1000
MTEXTEND
  0
MTEXT
  5
562D
330
1A
100
AcDbEntity
  8
SUNPOU
100
AcDbMText
 10
84926.33300489467
 20
70343.12815591698
 30
0.0
 40
3.5
 41
0.0
 71
     9
 72
     5
  1

1001
ACAD
1000
MTEXTBEGIN
1070
    73
1070
     1
1070
    44
1040
1.0
1070
    74
1070
     0
1000
MTEXTEND
  0
MTEXT
  5
562E
330
1A
100
AcDbEntity
  8
SUNPOU
100
AcDbMText
 10
116052.5128375143
 20
112838.0738235743
 30
0.0
 40
10.5
 41
0.0
 71
     9
 72
     5
  1

1001
ACAD
1000
MTEXTBEGIN
1070
    73
1070
     1
1070
    44
1040
1.0
1070
    74
1070
     0
1000
MTEXTEND
  0
MTEXT
  5
562F
330
1A
100
AcDbEntity
  8
SUNPOU
100
AcDbMText
 10
117995.9200842238
 20
111037.0247436963
 30
0.0
 40
3.5
 41
0.0
 71
     9
 72
     5
  1

1001
ACAD
1000
MTEXTBEGIN
1070
    73
1070
     1
1070
    44
1040
1.0
1070
    74
1070
     0
1000
MTEXTEND
  0
MTEXT
  5
5630
330
1A
100
AcDbEntity
  8
SUNPOU
100
AcDbMText
 10
66492.78054330994
 20
58671.23897854939
 30
0.0
 40
10.5
 41
0.0
 71
     9
 72
     5
  1

1001
ACAD
1000
MTEXTBEGIN
1070
    73
1070
     1
1070
    44
1040
1.0
1070
    74
1070
     0
1000
MTEXTEND
  0
MTEXT
  5
5631
330
1A
100
AcDbEntity
  8
SUNPOU
100
AcDbMText
 10
52544.78044293396
 20
39498.83983943717
 30
0.0
 40
3.5
 41
0.0
 71
     7
 72
     5
  1

1001
ACAD
1000
MTEXTBEGIN
1070
    73
1070
     1
1070
    44
1040
1.0
1070
    74
1070
     0
1000
MTEXTEND
  0
MTEXT
  5
5632
330
1A
100
AcDbEntity
  8
SUNPOU
100
AcDbMText
 10
66237.13112570454
 20
48857.90306045851
 30
0.0
 40
10.5
 41
0.0
 71
     9
 72
     5
  1

1001
ACAD
1000
MTEXTBEGIN
1070
    73
1070
     1
1070
    44
1040
1.0
1070
    74
1070
     0
1000
MTEXTEND
  0
MTEXT
  5
5633
330
1A
100
AcDbEntity
  8
SUNPOU
100
AcDbMText
 10
74959.29869162252
 20
56273.737591996
 30
0.0
 40
10.5
 41
0.0
 71
     9
 72
     5
  1

1001
ACAD
1000
MTEXTBEGIN
1070
    73
1070
     1
1070
    44
1040
1.0
1070
    74
1070
     0
1000
MTEXTEND
  0
MTEXT
  5
5634
330
1A
100
AcDbEntity
  8
SUNPOU
100
AcDbMText
 10
93913.0574089525
 20
73740.31364448805
 30
0.0
 40
10.5
 41
0.0
 71
     9
 72
     5
  1

1001
ACAD
1000
MTEXTBEGIN
1070
    73
1070
     1
1070
    44
1040
1.0
1070
    74
1070
     0
1000
MTEXTEND
  0
MTEXT
  5
5635
330
1A
100
AcDbEntity
  8
SUNPOU
100
AcDbMText
 10
95856.46465566192
 20
71939.26456461004
 30
0.0
 40
3.5
 41
0.0
 71
     9
 72
     5
  1

1001
ACAD
1000
MTEXTBEGIN
1070
    73
1070
     1
1070
    44
1040
1.0
1070
    74
1070
     0
1000
MTEXTEND
  0
MTEXT
  5
5636
330
1A
100
AcDbEntity
  8
SUNPOU
100
AcDbMText
 10
126982.6444882816
 20
114434.2102322673
 30
0.0
 40
10.5
 41
0.0
 71
     9
 72
     5
  1

1001
ACAD
1000
MTEXTBEGIN
1070
    73
1070
     1
1070
    44
1040
1.0
1070
    74
1070
     0
1000
MTEXTEND
  0
MTEXT
  5
5637
330
1A
100
AcDbEntity
  8
SUNPOU
100
AcDbMText
 10
128926.051734991
 20
112633.1611523893
 30
0.0
 40
3.5
 41
0.0
 71
     9
 72
     5
  1

1001
ACAD
1000
MTEXTBEGIN
1070
    73
1070
     1
1070
    44
1040
1.0
1070
    74
1070
     0
1000
MTEXTEND
  0
MTEXT
  5
5638
330
1A
100
AcDbEntity
  8
SUNPOU
100
AcDbMText
 10
77422.91219407717
 20
60267.37538724244
 30
0.0
 40
10.5
 41
0.0
 71
     9
 72
     5
  1

1001
ACAD
1000
MTEXTBEGIN
1070
    73
1070
     1
1070
    44
1040
1.0
1070
    74
1070
     0
1000
MTEXTEND
  0
MTEXT
  5
5639
330
1A
100
AcDbEntity
  8
SUNPOU
100
AcDbMText
 10
63474.91209370119
 20
41094.97624813023
 30
0.0
 40
3.5
 41
0.0
 71
     7
 72
     5
  1

1001
ACAD
1000
MTEXTBEGIN
1070
    73
1070
     1
1070
    44
1040
1.0
1070
    74
1070
     0
1000
MTEXTEND
  0
MTEXT
  5
563A
330
1A
100
AcDbEntity
  8
SUNPOU
100
AcDbMText
 10
48117.65086229006
 20
40806.11043916631
 30
0.0
 40
10.5
 41
0.0
 71
     9
 72
     5
  1

1001
ACAD
1000
MTEXTBEGIN
1070
    73
1070
     1
1070
    44
1040
1.0
1070
    74
1070
     0
1000
MTEXTEND
  0
MTEXT
  5
563B
330
1A
100
AcDbEntity
  8
SUNPOU
100
AcDbMText
 10
67071.40957962004
 20
58272.68649165837
 30
0.0
 40
10.5
 41
0.0
 71
     9
 72
     5
  1

1001
ACAD
1000
MTEXTBEGIN
1070
    73
1070
     1
1070
    44
1040
1.0
1070
    74
1070
     0
1000
MTEXTEND
  0
MTEXT
  5
563C
330
1A
100
AcDbEntity
  8
SUNPOU
100
AcDbMText
 10
69014.81682632945
 20
56471.63741178035
 30
0.0
 40
3.5
 41
0.0
 71
     9
 72
     5
  1

1001
ACAD
1000
MTEXTBEGIN
1070
    73
1070
     1
1070
    44
1040
1.0
1070
    74
1070
     0
1000
MTEXTEND
  0
MTEXT
  5
563D
330
1A
100
AcDbEntity
  8
SUNPOU
100
AcDbMText
 10
100140.9966589491
 20
98966.58307943772
 30
0.0
 40
10.5
 41
0.0
 71
     9
 72
     5
  1

1001
ACAD
1000
MTEXTBEGIN
1070
    73
1070
     1
1070
    44
1040
1.0
1070
    74
1070
     0
1000
MTEXTEND
  0
MTEXT
  5
563E
330
1A
100
AcDbEntity
  8
SUNPOU
100
AcDbMText
 10
102084.4039056586
 20
97165.53399955969
 30
0.0
 40
3.5
 41
0.0
 71
     9
 72
     5
  1

1001
ACAD
1000
MTEXTBEGIN
1070
    73
1070
     1
1070
    44
1040
1.0
1070
    74
1070
     0
1000
MTEXTEND
  0
MTEXT
  5
563F
330
1A
100
AcDbEntity
  8
SUNPOU
100
AcDbMText
 10
50581.26436474472
 20
44799.74823441275
 30
0.0
 40
10.5
 41
0.0
 71
     9
 72
     5
  1

1001
ACAD
1000
MTEXTBEGIN
1070
    73
1070
     1
1070
    44
1040
1.0
1070
    74
1070
     0
1000
MTEXTEND
  0
MTEXT
  5
5640
330
1A
100
AcDbEntity
  8
SUNPOU
100
AcDbMText
 10
36633.26426436873
 20
25627.34909530054
 30
0.0
 40
3.5
 41
0.0
 71
     7
 72
     5
  1

1001
ACAD
1000
MTEXTBEGIN
1070
    73
1070
     1
1070
    44
1040
1.0
1070
    74
1070
     0
1000
MTEXTEND
  0
MTEXT
  5
5641
330
1A
100
AcDbEntity
  8
SUNPOU
100
AcDbMText
 10
61069.42493315968
 20
52574.61207825771
 30
0.0
 40
10.5
 41
0.0
 71
     9
 72
     5
  1

1001
ACAD
1000
MTEXTBEGIN
1070
    73
1070
     1
1070
    44
1040
1.0
1070
    74
1070
     0
1000
MTEXTEND
  0
MTEXT
  5
5642
330
1A
100
AcDbEntity
  8
SUNPOU
100
AcDbMText
 10
80023.18365048967
 20
70041.18813074978
 30
0.0
 40
10.5
 41
0.0
 71
     9
 72
     5
  1

1001
ACAD
1000
MTEXTBEGIN
1070
    73
1070
     1
1070
    44
1040
1.0
1070
    74
1070
     0
1000
MTEXTEND
  0
MTEXT
  5
5643
330
1A
100
AcDbEntity
  8
SUNPOU
100
AcDbMText
 10
81966.59089719908
 20
68240.13905087176
 30
0.0
 40
3.5
 41
0.0
 71
     9
 72
     5
  1

1001
ACAD
1000
MTEXTBEGIN
1070
    73
1070
     1
1070
    44
1040
1.0
1070
    74
1070
     0
1000
MTEXTEND
  0
MTEXT
  5
5644
330
1A
100
AcDbEntity
  8
SUNPOU
100
AcDbMText
 10
113092.7707298187
 20
110735.0847185291
 30
0.0
 40
10.5
 41
0.0
 71
     9
 72
     5
  1

1001
ACAD
1000
MTEXTBEGIN
1070
    73
1070
     1
1070
    44
1040
1.0
1070
    74
1070
     0
1000
MTEXTEND
  0
MTEXT
  5
5645
330
1A
100
AcDbEntity
  8
SUNPOU
100
AcDbMText
 10
115036.1779765282
 20
108934.0356386511
 30
0.0
 40
3.5
 41
0.0
 71
     9
 72
     5
  1

1001
ACAD
1000
MTEXTBEGIN
1070
    73
1070
     1
1070
    44
1040
1.0
1070
    74
1070
     0
1000
MTEXTEND
  0
MTEXT
  5
5646
330
1A
100
AcDbEntity
  8
SUNPOU
100
AcDbMText
 10
63533.03843561433
 20
56568.24987350415
 30
0.0
 40
10.5
 41
0.0
 71
     9
 72
     5
  1

1001
ACAD
1000
MTEXTBEGIN
1070
    73
1070
     1
1070
    44
1040
1.0
1070
    74
1070
     0
1000
MTEXTEND
  0
MTEXT
  5
5647
330
1A
100
AcDbEntity
  8
SUNPOU
100
AcDbMText
 10
49585.03833523835
 20
37395.85073439196
 30
0.0
 40
3.5
 41
0.0
 71
     7
 72
     5
  1

1001
ACAD
1000
MTEXTBEGIN
1070
    73
1070
     1
1070
    44
1040
1.0
1070
    74
1070
     0
1000
MTEXTEND
  0
MTEXT
  5
5648
330
1A
100
AcDbEntity
  8
SUNPOU
100
AcDbMText
 10
77137.31641337052
 20
70907.11375048141
 30
0.0
 40
10.5
 41
0.0
 71
     9
 72
     5
  1

1001
ACAD
1000
MTEXTBEGIN
1070
    73
1070
     1
1070
    44
1040
1.0
1070
    74
1070
     0
1000
MTEXTEND
  0
MTEXT
  5
5649
330
1A
100
AcDbEntity
  8
SUNPOU
100
AcDbMText
 10
79080.72366007995
 20
69106.06467060339
 30
0.0
 40
3.5
 41
0.0
 71
     9
 72
     5
  1

1001
ACAD
1000
MTEXTBEGIN
1070
    73
1070
     1
1070
    44
1040
1.0
1070
    74
1070
     0
1000
MTEXTEND
  0
MTEXT
  5
564A
330
1A
100
AcDbEntity
  8
SUNPOU
100
AcDbMText
 10
110206.9034926996
 20
111601.0103382607
 30
0.0
 40
10.5
 41
0.0
 71
     9
 72
     5
  1

1001
ACAD
1000
MTEXTBEGIN
1070
    73
1070
     1
1070
    44
1040
1.0
1070
    74
1070
     0
1000
MTEXTEND
  0
MTEXT
  5
564B
330
1A
100
AcDbEntity
  8
SUNPOU
100
AcDbMText
 10
112150.310739409
 20
109799.9612583827
 30
0.0
 40
3.5
 41
0.0
 71
     9
 72
     5
  1

1001
ACAD
1000
MTEXTBEGIN
1070
    73
1070
     1
1070
    44
1040
1.0
1070
    74
1070
     0
1000
MTEXTEND
  0
MTEXT
  5
564C
330
1A
100
AcDbEntity
  8
SUNPOU
100
AcDbMText
 10
108819.1333204968
 20
110677.9087286761
 30
0.0
 40
10.5
 41
0.0
 71
     9
 72
     5
  1

1001
ACAD
1000
MTEXTBEGIN
1070
    73
1070
     1
1070
    44
1040
1.0
1070
    74
1070
     0
1000
MTEXTEND
  0
MTEXT
  5
564D
330
1A
100
AcDbEntity
  8
SUNPOU
100
AcDbMText
 10
110762.5405672062
 20
108876.8596487981
 30
0.0
 40
3.5
 41
0.0
 71
     9
 72
     5
  1

1001
ACAD
1000
MTEXTBEGIN
1070
    73
1070
     1
1070
    44
1040
1.0
1070
    74
1070
     0
1000
MTEXTEND
  0
MTEXT
  5
564E
330
1A
100
AcDbEntity
  8
SUNPOU
100
AcDbMText
 10
76303.05507956816
 20
68695.31179059812
 30
0.0
 40
10.5
 41
0.0
 71
     9
 72
     5
  1

1001
ACAD
1000
MTEXTBEGIN
1070
    73
1070
     1
1070
    44
1040
1.0
1070
    74
1070
     0
1000
MTEXTEND
  0
MTEXT
  5
564F
330
1A
100
AcDbEntity
  8
SUNPOU
100
AcDbMText
 10
79026.36128373271
 20
69099.99348217918
 30
0.0
 40
3.5
 41
0.0
 71
     9
 72
     5
  1

1001
ACAD
1000
MTEXTBEGIN
1070
    73
1070
     1
1070
    44
1040
1.0
1070
    74
1070
     0
1000
MTEXTEND
  0
MTEXT
  5
5650
330
1A
100
AcDbEntity
  8
SUNPOU
100
AcDbMText
 10
78234.00675862522
 20
65938.68764412436
 30
0.0
 40
10.5
 41
0.0
 71
     9
 72
     5
  1

1001
ACAD
1000
MTEXTBEGIN
1070
    73
1070
     1
1070
    44
1040
1.0
1070
    74
1070
     0
1000
MTEXTEND
  0
MTEXT
  5
5651
330
1A
100
AcDbEntity
  8
SUNPOU
100
AcDbMText
 10
80177.41400533465
 20
64137.63856424636
 30
0.0
 40
3.5
 41
0.0
 71
     9
 72
     5
  1

1001
ACAD
1000
MTEXTBEGIN
1070
    73
1070
     1
1070
    44
1040
1.0
1070
    74
1070
     0
1000
MTEXTEND
  0
MTEXT
  5
5652
330
1A
100
AcDbEntity
  8
SUNPOU
100
AcDbMText
 10
80122.50949592123
 20
64024.86668196205
 30
0.0
 40
3.5
 41
0.0
 71
     9
 72
     5
  1

1001
ACAD
1000
MTEXTBEGIN
1070
    73
1070
     1
1070
    44
1040
1.0
1070
    74
1070
     0
1000
MTEXTEND
  0
MTEXT
  5
5653
330
1A
100
AcDbEntity
  8
SUNPOU
100
AcDbMText
 10
79486.58135950133
 20
63213.54544089553
 30
0.0
 40
3.5
 41
0.0
 71
     9
 72
     5
  1

1001
ACAD
1000
MTEXTBEGIN
1070
    73
1070
     1
1070
    44
1040
1.0
1070
    74
1070
     0
1000
MTEXTEND
  0
MTEXT
  5
5654
330
1A
100
AcDbEntity
  8
SUNPOU
100
AcDbMText
 10
79485.3409400806
 20
63213.29746395804
 30
0.0
 40
10.5
 41
0.0
 71
     9
 72
     5
  1

1001
ACAD
1000
MTEXTBEGIN
1070
    73
1070
     1
1070
    44
1040
1.0
1070
    74
1070
     0
1000
MTEXTEND
  0
MTEXT
  5
5655
330
1A
100
AcDbEntity
  8
SUNPOU
100
AcDbMText
 10
85473.63363627567
 20
80747.76348077064
 30
0.0
 40
10.5
 41
0.0
 71
     9
 72
     5
  1

1001
ACAD
1000
MTEXTBEGIN
1070
    73
1070
     1
1070
    44
1040
1.0
1070
    74
1070
     0
1000
MTEXTEND
  0
MTEXT
  5
5656
330
1A
100
AcDbEntity
  8
SUNPOU
100
AcDbMText
 10
94195.80120219368
 20
88163.59801230809
 30
0.0
 40
10.5
 41
0.0
 71
     9
 72
     5
  1

1001
ACAD
1000
MTEXTBEGIN
1070
    73
1070
     1
1070
    44
1040
1.0
1070
    74
1070
     0
1000
MTEXTEND
  0
MTEXT
  5
5657
330
1A
100
AcDbEntity
  8
SUNPOU
100
AcDbMText
 10
113149.5599195236
 20
105630.1740648001
 30
0.0
 40
10.5
 41
0.0
 71
     9
 72
     5
  1

1001
ACAD
1000
MTEXTBEGIN
1070
    73
1070
     1
1070
    44
1040
1.0
1070
    74
1070
     0
1000
MTEXTEND
  0
MTEXT
  5
5658
330
1A
100
AcDbEntity
  8
SUNPOU
100
AcDbMText
 10
115092.967166233
 20
103829.1249849221
 30
0.0
 40
3.5
 41
0.0
 71
     9
 72
     5
  1

1001
ACAD
1000
MTEXTBEGIN
1070
    73
1070
     1
1070
    44
1040
1.0
1070
    74
1070
     0
1000
MTEXTEND
  0
MTEXT
  5
5659
330
1A
100
AcDbEntity
  8
SUNPOU
100
AcDbMText
 10
146219.1469988527
 20
146324.0706525794
 30
0.0
 40
10.5
 41
0.0
 71
     9
 72
     5
  1

1001
ACAD
1000
MTEXTBEGIN
1070
    73
1070
     1
1070
    44
1040
1.0
1070
    74
1070
     0
1000
MTEXTEND
  0
MTEXT
  5
565A
330
1A
100
AcDbEntity
  8
SUNPOU
100
AcDbMText
 10
148162.5542455621
 20
144523.0215727014
 30
0.0
 40
3.5
 41
0.0
 71
     9
 72
     5
  1

1001
ACAD
1000
MTEXTBEGIN
1070
    73
1070
     1
1070
    44
1040
1.0
1070
    74
1070
     0
1000
MTEXTEND
  0
MTEXT
  5
565B
330
1A
100
AcDbEntity
  8
SUNPOU
100
AcDbMText
 10
96659.41470464833
 20
92157.23580755453
 30
0.0
 40
10.5
 41
0.0
 71
     9
 72
     5
  1

1001
ACAD
1000
MTEXTBEGIN
1070
    73
1070
     1
1070
    44
1040
1.0
1070
    74
1070
     0
1000
MTEXTEND
  0
MTEXT
  5
565C
330
1A
100
AcDbEntity
  8
SUNPOU
100
AcDbMText
 10
82711.41460427234
 20
72984.83666844234
 30
0.0
 40
3.5
 41
0.0
 71
     7
 72
     5
  1

1001
ACAD
1000
MTEXTBEGIN
1070
    73
1070
     1
1070
    44
1040
1.0
1070
    74
1070
     0
1000
MTEXTEND
  0
MTEXT
  5
565D
330
1A
100
AcDbEntity
  8
SUNPOU
100
AcDbMText
 10
63696.58400126548
 20
60746.98539926055
 30
0.0
 40
10.5
 41
0.0
 71
     7
 72
     5
  1

1001
ACAD
1000
MTEXTBEGIN
1070
    73
1070
     1
1070
    44
1040
1.0
1070
    74
1070
     0
1000
MTEXTEND
  0
MTEXT
  5
565E
330
1A
100
AcDbEntity
  8
SUNPOU
100
AcDbMText
 10
51239.35573631738
 20
44902.05382116213
 30
0.0
 40
35.0
 41
0.0
 71
     9
 72
     5
  1

1001
ACAD
1000
MTEXTBEGIN
1070
    73
1070
     1
1070
    44
1040
1.0
1070
    74
1070
     0
1000
MTEXTEND
  0
MTEXT
  5
565F
330
1A
100
AcDbEntity
  8
SUNPOU
100
AcDbMText
 10
50147.84079389233
 20
45510.82923121084
 30
0.0
 40
350.0000004171781
 41
0.0
 71
     7
 72
     5
  1

1001
ACAD
1000
MTEXTBEGIN
1070
    73
1070
     1
1070
    44
1040
1.0
1070
    74
1070
     0
1000
MTEXTEND
  0
MTEXT
  5
5660
330
1A
100
AcDbEntity
  8
0
100
AcDbMText
 10
56191.79155183523
 20
43490.75159334705
 30
0.0
 40
8.0
 41
0.0
 71
     7
 72
     5
  1

1001
ACAD
1000
MTEXTBEGIN
1070
    73
1070
     1
1070
    44
1040
1.0
1070
    74
1070
     0
1000
MTEXTEND
  0
MTEXT
  5
5661
330
1A
100
AcDbEntity
  8
0
100
AcDbMText
 10
58477.14924173013
 20
44461.54188809812
 30
0.0
 40
8.0
 41
0.0
 71
     7
 72
     5
  1

1001
ACAD
1000
MTEXTBEGIN
1070
    73
1070
     1
1070
    44
1040
1.0
1070
    74
1070
     0
1000
MTEXTEND
  0
MTEXT
  5
5662
330
1A
100
AcDbEntity
  8
SUNPOU
100
AcDbMText
 10
61143.04626241227
 20
53973.65328047324
 30
0.0
 40
10.5
 41
0.0
 71
     1
 72
     5
  1

1001
ACAD
1000
MTEXTBEGIN
1070
    73
1070
     1
1070
    44
1040
1.0
1070
    74
1070
     0
1000
MTEXTEND
  0
MTEXT
  5
5663
330
1A
100
AcDbEntity
  8
SUNPOU
100
AcDbMText
 10
53212.12306647634
 20
53026.86014656028
 30
0.0
 40
10.5
 41
0.0
 71
     7
 72
     5
  1

1001
ACAD
1000
MTEXTBEGIN
1070
    73
1070
     1
1070
    44
1040
1.0
1070
    74
1070
     0
1000
MTEXTEND
  0
MTEXT
  5
5664
330
1A
100
AcDbEntity
  8
SUNPOU
100
AcDbMText
 10
56161.1067309891
 20
57927.53621840312
 30
0.0
 40
10.5
 41
0.0
 71
     7
 72
     5
  1

1001
ACAD
1000
MTEXTBEGIN
1070
    73
1070
     1
1070
    44
1040
1.0
1070
    74
1070
     0
1000
MTEXTEND
  0
MTEXT
  5
5665
330
1A
100
AcDbEntity
  8
SUNPOU
100
AcDbMText
 10
60670.18485893966
 20
60363.8369660232
 30
0.0
 40
10.5
 41
0.0
 71
     7
 72
     5
  1

1001
ACAD
1000
MTEXTBEGIN
1070
    73
1070
     1
1070
    44
1040
1.0
1070
    74
1070
     0
1000
MTEXTEND
  0
MTEXT
  5
5666
330
1A
100
AcDbEntity
  8
SUNPOU
100
AcDbMText
 10
44271.02274570799
 20
39361.43311641212
 30
0.0
 40
10.5
 41
0.0
 71
     7
 72
     5
  1

1001
ACAD
1000
MTEXTBEGIN
1070
    73
1070
     1
1070
    44
1040
1.0
1070
    74
1070
     0
1000
MTEXTEND
  0
MTEXT
  5
5667
330
1A
100
AcDbEntity
  8
SUNPOU
100
AcDbMText
 10
95462.54117960824
 20
85034.41368006038
 30
0.0
 40
10.5
 41
0.0
 71
     9
 72
     5
  1

1001
ACAD
1000
MTEXTBEGIN
1070
    73
1070
     1
1070
    44
1040
1.0
1070
    74
1070
     0
1000
MTEXTEND
  0
MTEXT
  5
5668
330
1A
100
AcDbEntity
  8
SUNPOU
100
AcDbMText
 10
104184.7087455262
 20
92450.24821159784
 30
0.0
 40
10.5
 41
0.0
 71
     9
 72
     5
  1

1001
ACAD
1000
MTEXTBEGIN
1070
    73
1070
     1
1070
    44
1040
1.0
1070
    74
1070
     0
1000
MTEXTEND
  0
MTEXT
  5
5669
330
1A
100
AcDbEntity
  8
SUNPOU
100
AcDbMText
 10
123138.4674628562
 20
109916.8242640898
 30
0.0
 40
10.5
 41
0.0
 71
     9
 72
     5
  1

1001
ACAD
1000
MTEXTBEGIN
1070
    73
1070
     1
1070
    44
1040
1.0
1070
    74
1070
     0
1000
MTEXTEND
  0
MTEXT
  5
566A
330
1A
100
AcDbEntity
  8
SUNPOU
100
AcDbMText
 10
125081.8747095656
 20
108115.7751842118
 30
0.0
 40
3.5
 41
0.0
 71
     9
 72
     5
  1

1001
ACAD
1000
MTEXTBEGIN
1070
    73
1070
     1
1070
    44
1040
1.0
1070
    74
1070
     0
1000
MTEXTEND
  0
MTEXT
  5
566B
330
1A
100
AcDbEntity
  8
SUNPOU
100
AcDbMText
 10
156208.0545421853
 20
150610.7208518691
 30
0.0
 40
10.5
 41
0.0
 71
     9
 72
     5
  1

1001
ACAD
1000
MTEXTBEGIN
1070
    73
1070
     1
1070
    44
1040
1.0
1070
    74
1070
     0
1000
MTEXTEND
  0
MTEXT
  5
566C
330
1A
100
AcDbEntity
  8
SUNPOU
100
AcDbMText
 10
158151.4617888947
 20
148809.6717719911
 30
0.0
 40
3.5
 41
0.0
 71
     9
 72
     5
  1

1001
ACAD
1000
MTEXTBEGIN
1070
    73
1070
     1
1070
    44
1040
1.0
1070
    74
1070
     0
1000
MTEXTEND
  0
MTEXT
  5
566D
330
1A
100
AcDbEntity
  8
SUNPOU
100
AcDbMText
 10
106648.3222479809
 20
96443.88600684427
 30
0.0
 40
10.5
 41
0.0
 71
     9
 72
     5
  1

1001
ACAD
1000
MTEXTBEGIN
1070
    73
1070
     1
1070
    44
1040
1.0
1070
    74
1070
     0
1000
MTEXTEND
  0
MTEXT
  5
566E
330
1A
100
AcDbEntity
  8
SUNPOU
100
AcDbMText
 10
92700.3221476049
 20
77271.48686773207
 30
0.0
 40
3.5
 41
0.0
 71
     7
 72
     5
  1

1001
ACAD
1000
MTEXTBEGIN
1070
    73
1070
     1
1070
    44
1040
1.0
1070
    74
1070
     0
1000
MTEXTEND
  0
MTEXT
  5
566F
330
1A
100
AcDbEntity
  8
SUNPOU
100
AcDbMText
 10
73685.49154459806
 20
65033.63559855027
 30
0.0
 40
10.5
 41
0.0
 71
     7
 72
     5
  1

1001
ACAD
1000
MTEXTBEGIN
1070
    73
1070
     1
1070
    44
1040
1.0
1070
    74
1070
     0
1000
MTEXTEND
  0
MTEXT
  5
5670
330
1A
100
AcDbEntity
  8
SUNPOU
100
AcDbMText
 10
61228.26327964995
 20
49188.70402045185
 30
0.0
 40
35.0
 41
0.0
 71
     9
 72
     5
  1

1001
ACAD
1000
MTEXTBEGIN
1070
    73
1070
     1
1070
    44
1040
1.0
1070
    74
1070
     0
1000
MTEXTEND
  0
MTEXT
  5
5671
330
1A
100
AcDbEntity
  8
SUNPOU
100
AcDbMText
 10
60136.74833722491
 20
49797.47943050056
 30
0.0
 40
350.0000004171781
 41
0.0
 71
     7
 72
     5
  1

1001
ACAD
1000
MTEXTBEGIN
1070
    73
1070
     1
1070
    44
1040
1.0
1070
    74
1070
     0
1000
MTEXTEND
  0
MTEXT
  5
5672
330
1A
100
AcDbEntity
  8
0
100
AcDbMText
 10
66180.69909516782
 20
47777.40179263678
 30
0.0
 40
8.0
 41
0.0
 71
     7
 72
     5
  1

1001
ACAD
1000
MTEXTBEGIN
1070
    73
1070
     1
1070
    44
1040
1.0
1070
    74
1070
     0
1000
MTEXTEND
  0
MTEXT
  5
5673
330
1A
100
AcDbEntity
  8
0
100
AcDbMText
 10
68466.05678506271
 20
48748.19208738784
 30
0.0
 40
8.0
 41
0.0
 71
     7
 72
     5
  1

1001
ACAD
1000
MTEXTBEGIN
1070
    73
1070
     1
1070
    44
1040
1.0
1070
    74
1070
     0
1000
MTEXTEND
  0
MTEXT
  5
5674
330
1A
100
AcDbEntity
  8
SUNPOU
100
AcDbMText
 10
71131.95380574485
 20
58260.30347976296
 30
0.0
 40
10.5
 41
0.0
 71
     1
 72
     5
  1

1001
ACAD
1000
MTEXTBEGIN
1070
    73
1070
     1
1070
    44
1040
1.0
1070
    74
1070
     0
1000
MTEXTEND
  0
MTEXT
  5
5675
330
1A
100
AcDbEntity
  8
SUNPOU
100
AcDbMText
 10
63201.03060980891
 20
57313.51034585002
 30
0.0
 40
10.5
 41
0.0
 71
     7
 72
     5
  1

1001
ACAD
1000
MTEXTBEGIN
1070
    73
1070
     1
1070
    44
1040
1.0
1070
    74
1070
     0
1000
MTEXTEND
  0
MTEXT
  5
5676
330
1A
100
AcDbEntity
  8
SUNPOU
100
AcDbMText
 10
66150.01427432169
 20
62214.18641769286
 30
0.0
 40
10.5
 41
0.0
 71
     7
 72
     5
  1

1001
ACAD
1000
MTEXTBEGIN
1070
    73
1070
     1
1070
    44
1040
1.0
1070
    74
1070
     0
1000
MTEXTEND
  0
MTEXT
  5
5677
330
1A
100
AcDbEntity
  8
SUNPOU
100
AcDbMText
 10
70659.09240227225
 20
64650.48716531294
 30
0.0
 40
10.5
 41
0.0
 71
     7
 72
     5
  1

1001
ACAD
1000
MTEXTBEGIN
1070
    73
1070
     1
1070
    44
1040
1.0
1070
    74
1070
     0
1000
MTEXTEND
  0
MTEXT
  5
5678
330
1A
100
AcDbEntity
  8
SUNPOU
100
AcDbMText
 10
54259.93028904056
 20
43648.08331570185
 30
0.0
 40
10.5
 41
0.0
 71
     7
 72
     5
  1

1001
ACAD
1000
MTEXTBEGIN
1070
    73
1070
     1
1070
    44
1040
1.0
1070
    74
1070
     0
1000
MTEXTEND
  0
MTEXT
  5
5679
330
1A
100
AcDbEntity
  8
SUNPOU
100
AcDbMText
 10
56070.69320041551
 20
49975.4973031804
 30
0.0
 40
10.5
 41
0.0
 71
     9
 72
     5
  1

1001
ACAD
1000
MTEXTBEGIN
1070
    73
1070
     1
1070
    44
1040
1.0
1070
    74
1070
     0
1000
MTEXTEND
  0
MTEXT
  5
567A
330
1A
100
AcDbEntity
  8
SUNPOU
100
AcDbMText
 10
64792.86076633348
 20
57391.33183471788
 30
0.0
 40
10.5
 41
0.0
 71
     9
 72
     5
  1

1001
ACAD
1000
MTEXTBEGIN
1070
    73
1070
     1
1070
    44
1040
1.0
1070
    74
1070
     0
1000
MTEXTEND
  0
MTEXT
  5
567B
330
1A
100
AcDbEntity
  8
SUNPOU
100
AcDbMText
 10
83746.61948366345
 20
74857.90788720994
 30
0.0
 40
10.5
 41
0.0
 71
     9
 72
     5
  1

1001
ACAD
1000
MTEXTBEGIN
1070
    73
1070
     1
1070
    44
1040
1.0
1070
    74
1070
     0
1000
MTEXTEND
  0
MTEXT
  5
567C
330
1A
100
AcDbEntity
  8
SUNPOU
100
AcDbMText
 10
85690.02673037287
 20
73056.85880733192
 30
0.0
 40
3.5
 41
0.0
 71
     9
 72
     5
  1

1001
ACAD
1000
MTEXTBEGIN
1070
    73
1070
     1
1070
    44
1040
1.0
1070
    74
1070
     0
1000
MTEXTEND
  0
MTEXT
  5
567D
330
1A
100
AcDbEntity
  8
SUNPOU
100
AcDbMText
 10
116816.2065629925
 20
115551.8044749892
 30
0.0
 40
10.5
 41
0.0
 71
     9
 72
     5
  1

1001
ACAD
1000
MTEXTBEGIN
1070
    73
1070
     1
1070
    44
1040
1.0
1070
    74
1070
     0
1000
MTEXTEND
  0
MTEXT
  5
567E
330
1A
100
AcDbEntity
  8
SUNPOU
100
AcDbMText
 10
118759.613809702
 20
113750.7553951112
 30
0.0
 40
3.5
 41
0.0
 71
     9
 72
     5
  1

1001
ACAD
1000
MTEXTBEGIN
1070
    73
1070
     1
1070
    44
1040
1.0
1070
    74
1070
     0
1000
MTEXTEND
  0
MTEXT
  5
567F
330
1A
100
AcDbEntity
  8
SUNPOU
100
AcDbMText
 10
67256.47426878814
 20
61384.96962996432
 30
0.0
 40
10.5
 41
0.0
 71
     9
 72
     5
  1

1001
ACAD
1000
MTEXTBEGIN
1070
    73
1070
     1
1070
    44
1040
1.0
1070
    74
1070
     0
1000
MTEXTEND
  0
MTEXT
  5
5680
330
1A
100
AcDbEntity
  8
SUNPOU
100
AcDbMText
 10
53308.47416841216
 20
42212.57049085211
 30
0.0
 40
3.5
 41
0.0
 71
     7
 72
     5
  1

1001
ACAD
1000
MTEXTBEGIN
1070
    73
1070
     1
1070
    44
1040
1.0
1070
    74
1070
     0
1000
MTEXTEND
  0
MTEXT
  5
5681
330
1A
100
AcDbEntity
  8
SUNPOU
100
AcDbMText
 10
67000.82485118274
 20
51571.63371187345
 30
0.0
 40
10.5
 41
0.0
 71
     9
 72
     5
  1

1001
ACAD
1000
MTEXTBEGIN
1070
    73
1070
     1
1070
    44
1040
1.0
1070
    74
1070
     0
1000
MTEXTEND
  0
MTEXT
  5
5682
330
1A
100
AcDbEntity
  8
SUNPOU
100
AcDbMText
 10
75722.99241710071
 20
58987.46824341094
 30
0.0
 40
10.5
 41
0.0
 71
     9
 72
     5
  1

1001
ACAD
1000
MTEXTBEGIN
1070
    73
1070
     1
1070
    44
1040
1.0
1070
    74
1070
     0
1000
MTEXTEND
  0
MTEXT
  5
5683
330
1A
100
AcDbEntity
  8
SUNPOU
100
AcDbMText
 10
94676.75113443068
 20
76454.04429590299
 30
0.0
 40
10.5
 41
0.0
 71
     9
 72
     5
  1

1001
ACAD
1000
MTEXTBEGIN
1070
    73
1070
     1
1070
    44
1040
1.0
1070
    74
1070
     0
1000
MTEXTEND
  0
MTEXT
  5
5684
330
1A
100
AcDbEntity
  8
SUNPOU
100
AcDbMText
 10
96620.1583811401
 20
74652.99521602498
 30
0.0
 40
3.5
 41
0.0
 71
     9
 72
     5
  1

1001
ACAD
1000
MTEXTBEGIN
1070
    73
1070
     1
1070
    44
1040
1.0
1070
    74
1070
     0
1000
MTEXTEND
  0
MTEXT
  5
5685
330
1A
100
AcDbEntity
  8
SUNPOU
100
AcDbMText
 10
127746.3382137598
 20
117147.9408836823
 30
0.0
 40
10.5
 41
0.0
 71
     9
 72
     5
  1

1001
ACAD
1000
MTEXTBEGIN
1070
    73
1070
     1
1070
    44
1040
1.0
1070
    74
1070
     0
1000
MTEXTEND
  0
MTEXT
  5
5686
330
1A
100
AcDbEntity
  8
SUNPOU
100
AcDbMText
 10
129689.7454604692
 20
115346.8918038043
 30
0.0
 40
3.5
 41
0.0
 71
     9
 72
     5
  1

1001
ACAD
1000
MTEXTBEGIN
1070
    73
1070
     1
1070
    44
1040
1.0
1070
    74
1070
     0
1000
MTEXTEND
  0
MTEXT
  5
5687
330
1A
100
AcDbEntity
  8
SUNPOU
100
AcDbMText
 10
78186.60591955537
 20
62981.10603865738
 30
0.0
 40
10.5
 41
0.0
 71
     9
 72
     5
  1

1001
ACAD
1000
MTEXTBEGIN
1070
    73
1070
     1
1070
    44
1040
1.0
1070
    74
1070
     0
1000
MTEXTEND
  0
MTEXT
  5
5688
330
1A
100
AcDbEntity
  8
SUNPOU
100
AcDbMText
 10
64238.60581917939
 20
43808.70689954517
 30
0.0
 40
3.5
 41
0.0
 71
     7
 72
     5
  1

1001
ACAD
1000
MTEXTBEGIN
1070
    73
1070
     1
1070
    44
1040
1.0
1070
    74
1070
     0
1000
MTEXTEND
  0
MTEXT
  5
5689
330
1A
100
AcDbEntity
  8
SUNPOU
100
AcDbMText
 10
33428.13481137435
 20
32770.04710035564
 30
0.0
 40
10.5
 41
0.0
 71
     9
 72
     5
  1

1001
ACAD
1000
MTEXTBEGIN
1070
    73
1070
     1
1070
    44
1040
1.0
1070
    74
1070
     0
1000
MTEXTEND
  0
MTEXT
  5
568A
330
1A
100
AcDbEntity
  8
SUNPOU
100
AcDbMText
 10
52381.89352870432
 20
50236.62315284769
 30
0.0
 40
10.5
 41
0.0
 71
     9
 72
     5
  1

1001
ACAD
1000
MTEXTBEGIN
1070
    73
1070
     1
1070
    44
1040
1.0
1070
    74
1070
     0
1000
MTEXTEND
  0
MTEXT
  5
568B
330
1A
100
AcDbEntity
  8
SUNPOU
100
AcDbMText
 10
54325.30077541374
 20
48435.57407296968
 30
0.0
 40
3.5
 41
0.0
 71
     9
 72
     5
  1

1001
ACAD
1000
MTEXTBEGIN
1070
    73
1070
     1
1070
    44
1040
1.0
1070
    74
1070
     0
1000
MTEXTEND
  0
MTEXT
  5
568C
330
1A
100
AcDbEntity
  8
SUNPOU
100
AcDbMText
 10
85451.48060803343
 20
90930.51974062703
 30
0.0
 40
10.5
 41
0.0
 71
     9
 72
     5
  1

1001
ACAD
1000
MTEXTBEGIN
1070
    73
1070
     1
1070
    44
1040
1.0
1070
    74
1070
     0
1000
MTEXTEND
  0
MTEXT
  5
568D
330
1A
100
AcDbEntity
  8
SUNPOU
100
AcDbMText
 10
87394.88785474286
 20
89129.47066074901
 30
0.0
 40
3.5
 41
0.0
 71
     9
 72
     5
  1

1001
ACAD
1000
MTEXTBEGIN
1070
    73
1070
     1
1070
    44
1040
1.0
1070
    74
1070
     0
1000
MTEXTEND
  0
MTEXT
  5
568E
330
1A
100
AcDbEntity
  8
SUNPOU
100
AcDbMText
 10
35891.74831382901
 20
36763.68489560208
 30
0.0
 40
10.5
 41
0.0
 71
     9
 72
     5
  1

1001
ACAD
1000
MTEXTBEGIN
1070
    73
1070
     1
1070
    44
1040
1.0
1070
    74
1070
     0
1000
MTEXTEND
  0
MTEXT
  5
568F
330
1A
100
AcDbEntity
  8
SUNPOU
100
AcDbMText
 10
21943.74821345303
 20
17591.28575648986
 30
0.0
 40
3.5
 41
0.0
 71
     7
 72
     5
  1

1001
ACAD
1000
MTEXTBEGIN
1070
    73
1070
     1
1070
    44
1040
1.0
1070
    74
1070
     0
1000
MTEXTEND
  0
LINE
  5
140F9
330
1A
100
AcDbEntity
  8
ZISSEN1
 48
0.5
100
AcDbLine
 10
-2315.51364042539
 20
1996.299299727277
 30
0.0
 11
-2363.513640425389
 21
1996.299299727277
 31
0.0
  0
LINE
  5
140FC
330
1A
100
AcDbEntity
  8
ZISSEN1
 48
0.5
100
AcDbLine
 10
-2356.513640425389
 20
1980.295912258044
 30
0.0
 11
-2347.011215793203
 21
1980.295912258044
 31
0.0
  0
LINE
  5
140FD
330
1A
100
AcDbEntity
  8
ZISSEN1
 48
0.5
100
AcDbLine
 10
-2347.011215793203
 20
1980.295912258044
 30
0.0
 11
-2347.011215793203
 21
1945.295983092738
 31
0.0
  0
LINE
  5
140FE
330
1A
100
AcDbEntity
  8
ZISSEN1
 48
0.5
100
AcDbLine
 10
-2356.513640425389
 20
1945.295983092738
 30
0.0
 11
-2356.513640425389
 21
1980.295912258044
 31
0.0
  0
LINE
  5
140FF
330
1A
100
AcDbEntity
  8
ZISSEN1
 48
0.5
100
AcDbLine
 10
-2316.01364042539
 20
1936.799299727278
 30
0.0
 11
-2331.513640425389
 21
1936.799299727278
 31
0.0
  0
LINE
  5
14100
330
1A
100
AcDbEntity
  8
ZISSEN1
 48
0.5
100
AcDbLine
 10
-2331.513640425389
 20
1936.799299727278
 30
0.0
 11
-2331.513640425389
 21
1892.799299727277
 31
0.0
  0
LINE
  5
14101
330
1A
100
AcDbEntity
  8
ZISSEN1
 48
0.5
100
AcDbLine
 10
-2331.513640425389
 20
1892.799299727277
 30
0.0
 11
-2316.013640425389
 21
1892.799299727277
 31
0.0
  0
LINE
  5
14102
330
1A
100
AcDbEntity
  8
ZISSEN1
 48
0.5
100
AcDbLine
 10
-2316.013640425389
 20
1892.799299727277
 30
0.0
 11
-2316.01364042539
 21
1857.299299727277
 31
0.0
  0
LINE
  5
14103
330
1A
100
AcDbEntity
  8
ZISSEN1
 48
0.5
100
AcDbLine
 10
-2317.01364042539
 20
1856.299299727276
 30
0.0
 11
-2344.013640425389
 21
1856.299299727276
 31
0.0
  0
LINE
  5
14104
330
1A
100
AcDbEntity
  8
ZISSEN1
 48
0.5
100
AcDbLine
 10
-2363.013640425389
 20
1883.299297652951
 30
0.0
 11
-2363.013640425388
 21
1993.299299727278
 31
0.0
  0
LINE
  5
14105
330
1A
100
AcDbEntity
  8
ZISSEN1
 48
0.5
100
AcDbLine
 10
-2316.013640425388
 20
1993.299299727277
 30
0.0
 11
-2316.01364042539
 21
1936.799299727278
 31
0.0
  0
ARC
  5
14106
330
1A
100
AcDbEntity
  8
ZISSEN1
 48
0.5
100
AcDbCircle
 10
-2317.01364042539
 20
1857.299299727277
 30
0.0
 40
1.0
100
AcDbArc
 50
270.0
 51
0.0
  0
LINE
  5
1415F
330
1A
100
AcDbEntity
  8
ZISSEN1
 48
0.5
100
AcDbLine
 10
-2362.013640425388
 20
1994.299299727278
 30
0.0
 11
-2317.013640425388
 21
1994.299299727277
 31
0.0
  0
LINE
  5
14160
330
1A
100
AcDbEntity
  8
ZISSEN1
 48
0.5
100
AcDbLine
 10
-2312.014916510853
 20
1952.949284393983
 30
0.0
 11
-2312.014916510853
 21
1946.649284393983
 31
0.0
  0
LINE
  5
14161
330
1A
100
AcDbEntity
  8
ZISSEN1
 48
0.5
100
AcDbLine
 10
-2312.014916510853
 20
1952.949284393983
 30
0.0
 11
-2311.01872181276
 21
1952.862128651235
 31
0.0
  0
LINE
  5
14162
330
1A
100
AcDbEntity
  8
ZISSEN1
 48
0.5
100
AcDbLine
 10
-2312.014916510853
 20
1946.649284393983
 30
0.0
 11
-2311.01872181276
 21
1946.736440136731
 31
0.0
  0
ARC
  5
14163
330
1A
100
AcDbEntity
  8
ZISSEN1
 48
0.5
100
AcDbCircle
 10
-2315.189545499451
 20
1949.799284393983
 30
0.0
 40
5.174628988598421
100
AcDbArc
 50
323.7083018726678
 51
36.29169812733217
  0
LINE
  5
14164
330
1A
100
AcDbEntity
  8
ZISSEN1
 48
0.5
100
AcDbLine
 10
-2365.013640425388
 20
1875.149299727277
 30
0.0
 11
-2365.013640425388
 21
1881.449299727277
 31
0.0
  0
LINE
  5
14165
330
1A
100
AcDbEntity
  8
ZISSEN1
 48
0.5
100
AcDbLine
 10
-2365.013640425388
 20
1875.149299727277
 30
0.0
 11
-2366.009835123479
 21
1875.236455470024
 31
0.0
  0
LINE
  5
14166
330
1A
100
AcDbEntity
  8
ZISSEN1
 48
0.5
100
AcDbLine
 10
-2365.013640425388
 20
1881.449299727277
 30
0.0
 11
-2366.009835123479
 21
1881.362143984529
 31
0.0
  0
ARC
  5
14167
330
1A
100
AcDbEntity
  8
ZISSEN1
 48
0.5
100
AcDbCircle
 10
-2361.839011436789
 20
1878.299299727277
 30
0.0
 40
5.174628988598421
100
AcDbArc
 50
143.7083018726678
 51
216.2916981273322
  0
LINE
  5
14168
330
1A
100
AcDbEntity
  8
ZISSEN1
 48
0.5
100
AcDbLine
 10
-2538.863025780783
 20
2040.990398932802
 30
0.0
 11
-2545.163025780784
 21
2040.990398932802
 31
0.0
  0
LINE
  5
14169
330
1A
100
AcDbEntity
  8
ZISSEN1
 48
0.5
100
AcDbLine
 10
-2538.863025780783
 20
2040.990398932802
 30
0.0
 11
-2538.950181523531
 21
2039.99420423471
 31
0.0
  0
LINE
  5
1416A
330
1A
100
AcDbEntity
  8
ZISSEN1
 48
0.5
100
AcDbLine
 10
-2545.163025780784
 20
2040.990398932802
 30
0.0
 11
-2545.075870038036
 21
2039.99420423471
 31
0.0
  0
ARC
  5
1416B
330
1A
100
AcDbEntity
  8
ZISSEN1
 48
0.5
100
AcDbCircle
 10
-2542.013025780784
 20
2044.165027921401
 30
0.0
 40
5.174628988598421
100
AcDbArc
 50
233.7083018726678
 51
306.2916981273322
  0
LINE
  5
1416C
330
1A
100
AcDbEntity
  8
ZISSEN1
 48
0.5
100
AcDbLine
 10
-2328.913640425389
 20
1932.299564250751
 30
0.0
 11
-2328.913640425389
 21
1926.299564250751
 31
0.0
  0
CIRCLE
  5
1416D
330
1A
100
AcDbEntity
  8
ZISSEN1
  6
CONTINUOUS
 48
0.5
100
AcDbCircle
 10
-2542.013025780782
 20
1878.299299727276
 30
0.0
 40
3.149999999999999
  0
CIRCLE
  5
1417A
330
1A
100
AcDbEntity
  8
ZISSEN1
  6
CONTINUOUS
 48
0.5
100
AcDbCircle
 10
-2542.013025780782
 20
1942.299299727277
 30
0.0
 40
3.149999999999999
  0
LINE
  5
14187
330
1A
100
AcDbEntity
  8
ZISSEN1
 48
0.5
100
AcDbLine
 10
-2435.013025780784
 20
2076.090398932802
 30
0.0
 11
-2434.013025780782
 21
2077.090398932803
 31
0.0
  0
LINE
  5
14188
330
1A
100
AcDbEntity
  8
ZISSEN1
 48
0.5
100
AcDbLine
 10
-2435.013025780784
 20
2087.090398932805
 30
0.0
 11
-2434.013025780782
 21
2086.090398932803
 31
0.0
  0
LINE
  5
14189
330
1A
100
AcDbEntity
  8
ZISSEN1
 48
0.5
100
AcDbLine
 10
-2434.013025780782
 20
2086.090398932803
 30
0.0
 11
-2431.513025780782
 21
2086.090398932803
 31
0.0
  0
LINE
  5
1418A
330
1A
100
AcDbEntity
  8
ZISSEN1
 48
0.5
100
AcDbLine
 10
-2434.013025780782
 20
2077.090398932803
 30
0.0
 11
-2431.513025780782
 21
2077.090398932803
 31
0.0
  0
LINE
  5
1418B
330
1A
100
AcDbEntity
  8
ZISSEN1
 48
0.5
100
AcDbLine
 10
-2425.013025780782
 20
2087.590398932803
 30
0.0
 11
-2424.513025780782
 21
2086.590398932803
 31
0.0
  0
ARC
  5
1418C
330
1A
100
AcDbEntity
  8
ZISSEN1
 48
0.5
100
AcDbCircle
 10
-2423.093475965194
 20
2087.009948748392
 30
0.0
 40
0.5804501844113475
100
AcDbArc
 50
359.9999999999478
 51
119.9999999999972
  0
LINE
  5
1418D
330
1A
100
AcDbEntity
  8
ZISSEN1
 48
0.5
100
AcDbLine
 10
-2423.383701057399
 20
2087.512633353723
 30
0.0
 11
-2424.513025780782
 21
2086.590398932803
 31
0.0
  0
LINE
  5
1418E
330
1A
100
AcDbEntity
  8
ZISSEN1
 48
0.5
100
AcDbLine
 10
-2423.934043011314
 20
2087.050070599962
 30
0.0
 11
-2424.513025780782
 21
2087.590398932803
 31
0.0
  0
ARC
  5
1418F
330
1A
100
AcDbEntity
  8
ZISSEN1
 48
0.5
100
AcDbCircle
 10
-2423.113025780784
 20
2087.110398932805
 30
0.0
 40
1.479999999998432
100
AcDbArc
 50
18.92464441598643
 51
161.0753555839889
  0
LINE
  5
14190
330
1A
100
AcDbEntity
  8
ZISSEN1
 48
0.5
100
AcDbLine
 10
-2423.948363419091
 20
2087.051516143264
 30
0.0
 11
-2423.354666567282
 21
2087.590398932803
 31
0.0
  0
ARC
  5
14191
330
1A
100
AcDbEntity
  8
ZISSEN1
 48
0.5
100
AcDbCircle
 10
-2423.052027917125
 20
2087.142717195813
 30
0.0
 40
0.5403786544667506
100
AcDbArc
 50
25.33049306139468
 51
124.0592024972961
  0
ARC
  5
14192
330
1A
100
AcDbEntity
  8
ZISSEN1
 48
0.5
100
AcDbCircle
 10
-2441.02884177612
 20
2081.703935930229
 30
0.0
 40
19.31614967366757
100
AcDbArc
 50
359.6632233473306
 51
17.06974233324495
  0
ARC
  5
14193
330
1A
100
AcDbEntity
  8
ZISSEN1
 48
0.5
100
AcDbCircle
 10
-2439.298593848187
 20
2081.576137588239
 30
0.0
 40
18.58557353901287
100
AcDbArc
 50
0.0439650103806703
 51
18.88067939218596
  0
LINE
  5
14194
330
1A
100
AcDbEntity
  8
ZISSEN1
 48
0.5
100
AcDbLine
 10
-2425.013025780782
 20
2075.590398932481
 30
0.0
 11
-2424.513025780782
 21
2076.590398932481
 31
0.0
  0
ARC
  5
14195
330
1A
100
AcDbEntity
  8
ZISSEN1
 48
0.5
100
AcDbCircle
 10
-2423.093475965194
 20
2076.170849116893
 30
0.0
 40
0.5804501844113475
100
AcDbArc
 50
240.0000000000027
 51
0.0000000000781399
  0
LINE
  5
14196
330
1A
100
AcDbEntity
  8
ZISSEN1
 48
0.5
100
AcDbLine
 10
-2423.383701057399
 20
2075.668164511561
 30
0.0
 11
-2424.513025780782
 21
2076.590398932481
 31
0.0
  0
LINE
  5
14197
330
1A
100
AcDbEntity
  8
ZISSEN1
 48
0.5
100
AcDbLine
 10
-2423.934043011314
 20
2076.130727265323
 30
0.0
 11
-2424.513025780782
 21
2075.590398932481
 31
0.0
  0
ARC
  5
14198
330
1A
100
AcDbEntity
  8
ZISSEN1
 48
0.5
100
AcDbCircle
 10
-2423.113025780784
 20
2076.07039893248
 30
0.0
 40
1.479999999998432
100
AcDbArc
 50
198.9246444160111
 51
341.0753555840135
  0
LINE
  5
14199
330
1A
100
AcDbEntity
  8
ZISSEN1
 48
0.5
100
AcDbLine
 10
-2423.948363419091
 20
2076.129281722022
 30
0.0
 11
-2423.354666567282
 21
2075.590398932481
 31
0.0
  0
ARC
  5
1419A
330
1A
100
AcDbEntity
  8
ZISSEN1
 48
0.5
100
AcDbCircle
 10
-2423.052027917125
 20
2076.038080669472
 30
0.0
 40
0.5403786544667506
100
AcDbArc
 50
235.9407975027038
 51
334.6695069386052
  0
ARC
  5
1419B
330
1A
100
AcDbEntity
  8
ZISSEN1
 48
0.5
100
AcDbCircle
 10
-2441.02884177612
 20
2081.476861935056
 30
0.0
 40
19.31614967366757
100
AcDbArc
 50
342.930257666755
 51
0.3367766526693408
  0
ARC
  5
1419C
330
1A
100
AcDbEntity
  8
ZISSEN1
 48
0.5
100
AcDbCircle
 10
-2439.298593848187
 20
2081.604660277046
 30
0.0
 40
18.58557353901287
100
AcDbArc
 50
341.1193206078139
 51
359.9560349896193
  0
LINE
  5
1419D
330
1A
100
AcDbEntity
  8
ZISSEN1
 48
0.5
100
AcDbLine
 10
-2425.013025780782
 20
2087.590398932803
 30
0.0
 11
-2435.013025780784
 21
2087.590398932803
 31
0.0
  0
LINE
  5
1419E
330
1A
100
AcDbEntity
  8
ZISSEN1
 48
0.5
100
AcDbLine
 10
-2425.013025780782
 20
2075.590398932481
 30
0.0
 11
-2435.013025780784
 21
2075.590398932481
 31
0.0
  0
LINE
  5
1419F
330
1A
100
AcDbEntity
  8
ZISSEN1
 48
0.5
100
AcDbLine
 10
-2431.513025780782
 20
2077.090398932803
 30
0.0
 11
-2431.513025780782
 21
2086.090398932803
 31
0.0
  0
LINE
  5
141A0
330
1A
100
AcDbEntity
  8
ZISSEN1
 48
0.5
100
AcDbLine
 10
-2422.513025780782
 20
2076.170849116893
 30
0.0
 11
-2422.513025780782
 21
2087.009948748391
 31
0.0
  0
LINE
  5
141A1
330
1A
100
AcDbEntity
  8
ZISSEN1
 48
0.5
100
AcDbLine
 10
-2435.013025780784
 20
2066.490398932802
 30
0.0
 11
-2434.013025780782
 21
2067.490398932803
 31
0.0
  0
LINE
  5
141A2
330
1A
100
AcDbEntity
  8
ZISSEN1
 48
0.5
100
AcDbLine
 10
-2434.013025780782
 20
2067.490398932803
 30
0.0
 11
-2431.513025780782
 21
2067.490398932803
 31
0.0
  0
ARC
  5
141A3
330
1A
100
AcDbEntity
  8
ZISSEN1
 48
0.5
100
AcDbCircle
 10
-2441.028841776044
 20
2072.103935930234
 30
0.0
 40
19.31614967359214
100
AcDbArc
 50
359.6632233473045
 51
9.072051284807082
  0
ARC
  5
141A4
330
1A
100
AcDbEntity
  8
ZISSEN1
 48
0.5
100
AcDbCircle
 10
-2439.29859384819
 20
2071.97613758824
 30
0.0
 40
18.58557353901677
100
AcDbArc
 50
0.0439650103806703
 51
15.01264197425193
  0
LINE
  5
141A5
330
1A
100
AcDbEntity
  8
ZISSEN1
 48
0.5
100
AcDbLine
 10
-2425.013025780782
 20
2065.990398932481
 30
0.0
 11
-2424.513025780782
 21
2066.990398932481
 31
0.0
  0
ARC
  5
141A6
330
1A
100
AcDbEntity
  8
ZISSEN1
 48
0.5
100
AcDbCircle
 10
-2423.093475965194
 20
2066.570849116893
 30
0.0
 40
0.5804501844113475
100
AcDbArc
 50
240.0000000000027
 51
0.0000000000781399
  0
LINE
  5
141A7
330
1A
100
AcDbEntity
  8
ZISSEN1
 48
0.5
100
AcDbLine
 10
-2423.383701057399
 20
2066.068164511562
 30
0.0
 11
-2424.513025780782
 21
2066.990398932481
 31
0.0
  0
LINE
  5
141A8
330
1A
100
AcDbEntity
  8
ZISSEN1
 48
0.5
100
AcDbLine
 10
-2423.934043011314
 20
2066.530727265322
 30
0.0
 11
-2424.513025780782
 21
2065.990398932481
 31
0.0
  0
ARC
  5
141A9
330
1A
100
AcDbEntity
  8
ZISSEN1
 48
0.5
100
AcDbCircle
 10
-2423.113025780784
 20
2066.47039893248
 30
0.0
 40
1.479999999998432
100
AcDbArc
 50
198.9246444160111
 51
341.0753555840135
  0
LINE
  5
141AA
330
1A
100
AcDbEntity
  8
ZISSEN1
 48
0.5
100
AcDbLine
 10
-2423.948363419091
 20
2066.529281722021
 30
0.0
 11
-2423.354666567282
 21
2065.990398932481
 31
0.0
  0
ARC
  5
141AB
330
1A
100
AcDbEntity
  8
ZISSEN1
 48
0.5
100
AcDbCircle
 10
-2423.052027917125
 20
2066.438080669472
 30
0.0
 40
0.5403786544667506
100
AcDbArc
 50
235.9407975027038
 51
334.6695069386052
  0
ARC
  5
141AC
330
1A
100
AcDbEntity
  8
ZISSEN1
 48
0.5
100
AcDbCircle
 10
-2441.02884177612
 20
2071.876861935056
 30
0.0
 40
19.31614967366757
100
AcDbArc
 50
342.930257666755
 51
0.3367766526693408
  0
ARC
  5
141AD
330
1A
100
AcDbEntity
  8
ZISSEN1
 48
0.5
100
AcDbCircle
 10
-2439.298593848187
 20
2072.004660277046
 30
0.0
 40
18.58557353901287
100
AcDbArc
 50
341.1193206078139
 51
359.9560349896193
  0
LINE
  5
141AE
330
1A
100
AcDbEntity
  8
ZISSEN1
 48
0.5
100
AcDbLine
 10
-2425.013025780782
 20
2065.990398932481
 30
0.0
 11
-2435.013025780784
 21
2065.990398932481
 31
0.0
  0
LINE
  5
141AF
330
1A
100
AcDbEntity
  8
ZISSEN1
 48
0.5
100
AcDbLine
 10
-2431.513025780782
 20
2067.490398932803
 30
0.0
 11
-2431.513025780782
 21
2075.590398932481
 31
0.0
  0
LINE
  5
141B0
330
1A
100
AcDbEntity
  8
ZISSEN1
 48
0.5
100
AcDbLine
 10
-2422.513025780782
 20
2066.570849116893
 30
0.0
 11
-2422.513025780782
 21
2074.717476170459
 31
0.0
  0
LINE
  5
141B1
330
1A
100
AcDbEntity
  8
ZISSEN1
 48
0.5
100
AcDbLine
 10
-2435.013025780782
 20
1864.269299727277
 30
0.0
 11
-2431.513025780782
 21
1864.269299727277
 31
0.0
  0
LINE
  5
141B2
330
1A
100
AcDbEntity
  8
ZISSEN1
 48
0.5
100
AcDbLine
 10
-2422.513025780782
 20
1874.099299727277
 30
0.0
 11
-2435.013025780783
 21
1874.099299727277
 31
0.0
  0
LINE
  5
141B3
330
1A
100
AcDbEntity
  8
ZISSEN1
 48
0.5
100
AcDbLine
 10
-2422.513025780782
 20
1880.499299727277
 30
0.0
 11
-2435.013025780783
 21
1880.499299727277
 31
0.0
  0
LINE
  5
141B4
330
1A
100
AcDbEntity
  8
ZISSEN1
 48
0.5
100
AcDbLine
 10
-2422.513025780783
 20
1881.719299727277
 30
0.0
 11
-2435.013025780783
 21
1881.719299727277
 31
0.0
  0
LINE
  5
141B5
330
1A
100
AcDbEntity
  8
ZISSEN1
 48
0.5
100
AcDbLine
 10
-2422.513025780783
 20
1888.119299727277
 30
0.0
 11
-2435.013025780783
 21
1888.119299727277
 31
0.0
  0
LINE
  5
141B6
330
1A
100
AcDbEntity
  8
ZISSEN1
 48
0.5
100
AcDbLine
 10
-2422.513025780784
 20
1889.339299727277
 30
0.0
 11
-2435.013025780783
 21
1889.339299727277
 31
0.0
  0
LINE
  5
141B7
330
1A
100
AcDbEntity
  8
ZISSEN1
 48
0.5
100
AcDbLine
 10
-2422.513025780783
 20
1872.879299727277
 30
0.0
 11
-2435.013025780783
 21
1872.879299727277
 31
0.0
  0
LINE
  5
141B8
330
1A
100
AcDbEntity
  8
ZISSEN1
 48
0.5
100
AcDbLine
 10
-2422.513025780783
 20
1866.479299727277
 30
0.0
 11
-2435.013025780783
 21
1866.479299727278
 31
0.0
  0
LINE
  5
141B9
330
1A
100
AcDbEntity
  8
ZISSEN1
 48
0.5
100
AcDbLine
 10
-2422.513025780783
 20
1865.259299727277
 30
0.0
 11
-2435.013025780783
 21
1865.259299727277
 31
0.0
  0
LINE
  5
141BA
330
1A
100
AcDbEntity
  8
ZISSEN1
 48
0.5
100
AcDbLine
 10
-2435.013025780782
 20
1890.329299727278
 30
0.0
 11
-2431.513025780782
 21
1890.329299727278
 31
0.0
  0
LINE
  5
141BB
330
1A
100
AcDbEntity
  8
ZISSEN1
 48
0.5
100
AcDbLine
 10
-2431.513025780782
 20
1890.329299727278
 30
0.0
 11
-2431.513025780782
 21
1889.339299727277
 31
0.0
  0
LINE
  5
141BC
330
1A
100
AcDbEntity
  8
ZISSEN1
 48
0.5
100
AcDbLine
 10
-2431.513025780782
 20
1888.119299727277
 30
0.0
 11
-2431.513025780782
 21
1881.719299727277
 31
0.0
  0
LINE
  5
141BD
330
1A
100
AcDbEntity
  8
ZISSEN1
 48
0.5
100
AcDbLine
 10
-2431.513025780782
 20
1880.499299727277
 30
0.0
 11
-2431.513025780782
 21
1874.099299727277
 31
0.0
  0
LINE
  5
141BE
330
1A
100
AcDbEntity
  8
ZISSEN1
 48
0.5
100
AcDbLine
 10
-2431.513025780782
 20
1872.879299727277
 30
0.0
 11
-2431.513025780782
 21
1866.479299727277
 31
0.0
  0
LINE
  5
141BF
330
1A
100
AcDbEntity
  8
ZISSEN1
 48
0.5
100
AcDbLine
 10
-2431.513025780782
 20
1865.259299727277
 30
0.0
 11
-2431.513025780782
 21
1864.269299727277
 31
0.0
  0
LINE
  5
141C0
330
1A
100
AcDbEntity
  8
ZISSEN1
 48
0.5
100
AcDbLine
 10
-2430.513025780782
 20
1888.119299727277
 30
0.0
 11
-2430.513025780782
 21
1881.719299727277
 31
0.0
  0
LINE
  5
141C1
330
1A
100
AcDbEntity
  8
ZISSEN1
 48
0.5
100
AcDbLine
 10
-2430.513025780782
 20
1880.499299727277
 30
0.0
 11
-2430.513025780782
 21
1874.099299727277
 31
0.0
  0
LINE
  5
141C2
330
1A
100
AcDbEntity
  8
ZISSEN1
 48
0.5
100
AcDbLine
 10
-2430.513025780782
 20
1872.879299727277
 30
0.0
 11
-2430.513025780782
 21
1866.479299727277
 31
0.0
  0
LINE
  5
141C3
330
1A
100
AcDbEntity
  8
ZISSEN1
 48
0.5
100
AcDbLine
 10
-2422.513025780784
 20
1889.339299727277
 30
0.0
 11
-2422.513025780782
 21
1888.119299727277
 31
0.0
  0
LINE
  5
141C4
330
1A
100
AcDbEntity
  8
ZISSEN1
 48
0.5
100
AcDbLine
 10
-2422.513025780783
 20
1881.719299727277
 30
0.0
 11
-2422.513025780783
 21
1880.499299727277
 31
0.0
  0
LINE
  5
141C5
330
1A
100
AcDbEntity
  8
ZISSEN1
 48
0.5
100
AcDbLine
 10
-2422.513025780783
 20
1874.099299727277
 30
0.0
 11
-2422.513025780783
 21
1872.879299727277
 31
0.0
  0
LINE
  5
141C6
330
1A
100
AcDbEntity
  8
ZISSEN1
 48
0.5
100
AcDbLine
 10
-2422.513025780783
 20
1866.479299727277
 30
0.0
 11
-2422.513025780783
 21
1865.259299727277
 31
0.0
  0
LINE
  5
141C7
330
1A
100
AcDbEntity
  8
ZISSEN1
 48
0.5
100
AcDbLine
 10
-2430.513025780782
 20
1885.919299727276
 30
0.0
 11
-2429.513025780782
 21
1885.919299727276
 31
0.0
  0
LINE
  5
141C8
330
1A
100
AcDbEntity
  8
ZISSEN1
 48
0.5
100
AcDbLine
 10
-2429.513025780782
 20
1885.919299727276
 30
0.0
 11
-2430.513025780782
 21
1887.919299727277
 31
0.0
  0
LINE
  5
141C9
330
1A
100
AcDbEntity
  8
ZISSEN1
 48
0.5
100
AcDbLine
 10
-2430.513025780782
 20
1887.919299727277
 30
0.0
 11
-2428.513025780782
 21
1887.919299727277
 31
0.0
  0
LINE
  5
141CA
330
1A
100
AcDbEntity
  8
ZISSEN1
 48
0.5
100
AcDbLine
 10
-2430.513025780783
 20
1883.919299727278
 30
0.0
 11
-2429.513025780783
 21
1883.919299727277
 31
0.0
  0
LINE
  5
141CB
330
1A
100
AcDbEntity
  8
ZISSEN1
 48
0.5
100
AcDbLine
 10
-2429.513025780783
 20
1883.919299727277
 30
0.0
 11
-2430.513025780784
 21
1882.219299727277
 31
0.0
  0
LINE
  5
141CC
330
1A
100
AcDbEntity
  8
ZISSEN1
 48
0.5
100
AcDbLine
 10
-2430.513025780784
 20
1881.919299727277
 30
0.0
 11
-2428.513025780784
 21
1881.919299727276
 31
0.0
  0
LINE
  5
141CD
330
1A
100
AcDbEntity
  8
ZISSEN1
 48
0.5
100
AcDbLine
 10
-2428.513025780782
 20
1887.919299727277
 30
0.0
 11
-2428.513025780785
 21
1881.919299727276
 31
0.0
  0
LINE
  5
141CE
330
1A
100
AcDbEntity
  8
ZISSEN1
 48
0.5
100
AcDbLine
 10
-2430.513025780782
 20
1885.919299727276
 30
0.0
 11
-2430.513025780782
 21
1883.919299727278
 31
0.0
  0
LINE
  5
141CF
330
1A
100
AcDbEntity
  8
ZISSEN1
 48
0.5
100
AcDbLine
 10
-2430.513025780782
 20
1880.499299727277
 30
0.0
 11
-2430.513025780782
 21
1874.099299727277
 31
0.0
  0
LINE
  5
141D0
330
1A
100
AcDbEntity
  8
ZISSEN1
 48
0.5
100
AcDbLine
 10
-2430.513025780782
 20
1878.299299727277
 30
0.0
 11
-2429.513025780782
 21
1878.299299727277
 31
0.0
  0
LINE
  5
141D1
330
1A
100
AcDbEntity
  8
ZISSEN1
 48
0.5
100
AcDbLine
 10
-2429.513025780782
 20
1878.299299727277
 30
0.0
 11
-2430.513025780782
 21
1880.299299727277
 31
0.0
  0
LINE
  5
141D2
330
1A
100
AcDbEntity
  8
ZISSEN1
 48
0.5
100
AcDbLine
 10
-2430.513025780782
 20
1880.299299727277
 30
0.0
 11
-2428.513025780782
 21
1880.299299727277
 31
0.0
  0
LINE
  5
141D3
330
1A
100
AcDbEntity
  8
ZISSEN1
 48
0.5
100
AcDbLine
 10
-2430.513025780783
 20
1876.299299727278
 30
0.0
 11
-2429.513025780783
 21
1876.299299727277
 31
0.0
  0
LINE
  5
141D4
330
1A
100
AcDbEntity
  8
ZISSEN1
 48
0.5
100
AcDbLine
 10
-2429.513025780783
 20
1876.299299727277
 30
0.0
 11
-2430.513025780784
 21
1874.599299727277
 31
0.0
  0
LINE
  5
141D5
330
1A
100
AcDbEntity
  8
ZISSEN1
 48
0.5
100
AcDbLine
 10
-2430.513025780784
 20
1874.299299727277
 30
0.0
 11
-2428.513025780784
 21
1874.299299727276
 31
0.0
  0
LINE
  5
141D6
330
1A
100
AcDbEntity
  8
ZISSEN1
 48
0.5
100
AcDbLine
 10
-2428.513025780782
 20
1880.299299727277
 30
0.0
 11
-2428.513025780785
 21
1874.299299727276
 31
0.0
  0
LINE
  5
141D7
330
1A
100
AcDbEntity
  8
ZISSEN1
 48
0.5
100
AcDbLine
 10
-2430.513025780782
 20
1878.299299727277
 30
0.0
 11
-2430.513025780782
 21
1876.299299727278
 31
0.0
  0
LINE
  5
141D8
330
1A
100
AcDbEntity
  8
ZISSEN1
 48
0.5
100
AcDbLine
 10
-2430.513025780782
 20
1872.879299727277
 30
0.0
 11
-2430.513025780782
 21
1866.479299727277
 31
0.0
  0
LINE
  5
141D9
330
1A
100
AcDbEntity
  8
ZISSEN1
 48
0.5
100
AcDbLine
 10
-2430.513025780782
 20
1870.679299727277
 30
0.0
 11
-2429.513025780782
 21
1870.679299727277
 31
0.0
  0
LINE
  5
141DA
330
1A
100
AcDbEntity
  8
ZISSEN1
 48
0.5
100
AcDbLine
 10
-2429.513025780782
 20
1870.679299727277
 30
0.0
 11
-2430.513025780782
 21
1872.679299727277
 31
0.0
  0
LINE
  5
141DB
330
1A
100
AcDbEntity
  8
ZISSEN1
 48
0.5
100
AcDbLine
 10
-2430.513025780782
 20
1872.679299727277
 30
0.0
 11
-2428.513025780782
 21
1872.679299727277
 31
0.0
  0
LINE
  5
141DC
330
1A
100
AcDbEntity
  8
ZISSEN1
 48
0.5
100
AcDbLine
 10
-2430.513025780783
 20
1868.679299727278
 30
0.0
 11
-2429.513025780783
 21
1868.679299727277
 31
0.0
  0
LINE
  5
141DD
330
1A
100
AcDbEntity
  8
ZISSEN1
 48
0.5
100
AcDbLine
 10
-2429.513025780783
 20
1868.679299727277
 30
0.0
 11
-2430.513025780784
 21
1866.979299727278
 31
0.0
  0
LINE
  5
141DE
330
1A
100
AcDbEntity
  8
ZISSEN1
 48
0.5
100
AcDbLine
 10
-2430.513025780784
 20
1866.679299727277
 30
0.0
 11
-2428.513025780784
 21
1866.679299727277
 31
0.0
  0
LINE
  5
141DF
330
1A
100
AcDbEntity
  8
ZISSEN1
 48
0.5
100
AcDbLine
 10
-2428.513025780782
 20
1872.679299727277
 30
0.0
 11
-2428.513025780785
 21
1866.679299727277
 31
0.0
  0
LINE
  5
141E0
330
1A
100
AcDbEntity
  8
ZISSEN1
 48
0.5
100
AcDbLine
 10
-2430.513025780782
 20
1870.679299727277
 30
0.0
 11
-2430.513025780782
 21
1868.679299727278
 31
0.0
  0
LINE
  5
141E1
330
1A
100
AcDbEntity
  8
ZISSEN1
 48
0.5
100
AcDbLine
 10
-2420.713025780782
 20
1865.259299727277
 30
0.0
 11
-2420.713025780782
 21
1889.339299727277
 31
0.0
  0
LINE
  5
141E2
330
1A
100
AcDbEntity
  8
ZISSEN1
 48
0.5
100
AcDbLine
 10
-2424.513025780783
 20
1865.259299727277
 30
0.0
 11
-2424.513025780783
 21
1889.339299727277
 31
0.0
  0
LINE
  5
141E3
330
1A
100
AcDbEntity
  8
ZISSEN1
 48
0.5
100
AcDbLine
 10
-2424.513025780783
 20
1889.339299727277
 30
0.0
 11
-2420.713025780782
 21
1889.339299727277
 31
0.0
  0
LINE
  5
141E4
330
1A
100
AcDbEntity
  8
ZISSEN1
 48
0.5
100
AcDbLine
 10
-2424.513025780783
 20
1865.259299727277
 30
0.0
 11
-2420.713025780782
 21
1865.259299727277
 31
0.0
  0
LINE
  5
141E5
330
1A
100
AcDbEntity
  8
ZISSEN1
 48
0.5
100
AcDbLine
 10
-2428.513025780782
 20
1872.379299727277
 30
0.0
 11
-2428.513025780782
 21
1866.979299727277
 31
0.0
  0
LINE
  5
141E6
330
1A
100
AcDbEntity
  8
ZISSEN1
 48
0.5
100
AcDbLine
 10
-2428.513025780782
 20
1866.979299727277
 30
0.0
 11
-2427.013025780782
 21
1866.979299727277
 31
0.0
  0
ARC
  5
141E7
330
1A
100
AcDbEntity
  8
ZISSEN1
 48
0.5
100
AcDbCircle
 10
-2427.013025780782
 20
1867.479299727277
 30
0.0
 40
0.5
100
AcDbArc
 50
270.0
 51
0.0
  0
LINE
  5
141E8
330
1A
100
AcDbEntity
  8
ZISSEN1
 48
0.5
100
AcDbLine
 10
-2426.513025780782
 20
1867.479299727277
 30
0.0
 11
-2426.513025780782
 21
1871.879299727277
 31
0.0
  0
ARC
  5
141E9
330
1A
100
AcDbEntity
  8
ZISSEN1
 48
0.5
100
AcDbCircle
 10
-2427.013025780782
 20
1871.879299727277
 30
0.0
 40
0.5
100
AcDbArc
 50
0.0
 51
89.99999999999998
  0
LINE
  5
141EA
330
1A
100
AcDbEntity
  8
ZISSEN1
 48
0.5
100
AcDbLine
 10
-2427.013025780782
 20
1872.379299727277
 30
0.0
 11
-2428.513025780782
 21
1872.379299727277
 31
0.0
  0
LINE
  5
141EB
330
1A
100
AcDbEntity
  8
ZISSEN1
 48
0.5
100
AcDbLine
 10
-2428.513025780782
 20
1879.999299727277
 30
0.0
 11
-2428.513025780782
 21
1874.599299727277
 31
0.0
  0
LINE
  5
141EC
330
1A
100
AcDbEntity
  8
ZISSEN1
 48
0.5
100
AcDbLine
 10
-2428.513025780782
 20
1874.599299727277
 30
0.0
 11
-2427.013025780782
 21
1874.599299727277
 31
0.0
  0
ARC
  5
141ED
330
1A
100
AcDbEntity
  8
ZISSEN1
 48
0.5
100
AcDbCircle
 10
-2427.013025780782
 20
1875.099299727277
 30
0.0
 40
0.5
100
AcDbArc
 50
270.0
 51
0.0
  0
LINE
  5
141EE
330
1A
100
AcDbEntity
  8
ZISSEN1
 48
0.5
100
AcDbLine
 10
-2426.513025780782
 20
1875.099299727277
 30
0.0
 11
-2426.513025780782
 21
1879.499299727277
 31
0.0
  0
ARC
  5
141EF
330
1A
100
AcDbEntity
  8
ZISSEN1
 48
0.5
100
AcDbCircle
 10
-2427.013025780782
 20
1879.499299727277
 30
0.0
 40
0.5
100
AcDbArc
 50
0.0
 51
89.99999999999998
  0
LINE
  5
141F0
330
1A
100
AcDbEntity
  8
ZISSEN1
 48
0.5
100
AcDbLine
 10
-2427.013025780782
 20
1879.999299727277
 30
0.0
 11
-2428.513025780782
 21
1879.999299727277
 31
0.0
  0
LINE
  5
141F1
330
1A
100
AcDbEntity
  8
ZISSEN1
 48
0.5
100
AcDbLine
 10
-2428.513025780782
 20
1887.619299727277
 30
0.0
 11
-2428.513025780782
 21
1882.219299727277
 31
0.0
  0
LINE
  5
141F2
330
1A
100
AcDbEntity
  8
ZISSEN1
 48
0.5
100
AcDbLine
 10
-2428.513025780782
 20
1882.219299727277
 30
0.0
 11
-2427.013025780782
 21
1882.219299727277
 31
0.0
  0
ARC
  5
141F3
330
1A
100
AcDbEntity
  8
ZISSEN1
 48
0.5
100
AcDbCircle
 10
-2427.013025780782
 20
1882.719299727277
 30
0.0
 40
0.5
100
AcDbArc
 50
270.0
 51
0.0
  0
LINE
  5
141F4
330
1A
100
AcDbEntity
  8
ZISSEN1
 48
0.5
100
AcDbLine
 10
-2426.513025780782
 20
1882.719299727277
 30
0.0
 11
-2426.513025780782
 21
1887.119299727277
 31
0.0
  0
ARC
  5
141F5
330
1A
100
AcDbEntity
  8
ZISSEN1
 48
0.5
100
AcDbCircle
 10
-2427.013025780782
 20
1887.119299727277
 30
0.0
 40
0.5
100
AcDbArc
 50
0.0
 51
89.99999999999998
  0
LINE
  5
141F6
330
1A
100
AcDbEntity
  8
ZISSEN1
 48
0.5
100
AcDbLine
 10
-2427.013025780782
 20
1887.619299727277
 30
0.0
 11
-2428.513025780782
 21
1887.619299727277
 31
0.0
  0
LINE
  5
141F7
330
1A
100
AcDbEntity
  8
ZISSEN1
 48
0.5
100
AcDbLine
 10
-2435.013025780784
 20
1894.149299727278
 30
0.0
 11
-2431.513025780784
 21
1894.149299727278
 31
0.0
  0
LINE
  5
141F8
330
1A
100
AcDbEntity
  8
ZISSEN1
 48
0.5
100
AcDbLine
 10
-2422.513025780784
 20
1911.599299727278
 30
0.0
 11
-2435.013025780783
 21
1911.599299727278
 31
0.0
  0
LINE
  5
141F9
330
1A
100
AcDbEntity
  8
ZISSEN1
 48
0.5
100
AcDbLine
 10
-2422.513025780784
 20
1917.999299727277
 30
0.0
 11
-2435.013025780783
 21
1917.999299727277
 31
0.0
  0
LINE
  5
141FA
330
1A
100
AcDbEntity
  8
ZISSEN1
 48
0.5
100
AcDbLine
 10
-2422.513025780784
 20
1919.219299727278
 30
0.0
 11
-2435.013025780783
 21
1919.219299727278
 31
0.0
  0
LINE
  5
141FB
330
1A
100
AcDbEntity
  8
ZISSEN1
 48
0.5
100
AcDbLine
 10
-2422.513025780784
 20
1925.619299727277
 30
0.0
 11
-2435.013025780783
 21
1925.619299727277
 31
0.0
  0
LINE
  5
141FC
330
1A
100
AcDbEntity
  8
ZISSEN1
 48
0.5
100
AcDbLine
 10
-2422.513025780785
 20
1926.839299727278
 30
0.0
 11
-2435.013025780783
 21
1926.839299727278
 31
0.0
  0
LINE
  5
141FD
330
1A
100
AcDbEntity
  8
ZISSEN1
 48
0.5
100
AcDbLine
 10
-2422.513025780785
 20
1933.239299727277
 30
0.0
 11
-2435.013025780783
 21
1933.239299727277
 31
0.0
  0
LINE
  5
141FE
330
1A
100
AcDbEntity
  8
ZISSEN1
 48
0.5
100
AcDbLine
 10
-2422.513025780785
 20
1934.459299727277
 30
0.0
 11
-2435.013025780783
 21
1934.459299727278
 31
0.0
  0
LINE
  5
141FF
330
1A
100
AcDbEntity
  8
ZISSEN1
 48
0.5
100
AcDbLine
 10
-2422.513025780784
 20
1903.979299727278
 30
0.0
 11
-2435.013025780783
 21
1903.979299727278
 31
0.0
  0
LINE
  5
14200
330
1A
100
AcDbEntity
  8
ZISSEN1
 48
0.5
100
AcDbLine
 10
-2422.513025780784
 20
1910.379299727278
 30
0.0
 11
-2435.013025780783
 21
1910.379299727278
 31
0.0
  0
LINE
  5
14201
330
1A
100
AcDbEntity
  8
ZISSEN1
 48
0.5
100
AcDbLine
 10
-2422.513025780784
 20
1902.759299727278
 30
0.0
 11
-2435.013025780783
 21
1902.759299727278
 31
0.0
  0
LINE
  5
14202
330
1A
100
AcDbEntity
  8
ZISSEN1
 48
0.5
100
AcDbLine
 10
-2422.513025780784
 20
1896.359299727278
 30
0.0
 11
-2435.013025780783
 21
1896.359299727278
 31
0.0
  0
LINE
  5
14203
330
1A
100
AcDbEntity
  8
ZISSEN1
 48
0.5
100
AcDbLine
 10
-2422.513025780784
 20
1895.139299727278
 30
0.0
 11
-2435.013025780783
 21
1895.139299727278
 31
0.0
  0
LINE
  5
14204
330
1A
100
AcDbEntity
  8
ZISSEN1
 48
0.5
100
AcDbLine
 10
-2435.013025780784
 20
1935.449299727278
 30
0.0
 11
-2431.513025780784
 21
1935.449299727278
 31
0.0
  0
LINE
  5
14205
330
1A
100
AcDbEntity
  8
ZISSEN1
 48
0.5
100
AcDbLine
 10
-2431.513025780784
 20
1935.449299727278
 30
0.0
 11
-2431.513025780784
 21
1934.459299727277
 31
0.0
  0
LINE
  5
14206
330
1A
100
AcDbEntity
  8
ZISSEN1
 48
0.5
100
AcDbLine
 10
-2431.513025780784
 20
1933.239299727277
 30
0.0
 11
-2431.513025780784
 21
1926.839299727278
 31
0.0
  0
LINE
  5
14207
330
1A
100
AcDbEntity
  8
ZISSEN1
 48
0.5
100
AcDbLine
 10
-2431.513025780784
 20
1925.619299727277
 30
0.0
 11
-2431.513025780784
 21
1919.219299727278
 31
0.0
  0
LINE
  5
14208
330
1A
100
AcDbEntity
  8
ZISSEN1
 48
0.5
100
AcDbLine
 10
-2431.513025780784
 20
1917.999299727277
 30
0.0
 11
-2431.513025780784
 21
1911.599299727278
 31
0.0
  0
LINE
  5
14209
330
1A
100
AcDbEntity
  8
ZISSEN1
 48
0.5
100
AcDbLine
 10
-2431.513025780784
 20
1910.379299727278
 30
0.0
 11
-2431.513025780784
 21
1903.979299727278
 31
0.0
  0
LINE
  5
1420A
330
1A
100
AcDbEntity
  8
ZISSEN1
 48
0.5
100
AcDbLine
 10
-2431.513025780784
 20
1902.759299727278
 30
0.0
 11
-2431.513025780784
 21
1896.359299727278
 31
0.0
  0
LINE
  5
1420B
330
1A
100
AcDbEntity
  8
ZISSEN1
 48
0.5
100
AcDbLine
 10
-2431.513025780784
 20
1895.139299727278
 30
0.0
 11
-2431.513025780784
 21
1894.149299727278
 31
0.0
  0
LINE
  5
1420C
330
1A
100
AcDbEntity
  8
ZISSEN1
 48
0.5
100
AcDbLine
 10
-2430.513025780784
 20
1933.239299727277
 30
0.0
 11
-2430.513025780784
 21
1926.839299727278
 31
0.0
  0
LINE
  5
1420D
330
1A
100
AcDbEntity
  8
ZISSEN1
 48
0.5
100
AcDbLine
 10
-2430.513025780784
 20
1925.619299727277
 30
0.0
 11
-2430.513025780784
 21
1919.219299727278
 31
0.0
  0
LINE
  5
1420E
330
1A
100
AcDbEntity
  8
ZISSEN1
 48
0.5
100
AcDbLine
 10
-2430.513025780784
 20
1917.999299727277
 30
0.0
 11
-2430.513025780784
 21
1911.599299727278
 31
0.0
  0
LINE
  5
1420F
330
1A
100
AcDbEntity
  8
ZISSEN1
 48
0.5
100
AcDbLine
 10
-2430.513025780784
 20
1910.379299727278
 30
0.0
 11
-2430.513025780784
 21
1903.979299727278
 31
0.0
  0
LINE
  5
14210
330
1A
100
AcDbEntity
  8
ZISSEN1
 48
0.5
100
AcDbLine
 10
-2430.513025780784
 20
1902.759299727278
 30
0.0
 11
-2430.513025780784
 21
1896.359299727278
 31
0.0
  0
LINE
  5
14211
330
1A
100
AcDbEntity
  8
ZISSEN1
 48
0.5
100
AcDbLine
 10
-2422.513025780785
 20
1934.459299727277
 30
0.0
 11
-2422.513025780784
 21
1933.239299727277
 31
0.0
  0
LINE
  5
14212
330
1A
100
AcDbEntity
  8
ZISSEN1
 48
0.5
100
AcDbLine
 10
-2422.513025780785
 20
1926.839299727278
 30
0.0
 11
-2422.513025780785
 21
1925.619299727277
 31
0.0
  0
LINE
  5
14213
330
1A
100
AcDbEntity
  8
ZISSEN1
 48
0.5
100
AcDbLine
 10
-2422.513025780785
 20
1919.219299727278
 30
0.0
 11
-2422.513025780785
 21
1917.999299727277
 31
0.0
  0
LINE
  5
14214
330
1A
100
AcDbEntity
  8
ZISSEN1
 48
0.5
100
AcDbLine
 10
-2422.513025780785
 20
1911.599299727278
 30
0.0
 11
-2422.513025780785
 21
1910.379299727278
 31
0.0
  0
LINE
  5
14215
330
1A
100
AcDbEntity
  8
ZISSEN1
 48
0.5
100
AcDbLine
 10
-2422.513025780785
 20
1903.979299727278
 30
0.0
 11
-2422.513025780785
 21
1902.759299727278
 31
0.0
  0
LINE
  5
14216
330
1A
100
AcDbEntity
  8
ZISSEN1
 48
0.5
100
AcDbLine
 10
-2422.513025780785
 20
1896.359299727278
 30
0.0
 11
-2422.513025780785
 21
1895.139299727278
 31
0.0
  0
LWPOLYLINE
  5
14217
330
1A
100
AcDbEntity
  8
ZISSEN1
 48
0.5
100
AcDbPolyline
 90
        6
 70
     1
 43
0.0
 10
-2428.513025780784
 20
1932.739299727277
 10
-2428.513025780784
 20
1927.339299727277
 10
-2427.013025780784
 20
1927.339299727277
 42
0.4142135623730951
 10
-2426.513025780784
 20
1927.839299727277
 10
-2426.513025780784
 20
1932.239299727277
 42
0.4142135623730951
 10
-2427.013025780784
 20
1932.739299727277
  0
LINE
  5
14218
330
1A
100
AcDbEntity
  8
ZISSEN1
 48
0.5
100
AcDbLine
 10
-2430.513025780784
 20
1931.039299727277
 30
0.0
 11
-2429.513025780784
 21
1931.039299727277
 31
0.0
  0
LINE
  5
14219
330
1A
100
AcDbEntity
  8
ZISSEN1
 48
0.5
100
AcDbLine
 10
-2429.513025780784
 20
1931.039299727277
 30
0.0
 11
-2430.513025780784
 21
1933.039299727277
 31
0.0
  0
LINE
  5
1421A
330
1A
100
AcDbEntity
  8
ZISSEN1
 48
0.5
100
AcDbLine
 10
-2430.513025780784
 20
1933.039299727277
 30
0.0
 11
-2428.513025780784
 21
1933.039299727277
 31
0.0
  0
LINE
  5
1421B
330
1A
100
AcDbEntity
  8
ZISSEN1
 48
0.5
100
AcDbLine
 10
-2430.513025780784
 20
1929.039299727278
 30
0.0
 11
-2429.513025780784
 21
1929.039299727278
 31
0.0
  0
LINE
  5
1421C
330
1A
100
AcDbEntity
  8
ZISSEN1
 48
0.5
100
AcDbLine
 10
-2429.513025780784
 20
1929.039299727278
 30
0.0
 11
-2430.513025780784
 21
1927.339299727277
 31
0.0
  0
LINE
  5
1421D
330
1A
100
AcDbEntity
  8
ZISSEN1
 48
0.5
100
AcDbLine
 10
-2430.513025780784
 20
1927.039299727277
 30
0.0
 11
-2428.513025780785
 21
1927.039299727276
 31
0.0
  0
LINE
  5
1421E
330
1A
100
AcDbEntity
  8
ZISSEN1
 48
0.5
100
AcDbLine
 10
-2428.513025780784
 20
1933.039299727277
 30
0.0
 11
-2428.513025780786
 21
1927.039299727276
 31
0.0
  0
LINE
  5
1421F
330
1A
100
AcDbEntity
  8
ZISSEN1
 48
0.5
100
AcDbLine
 10
-2430.513025780784
 20
1931.039299727277
 30
0.0
 11
-2430.513025780784
 21
1929.039299727278
 31
0.0
  0
LINE
  5
14220
330
1A
100
AcDbEntity
  8
ZISSEN1
 48
0.5
100
AcDbLine
 10
-2430.513025780784
 20
1925.619299727277
 30
0.0
 11
-2430.513025780784
 21
1919.219299727278
 31
0.0
  0
LWPOLYLINE
  5
14221
330
1A
100
AcDbEntity
  8
ZISSEN1
 48
0.5
100
AcDbPolyline
 90
        6
 70
     1
 43
0.0
 10
-2428.513025780784
 20
1925.119299727277
 10
-2428.513025780784
 20
1919.719299727277
 10
-2427.013025780784
 20
1919.719299727277
 42
0.4142135623730951
 10
-2426.513025780784
 20
1920.219299727277
 10
-2426.513025780784
 20
1924.619299727277
 42
0.4142135623730951
 10
-2427.013025780784
 20
1925.119299727277
  0
LINE
  5
14222
330
1A
100
AcDbEntity
  8
ZISSEN1
 48
0.5
100
AcDbLine
 10
-2430.513025780784
 20
1923.419299727277
 30
0.0
 11
-2429.513025780784
 21
1923.419299727277
 31
0.0
  0
LINE
  5
14223
330
1A
100
AcDbEntity
  8
ZISSEN1
 48
0.5
100
AcDbLine
 10
-2429.513025780784
 20
1923.419299727277
 30
0.0
 11
-2430.513025780784
 21
1925.419299727277
 31
0.0
  0
LINE
  5
14224
330
1A
100
AcDbEntity
  8
ZISSEN1
 48
0.5
100
AcDbLine
 10
-2430.513025780784
 20
1925.419299727277
 30
0.0
 11
-2428.513025780784
 21
1925.419299727277
 31
0.0
  0
LINE
  5
14225
330
1A
100
AcDbEntity
  8
ZISSEN1
 48
0.5
100
AcDbLine
 10
-2430.513025780784
 20
1921.419299727278
 30
0.0
 11
-2429.513025780784
 21
1921.419299727277
 31
0.0
  0
LINE
  5
14226
330
1A
100
AcDbEntity
  8
ZISSEN1
 48
0.5
100
AcDbLine
 10
-2429.513025780784
 20
1921.419299727277
 30
0.0
 11
-2430.513025780784
 21
1919.719299727278
 31
0.0
  0
LINE
  5
14227
330
1A
100
AcDbEntity
  8
ZISSEN1
 48
0.5
100
AcDbLine
 10
-2430.513025780784
 20
1919.419299727278
 30
0.0
 11
-2428.513025780785
 21
1919.419299727277
 31
0.0
  0
LINE
  5
14228
330
1A
100
AcDbEntity
  8
ZISSEN1
 48
0.5
100
AcDbLine
 10
-2428.513025780784
 20
1925.419299727277
 30
0.0
 11
-2428.513025780786
 21
1919.419299727277
 31
0.0
  0
LINE
  5
14229
330
1A
100
AcDbEntity
  8
ZISSEN1
 48
0.5
100
AcDbLine
 10
-2430.513025780784
 20
1923.419299727277
 30
0.0
 11
-2430.513025780784
 21
1921.419299727278
 31
0.0
  0
LINE
  5
1422A
330
1A
100
AcDbEntity
  8
ZISSEN1
 48
0.5
100
AcDbLine
 10
-2430.513025780784
 20
1917.999299727277
 30
0.0
 11
-2430.513025780784
 21
1911.599299727278
 31
0.0
  0
LWPOLYLINE
  5
1422B
330
1A
100
AcDbEntity
  8
ZISSEN1
 48
0.5
100
AcDbPolyline
 90
        6
 70
     1
 43
0.0
 10
-2428.513025780784
 20
1917.499299727277
 10
-2428.513025780784
 20
1912.099299727277
 10
-2427.013025780784
 20
1912.099299727277
 42
0.4142135623730951
 10
-2426.513025780784
 20
1912.599299727277
 10
-2426.513025780784
 20
1916.999299727278
 42
0.4142135623730951
 10
-2427.013025780784
 20
1917.499299727277
  0
LINE
  5
1422C
330
1A
100
AcDbEntity
  8
ZISSEN1
 48
0.5
100
AcDbLine
 10
-2430.513025780784
 20
1915.799299727277
 30
0.0
 11
-2429.513025780784
 21
1915.799299727277
 31
0.0
  0
LINE
  5
1422D
330
1A
100
AcDbEntity
  8
ZISSEN1
 48
0.5
100
AcDbLine
 10
-2429.513025780784
 20
1915.799299727277
 30
0.0
 11
-2430.513025780784
 21
1917.799299727277
 31
0.0
  0
LINE
  5
1422E
330
1A
100
AcDbEntity
  8
ZISSEN1
 48
0.5
100
AcDbLine
 10
-2430.513025780784
 20
1917.799299727277
 30
0.0
 11
-2428.513025780784
 21
1917.799299727277
 31
0.0
  0
LINE
  5
1422F
330
1A
100
AcDbEntity
  8
ZISSEN1
 48
0.5
100
AcDbLine
 10
-2430.513025780784
 20
1913.799299727278
 30
0.0
 11
-2429.513025780784
 21
1913.799299727277
 31
0.0
  0
LINE
  5
14230
330
1A
100
AcDbEntity
  8
ZISSEN1
 48
0.5
100
AcDbLine
 10
-2429.513025780784
 20
1913.799299727277
 30
0.0
 11
-2430.513025780784
 21
1912.099299727278
 31
0.0
  0
LINE
  5
14231
330
1A
100
AcDbEntity
  8
ZISSEN1
 48
0.5
100
AcDbLine
 10
-2430.513025780784
 20
1911.799299727277
 30
0.0
 11
-2428.513025780785
 21
1911.799299727277
 31
0.0
  0
LINE
  5
14232
330
1A
100
AcDbEntity
  8
ZISSEN1
 48
0.5
100
AcDbLine
 10
-2428.513025780784
 20
1917.799299727277
 30
0.0
 11
-2428.513025780786
 21
1911.799299727277
 31
0.0
  0
LINE
  5
14233
330
1A
100
AcDbEntity
  8
ZISSEN1
 48
0.5
100
AcDbLine
 10
-2430.513025780784
 20
1915.799299727277
 30
0.0
 11
-2430.513025780784
 21
1913.799299727278
 31
0.0
  0
LINE
  5
14234
330
1A
100
AcDbEntity
  8
ZISSEN1
 48
0.5
100
AcDbLine
 10
-2430.513025780784
 20
1910.379299727278
 30
0.0
 11
-2430.513025780784
 21
1903.979299727278
 31
0.0
  0
LWPOLYLINE
  5
14235
330
1A
100
AcDbEntity
  8
ZISSEN1
 48
0.5
100
AcDbPolyline
 90
        6
 70
     1
 43
0.0
 10
-2428.513025780784
 20
1909.879299727277
 10
-2428.513025780784
 20
1904.479299727277
 10
-2427.013025780784
 20
1904.479299727277
 42
0.4142135623730951
 10
-2426.513025780784
 20
1904.979299727277
 10
-2426.513025780784
 20
1909.379299727278
 42
0.4142135623730951
 10
-2427.013025780784
 20
1909.879299727277
  0
LINE
  5
14236
330
1A
100
AcDbEntity
  8
ZISSEN1
 48
0.5
100
AcDbLine
 10
-2430.513025780784
 20
1908.179299727277
 30
0.0
 11
-2429.513025780784
 21
1908.179299727277
 31
0.0
  0
LINE
  5
14237
330
1A
100
AcDbEntity
  8
ZISSEN1
 48
0.5
100
AcDbLine
 10
-2429.513025780784
 20
1908.179299727277
 30
0.0
 11
-2430.513025780784
 21
1910.179299727278
 31
0.0
  0
LINE
  5
14238
330
1A
100
AcDbEntity
  8
ZISSEN1
 48
0.5
100
AcDbLine
 10
-2430.513025780784
 20
1910.179299727278
 30
0.0
 11
-2428.513025780784
 21
1910.179299727278
 31
0.0
  0
LINE
  5
14239
330
1A
100
AcDbEntity
  8
ZISSEN1
 48
0.5
100
AcDbLine
 10
-2430.513025780784
 20
1906.179299727278
 30
0.0
 11
-2429.513025780784
 21
1906.179299727278
 31
0.0
  0
LINE
  5
1423A
330
1A
100
AcDbEntity
  8
ZISSEN1
 48
0.5
100
AcDbLine
 10
-2429.513025780784
 20
1906.179299727278
 30
0.0
 11
-2430.513025780784
 21
1904.479299727278
 31
0.0
  0
LINE
  5
1423B
330
1A
100
AcDbEntity
  8
ZISSEN1
 48
0.5
100
AcDbLine
 10
-2430.513025780784
 20
1904.179299727277
 30
0.0
 11
-2428.513025780785
 21
1904.179299727277
 31
0.0
  0
LINE
  5
1423C
330
1A
100
AcDbEntity
  8
ZISSEN1
 48
0.5
100
AcDbLine
 10
-2428.513025780784
 20
1910.179299727278
 30
0.0
 11
-2428.513025780786
 21
1904.179299727277
 31
0.0
  0
LINE
  5
1423D
330
1A
100
AcDbEntity
  8
ZISSEN1
 48
0.5
100
AcDbLine
 10
-2430.513025780784
 20
1908.179299727277
 30
0.0
 11
-2430.513025780784
 21
1906.179299727278
 31
0.0
  0
LINE
  5
1423E
330
1A
100
AcDbEntity
  8
ZISSEN1
 48
0.5
100
AcDbLine
 10
-2430.513025780784
 20
1902.759299727278
 30
0.0
 11
-2430.513025780784
 21
1896.359299727278
 31
0.0
  0
LWPOLYLINE
  5
1423F
330
1A
100
AcDbEntity
  8
ZISSEN1
 48
0.5
100
AcDbPolyline
 90
        6
 70
     1
 43
0.0
 10
-2428.513025780784
 20
1902.259299727278
 10
-2428.513025780784
 20
1896.859299727277
 10
-2427.013025780784
 20
1896.859299727277
 42
0.4142135623730951
 10
-2426.513025780784
 20
1897.359299727277
 10
-2426.513025780784
 20
1901.759299727277
 42
0.4142135623730951
 10
-2427.013025780784
 20
1902.259299727278
  0
LINE
  5
14240
330
1A
100
AcDbEntity
  8
ZISSEN1
 48
0.5
100
AcDbLine
 10
-2430.513025780784
 20
1900.559299727277
 30
0.0
 11
-2429.513025780784
 21
1900.559299727277
 31
0.0
  0
LINE
  5
14241
330
1A
100
AcDbEntity
  8
ZISSEN1
 48
0.5
100
AcDbLine
 10
-2429.513025780784
 20
1900.559299727277
 30
0.0
 11
-2430.513025780784
 21
1902.559299727278
 31
0.0
  0
LINE
  5
14242
330
1A
100
AcDbEntity
  8
ZISSEN1
 48
0.5
100
AcDbLine
 10
-2430.513025780784
 20
1902.559299727278
 30
0.0
 11
-2428.513025780784
 21
1902.559299727278
 31
0.0
  0
LINE
  5
14243
330
1A
100
AcDbEntity
  8
ZISSEN1
 48
0.5
100
AcDbLine
 10
-2430.513025780784
 20
1898.559299727278
 30
0.0
 11
-2429.513025780784
 21
1898.559299727278
 31
0.0
  0
LINE
  5
14244
330
1A
100
AcDbEntity
  8
ZISSEN1
 48
0.5
100
AcDbLine
 10
-2429.513025780784
 20
1898.559299727278
 30
0.0
 11
-2430.513025780784
 21
1896.859299727278
 31
0.0
  0
LINE
  5
14245
330
1A
100
AcDbEntity
  8
ZISSEN1
 48
0.5
100
AcDbLine
 10
-2430.513025780784
 20
1896.559299727278
 30
0.0
 11
-2428.513025780785
 21
1896.559299727277
 31
0.0
  0
LINE
  5
14246
330
1A
100
AcDbEntity
  8
ZISSEN1
 48
0.5
100
AcDbLine
 10
-2428.513025780784
 20
1902.559299727278
 30
0.0
 11
-2428.513025780786
 21
1896.559299727277
 31
0.0
  0
LINE
  5
14247
330
1A
100
AcDbEntity
  8
ZISSEN1
 48
0.5
100
AcDbLine
 10
-2430.513025780784
 20
1900.559299727277
 30
0.0
 11
-2430.513025780784
 21
1898.559299727278
 31
0.0
  0
LINE
  5
14248
330
1A
100
AcDbEntity
  8
ZISSEN1
 48
0.5
100
AcDbLine
 10
-2420.713025780784
 20
1895.139299727278
 30
0.0
 11
-2420.713025780784
 21
1934.459299727277
 31
0.0
  0
LINE
  5
14249
330
1A
100
AcDbEntity
  8
ZISSEN1
 48
0.5
100
AcDbLine
 10
-2424.513025780785
 20
1895.139299727278
 30
0.0
 11
-2424.513025780785
 21
1934.459299727277
 31
0.0
  0
LINE
  5
1424A
330
1A
100
AcDbEntity
  8
ZISSEN1
 48
0.5
100
AcDbLine
 10
-2424.513025780785
 20
1934.459299727277
 30
0.0
 11
-2420.713025780784
 21
1934.459299727277
 31
0.0
  0
LINE
  5
1424B
330
1A
100
AcDbEntity
  8
ZISSEN1
 48
0.5
100
AcDbLine
 10
-2424.513025780785
 20
1895.139299727278
 30
0.0
 11
-2420.713025780784
 21
1895.139299727278
 31
0.0
  0
LINE
  5
1424C
330
1A
100
AcDbEntity
  8
ZISSEN1
 48
0.5
100
AcDbLine
 10
-2567.013025780783
 20
2010.299299727277
 30
0.0
 11
-2570.013025780783
 21
2010.299299727277
 31
0.0
  0
LINE
  5
1424D
330
1A
100
AcDbEntity
  8
ZISSEN1
 48
0.5
100
AcDbLine
 10
-2570.013025780783
 20
2010.299299727277
 30
0.0
 11
-2570.013025780783
 21
1840.299299727277
 31
0.0
  0
LINE
  5
1424E
330
1A
100
AcDbEntity
  8
ZISSEN1
 48
0.5
100
AcDbLine
 10
-2570.013025780783
 20
1840.299299727277
 30
0.0
 11
-2567.013025780783
 21
1840.299299727277
 31
0.0
  0
LINE
  5
1424F
330
1A
100
AcDbEntity
  8
ZISSEN1
 48
0.5
100
AcDbLine
 10
-2567.013025780783
 20
1840.299299727277
 30
0.0
 11
-2567.013025780783
 21
2010.299299727277
 31
0.0
  0
LINE
  5
14250
330
1A
100
AcDbEntity
  8
ZISSEN1
 48
0.5
100
AcDbLine
 10
-2567.013025780783
 20
2008.299299727277
 30
0.0
 11
-2570.013025780783
 21
2008.299299727277
 31
0.0
  0
LINE
  5
14255
330
1A
100
AcDbEntity
  8
ZISSEN1
 48
0.5
100
AcDbLine
 10
-2567.013025780783
 20
1842.299299727277
 30
0.0
 11
-2570.013025780783
 21
1842.299299727277
 31
0.0
  0
LINE
  5
14256
330
1A
100
AcDbEntity
  8
ZISSEN1
 48
0.5
100
AcDbLine
 10
-2567.013025780783
 20
1854.299299727277
 30
0.0
 11
-2437.013025780783
 21
1854.299299727277
 31
0.0
  0
LINE
  5
14257
330
1A
100
AcDbEntity
  8
ZISSEN1
 48
0.5
100
AcDbLine
 10
-2436.513025780784
 20
1855.799299727277
 30
0.0
 11
-2435.013025780783
 21
1855.799299727277
 31
0.0
  0
LINE
  5
14258
330
1A
100
AcDbEntity
  8
ZISSEN1
 48
0.5
100
AcDbLine
 10
-2436.513025780783
 20
1855.799299727277
 30
0.0
 11
-2436.513025780783
 21
1854.299299727277
 31
0.0
  0
LINE
  5
14259
330
1A
100
AcDbEntity
  8
ZISSEN1
 48
0.5
100
AcDbLine
 10
-2436.513025780783
 20
1854.299299727277
 30
0.0
 11
-2435.013025780783
 21
1854.299299727277
 31
0.0
  0
LINE
  5
1425A
330
1A
100
AcDbEntity
  8
ZISSEN1
 48
0.5
100
AcDbLine
 10
-2435.013025780783
 20
1854.299299727277
 30
0.0
 11
-2435.013025780783
 21
1996.299299727277
 31
0.0
  0
LINE
  5
1425B
330
1A
100
AcDbEntity
  8
ZISSEN1
 48
0.5
100
AcDbLine
 10
-2436.513025780783
 20
1855.299299727277
 30
0.0
 11
-2437.013025780783
 21
1854.799299727277
 31
0.0
  0
LINE
  5
1425C
330
1A
100
AcDbEntity
  8
ZISSEN1
 48
0.5
100
AcDbLine
 10
-2435.013025780783
 20
1996.299299727277
 30
0.0
 11
-2436.513025780783
 21
1996.299299727277
 31
0.0
  0
LINE
  5
1425D
330
1A
100
AcDbEntity
  8
ZISSEN1
 48
0.5
100
AcDbLine
 10
-2436.513025780783
 20
1996.299299727277
 30
0.0
 11
-2436.513025780783
 21
1994.799299727277
 31
0.0
  0
LINE
  5
1425E
330
1A
100
AcDbEntity
  8
ZISSEN1
 48
0.5
100
AcDbLine
 10
-2435.013025780783
 20
1994.799299727277
 30
0.0
 11
-2436.513025780784
 21
1994.799299727277
 31
0.0
  0
LINE
  5
1425F
330
1A
100
AcDbEntity
  8
ZISSEN1
 48
0.5
100
AcDbLine
 10
-2437.013025780783
 20
1996.299299727277
 30
0.0
 11
-2567.013025780783
 21
1996.299299727277
 31
0.0
  0
LINE
  5
14260
330
1A
100
AcDbEntity
  8
ZISSEN1
 48
0.5
100
AcDbLine
 10
-2320.013640425389
 20
1996.299299727276
 30
0.0
 11
-2320.013640425389
 21
2008.299299727276
 31
0.0
  0
LINE
  5
14261
330
1A
100
AcDbEntity
  8
ZISSEN1
 48
0.5
100
AcDbLine
 10
-2322.013640425389
 20
2010.299299727276
 30
0.0
 11
-2346.263640425389
 21
2010.299299727276
 31
0.0
  0
LINE
  5
14262
330
1A
100
AcDbEntity
  8
ZISSEN1
 48
0.5
100
AcDbLine
 10
-2346.263640425389
 20
2010.299299727276
 30
0.0
 11
-2346.263640425389
 21
2004.799299727276
 31
0.0
  0
LINE
  5
14263
330
1A
100
AcDbEntity
  8
ZISSEN1
 48
0.5
100
AcDbLine
 10
-2350.763640425389
 20
2004.799299727276
 30
0.0
 11
-2350.763640425389
 21
2010.299299727276
 31
0.0
  0
LINE
  5
14264
330
1A
100
AcDbEntity
  8
ZISSEN1
 48
0.5
100
AcDbLine
 10
-2350.763640425389
 20
2010.299299727276
 30
0.0
 11
-2355.013640425389
 21
2010.299299727276
 31
0.0
  0
LINE
  5
14265
330
1A
100
AcDbEntity
  8
ZISSEN1
 48
0.5
100
AcDbLine
 10
-2357.013640425389
 20
2008.299299727276
 30
0.0
 11
-2357.01364042539
 21
1996.299299727277
 31
0.0
  0
LINE
  5
14266
330
1A
100
AcDbEntity
  8
ZISSEN1
 48
0.5
100
AcDbLine
 10
-2313.013640425389
 20
1996.299299727277
 30
0.0
 11
-2363.513640425389
 21
1996.299299727277
 31
0.0
  0
LINE
  5
14267
330
1A
100
AcDbEntity
  8
ZISSEN1
 48
0.5
100
AcDbLine
 10
-2365.013640425389
 20
1994.799299727277
 30
0.0
 11
-2365.013640425478
 21
1855.799299727277
 31
0.0
  0
LINE
  5
14268
330
1A
100
AcDbEntity
  8
ZISSEN1
 48
0.5
100
AcDbLine
 10
-2363.513640425388
 20
1854.299299727277
 30
0.0
 11
-2313.513640425389
 21
1854.299299727276
 31
0.0
  0
LINE
  5
14269
330
1A
100
AcDbEntity
  8
ZISSEN1
 48
0.5
100
AcDbLine
 10
-2357.013640425389
 20
1854.299299727276
 30
0.0
 11
-2357.013640425389
 21
1842.299299727277
 31
0.0
  0
LINE
  5
1426A
330
1A
100
AcDbEntity
  8
ZISSEN1
 48
0.5
100
AcDbLine
 10
-2355.013640425389
 20
1840.299299727277
 30
0.0
 11
-2350.76364042539
 21
1840.299299727277
 31
0.0
  0
LINE
  5
1426B
330
1A
100
AcDbEntity
  8
ZISSEN1
 48
0.5
100
AcDbLine
 10
-2350.76364042539
 20
1840.299299727277
 30
0.0
 11
-2350.76364042539
 21
1845.799299727278
 31
0.0
  0
LINE
  5
1426C
330
1A
100
AcDbEntity
  8
ZISSEN1
 48
0.5
100
AcDbLine
 10
-2346.26364042539
 20
1845.799299727277
 30
0.0
 11
-2346.26364042539
 21
1840.299299727276
 31
0.0
  0
LINE
  5
1426D
330
1A
100
AcDbEntity
  8
ZISSEN1
 48
0.5
100
AcDbLine
 10
-2346.26364042539
 20
1840.299299727276
 30
0.0
 11
-2330.763640425389
 21
1840.299299727276
 31
0.0
  0
LINE
  5
1426E
330
1A
100
AcDbEntity
  8
ZISSEN1
 48
0.5
100
AcDbLine
 10
-2330.763640425389
 20
1840.299299727276
 30
0.0
 11
-2330.763640425389
 21
1845.799299727276
 31
0.0
  0
LINE
  5
1426F
330
1A
100
AcDbEntity
  8
ZISSEN1
 48
0.5
100
AcDbLine
 10
-2326.263640425389
 20
1845.799299727276
 30
0.0
 11
-2326.263640425389
 21
1840.299299727276
 31
0.0
  0
LINE
  5
14270
330
1A
100
AcDbEntity
  8
ZISSEN1
 48
0.5
100
AcDbLine
 10
-2326.263640425389
 20
1840.299299727276
 30
0.0
 11
-2322.013640425389
 21
1840.299299727276
 31
0.0
  0
LINE
  5
14271
330
1A
100
AcDbEntity
  8
ZISSEN1
 48
0.5
100
AcDbLine
 10
-2320.013640425389
 20
1842.299299727276
 30
0.0
 11
-2320.013640425389
 21
1854.299299727276
 31
0.0
  0
LINE
  5
14272
330
1A
100
AcDbEntity
  8
ZISSEN1
 48
0.5
100
AcDbLine
 10
-2325.513640425389
 20
1996.299299727277
 30
0.0
 11
-2325.513640425389
 21
1996.799299727277
 31
0.0
  0
LINE
  5
14273
330
1A
100
AcDbEntity
  8
ZISSEN1
 48
0.5
100
AcDbLine
 10
-2325.513640425389
 20
1996.799299727277
 30
0.0
 11
-2331.513640425389
 21
1996.799299727277
 31
0.0
  0
LINE
  5
14274
330
1A
100
AcDbEntity
  8
ZISSEN1
 48
0.5
100
AcDbLine
 10
-2331.513640425389
 20
1996.799299727277
 30
0.0
 11
-2331.513640425389
 21
1996.299299727277
 31
0.0
  0
LINE
  5
14275
330
1A
100
AcDbEntity
  8
ZISSEN1
 48
0.5
100
AcDbLine
 10
-2325.513640425389
 20
1854.299299727276
 30
0.0
 11
-2325.513640425389
 21
1853.799299727277
 31
0.0
  0
LINE
  5
14276
330
1A
100
AcDbEntity
  8
ZISSEN1
 48
0.5
100
AcDbLine
 10
-2325.513640425389
 20
1853.799299727277
 30
0.0
 11
-2331.513640425389
 21
1853.799299727277
 31
0.0
  0
LINE
  5
14277
330
1A
100
AcDbEntity
  8
ZISSEN1
 48
0.5
100
AcDbLine
 10
-2331.513640425389
 20
1853.799299727277
 30
0.0
 11
-2331.513640425389
 21
1854.299299727276
 31
0.0
  0
ARC
  5
14278
330
1A
100
AcDbEntity
  8
ZISSEN1
 48
0.5
100
AcDbCircle
 10
-2328.513640425389
 20
1845.799299727277
 30
0.0
 40
2.25
100
AcDbArc
 50
0.0
 51
180.0
  0
ARC
  5
14279
330
1A
100
AcDbEntity
  8
ZISSEN1
 48
0.5
100
AcDbCircle
 10
-2348.513640425389
 20
1845.799299727277
 30
0.0
 40
2.249999999999545
100
AcDbArc
 50
0.0000000000260424
 51
180.0
  0
ARC
  5
1427A
330
1A
100
AcDbEntity
  8
ZISSEN1
 48
0.5
100
AcDbCircle
 10
-2348.513640425389
 20
2004.799299727276
 30
0.0
 40
2.249999999999558
100
AcDbArc
 50
180.0
 51
358.3785295615024
  0
LINE
  5
1427B
330
1A
100
AcDbEntity
  8
ZISSEN1
 48
0.5
100
AcDbLine
 10
-2311.513640425388
 20
1994.799299727277
 30
0.0
 11
-2311.513640425389
 21
1982.799299727278
 31
0.0
  0
LINE
  5
1427C
330
1A
100
AcDbEntity
  8
ZISSEN1
 48
0.5
100
AcDbLine
 10
-2311.513640425389
 20
1982.799299727278
 30
0.0
 11
-2313.021722567538
 21
1982.800274886092
 31
0.0
  0
LINE
  5
1427D
330
1A
100
AcDbEntity
  8
ZISSEN1
 48
0.5
100
AcDbLine
 10
-2311.513640425389
 20
1983.799299727278
 30
0.0
 11
-2313.013640425389
 21
1983.799299727278
 31
0.0
  0
LINE
  5
1427E
330
1A
100
AcDbEntity
  8
ZISSEN1
 48
0.5
100
AcDbLine
 10
-2314.513640425389
 20
1996.299299727277
 30
0.0
 11
-2313.513640425389
 21
1995.299299727277
 31
0.0
  0
LINE
  5
1427F
330
1A
100
AcDbEntity
  8
ZISSEN1
 48
0.5
100
AcDbLine
 10
-2313.513640425389
 20
1995.299299727277
 30
0.0
 11
-2313.51364042539
 21
1954.799299727277
 31
0.0
  0
LINE
  5
14280
330
1A
100
AcDbEntity
  8
ZISSEN1
 48
0.5
100
AcDbLine
 10
-2312.01364042539
 20
1874.799299727277
 30
0.0
 11
-2313.513640425389
 21
1874.799299727277
 31
0.0
  0
LINE
  5
14281
330
1A
100
AcDbEntity
  8
ZISSEN1
 48
0.5
100
AcDbLine
 10
-2313.51364042539
 20
1954.799299727277
 30
0.0
 11
-2312.015001583929
 21
1954.799325225833
 31
0.0
  0
LINE
  5
14282
330
1A
100
AcDbEntity
  8
ZISSEN1
 48
0.5
100
AcDbLine
 10
-2312.015001583929
 20
1954.799325225833
 30
0.0
 11
-2312.015001583954
 21
1874.799299727277
 31
0.0
  0
LINE
  5
14283
330
1A
100
AcDbEntity
  8
ZISSEN1
 48
0.5
100
AcDbLine
 10
-2312.014686816407
 20
1936.299342245665
 30
0.0
 11
-2314.014686816407
 21
1936.299342245665
 31
0.0
  0
LINE
  5
14284
330
1A
100
AcDbEntity
  8
ZISSEN1
 48
0.5
100
AcDbLine
 10
-2314.014686816407
 20
1936.299342245665
 30
0.0
 11
-2314.014686816407
 21
1893.299342245665
 31
0.0
  0
LINE
  5
14285
330
1A
100
AcDbEntity
  8
ZISSEN1
 48
0.5
100
AcDbLine
 10
-2314.014686816407
 20
1893.299342245665
 30
0.0
 11
-2312.015001583948
 21
1893.299342245664
 31
0.0
  0
LINE
  5
14286
330
1A
100
AcDbEntity
  8
ZISSEN1
 48
0.5
100
AcDbLine
 10
-2313.513640425389
 20
1936.299299727278
 30
0.0
 11
-2313.513640425389
 21
1893.299299727278
 31
0.0
  0
LINE
  5
14287
330
1A
100
AcDbEntity
  8
ZISSEN1
 48
0.5
100
AcDbLine
 10
-2313.513640425389
 20
1874.799299727277
 30
0.0
 11
-2313.513640425389
 21
1854.299299727276
 31
0.0
  0
LINE
  5
14288
330
1A
100
AcDbEntity
  8
ZISSEN1
 48
0.5
100
AcDbLine
 10
-2313.513640425389
 20
1855.299299727277
 30
0.0
 11
-2314.513640425389
 21
1854.299299727277
 31
0.0
  0
ARC
  5
14289
330
1A
100
AcDbEntity
  8
ZISSEN1
 48
0.5
100
AcDbCircle
 10
-2313.013640425387
 20
1994.799299727279
 30
0.0
 40
1.499999999997726
100
AcDbArc
 50
359.9999999999218
 51
90.00000000007814
  0
ARC
  5
1428A
330
1A
100
AcDbEntity
  8
ZISSEN1
 48
0.5
100
AcDbCircle
 10
-2363.513640425328
 20
1855.799299727427
 30
0.0
 40
1.500000000150066
100
AcDbArc
 50
180.000000005706
 51
269.999999997629
  0
ARC
  5
1428B
330
1A
100
AcDbEntity
  8
ZISSEN1
 48
0.5
100
AcDbCircle
 10
-2363.513640425392
 20
1994.799299727278
 30
0.0
 40
1.499999999998181
100
AcDbArc
 50
89.99999999999998
 51
179.9999999999739
  0
LWPOLYLINE
  5
1428C
330
1A
100
AcDbEntity
  8
ZISSEN1
100
AcDbPolyline
 90
        4
 70
     1
 43
0.0
 10
-2330.41364042539
 20
1935.449299727277
 10
-2330.41364042539
 20
1894.149299727278
 10
-2318.41364042539
 20
1894.149299727278
 10
-2318.41364042539
 20
1935.449299727277
  0
LINE
  5
1428D
330
1A
100
AcDbEntity
  8
ZISSEN1
100
AcDbLine
 10
-2330.41364042539
 20
1934.459299727277
 30
0.0
 11
-2318.41364042539
 21
1934.459299727277
 31
0.0
  0
LINE
  5
1428E
330
1A
100
AcDbEntity
  8
ZISSEN1
100
AcDbLine
 10
-2330.41364042539
 20
1926.839299727277
 30
0.0
 11
-2318.41364042539
 21
1926.839299727277
 31
0.0
  0
LINE
  5
1428F
330
1A
100
AcDbEntity
  8
ZISSEN1
100
AcDbLine
 10
-2330.41364042539
 20
1925.619299727277
 30
0.0
 11
-2318.41364042539
 21
1925.619299727277
 31
0.0
  0
LINE
  5
14290
330
1A
100
AcDbEntity
  8
ZISSEN1
100
AcDbLine
 10
-2330.41364042539
 20
1919.219299727277
 30
0.0
 11
-2318.41364042539
 21
1919.219299727277
 31
0.0
  0
LINE
  5
14291
330
1A
100
AcDbEntity
  8
ZISSEN1
100
AcDbLine
 10
-2330.41364042539
 20
1917.999299727277
 30
0.0
 11
-2318.41364042539
 21
1917.999299727277
 31
0.0
  0
LINE
  5
14292
330
1A
100
AcDbEntity
  8
ZISSEN1
100
AcDbLine
 10
-2330.41364042539
 20
1911.599299727277
 30
0.0
 11
-2318.41364042539
 21
1911.599299727277
 31
0.0
  0
LINE
  5
14293
330
1A
100
AcDbEntity
  8
ZISSEN1
100
AcDbLine
 10
-2330.41364042539
 20
1910.379299727277
 30
0.0
 11
-2318.41364042539
 21
1910.379299727277
 31
0.0
  0
LINE
  5
14294
330
1A
100
AcDbEntity
  8
ZISSEN1
100
AcDbLine
 10
-2330.41364042539
 20
1903.979299727277
 30
0.0
 11
-2318.41364042539
 21
1903.979299727277
 31
0.0
  0
LINE
  5
14295
330
1A
100
AcDbEntity
  8
ZISSEN1
100
AcDbLine
 10
-2330.41364042539
 20
1902.759299727277
 30
0.0
 11
-2318.41364042539
 21
1902.759299727277
 31
0.0
  0
LINE
  5
14296
330
1A
100
AcDbEntity
  8
ZISSEN1
100
AcDbLine
 10
-2330.41364042539
 20
1896.359299727278
 30
0.0
 11
-2318.41364042539
 21
1896.359299727278
 31
0.0
  0
LINE
  5
14297
330
1A
100
AcDbEntity
  8
ZISSEN1
100
AcDbLine
 10
-2330.41364042539
 20
1895.139299727277
 30
0.0
 11
-2318.41364042539
 21
1895.139299727277
 31
0.0
  0
LINE
  5
14298
330
1A
100
AcDbEntity
  8
ZISSEN1
100
AcDbLine
 10
-2330.41364042539
 20
1933.239299727277
 30
0.0
 11
-2318.41364042539
 21
1933.239299727277
 31
0.0
  0
CIRCLE
  5
14299
330
1A
100
AcDbEntity
  8
ZISSEN1
100
AcDbCircle
 10
-2324.91364042539
 20
1930.039299727276
 30
0.0
 40
2.75
  0
LWPOLYLINE
  5
142A6
330
1A
100
AcDbEntity
  8
ZISSEN1
100
AcDbPolyline
 90
        4
 70
     1
 43
0.0
 10
-2327.91364042539
 20
1933.239299727277
 10
-2327.91364042539
 20
1926.839299727276
 10
-2321.913640425389
 20
1926.839299727276
 10
-2321.913640425389
 20
1933.239299727277
  0
LINE
  5
142A7
330
1A
100
AcDbEntity
  8
ZISSEN1
100
AcDbLine
 10
-2324.41364042539
 20
1932.739299727277
 30
0.0
 11
-2324.41364042539
 21
1933.239299727277
 31
0.0
  0
LINE
  5
142A8
330
1A
100
AcDbEntity
  8
ZISSEN1
100
AcDbLine
 10
-2325.413640425389
 20
1932.739299727277
 30
0.0
 11
-2325.413640425389
 21
1933.239299727277
 31
0.0
  0
LINE
  5
142A9
330
1A
100
AcDbEntity
  8
ZISSEN1
100
AcDbLine
 10
-2324.41364042539
 20
1926.839299727276
 30
0.0
 11
-2324.41364042539
 21
1927.335136270678
 31
0.0
  0
LINE
  5
142AA
330
1A
100
AcDbEntity
  8
ZISSEN1
100
AcDbLine
 10
-2325.413640425389
 20
1927.335136270678
 30
0.0
 11
-2325.413640425389
 21
1926.839299727277
 31
0.0
  0
LWPOLYLINE
  5
142AB
330
1A
100
AcDbEntity
  8
ZISSEN1
100
AcDbPolyline
 90
        4
 70
     1
 43
0.0
 10
-2328.51364042539
 20
1932.739299727277
 10
-2328.51364042539
 20
1927.339299727276
 10
-2327.91364042539
 20
1927.339299727276
 10
-2327.91364042539
 20
1932.739299727277
  0
LINE
  5
142AC
330
1A
100
AcDbEntity
  8
ZISSEN1
100
AcDbLine
 10
-2319.913640425228
 20
1933.239299727277
 30
0.0
 11
-2319.913640425228
 21
1926.839299727277
 31
0.0
  0
LINE
  5
142AD
330
1A
100
AcDbEntity
  8
ZISSEN1
100
AcDbLine
 10
-2328.91364042539
 20
1933.239299727277
 30
0.0
 11
-2328.91364042539
 21
1926.839299727277
 31
0.0
  0
LINE
  5
142AE
330
1A
100
AcDbEntity
  8
ZISSEN1
100
AcDbLine
 10
-2330.41364042539
 20
1919.219299727277
 30
0.0
 11
-2318.41364042539
 21
1919.219299727277
 31
0.0
  0
LINE
  5
142AF
330
1A
100
AcDbEntity
  8
ZISSEN1
100
AcDbLine
 10
-2330.41364042539
 20
1925.619299727277
 30
0.0
 11
-2318.41364042539
 21
1925.619299727277
 31
0.0
  0
CIRCLE
  5
142B0
330
1A
100
AcDbEntity
  8
ZISSEN1
100
AcDbCircle
 10
-2324.91364042539
 20
1922.419299727277
 30
0.0
 40
2.75
  0
LWPOLYLINE
  5
142BD
330
1A
100
AcDbEntity
  8
ZISSEN1
100
AcDbPolyline
 90
        4
 70
     1
 43
0.0
 10
-2327.91364042539
 20
1925.619299727277
 10
-2327.91364042539
 20
1919.219299727276
 10
-2321.913640425389
 20
1919.219299727276
 10
-2321.913640425389
 20
1925.619299727277
  0
LINE
  5
142BE
330
1A
100
AcDbEntity
  8
ZISSEN1
100
AcDbLine
 10
-2324.41364042539
 20
1925.119299727277
 30
0.0
 11
-2324.41364042539
 21
1925.619299727277
 31
0.0
  0
LINE
  5
142BF
330
1A
100
AcDbEntity
  8
ZISSEN1
100
AcDbLine
 10
-2325.413640425389
 20
1925.119299727277
 30
0.0
 11
-2325.413640425389
 21
1925.619299727277
 31
0.0
  0
LINE
  5
142C0
330
1A
100
AcDbEntity
  8
ZISSEN1
100
AcDbLine
 10
-2324.41364042539
 20
1919.219299727276
 30
0.0
 11
-2324.41364042539
 21
1919.715136270678
 31
0.0
  0
LINE
  5
142C1
330
1A
100
AcDbEntity
  8
ZISSEN1
100
AcDbLine
 10
-2325.413640425389
 20
1919.715136270678
 30
0.0
 11
-2325.413640425389
 21
1919.219299727277
 31
0.0
  0
LINE
  5
142C2
330
1A
100
AcDbEntity
  8
ZISSEN1
100
AcDbLine
 10
-2319.913640425228
 20
1925.619299727277
 30
0.0
 11
-2319.913640425228
 21
1919.219299727277
 31
0.0
  0
LINE
  5
142C3
330
1A
100
AcDbEntity
  8
ZISSEN1
100
AcDbLine
 10
-2328.91364042539
 20
1925.619299727277
 30
0.0
 11
-2328.91364042539
 21
1919.219299727277
 31
0.0
  0
LINE
  5
142C4
330
1A
100
AcDbEntity
  8
ZISSEN1
100
AcDbLine
 10
-2330.41364042539
 20
1917.999299727277
 30
0.0
 11
-2318.41364042539
 21
1917.999299727277
 31
0.0
  0
LINE
  5
142C5
330
1A
100
AcDbEntity
  8
ZISSEN1
100
AcDbLine
 10
-2330.41364042539
 20
1911.599299727277
 30
0.0
 11
-2318.41364042539
 21
1911.599299727277
 31
0.0
  0
LINE
  5
142C6
330
1A
100
AcDbEntity
  8
ZISSEN1
100
AcDbLine
 10
-2330.41364042539
 20
1911.599299727277
 30
0.0
 11
-2318.41364042539
 21
1911.599299727277
 31
0.0
  0
LINE
  5
142C7
330
1A
100
AcDbEntity
  8
ZISSEN1
100
AcDbLine
 10
-2330.41364042539
 20
1917.999299727277
 30
0.0
 11
-2318.41364042539
 21
1917.999299727277
 31
0.0
  0
CIRCLE
  5
142C8
330
1A
100
AcDbEntity
  8
ZISSEN1
100
AcDbCircle
 10
-2324.91364042539
 20
1914.799299727277
 30
0.0
 40
2.75
  0
LWPOLYLINE
  5
142D5
330
1A
100
AcDbEntity
  8
ZISSEN1
100
AcDbPolyline
 90
        4
 70
     1
 43
0.0
 10
-2327.91364042539
 20
1917.999299727277
 10
-2327.91364042539
 20
1911.599299727277
 10
-2321.913640425389
 20
1911.599299727277
 10
-2321.913640425389
 20
1917.999299727277
  0
LINE
  5
142D6
330
1A
100
AcDbEntity
  8
ZISSEN1
100
AcDbLine
 10
-2324.41364042539
 20
1917.499299727277
 30
0.0
 11
-2324.41364042539
 21
1917.999299727277
 31
0.0
  0
LINE
  5
142D7
330
1A
100
AcDbEntity
  8
ZISSEN1
100
AcDbLine
 10
-2325.413640425389
 20
1917.499299727277
 30
0.0
 11
-2325.413640425389
 21
1917.999299727277
 31
0.0
  0
LINE
  5
142D8
330
1A
100
AcDbEntity
  8
ZISSEN1
100
AcDbLine
 10
-2324.41364042539
 20
1911.599299727277
 30
0.0
 11
-2324.41364042539
 21
1912.095136270679
 31
0.0
  0
LINE
  5
142D9
330
1A
100
AcDbEntity
  8
ZISSEN1
100
AcDbLine
 10
-2325.413640425389
 20
1912.095136270679
 30
0.0
 11
-2325.413640425389
 21
1911.599299727277
 31
0.0
  0
LINE
  5
142DA
330
1A
100
AcDbEntity
  8
ZISSEN1
100
AcDbLine
 10
-2319.913640425228
 20
1917.999299727277
 30
0.0
 11
-2319.913640425228
 21
1911.599299727277
 31
0.0
  0
LINE
  5
142DB
330
1A
100
AcDbEntity
  8
ZISSEN1
100
AcDbLine
 10
-2328.91364042539
 20
1917.999299727277
 30
0.0
 11
-2328.91364042539
 21
1911.599299727277
 31
0.0
  0
LINE
  5
142DC
330
1A
100
AcDbEntity
  8
ZISSEN1
100
AcDbLine
 10
-2330.41364042539
 20
1910.379299727277
 30
0.0
 11
-2318.41364042539
 21
1910.379299727277
 31
0.0
  0
LINE
  5
142DD
330
1A
100
AcDbEntity
  8
ZISSEN1
100
AcDbLine
 10
-2330.41364042539
 20
1903.979299727277
 30
0.0
 11
-2318.41364042539
 21
1903.979299727277
 31
0.0
  0
LINE
  5
142DE
330
1A
100
AcDbEntity
  8
ZISSEN1
100
AcDbLine
 10
-2330.41364042539
 20
1910.379299727277
 30
0.0
 11
-2318.41364042539
 21
1910.379299727277
 31
0.0
  0
LINE
  5
142DF
330
1A
100
AcDbEntity
  8
ZISSEN1
100
AcDbLine
 10
-2330.41364042539
 20
1903.979299727277
 30
0.0
 11
-2318.41364042539
 21
1903.979299727277
 31
0.0
  0
LINE
  5
142E0
330
1A
100
AcDbEntity
  8
ZISSEN1
100
AcDbLine
 10
-2330.41364042539
 20
1903.979299727277
 30
0.0
 11
-2318.41364042539
 21
1903.979299727277
 31
0.0
  0
LINE
  5
142E1
330
1A
100
AcDbEntity
  8
ZISSEN1
100
AcDbLine
 10
-2330.41364042539
 20
1910.379299727277
 30
0.0
 11
-2318.41364042539
 21
1910.379299727277
 31
0.0
  0
CIRCLE
  5
142E2
330
1A
100
AcDbEntity
  8
ZISSEN1
100
AcDbCircle
 10
-2324.91364042539
 20
1907.179299727277
 30
0.0
 40
2.75
  0
LWPOLYLINE
  5
142EF
330
1A
100
AcDbEntity
  8
ZISSEN1
100
AcDbPolyline
 90
        4
 70
     1
 43
0.0
 10
-2327.91364042539
 20
1910.379299727277
 10
-2327.91364042539
 20
1903.979299727277
 10
-2321.913640425389
 20
1903.979299727277
 10
-2321.913640425389
 20
1910.379299727277
  0
LINE
  5
142F0
330
1A
100
AcDbEntity
  8
ZISSEN1
100
AcDbLine
 10
-2324.41364042539
 20
1909.879299727277
 30
0.0
 11
-2324.41364042539
 21
1910.379299727277
 31
0.0
  0
LINE
  5
142F1
330
1A
100
AcDbEntity
  8
ZISSEN1
100
AcDbLine
 10
-2325.413640425389
 20
1909.879299727277
 30
0.0
 11
-2325.413640425389
 21
1910.379299727277
 31
0.0
  0
LINE
  5
142F2
330
1A
100
AcDbEntity
  8
ZISSEN1
100
AcDbLine
 10
-2324.41364042539
 20
1903.979299727277
 30
0.0
 11
-2324.41364042539
 21
1904.475136270679
 31
0.0
  0
LINE
  5
142F3
330
1A
100
AcDbEntity
  8
ZISSEN1
100
AcDbLine
 10
-2325.413640425389
 20
1904.475136270679
 30
0.0
 11
-2325.413640425389
 21
1903.979299727277
 31
0.0
  0
LINE
  5
142F4
330
1A
100
AcDbEntity
  8
ZISSEN1
100
AcDbLine
 10
-2319.913640425228
 20
1910.379299727277
 30
0.0
 11
-2319.913640425228
 21
1903.979299727277
 31
0.0
  0
LINE
  5
142F5
330
1A
100
AcDbEntity
  8
ZISSEN1
100
AcDbLine
 10
-2328.91364042539
 20
1910.379299727277
 30
0.0
 11
-2328.91364042539
 21
1903.979299727277
 31
0.0
  0
LINE
  5
142F6
330
1A
100
AcDbEntity
  8
ZISSEN1
100
AcDbLine
 10
-2330.41364042539
 20
1902.759299727277
 30
0.0
 11
-2318.41364042539
 21
1902.759299727277
 31
0.0
  0
LINE
  5
142F7
330
1A
100
AcDbEntity
  8
ZISSEN1
100
AcDbLine
 10
-2330.41364042539
 20
1896.359299727278
 30
0.0
 11
-2318.41364042539
 21
1896.359299727278
 31
0.0
  0
LINE
  5
142F8
330
1A
100
AcDbEntity
  8
ZISSEN1
100
AcDbLine
 10
-2330.41364042539
 20
1902.759299727277
 30
0.0
 11
-2318.41364042539
 21
1902.759299727277
 31
0.0
  0
LINE
  5
142F9
330
1A
100
AcDbEntity
  8
ZISSEN1
100
AcDbLine
 10
-2330.41364042539
 20
1896.359299727278
 30
0.0
 11
-2318.41364042539
 21
1896.359299727278
 31
0.0
  0
LINE
  5
142FA
330
1A
100
AcDbEntity
  8
ZISSEN1
100
AcDbLine
 10
-2330.41364042539
 20
1902.759299727277
 30
0.0
 11
-2318.41364042539
 21
1902.759299727277
 31
0.0
  0
LINE
  5
142FB
330
1A
100
AcDbEntity
  8
ZISSEN1
100
AcDbLine
 10
-2330.41364042539
 20
1896.359299727278
 30
0.0
 11
-2318.41364042539
 21
1896.359299727278
 31
0.0
  0
LINE
  5
142FC
330
1A
100
AcDbEntity
  8
ZISSEN1
100
AcDbLine
 10
-2330.41364042539
 20
1896.359299727278
 30
0.0
 11
-2318.41364042539
 21
1896.359299727278
 31
0.0
  0
LINE
  5
142FD
330
1A
100
AcDbEntity
  8
ZISSEN1
100
AcDbLine
 10
-2330.41364042539
 20
1902.759299727277
 30
0.0
 11
-2318.41364042539
 21
1902.759299727277
 31
0.0
  0
CIRCLE
  5
142FE
330
1A
100
AcDbEntity
  8
ZISSEN1
100
AcDbCircle
 10
-2324.91364042539
 20
1899.559299727277
 30
0.0
 40
2.75
  0
LWPOLYLINE
  5
1430B
330
1A
100
AcDbEntity
  8
ZISSEN1
100
AcDbPolyline
 90
        4
 70
     1
 43
0.0
 10
-2327.91364042539
 20
1902.759299727277
 10
-2327.91364042539
 20
1896.359299727277
 10
-2321.913640425389
 20
1896.359299727277
 10
-2321.913640425389
 20
1902.759299727277
  0
LINE
  5
1430C
330
1A
100
AcDbEntity
  8
ZISSEN1
100
AcDbLine
 10
-2324.41364042539
 20
1902.259299727277
 30
0.0
 11
-2324.41364042539
 21
1902.759299727277
 31
0.0
  0
LINE
  5
1430D
330
1A
100
AcDbEntity
  8
ZISSEN1
100
AcDbLine
 10
-2325.413640425389
 20
1902.259299727277
 30
0.0
 11
-2325.413640425389
 21
1902.759299727277
 31
0.0
  0
LINE
  5
1430E
330
1A
100
AcDbEntity
  8
ZISSEN1
100
AcDbLine
 10
-2324.41364042539
 20
1896.359299727277
 30
0.0
 11
-2324.41364042539
 21
1896.855136270679
 31
0.0
  0
LINE
  5
1430F
330
1A
100
AcDbEntity
  8
ZISSEN1
100
AcDbLine
 10
-2325.413640425389
 20
1896.855136270679
 30
0.0
 11
-2325.413640425389
 21
1896.359299727278
 31
0.0
  0
LINE
  5
14310
330
1A
100
AcDbEntity
  8
ZISSEN1
100
AcDbLine
 10
-2319.913640425228
 20
1902.759299727277
 30
0.0
 11
-2319.913640425228
 21
1896.359299727278
 31
0.0
  0
LINE
  5
14311
330
1A
100
AcDbEntity
  8
ZISSEN1
100
AcDbLine
 10
-2328.91364042539
 20
1902.759299727277
 30
0.0
 11
-2328.91364042539
 21
1896.359299727278
 31
0.0
  0
LINE
  5
14312
330
1A
100
AcDbEntity
  8
ZISSEN1
100
AcDbLine
 10
-2328.913640425228
 20
1935.449299727277
 30
0.0
 11
-2328.913640425228
 21
1934.459299727277
 31
0.0
  0
LINE
  5
14313
330
1A
100
AcDbEntity
  8
ZISSEN1
100
AcDbLine
 10
-2319.913640425228
 20
1935.449299727277
 30
0.0
 11
-2319.913640425228
 21
1934.459299727277
 31
0.0
  0
LINE
  5
14314
330
1A
100
AcDbEntity
  8
ZISSEN1
100
AcDbLine
 10
-2319.913640425228
 20
1895.139299727277
 30
0.0
 11
-2319.913640425228
 21
1894.149299727278
 31
0.0
  0
LINE
  5
14315
330
1A
100
AcDbEntity
  8
ZISSEN1
100
AcDbLine
 10
-2328.913640425228
 20
1895.139299727277
 30
0.0
 11
-2328.913640425228
 21
1894.149299727278
 31
0.0
  0
LWPOLYLINE
  5
14316
330
1A
100
AcDbEntity
  8
ZISSEN1
100
AcDbPolyline
 90
        4
 70
     1
 43
0.0
 10
-2328.51364042539
 20
1925.119299727277
 10
-2328.51364042539
 20
1919.719299727277
 10
-2327.91364042539
 20
1919.719299727277
 10
-2327.91364042539
 20
1925.119299727277
  0
LWPOLYLINE
  5
14317
330
1A
100
AcDbEntity
  8
ZISSEN1
100
AcDbPolyline
 90
        4
 70
     1
 43
0.0
 10
-2328.51364042539
 20
1917.499299727277
 10
-2328.51364042539
 20
1912.099299727277
 10
-2327.91364042539
 20
1912.099299727277
 10
-2327.91364042539
 20
1917.499299727277
  0
LWPOLYLINE
  5
14318
330
1A
100
AcDbEntity
  8
ZISSEN1
100
AcDbPolyline
 90
        4
 70
     1
 43
0.0
 10
-2328.51364042539
 20
1909.879299727277
 10
-2328.51364042539
 20
1904.479299727277
 10
-2327.91364042539
 20
1904.479299727277
 10
-2327.91364042539
 20
1909.879299727277
  0
LWPOLYLINE
  5
14319
330
1A
100
AcDbEntity
  8
ZISSEN1
100
AcDbPolyline
 90
        4
 70
     1
 43
0.0
 10
-2328.51364042539
 20
1902.259299727277
 10
-2328.51364042539
 20
1896.859299727277
 10
-2327.91364042539
 20
1896.859299727277
 10
-2327.91364042539
 20
1902.259299727277
  0
LWPOLYLINE
  5
1431A
330
1A
100
AcDbEntity
  8
ZISSEN1
100
AcDbPolyline
 90
        4
 70
     1
 43
0.0
 10
-2321.913640425389
 20
1932.739299727277
 10
-2321.913640425389
 20
1927.339299727276
 10
-2321.31364042539
 20
1927.339299727276
 10
-2321.31364042539
 20
1932.739299727277
  0
LWPOLYLINE
  5
1431B
330
1A
100
AcDbEntity
  8
ZISSEN1
100
AcDbPolyline
 90
        4
 70
     1
 43
0.0
 10
-2321.913640425389
 20
1925.119299727277
 10
-2321.913640425389
 20
1919.719299727277
 10
-2321.31364042539
 20
1919.719299727277
 10
-2321.31364042539
 20
1925.119299727277
  0
LWPOLYLINE
  5
1431C
330
1A
100
AcDbEntity
  8
ZISSEN1
100
AcDbPolyline
 90
        4
 70
     1
 43
0.0
 10
-2321.913640425389
 20
1917.499299727277
 10
-2321.913640425389
 20
1912.099299727277
 10
-2321.31364042539
 20
1912.099299727277
 10
-2321.31364042539
 20
1917.499299727277
  0
LWPOLYLINE
  5
1431D
330
1A
100
AcDbEntity
  8
ZISSEN1
100
AcDbPolyline
 90
        4
 70
     1
 43
0.0
 10
-2321.913640425389
 20
1909.879299727277
 10
-2321.913640425389
 20
1904.479299727277
 10
-2321.31364042539
 20
1904.479299727277
 10
-2321.31364042539
 20
1909.879299727277
  0
LWPOLYLINE
  5
1431E
330
1A
100
AcDbEntity
  8
ZISSEN1
100
AcDbPolyline
 90
        4
 70
     1
 43
0.0
 10
-2321.913640425389
 20
1902.259299727277
 10
-2321.913640425389
 20
1896.859299727277
 10
-2321.31364042539
 20
1896.859299727277
 10
-2321.31364042539
 20
1902.259299727277
  0
LINE
  5
1431F
330
1A
100
AcDbEntity
  8
ZISSEN1
100
AcDbLine
 10
-2340.013640425389
 20
1890.336011110724
 30
0.0
 11
-2338.513640425228
 21
1890.336011110724
 31
0.0
  0
LWPOLYLINE
  5
14320
330
1A
100
AcDbEntity
  8
ZISSEN1
100
AcDbPolyline
 90
        4
 70
     1
 43
0.0
 10
-2340.013640425389
 20
1890.336011110724
 10
-2340.01364042539
 20
1864.262588343829
 10
-2328.013640425389
 20
1864.262588343829
 10
-2328.013640425389
 20
1890.336011110724
  0
LINE
  5
14321
330
1A
100
AcDbEntity
  8
ZISSEN1
100
AcDbLine
 10
-2340.013640425389
 20
1889.346011110724
 30
0.0
 11
-2328.013640425389
 21
1889.346011110724
 31
0.0
  0
LINE
  5
14322
330
1A
100
AcDbEntity
  8
ZISSEN1
100
AcDbLine
 10
-2340.013640425389
 20
1881.726011110724
 30
0.0
 11
-2328.013640425389
 21
1881.726011110724
 31
0.0
  0
LINE
  5
14323
330
1A
100
AcDbEntity
  8
ZISSEN1
100
AcDbLine
 10
-2340.013640425389
 20
1880.506011110723
 30
0.0
 11
-2328.013640425389
 21
1880.506011110723
 31
0.0
  0
LINE
  5
14324
330
1A
100
AcDbEntity
  8
ZISSEN1
100
AcDbLine
 10
-2340.013640425389
 20
1874.106011110724
 30
0.0
 11
-2328.013640425389
 21
1874.106011110724
 31
0.0
  0
LINE
  5
14325
330
1A
100
AcDbEntity
  8
ZISSEN1
100
AcDbLine
 10
-2340.013640425389
 20
1872.886011110724
 30
0.0
 11
-2328.013640425389
 21
1872.886011110724
 31
0.0
  0
LINE
  5
14326
330
1A
100
AcDbEntity
  8
ZISSEN1
100
AcDbLine
 10
-2340.013640425389
 20
1866.486011110724
 30
0.0
 11
-2328.013640425389
 21
1866.486011110724
 31
0.0
  0
LINE
  5
14327
330
1A
100
AcDbEntity
  8
ZISSEN1
100
AcDbLine
 10
-2340.013640425389
 20
1865.266011110724
 30
0.0
 11
-2328.013640425389
 21
1865.266011110724
 31
0.0
  0
LINE
  5
14328
330
1A
100
AcDbEntity
  8
ZISSEN1
100
AcDbLine
 10
-2340.013640425389
 20
1865.266011110724
 30
0.0
 11
-2328.013640425389
 21
1865.266011110724
 31
0.0
  0
LINE
  5
14329
330
1A
100
AcDbEntity
  8
ZISSEN1
100
AcDbLine
 10
-2340.013640425389
 20
1888.126011110723
 30
0.0
 11
-2328.013640425389
 21
1888.126011110723
 31
0.0
  0
CIRCLE
  5
1432A
330
1A
100
AcDbEntity
  8
ZISSEN1
100
AcDbCircle
 10
-2334.513640425389
 20
1884.926011110723
 30
0.0
 40
2.75
  0
LWPOLYLINE
  5
14337
330
1A
100
AcDbEntity
  8
ZISSEN1
100
AcDbPolyline
 90
        4
 70
     1
 43
0.0
 10
-2337.513640425389
 20
1888.126011110723
 10
-2337.513640425389
 20
1881.726011110723
 10
-2331.513640425389
 20
1881.726011110723
 10
-2331.513640425389
 20
1888.126011110723
  0
LINE
  5
14338
330
1A
100
AcDbEntity
  8
ZISSEN1
100
AcDbLine
 10
-2334.013640425389
 20
1887.626011110723
 30
0.0
 11
-2334.013640425389
 21
1888.126011110723
 31
0.0
  0
LINE
  5
14339
330
1A
100
AcDbEntity
  8
ZISSEN1
100
AcDbLine
 10
-2335.013640425389
 20
1887.626011110723
 30
0.0
 11
-2335.013640425389
 21
1888.126011110723
 31
0.0
  0
LINE
  5
1433A
330
1A
100
AcDbEntity
  8
ZISSEN1
100
AcDbLine
 10
-2334.013640425389
 20
1881.726011110723
 30
0.0
 11
-2334.013640425389
 21
1882.221847654125
 31
0.0
  0
LINE
  5
1433B
330
1A
100
AcDbEntity
  8
ZISSEN1
100
AcDbLine
 10
-2335.013640425389
 20
1882.221847654125
 30
0.0
 11
-2335.013640425389
 21
1881.726011110724
 31
0.0
  0
LWPOLYLINE
  5
1433C
330
1A
100
AcDbEntity
  8
ZISSEN1
100
AcDbPolyline
 90
        4
 70
     1
 43
0.0
 10
-2338.113640425389
 20
1887.626011110723
 10
-2338.113640425389
 20
1882.226011110723
 10
-2337.513640425389
 20
1882.226011110723
 10
-2337.513640425389
 20
1887.626011110723
  0
LINE
  5
1433D
330
1A
100
AcDbEntity
  8
ZISSEN1
100
AcDbLine
 10
-2329.513640425228
 20
1888.126011110723
 30
0.0
 11
-2329.513640425228
 21
1881.726011110724
 31
0.0
  0
LINE
  5
1433E
330
1A
100
AcDbEntity
  8
ZISSEN1
100
AcDbLine
 10
-2338.513640425389
 20
1888.126011110723
 30
0.0
 11
-2338.513640425389
 21
1881.726011110724
 31
0.0
  0
LINE
  5
1433F
330
1A
100
AcDbEntity
  8
ZISSEN1
100
AcDbLine
 10
-2340.013640425389
 20
1874.106011110724
 30
0.0
 11
-2328.013640425389
 21
1874.106011110724
 31
0.0
  0
LINE
  5
14340
330
1A
100
AcDbEntity
  8
ZISSEN1
100
AcDbLine
 10
-2340.013640425389
 20
1880.506011110723
 30
0.0
 11
-2328.013640425389
 21
1880.506011110723
 31
0.0
  0
CIRCLE
  5
14341
330
1A
100
AcDbEntity
  8
ZISSEN1
100
AcDbCircle
 10
-2334.513640425389
 20
1877.306011110723
 30
0.0
 40
2.75
  0
LWPOLYLINE
  5
1434E
330
1A
100
AcDbEntity
  8
ZISSEN1
100
AcDbPolyline
 90
        4
 70
     1
 43
0.0
 10
-2337.513640425389
 20
1880.506011110723
 10
-2337.513640425389
 20
1874.106011110723
 10
-2331.513640425389
 20
1874.106011110723
 10
-2331.513640425389
 20
1880.506011110723
  0
LINE
  5
1434F
330
1A
100
AcDbEntity
  8
ZISSEN1
100
AcDbLine
 10
-2334.013640425389
 20
1880.006011110723
 30
0.0
 11
-2334.013640425389
 21
1880.506011110723
 31
0.0
  0
LINE
  5
14350
330
1A
100
AcDbEntity
  8
ZISSEN1
100
AcDbLine
 10
-2335.013640425389
 20
1880.006011110723
 30
0.0
 11
-2335.013640425389
 21
1880.506011110723
 31
0.0
  0
LINE
  5
14351
330
1A
100
AcDbEntity
  8
ZISSEN1
100
AcDbLine
 10
-2334.013640425389
 20
1874.106011110723
 30
0.0
 11
-2334.013640425389
 21
1874.601847654125
 31
0.0
  0
LINE
  5
14352
330
1A
100
AcDbEntity
  8
ZISSEN1
100
AcDbLine
 10
-2335.013640425389
 20
1874.601847654125
 30
0.0
 11
-2335.013640425389
 21
1874.106011110724
 31
0.0
  0
LINE
  5
14353
330
1A
100
AcDbEntity
  8
ZISSEN1
100
AcDbLine
 10
-2329.513640425228
 20
1880.506011110723
 30
0.0
 11
-2329.513640425228
 21
1874.106011110724
 31
0.0
  0
LINE
  5
14354
330
1A
100
AcDbEntity
  8
ZISSEN1
100
AcDbLine
 10
-2338.513640425389
 20
1880.506011110723
 30
0.0
 11
-2338.513640425389
 21
1874.106011110724
 31
0.0
  0
LINE
  5
14355
330
1A
100
AcDbEntity
  8
ZISSEN1
100
AcDbLine
 10
-2340.013640425389
 20
1872.886011110724
 30
0.0
 11
-2328.013640425389
 21
1872.886011110724
 31
0.0
  0
LINE
  5
14356
330
1A
100
AcDbEntity
  8
ZISSEN1
100
AcDbLine
 10
-2340.013640425389
 20
1866.486011110724
 30
0.0
 11
-2328.013640425389
 21
1866.486011110724
 31
0.0
  0
LINE
  5
14357
330
1A
100
AcDbEntity
  8
ZISSEN1
100
AcDbLine
 10
-2340.013640425389
 20
1866.486011110724
 30
0.0
 11
-2328.013640425389
 21
1866.486011110724
 31
0.0
  0
LINE
  5
14358
330
1A
100
AcDbEntity
  8
ZISSEN1
100
AcDbLine
 10
-2340.013640425389
 20
1872.886011110724
 30
0.0
 11
-2328.013640425389
 21
1872.886011110724
 31
0.0
  0
CIRCLE
  5
14359
330
1A
100
AcDbEntity
  8
ZISSEN1
100
AcDbCircle
 10
-2334.513640425389
 20
1869.686011110723
 30
0.0
 40
2.75
  0
LWPOLYLINE
  5
14366
330
1A
100
AcDbEntity
  8
ZISSEN1
100
AcDbPolyline
 90
        4
 70
     1
 43
0.0
 10
-2337.513640425389
 20
1872.886011110724
 10
-2337.513640425389
 20
1866.486011110723
 10
-2331.513640425389
 20
1866.486011110723
 10
-2331.513640425389
 20
1872.886011110724
  0
LINE
  5
14367
330
1A
100
AcDbEntity
  8
ZISSEN1
100
AcDbLine
 10
-2334.013640425389
 20
1872.386011110723
 30
0.0
 11
-2334.013640425389
 21
1872.886011110724
 31
0.0
  0
LINE
  5
14368
330
1A
100
AcDbEntity
  8
ZISSEN1
100
AcDbLine
 10
-2335.013640425389
 20
1872.386011110723
 30
0.0
 11
-2335.013640425389
 21
1872.886011110724
 31
0.0
  0
LINE
  5
14369
330
1A
100
AcDbEntity
  8
ZISSEN1
100
AcDbLine
 10
-2334.013640425389
 20
1866.486011110723
 30
0.0
 11
-2334.013640425389
 21
1866.981847654125
 31
0.0
  0
LINE
  5
1436A
330
1A
100
AcDbEntity
  8
ZISSEN1
100
AcDbLine
 10
-2335.013640425389
 20
1866.981847654125
 30
0.0
 11
-2335.013640425389
 21
1866.486011110724
 31
0.0
  0
LINE
  5
1436B
330
1A
100
AcDbEntity
  8
ZISSEN1
100
AcDbLine
 10
-2329.513640425228
 20
1872.886011110724
 30
0.0
 11
-2329.513640425228
 21
1866.486011110724
 31
0.0
  0
LINE
  5
1436C
330
1A
100
AcDbEntity
  8
ZISSEN1
100
AcDbLine
 10
-2338.513640425389
 20
1872.886011110724
 30
0.0
 11
-2338.513640425389
 21
1866.486011110724
 31
0.0
  0
LINE
  5
1436D
330
1A
100
AcDbEntity
  8
ZISSEN1
100
AcDbLine
 10
-2340.013640425389
 20
1865.266011110724
 30
0.0
 11
-2328.013640425389
 21
1865.266011110724
 31
0.0
  0
LINE
  5
1436E
330
1A
100
AcDbEntity
  8
ZISSEN1
100
AcDbLine
 10
-2340.013640425389
 20
1865.266011110724
 30
0.0
 11
-2328.013640425389
 21
1865.266011110724
 31
0.0
  0
LINE
  5
1436F
330
1A
100
AcDbEntity
  8
ZISSEN1
100
AcDbLine
 10
-2340.013640425389
 20
1864.262588343829
 30
0.0
 11
-2328.013640425389
 21
1864.262588343829
 31
0.0
  0
LINE
  5
14370
330
1A
100
AcDbEntity
  8
ZISSEN1
100
AcDbLine
 10
-2338.513640425228
 20
1890.336011110724
 30
0.0
 11
-2338.513640425228
 21
1889.346011110724
 31
0.0
  0
LINE
  5
14371
330
1A
100
AcDbEntity
  8
ZISSEN1
100
AcDbLine
 10
-2329.513640425228
 20
1890.336011110724
 30
0.0
 11
-2329.513640425228
 21
1889.346011110724
 31
0.0
  0
LINE
  5
14372
330
1A
100
AcDbEntity
  8
ZISSEN1
100
AcDbLine
 10
-2329.513640425228
 20
1865.266011110724
 30
0.0
 11
-2329.513640425228
 21
1864.276011110724
 31
0.0
  0
LINE
  5
14373
330
1A
100
AcDbEntity
  8
ZISSEN1
100
AcDbLine
 10
-2338.513640425228
 20
1865.266011110724
 30
0.0
 11
-2338.513640425228
 21
1864.276011110724
 31
0.0
  0
LWPOLYLINE
  5
14374
330
1A
100
AcDbEntity
  8
ZISSEN1
100
AcDbPolyline
 90
        4
 70
     1
 43
0.0
 10
-2338.113640425389
 20
1880.006011110723
 10
-2338.113640425389
 20
1874.606011110723
 10
-2337.513640425389
 20
1874.606011110723
 10
-2337.513640425389
 20
1880.006011110723
  0
LWPOLYLINE
  5
14375
330
1A
100
AcDbEntity
  8
ZISSEN1
100
AcDbPolyline
 90
        4
 70
     1
 43
0.0
 10
-2338.113640425389
 20
1872.386011110723
 10
-2338.113640425389
 20
1866.986011110723
 10
-2337.513640425389
 20
1866.986011110723
 10
-2337.513640425389
 20
1872.386011110723
  0
LWPOLYLINE
  5
14376
330
1A
100
AcDbEntity
  8
ZISSEN1
100
AcDbPolyline
 90
        4
 70
     1
 43
0.0
 10
-2331.513640425389
 20
1887.626011110723
 10
-2331.513640425389
 20
1882.226011110723
 10
-2330.913640425389
 20
1882.226011110723
 10
-2330.913640425389
 20
1887.626011110723
  0
LWPOLYLINE
  5
14377
330
1A
100
AcDbEntity
  8
ZISSEN1
100
AcDbPolyline
 90
        4
 70
     1
 43
0.0
 10
-2331.513640425389
 20
1880.006011110723
 10
-2331.513640425389
 20
1874.606011110723
 10
-2330.913640425389
 20
1874.606011110723
 10
-2330.913640425389
 20
1880.006011110723
  0
LWPOLYLINE
  5
14378
330
1A
100
AcDbEntity
  8
ZISSEN1
100
AcDbPolyline
 90
        4
 70
     1
 43
0.0
 10
-2331.513640425389
 20
1872.386011110723
 10
-2331.513640425389
 20
1866.986011110723
 10
-2330.913640425389
 20
1866.986011110723
 10
-2330.913640425389
 20
1872.386011110723
  0
LINE
  5
14379
330
1A
100
AcDbEntity
  8
ZISSEN1
 48
0.5
100
AcDbLine
 10
-2316.813640425389
 20
1936.299299727278
 30
0.0
 11
-2316.813640425389
 21
1893.299299727278
 31
0.0
  0
LINE
  5
1437A
330
1A
100
AcDbEntity
  8
ZISSEN1
 48
0.5
100
AcDbLine
 10
-2318.41364042539
 20
1936.299299727278
 30
0.0
 11
-2318.41364042539
 21
1893.299299727278
 31
0.0
  0
LINE
  5
1437B
330
1A
100
AcDbEntity
  8
ZISSEN1
 48
0.5
100
AcDbLine
 10
-2316.813640425389
 20
1935.299299727279
 30
0.0
 11
-2318.41364042539
 21
1935.299299727278
 31
0.0
  0
LINE
  5
1437C
330
1A
100
AcDbEntity
  8
ZISSEN1
 48
0.5
100
AcDbLine
 10
-2316.813640425389
 20
1934.299299727278
 30
0.0
 11
-2318.41364042539
 21
1934.299299727278
 31
0.0
  0
LINE
  5
1437D
330
1A
100
AcDbEntity
  8
ZISSEN1
 48
0.5
100
AcDbLine
 10
-2316.813640425389
 20
1895.299299727278
 30
0.0
 11
-2318.41364042539
 21
1895.299299727278
 31
0.0
  0
LINE
  5
1437E
330
1A
100
AcDbEntity
  8
ZISSEN1
 48
0.5
100
AcDbLine
 10
-2316.813640425389
 20
1894.299299727277
 30
0.0
 11
-2318.41364042539
 21
1894.299299727277
 31
0.0
  0
LINE
  5
1437F
330
1A
100
AcDbEntity
  8
ZISSEN1
 48
0.5
100
AcDbLine
 10
-2326.41364042539
 20
1894.149299727278
 30
0.0
 11
-2326.41364042539
 21
1893.299299727278
 31
0.0
  0
LINE
  5
14380
330
1A
100
AcDbEntity
  8
ZISSEN1
 48
0.5
100
AcDbLine
 10
-2328.013640425389
 20
1894.149299727278
 30
0.0
 11
-2328.013640425389
 21
1893.299299727278
 31
0.0
  0
LINE
  5
14381
330
1A
100
AcDbEntity
  8
ZISSEN1
 48
0.5
100
AcDbLine
 10
-2326.41364042539
 20
1935.449299727277
 30
0.0
 11
-2326.41364042539
 21
1936.299299727278
 31
0.0
  0
LINE
  5
14382
330
1A
100
AcDbEntity
  8
ZISSEN1
 48
0.5
100
AcDbLine
 10
-2328.01364042539
 20
1935.449299727277
 30
0.0
 11
-2328.01364042539
 21
1936.299299727278
 31
0.0
  0
LINE
  5
14383
330
1A
100
AcDbEntity
  8
ZISSEN1
 48
0.5
100
AcDbLine
 10
-2326.41364042539
 20
1891.306011110724
 30
0.0
 11
-2326.41364042539
 21
1863.306011110724
 31
0.0
  0
LINE
  5
14384
330
1A
100
AcDbEntity
  8
ZISSEN1
 48
0.5
100
AcDbLine
 10
-2328.013640425389
 20
1863.306011110724
 30
0.0
 11
-2328.013640425389
 21
1891.306011110724
 31
0.0
  0
LINE
  5
14385
330
1A
100
AcDbEntity
  8
ZISSEN1
 48
0.5
100
AcDbLine
 10
-2326.41364042539
 20
1890.299299727277
 30
0.0
 11
-2328.013640425389
 21
1890.299299727277
 31
0.0
  0
LINE
  5
14386
330
1A
100
AcDbEntity
  8
ZISSEN1
 48
0.5
100
AcDbLine
 10
-2326.41364042539
 20
1889.299299727277
 30
0.0
 11
-2328.013640425389
 21
1889.299299727277
 31
0.0
  0
LINE
  5
14387
330
1A
100
AcDbEntity
  8
ZISSEN1
 48
0.5
100
AcDbLine
 10
-2326.41364042539
 20
1865.299299727277
 30
0.0
 11
-2328.013640425389
 21
1865.299299727278
 31
0.0
  0
LINE
  5
14388
330
1A
100
AcDbEntity
  8
ZISSEN1
 48
0.5
100
AcDbLine
 10
-2326.41364042539
 20
1864.299299727278
 30
0.0
 11
-2328.013640425389
 21
1864.299299727278
 31
0.0
  0
LWPOLYLINE
  5
14389
330
1A
100
AcDbEntity
  8
ZISSEN1
 48
0.5
100
AcDbPolyline
 90
        4
 70
     1
 43
0.0
 10
-2316.513640425389
 20
1930.539299727277
 10
-2316.513640425389
 20
1929.539299727277
 10
-2316.813640425389
 20
1929.539299727277
 10
-2316.813640425389
 20
1930.539299727277
  0
LWPOLYLINE
  5
1438A
330
1A
100
AcDbEntity
  8
ZISSEN1
 48
0.5
100
AcDbPolyline
 90
        4
 70
     1
 43
0.0
 10
-2316.513640425389
 20
1922.919299727277
 10
-2316.513640425389
 20
1921.919299727277
 10
-2316.813640425389
 20
1921.919299727277
 10
-2316.813640425389
 20
1922.919299727277
  0
LWPOLYLINE
  5
1438B
330
1A
100
AcDbEntity
  8
ZISSEN1
 48
0.5
100
AcDbPolyline
 90
        4
 70
     1
 43
0.0
 10
-2316.513640425389
 20
1915.299299727277
 10
-2316.513640425389
 20
1914.299299727277
 10
-2316.813640425389
 20
1914.299299727277
 10
-2316.813640425389
 20
1915.299299727277
  0
LWPOLYLINE
  5
1438C
330
1A
100
AcDbEntity
  8
ZISSEN1
 48
0.5
100
AcDbPolyline
 90
        4
 70
     1
 43
0.0
 10
-2316.513640425389
 20
1907.679299727277
 10
-2316.513640425389
 20
1906.679299727277
 10
-2316.813640425389
 20
1906.679299727277
 10
-2316.813640425389
 20
1907.679299727277
  0
LWPOLYLINE
  5
1438D
330
1A
100
AcDbEntity
  8
ZISSEN1
 48
0.5
100
AcDbPolyline
 90
        4
 70
     1
 43
0.0
 10
-2316.513640425389
 20
1900.059299727277
 10
-2316.513640425389
 20
1899.059299727277
 10
-2316.813640425389
 20
1899.059299727277
 10
-2316.813640425389
 20
1900.059299727277
  0
LWPOLYLINE
  5
1438E
330
1A
100
AcDbEntity
  8
ZISSEN1
 48
0.5
100
AcDbPolyline
 90
        4
 70
     1
 43
0.0
 10
-2326.013640425389
 20
1885.426011110724
 10
-2326.013640425389
 20
1884.426011110724
 10
-2326.41364042539
 20
1884.426011110724
 10
-2326.41364042539
 20
1885.426011110724
  0
LWPOLYLINE
  5
1438F
330
1A
100
AcDbEntity
  8
ZISSEN1
 48
0.5
100
AcDbPolyline
 90
        4
 70
     1
 43
0.0
 10
-2326.013640425389
 20
1877.806011110724
 10
-2326.013640425389
 20
1876.806011110724
 10
-2326.41364042539
 20
1876.806011110724
 10
-2326.41364042539
 20
1877.806011110724
  0
LWPOLYLINE
  5
14390
330
1A
100
AcDbEntity
  8
ZISSEN1
 48
0.5
100
AcDbPolyline
 90
        4
 70
     1
 43
0.0
 10
-2326.013640425389
 20
1870.186011110724
 10
-2326.013640425389
 20
1869.186011110724
 10
-2326.41364042539
 20
1869.186011110724
 10
-2326.41364042539
 20
1870.186011110724
  0
LINE
  5
14391
330
1A
100
AcDbEntity
  8
ZISSEN1
 48
0.5
100
AcDbLine
 10
-2570.013025780784
 20
2045.490398932803
 30
0.0
 11
-2570.013025780784
 21
2089.490398932803
 31
0.0
  0
LINE
  5
14392
330
1A
100
AcDbEntity
  8
ZISSEN1
 48
0.5
100
AcDbLine
 10
-2567.013025780784
 20
2092.490398932803
 30
0.0
 11
-2532.011808810562
 21
2092.490398932803
 31
0.0
  0
LINE
  5
14393
330
1A
100
AcDbEntity
  8
ZISSEN1
 48
0.5
100
AcDbLine
 10
-2567.013025780784
 20
2089.490398932802
 30
0.0
 11
-2567.013025780783
 21
2040.990398932803
 31
0.0
  0
LINE
  5
14398
330
1A
100
AcDbEntity
  8
ZISSEN1
 48
0.5
100
AcDbLine
 10
-2567.013025780783
 20
2055.240398932803
 30
0.0
 11
-2570.013025780784
 21
2055.240398932803
 31
0.0
  0
LINE
  5
14399
330
1A
100
AcDbEntity
  8
ZISSEN1
 48
0.5
100
AcDbLine
 10
-2567.013025780784
 20
2059.740398932803
 30
0.0
 11
-2570.013025780784
 21
2059.740398932803
 31
0.0
  0
ARC
  5
1439C
330
1A
100
AcDbEntity
  8
ZISSEN1
 48
0.5
100
AcDbCircle
 10
-2567.013025780784
 20
2089.490398932803
 30
0.0
 40
3.000000000000454
100
AcDbArc
 50
89.99999999999998
 51
180.0
  0
LINE
  5
1439D
330
1A
100
AcDbEntity
  8
ZISSEN1
 48
0.5
100
AcDbLine
 10
-2567.013025780784
 20
2087.990398932803
 30
0.0
 11
-2566.013025780784
 21
2088.990398932803
 31
0.0
  0
LINE
  5
1439E
330
1A
100
AcDbEntity
  8
ZISSEN1
 48
0.5
100
AcDbLine
 10
-2566.013025780784
 20
2088.990398932803
 30
0.0
 11
-2532.011808810562
 21
2088.990398932803
 31
0.0
  0
LINE
  5
1439F
330
1A
100
AcDbEntity
  8
ZISSEN1
 48
0.5
100
AcDbLine
 10
-2532.011808810562
 20
2088.990398932803
 30
0.0
 11
-2532.011808810562
 21
2094.490398932804
 31
0.0
  0
LINE
  5
143A0
330
1A
100
AcDbEntity
  8
ZISSEN1
 48
0.5
100
AcDbLine
 10
-2532.011808810562
 20
2094.490398932804
 30
0.0
 11
-2499.011808810561
 21
2094.490398932804
 31
0.0
  0
LINE
  5
143A1
330
1A
100
AcDbEntity
  8
ZISSEN1
 48
0.5
100
AcDbLine
 10
-2499.011808810561
 20
2094.490398932804
 30
0.0
 11
-2499.011808810561
 21
2088.990398932804
 31
0.0
  0
LINE
  5
143A2
330
1A
100
AcDbEntity
  8
ZISSEN1
 48
0.5
100
AcDbLine
 10
-2499.011808810561
 20
2088.990398932804
 30
0.0
 11
-2438.013025780784
 21
2088.990398932805
 31
0.0
  0
LINE
  5
143A3
330
1A
100
AcDbEntity
  8
ZISSEN1
 48
0.5
100
AcDbLine
 10
-2438.013025780784
 20
2088.990398932805
 30
0.0
 11
-2437.013025780784
 21
2087.990398932805
 31
0.0
  0
LINE
  5
143A4
330
1A
100
AcDbEntity
  8
ZISSEN1
 48
0.5
100
AcDbLine
 10
-2437.013025780784
 20
2087.990398932805
 30
0.0
 11
-2437.013025780783
 21
2043.990398932804
 31
0.0
  0
LINE
  5
143A5
330
1A
100
AcDbEntity
  8
ZISSEN1
 48
0.5
100
AcDbLine
 10
-2446.513025780784
 20
2092.490398932804
 30
0.0
 11
-2446.513025780784
 21
2093.990398932804
 31
0.0
  0
LINE
  5
143A6
330
1A
100
AcDbEntity
  8
ZISSEN1
 48
0.5
100
AcDbLine
 10
-2446.513025780784
 20
2093.990398932804
 30
0.0
 11
-2436.513025780784
 21
2093.990398932804
 31
0.0
  0
LINE
  5
143A7
330
1A
100
AcDbEntity
  8
ZISSEN1
 48
0.5
100
AcDbLine
 10
-2499.011808810561
 20
2092.490398932803
 30
0.0
 11
-2436.013025780784
 21
2092.490398932804
 31
0.0
  0
LINE
  5
143A8
330
1A
100
AcDbEntity
  8
ZISSEN1
 48
0.5
100
AcDbLine
 10
-2445.513025780784
 20
2093.990398932804
 30
0.0
 11
-2445.513025780784
 21
2092.490398932804
 31
0.0
  0
LINE
  5
143A9
330
1A
100
AcDbEntity
  8
ZISSEN1
 48
0.5
100
AcDbLine
 10
-2436.513025780784
 20
2092.490398932804
 30
0.0
 11
-2436.513025780784
 21
2042.490398932804
 31
0.0
  0
LINE
  5
143AA
330
1A
100
AcDbEntity
  8
ZISSEN1
 48
0.5
100
AcDbLine
 10
-2438.513025780783
 20
2042.490398932804
 30
0.0
 11
-2436.513025780783
 21
2042.490398932805
 31
0.0
  0
LINE
  5
143AB
330
1A
100
AcDbEntity
  8
ZISSEN1
 48
0.5
100
AcDbLine
 10
-2435.013025780783
 20
2042.490398932803
 30
0.0
 11
-2435.013025780783
 21
2092.490398932804
 31
0.0
  0
LINE
  5
143AC
330
1A
100
AcDbEntity
  8
ZISSEN1
 48
0.5
100
AcDbLine
 10
-2435.013025780783
 20
2092.490398932804
 30
0.0
 11
-2436.513025780784
 21
2092.490398932804
 31
0.0
  0
LINE
  5
143AD
330
1A
100
AcDbEntity
  8
ZISSEN1
 48
0.5
100
AcDbLine
 10
-2435.013025780784
 20
2091.490398932804
 30
0.0
 11
-2436.513025780784
 21
2091.490398932804
 31
0.0
  0
LINE
  5
143AE
330
1A
100
AcDbEntity
  8
ZISSEN1
 48
0.5
100
AcDbLine
 10
-2437.513025780784
 20
2092.490398932804
 30
0.0
 11
-2437.513025780784
 21
2089.490398932805
 31
0.0
  0
LINE
  5
143AF
330
1A
100
AcDbEntity
  8
ZISSEN1
 48
0.5
100
AcDbLine
 10
-2499.011808810561
 20
2089.490398932805
 30
0.0
 11
-2436.513025780784
 21
2089.490398932805
 31
0.0
  0
LINE
  5
143B0
330
1A
100
AcDbEntity
  8
ZISSEN1
 48
0.5
100
AcDbLine
 10
-2436.513025780784
 20
2042.990398932805
 30
0.0
 11
-2435.013025780783
 21
2042.990398932805
 31
0.0
  0
LINE
  5
143B1
330
1A
100
AcDbEntity
  8
ZISSEN1
 48
0.5
100
AcDbLine
 10
-2436.513025780783
 20
2040.990398932805
 30
0.0
 11
-2567.013025780784
 21
2040.990398932802
 31
0.0
  0
ARC
  5
143B2
330
1A
100
AcDbEntity
  8
ZISSEN1
 48
0.5
100
AcDbCircle
 10
-2567.013025780783
 20
2045.490398932803
 30
0.0
 40
3.000000000000454
100
AcDbArc
 50
180.0
 51
270.0
  0
ARC
  5
143B3
330
1A
100
AcDbEntity
  8
ZISSEN1
 48
0.5
100
AcDbCircle
 10
-2436.513025780784
 20
2092.490398932803
 30
0.0
 40
1.500000000001818
100
AcDbArc
 50
0.0000000000781399
 51
89.99999999997394
  0
ARC
  5
143B4
330
1A
100
AcDbEntity
  8
ZISSEN1
 48
0.5
100
AcDbCircle
 10
-2436.513025780916
 20
2042.490398933129
 30
0.0
 40
1.50000000032287
100
AcDbArc
 50
270.0000000050807
 51
359.9999999878582
  0
LINE
  5
143B5
330
1A
100
AcDbEntity
  8
ZISSEN1
 48
0.5
100
AcDbLine
 10
-2435.013025780783
 20
1978.999299727277
 30
0.0
 11
-2433.067856247728
 21
1978.999299727277
 31
0.0
  0
LINE
  5
143B6
330
1A
100
AcDbEntity
  8
ZISSEN1
 48
0.5
100
AcDbLine
 10
-2433.067856247728
 20
1978.999299727277
 30
0.0
 11
-2433.067856247728
 21
1946.599299727277
 31
0.0
  0
LINE
  5
143B7
330
1A
100
AcDbEntity
  8
ZISSEN1
 48
0.5
100
AcDbLine
 10
-2433.067856247728
 20
1946.599299727277
 30
0.0
 11
-2435.013025780783
 21
1946.599299727277
 31
0.0
  0
LINE
  5
143B8
330
1A
100
AcDbEntity
  8
ZISSEN1
 48
0.5
100
AcDbLine
 10
-2435.013025780784
 20
2056.790398932804
 30
0.0
 11
-2433.063025780784
 21
2056.790398932804
 31
0.0
  0
LINE
  5
143B9
330
1A
100
AcDbEntity
  8
ZISSEN1
 48
0.5
100
AcDbLine
 10
-2433.063025780784
 20
2056.790398932804
 30
0.0
 11
-2433.063025780784
 21
2050.090398932804
 31
0.0
  0
LINE
  5
143BA
330
1A
100
AcDbEntity
  8
ZISSEN1
 48
0.5
100
AcDbLine
 10
-2433.063025780784
 20
2050.090398932804
 30
0.0
 11
-2435.013025780783
 21
2050.090398932804
 31
0.0
  0
LINE
  5
143BB
330
1A
100
AcDbEntity
  8
ZISSEN1
 48
0.5
100
AcDbLine
 10
-2436.513025780784
 20
2056.790398932804
 30
0.0
 11
-2437.013025780784
 21
2056.790398932804
 31
0.0
  0
LINE
  5
143BC
330
1A
100
AcDbEntity
  8
ZISSEN1
 48
0.5
100
AcDbLine
 10
-2436.513025780784
 20
2050.090398932804
 30
0.0
 11
-2437.013025780784
 21
2050.090398932804
 31
0.0
  0
LINE
  5
143BD
330
1A
100
AcDbEntity
  8
ZISSEN1
 48
0.5
100
AcDbLine
 10
-2437.513025780786
 20
2089.190398932811
 30
0.0
 11
-2499.011808810561
 21
2089.190398932808
 31
0.0
  0
LINE
  5
143BE
330
1A
100
AcDbEntity
  8
ZISSEN1
 48
0.5
100
AcDbLine
 10
-2436.513025780784
 20
2087.590398932804
 30
0.0
 11
-2437.013025780784
 21
2087.590398932804
 31
0.0
  0
LINE
  5
143BF
330
1A
100
AcDbEntity
  8
ZISSEN1
 48
0.5
100
AcDbLine
 10
-2355.91364042539
 20
1946.599299727277
 30
0.0
 11
-2349.213640425389
 21
1946.599299727277
 31
0.0
  0
LINE
  5
143C0
330
1A
100
AcDbEntity
  8
ZISSEN1
 48
0.5
100
AcDbLine
 10
-2355.91364042539
 20
1978.999299727277
 30
0.0
 11
-2355.91364042539
 21
1977.349299727277
 31
0.0
  0
LINE
  5
143C2
330
1A
100
AcDbEntity
  8
ZISSEN1
 48
0.5
100
AcDbLine
 10
-2349.713640425389
 20
1948.249299727278
 30
0.0
 11
-2350.213640425389
 21
1948.249299727278
 31
0.0
  0
LINE
  5
143C3
330
1A
100
AcDbEntity
  8
ZISSEN1
 48
0.5
100
AcDbLine
 10
-2350.213640425389
 20
1948.249299727278
 30
0.0
 11
-2350.213640425389
 21
1977.349299727277
 31
0.0
  0
LINE
  5
143C4
330
1A
100
AcDbEntity
  8
ZISSEN1
 48
0.5
100
AcDbLine
 10
-2350.013640425389
 20
1948.749299727277
 30
0.0
 11
-2350.013640425389
 21
1976.849299727277
 31
0.0
  0
LINE
  5
143C5
330
1A
100
AcDbEntity
  8
ZISSEN1
 48
0.5
100
AcDbLine
 10
-2349.713640425389
 20
1948.249299727278
 30
0.0
 11
-2349.713640425389
 21
1947.099299727277
 31
0.0
  0
LINE
  5
143C6
330
1A
100
AcDbEntity
  8
ZISSEN1
 48
0.5
100
AcDbLine
 10
-2349.713640425389
 20
1947.099299727277
 30
0.0
 11
-2354.91364042539
 21
1947.099299727277
 31
0.0
  0
LINE
  5
143C7
330
1A
100
AcDbEntity
  8
ZISSEN1
 48
0.5
100
AcDbLine
 10
-2349.213640425389
 20
1947.599299727277
 30
0.0
 11
-2349.213640425389
 21
1948.749299727277
 31
0.0
  0
LINE
  5
143C8
330
1A
100
AcDbEntity
  8
ZISSEN1
 48
0.5
100
AcDbLine
 10
-2350.013640425389
 20
1948.749299727277
 30
0.0
 11
-2349.213640425389
 21
1948.749299727277
 31
0.0
  0
LINE
  5
143C9
330
1A
100
AcDbEntity
  8
ZISSEN1
 48
0.5
100
AcDbLine
 10
-2349.213640425389
 20
1948.749299727277
 30
0.0
 11
-2349.213640425389
 21
1946.599299727277
 31
0.0
  0
LINE
  5
143CB
330
1A
100
AcDbEntity
  8
ZISSEN1
 48
0.5
100
AcDbLine
 10
-2355.91364042539
 20
1948.249299727278
 30
0.0
 11
-2355.41364042539
 21
1948.249299727278
 31
0.0
  0
LINE
  5
143CC
330
1A
100
AcDbEntity
  8
ZISSEN1
 48
0.5
100
AcDbLine
 10
-2355.41364042539
 20
1948.249299727278
 30
0.0
 11
-2355.41364042539
 21
1977.349299727277
 31
0.0
  0
LINE
  5
143CD
330
1A
100
AcDbEntity
  8
ZISSEN1
 48
0.5
100
AcDbLine
 10
-2355.91364042539
 20
1978.999299727277
 30
0.0
 11
-2349.213640425389
 21
1978.999299727277
 31
0.0
  0
LINE
  5
143CE
330
1A
100
AcDbEntity
  8
ZISSEN1
 48
0.5
100
AcDbLine
 10
-2349.713640425389
 20
1977.349299727277
 30
0.0
 11
-2350.213640425389
 21
1977.349299727277
 31
0.0
  0
LINE
  5
143CF
330
1A
100
AcDbEntity
  8
ZISSEN1
 48
0.5
100
AcDbLine
 10
-2349.713640425389
 20
1977.349299727277
 30
0.0
 11
-2349.713640425389
 21
1978.499299727277
 31
0.0
  0
LINE
  5
143D0
330
1A
100
AcDbEntity
  8
ZISSEN1
 48
0.5
100
AcDbLine
 10
-2349.713640425389
 20
1978.499299727277
 30
0.0
 11
-2354.91364042539
 21
1978.499299727277
 31
0.0
  0
LINE
  5
143D1
330
1A
100
AcDbEntity
  8
ZISSEN1
 48
0.5
100
AcDbLine
 10
-2349.213640425389
 20
1977.999299727276
 30
0.0
 11
-2349.213640425389
 21
1976.849299727277
 31
0.0
  0
LINE
  5
143D2
330
1A
100
AcDbEntity
  8
ZISSEN1
 48
0.5
100
AcDbLine
 10
-2350.013640425389
 20
1976.849299727277
 30
0.0
 11
-2349.213640425389
 21
1976.849299727277
 31
0.0
  0
LINE
  5
143D3
330
1A
100
AcDbEntity
  8
ZISSEN1
 48
0.5
100
AcDbLine
 10
-2349.213640425389
 20
1976.849299727277
 30
0.0
 11
-2349.213640425389
 21
1978.999299727276
 31
0.0
  0
LINE
  5
143D5
330
1A
100
AcDbEntity
  8
ZISSEN1
 48
0.5
100
AcDbLine
 10
-2355.91364042539
 20
1977.349299727277
 30
0.0
 11
-2355.41364042539
 21
1977.349299727277
 31
0.0
  0
LINE
  5
143D6
330
1A
100
AcDbEntity
  8
ZISSEN1
 48
0.5
100
AcDbLine
 10
-2354.91364042539
 20
1947.099299727277
 30
0.0
 11
-2354.91364042539
 21
1978.499299727277
 31
0.0
  0
LWPOLYLINE
  5
143D7
330
1A
100
AcDbEntity
  8
ZISSEN1
 48
0.5
100
AcDbPolyline
 90
        4
 70
     1
 43
0.0
 10
-2355.41364042539
 20
1949.549299727277
 10
-2355.41364042539
 20
1951.049299727277
 10
-2355.91364042539
 20
1951.049299727277
 10
-2355.91364042539
 20
1949.549299727277
  0
LWPOLYLINE
  5
143D8
330
1A
100
AcDbEntity
  8
ZISSEN1
 48
0.5
100
AcDbPolyline
 90
        4
 70
     1
 43
0.0
 10
-2355.41364042539
 20
1948.749299727277
 10
-2355.41364042539
 20
1949.349299727277
 10
-2355.91364042539
 20
1949.349299727277
 10
-2355.91364042539
 20
1948.749299727277
  0
LWPOLYLINE
  5
143DB
330
1A
100
AcDbEntity
  8
ZISSEN1
 48
0.5
100
AcDbPolyline
 90
        4
 70
     1
 43
0.0
 10
-2355.41364042539
 20
1952.049299727277
 10
-2355.41364042539
 20
1953.549299727277
 10
-2355.91364042539
 20
1953.549299727277
 10
-2355.91364042539
 20
1952.049299727277
  0
LWPOLYLINE
  5
143DC
330
1A
100
AcDbEntity
  8
ZISSEN1
 48
0.5
100
AcDbPolyline
 90
        4
 70
     1
 43
0.0
 10
-2355.41364042539
 20
1951.249299727277
 10
-2355.41364042539
 20
1951.849299727277
 10
-2355.91364042539
 20
1951.849299727277
 10
-2355.91364042539
 20
1951.249299727277
  0
LWPOLYLINE
  5
143DF
330
1A
100
AcDbEntity
  8
ZISSEN1
 48
0.5
100
AcDbPolyline
 90
        4
 70
     1
 43
0.0
 10
-2355.41364042539
 20
1954.549299727277
 10
-2355.41364042539
 20
1956.049299727277
 10
-2355.91364042539
 20
1956.049299727277
 10
-2355.91364042539
 20
1954.549299727277
  0
LWPOLYLINE
  5
143E0
330
1A
100
AcDbEntity
  8
ZISSEN1
 48
0.5
100
AcDbPolyline
 90
        4
 70
     1
 43
0.0
 10
-2355.41364042539
 20
1953.749299727277
 10
-2355.41364042539
 20
1954.349299727277
 10
-2355.91364042539
 20
1954.349299727277
 10
-2355.91364042539
 20
1953.749299727277
  0
LWPOLYLINE
  5
143E3
330
1A
100
AcDbEntity
  8
ZISSEN1
 48
0.5
100
AcDbPolyline
 90
        4
 70
     1
 43
0.0
 10
-2355.41364042539
 20
1957.049299727277
 10
-2355.41364042539
 20
1958.549299727277
 10
-2355.91364042539
 20
1958.549299727277
 10
-2355.91364042539
 20
1957.049299727277
  0
LWPOLYLINE
  5
143E4
330
1A
100
AcDbEntity
  8
ZISSEN1
 48
0.5
100
AcDbPolyline
 90
        4
 70
     1
 43
0.0
 10
-2355.41364042539
 20
1956.249299727277
 10
-2355.41364042539
 20
1956.849299727277
 10
-2355.91364042539
 20
1956.849299727277
 10
-2355.91364042539
 20
1956.249299727277
  0
LWPOLYLINE
  5
143E7
330
1A
100
AcDbEntity
  8
ZISSEN1
 48
0.5
100
AcDbPolyline
 90
        4
 70
     1
 43
0.0
 10
-2355.41364042539
 20
1959.549299727277
 10
-2355.41364042539
 20
1961.049299727277
 10
-2355.91364042539
 20
1961.049299727277
 10
-2355.91364042539
 20
1959.549299727277
  0
LWPOLYLINE
  5
143E8
330
1A
100
AcDbEntity
  8
ZISSEN1
 48
0.5
100
AcDbPolyline
 90
        4
 70
     1
 43
0.0
 10
-2355.41364042539
 20
1958.749299727277
 10
-2355.41364042539
 20
1959.349299727277
 10
-2355.91364042539
 20
1959.349299727277
 10
-2355.91364042539
 20
1958.749299727277
  0
LWPOLYLINE
  5
143EB
330
1A
100
AcDbEntity
  8
ZISSEN1
 48
0.5
100
AcDbPolyline
 90
        4
 70
     1
 43
0.0
 10
-2355.41364042539
 20
1962.049299727277
 10
-2355.41364042539
 20
1963.549299727277
 10
-2355.91364042539
 20
1963.549299727277
 10
-2355.91364042539
 20
1962.049299727277
  0
LWPOLYLINE
  5
143EC
330
1A
100
AcDbEntity
  8
ZISSEN1
 48
0.5
100
AcDbPolyline
 90
        4
 70
     1
 43
0.0
 10
-2355.41364042539
 20
1961.249299727277
 10
-2355.41364042539
 20
1961.849299727277
 10
-2355.91364042539
 20
1961.849299727277
 10
-2355.91364042539
 20
1961.249299727277
  0
LWPOLYLINE
  5
143EF
330
1A
100
AcDbEntity
  8
ZISSEN1
 48
0.5
100
AcDbPolyline
 90
        4
 70
     1
 43
0.0
 10
-2355.41364042539
 20
1964.549299727277
 10
-2355.41364042539
 20
1966.049299727277
 10
-2355.91364042539
 20
1966.049299727277
 10
-2355.91364042539
 20
1964.549299727277
  0
LWPOLYLINE
  5
143F0
330
1A
100
AcDbEntity
  8
ZISSEN1
 48
0.5
100
AcDbPolyline
 90
        4
 70
     1
 43
0.0
 10
-2355.41364042539
 20
1963.749299727277
 10
-2355.41364042539
 20
1964.349299727277
 10
-2355.91364042539
 20
1964.349299727277
 10
-2355.91364042539
 20
1963.749299727277
  0
LWPOLYLINE
  5
143F3
330
1A
100
AcDbEntity
  8
ZISSEN1
 48
0.5
100
AcDbPolyline
 90
        4
 70
     1
 43
0.0
 10
-2355.41364042539
 20
1967.049299727277
 10
-2355.41364042539
 20
1968.549299727277
 10
-2355.91364042539
 20
1968.549299727277
 10
-2355.91364042539
 20
1967.049299727277
  0
LWPOLYLINE
  5
143F4
330
1A
100
AcDbEntity
  8
ZISSEN1
 48
0.5
100
AcDbPolyline
 90
        4
 70
     1
 43
0.0
 10
-2355.41364042539
 20
1966.249299727278
 10
-2355.41364042539
 20
1966.849299727277
 10
-2355.91364042539
 20
1966.849299727277
 10
-2355.91364042539
 20
1966.249299727278
  0
LWPOLYLINE
  5
143F7
330
1A
100
AcDbEntity
  8
ZISSEN1
 48
0.5
100
AcDbPolyline
 90
        4
 70
     1
 43
0.0
 10
-2355.41364042539
 20
1969.549299727277
 10
-2355.41364042539
 20
1971.049299727277
 10
-2355.91364042539
 20
1971.049299727277
 10
-2355.91364042539
 20
1969.549299727277
  0
LWPOLYLINE
  5
143F8
330
1A
100
AcDbEntity
  8
ZISSEN1
 48
0.5
100
AcDbPolyline
 90
        4
 70
     1
 43
0.0
 10
-2355.41364042539
 20
1968.749299727277
 10
-2355.41364042539
 20
1969.349299727277
 10
-2355.91364042539
 20
1969.349299727277
 10
-2355.91364042539
 20
1968.749299727277
  0
LWPOLYLINE
  5
143FB
330
1A
100
AcDbEntity
  8
ZISSEN1
 48
0.5
100
AcDbPolyline
 90
        4
 70
     1
 43
0.0
 10
-2355.41364042539
 20
1972.049299727277
 10
-2355.41364042539
 20
1973.549299727277
 10
-2355.91364042539
 20
1973.549299727277
 10
-2355.91364042539
 20
1972.049299727277
  0
LWPOLYLINE
  5
143FC
330
1A
100
AcDbEntity
  8
ZISSEN1
 48
0.5
100
AcDbPolyline
 90
        4
 70
     1
 43
0.0
 10
-2355.41364042539
 20
1971.249299727277
 10
-2355.41364042539
 20
1971.849299727277
 10
-2355.91364042539
 20
1971.849299727277
 10
-2355.91364042539
 20
1971.249299727277
  0
LWPOLYLINE
  5
143FF
330
1A
100
AcDbEntity
  8
ZISSEN1
 48
0.5
100
AcDbPolyline
 90
        4
 70
     1
 43
0.0
 10
-2355.41364042539
 20
1974.549299727277
 10
-2355.41364042539
 20
1976.049299727277
 10
-2355.91364042539
 20
1976.049299727277
 10
-2355.91364042539
 20
1974.549299727277
  0
LWPOLYLINE
  5
14400
330
1A
100
AcDbEntity
  8
ZISSEN1
 48
0.5
100
AcDbPolyline
 90
        4
 70
     1
 43
0.0
 10
-2355.41364042539
 20
1973.749299727277
 10
-2355.41364042539
 20
1974.349299727277
 10
-2355.91364042539
 20
1974.349299727277
 10
-2355.91364042539
 20
1973.749299727277
  0
LWPOLYLINE
  5
14402
330
1A
100
AcDbEntity
  8
ZISSEN1
 48
0.5
100
AcDbPolyline
 90
        4
 70
     1
 43
0.0
 10
-2355.41364042539
 20
1976.249299727277
 10
-2355.41364042539
 20
1976.849299727277
 10
-2355.91364042539
 20
1976.849299727277
 10
-2355.91364042539
 20
1976.249299727277
  0
LINE
  5
14403
330
1A
100
AcDbEntity
  8
ZISSEN1
 48
0.5
100
AcDbLine
 10
-2355.91364042539
 20
1948.249299727278
 30
0.0
 11
-2355.91364042539
 21
1946.599299727277
 31
0.0
  0
LWPOLYLINE
  5
1444E
330
1A
100
AcDbEntity
  8
ZISSEN1
 48
0.5
100
AcDbPolyline
 90
        4
 70
     1
 43
0.0
 10
-2316.513640425389
 20
1936.299299727278
 10
-2316.513640425389
 20
1893.299299727278
 10
-2331.013640425389
 20
1893.299299727278
 10
-2331.013640425389
 20
1936.299299727278
  0
LWPOLYLINE
  5
1444F
330
1A
100
AcDbEntity
  8
ZISSEN1
 48
0.5
100
AcDbPolyline
 90
        4
 70
     1
 43
0.0
 10
-2326.013640425389
 20
1891.306011110724
 10
-2326.013640425389
 20
1863.306011110724
 10
-2340.513640425389
 20
1863.306011110724
 10
-2340.513640425389
 20
1891.306011110724
  0
LINE
  5
14450
330
1A
100
AcDbEntity
  8
ZISSEN1
 48
0.5
100
AcDbLine
 10
-2439.363025780784
 20
2093.990398932804
 30
0.0
 11
-2445.663025780785
 21
2093.990398932804
 31
0.0
  0
LINE
  5
14451
330
1A
100
AcDbEntity
  8
ZISSEN1
 48
0.5
100
AcDbLine
 10
-2439.363025780784
 20
2093.990398932804
 30
0.0
 11
-2439.450181523531
 21
2094.986593630896
 31
0.0
  0
LINE
  5
14452
330
1A
100
AcDbEntity
  8
ZISSEN1
 48
0.5
100
AcDbLine
 10
-2445.663025780785
 20
2093.990398932804
 30
0.0
 11
-2445.575870038036
 21
2094.986593630896
 31
0.0
  0
ARC
  5
14453
330
1A
100
AcDbEntity
  8
ZISSEN1
 48
0.5
100
AcDbCircle
 10
-2442.513025780784
 20
2090.815769944207
 30
0.0
 40
5.174628988598421
100
AcDbArc
 50
53.70830187266779
 51
126.2916981273321
  0
LINE
  5
14454
330
1A
100
AcDbEntity
  8
ZISSEN1
 48
0.5
100
AcDbLine
 10
-2439.363025780784
 20
2094.890398932804
 30
0.0
 11
-2439.450181523531
 21
2095.886593630897
 31
0.0
  0
LINE
  5
14455
330
1A
100
AcDbEntity
  8
ZISSEN1
 48
0.5
100
AcDbLine
 10
-2445.663025780785
 20
2094.890398932804
 30
0.0
 11
-2445.575870038036
 21
2095.886593630897
 31
0.0
  0
ARC
  5
14456
330
1A
100
AcDbEntity
  8
ZISSEN1
 48
0.5
100
AcDbCircle
 10
-2442.513025780784
 20
2091.715769944208
 30
0.0
 40
5.174628988598421
100
AcDbArc
 50
53.70830187266779
 51
126.2916981273321
  0
LINE
  5
14457
330
1A
100
AcDbEntity
  8
ZISSEN1
 48
0.5
100
AcDbLine
 10
-2445.663025780785
 20
2093.990398932805
 30
0.0
 11
-2439.363025780784
 21
2093.990398932805
 31
0.0
  0
LINE
  5
14458
330
1A
100
AcDbEntity
  8
ZISSEN1
 48
0.5
100
AcDbLine
 10
-2445.763025780784
 20
2094.890398932804
 30
0.0
 11
-2445.584285983611
 21
2094.890398932804
 31
0.0
  0
LINE
  5
14459
330
1A
100
AcDbEntity
  8
ZISSEN1
 48
0.5
100
AcDbLine
 10
-2439.441765577958
 20
2094.890398932804
 30
0.0
 11
-2439.263025780785
 21
2094.890398932804
 31
0.0
  0
LINE
  5
1445A
330
1A
100
AcDbEntity
  8
ZISSEN1
 48
0.5
100
AcDbLine
 10
-2439.263025780785
 20
2094.890398932804
 30
0.0
 11
-2439.263025780785
 21
2093.990398932804
 31
0.0
  0
LINE
  5
1445B
330
1A
100
AcDbEntity
  8
ZISSEN1
 48
0.5
100
AcDbLine
 10
-2445.763025780784
 20
2094.890398932804
 30
0.0
 11
-2445.763025780784
 21
2093.990398932803
 31
0.0
  0
LINE
  5
1445C
330
1A
100
AcDbEntity
  8
ZISSEN1
 48
0.5
100
AcDbLine
 10
-2311.113725497771
 20
1876.649299727277
 30
0.0
 11
-2311.113725497771
 21
1882.949299727277
 31
0.0
  0
LINE
  5
1445D
330
1A
100
AcDbEntity
  8
ZISSEN1
 48
0.5
100
AcDbLine
 10
-2311.113725497771
 20
1876.649299727277
 30
0.0
 11
-2310.117530799679
 21
1876.736455470024
 31
0.0
  0
LINE
  5
1445E
330
1A
100
AcDbEntity
  8
ZISSEN1
 48
0.5
100
AcDbLine
 10
-2311.113725497771
 20
1882.949299727277
 30
0.0
 11
-2310.117530799679
 21
1882.862143984529
 31
0.0
  0
ARC
  5
1445F
330
1A
100
AcDbEntity
  8
ZISSEN1
 48
0.5
100
AcDbCircle
 10
-2314.288354486369
 20
1879.799299727277
 30
0.0
 40
5.174628988598421
100
AcDbArc
 50
323.7083018726678
 51
36.29169812733217
  0
LINE
  5
14460
330
1A
100
AcDbEntity
  8
ZISSEN1
 48
0.5
100
AcDbLine
 10
-2312.013725497771
 20
1876.649299727277
 30
0.0
 11
-2312.013725497771
 21
1882.949299727277
 31
0.0
  0
LWPOLYLINE
  5
14461
330
1A
100
AcDbEntity
  8
ZISSEN1
 48
0.5
100
AcDbPolyline
 90
        4
 70
     1
 43
0.0
 10
-2311.113725497771
 20
1883.049299727277
 10
-2312.013725497771
 20
1883.049299727277
 10
-2312.013725497771
 20
1876.549299727277
 10
-2311.113725497771
 20
1876.549299727277
  0
DIMENSION
  5
14472
330
1A
100
AcDbEntity
  8
SUNPOU
 48
0.5
100
AcDbDimension
  2
*D97
 10
-2297.015001583953
 20
2005.299299727276
 30
0.0
 11
-2299.765001583954
 21
2007.799299727276
 31
0.0
 70
    32
  3
標準スタイル
100
AcDbAlignedDimension
 13
-2322.013640425389
 23
2010.299299727276
 33
0.0
 14
-2324.513640425389
 24
2005.299299727276
 34
0.0
 50
270.0
100
AcDbRotatedDimension
1001
ACAD
1000
DSTYLE
1002
{
1070
   340
1005
10
1070
    40
1040
1.0
1002
}
  0
DIMENSION
  5
14473
330
1A
100
AcDbEntity
  8
SUNPOU
 48
0.5
100
AcDbDimension
  2
*D98
 10
-2297.015001583953
 20
1845.299299727276
 30
0.0
 11
-2299.765001583954
 21
1925.299299727276
 31
0.0
 70
    32
  1
<> (ユーザー取付寸法)
  3
標準スタイル
100
AcDbAlignedDimension
 13
-2324.513640425389
 23
2005.299299727276
 33
0.0
 14
-2324.513640425389
 24
1845.299299727276
 34
0.0
 50
270.0
100
AcDbRotatedDimension
1001
ACAD
1000
DSTYLE
1002
{
1070
   340
1005
10
1070
    40
1040
1.0
1002
}
  0
DIMENSION
  5
14474
330
1A
100
AcDbEntity
  8
SUNPOU
 48
0.5
100
AcDbDimension
  2
*D99
 10
-2297.015001583953
 20
1840.299299727276
 30
0.0
 11
-2299.765001583954
 21
1842.799299727276
 31
0.0
 70
    32
  3
標準スタイル
100
AcDbAlignedDimension
 13
-2324.513640425389
 23
1845.299299727276
 33
0.0
 14
-2322.013640425389
 24
1840.299299727276
 34
0.0
 50
270.0
100
AcDbRotatedDimension
1001
ACAD
1000
DSTYLE
1002
{
1070
   340
1005
10
1070
    40
1040
1.0
1002
}
  0
DIMENSION
  5
14475
330
1A
100
AcDbEntity
  8
SUNPOU
 48
0.5
100
AcDbDimension
  2
*D100
 10
-2348.513640425389
 20
1830.299299727276
 30
0.0
 11
-2338.513640425389
 21
1833.049299727275
 31
0.0
 70
    32
  3
標準スタイル
100
AcDbAlignedDimension
 13
-2328.513640425389
 23
1840.799299727277
 33
0.0
 14
-2348.513640425389
 24
1841.299299727277
 34
0.0
100
AcDbRotatedDimension
1001
ACAD
1000
DSTYLE
1002
{
1070
   340
1005
10
1070
    40
1040
1.0
1002
}
  0
DIMENSION
  5
14476
330
1A
100
AcDbEntity
  8
SUNPOU
 48
0.5
100
AcDbDimension
  2
*D101
 10
-2312.015001583954
 20
1830.299299727276
 30
0.0
 11
-2320.264321004671
 21
1833.049299727275
 31
0.0
 70
    32
  3
標準スタイル
100
AcDbAlignedDimension
 13
-2328.513640425389
 23
1841.299299727277
 33
0.0
 14
-2312.015001583954
 24
1874.799299727277
 34
0.0
100
AcDbRotatedDimension
1001
ACAD
1000
DSTYLE
1002
{
1070
   340
1005
10
1070
    40
1040
1.0
1002
}
  0
DIMENSION
  5
14477
330
1A
100
AcDbEntity
  8
SUNPOU
 48
0.5
100
AcDbDimension
  2
*D102
 10
-2348.513640425389
 20
1830.299299727276
 30
0.0
 11
-2356.763640425433
 21
1833.049299727275
 31
0.0
 70
    32
  3
標準スタイル
100
AcDbAlignedDimension
 13
-2365.013640425478
 23
1855.799299727426
 33
0.0
 14
-2348.513640425389
 24
1841.299299727277
 34
0.0
100
AcDbRotatedDimension
1001
ACAD
1000
DSTYLE
1002
{
1070
   340
1005
10
1070
    40
1040
1.0
1002
}
  0
LINE
  5
14478
330
1A
100
AcDbEntity
  8
CL1
  6
CENTERX2
 48
0.5
100
AcDbLine
 10
-2328.513640425389
 20
1849.299299727277
 30
0.0
 11
-2328.513640425389
 21
1841.299299727277
 31
0.0
  0
LINE
  5
14479
330
1A
100
AcDbEntity
  8
CL1
  6
CENTERX2
 48
0.5
100
AcDbLine
 10
-2332.513640425389
 20
1845.299299727276
 30
0.0
 11
-2324.513640425389
 21
1845.299299727276
 31
0.0
  0
LINE
  5
1447A
330
1A
100
AcDbEntity
  8
CL1
  6
CENTERX2
 48
0.5
100
AcDbLine
 10
-2348.513640425389
 20
1849.299299727277
 30
0.0
 11
-2348.513640425389
 21
1841.299299727277
 31
0.0
  0
LINE
  5
1447B
330
1A
100
AcDbEntity
  8
CL1
  6
CENTERX2
 48
0.5
100
AcDbLine
 10
-2352.513640425389
 20
1845.299299727276
 30
0.0
 11
-2344.513640425389
 21
1845.299299727276
 31
0.0
  0
LINE
  5
1447C
330
1A
100
AcDbEntity
  8
CL1
  6
CENTERX2
 48
0.5
100
AcDbLine
 10
-2328.513640425389
 20
2009.299299727276
 30
0.0
 11
-2328.513640425389
 21
2001.299299727276
 31
0.0
  0
LINE
  5
1447D
330
1A
100
AcDbEntity
  8
CL1
  6
CENTERX2
 48
0.5
100
AcDbLine
 10
-2336.513640425389
 20
2005.299299727276
 30
0.0
 11
-2324.513640425389
 21
2005.299299727276
 31
0.0
  0
LINE
  5
1447E
330
1A
100
AcDbEntity
  8
CL1
  6
CENTERX2
 48
0.5
100
AcDbLine
 10
-2348.513640425389
 20
2009.299299727276
 30
0.0
 11
-2348.513640425389
 21
2001.299299727276
 31
0.0
  0
LINE
  5
1447F
330
1A
100
AcDbEntity
  8
CL1
  6
CENTERX2
 48
0.5
100
AcDbLine
 10
-2352.513640425389
 20
2005.299299727276
 30
0.0
 11
-2344.513640425389
 21
2005.299299727276
 31
0.0
  0
DIMENSION
  5
14480
330
1A
100
AcDbEntity
  8
SUNPOU
 48
0.5
100
AcDbDimension
  2
*D103
 10
-2312.01364042539
 20
1830.299299727275
 30
0.0
 11
-2298.513725497771
 21
1830.299299727275
 31
0.0
 70
   160
  1
(<>)
  3
標準スタイル
100
AcDbAlignedDimension
 13
-2309.013725497771
 23
1879.799299727277
 33
0.0
 14
-2312.01364042539
 24
1874.799299727277
 34
0.0
100
AcDbRotatedDimension
1001
ACAD
1000
DSTYLE
1002
{
1070
   340
1005
10
1070
    40
1040
1.0
1002
}
  0
DIMENSION
  5
14481
330
1A
100
AcDbEntity
  8
SUNPOU
 48
0.5
100
AcDbDimension
  2
*D104
 10
-2368.013640425389
 20
1830.299299727276
 30
0.0
 11
-2378.513640425389
 21
1830.299299727276
 31
0.0
 70
   160
  1
(<>)
  3
標準スタイル
100
AcDbAlignedDimension
 13
-2365.013640425478
 23
1855.799299727426
 33
0.0
 14
-2368.013640425389
 24
1873.218507003823
 34
0.0
100
AcDbRotatedDimension
1001
ACAD
1000
DSTYLE
1002
{
1070
   340
1005
10
1070
    40
1040
1.0
1002
}
  0
DIMENSION
  5
14482
330
1A
100
AcDbEntity
  8
SUNPOU
 48
0.5
100
AcDbDimension
  2
*D105
 10
-2570.013025780783
 20
1830.299299727277
 30
0.0
 11
-2502.513025780783
 21
1833.049299727277
 31
0.0
 70
    32
  3
標準スタイル
100
AcDbAlignedDimension
 13
-2435.013025780783
 23
1854.299299727277
 33
0.0
 14
-2570.013025780783
 24
1840.299299727277
 34
0.0
100
AcDbRotatedDimension
1001
ACAD
1000
DSTYLE
1002
{
1070
   340
1005
10
1070
    40
1040
1.0
1002
}
  0
DIMENSION
  5
14483
330
1A
100
AcDbEntity
  8
SUNPOU
 48
0.5
100
AcDbDimension
  2
*D106
 10
-2435.013025780783
 20
1830.281213540757
 30
0.0
 11
-2409.513025780782
 21
1830.281213540757
 31
0.0
 70
   160
  1
(<>)
  3
標準スタイル
100
AcDbAlignedDimension
 13
-2420.513025780782
 23
1863.259299727277
 33
0.0
 14
-2435.013025780783
 24
1854.299299727277
 34
0.0
100
AcDbRotatedDimension
1001
ACAD
1000
DSTYLE
1002
{
1070
   340
1005
10
1070
    40
1040
1.0
1002
}
  0
DIMENSION
  5
14484
330
1A
100
AcDbEntity
  8
SUNPOU
 48
0.5
100
AcDbDimension
  2
*D107
 10
-2404.513025780783
 20
1996.299299727277
 30
0.0
 11
-2407.263025780784
 21
2003.299299727277
 31
0.0
 70
    32
  3
標準スタイル
100
AcDbAlignedDimension
 13
-2567.013025780783
 23
2010.299299727277
 33
0.0
 14
-2435.013025780783
 24
1996.299299727277
 34
0.0
 50
270.0
100
AcDbRotatedDimension
1001
ACAD
1000
DSTYLE
1002
{
1070
   340
1005
10
1070
    40
1040
1.0
1002
}
  0
DIMENSION
  5
14485
330
1A
100
AcDbEntity
  8
SUNPOU
 48
0.5
100
AcDbDimension
  2
*D108
 10
-2404.513025780783
 20
1854.299299727277
 30
0.0
 11
-2407.263025780784
 21
1925.299299727277
 31
0.0
 70
    32
  3
標準スタイル
100
AcDbAlignedDimension
 13
-2435.013025780783
 23
1996.299299727277
 33
0.0
 14
-2435.013025780783
 24
1854.299299727277
 34
0.0
 50
270.0
100
AcDbRotatedDimension
1001
ACAD
1000
DSTYLE
1002
{
1070
   340
1005
10
1070
    40
1040
1.0
1002
}
  0
DIMENSION
  5
14486
330
1A
100
AcDbEntity
  8
SUNPOU
 48
0.5
100
AcDbDimension
  2
*D109
 10
-2404.513025780783
 20
1840.299299727277
 30
0.0
 11
-2407.263025780784
 21
1847.299299727277
 31
0.0
 70
    32
  3
標準スタイル
100
AcDbAlignedDimension
 13
-2435.013025780783
 23
1854.299299727277
 33
0.0
 14
-2567.013025780783
 24
1840.299299727277
 34
0.0
 50
270.0
100
AcDbRotatedDimension
1001
ACAD
1000
DSTYLE
1002
{
1070
   340
1005
10
1070
    40
1040
1.0
1002
}
  0
DIMENSION
  5
14487
330
1A
100
AcDbEntity
  8
SUNPOU
 48
0.5
100
AcDbDimension
  2
*D110
 10
-2368.013640425389
 20
1810.299299727276
 30
0.0
 11
-2338.51368296158
 21
1813.049299727276
 31
0.0
 70
    32
  3
標準スタイル
100
AcDbAlignedDimension
 13
-2309.013725497771
 23
1879.799299727277
 33
0.0
 14
-2368.013640425389
 24
1873.218507003823
 34
0.0
100
AcDbRotatedDimension
1001
ACAD
1000
DSTYLE
1002
{
1070
   340
1005
10
1070
    40
1040
1.0
1002
}
  0
LINE
  5
14488
330
1A
100
AcDbEntity
  8
ZISSEN1
 48
0.5
100
AcDbLine
 10
-2347.011215793203
 20
1945.295983092738
 30
0.0
 11
-2356.513640425389
 21
1945.295983092738
 31
0.0
  0
LINE
  5
14489
330
1A
100
AcDbEntity
  8
ZISSEN1
 48
0.5
100
AcDbLine
 10
-2325.513640425389
 20
1891.796011110723
 30
0.0
 11
-2341.013640425389
 21
1891.796011110723
 31
0.0
  0
LINE
  5
1448A
330
1A
100
AcDbEntity
  8
ZISSEN1
 48
0.5
100
AcDbLine
 10
-2341.013640425389
 20
1891.796011110723
 30
0.0
 11
-2341.013640425389
 21
1862.796011110724
 31
0.0
  0
LINE
  5
1448B
330
1A
100
AcDbEntity
  8
ZISSEN1
 48
0.5
100
AcDbLine
 10
-2341.013640425389
 20
1862.796011110724
 30
0.0
 11
-2325.513640425389
 21
1862.796011110724
 31
0.0
  0
LINE
  5
1448C
330
1A
100
AcDbEntity
  8
ZISSEN1
 48
0.5
100
AcDbLine
 10
-2325.513640425389
 20
1862.796011110724
 30
0.0
 11
-2325.513640425389
 21
1891.796011110723
 31
0.0
  0
ARC
  5
1448D
330
1A
100
AcDbEntity
  8
ZISSEN1
 48
0.5
100
AcDbCircle
 10
-2317.013640425388
 20
1993.299299727277
 30
0.0
 40
1.0
100
AcDbArc
 50
0.0
 51
89.99999999999998
  0
ARC
  5
1448E
330
1A
100
AcDbEntity
  8
ZISSEN1
 48
0.5
100
AcDbCircle
 10
-2362.013640425388
 20
1993.299299727278
 30
0.0
 40
1.0
100
AcDbArc
 50
89.99999999999998
 51
180.0
  0
LINE
  5
1448F
330
1A
100
AcDbEntity
  8
CL1
  6
CENTERX2
 48
0.5
100
AcDbLine
 10
-2332.513640425389
 20
2009.299299727276
 30
0.0
 11
-2332.513640425389
 21
2001.299299727276
 31
0.0
  0
ARC
  5
14490
330
1A
100
AcDbEntity
  8
ZISSEN1
 48
0.5
100
AcDbCircle
 10
-2332.513640425389
 20
2005.299299727276
 30
0.0
 40
2.25
100
AcDbArc
 50
89.99999999999998
 51
270.0
  0
ARC
  5
14491
330
1A
100
AcDbEntity
  8
ZISSEN1
 48
0.5
100
AcDbCircle
 10
-2328.513640425389
 20
2005.299299727276
 30
0.0
 40
2.25
100
AcDbArc
 50
270.0
 51
89.99999999999998
  0
LINE
  5
14492
330
1A
100
AcDbEntity
  8
ZISSEN1
 48
0.5
100
AcDbLine
 10
-2328.513640425389
 20
2003.049299727276
 30
0.0
 11
-2332.513640425389
 21
2003.049299727276
 31
0.0
  0
LINE
  5
14493
330
1A
100
AcDbEntity
  8
ZISSEN1
 48
0.5
100
AcDbLine
 10
-2328.513640425389
 20
2007.549299727276
 30
0.0
 11
-2332.513640425389
 21
2007.549299727276
 31
0.0
  0
DIMENSION
  5
14494
330
1A
100
AcDbEntity
  8
SUNPOU
 48
0.5
100
AcDbDimension
  2
*D111
 10
-2348.513640425389
 20
2022.730219168497
 30
0.0
 11
-2373.680307092056
 21
2022.730219168497
 31
0.0
 70
   160
  3
標準スタイル
100
AcDbAlignedDimension
 13
-2365.013640425389
 23
1994.799299727277
 33
0.0
 14
-2348.513640425389
 24
2009.299299727276
 34
0.0
100
AcDbRotatedDimension
1001
ACAD
1000
DSTYLE
1002
{
1070
   340
1005
10
1070
    40
1040
1.0
1002
}
  0
DIMENSION
  5
14495
330
1A
100
AcDbEntity
  8
SUNPOU
 48
0.5
100
AcDbDimension
  2
*D112
 10
-2332.513640425389
 20
2015.299299727276
 30
0.0
 11
-2340.513640425389
 21
2018.049299727276
 31
0.0
 70
    32
  3
標準スタイル
100
AcDbAlignedDimension
 13
-2348.513640425389
 23
2009.299299727276
 33
0.0
 14
-2332.513640425389
 24
2009.299299727276
 34
0.0
100
AcDbRotatedDimension
1001
ACAD
1000
DSTYLE
1002
{
1070
   340
1005
10
1070
    40
1040
1.0
1002
}
  0
DIMENSION
  5
14496
330
1A
100
AcDbEntity
  8
SUNPOU
 48
0.5
100
AcDbDimension
  2
*D113
 10
-2328.513640425389
 20
2022.736691600456
 30
0.0
 11
-2338.513640425389
 21
2025.486691600456
 31
0.0
 70
    32
  3
標準スタイル
100
AcDbAlignedDimension
 13
-2348.513640425389
 23
2009.299299727276
 33
0.0
 14
-2328.513640425389
 24
2009.299299727276
 34
0.0
100
AcDbRotatedDimension
1001
ACAD
1000
DSTYLE
1002
{
1070
   340
1005
10
1070
    40
1040
1.0
1002
}
  0
LINE
  5
14497
330
1A
100
AcDbEntity
  8
ZISSEN1
 48
0.5
100
AcDbLine
 10
-2313.021722567538
 20
1982.800274886092
 30
0.0
 11
-2313.013640425388
 21
1994.799299727277
 31
0.0
  0
LINE
  5
14498
330
1A
100
AcDbEntity
  8
ZISSEN1
 48
0.5
100
AcDbLine
 10
-2313.013640425388
 20
1994.799299727277
 30
0.0
 11
-2313.513640425389
 21
1994.799299727277
 31
0.0
  0
LINE
  5
14499
330
1A
100
AcDbEntity
  8
ZISSEN1
 48
0.5
100
AcDbLine
 10
-2532.011808810562
 20
2089.190398932803
 30
0.0
 11
-2536.513025780784
 21
2089.190398932803
 31
0.0
  0
LINE
  5
1449A
330
1A
100
AcDbEntity
  8
ZISSEN1
 48
0.5
100
AcDbLine
 10
-2532.011808810562
 20
2089.490398932803
 30
0.0
 11
-2567.013025780784
 21
2089.490398932803
 31
0.0
  0
LINE
  5
1449B
330
1A
100
AcDbEntity
  8
ZISSEN1
 48
0.5
100
AcDbLine
 10
-2438.513025780784
 20
2088.990398932805
 30
0.0
 11
-2438.513025780784
 21
2089.190398932804
 31
0.0
  0
LINE
  5
1449C
330
1A
100
AcDbEntity
  8
ZISSEN1
 48
0.5
100
AcDbLine
 10
-2532.511808810562
 20
2092.490398932803
 30
0.0
 11
-2532.511808810562
 21
2089.490398932803
 31
0.0
  0
LINE
  5
1449D
330
1A
100
AcDbEntity
  8
ZISSEN1
 48
0.5
100
AcDbLine
 10
-2498.511808810562
 20
2092.490398932803
 30
0.0
 11
-2498.511808810562
 21
2089.490398932805
 31
0.0
  0
ARC
  5
144A0
330
1A
100
AcDbEntity
  8
ZISSEN1
 48
0.5
100
AcDbCircle
 10
-2365.01364042539
 20
1854.299299727278
 30
0.0
 40
1.499999999999545
100
AcDbArc
 50
0.0
 51
90.00000000002605
  0
ARC
  5
144A1
330
1A
100
AcDbEntity
  8
ZISSEN1
 48
0.5
100
AcDbCircle
 10
-2365.01364042539
 20
1996.299299727277
 30
0.0
 40
1.499999999999545
100
AcDbArc
 50
269.9999999999739
 51
0.0
  0
ARC
  5
144A2
330
1A
100
AcDbEntity
  8
ZISSEN1
 48
0.5
100
AcDbCircle
 10
-2436.513025780783
 20
1854.299299727277
 30
0.0
 40
1.499999999999545
100
AcDbArc
 50
89.99999999999998
 51
180.000000000026
  0
ARC
  5
144A3
330
1A
100
AcDbEntity
  8
ZISSEN1
 48
0.5
100
AcDbCircle
 10
-2436.513025780783
 20
1996.299299727277
 30
0.0
 40
1.499999999999545
100
AcDbArc
 50
179.9999999999739
 51
270.0
  0
LINE
  5
144A4
330
1A
100
AcDbEntity
  8
ZISSEN1
 48
0.5
100
AcDbLine
 10
-2437.013025780783
 20
1996.299299727277
 30
0.0
 11
-2437.013025780783
 21
1994.885086164904
 31
0.0
  0
LINE
  5
144A5
330
1A
100
AcDbEntity
  8
ZISSEN1
 48
0.5
100
AcDbLine
 10
-2437.013025780783
 20
1854.299299727277
 30
0.0
 11
-2437.013025780783
 21
1855.71351328965
 31
0.0
  0
ARC
  5
144A6
330
1A
100
AcDbEntity
  8
ZISSEN1
 48
0.5
100
AcDbCircle
 10
-2437.013025780784
 20
2042.490398932805
 30
0.0
 40
1.499999999998635
100
AcDbArc
 50
90.00000000002605
 51
180.0
  0
LINE
  5
144A7
330
1A
100
AcDbEntity
  8
ZISSEN1
 48
0.5
100
AcDbLine
 10
-2438.513025780783
 20
2042.490398932805
 30
0.0
 11
-2438.513025780783
 21
2040.990398932805
 31
0.0
  0
LINE
  5
144AC
330
1A
100
AcDbEntity
  8
ZISSEN1
 48
0.5
100
AcDbLine
 10
-2355.91364042539
 20
1942.799297530932
 30
0.0
 11
-2355.91364042539
 21
1936.799297530932
 31
0.0
  0
LWPOLYLINE
  5
144AD
330
1A
100
AcDbEntity
  8
ZISSEN1
 48
0.5
100
AcDbPolyline
 90
        4
 70
     1
 43
0.0
 10
-2347.511215793204
 20
1979.795912258044
 10
-2347.511215793204
 20
1945.795983092738
 10
-2356.013640425389
 20
1945.795983092738
 10
-2356.013640425389
 20
1979.795912258044
  0
LINE
  5
144AE
330
1A
100
AcDbEntity
  8
ZISSEN1
 48
0.5
100
AcDbLine
 10
-2355.91364042539
 20
1945.795983092738
 30
0.0
 11
-2355.91364042539
 21
1979.795912258044
 31
0.0
  0
LWPOLYLINE
  5
144B2
330
1A
100
AcDbEntity
  8
ZISSEN1
 48
0.5
100
AcDbPolyline
 90
        4
 70
     1
 43
0.0
 10
-2352.013640425389
 20
1942.799297530932
 10
-2352.013640425389
 20
1936.799297530932
 10
-2356.013640425389
 20
1936.799297530932
 10
-2356.013640425389
 20
1942.799297530932
  0
LWPOLYLINE
  5
144B3
330
1A
100
AcDbEntity
  8
ZISSEN1
 48
0.5
100
AcDbPolyline
 90
        4
 70
     1
 43
0.0
 10
-2351.513640425389
 20
1943.299297530932
 10
-2351.513640425389
 20
1936.299297530931
 10
-2356.513640425389
 20
1936.299297530931
 10
-2356.513640425389
 20
1943.299297530932
  0
LINE
  5
144B4
330
1A
100
AcDbEntity
  8
ZISSEN1
 48
0.5
100
AcDbLine
 10
-2345.013640425389
 20
1857.299299727276
 30
0.0
 11
-2345.01364042539
 21
1882.299299727277
 31
0.0
  0
LINE
  5
144B5
330
1A
100
AcDbEntity
  8
ZISSEN1
 48
0.5
100
AcDbLine
 10
-2345.01364042539
 20
1882.299299727277
 30
0.0
 11
-2362.01364030337
 21
1882.299297652951
 31
0.0
  0
ARC
  5
144B6
330
1A
100
AcDbEntity
  8
ZISSEN1
 48
0.5
100
AcDbCircle
 10
-2362.013640425389
 20
1883.299297652951
 30
0.0
 40
1.0
100
AcDbArc
 50
180.0
 51
270.0000069911836
  0
ARC
  5
144B7
330
1A
100
AcDbEntity
  8
ZISSEN1
 48
0.5
100
AcDbCircle
 10
-2344.013640425389
 20
1857.299299727276
 30
0.0
 40
1.0
100
AcDbArc
 50
180.0
 51
270.0
  0
LINE
  5
144B8
330
1A
100
AcDbEntity
  8
ZISSEN1
 48
0.5
100
AcDbLine
 10
-2320.013640425389
 20
1842.299299727276
 30
0.0
 11
-2322.013640425389
 21
1840.299299727276
 31
0.0
  0
LINE
  5
144B9
330
1A
100
AcDbEntity
  8
ZISSEN1
 48
0.5
100
AcDbLine
 10
-2357.013640425389
 20
1842.299299727277
 30
0.0
 11
-2355.013640425389
 21
1840.299299727277
 31
0.0
  0
LINE
  5
144BA
330
1A
100
AcDbEntity
  8
ZISSEN1
 48
0.5
100
AcDbLine
 10
-2320.013640425389
 20
2008.299299727276
 30
0.0
 11
-2322.013640425389
 21
2010.299299727276
 31
0.0
  0
LINE
  5
144BB
330
1A
100
AcDbEntity
  8
ZISSEN1
 48
0.5
100
AcDbLine
 10
-2355.013640425389
 20
2010.299299727276
 30
0.0
 11
-2357.013640425389
 21
2008.299299727276
 31
0.0
  0
DIMENSION
  5
144BC
330
1A
100
AcDbEntity
  8
SUNPOU
 48
0.5
100
AcDbDimension
  2
*D114
 10
-2357.013640425389
 20
2030.299299727276
 30
0.0
 11
-2338.513640425389
 21
2033.049299727276
 31
0.0
 70
    32
  3
標準スタイル
100
AcDbAlignedDimension
 13
-2320.013640425389
 23
2008.299299727276
 33
0.0
 14
-2357.013640425389
 24
2008.299299727277
 34
0.0
100
AcDbRotatedDimension
1001
ACAD
1000
DSTYLE
1002
{
1070
   340
1005
10
1070
    40
1040
1.0
1002
}
  0
LINE
  5
144BF
330
1A
100
AcDbEntity
  8
ZISSEN1
 48
0.5
100
AcDbLine
 10
-2533.513025780784
 20
2088.990398932803
 30
0.0
 11
-2533.513025780784
 21
2089.190398932803
 31
0.0
  0
LINE
  5
144C0
330
1A
100
AcDbEntity
  8
ZISSEN1
 48
0.5
100
AcDbLine
 10
-2534.513025780784
 20
2088.990398932803
 30
0.0
 11
-2534.513025780784
 21
2089.190398932802
 31
0.0
  0
LINE
  5
144C1
330
1A
100
AcDbEntity
  8
ZISSEN1
 48
0.5
100
AcDbLine
 10
-2536.513025780784
 20
2089.190398932803
 30
0.0
 11
-2536.513025780784
 21
2089.490398932803
 31
0.0
  0
LINE
  5
144C2
330
1A
100
AcDbEntity
  8
ZISSEN1
 48
0.5
100
AcDbLine
 10
-2365.013640425389
 20
1945.449299727277
 30
0.0
 11
-2365.013640425389
 21
1939.149299727277
 31
0.0
  0
LINE
  5
144C3
330
1A
100
AcDbEntity
  8
ZISSEN1
 48
0.5
100
AcDbLine
 10
-2365.013640425389
 20
1945.449299727277
 30
0.0
 11
-2366.009835123481
 21
1945.36214398453
 31
0.0
  0
LINE
  5
144C4
330
1A
100
AcDbEntity
  8
ZISSEN1
 48
0.5
100
AcDbLine
 10
-2365.013640425389
 20
1939.149299727277
 30
0.0
 11
-2366.009835123481
 21
1939.236455470025
 31
0.0
  0
ARC
  5
144C5
330
1A
100
AcDbEntity
  8
ZISSEN1
 48
0.5
100
AcDbCircle
 10
-2361.839011436791
 20
1942.299299727278
 30
0.0
 40
5.174628988598421
100
AcDbArc
 50
143.7083018726678
 51
216.2916981273322
  0
LWPOLYLINE
  5
144C6
330
1A
100
AcDbEntity
  8
ZISSEN1
  6
DASHEDX2
 48
0.5
100
AcDbPolyline
 90
        4
 70
     1
 43
0.0
 10
-2570.013025780784
 20
2079.740398932803
 10
-2570.013025780784
 20
2071.240398932803
 10
-2567.013025780784
 20
2071.240398932803
 10
-2567.013025780784
 20
2079.740398932803
  0
LINE
  5
144C7
330
1A
100
AcDbEntity
  8
ZISSEN1
 48
0.5
100
AcDbLine
 10
-2439.513025780785
 20
2088.990398932805
 30
0.0
 11
-2439.513025780785
 21
2089.190398932804
 31
0.0
  0
LINE
  5
144C8
330
1A
100
AcDbEntity
  8
ZISSEN1
 48
0.5
100
AcDbLine
 10
-2436.513025780784
 20
2079.590398932804
 30
0.0
 11
-2437.013025780784
 21
2079.590398932804
 31
0.0
  0
LINE
  5
144C9
330
1A
100
AcDbEntity
  8
ZISSEN1
 48
0.5
100
AcDbLine
 10
-2436.513025780784
 20
2077.990398932804
 30
0.0
 11
-2437.013025780784
 21
2077.990398932804
 31
0.0
  0
LINE
  5
144CC
330
1A
100
AcDbEntity
  8
ZISSEN1
 48
0.5
100
AcDbLine
 10
-2437.513025780786
 20
2089.190398932804
 30
0.0
 11
-2437.513025780786
 21
2089.490398932805
 31
0.0
  0
DIMENSION
  5
14503
330
1A
100
AcDbEntity
  8
SUNPOU
 48
0.5
100
AcDbDimension
  2
*D115
 10
-2420.513025780782
 20
1820.360321535341
 30
0.0
 11
-2495.263025780783
 21
1823.110321535341
 31
0.0
 70
    32
  3
標準スタイル
100
AcDbAlignedDimension
 13
-2570.013025780783
 23
1840.299299727277
 33
0.0
 14
-2420.513025780782
 24
1863.259299727277
 34
0.0
100
AcDbRotatedDimension
1001
ACAD
1000
DSTYLE
1002
{
1070
   340
1005
10
1070
    40
1040
1.0
1002
}
  0
DIMENSION
  5
14504
330
1A
100
AcDbEntity
  8
SUNPOU
 48
0.5
100
AcDbDimension
  2
*D116
 10
-2394.513025780783
 20
1840.299299727277
 30
0.0
 11
-2397.263025780783
 21
1925.299299727277
 31
0.0
 70
    32
  3
標準スタイル
100
AcDbAlignedDimension
 13
-2557.013025780783
 23
2010.299299727277
 33
0.0
 14
-2557.013025780783
 24
1840.299299727277
 34
0.0
 50
270.0
100
AcDbRotatedDimension
1001
ACAD
1000
DSTYLE
1002
{
1070
   340
1005
10
1070
    40
1040
1.0
1002
}
  0
DIMENSION
  5
14505
330
1A
100
AcDbEntity
  8
SUNPOU
 48
0.5
100
AcDbDimension
  2
*D117
 10
-2394.513025780784
 20
2037.990398932802
 30
0.0
 11
-2397.263025780784
 21
2067.490398932803
 31
0.0
 70
    32
  3
標準スタイル
100
AcDbAlignedDimension
 13
-2442.513025780784
 23
2096.990398932804
 33
0.0
 14
-2537.013025780783
 24
2037.990398932802
 34
0.0
 50
270.0
100
AcDbRotatedDimension
1001
ACAD
1000
DSTYLE
1002
{
1070
   340
1005
10
1070
    40
1040
1.0
1002
}
  0
DIMENSION
  5
14506
330
1A
100
AcDbEntity
  8
SUNPOU
 48
0.5
100
AcDbDimension
  2
*D118
 10
-2404.513025780784
 20
2040.990398932805
 30
0.0
 11
-2407.263025780784
 21
2067.490398932803
 31
0.0
 70
    32
  3
標準スタイル
100
AcDbAlignedDimension
 13
-2436.513025780785
 23
2093.990398932804
 33
0.0
 14
-2436.513025780783
 24
2040.990398932805
 34
0.0
 50
270.0
100
AcDbRotatedDimension
1001
ACAD
1000
DSTYLE
1002
{
1070
   340
1005
10
1070
    40
1040
1.0
1002
}
  0
DIMENSION
  5
14507
330
1A
100
AcDbEntity
  8
SUNPOU
 48
0.5
100
AcDbDimension
  2
*D119
 10
-2404.513025780784
 20
2037.990398932802
 30
0.0
 11
-2407.263025780784
 21
2027.490398932802
 31
0.0
 70
    32
  1
(<>)
  3
標準スタイル
100
AcDbAlignedDimension
 13
-2436.513025780917
 23
2040.990398932806
 33
0.0
 14
-2436.513025780917
 24
2037.990398932802
 34
0.0
 50
270.0
100
AcDbRotatedDimension
1001
ACAD
1000
DSTYLE
1002
{
1070
   340
1005
10
1070
    40
1040
1.0
1002
}
  0
DIMENSION
  5
14508
330
1A
100
AcDbEntity
  8
SUNPOU
 48
0.5
100
AcDbDimension
  2
*D120
 10
-2404.513025780784
 20
2096.990398932804
 30
0.0
 11
-2407.263025780784
 21
2107.490398932804
 31
0.0
 70
    32
  1
(<>)
  3
標準スタイル
100
AcDbAlignedDimension
 13
-2436.513025780785
 23
2093.990398932804
 33
0.0
 14
-2436.513025780785
 24
2096.990398932804
 34
0.0
 50
270.0
100
AcDbRotatedDimension
1001
ACAD
1000
DSTYLE
1002
{
1070
   340
1005
10
1070
    40
1040
1.0
1002
}
  0
DIMENSION
  5
14509
330
1A
100
AcDbEntity
  8
SUNPOU
 48
0.5
100
AcDbDimension
  2
*D121
 10
-2365.013640425478
 20
1820.299299727276
 30
0.0
 11
-2338.513640425434
 21
1823.049299727276
 31
0.0
 70
    32
  3
標準スタイル
100
AcDbAlignedDimension
 13
-2312.01364042539
 23
1874.799299727277
 33
0.0
 14
-2365.013640425478
 24
1855.299299727426
 34
0.0
100
AcDbRotatedDimension
1001
ACAD
1000
DSTYLE
1002
{
1070
   340
1005
10
1070
    40
1040
1.0
1002
}
  0
MTEXT
  5
14A94
330
1A
100
AcDbEntity
  8
ZISSEN1
100
AcDbMText
 10
-2377.193789055322
 20
2064.603220497093
 30
0.0
 40
5.0
 41
171.8538
 71
     1
 72
     5
  1
{\Ftxt.shx,bigfont.shx;GD-5610　　No.SS0001f115}
  7
ゴシック体
1001
ACAD
1000
MTEXTBEGIN
1070
    73
1070
     1
1070
    44
1040
1.0
1070
    74
1070
     0
1000
MTEXTEND
  0
DIMENSION
  5
14ED9
330
1A
100
AcDbEntity
  8
ZISSEN2
100
AcDbDimension
  2
*D123
 10
-2580.580580325606
 20
2040.990398932803
 30
0.0
 11
-2583.330580325606
 21
2049.240398932802
 31
0.0
 70
    32
  3
標準スタイル
100
AcDbAlignedDimension
 13
-2570.013025780784
 23
2057.490398932802
 33
0.0
 14
-2567.013025780783
 24
2040.990398932803
 34
0.0
 50
90.0
100
AcDbRotatedDimension
1001
ACAD
1000
DSTYLE
1002
{
1070
    40
1040
1.0
1002
}
  0
DIMENSION
  5
14EE7
330
1A
100
AcDbEntity
  8
ZISSEN2
100
AcDbDimension
  2
*D124
 10
-2588.306491549527
 20
2073.490398932802
 30
0.0
 11
-2591.056491549527
 21
2065.490398932802
 31
0.0
 70
    32
  3
標準スタイル
100
AcDbAlignedDimension
 13
-2570.513025780784
 23
2057.490398932802
 33
0.0
 14
-2570.013025780784
 24
2073.490398932802
 34
0.0
 50
90.0
100
AcDbRotatedDimension
1001
ACAD
1000
DSTYLE
1002
{
1070
    40
1040
1.0
1002
}
  0
DIMENSION
  5
14EF4
330
1A
100
AcDbEntity
  8
ZISSEN2
100
AcDbDimension
  2
*D125
 10
-2579.928464662862
 20
2077.490398932802
 30
0.0
 11
-2582.678464662862
 21
2067.490398932802
 31
0.0
 70
    32
  3
標準スタイル
100
AcDbAlignedDimension
 13
-2570.513025780784
 23
2057.490398932802
 33
0.0
 14
-2572.107170552297
 24
2077.490398932802
 34
0.0
 50
90.0
100
AcDbRotatedDimension
1001
ACAD
1000
DSTYLE
1002
{
1070
    40
1040
1.0
1002
}
  0
LINE
  5
14F1E
330
1A
100
AcDbEntity
  8
CL1
100
AcDbLine
 10
-2572.107170552297
 20
2077.490398932802
 30
0.0
 11
-2564.74781211138
 21
2077.490398932802
 31
0.0
  0
LINE
  5
14F1F
330
1A
100
AcDbEntity
  8
CL1
100
AcDbLine
 10
-2572.107170552297
 20
2073.490398932802
 30
0.0
 11
-2564.74781211138
 21
2073.490398932802
 31
0.0
  0
LINE
  5
14F20
330
1A
100
AcDbEntity
  8
CL1
100
AcDbLine
 10
-2572.107170552297
 20
2057.490398932802
 30
0.0
 11
-2564.74781211138
 21
2057.490398932802
 31
0.0
  0
LINE
  5
14F21
330
1A
100
AcDbEntity
  8
CL1
100
AcDbLine
 10
-2572.107170552297
 20
2005.299299727276
 30
0.0
 11
-2564.74781211138
 21
2005.299299727276
 31
0.0
  0
LINE
  5
14F22
330
1A
100
AcDbEntity
  8
CL1
100
AcDbLine
 10
-2572.107170552297
 20
1845.299299727276
 30
0.0
 11
-2564.74781211138
 21
1845.299299727276
 31
0.0
  0
VIEWPORT
  5
5D8F
330
5D8E
100
AcDbEntity
 67
     1
  8
0
100
AcDbViewport
 10
293.6285070036483
 20
181.7299724048027
 30
0.0
 40
691.430341491297
 41
388.0178709634705
 68
     1
 69
     1
1001
ACAD
1000
MVIEW
1002
{
1070
    16
1010
0.0
1020
0.0
1030
0.0
1010
0.0
1020
0.0
1030
1.0
1040
0.0
1040
388.0178709634705
1040
293.6285070036483
1040
181.7299724048027
1040
50.0
1040
0.0
1040
0.0
1070
     0
1070
   100
1070
     1
1070
     0
1070
     0
1070
     0
1070
     0
1070
     0
1040
0.0
1040
0.0
1040
0.0
1040
1.0
1040
1.0
1040
10.0
1040
10.0
1070
     0
1002
{
1002
}
1002
}
  0
VIEWPORT
  5
6001
330
5D8E
100
AcDbEntity
 67
     1
  8
ZISSEN1
100
AcDbViewport
 10
221.7861955525412
 20
157.6960273330388
 30
0.0
 40
385.4999999999997
 41
259.9999999999999
 68
     2
 69
     2
1001
ACAD
1000
MVIEW
1002
{
1070
    16
1010
0.0
1020
0.0
1030
0.0
1010
0.0
1020
0.0
1030
1.0
1040
0.0
1040
520.0000018055156
1040
-2430.442742454091
1040
1956.984887670338
1040
50.0
1040
0.0
1040
0.0
1070
     0
1070
   100
1070
     1
1070
     0
1070
     0
1070
     0
1070
     0
1070
     0
1040
0.0
1040
0.0
1040
0.0
1040
1.0
1040
1.0
1040
10.0
1040
10.0
1070
     0
1002
{
1002
}
1002
}
  0
TEXT
  5
716F
330
5D8E
100
AcDbEntity
 67
     1
  8
SUNPOU
 62
     0
100
AcDbText
 10
374.1863124306944
 20
60.86794705907585
 30
0.0
 40
3.5
  1
縮尺 1/2
  7
ゴシック体
100
AcDbText
  0
ENDSEC
  0
SECTION
  2
OBJECTS
  0
DICTIONARY
  5
C
330
0
100
AcDbDictionary
  3
ACAD_GROUP
350
D
  3
ACAD_LAYOUT
350
5C7D
  3
ACAD_MLINESTYLE
350
E
  3
ACAD_PLOTSETTINGS
350
5C7E
  3
ACAD_PLOTSTYLENAME
350
5C7B
  3
ACADDIM
350
1386A
  3
DWGPROPS
350
5E8E
  3
ACDBHEADERROUNDTRIPXREC
350
14F45
  0
DICTIONARY
  5
13B78
330
2
100
AcDbDictionary
280
     1
  3
ACAD_LAYERFILTERS
360
13B79
  0
DICTIONARY
  5
14F65
330
1A
100
AcDbDictionary
280
     1
  3
ACAD_LAYOUTSELFREF
360
14F66
  0
DICTIONARY
  5
14F67
330
5D8E
100
AcDbDictionary
280
     1
  3
ACAD_LAYOUTSELFREF
360
14F68
  0
DICTIONARY
  5
D
102
{ACAD_REACTORS
330
C
102
}
330
C
100
AcDbDictionary
  3
*A1
350
477D
  3
*A2
350
4C10
  3
*A3
350
4C11
  3
*A4
350
4C12
  3
*A5
350
4C13
  3
*A6
350
4C14
  3
*A7
350
4C15
  3
*A8
350
13997
  3
*A9
350
13998
  3
*A10
350
13999
  3
*A11
350
1399A
  3
*A12
350
4C16
  3
*A13
350
1399B
  3
*A14
350
1399C
  3
*A15
350
1399D
  3
*A16
350
1399E
  3
*A17
350
1399F
  3
*A18
350
139A0
  3
*A19
350
139A1
  3
*A20
350
139A2
  3
*A21
350
139A3
  3
*A22
350
139A4
  3
*A23
350
4C17
  3
*A24
350
139A5
  3
*A25
350
477E
  3
*A26
350
477F
  3
*A27
350
4780
  3
*A28
350
4781
  3
*A29
350
4C0E
  3
*A30
350
4C0F
  0
DICTIONARY
  5
5C7D
102
{ACAD_REACTORS
330
C
102
}
330
C
100
AcDbDictionary
  0
DICTIONARY
  5
E
102
{ACAD_REACTORS
330
C
102
}
330
C
100
AcDbDictionary
  3
STANDARD
350
13
  0
DICTIONARY
  5
5C7E
102
{ACAD_REACTORS
330
C
102
}
330
C
100
AcDbDictionary
  0
ACDBDICTIONARYWDFLT
  5
5C7B
102
{ACAD_REACTORS
330
C
102
}
330
C
100
AcDbDictionary
281
     1
  3
Normal
350
5C7C
100
AcDbDictionaryWithDefault
340
5C7C
  0
XRECORD
  5
1386A
102
{ACAD_REACTORS
330
C
102
}
330
C
100
AcDbXrecord
 90
   990106
  3

 60
     0
 61
     0
 62
     1
 63
     3
 64
     0
 65
     0
 66
     0
 67
     3
 68
     1
 69
     0
 70
     0
 71
     0
 72
     0
 40
0.0
170
     0
  0
XRECORD
  5
5E8E
102
{ACAD_REACTORS
330
C
102
}
330
C
100
AcDbXrecord
  1
DWGPROPS COOKIE
  2

  3

  4

  6

  7

  8

  9

300
=
301
=
302
=
303
=
304
=
305
=
306
=
307
=
308
=
309
=
 40
0.586753587962963
 41
2450495.493631365
 42
2453208.662277431
  1

 90
        0
  0
DICTIONARY
  5
14F45
102
{ACAD_REACTORS
330
C
102
}
330
C
100
AcDbDictionary
  3
TSTACKALIGN
350
14F46
  3
TSTACKSIZE
350
14F47
  3
HYPERLINKBASE
350
14F48
  3
STYLESHEET
350
14F49
  3
LAYOUTDICT
350
14F4A
  3
PLOTSETDICT
350
14F4B
  3
PLOTSTYLNAMDICT
350
14F4C
  3
LWETCUNION
350
14F4D
  3
INSUNITS
350
14F4E
  3
CEPSNTYPE
350
14F4F
  3
FINGERPRINTGUID
350
14F50
  3
VERSIONGUID
350
14F51
  3
PSVPSCALE
350
14F52
  3
PUCSORTHOREF
350
14F53
  3
PUCSORTHOVIEW
350
14F54
  3
PUCSBASE
350
14F55
  3
PUCSORGTOP
350
14F56
  3
PUCSORGBOTTOM
350
14F57
  3
PUCSORGLEFT
350
14F58
  3
PUCSORGRIGHT
350
14F59
  3
PUCSORGFRONT
350
14F5A
  3
PUCSORGBACK
350
14F5B
  3
UCSORTHOREF
350
14F5C
  3
UCSORTHOVIEW
350
14F5D
  3
UCSBASE
350
14F5E
  3
UCSORGTOP
350
14F5F
  3
UCSORGBOTTOM
350
14F60
  3
UCSORGLEFT
350
14F61
  3
UCSORGRIGHT
350
14F62
  3
UCSORGFRONT
350
14F63
  3
UCSORGBACK
350
14F64
  0
DICTIONARY
  5
13B79
102
{ACAD_REACTORS
330
13B78
102
}
330
13B78
100
AcDbDictionary
280
     1
  3
BASE
360
13B7A
  3
CASE
360
13B7B
  3
KIKOU
360
13B7C
  0
XRECORD
  5
14F66
102
{ACAD_REACTORS
330
14F65
102
}
330
14F65
100
AcDbXrecord
340
1A
  0
XRECORD
  5
14F68
102
{ACAD_REACTORS
330
14F67
102
}
330
14F67
100
AcDbXrecord
340
5D8E
  0
GROUP
  5
477D
102
{ACAD_REACTORS
330
D
102
}
330
D
100
AcDbGroup
300

 70
     1
 71
     1
  0
GROUP
  5
4C10
102
{ACAD_REACTORS
330
D
102
}
330
D
100
AcDbGroup
300

 70
     1
 71
     1
  0
GROUP
  5
4C11
102
{ACAD_REACTORS
330
D
102
}
330
D
100
AcDbGroup
300

 70
     1
 71
     1
  0
GROUP
  5
4C12
102
{ACAD_REACTORS
330
D
102
}
330
D
100
AcDbGroup
300

 70
     1
 71
     1
  0
GROUP
  5
4C13
102
{ACAD_REACTORS
330
D
102
}
330
D
100
AcDbGroup
300

 70
     1
 71
     1
  0
GROUP
  5
4C14
102
{ACAD_REACTORS
330
D
102
}
330
D
100
AcDbGroup
300

 70
     1
 71
     1
  0
GROUP
  5
4C15
102
{ACAD_REACTORS
330
D
102
}
330
D
100
AcDbGroup
300

 70
     1
 71
     1
  0
GROUP
  5
13997
102
{ACAD_REACTORS
330
D
102
}
330
D
100
AcDbGroup
300

 70
     1
 71
     1
  0
GROUP
  5
13998
102
{ACAD_REACTORS
330
D
102
}
330
D
100
AcDbGroup
300

 70
     1
 71
     1
  0
GROUP
  5
13999
102
{ACAD_REACTORS
330
D
102
}
330
D
100
AcDbGroup
300

 70
     1
 71
     1
  0
GROUP
  5
1399A
102
{ACAD_REACTORS
330
D
102
}
330
D
100
AcDbGroup
300

 70
     1
 71
     1
  0
GROUP
  5
4C16
102
{ACAD_REACTORS
330
D
102
}
330
D
100
AcDbGroup
300

 70
     1
 71
     1
  0
GROUP
  5
1399B
102
{ACAD_REACTORS
330
D
102
}
330
D
100
AcDbGroup
300

 70
     1
 71
     1
  0
GROUP
  5
1399C
102
{ACAD_REACTORS
330
D
102
}
330
D
100
AcDbGroup
300

 70
     1
 71
     1
  0
GROUP
  5
1399D
102
{ACAD_REACTORS
330
D
102
}
330
D
100
AcDbGroup
300

 70
     1
 71
     1
  0
GROUP
  5
1399E
102
{ACAD_REACTORS
330
D
102
}
330
D
100
AcDbGroup
300

 70
     1
 71
     1
  0
GROUP
  5
1399F
102
{ACAD_REACTORS
330
D
102
}
330
D
100
AcDbGroup
300

 70
     1
 71
     1
  0
GROUP
  5
139A0
102
{ACAD_REACTORS
330
D
102
}
330
D
100
AcDbGroup
300

 70
     1
 71
     1
  0
GROUP
  5
139A1
102
{ACAD_REACTORS
330
D
102
}
330
D
100
AcDbGroup
300

 70
     1
 71
     1
  0
GROUP
  5
139A2
102
{ACAD_REACTORS
330
D
102
}
330
D
100
AcDbGroup
300

 70
     1
 71
     1
  0
GROUP
  5
139A3
102
{ACAD_REACTORS
330
D
102
}
330
D
100
AcDbGroup
300

 70
     1
 71
     1
  0
GROUP
  5
139A4
102
{ACAD_REACTORS
330
D
102
}
330
D
100
AcDbGroup
300

 70
     1
 71
     1
  0
GROUP
  5
4C17
102
{ACAD_REACTORS
330
D
102
}
330
D
100
AcDbGroup
300

 70
     1
 71
     1
  0
GROUP
  5
139A5
102
{ACAD_REACTORS
330
D
102
}
330
D
100
AcDbGroup
300

 70
     1
 71
     1
  0
GROUP
  5
477E
102
{ACAD_REACTORS
330
D
102
}
330
D
100
AcDbGroup
300

 70
     1
 71
     1
  0
GROUP
  5
477F
102
{ACAD_REACTORS
330
D
102
}
330
D
100
AcDbGroup
300

 70
     1
 71
     1
  0
GROUP
  5
4780
102
{ACAD_REACTORS
330
D
102
}
330
D
100
AcDbGroup
300

 70
     1
 71
     1
  0
GROUP
  5
4781
102
{ACAD_REACTORS
330
D
102
}
330
D
100
AcDbGroup
300

 70
     1
 71
     1
  0
GROUP
  5
4C0E
102
{ACAD_REACTORS
330
D
102
}
330
D
100
AcDbGroup
300

 70
     1
 71
     1
  0
GROUP
  5
4C0F
102
{ACAD_REACTORS
330
D
102
}
330
D
100
AcDbGroup
300

 70
     1
 71
     1
  0
MLINESTYLE
  5
13
102
{ACAD_REACTORS
330
E
102
}
330
E
100
AcDbMlineStyle
  2
STANDARD
 70
     0
  3

 62
     0
 51
90.0
 52
90.0
 71
     2
 49
0.5
 62
   256
  6
BYLAYER
 49
-0.5
 62
   256
  6
BYLAYER
  0
ACDBPLACEHOLDER
  5
5C7C
102
{ACAD_REACTORS
330
5C7B
102
}
330
5C7B
100
AcDbPlaceHolder
280
     0
  0
XRECORD
  5
14F46
102
{ACAD_REACTORS
330
14F45
102
}
330
14F45
100
AcDbXrecord
 90
        1
  0
XRECORD
  5
14F47
102
{ACAD_REACTORS
330
14F45
102
}
330
14F45
100
AcDbXrecord
 90
       70
  0
XRECORD
  5
14F48
102
{ACAD_REACTORS
330
14F45
102
}
330
14F45
100
AcDbXrecord
  1

  0
XRECORD
  5
14F49
102
{ACAD_REACTORS
330
14F45
102
}
330
14F45
100
AcDbXrecord
  1

  0
XRECORD
  5
14F4A
102
{ACAD_REACTORS
330
14F45
102
}
330
14F45
100
AcDbXrecord
340
5C7D
  0
XRECORD
  5
14F4B
102
{ACAD_REACTORS
330
14F45
102
}
330
14F45
100
AcDbXrecord
340
5C7E
  0
XRECORD
  5
14F4C
102
{ACAD_REACTORS
330
14F45
102
}
330
14F45
100
AcDbXrecord
340
5C7B
  0
XRECORD
  5
14F4D
102
{ACAD_REACTORS
330
14F45
102
}
330
14F45
100
AcDbXrecord
 90
    10781
  0
XRECORD
  5
14F4E
102
{ACAD_REACTORS
330
14F45
102
}
330
14F45
100
AcDbXrecord
 90
        0
  0
XRECORD
  5
14F4F
102
{ACAD_REACTORS
330
14F45
102
}
330
14F45
100
AcDbXrecord
 90
        0
  0
XRECORD
  5
14F50
102
{ACAD_REACTORS
330
14F45
102
}
330
14F45
100
AcDbXrecord
  1
{225A7F0D-DA29-11D8-946A-0000E2416295}
  0
XRECORD
  5
14F51
102
{ACAD_REACTORS
330
14F45
102
}
330
14F45
100
AcDbXrecord
  1
{83CC4F1F-9433-4FDD-AC80-BEAD3D911964}
  0
XRECORD
  5
14F52
102
{ACAD_REACTORS
330
14F45
102
}
330
14F45
100
AcDbXrecord
 40
0.0
  0
XRECORD
  5
14F53
102
{ACAD_REACTORS
330
14F45
102
}
330
14F45
100
AcDbXrecord
340
0
  0
XRECORD
  5
14F54
102
{ACAD_REACTORS
330
14F45
102
}
330
14F45
100
AcDbXrecord
 70
     0
  0
XRECORD
  5
14F55
102
{ACAD_REACTORS
330
14F45
102
}
330
14F45
100
AcDbXrecord
340
0
  0
XRECORD
  5
14F56
102
{ACAD_REACTORS
330
14F45
102
}
330
14F45
100
AcDbXrecord
 10
0.0
 20
0.0
 30
0.0
  0
XRECORD
  5
14F57
102
{ACAD_REACTORS
330
14F45
102
}
330
14F45
100
AcDbXrecord
 10
0.0
 20
0.0
 30
0.0
  0
XRECORD
  5
14F58
102
{ACAD_REACTORS
330
14F45
102
}
330
14F45
100
AcDbXrecord
 10
0.0
 20
0.0
 30
0.0
  0
XRECORD
  5
14F59
102
{ACAD_REACTORS
330
14F45
102
}
330
14F45
100
AcDbXrecord
 10
0.0
 20
0.0
 30
0.0
  0
XRECORD
  5
14F5A
102
{ACAD_REACTORS
330
14F45
102
}
330
14F45
100
AcDbXrecord
 10
0.0
 20
0.0
 30
0.0
  0
XRECORD
  5
14F5B
102
{ACAD_REACTORS
330
14F45
102
}
330
14F45
100
AcDbXrecord
 10
0.0
 20
0.0
 30
0.0
  0
XRECORD
  5
14F5C
102
{ACAD_REACTORS
330
14F45
102
}
330
14F45
100
AcDbXrecord
340
0
  0
XRECORD
  5
14F5D
102
{ACAD_REACTORS
330
14F45
102
}
330
14F45
100
AcDbXrecord
 70
     0
  0
XRECORD
  5
14F5E
102
{ACAD_REACTORS
330
14F45
102
}
330
14F45
100
AcDbXrecord
340
0
  0
XRECORD
  5
14F5F
102
{ACAD_REACTORS
330
14F45
102
}
330
14F45
100
AcDbXrecord
 10
0.0
 20
0.0
 30
0.0
  0
XRECORD
  5
14F60
102
{ACAD_REACTORS
330
14F45
102
}
330
14F45
100
AcDbXrecord
 10
0.0
 20
0.0
 30
0.0
  0
XRECORD
  5
14F61
102
{ACAD_REACTORS
330
14F45
102
}
330
14F45
100
AcDbXrecord
 10
0.0
 20
0.0
 30
0.0
  0
XRECORD
  5
14F62
102
{ACAD_REACTORS
330
14F45
102
}
330
14F45
100
AcDbXrecord
 10
0.0
 20
0.0
 30
0.0
  0
XRECORD
  5
14F63
102
{ACAD_REACTORS
330
14F45
102
}
330
14F45
100
AcDbXrecord
 10
0.0
 20
0.0
 30
0.0
  0
XRECORD
  5
14F64
102
{ACAD_REACTORS
330
14F45
102
}
330
14F45
100
AcDbXrecord
 10
0.0
 20
0.0
 30
0.0
  0
XRECORD
  5
13B7A
102
{ACAD_REACTORS
330
13B79
102
}
330
13B79
100
AcDbXrecord
  1
BASE
  1
BASE*
  1
*
  1
*
 70
     0
  1
*
  1
*
  0
XRECORD
  5
13B7B
102
{ACAD_REACTORS
330
13B79
102
}
330
13B79
100
AcDbXrecord
  1
CASE
  1
CASE*
  1
*
  1
*
 70
     0
  1
*
  1
*
  0
XRECORD
  5
13B7C
102
{ACAD_REACTORS
330
13B79
102
}
330
13B79
100
AcDbXrecord
  1
KIKOU
  1
KIKOU*
  1
*
  1
*
 70
     0
  1
*
  1
*
  0
ENDSEC
  0
EOF
