  0
SECTION
  2
HEADER
  9
$ACADVER
  1
AC1014
  9
$ACADMAINTVER
 70
     9
  9
$DWGCODEPAGE
  3
ANSI_932
  9
$INSBASE
 10
0.0
 20
0.0
 30
0.0
  9
$EXTMIN
 10
-750.6398986203557
 20
1588.158119488945
 30
0.0
  9
$EXTMAX
 10
-593.7686126557736
 20
1777.486859459094
 30
0.0
  9
$LIMMIN
 10
0.0
 20
0.0
  9
$LIMMAX
 10
420.0
 20
297.0
  9
$ORTHOMODE
 70
     1
  9
$REGENMODE
 70
     1
  9
$FILLMODE
 70
     1
  9
$QTEXTMODE
 70
     0
  9
$MIRRTEXT
 70
     1
  9
$DRAGMODE
 70
     2
  9
$LTSCALE
 40
1.0
  9
$OSMODE
 70
    37
  9
$ATTMODE
 70
     1
  9
$TEXTSIZE
 40
2.5
  9
$TRACEWID
 40
1.0
  9
$TEXTSTYLE
  7
ゴシック体
  9
$CLAYER
  8
SUNPOU
  9
$CELTYPE
  6
BYLAYER
  9
$CECOLOR
 62
   256
  9
$CELTSCALE
 40
1.0
  9
$DELOBJ
 70
     1
  9
$DISPSILH
 70
     0
  9
$DIMSCALE
 40
0.0
  9
$DIMASZ
 40
3.0
  9
$DIMEXO
 40
0.5
  9
$DIMDLI
 40
0.5
  9
$DIMRND
 40
0.0
  9
$DIMDLE
 40
0.0
  9
$DIMEXE
 40
0.5
  9
$DIMTP
 40
0.0
  9
$DIMTM
 40
0.0
  9
$DIMTXT
 40
3.5
  9
$DIMCEN
 40
0.0
  9
$DIMTSZ
 40
0.0
  9
$DIMTOL
 70
     0
  9
$DIMLIM
 70
     0
  9
$DIMTIH
 70
     0
  9
$DIMTOH
 70
     0
  9
$DIMSE1
 70
     0
  9
$DIMSE2
 70
     0
  9
$DIMTAD
 70
     1
  9
$DIMZIN
 70
     8
  9
$DIMBLK
  1

  9
$DIMASO
 70
     1
  9
$DIMSHO
 70
     1
  9
$DIMPOST
  1

  9
$DIMAPOST
  1

  9
$DIMALT
 70
     0
  9
$DIMALTD
 70
     2
  9
$DIMALTF
 40
25.4
  9
$DIMLFAC
 40
1.0
  9
$DIMTOFL
 70
     1
  9
$DIMTVP
 40
0.0
  9
$DIMTIX
 70
     0
  9
$DIMSOXD
 70
     0
  9
$DIMSAH
 70
     0
  9
$DIMBLK1
  1

  9
$DIMBLK2
  1

  9
$DIMSTYLE
  2
標準スタイル
  9
$DIMCLRD
 70
     1
  9
$DIMCLRE
 70
     1
  9
$DIMCLRT
 70
     1
  9
$DIMTFAC
 40
1.0
  9
$DIMGAP
 40
1.0
  9
$DIMJUST
 70
     0
  9
$DIMSD1
 70
     0
  9
$DIMSD2
 70
     0
  9
$DIMTOLJ
 70
     1
  9
$DIMTZIN
 70
     8
  9
$DIMALTZ
 70
     0
  9
$DIMALTTZ
 70
     0
  9
$DIMFIT
 70
     3
  9
$DIMUPT
 70
     0
  9
$DIMUNIT
 70
     2
  9
$DIMDEC
 70
     2
  9
$DIMTDEC
 70
     2
  9
$DIMALTU
 70
     2
  9
$DIMALTTD
 70
     2
  9
$DIMTXSTY
  7
ゴシック体
  9
$DIMAUNIT
 70
     0
  9
$LUNITS
 70
     2
  9
$LUPREC
 70
     4
  9
$SKETCHINC
 40
1.0
  9
$FILLETRAD
 40
0.0
  9
$AUNITS
 70
     0
  9
$AUPREC
 70
     0
  9
$MENU
  1
.
  9
$ELEVATION
 40
0.0
  9
$PELEVATION
 40
0.0
  9
$THICKNESS
 40
0.0
  9
$LIMCHECK
 70
     0
  9
$BLIPMODE
 70
     0
  9
$CHAMFERA
 40
10.0
  9
$CHAMFERB
 40
10.0
  9
$CHAMFERC
 40
2.0
  9
$CHAMFERD
 40
0.7853981633974483
  9
$SKPOLY
 70
     0
  9
$TDCREATE
 40
2450495.493631365
  9
$TDUPDATE
 40
2457119.622905995
  9
$TDINDWG
 40
2.0483942361
  9
$TDUSRTIMER
 40
2.0483942361
  9
$USRTIMER
 70
     1
  9
$ANGBASE
 50
0.0
  9
$ANGDIR
 70
     0
  9
$PDMODE
 70
    99
  9
$PDSIZE
 40
0.0
  9
$PLINEWID
 40
0.0
  9
$COORDS
 70
     1
  9
$SPLFRAME
 70
     0
  9
$SPLINETYPE
 70
     6
  9
$SPLINESEGS
 70
     8
  9
$ATTDIA
 70
     0
  9
$ATTREQ
 70
     1
  9
$HANDLING
 70
 10241
  9
$HANDSEED
  5
15BA2
  9
$SURFTAB1
 70
     6
  9
$SURFTAB2
 70
     6
  9
$SURFTYPE
 70
     6
  9
$SURFU
 70
     6
  9
$SURFV
 70
     6
  9
$UCSNAME
  2

  9
$UCSORG
 10
0.0
 20
0.0
 30
0.0
  9
$UCSXDIR
 10
1.0
 20
0.0
 30
0.0
  9
$UCSYDIR
 10
0.0
 20
1.0
 30
0.0
  9
$PUCSNAME
  2

  9
$PUCSORG
 10
0.0
 20
0.0
 30
0.0
  9
$PUCSXDIR
 10
1.0
 20
0.0
 30
0.0
  9
$PUCSYDIR
 10
0.0
 20
1.0
 30
0.0
  9
$USERI1
 70
     0
  9
$USERI2
 70
     0
  9
$USERI3
 70
     0
  9
$USERI4
 70
     0
  9
$USERI5
 70
     0
  9
$USERR1
 40
0.0
  9
$USERR2
 40
0.0
  9
$USERR3
 40
0.0
  9
$USERR4
 40
0.0
  9
$USERR5
 40
0.0
  9
$WORLDVIEW
 70
     1
  9
$SHADEDGE
 70
     3
  9
$SHADEDIF
 70
    70
  9
$TILEMODE
 70
     0
  9
$MAXACTVP
 70
    16
  9
$PINSBASE
 10
0.0
 20
0.0
 30
0.0
  9
$PLIMCHECK
 70
     0
  9
$PEXTMIN
 10
29.02447542650282
 20
27.67824605966541
 30
-0.0015258207003583
  9
$PEXTMAX
 10
414.5544209816264
 20
287.703058030916
 30
0.0000000349246037
  9
$PLIMMIN
 10
11.82072664720594
 20
9.184496326694221
  9
$PLIMMAX
 10
431.7673819206434
 20
306.1951469614598
  9
$UNITMODE
 70
     0
  9
$VISRETAIN
 70
     0
  9
$PLINEGEN
 70
     0
  9
$PSLTSCALE
 70
     1
  9
$TREEDEPTH
 70
  3020
  9
$PICKSTYLE
 70
     1
  9
$CMLSTYLE
  2
STANDARD
  9
$CMLJUST
 70
     0
  9
$CMLSCALE
 40
1.0
  9
$PROXYGRAPHICS
 70
     1
  9
$MEASUREMENT
 70
     1
  0
ENDSEC
  0
SECTION
  2
CLASSES
  0
CLASS
  1
LWPOLYLINE
  2
AcDbPolyline
  3
AutoCAD 2000
 90
        0
280
     0
281
     1
  0
CLASS
  1
HATCH
  2
AcDbHatch
  3
AutoCAD 2000
 90
        0
280
     0
281
     1
  0
CLASS
  1
ACDBDICTIONARYWDFLT
  2
AcDbDictionaryWithDefault
  3
AutoCAD 2000
 90
        0
280
     0
281
     0
  0
CLASS
  1
ACDBPLACEHOLDER
  2
AcDbPlaceHolder
  3
AutoCAD 2000
 90
        0
280
     0
281
     0
  0
CLASS
  1
LAYOUT
  2
AcDbLayout
  3
AutoCAD 2000
 90
        0
280
     0
281
     0
  0
CLASS
  1
LONG_TRANSACTION
  2
AcDbLongTransaction
  3
AutoCAD 2000
 90
        0
280
     0
281
     0
  0
CLASS
  1
LWPOLYLINE
  2
AcDbPolyline
  3
AutoCAD 2000
 90
        0
280
     0
281
     1
  0
CLASS
  1
HATCH
  2
AcDbHatch
  3
AutoCAD 2000
 90
        0
280
     0
281
     1
  0
CLASS
  1
XRECORD
  2
AcDbXrecord
  3
AutoCAD 2000
 90
        0
280
     0
281
     0
  0
ENDSEC
  0
SECTION
  2
TABLES
  0
TABLE
  2
VPORT
  5
8
330
0
100
AcDbSymbolTable
 70
     2
  0
VPORT
  5
15B54
330
8
100
AcDbSymbolTableRecord
100
AcDbViewportTableRecord
  2
*ACTIVE
 70
     0
 10
0.0
 20
0.0
 11
1.0
 21
1.0
 12
-672.2143826467661
 22
1682.816486669542
 13
0.0
 23
0.0
 14
5.0
 24
5.0
 15
0.0
 25
0.0
 16
0.0
 26
0.0
 36
1.0
 17
0.0
 27
0.0
 37
0.0
 40
191.581879926799
 41
1.781954887218045
 42
50.0
 43
0.0
 44
0.0
 50
0.0
 51
0.0
 71
     0
 72
   100
 73
     1
 74
     0
 75
     0
 76
     0
 77
     0
 78
     0
  0
ENDTAB
  0
TABLE
  2
LTYPE
  5
5
330
0
100
AcDbSymbolTable
 70
     3
  0
LTYPE
  5
14
330
5
100
AcDbSymbolTableRecord
100
AcDbLinetypeTableRecord
  2
BYBLOCK
 70
     0
  3

 72
    65
 73
     0
 40
0.0
  0
LTYPE
  5
15
330
5
100
AcDbSymbolTableRecord
100
AcDbLinetypeTableRecord
  2
BYLAYER
 70
     0
  3

 72
    65
 73
     0
 40
0.0
  0
LTYPE
  5
16
330
5
100
AcDbSymbolTableRecord
100
AcDbLinetypeTableRecord
  2
CONTINUOUS
 70
     0
  3
Solid line
 72
    65
 73
     0
 40
0.0
  0
LTYPE
  5
329
330
5
100
AcDbSymbolTableRecord
100
AcDbLinetypeTableRecord
  2
DASHEDX2
 70
     0
  3
____  ____  ____  ____  ____  ____  ____  ____ 
 72
    65
 73
     2
 40
1.5
 49
1.0
 74
     0
 49
-0.5
 74
     0
  0
LTYPE
  5
1956
330
5
100
AcDbSymbolTableRecord
100
AcDbLinetypeTableRecord
  2
CENTERX2
 70
     0
  3
________  __  ________  __  ________  __  _____
 72
    65
 73
     4
 40
4.0
 49
2.5
 74
     0
 49
-0.5
 74
     0
 49
0.5
 74
     0
 49
-0.5
 74
     0
  0
ENDTAB
  0
TABLE
  2
LAYER
  5
2
102
{ACAD_XDICTIONARY
360
130FA
102
}
330
0
100
AcDbSymbolTable
 70
     6
  0
LAYER
  5
F
330
2
100
AcDbSymbolTableRecord
100
AcDbLayerTableRecord
  2
0
 70
     0
 62
     7
  6
CONTINUOUS
  0
LAYER
  5
18F
330
2
100
AcDbSymbolTableRecord
100
AcDbLayerTableRecord
  2
ZISSEN1
 70
     0
 62
     7
  6
CONTINUOUS
  0
LAYER
  5
529
330
2
100
AcDbSymbolTableRecord
100
AcDbLayerTableRecord
  2
SUNPOU
 70
     0
 62
     1
  6
CONTINUOUS
  0
LAYER
  5
1959
330
2
100
AcDbSymbolTableRecord
100
AcDbLayerTableRecord
  2
KAKURESEN1
 70
     0
 62
     3
  6
DASHEDX2
  0
LAYER
  5
195A
330
2
100
AcDbSymbolTableRecord
100
AcDbLayerTableRecord
  2
CL1
 70
     0
 62
   210
  6
CENTERX2
  0
LAYER
  5
3A9B
330
2
100
AcDbSymbolTableRecord
100
AcDbLayerTableRecord
  2
DEFPOINTS
 70
     0
 62
     7
  6
CONTINUOUS
  0
ENDTAB
  0
TABLE
  2
STYLE
  5
3
330
0
100
AcDbSymbolTable
 70
     2
  0
STYLE
  5
10
330
3
100
AcDbSymbolTableRecord
100
AcDbTextStyleTableRecord
  2
STANDARD
 70
     0
 40
0.0
 41
1.0
 50
0.0
 71
     0
 42
3.0
  3
txt
  4
BigFont
  0
STYLE
  5
1960
330
3
100
AcDbSymbolTableRecord
100
AcDbTextStyleTableRecord
  2
ゴシック体
 70
     0
 40
0.0
 41
1.0
 50
0.0
 71
     0
 42
2.5
  3
MS Gothic.ttf
  4

1001
ACAD
1000
MS Gothic
1071
    32817
  0
ENDTAB
  0
TABLE
  2
VIEW
  5
6
330
0
100
AcDbSymbolTable
 70
     0
  0
ENDTAB
  0
TABLE
  2
UCS
  5
7
330
0
100
AcDbSymbolTable
 70
     0
  0
ENDTAB
  0
TABLE
  2
APPID
  5
9
330
0
100
AcDbSymbolTable
 70
    12
  0
APPID
  5
11
330
9
100
AcDbSymbolTableRecord
100
AcDbRegAppTableRecord
  2
ACAD
 70
     0
  0
APPID
  5
4005
330
9
100
AcDbSymbolTableRecord
100
AcDbRegAppTableRecord
  2
CONTENTTABDATA
 70
     0
  0
APPID
  5
4006
330
9
100
AcDbSymbolTableRecord
100
AcDbRegAppTableRecord
  2
CONTENTCURRENTTAB
 70
     0
  0
APPID
  5
477B
330
9
100
AcDbSymbolTableRecord
100
AcDbRegAppTableRecord
  2
CONTENTBLOCKDESCRIPTION
 70
     0
  0
APPID
  5
477C
330
9
100
AcDbSymbolTableRecord
100
AcDbRegAppTableRecord
  2
CONTENTBLOCKICON
 70
     0
  0
APPID
  5
146D3
330
9
100
AcDbSymbolTableRecord
100
AcDbRegAppTableRecord
  2
GENIUS_GENODEF_13
 70
     0
  0
APPID
  5
146D4
330
9
100
AcDbSymbolTableRecord
100
AcDbRegAppTableRecord
  2
GENIUS_GENOBJ-N-FIL_13
 70
     0
  0
APPID
  5
146D5
330
9
100
AcDbSymbolTableRecord
100
AcDbRegAppTableRecord
  2
GENIUS_GENREC_14
 70
     0
  0
APPID
  5
146D6
330
9
100
AcDbSymbolTableRecord
100
AcDbRegAppTableRecord
  2
GENIUS_GENOBJ-N-REC_13
 70
     0
  0
APPID
  5
146D7
330
9
100
AcDbSymbolTableRecord
100
AcDbRegAppTableRecord
  2
GENIUS_GENOREF_13
 70
     0
  0
APPID
  5
146D8
330
9
100
AcDbSymbolTableRecord
100
AcDbRegAppTableRecord
  2
GENIUS_GENOBJ-N-CEN_13
 70
     0
  0
APPID
  5
146D9
330
9
100
AcDbSymbolTableRecord
100
AcDbRegAppTableRecord
  2
GENIUS_GENCEN_19
 70
     0
  0
ENDTAB
  0
TABLE
  2
DIMSTYLE
  5
A
330
0
100
AcDbSymbolTable
 70
     2
  0
DIMSTYLE
105
1D
330
A
100
AcDbSymbolTableRecord
100
AcDbDimStyleTableRecord
  2
STANDARD
 70
     0
  3

  4

  5

  6

  7

 40
1.0
 41
0.18
 42
0.0625
 43
0.38
 44
0.18
 45
0.0
 46
0.0
 47
0.0
 48
0.0
140
0.18
141
0.09
142
0.0
143
25.4
144
1.0
145
0.0
146
1.0
147
0.09
 71
     0
 72
     0
 73
     1
 74
     1
 75
     0
 76
     0
 77
     0
 78
     0
170
     0
171
     2
172
     0
173
     0
174
     0
175
     0
176
     0
177
     0
178
     0
270
     2
271
     4
272
     4
273
     2
274
     2
340
10
275
     0
280
     0
281
     0
282
     0
283
     1
284
     0
285
     0
286
     0
287
     3
288
     0
  0
DIMSTYLE
105
52E
102
{ACAD_REACTORS
330
158BE
330
158FD
330
1590A
330
15926
330
15982
330
1598F
330
159B5
330
159D4
330
15A10
330
15A1D
330
15A39
330
159A1
330
15A2A
330
15A46
330
15917
330
15933
330
15B10
102
}
330
A
100
AcDbSymbolTableRecord
100
AcDbDimStyleTableRecord
  2
標準スタイル
 70
     0
  3

  4

  5

  6

  7

 40
0.0
 41
3.0
 42
0.5
 43
0.5
 44
0.5
 45
0.0
 46
0.0
 47
0.0
 48
0.0
140
3.5
141
0.0
142
0.0
143
25.4
144
1.0
145
0.0
146
1.0
147
1.0
 71
     0
 72
     0
 73
     0
 74
     0
 75
     0
 76
     0
 77
     1
 78
     8
170
     0
171
     2
172
     1
173
     0
174
     0
175
     0
176
     1
177
     1
178
     1
270
     2
271
     2
272
     2
273
     2
274
     2
340
1960
275
     0
280
     0
281
     0
282
     0
283
     1
284
     8
285
     0
286
     0
287
     3
288
     0
  0
ENDTAB
  0
TABLE
  2
BLOCK_RECORD
  5
1
330
0
100
AcDbSymbolTable
 70
    18
  0
BLOCK_RECORD
  5
1A
102
{ACAD_XDICTIONARY
360
15B75
102
}
330
1
100
AcDbSymbolTableRecord
100
AcDbBlockTableRecord
  2
*MODEL_SPACE
  0
BLOCK_RECORD
  5
5D8E
102
{ACAD_XDICTIONARY
360
15B77
102
}
330
1
100
AcDbSymbolTableRecord
100
AcDbBlockTableRecord
  2
*PAPER_SPACE
  0
BLOCK_RECORD
  5
158BF
330
1
100
AcDbSymbolTableRecord
100
AcDbBlockTableRecord
  2
*D0
  0
BLOCK_RECORD
  5
158FE
330
1
100
AcDbSymbolTableRecord
100
AcDbBlockTableRecord
  2
*D2
  0
BLOCK_RECORD
  5
1590B
330
1
100
AcDbSymbolTableRecord
100
AcDbBlockTableRecord
  2
*D3
  0
BLOCK_RECORD
  5
15918
330
1
100
AcDbSymbolTableRecord
100
AcDbBlockTableRecord
  2
*D4
  0
BLOCK_RECORD
  5
15927
330
1
100
AcDbSymbolTableRecord
100
AcDbBlockTableRecord
  2
*D5
  0
BLOCK_RECORD
  5
15934
330
1
100
AcDbSymbolTableRecord
100
AcDbBlockTableRecord
  2
*D6
  0
BLOCK_RECORD
  5
15983
330
1
100
AcDbSymbolTableRecord
100
AcDbBlockTableRecord
  2
*D7
  0
BLOCK_RECORD
  5
15990
330
1
100
AcDbSymbolTableRecord
100
AcDbBlockTableRecord
  2
*D8
  0
BLOCK_RECORD
  5
159A2
330
1
100
AcDbSymbolTableRecord
100
AcDbBlockTableRecord
  2
*D9
  0
BLOCK_RECORD
  5
159B6
330
1
100
AcDbSymbolTableRecord
100
AcDbBlockTableRecord
  2
*D10
  0
BLOCK_RECORD
  5
159D5
330
1
100
AcDbSymbolTableRecord
100
AcDbBlockTableRecord
  2
*D11
  0
BLOCK_RECORD
  5
15A11
330
1
100
AcDbSymbolTableRecord
100
AcDbBlockTableRecord
  2
*D12
  0
BLOCK_RECORD
  5
15A1E
330
1
100
AcDbSymbolTableRecord
100
AcDbBlockTableRecord
  2
*D13
  0
BLOCK_RECORD
  5
15A2B
330
1
100
AcDbSymbolTableRecord
100
AcDbBlockTableRecord
  2
*D14
  0
BLOCK_RECORD
  5
15A3A
330
1
100
AcDbSymbolTableRecord
100
AcDbBlockTableRecord
  2
*D15
  0
BLOCK_RECORD
  5
15A47
330
1
100
AcDbSymbolTableRecord
100
AcDbBlockTableRecord
  2
*D16
  0
BLOCK_RECORD
  5
15B11
330
1
100
AcDbSymbolTableRecord
100
AcDbBlockTableRecord
  2
*D17
  0
ENDTAB
  0
ENDSEC
  0
SECTION
  2
BLOCKS
  0
BLOCK
  5
1B
330
1A
100
AcDbEntity
  8
0
100
AcDbBlockBegin
  2
*MODEL_SPACE
 70
     0
 10
0.0
 20
0.0
 30
0.0
  3
*MODEL_SPACE
  1

  0
ENDBLK
  5
1C
330
1A
100
AcDbEntity
  8
0
100
AcDbBlockEnd
  0
BLOCK
  5
5E60
330
5D8E
100
AcDbEntity
 67
     1
  8
0
100
AcDbBlockBegin
  2
*PAPER_SPACE
 70
     0
 10
0.0
 20
0.0
 30
0.0
  3
*PAPER_SPACE
  1

  0
ENDBLK
  5
5E61
330
5D8E
100
AcDbEntity
 67
     1
  8
0
100
AcDbBlockEnd
  0
BLOCK
  5
158C9
330
158BF
100
AcDbEntity
  8
0
100
AcDbBlockBegin
  2
*D0
 70
     1
 10
0.0
 20
0.0
 30
0.0
  3
*D0
  1

  0
LINE
  5
158CB
330
158BF
100
AcDbEntity
  8
SUNPOU
 62
     1
100
AcDbLine
 10
-733.8898986203558
 20
1741.664424949756
 30
0.0
 11
-742.5289326887111
 21
1741.664424949756
 31
0.0
  0
LINE
  5
158CC
330
158BF
100
AcDbEntity
  8
SUNPOU
 62
     1
100
AcDbLine
 10
-733.8898986203558
 20
1656.664424949756
 30
0.0
 11
-742.5289326887111
 21
1656.664424949756
 31
0.0
  0
LINE
  5
158CD
330
158BF
100
AcDbEntity
  8
SUNPOU
 62
     1
100
AcDbLine
 10
-742.0289326887111
 20
1738.664424949756
 30
0.0
 11
-742.0289326887111
 21
1659.664424949756
 31
0.0
  0
SOLID
  5
158CE
330
158BF
100
AcDbEntity
  8
SUNPOU
 62
     1
100
AcDbTrace
 10
-742.5289326887111
 20
1738.664424949756
 30
0.0
 11
-741.5289326887111
 21
1738.664424949756
 31
0.0
 12
-742.0289326887111
 22
1741.664424949756
 32
0.0
 13
-742.0289326887111
 23
1741.664424949756
 33
0.0
  0
SOLID
  5
158CF
330
158BF
100
AcDbEntity
  8
SUNPOU
 62
     1
100
AcDbTrace
 10
-742.5289326887111
 20
1659.664424949756
 30
0.0
 11
-741.5289326887111
 21
1659.664424949756
 31
0.0
 12
-742.0289326887111
 22
1656.664424949756
 32
0.0
 13
-742.0289326887111
 23
1656.664424949756
 33
0.0
  0
MTEXT
  5
158D0
330
158BF
100
AcDbEntity
  8
SUNPOU
 62
     1
100
AcDbMText
 10
-744.7789326887114
 20
1699.164424949756
 30
0.0
 40
3.5
 41
0.0
 71
     5
 72
     1
  1
\A1;85
 11
0.0000000000000001
 21
1.0
 31
0.0
1001
ACAD
1000
MTEXTBEGIN
1070
    73
1070
     1
1070
    44
1040
1.0
1070
    74
1070
     0
1000
MTEXTEND
  0
POINT
  5
158D1
330
158BF
100
AcDbEntity
  8
DEFPOINTS
 62
     0
100
AcDbPoint
 10
-733.3898986203557
 20
1741.664424949756
 30
0.0
  0
POINT
  5
158D2
330
158BF
100
AcDbEntity
  8
DEFPOINTS
 62
     0
100
AcDbPoint
 10
-733.3898986203557
 20
1656.664424949756
 30
0.0
  0
POINT
  5
158D3
330
158BF
100
AcDbEntity
  8
DEFPOINTS
 62
     0
100
AcDbPoint
 10
-742.0289326887111
 20
1656.664424949756
 30
0.0
  0
ENDBLK
  5
158CA
330
158BF
100
AcDbEntity
  8
0
100
AcDbBlockEnd
  0
BLOCK
  5
15908
330
158FE
100
AcDbEntity
  8
0
100
AcDbBlockBegin
  2
*D2
 70
     1
 10
0.0
 20
0.0
 30
0.0
  3
*D2
  1

  0
LINE
  5
15957
330
158FE
100
AcDbEntity
  8
SUNPOU
 62
     1
100
AcDbLine
 10
-656.3898986203557
 20
1741.164424949756
 30
0.0
 11
-656.3898986203557
 21
1748.667249838645
 31
0.0
  0
LINE
  5
15958
330
158FE
100
AcDbEntity
  8
SUNPOU
 62
     1
100
AcDbLine
 10
-720.8898986203557
 20
1742.164424949756
 30
0.0
 11
-720.8898986203557
 21
1748.667249838645
 31
0.0
  0
LINE
  5
15959
330
158FE
100
AcDbEntity
  8
SUNPOU
 62
     1
100
AcDbLine
 10
-659.3898986203558
 20
1748.167249838645
 30
0.0
 11
-717.8898986203558
 21
1748.167249838645
 31
0.0
  0
SOLID
  5
1595A
330
158FE
100
AcDbEntity
  8
SUNPOU
 62
     1
100
AcDbTrace
 10
-659.3898986203558
 20
1748.667249838645
 30
0.0
 11
-659.3898986203558
 21
1747.667249838645
 31
0.0
 12
-656.3898986203557
 22
1748.167249838645
 32
0.0
 13
-656.3898986203557
 23
1748.167249838645
 33
0.0
  0
SOLID
  5
1595B
330
158FE
100
AcDbEntity
  8
SUNPOU
 62
     1
100
AcDbTrace
 10
-717.8898986203558
 20
1748.667249838645
 30
0.0
 11
-717.8898986203558
 21
1747.667249838645
 31
0.0
 12
-720.8898986203557
 22
1748.167249838645
 32
0.0
 13
-720.8898986203557
 23
1748.167249838645
 33
0.0
  0
MTEXT
  5
1595C
330
158FE
100
AcDbEntity
  8
SUNPOU
 62
     1
100
AcDbMText
 10
-688.6398986203557
 20
1750.917249838645
 30
0.0
 40
3.5
 41
0.0
 71
     5
 72
     1
  1
\A1;64.5
1001
ACAD
1000
MTEXTBEGIN
1070
    73
1070
     1
1070
    44
1040
1.0
1070
    74
1070
     0
1000
MTEXTEND
  0
POINT
  5
1595D
330
158FE
100
AcDbEntity
  8
DEFPOINTS
 62
     0
100
AcDbPoint
 10
-656.3898986203557
 20
1740.664424949756
 30
0.0
  0
POINT
  5
1595E
330
158FE
100
AcDbEntity
  8
DEFPOINTS
 62
     0
100
AcDbPoint
 10
-720.8898986203557
 20
1741.664424949756
 30
0.0
  0
POINT
  5
1595F
330
158FE
100
AcDbEntity
  8
DEFPOINTS
 62
     0
100
AcDbPoint
 10
-720.8898986203557
 20
1748.167249838645
 30
0.0
  0
ENDBLK
  5
15909
330
158FE
100
AcDbEntity
  8
0
100
AcDbBlockEnd
  0
BLOCK
  5
15915
330
1590B
100
AcDbEntity
  8
0
100
AcDbBlockBegin
  2
*D3
 70
     1
 10
0.0
 20
0.0
 30
0.0
  3
*D3
  1

  0
LINE
  5
15B79
330
1590B
100
AcDbEntity
  8
SUNPOU
 62
     1
100
AcDbLine
 10
-720.8898986203557
 20
1742.164424949756
 30
0.0
 11
-720.8898986203557
 21
1748.667249838645
 31
0.0
  0
LINE
  5
15B7A
330
1590B
100
AcDbEntity
  8
SUNPOU
 62
     1
100
AcDbLine
 10
-733.3898986203557
 20
1741.164424949756
 30
0.0
 11
-733.3898986203557
 21
1748.667249838645
 31
0.0
  0
LINE
  5
15B7B
330
1590B
100
AcDbEntity
  8
SUNPOU
 62
     1
100
AcDbLine
 10
-723.8898986203557
 20
1748.167249838645
 30
0.0
 11
-730.3898986203558
 21
1748.167249838645
 31
0.0
  0
SOLID
  5
15B7C
330
1590B
100
AcDbEntity
  8
SUNPOU
 62
     1
100
AcDbTrace
 10
-723.8898986203557
 20
1748.667249838645
 30
0.0
 11
-723.8898986203557
 21
1747.667249838645
 31
0.0
 12
-720.8898986203557
 22
1748.167249838645
 32
0.0
 13
-720.8898986203557
 23
1748.167249838645
 33
0.0
  0
SOLID
  5
15B7D
330
1590B
100
AcDbEntity
  8
SUNPOU
 62
     1
100
AcDbTrace
 10
-730.3898986203558
 20
1748.667249838645
 30
0.0
 11
-730.3898986203558
 21
1747.667249838645
 31
0.0
 12
-733.3898986203557
 22
1748.167249838645
 32
0.0
 13
-733.3898986203557
 23
1748.167249838645
 33
0.0
  0
MTEXT
  5
15B7E
330
1590B
100
AcDbEntity
  8
SUNPOU
 62
     1
100
AcDbMText
 10
-727.1398986203557
 20
1750.917249838645
 30
0.0
 40
3.5
 41
0.0
 71
     5
 72
     1
  1
\A1;12.5
  0
POINT
  5
15B7F
330
1590B
100
AcDbEntity
  8
DEFPOINTS
 62
     0
100
AcDbPoint
 10
-720.8898986203557
 20
1741.664424949756
 30
0.0
  0
POINT
  5
15B80
330
1590B
100
AcDbEntity
  8
DEFPOINTS
 62
     0
100
AcDbPoint
 10
-733.3898986203557
 20
1740.664424949756
 30
0.0
  0
POINT
  5
15B81
330
1590B
100
AcDbEntity
  8
DEFPOINTS
 62
     0
100
AcDbPoint
 10
-733.3898986203557
 20
1748.167249838645
 30
0.0
  0
ENDBLK
  5
15916
330
1590B
100
AcDbEntity
  8
0
100
AcDbBlockEnd
  0
BLOCK
  5
15924
330
15918
100
AcDbEntity
  8
0
100
AcDbBlockBegin
  2
*D4
 70
     1
 10
0.0
 20
0.0
 30
0.0
  3
*D4
  1

  0
LINE
  5
15AE9
330
15918
100
AcDbEntity
  8
SUNPOU
 62
     1
100
AcDbLine
 10
-656.8898986203557
 20
1741.664424949756
 30
0.0
 11
-648.0423749746058
 21
1741.664424949756
 31
0.0
  0
LINE
  5
15AEA
330
15918
100
AcDbEntity
  8
SUNPOU
 62
     1
100
AcDbLine
 10
-717.1158548095959
 20
1739.164424949756
 30
0.0
 11
-648.0423749746058
 21
1739.164424949756
 31
0.0
  0
LINE
  5
15AEB
330
15918
100
AcDbEntity
  8
SUNPOU
 62
     1
100
AcDbLine
 10
-648.5423749746058
 20
1736.164424949756
 30
0.0
 11
-648.5423749746058
 21
1733.164424949756
 31
0.0
  0
LINE
  5
15AEC
330
15918
100
AcDbEntity
  8
SUNPOU
 62
     1
100
AcDbLine
 10
-648.5423749746058
 20
1744.664424949756
 30
0.0
 11
-648.5423749746058
 21
1756.664424949756
 31
0.0
  0
LINE
  5
15AED
330
15918
100
AcDbEntity
  8
SUNPOU
 62
     1
100
AcDbLine
 10
-648.5423749746058
 20
1739.164424949756
 30
0.0
 11
-648.5423749746058
 21
1741.664424949756
 31
0.0
  0
SOLID
  5
15AEE
330
15918
100
AcDbEntity
  8
SUNPOU
 62
     1
100
AcDbTrace
 10
-649.0423749746057
 20
1736.164424949756
 30
0.0
 11
-648.0423749746058
 21
1736.164424949756
 31
0.0
 12
-648.5423749746058
 22
1739.164424949756
 32
0.0
 13
-648.5423749746058
 23
1739.164424949756
 33
0.0
  0
SOLID
  5
15AEF
330
15918
100
AcDbEntity
  8
SUNPOU
 62
     1
100
AcDbTrace
 10
-649.0423749746057
 20
1744.664424949756
 30
0.0
 11
-648.0423749746058
 21
1744.664424949756
 31
0.0
 12
-648.5423749746058
 22
1741.664424949756
 32
0.0
 13
-648.5423749746058
 23
1741.664424949756
 33
0.0
  0
MTEXT
  5
15AF0
330
15918
100
AcDbEntity
  8
SUNPOU
 62
     1
100
AcDbMText
 10
-651.2923749746059
 20
1752.164424949756
 30
0.0
 40
3.5
 41
0.0
 71
     5
 72
     1
  1
\A1;2.5
 11
0.0000000000000001
 21
1.0
 31
0.0
1001
ACAD
1000
MTEXTBEGIN
1070
    73
1070
     1
1070
    44
1040
1.0
1070
    74
1070
     0
1000
MTEXTEND
  0
POINT
  5
15AF1
330
15918
100
AcDbEntity
  8
DEFPOINTS
 62
     0
100
AcDbPoint
 10
-657.3898986203557
 20
1741.664424949756
 30
0.0
  0
POINT
  5
15AF2
330
15918
100
AcDbEntity
  8
DEFPOINTS
 62
     0
100
AcDbPoint
 10
-717.6158548095959
 20
1739.164424949756
 30
0.0
  0
POINT
  5
15AF3
330
15918
100
AcDbEntity
  8
DEFPOINTS
 62
     0
100
AcDbPoint
 10
-648.5423749746058
 20
1739.164424949756
 30
0.0
  0
ENDBLK
  5
15925
330
15918
100
AcDbEntity
  8
0
100
AcDbBlockEnd
  0
BLOCK
  5
15931
330
15927
100
AcDbEntity
  8
0
100
AcDbBlockBegin
  2
*D5
 70
     1
 10
0.0
 20
0.0
 30
0.0
  3
*D5
  1

  0
LINE
  5
15B82
330
15927
100
AcDbEntity
  8
SUNPOU
 62
     1
100
AcDbLine
 10
-717.1158548095959
 20
1739.164424949756
 30
0.0
 11
-648.034938538746
 21
1739.164424949756
 31
0.0
  0
LINE
  5
15B83
330
15927
100
AcDbEntity
  8
SUNPOU
 62
     1
100
AcDbLine
 10
-717.1158548095959
 20
1659.164424949756
 30
0.0
 11
-648.034938538746
 21
1659.164424949756
 31
0.0
  0
LINE
  5
15B84
330
15927
100
AcDbEntity
  8
SUNPOU
 62
     1
100
AcDbLine
 10
-648.5349385387459
 20
1736.164424949756
 30
0.0
 11
-648.5349385387459
 21
1662.164424949756
 31
0.0
  0
SOLID
  5
15B85
330
15927
100
AcDbEntity
  8
SUNPOU
 62
     1
100
AcDbTrace
 10
-649.034938538746
 20
1736.164424949756
 30
0.0
 11
-648.034938538746
 21
1736.164424949756
 31
0.0
 12
-648.5349385387459
 22
1739.164424949756
 32
0.0
 13
-648.5349385387459
 23
1739.164424949756
 33
0.0
  0
SOLID
  5
15B86
330
15927
100
AcDbEntity
  8
SUNPOU
 62
     1
100
AcDbTrace
 10
-649.034938538746
 20
1662.164424949756
 30
0.0
 11
-648.034938538746
 21
1662.164424949756
 31
0.0
 12
-648.5349385387459
 22
1659.164424949756
 32
0.0
 13
-648.5349385387459
 23
1659.164424949756
 33
0.0
  0
MTEXT
  5
15B87
330
15927
100
AcDbEntity
  8
SUNPOU
 62
     1
100
AcDbMText
 10
-651.2849385387462
 20
1699.164424949756
 30
0.0
 40
3.5
 41
0.0
 71
     5
 72
     1
  1
\A1;80
 11
0.0000000000000001
 21
1.0
 31
0.0
  0
POINT
  5
15B88
330
15927
100
AcDbEntity
  8
DEFPOINTS
 62
     0
100
AcDbPoint
 10
-717.6158548095959
 20
1739.164424949756
 30
0.0
  0
POINT
  5
15B89
330
15927
100
AcDbEntity
  8
DEFPOINTS
 62
     0
100
AcDbPoint
 10
-717.6158548095959
 20
1659.164424949756
 30
0.0
  0
POINT
  5
15B8A
330
15927
100
AcDbEntity
  8
DEFPOINTS
 62
     0
100
AcDbPoint
 10
-648.5349385387459
 20
1659.164424949756
 30
0.0
  0
ENDBLK
  5
15932
330
15927
100
AcDbEntity
  8
0
100
AcDbBlockEnd
  0
BLOCK
  5
15943
330
15934
100
AcDbEntity
  8
0
100
AcDbBlockBegin
  2
*D6
 70
     1
 10
0.0
 20
0.0
 30
0.0
  3
*D6
  1

  0
LINE
  5
15AFF
330
15934
100
AcDbEntity
  8
SUNPOU
 62
     1
100
AcDbLine
 10
-717.1158548095959
 20
1659.164424949756
 30
0.0
 11
-648.0543315447953
 21
1659.164424949756
 31
0.0
  0
LINE
  5
15B00
330
15934
100
AcDbEntity
  8
SUNPOU
 62
     1
100
AcDbLine
 10
-656.8898986203557
 20
1656.664424949756
 30
0.0
 11
-648.0543315447953
 21
1656.664424949756
 31
0.0
  0
LINE
  5
15B01
330
15934
100
AcDbEntity
  8
SUNPOU
 62
     1
100
AcDbLine
 10
-648.5543315447953
 20
1662.164424949756
 30
0.0
 11
-648.5543315447953
 21
1665.164424949756
 31
0.0
  0
LINE
  5
15B02
330
15934
100
AcDbEntity
  8
SUNPOU
 62
     1
100
AcDbLine
 10
-648.5543315447953
 20
1653.664424949756
 30
0.0
 11
-648.5543315447953
 21
1641.664424949756
 31
0.0
  0
LINE
  5
15B03
330
15934
100
AcDbEntity
  8
SUNPOU
 62
     1
100
AcDbLine
 10
-648.5543315447953
 20
1659.164424949756
 30
0.0
 11
-648.5543315447953
 21
1656.664424949756
 31
0.0
  0
SOLID
  5
15B04
330
15934
100
AcDbEntity
  8
SUNPOU
 62
     1
100
AcDbTrace
 10
-649.0543315447953
 20
1662.164424949756
 30
0.0
 11
-648.0543315447953
 21
1662.164424949756
 31
0.0
 12
-648.5543315447953
 22
1659.164424949756
 32
0.0
 13
-648.5543315447953
 23
1659.164424949756
 33
0.0
  0
SOLID
  5
15B05
330
15934
100
AcDbEntity
  8
SUNPOU
 62
     1
100
AcDbTrace
 10
-649.0543315447953
 20
1653.664424949756
 30
0.0
 11
-648.0543315447953
 21
1653.664424949756
 31
0.0
 12
-648.5543315447953
 22
1656.664424949756
 32
0.0
 13
-648.5543315447953
 23
1656.664424949756
 33
0.0
  0
MTEXT
  5
15B06
330
15934
100
AcDbEntity
  8
SUNPOU
 62
     1
100
AcDbMText
 10
-651.3043315447955
 20
1646.164424949756
 30
0.0
 40
3.5
 41
0.0
 71
     5
 72
     1
  1
\A1;2.5
 11
0.0000000000000001
 21
1.0
 31
0.0
1001
ACAD
1000
MTEXTBEGIN
1070
    73
1070
     1
1070
    44
1040
1.0
1070
    74
1070
     0
1000
MTEXTEND
  0
POINT
  5
15B07
330
15934
100
AcDbEntity
  8
DEFPOINTS
 62
     0
100
AcDbPoint
 10
-717.6158548095959
 20
1659.164424949756
 30
0.0
  0
POINT
  5
15B08
330
15934
100
AcDbEntity
  8
DEFPOINTS
 62
     0
100
AcDbPoint
 10
-657.3898986203557
 20
1656.664424949756
 30
0.0
  0
POINT
  5
15B09
330
15934
100
AcDbEntity
  8
DEFPOINTS
 62
     0
100
AcDbPoint
 10
-648.5543315447953
 20
1656.664424949756
 30
0.0
  0
ENDBLK
  5
15944
330
15934
100
AcDbEntity
  8
0
100
AcDbBlockEnd
  0
BLOCK
  5
1598D
330
15983
100
AcDbEntity
  8
0
100
AcDbBlockBegin
  2
*D7
 70
     1
 10
0.0
 20
0.0
 30
0.0
  3
*D7
  1

  0
LINE
  5
15A07
330
15983
100
AcDbEntity
  8
SUNPOU
 62
     1
100
AcDbLine
 10
-656.3898986203557
 20
1657.164424949756
 30
0.0
 11
-656.3898986203557
 21
1646.629946129795
 31
0.0
  0
LINE
  5
15A08
330
15983
100
AcDbEntity
  8
SUNPOU
 62
     1
100
AcDbLine
 10
-719.1398986203558
 20
1656.164424949756
 30
0.0
 11
-719.1398986203558
 21
1646.629946129795
 31
0.0
  0
LINE
  5
15A09
330
15983
100
AcDbEntity
  8
SUNPOU
 62
     1
100
AcDbLine
 10
-659.3898986203558
 20
1647.129946129795
 30
0.0
 11
-716.1398986203558
 21
1647.129946129795
 31
0.0
  0
SOLID
  5
15A0A
330
15983
100
AcDbEntity
  8
SUNPOU
 62
     1
100
AcDbTrace
 10
-659.3898986203558
 20
1647.629946129795
 30
0.0
 11
-659.3898986203558
 21
1646.629946129795
 31
0.0
 12
-656.3898986203557
 22
1647.129946129795
 32
0.0
 13
-656.3898986203557
 23
1647.129946129795
 33
0.0
  0
SOLID
  5
15A0B
330
15983
100
AcDbEntity
  8
SUNPOU
 62
     1
100
AcDbTrace
 10
-716.1398986203558
 20
1647.629946129795
 30
0.0
 11
-716.1398986203558
 21
1646.629946129795
 31
0.0
 12
-719.1398986203558
 22
1647.129946129795
 32
0.0
 13
-719.1398986203558
 23
1647.129946129795
 33
0.0
  0
MTEXT
  5
15A0C
330
15983
100
AcDbEntity
  8
SUNPOU
 62
     1
100
AcDbMText
 10
-687.7648986203557
 20
1649.879946129795
 30
0.0
 40
3.5
 41
0.0
 71
     5
 72
     1
  1
\A1;62.75
1001
ACAD
1000
MTEXTBEGIN
1070
    73
1070
     1
1070
    44
1040
1.0
1070
    74
1070
     0
1000
MTEXTEND
  0
POINT
  5
15A0D
330
15983
100
AcDbEntity
  8
DEFPOINTS
 62
     0
100
AcDbPoint
 10
-656.3898986203557
 20
1657.664424949756
 30
0.0
  0
POINT
  5
15A0E
330
15983
100
AcDbEntity
  8
DEFPOINTS
 62
     0
100
AcDbPoint
 10
-719.1398986203558
 20
1656.664424949756
 30
0.0
  0
POINT
  5
15A0F
330
15983
100
AcDbEntity
  8
DEFPOINTS
 62
     0
100
AcDbPoint
 10
-719.1398986203558
 20
1647.129946129795
 30
0.0
  0
ENDBLK
  5
1598E
330
15983
100
AcDbEntity
  8
0
100
AcDbBlockEnd
  0
BLOCK
  5
1599F
330
15990
100
AcDbEntity
  8
0
100
AcDbBlockBegin
  2
*D8
 70
     1
 10
0.0
 20
0.0
 30
0.0
  3
*D8
  1

  0
LINE
  5
15B8B
330
15990
100
AcDbEntity
  8
SUNPOU
 62
     1
100
AcDbLine
 10
-719.1398986203558
 20
1656.164424949756
 30
0.0
 11
-719.1398986203558
 21
1646.629946129795
 31
0.0
  0
LINE
  5
15B8C
330
15990
100
AcDbEntity
  8
SUNPOU
 62
     1
100
AcDbLine
 10
-722.6398986203557
 20
1656.164424949756
 30
0.0
 11
-722.6398986203557
 21
1646.629946129795
 31
0.0
  0
LINE
  5
15B8D
330
15990
100
AcDbEntity
  8
SUNPOU
 62
     1
100
AcDbLine
 10
-716.1398986203558
 20
1647.129946129795
 30
0.0
 11
-713.1398986203557
 21
1647.129946129795
 31
0.0
  0
LINE
  5
15B8E
330
15990
100
AcDbEntity
  8
SUNPOU
 62
     1
100
AcDbLine
 10
-725.6398986203557
 20
1647.129946129795
 30
0.0
 11
-728.6398986203558
 21
1647.129946129795
 31
0.0
  0
LINE
  5
15B8F
330
15990
100
AcDbEntity
  8
SUNPOU
 62
     1
100
AcDbLine
 10
-720.8898986203557
 20
1647.129946129795
 30
0.0
 11
-718.7148986203558
 21
1639.879946129795
 31
0.0
  0
LINE
  5
15B90
330
15990
100
AcDbEntity
  8
SUNPOU
 62
     1
100
AcDbLine
 10
-718.7148986203558
 20
1639.879946129795
 30
0.0
 11
-709.7148986203558
 21
1639.879946129795
 31
0.0
  0
MTEXT
  5
15B91
330
15990
100
AcDbEntity
  8
SUNPOU
 62
     1
100
AcDbMText
 10
-714.2148986203558
 20
1642.629946129795
 30
0.0
 40
3.5
 41
0.0
 71
     5
 72
     1
  1
\A1;3.5
  0
LINE
  5
15B92
330
15990
100
AcDbEntity
  8
SUNPOU
 62
     1
100
AcDbLine
 10
-719.1398986203558
 20
1647.129946129795
 30
0.0
 11
-722.6398986203557
 21
1647.129946129795
 31
0.0
  0
LINE
  5
15B93
330
15990
100
AcDbEntity
  8
SUNPOU
 62
     1
100
AcDbLine
 10
-719.1398986203558
 20
1647.129946129795
 30
0.0
 11
-722.6398986203557
 21
1647.129946129795
 31
0.0
  0
SOLID
  5
15B94
330
15990
100
AcDbEntity
  8
SUNPOU
 62
     1
100
AcDbTrace
 10
-716.1398986203558
 20
1647.629946129795
 30
0.0
 11
-716.1398986203558
 21
1646.629946129795
 31
0.0
 12
-719.1398986203558
 22
1647.129946129795
 32
0.0
 13
-719.1398986203558
 23
1647.129946129795
 33
0.0
  0
SOLID
  5
15B95
330
15990
100
AcDbEntity
  8
SUNPOU
 62
     1
100
AcDbTrace
 10
-725.6398986203557
 20
1647.629946129795
 30
0.0
 11
-725.6398986203557
 21
1646.629946129795
 31
0.0
 12
-722.6398986203557
 22
1647.129946129795
 32
0.0
 13
-722.6398986203557
 23
1647.129946129795
 33
0.0
  0
POINT
  5
15B96
330
15990
100
AcDbEntity
  8
DEFPOINTS
 62
     0
100
AcDbPoint
 10
-719.1398986203558
 20
1656.664424949756
 30
0.0
  0
POINT
  5
15B97
330
15990
100
AcDbEntity
  8
DEFPOINTS
 62
     0
100
AcDbPoint
 10
-722.6398986203557
 20
1656.664424949756
 30
0.0
  0
POINT
  5
15B98
330
15990
100
AcDbEntity
  8
DEFPOINTS
 62
     0
100
AcDbPoint
 10
-722.6398986203557
 20
1647.129946129795
 30
0.0
  0
ENDBLK
  5
159A0
330
15990
100
AcDbEntity
  8
0
100
AcDbBlockEnd
  0
BLOCK
  5
159AE
330
159A2
100
AcDbEntity
  8
0
100
AcDbBlockBegin
  2
*D9
 70
     1
 10
0.0
 20
0.0
 30
0.0
  3
*D9
  1

  0
LINE
  5
15A9C
330
159A2
100
AcDbEntity
  8
SUNPOU
 62
     1
100
AcDbLine
 10
-722.6398986203557
 20
1656.164424949756
 30
0.0
 11
-722.6398986203557
 21
1646.68940895069
 31
0.0
  0
LINE
  5
15A9D
330
159A2
100
AcDbEntity
  8
SUNPOU
 62
     1
100
AcDbLine
 10
-733.3898986203557
 20
1656.164424949756
 30
0.0
 11
-733.3898986203557
 21
1646.68940895069
 31
0.0
  0
LINE
  5
15A9E
330
159A2
100
AcDbEntity
  8
SUNPOU
 62
     1
100
AcDbLine
 10
-725.6398986203557
 20
1647.18940895069
 30
0.0
 11
-730.3898986203558
 21
1647.18940895069
 31
0.0
  0
LINE
  5
15A9F
330
159A2
100
AcDbEntity
  8
SUNPOU
 62
     1
100
AcDbLine
 10
-733.3898986203557
 20
1647.18940895069
 30
0.0
 11
-750.6398986203557
 21
1647.18940895069
 31
0.0
  0
SOLID
  5
15AA0
330
159A2
100
AcDbEntity
  8
SUNPOU
 62
     1
100
AcDbTrace
 10
-725.6398986203557
 20
1647.68940895069
 30
0.0
 11
-725.6398986203557
 21
1646.68940895069
 31
0.0
 12
-722.6398986203557
 22
1647.18940895069
 32
0.0
 13
-722.6398986203557
 23
1647.18940895069
 33
0.0
  0
SOLID
  5
15AA1
330
159A2
100
AcDbEntity
  8
SUNPOU
 62
     1
100
AcDbTrace
 10
-730.3898986203558
 20
1647.68940895069
 30
0.0
 11
-730.3898986203558
 21
1646.68940895069
 31
0.0
 12
-733.3898986203557
 22
1647.18940895069
 32
0.0
 13
-733.3898986203557
 23
1647.18940895069
 33
0.0
  0
MTEXT
  5
15AA2
330
159A2
100
AcDbEntity
  8
SUNPOU
 62
     1
100
AcDbMText
 10
-743.5148986203557
 20
1649.93940895069
 30
0.0
 40
3.5
 41
0.0
 71
     5
 72
     1
  1
\A1;10.75
1001
ACAD
1000
MTEXTBEGIN
1070
    73
1070
     1
1070
    44
1040
1.0
1070
    74
1070
     0
1000
MTEXTEND
  0
POINT
  5
15AA3
330
159A2
100
AcDbEntity
  8
DEFPOINTS
 62
     0
100
AcDbPoint
 10
-722.6398986203557
 20
1656.664424949756
 30
0.0
  0
POINT
  5
15AA4
330
159A2
100
AcDbEntity
  8
DEFPOINTS
 62
     0
100
AcDbPoint
 10
-733.3898986203557
 20
1656.664424949756
 30
0.0
  0
POINT
  5
15AA5
330
159A2
100
AcDbEntity
  8
DEFPOINTS
 62
     0
100
AcDbPoint
 10
-733.3898986203557
 20
1647.18940895069
 30
0.0
  0
ENDBLK
  5
159AF
330
159A2
100
AcDbEntity
  8
0
100
AcDbBlockEnd
  0
BLOCK
  5
159C0
330
159B6
100
AcDbEntity
  8
0
100
AcDbBlockBegin
  2
*D10
 70
     1
 10
0.0
 20
0.0
 30
0.0
  3
*D10
  1

  0
LINE
  5
15ADE
330
159B6
100
AcDbEntity
  8
SUNPOU
 62
     1
100
AcDbLine
 10
-655.8898986203544
 20
1621.864425463942
 30
0.0
 11
-648.034938538746
 21
1621.864425463942
 31
0.0
  0
LINE
  5
15ADF
330
159B6
100
AcDbEntity
  8
SUNPOU
 62
     1
100
AcDbLine
 10
-682.8898986203557
 20
1597.164424949754
 30
0.0
 11
-648.034938538746
 21
1597.164424949754
 31
0.0
  0
LINE
  5
15AE0
330
159B6
100
AcDbEntity
  8
SUNPOU
 62
     1
100
AcDbLine
 10
-648.5349385387459
 20
1618.864425463942
 30
0.0
 11
-648.5349385387459
 21
1600.164424949754
 31
0.0
  0
SOLID
  5
15AE1
330
159B6
100
AcDbEntity
  8
SUNPOU
 62
     1
100
AcDbTrace
 10
-649.034938538746
 20
1618.864425463942
 30
0.0
 11
-648.034938538746
 21
1618.864425463942
 31
0.0
 12
-648.5349385387459
 22
1621.864425463942
 32
0.0
 13
-648.5349385387459
 23
1621.864425463942
 33
0.0
  0
SOLID
  5
15AE2
330
159B6
100
AcDbEntity
  8
SUNPOU
 62
     1
100
AcDbTrace
 10
-649.034938538746
 20
1600.164424949754
 30
0.0
 11
-648.034938538746
 21
1600.164424949754
 31
0.0
 12
-648.5349385387459
 22
1597.164424949754
 32
0.0
 13
-648.5349385387459
 23
1597.164424949754
 33
0.0
  0
MTEXT
  5
15AE3
330
159B6
100
AcDbEntity
  8
SUNPOU
 62
     1
100
AcDbMText
 10
-651.2849385387462
 20
1609.514425206848
 30
0.0
 40
3.5
 41
0.0
 71
     5
 72
     1
  1
\A1;(24.7)
 11
0.0000000000000001
 21
1.0
 31
0.0
1001
ACAD
1000
MTEXTBEGIN
1070
    73
1070
     1
1070
    44
1040
1.0
1070
    74
1070
     0
1000
MTEXTEND
  0
POINT
  5
15AE4
330
159B6
100
AcDbEntity
  8
DEFPOINTS
 62
     0
100
AcDbPoint
 10
-656.3898986203544
 20
1621.864425463942
 30
0.0
  0
POINT
  5
15AE5
330
159B6
100
AcDbEntity
  8
DEFPOINTS
 62
     0
100
AcDbPoint
 10
-683.3898986203557
 20
1597.164424949754
 30
0.0
  0
POINT
  5
15AE6
330
159B6
100
AcDbEntity
  8
DEFPOINTS
 62
     0
100
AcDbPoint
 10
-648.5349385387459
 20
1597.164424949754
 30
0.0
  0
ENDBLK
  5
159C1
330
159B6
100
AcDbEntity
  8
0
100
AcDbBlockEnd
  0
BLOCK
  5
159E1
330
159D5
100
AcDbEntity
  8
0
100
AcDbBlockBegin
  2
*D11
 70
     1
 10
0.0
 20
0.0
 30
0.0
  3
*D11
  1

  0
LINE
  5
15AD3
330
159D5
100
AcDbEntity
  8
SUNPOU
 62
     1
100
AcDbLine
 10
-733.3898986203557
 20
1625.664424949755
 30
0.0
 11
-733.3898986203557
 21
1629.261090322747
 31
0.0
  0
LINE
  5
15AD4
330
159D5
100
AcDbEntity
  8
SUNPOU
 62
     1
100
AcDbLine
 10
-731.3898986203557
 20
1625.664424949755
 30
0.0
 11
-731.3898986203557
 21
1629.261090322747
 31
0.0
  0
LINE
  5
15AD5
330
159D5
100
AcDbEntity
  8
SUNPOU
 62
     1
100
AcDbLine
 10
-736.3898986203557
 20
1628.761090322747
 30
0.0
 11
-739.3898986203558
 21
1628.761090322747
 31
0.0
  0
LINE
  5
15AD6
330
159D5
100
AcDbEntity
  8
SUNPOU
 62
     1
100
AcDbLine
 10
-728.3898986203557
 20
1628.761090322747
 30
0.0
 11
-721.0565652870224
 21
1628.761090322747
 31
0.0
  0
LINE
  5
15AD7
330
159D5
100
AcDbEntity
  8
SUNPOU
 62
     1
100
AcDbLine
 10
-733.3898986203557
 20
1628.761090322747
 30
0.0
 11
-731.3898986203557
 21
1628.761090322747
 31
0.0
  0
SOLID
  5
15AD8
330
159D5
100
AcDbEntity
  8
SUNPOU
 62
     1
100
AcDbTrace
 10
-736.3898986203557
 20
1629.261090322747
 30
0.0
 11
-736.3898986203557
 21
1628.261090322746
 31
0.0
 12
-733.3898986203557
 22
1628.761090322747
 32
0.0
 13
-733.3898986203557
 23
1628.761090322747
 33
0.0
  0
SOLID
  5
15AD9
330
159D5
100
AcDbEntity
  8
SUNPOU
 62
     1
100
AcDbTrace
 10
-728.3898986203557
 20
1629.261090322747
 30
0.0
 11
-728.3898986203557
 21
1628.261090322746
 31
0.0
 12
-731.3898986203557
 22
1628.761090322747
 32
0.0
 13
-731.3898986203557
 23
1628.761090322747
 33
0.0
  0
MTEXT
  5
15ADA
330
159D5
100
AcDbEntity
  8
SUNPOU
 62
     1
100
AcDbMText
 10
-723.2232319536891
 20
1631.511090322747
 30
0.0
 40
3.5
 41
0.0
 71
     5
 72
     1
  1
\A1;2
1001
ACAD
1000
MTEXTBEGIN
1070
    73
1070
     1
1070
    44
1040
1.0
1070
    74
1070
     0
1000
MTEXTEND
  0
POINT
  5
15ADB
330
159D5
100
AcDbEntity
  8
DEFPOINTS
 62
     0
100
AcDbPoint
 10
-733.3898986203557
 20
1625.164424949755
 30
0.0
  0
POINT
  5
15ADC
330
159D5
100
AcDbEntity
  8
DEFPOINTS
 62
     0
100
AcDbPoint
 10
-731.3898986203557
 20
1625.164424949755
 30
0.0
  0
POINT
  5
15ADD
330
159D5
100
AcDbEntity
  8
DEFPOINTS
 62
     0
100
AcDbPoint
 10
-731.3898986203557
 20
1628.761090322747
 30
0.0
  0
ENDBLK
  5
159E2
330
159D5
100
AcDbEntity
  8
0
100
AcDbBlockEnd
  0
BLOCK
  5
15A1B
330
15A11
100
AcDbEntity
  8
0
100
AcDbBlockBegin
  2
*D12
 70
     1
 10
0.0
 20
0.0
 30
0.0
  3
*D12
  1

  0
LINE
  5
15A74
330
15A11
100
AcDbEntity
  8
SUNPOU
 62
     1
100
AcDbLine
 10
-621.7686126557737
 20
1657.164424949756
 30
0.0
 11
-621.7686126557737
 21
1641.317262054275
 31
0.0
  0
LINE
  5
15A75
330
15A11
100
AcDbEntity
  8
SUNPOU
 62
     1
100
AcDbLine
 10
-593.7686126557736
 20
1656.164424949756
 30
0.0
 11
-593.7686126557736
 21
1641.317262054275
 31
0.0
  0
LINE
  5
15A76
330
15A11
100
AcDbEntity
  8
SUNPOU
 62
     1
100
AcDbLine
 10
-618.7686126557736
 20
1641.817262054275
 30
0.0
 11
-596.7686126557737
 21
1641.817262054275
 31
0.0
  0
SOLID
  5
15A77
330
15A11
100
AcDbEntity
  8
SUNPOU
 62
     1
100
AcDbTrace
 10
-618.7686126557736
 20
1642.317262054275
 30
0.0
 11
-618.7686126557736
 21
1641.317262054275
 31
0.0
 12
-621.7686126557737
 22
1641.817262054275
 32
0.0
 13
-621.7686126557737
 23
1641.817262054275
 33
0.0
  0
SOLID
  5
15A78
330
15A11
100
AcDbEntity
  8
SUNPOU
 62
     1
100
AcDbTrace
 10
-596.7686126557737
 20
1642.317262054275
 30
0.0
 11
-596.7686126557737
 21
1641.317262054275
 31
0.0
 12
-593.7686126557736
 22
1641.817262054275
 32
0.0
 13
-593.7686126557736
 23
1641.817262054275
 33
0.0
  0
MTEXT
  5
15A79
330
15A11
100
AcDbEntity
  8
SUNPOU
 62
     1
100
AcDbMText
 10
-607.7686126557737
 20
1644.567262054275
 30
0.0
 40
3.5
 41
0.0
 71
     5
 72
     1
  1
\A1;28
1001
ACAD
1000
MTEXTBEGIN
1070
    73
1070
     1
1070
    44
1040
1.0
1070
    74
1070
     0
1000
MTEXTEND
  0
POINT
  5
15A7A
330
15A11
100
AcDbEntity
  8
DEFPOINTS
 62
     0
100
AcDbPoint
 10
-621.7686126557737
 20
1657.664424949756
 30
0.0
  0
POINT
  5
15A7B
330
15A11
100
AcDbEntity
  8
DEFPOINTS
 62
     0
100
AcDbPoint
 10
-593.7686126557736
 20
1656.664424949756
 30
0.0
  0
POINT
  5
15A7C
330
15A11
100
AcDbEntity
  8
DEFPOINTS
 62
     0
100
AcDbPoint
 10
-593.7686126557736
 20
1641.817262054275
 30
0.0
  0
ENDBLK
  5
15A1C
330
15A11
100
AcDbEntity
  8
0
100
AcDbBlockEnd
  0
BLOCK
  5
15A28
330
15A1E
100
AcDbEntity
  8
0
100
AcDbBlockBegin
  2
*D13
 70
     1
 10
0.0
 20
0.0
 30
0.0
  3
*D13
  1

  0
LINE
  5
15A7D
330
15A1E
100
AcDbEntity
  8
SUNPOU
 62
     1
100
AcDbLine
 10
-609.7686126557737
 20
1656.164424949756
 30
0.0
 11
-609.7686126557737
 21
1648.411768986638
 31
0.0
  0
LINE
  5
15A7E
330
15A1E
100
AcDbEntity
  8
SUNPOU
 62
     1
100
AcDbLine
 10
-593.7686126557736
 20
1655.664424949756
 30
0.0
 11
-593.7686126557736
 21
1648.411768986638
 31
0.0
  0
LINE
  5
15A7F
330
15A1E
100
AcDbEntity
  8
SUNPOU
 62
     1
100
AcDbLine
 10
-606.7686126557737
 20
1648.911768986639
 30
0.0
 11
-596.7686126557737
 21
1648.911768986639
 31
0.0
  0
SOLID
  5
15A80
330
15A1E
100
AcDbEntity
  8
SUNPOU
 62
     1
100
AcDbTrace
 10
-606.7686126557737
 20
1649.411768986638
 30
0.0
 11
-606.7686126557737
 21
1648.411768986638
 31
0.0
 12
-609.7686126557737
 22
1648.911768986639
 32
0.0
 13
-609.7686126557737
 23
1648.911768986639
 33
0.0
  0
SOLID
  5
15A81
330
15A1E
100
AcDbEntity
  8
SUNPOU
 62
     1
100
AcDbTrace
 10
-596.7686126557737
 20
1649.411768986638
 30
0.0
 11
-596.7686126557737
 21
1648.411768986638
 31
0.0
 12
-593.7686126557736
 22
1648.911768986639
 32
0.0
 13
-593.7686126557736
 23
1648.911768986639
 33
0.0
  0
MTEXT
  5
15A82
330
15A1E
100
AcDbEntity
  8
SUNPOU
 62
     1
100
AcDbMText
 10
-601.7686126557737
 20
1651.661768986639
 30
0.0
 40
3.5
 41
0.0
 71
     5
 72
     1
  1
\A1;16
1001
ACAD
1000
MTEXTBEGIN
1070
    73
1070
     1
1070
    44
1040
1.0
1070
    74
1070
     0
1000
MTEXTEND
  0
POINT
  5
15A83
330
15A1E
100
AcDbEntity
  8
DEFPOINTS
 62
     0
100
AcDbPoint
 10
-609.7686126557737
 20
1656.664424949756
 30
0.0
  0
POINT
  5
15A84
330
15A1E
100
AcDbEntity
  8
DEFPOINTS
 62
     0
100
AcDbPoint
 10
-593.7686126557736
 20
1656.164424949756
 30
0.0
  0
POINT
  5
15A85
330
15A1E
100
AcDbEntity
  8
DEFPOINTS
 62
     0
100
AcDbPoint
 10
-593.7686126557736
 20
1648.911768986639
 30
0.0
  0
ENDBLK
  5
15A29
330
15A1E
100
AcDbEntity
  8
0
100
AcDbBlockEnd
  0
BLOCK
  5
15A37
330
15A2B
100
AcDbEntity
  8
0
100
AcDbBlockBegin
  2
*D14
 70
     1
 10
0.0
 20
0.0
 30
0.0
  3
*D14
  1

  0
LINE
  5
15AA6
330
15A2B
100
AcDbEntity
  8
SUNPOU
 62
     1
100
AcDbLine
 10
-621.2686126557737
 20
1656.664424949756
 30
0.0
 11
-630.8103396506298
 21
1656.664424949756
 31
0.0
  0
LINE
  5
15AA7
330
15A2B
100
AcDbEntity
  8
SUNPOU
 62
     1
100
AcDbLine
 10
-614.0918634905893
 20
1659.164424949755
 30
0.0
 11
-630.8103396506298
 21
1659.164424949755
 31
0.0
  0
LINE
  5
15AA8
330
15A2B
100
AcDbEntity
  8
SUNPOU
 62
     1
100
AcDbLine
 10
-630.3103396506299
 20
1662.164424949755
 30
0.0
 11
-630.3103396506299
 21
1665.164424949755
 31
0.0
  0
LINE
  5
15AA9
330
15A2B
100
AcDbEntity
  8
SUNPOU
 62
     1
100
AcDbLine
 10
-630.3103396506299
 20
1653.664424949756
 30
0.0
 11
-630.3103396506299
 21
1640.384701732377
 31
0.0
  0
LINE
  5
15AAA
330
15A2B
100
AcDbEntity
  8
SUNPOU
 62
     1
100
AcDbLine
 10
-630.3103396506299
 20
1659.164424949755
 30
0.0
 11
-630.3103396506299
 21
1656.664424949756
 31
0.0
  0
SOLID
  5
15AAB
330
15A2B
100
AcDbEntity
  8
SUNPOU
 62
     1
100
AcDbTrace
 10
-630.8103396506298
 20
1662.164424949755
 30
0.0
 11
-629.8103396506299
 21
1662.164424949755
 31
0.0
 12
-630.3103396506299
 22
1659.164424949755
 32
0.0
 13
-630.3103396506299
 23
1659.164424949755
 33
0.0
  0
SOLID
  5
15AAC
330
15A2B
100
AcDbEntity
  8
SUNPOU
 62
     1
100
AcDbTrace
 10
-630.8103396506298
 20
1653.664424949756
 30
0.0
 11
-629.8103396506299
 21
1653.664424949756
 31
0.0
 12
-630.3103396506299
 22
1656.664424949756
 32
0.0
 13
-630.3103396506299
 23
1656.664424949756
 33
0.0
  0
MTEXT
  5
15AAD
330
15A2B
100
AcDbEntity
  8
SUNPOU
 62
     1
100
AcDbMText
 10
-633.0603396506301
 20
1644.884701732376
 30
0.0
 40
3.5
 41
0.0
 71
     5
 72
     1
  1
\A1;2.5
 11
0.0000000000000001
 21
1.0
 31
0.0
1001
ACAD
1000
MTEXTBEGIN
1070
    73
1070
     1
1070
    44
1040
1.0
1070
    74
1070
     0
1000
MTEXTEND
  0
POINT
  5
15AAE
330
15A2B
100
AcDbEntity
  8
DEFPOINTS
 62
     0
100
AcDbPoint
 10
-620.7686126557737
 20
1656.664424949756
 30
0.0
  0
POINT
  5
15AAF
330
15A2B
100
AcDbEntity
  8
DEFPOINTS
 62
     0
100
AcDbPoint
 10
-613.5918634905892
 20
1659.164424949755
 30
0.0
  0
POINT
  5
15AB0
330
15A2B
100
AcDbEntity
  8
DEFPOINTS
 62
     0
100
AcDbPoint
 10
-630.3103396506299
 20
1659.164424949755
 30
0.0
  0
ENDBLK
  5
15A38
330
15A2B
100
AcDbEntity
  8
0
100
AcDbBlockEnd
  0
BLOCK
  5
15A44
330
15A3A
100
AcDbEntity
  8
0
100
AcDbBlockBegin
  2
*D15
 70
     1
 10
0.0
 20
0.0
 30
0.0
  3
*D15
  1

  0
LINE
  5
15B99
330
15A3A
100
AcDbEntity
  8
SUNPOU
 62
     1
100
AcDbLine
 10
-614.0918634905893
 20
1659.164424949755
 30
0.0
 11
-630.7953590141182
 21
1659.164424949755
 31
0.0
  0
LINE
  5
15B9A
330
15A3A
100
AcDbEntity
  8
SUNPOU
 62
     1
100
AcDbLine
 10
-614.0918634905893
 20
1739.164424949756
 30
0.0
 11
-630.7953590141182
 21
1739.164424949756
 31
0.0
  0
LINE
  5
15B9B
330
15A3A
100
AcDbEntity
  8
SUNPOU
 62
     1
100
AcDbLine
 10
-630.2953590141182
 20
1662.164424949755
 30
0.0
 11
-630.2953590141182
 21
1736.164424949756
 31
0.0
  0
SOLID
  5
15B9C
330
15A3A
100
AcDbEntity
  8
SUNPOU
 62
     1
100
AcDbTrace
 10
-630.7953590141182
 20
1662.164424949755
 30
0.0
 11
-629.7953590141182
 21
1662.164424949755
 31
0.0
 12
-630.2953590141182
 22
1659.164424949755
 32
0.0
 13
-630.2953590141182
 23
1659.164424949755
 33
0.0
  0
SOLID
  5
15B9D
330
15A3A
100
AcDbEntity
  8
SUNPOU
 62
     1
100
AcDbTrace
 10
-630.7953590141182
 20
1736.164424949756
 30
0.0
 11
-629.7953590141182
 21
1736.164424949756
 31
0.0
 12
-630.2953590141182
 22
1739.164424949756
 32
0.0
 13
-630.2953590141182
 23
1739.164424949756
 33
0.0
  0
MTEXT
  5
15B9E
330
15A3A
100
AcDbEntity
  8
SUNPOU
 62
     1
100
AcDbMText
 10
-633.0453590141185
 20
1699.164424949755
 30
0.0
 40
3.5
 41
0.0
 71
     5
 72
     1
  1
\A1;80
 11
0.0000000000000001
 21
1.0
 31
0.0
  0
POINT
  5
15B9F
330
15A3A
100
AcDbEntity
  8
DEFPOINTS
 62
     0
100
AcDbPoint
 10
-613.5918634905892
 20
1659.164424949755
 30
0.0
  0
POINT
  5
15BA0
330
15A3A
100
AcDbEntity
  8
DEFPOINTS
 62
     0
100
AcDbPoint
 10
-613.5918634905892
 20
1739.164424949756
 30
0.0
  0
POINT
  5
15BA1
330
15A3A
100
AcDbEntity
  8
DEFPOINTS
 62
     0
100
AcDbPoint
 10
-630.2953590141182
 20
1739.164424949756
 30
0.0
  0
ENDBLK
  5
15A45
330
15A3A
100
AcDbEntity
  8
0
100
AcDbBlockEnd
  0
BLOCK
  5
15A53
330
15A47
100
AcDbEntity
  8
0
100
AcDbBlockBegin
  2
*D16
 70
     1
 10
0.0
 20
0.0
 30
0.0
  3
*D16
  1

  0
LINE
  5
15ABC
330
15A47
100
AcDbEntity
  8
SUNPOU
 62
     1
100
AcDbLine
 10
-614.0918634905893
 20
1739.164424949756
 30
0.0
 11
-630.817909129443
 21
1739.164424949756
 31
0.0
  0
LINE
  5
15ABD
330
15A47
100
AcDbEntity
  8
SUNPOU
 62
     1
100
AcDbLine
 10
-621.2686126557737
 20
1741.664424949756
 30
0.0
 11
-630.817909129443
 21
1741.664424949756
 31
0.0
  0
LINE
  5
15ABE
330
15A47
100
AcDbEntity
  8
SUNPOU
 62
     1
100
AcDbLine
 10
-630.317909129443
 20
1736.164424949756
 30
0.0
 11
-630.317909129443
 21
1733.164424949756
 31
0.0
  0
LINE
  5
15ABF
330
15A47
100
AcDbEntity
  8
SUNPOU
 62
     1
100
AcDbLine
 10
-630.317909129443
 20
1744.664424949756
 30
0.0
 11
-630.317909129443
 21
1756.664424949756
 31
0.0
  0
LINE
  5
15AC0
330
15A47
100
AcDbEntity
  8
SUNPOU
 62
     1
100
AcDbLine
 10
-630.317909129443
 20
1739.164424949756
 30
0.0
 11
-630.317909129443
 21
1741.664424949756
 31
0.0
  0
SOLID
  5
15AC1
330
15A47
100
AcDbEntity
  8
SUNPOU
 62
     1
100
AcDbTrace
 10
-630.817909129443
 20
1736.164424949756
 30
0.0
 11
-629.8179091294429
 21
1736.164424949756
 31
0.0
 12
-630.317909129443
 22
1739.164424949756
 32
0.0
 13
-630.317909129443
 23
1739.164424949756
 33
0.0
  0
SOLID
  5
15AC2
330
15A47
100
AcDbEntity
  8
SUNPOU
 62
     1
100
AcDbTrace
 10
-630.817909129443
 20
1744.664424949756
 30
0.0
 11
-629.8179091294429
 21
1744.664424949756
 31
0.0
 12
-630.317909129443
 22
1741.664424949756
 32
0.0
 13
-630.317909129443
 23
1741.664424949756
 33
0.0
  0
MTEXT
  5
15AC3
330
15A47
100
AcDbEntity
  8
SUNPOU
 62
     1
100
AcDbMText
 10
-633.0679091294432
 20
1752.164424949756
 30
0.0
 40
3.5
 41
0.0
 71
     5
 72
     1
  1
\A1;2.5
 11
0.0000000000000001
 21
1.0
 31
0.0
1001
ACAD
1000
MTEXTBEGIN
1070
    73
1070
     1
1070
    44
1040
1.0
1070
    74
1070
     0
1000
MTEXTEND
  0
POINT
  5
15AC4
330
15A47
100
AcDbEntity
  8
DEFPOINTS
 62
     0
100
AcDbPoint
 10
-613.5918634905892
 20
1739.164424949756
 30
0.0
  0
POINT
  5
15AC5
330
15A47
100
AcDbEntity
  8
DEFPOINTS
 62
     0
100
AcDbPoint
 10
-620.7686126557737
 20
1741.664424949756
 30
0.0
  0
POINT
  5
15AC6
330
15A47
100
AcDbEntity
  8
DEFPOINTS
 62
     0
100
AcDbPoint
 10
-630.317909129443
 20
1741.664424949756
 30
0.0
  0
ENDBLK
  5
15A54
330
15A47
100
AcDbEntity
  8
0
100
AcDbBlockEnd
  0
BLOCK
  5
15B1B
330
15B11
100
AcDbEntity
  8
0
100
AcDbBlockBegin
  2
*D17
 70
     1
 10
0.0
 20
0.0
 30
0.0
  3
*D17
  1

  0
LINE
  5
15B26
330
15B11
100
AcDbEntity
  8
SUNPOU
 62
     1
100
AcDbLine
 10
-733.3898986203556
 20
1598.664424949754
 30
0.0
 11
-733.3898986203556
 21
1588.158119488945
 31
0.0
  0
LINE
  5
15B27
330
15B11
100
AcDbEntity
  8
SUNPOU
 62
     1
100
AcDbLine
 10
-656.3898986203557
 20
1600.964424949754
 30
0.0
 11
-656.3898986203557
 21
1588.158119488945
 31
0.0
  0
LINE
  5
15B28
330
15B11
100
AcDbEntity
  8
SUNPOU
 62
     1
100
AcDbLine
 10
-730.3898986203556
 20
1588.658119488945
 30
0.0
 11
-659.3898986203558
 21
1588.658119488945
 31
0.0
  0
SOLID
  5
15B29
330
15B11
100
AcDbEntity
  8
SUNPOU
 62
     1
100
AcDbTrace
 10
-730.3898986203556
 20
1589.158119488945
 30
0.0
 11
-730.3898986203556
 21
1588.158119488945
 31
0.0
 12
-733.3898986203556
 22
1588.658119488945
 32
0.0
 13
-733.3898986203556
 23
1588.658119488945
 33
0.0
  0
SOLID
  5
15B2A
330
15B11
100
AcDbEntity
  8
SUNPOU
 62
     1
100
AcDbTrace
 10
-659.3898986203558
 20
1589.158119488945
 30
0.0
 11
-659.3898986203558
 21
1588.158119488945
 31
0.0
 12
-656.3898986203557
 22
1588.658119488945
 32
0.0
 13
-656.3898986203557
 23
1588.658119488945
 33
0.0
  0
MTEXT
  5
15B2B
330
15B11
100
AcDbEntity
  8
SUNPOU
 62
     1
100
AcDbMText
 10
-694.8898986203557
 20
1591.408119488945
 30
0.0
 40
3.5
 41
0.0
 71
     5
 72
     1
  1
\A1;77
1001
ACAD
1000
MTEXTBEGIN
1070
    73
1070
     1
1070
    44
1040
1.0
1070
    74
1070
     0
1000
MTEXTEND
  0
POINT
  5
15B2C
330
15B11
100
AcDbEntity
  8
DEFPOINTS
 62
     0
100
AcDbPoint
 10
-733.3898986203556
 20
1599.164424949754
 30
0.0
  0
POINT
  5
15B2D
330
15B11
100
AcDbEntity
  8
DEFPOINTS
 62
     0
100
AcDbPoint
 10
-656.3898986203557
 20
1601.464424949755
 30
0.0
  0
POINT
  5
15B2E
330
15B11
100
AcDbEntity
  8
DEFPOINTS
 62
     0
100
AcDbPoint
 10
-656.3898986203557
 20
1588.658119488945
 30
0.0
  0
ENDBLK
  5
15B1C
330
15B11
100
AcDbEntity
  8
0
100
AcDbBlockEnd
  0
ENDSEC
  0
SECTION
  2
ENTITIES
  0
MTEXT
  5
5084
330
1A
100
AcDbEntity
  8
0
100
AcDbMText
 10
1985.239088685435
 20
-948.5420423450428
 30
0.0
 40
8.0
 41
0.0
 71
     7
 72
     5
  1

1001
ACAD
1000
MTEXTBEGIN
1070
    73
1070
     1
1070
    44
1040
1.0
1070
    74
1070
     0
1000
MTEXTEND
  0
MTEXT
  5
5085
330
1A
100
AcDbEntity
  8
0
100
AcDbMText
 10
4270.596778580329
 20
22.24825240601649
 30
0.0
 40
8.0
 41
0.0
 71
     7
 72
     5
  1

1001
ACAD
1000
MTEXTBEGIN
1070
    73
1070
     1
1070
    44
1040
1.0
1070
    74
1070
     0
1000
MTEXTEND
  0
MTEXT
  5
5343
330
1A
100
AcDbEntity
  8
SUNPOU
100
AcDbMText
 10
6936.493799262471
 20
9534.359644781135
 30
0.0
 40
10.5
 41
0.0
 71
     1
 72
     5
  1

1001
ACAD
1000
MTEXTBEGIN
1070
    73
1070
     1
1070
    44
1040
1.0
1070
    74
1070
     0
1000
MTEXTEND
  0
MTEXT
  5
544F
330
1A
100
AcDbEntity
  8
0
100
AcDbMText
 10
16317.2832773148
 20
12833.35428897674
 30
0.0
 40
8.0
 41
0.0
 71
     7
 72
     5
  1

1001
ACAD
1000
MTEXTBEGIN
1070
    73
1070
     1
1070
    44
1040
1.0
1070
    74
1070
     0
1000
MTEXTEND
  0
MTEXT
  5
5450
330
1A
100
AcDbEntity
  8
0
100
AcDbMText
 10
18602.64096720969
 20
13804.1445837278
 30
0.0
 40
8.0
 41
0.0
 71
     7
 72
     5
  1

1001
ACAD
1000
MTEXTBEGIN
1070
    73
1070
     1
1070
    44
1040
1.0
1070
    74
1070
     0
1000
MTEXTEND
  0
MTEXT
  5
5451
330
1A
100
AcDbEntity
  8
SUNPOU
100
AcDbMText
 10
21268.53798789184
 20
23316.25597610292
 30
0.0
 40
10.5
 41
0.0
 71
     1
 72
     5
  1

1001
ACAD
1000
MTEXTBEGIN
1070
    73
1070
     1
1070
    44
1040
1.0
1070
    74
1070
     0
1000
MTEXTEND
  0
MTEXT
  5
5452
330
1A
100
AcDbEntity
  8
SUNPOU
100
AcDbMText
 10
13337.6147919559
 20
22369.46284218996
 30
0.0
 40
10.5
 41
0.0
 71
     7
 72
     5
  1

1001
ACAD
1000
MTEXTBEGIN
1070
    73
1070
     1
1070
    44
1040
1.0
1070
    74
1070
     0
1000
MTEXTEND
  0
MTEXT
  5
5453
330
1A
100
AcDbEntity
  8
SUNPOU
100
AcDbMText
 10
16286.59845646867
 20
27270.13891403281
 30
0.0
 40
10.5
 41
0.0
 71
     7
 72
     5
  1

1001
ACAD
1000
MTEXTBEGIN
1070
    73
1070
     1
1070
    44
1040
1.0
1070
    74
1070
     0
1000
MTEXTEND
  0
MTEXT
  5
5454
330
1A
100
AcDbEntity
  8
SUNPOU
100
AcDbMText
 10
20795.67658441924
 20
29706.43966165288
 30
0.0
 40
10.5
 41
0.0
 71
     7
 72
     5
  1

1001
ACAD
1000
MTEXTBEGIN
1070
    73
1070
     1
1070
    44
1040
1.0
1070
    74
1070
     0
1000
MTEXTEND
  0
MTEXT
  5
5455
330
1A
100
AcDbEntity
  8
0
100
AcDbMText
 10
16611.93789220314
 20
14707.52144344448
 30
0.0
 40
8.0
 41
0.0
 71
     7
 72
     5
  1

1001
ACAD
1000
MTEXTBEGIN
1070
    73
1070
     1
1070
    44
1040
1.0
1070
    74
1070
     0
1000
MTEXTEND
  0
MTEXT
  5
5456
330
1A
100
AcDbEntity
  8
0
100
AcDbMText
 10
18897.29558209804
 20
15678.31173819554
 30
0.0
 40
8.0
 41
0.0
 71
     7
 72
     5
  1

1001
ACAD
1000
MTEXTBEGIN
1070
    73
1070
     1
1070
    44
1040
1.0
1070
    74
1070
     0
1000
MTEXTEND
  0
MTEXT
  5
5457
330
1A
100
AcDbEntity
  8
SUNPOU
100
AcDbMText
 10
21563.19260278019
 20
25190.42313057066
 30
0.0
 40
10.5
 41
0.0
 71
     1
 72
     5
  1

1001
ACAD
1000
MTEXTBEGIN
1070
    73
1070
     1
1070
    44
1040
1.0
1070
    74
1070
     0
1000
MTEXTEND
  0
MTEXT
  5
5458
330
1A
100
AcDbEntity
  8
SUNPOU
100
AcDbMText
 10
13632.26940684426
 20
24243.6299966577
 30
0.0
 40
10.5
 41
0.0
 71
     7
 72
     5
  1

1001
ACAD
1000
MTEXTBEGIN
1070
    73
1070
     1
1070
    44
1040
1.0
1070
    74
1070
     0
1000
MTEXTEND
  0
MTEXT
  5
5459
330
1A
100
AcDbEntity
  8
SUNPOU
100
AcDbMText
 10
16581.25307135702
 20
29144.30606850055
 30
0.0
 40
10.5
 41
0.0
 71
     7
 72
     5
  1

1001
ACAD
1000
MTEXTBEGIN
1070
    73
1070
     1
1070
    44
1040
1.0
1070
    74
1070
     0
1000
MTEXTEND
  0
MTEXT
  5
545A
330
1A
100
AcDbEntity
  8
SUNPOU
100
AcDbMText
 10
21090.33119930759
 20
31580.60681612062
 30
0.0
 40
10.5
 41
0.0
 71
     7
 72
     5
  1

1001
ACAD
1000
MTEXTBEGIN
1070
    73
1070
     1
1070
    44
1040
1.0
1070
    74
1070
     0
1000
MTEXTEND
  0
MTEXT
  5
545B
330
1A
100
AcDbEntity
  8
0
100
AcDbMText
 10
22871.60517627167
 20
23974.88367124799
 30
0.0
 40
8.0
 41
0.0
 71
     7
 72
     5
  1

1001
ACAD
1000
MTEXTBEGIN
1070
    73
1070
     1
1070
    44
1040
1.0
1070
    74
1070
     0
1000
MTEXTEND
  0
MTEXT
  5
545C
330
1A
100
AcDbEntity
  8
0
100
AcDbMText
 10
25156.96286616657
 20
24945.67396599906
 30
0.0
 40
8.0
 41
0.0
 71
     7
 72
     5
  1

1001
ACAD
1000
MTEXTBEGIN
1070
    73
1070
     1
1070
    44
1040
1.0
1070
    74
1070
     0
1000
MTEXTEND
  0
MTEXT
  5
545D
330
1A
100
AcDbEntity
  8
SUNPOU
100
AcDbMText
 10
27822.85988684871
 20
34457.78535837418
 30
0.0
 40
10.5
 41
0.0
 71
     1
 72
     5
  1

1001
ACAD
1000
MTEXTBEGIN
1070
    73
1070
     1
1070
    44
1040
1.0
1070
    74
1070
     0
1000
MTEXTEND
  0
MTEXT
  5
545E
330
1A
100
AcDbEntity
  8
SUNPOU
100
AcDbMText
 10
19891.93669091278
 20
33510.99222446122
 30
0.0
 40
10.5
 41
0.0
 71
     7
 72
     5
  1

1001
ACAD
1000
MTEXTBEGIN
1070
    73
1070
     1
1070
    44
1040
1.0
1070
    74
1070
     0
1000
MTEXTEND
  0
MTEXT
  5
545F
330
1A
100
AcDbEntity
  8
SUNPOU
100
AcDbMText
 10
22840.92035542555
 20
38411.66829630407
 30
0.0
 40
10.5
 41
0.0
 71
     7
 72
     5
  1

1001
ACAD
1000
MTEXTBEGIN
1070
    73
1070
     1
1070
    44
1040
1.0
1070
    74
1070
     0
1000
MTEXTEND
  0
MTEXT
  5
5460
330
1A
100
AcDbEntity
  8
SUNPOU
100
AcDbMText
 10
27349.99848337611
 20
40847.96904392415
 30
0.0
 40
10.5
 41
0.0
 71
     7
 72
     5
  1

1001
ACAD
1000
MTEXTBEGIN
1070
    73
1070
     1
1070
    44
1040
1.0
1070
    74
1070
     0
1000
MTEXTEND
  0
MTEXT
  5
55B7
330
1A
100
AcDbEntity
  8
SUNPOU
100
AcDbMText
 10
67424.23923338197
 20
64463.86602884816
 30
0.0
 40
10.5
 41
0.0
 71
     9
 72
     5
  1

1001
ACAD
1000
MTEXTBEGIN
1070
    73
1070
     1
1070
    44
1040
1.0
1070
    74
1070
     0
1000
MTEXTEND
  0
MTEXT
  5
55B8
330
1A
100
AcDbEntity
  8
SUNPOU
100
AcDbMText
 10
76146.40679929998
 20
71879.70056038563
 30
0.0
 40
10.5
 41
0.0
 71
     9
 72
     5
  1

1001
ACAD
1000
MTEXTBEGIN
1070
    73
1070
     1
1070
    44
1040
1.0
1070
    74
1070
     0
1000
MTEXTEND
  0
MTEXT
  5
55B9
330
1A
100
AcDbEntity
  8
SUNPOU
100
AcDbMText
 10
95100.16551662994
 20
89346.27661287766
 30
0.0
 40
10.5
 41
0.0
 71
     9
 72
     5
  1

1001
ACAD
1000
MTEXTBEGIN
1070
    73
1070
     1
1070
    44
1040
1.0
1070
    74
1070
     0
1000
MTEXTEND
  0
MTEXT
  5
55BA
330
1A
100
AcDbEntity
  8
SUNPOU
100
AcDbMText
 10
97043.57276333936
 20
87545.22753299966
 30
0.0
 40
3.5
 41
0.0
 71
     9
 72
     5
  1

1001
ACAD
1000
MTEXTBEGIN
1070
    73
1070
     1
1070
    44
1040
1.0
1070
    74
1070
     0
1000
MTEXTEND
  0
MTEXT
  5
55BB
330
1A
100
AcDbEntity
  8
SUNPOU
100
AcDbMText
 10
128169.752595959
 20
130040.1732006569
 30
0.0
 40
10.5
 41
0.0
 71
     9
 72
     5
  1

1001
ACAD
1000
MTEXTBEGIN
1070
    73
1070
     1
1070
    44
1040
1.0
1070
    74
1070
     0
1000
MTEXTEND
  0
MTEXT
  5
55BC
330
1A
100
AcDbEntity
  8
SUNPOU
100
AcDbMText
 10
130113.1598426684
 20
128239.1241207789
 30
0.0
 40
3.5
 41
0.0
 71
     9
 72
     5
  1

1001
ACAD
1000
MTEXTBEGIN
1070
    73
1070
     1
1070
    44
1040
1.0
1070
    74
1070
     0
1000
MTEXTEND
  0
MTEXT
  5
55BD
330
1A
100
AcDbEntity
  8
SUNPOU
100
AcDbMText
 10
78610.02030175463
 20
75873.33835563206
 30
0.0
 40
10.5
 41
0.0
 71
     9
 72
     5
  1

1001
ACAD
1000
MTEXTBEGIN
1070
    73
1070
     1
1070
    44
1040
1.0
1070
    74
1070
     0
1000
MTEXTEND
  0
MTEXT
  5
55BE
330
1A
100
AcDbEntity
  8
SUNPOU
100
AcDbMText
 10
64662.02020137863
 20
56700.93921651987
 30
0.0
 40
3.5
 41
0.0
 71
     7
 72
     5
  1

1001
ACAD
1000
MTEXTBEGIN
1070
    73
1070
     1
1070
    44
1040
1.0
1070
    74
1070
     0
1000
MTEXTEND
  0
MTEXT
  5
55BF
330
1A
100
AcDbEntity
  8
SUNPOU
100
AcDbMText
 10
45647.18959837178
 20
44463.08794733807
 30
0.0
 40
10.5
 41
0.0
 71
     7
 72
     5
  1

1001
ACAD
1000
MTEXTBEGIN
1070
    73
1070
     1
1070
    44
1040
1.0
1070
    74
1070
     0
1000
MTEXTEND
  0
MTEXT
  5
55C0
330
1A
100
AcDbEntity
  8
SUNPOU
100
AcDbMText
 10
33189.96133342368
 20
28618.15636923965
 30
0.0
 40
35.0
 41
0.0
 71
     9
 72
     5
  1

1001
ACAD
1000
MTEXTBEGIN
1070
    73
1070
     1
1070
    44
1040
1.0
1070
    74
1070
     0
1000
MTEXTEND
  0
MTEXT
  5
55C1
330
1A
100
AcDbEntity
  8
SUNPOU
100
AcDbMText
 10
32098.44639099864
 20
29226.93177928835
 30
0.0
 40
350.0000004171781
 41
0.0
 71
     7
 72
     5
  1

1001
ACAD
1000
MTEXTBEGIN
1070
    73
1070
     1
1070
    44
1040
1.0
1070
    74
1070
     0
1000
MTEXTEND
  0
MTEXT
  5
55C2
330
1A
100
AcDbEntity
  8
0
100
AcDbMText
 10
38142.39714894154
 20
27206.85414142458
 30
0.0
 40
8.0
 41
0.0
 71
     7
 72
     5
  1

1001
ACAD
1000
MTEXTBEGIN
1070
    73
1070
     1
1070
    44
1040
1.0
1070
    74
1070
     0
1000
MTEXTEND
  0
MTEXT
  5
55C3
330
1A
100
AcDbEntity
  8
0
100
AcDbMText
 10
40427.75483883644
 20
28177.64443617564
 30
0.0
 40
8.0
 41
0.0
 71
     7
 72
     5
  1

1001
ACAD
1000
MTEXTBEGIN
1070
    73
1070
     1
1070
    44
1040
1.0
1070
    74
1070
     0
1000
MTEXTEND
  0
MTEXT
  5
55C4
330
1A
100
AcDbEntity
  8
SUNPOU
100
AcDbMText
 10
43093.65185951858
 20
37689.75582855077
 30
0.0
 40
10.5
 41
0.0
 71
     1
 72
     5
  1

1001
ACAD
1000
MTEXTBEGIN
1070
    73
1070
     1
1070
    44
1040
1.0
1070
    74
1070
     0
1000
MTEXTEND
  0
MTEXT
  5
55C5
330
1A
100
AcDbEntity
  8
SUNPOU
100
AcDbMText
 10
35162.72866358265
 20
36742.96269463781
 30
0.0
 40
10.5
 41
0.0
 71
     7
 72
     5
  1

1001
ACAD
1000
MTEXTBEGIN
1070
    73
1070
     1
1070
    44
1040
1.0
1070
    74
1070
     0
1000
MTEXTEND
  0
MTEXT
  5
55C6
330
1A
100
AcDbEntity
  8
SUNPOU
100
AcDbMText
 10
38111.71232809542
 20
41643.63876648066
 30
0.0
 40
10.5
 41
0.0
 71
     7
 72
     5
  1

1001
ACAD
1000
MTEXTBEGIN
1070
    73
1070
     1
1070
    44
1040
1.0
1070
    74
1070
     0
1000
MTEXTEND
  0
MTEXT
  5
55C7
330
1A
100
AcDbEntity
  8
SUNPOU
100
AcDbMText
 10
42620.79045604597
 20
44079.93951410074
 30
0.0
 40
10.5
 41
0.0
 71
     7
 72
     5
  1

1001
ACAD
1000
MTEXTBEGIN
1070
    73
1070
     1
1070
    44
1040
1.0
1070
    74
1070
     0
1000
MTEXTEND
  0
MTEXT
  5
55C8
330
1A
100
AcDbEntity
  8
SUNPOU
100
AcDbMText
 10
26221.62834281429
 20
23077.53566448964
 30
0.0
 40
10.5
 41
0.0
 71
     7
 72
     5
  1

1001
ACAD
1000
MTEXTBEGIN
1070
    73
1070
     1
1070
    44
1040
1.0
1070
    74
1070
     0
1000
MTEXTEND
  0
MTEXT
  5
55C9
330
1A
100
AcDbEntity
  8
SUNPOU
100
AcDbMText
 10
77413.14677671455
 20
68750.51622813789
 30
0.0
 40
10.5
 41
0.0
 71
     9
 72
     5
  1

1001
ACAD
1000
MTEXTBEGIN
1070
    73
1070
     1
1070
    44
1040
1.0
1070
    74
1070
     0
1000
MTEXTEND
  0
MTEXT
  5
55CA
330
1A
100
AcDbEntity
  8
SUNPOU
100
AcDbMText
 10
86135.31434263256
 20
76166.35075967536
 30
0.0
 40
10.5
 41
0.0
 71
     9
 72
     5
  1

1001
ACAD
1000
MTEXTBEGIN
1070
    73
1070
     1
1070
    44
1040
1.0
1070
    74
1070
     0
1000
MTEXTEND
  0
MTEXT
  5
55CB
330
1A
100
AcDbEntity
  8
SUNPOU
100
AcDbMText
 10
105089.0730599625
 20
93632.92681216739
 30
0.0
 40
10.5
 41
0.0
 71
     9
 72
     5
  1

1001
ACAD
1000
MTEXTBEGIN
1070
    73
1070
     1
1070
    44
1040
1.0
1070
    74
1070
     0
1000
MTEXTEND
  0
MTEXT
  5
55CC
330
1A
100
AcDbEntity
  8
SUNPOU
100
AcDbMText
 10
107032.4803066719
 20
91831.8777322894
 30
0.0
 40
3.5
 41
0.0
 71
     9
 72
     5
  1

1001
ACAD
1000
MTEXTBEGIN
1070
    73
1070
     1
1070
    44
1040
1.0
1070
    74
1070
     0
1000
MTEXTEND
  0
MTEXT
  5
55CD
330
1A
100
AcDbEntity
  8
SUNPOU
100
AcDbMText
 10
138158.6601392916
 20
134326.8233999467
 30
0.0
 40
10.5
 41
0.0
 71
     9
 72
     5
  1

1001
ACAD
1000
MTEXTBEGIN
1070
    73
1070
     1
1070
    44
1040
1.0
1070
    74
1070
     0
1000
MTEXTEND
  0
MTEXT
  5
55CE
330
1A
100
AcDbEntity
  8
SUNPOU
100
AcDbMText
 10
140102.067386001
 20
132525.7743200686
 30
0.0
 40
3.5
 41
0.0
 71
     9
 72
     5
  1

1001
ACAD
1000
MTEXTBEGIN
1070
    73
1070
     1
1070
    44
1040
1.0
1070
    74
1070
     0
1000
MTEXTEND
  0
MTEXT
  5
55CF
330
1A
100
AcDbEntity
  8
SUNPOU
100
AcDbMText
 10
88598.92784508721
 20
80159.98855492179
 30
0.0
 40
10.5
 41
0.0
 71
     9
 72
     5
  1

1001
ACAD
1000
MTEXTBEGIN
1070
    73
1070
     1
1070
    44
1040
1.0
1070
    74
1070
     0
1000
MTEXTEND
  0
MTEXT
  5
55D0
330
1A
100
AcDbEntity
  8
SUNPOU
100
AcDbMText
 10
74650.92774471121
 20
60987.5894158096
 30
0.0
 40
3.5
 41
0.0
 71
     7
 72
     5
  1

1001
ACAD
1000
MTEXTBEGIN
1070
    73
1070
     1
1070
    44
1040
1.0
1070
    74
1070
     0
1000
MTEXTEND
  0
MTEXT
  5
55D1
330
1A
100
AcDbEntity
  8
SUNPOU
100
AcDbMText
 10
55636.09714170436
 20
48749.73814662781
 30
0.0
 40
10.5
 41
0.0
 71
     7
 72
     5
  1

1001
ACAD
1000
MTEXTBEGIN
1070
    73
1070
     1
1070
    44
1040
1.0
1070
    74
1070
     0
1000
MTEXTEND
  0
MTEXT
  5
55D2
330
1A
100
AcDbEntity
  8
SUNPOU
100
AcDbMText
 10
43178.86887675626
 20
32904.80656852938
 30
0.0
 40
35.0
 41
0.0
 71
     9
 72
     5
  1

1001
ACAD
1000
MTEXTBEGIN
1070
    73
1070
     1
1070
    44
1040
1.0
1070
    74
1070
     0
1000
MTEXTEND
  0
MTEXT
  5
55D3
330
1A
100
AcDbEntity
  8
SUNPOU
100
AcDbMText
 10
42087.35393433121
 20
33513.58197857809
 30
0.0
 40
350.0000004171781
 41
0.0
 71
     7
 72
     5
  1

1001
ACAD
1000
MTEXTBEGIN
1070
    73
1070
     1
1070
    44
1040
1.0
1070
    74
1070
     0
1000
MTEXTEND
  0
MTEXT
  5
55D4
330
1A
100
AcDbEntity
  8
0
100
AcDbMText
 10
48131.30469227412
 20
31493.50434071431
 30
0.0
 40
8.0
 41
0.0
 71
     7
 72
     5
  1

1001
ACAD
1000
MTEXTBEGIN
1070
    73
1070
     1
1070
    44
1040
1.0
1070
    74
1070
     0
1000
MTEXTEND
  0
MTEXT
  5
55D5
330
1A
100
AcDbEntity
  8
0
100
AcDbMText
 10
50416.66238216901
 20
32464.29463546537
 30
0.0
 40
8.0
 41
0.0
 71
     7
 72
     5
  1

1001
ACAD
1000
MTEXTBEGIN
1070
    73
1070
     1
1070
    44
1040
1.0
1070
    74
1070
     0
1000
MTEXTEND
  0
MTEXT
  5
55D6
330
1A
100
AcDbEntity
  8
SUNPOU
100
AcDbMText
 10
53082.55940285115
 20
41976.4060278405
 30
0.0
 40
10.5
 41
0.0
 71
     1
 72
     5
  1

1001
ACAD
1000
MTEXTBEGIN
1070
    73
1070
     1
1070
    44
1040
1.0
1070
    74
1070
     0
1000
MTEXTEND
  0
MTEXT
  5
55D7
330
1A
100
AcDbEntity
  8
SUNPOU
100
AcDbMText
 10
45151.63620691522
 20
41029.61289392755
 30
0.0
 40
10.5
 41
0.0
 71
     7
 72
     5
  1

1001
ACAD
1000
MTEXTBEGIN
1070
    73
1070
     1
1070
    44
1040
1.0
1070
    74
1070
     0
1000
MTEXTEND
  0
MTEXT
  5
55D8
330
1A
100
AcDbEntity
  8
SUNPOU
100
AcDbMText
 10
48100.61987142798
 20
45930.28896577039
 30
0.0
 40
10.5
 41
0.0
 71
     7
 72
     5
  1

1001
ACAD
1000
MTEXTBEGIN
1070
    73
1070
     1
1070
    44
1040
1.0
1070
    74
1070
     0
1000
MTEXTEND
  0
MTEXT
  5
55D9
330
1A
100
AcDbEntity
  8
SUNPOU
100
AcDbMText
 10
52609.69799937854
 20
48366.58971339046
 30
0.0
 40
10.5
 41
0.0
 71
     7
 72
     5
  1

1001
ACAD
1000
MTEXTBEGIN
1070
    73
1070
     1
1070
    44
1040
1.0
1070
    74
1070
     0
1000
MTEXTEND
  0
MTEXT
  5
55DA
330
1A
100
AcDbEntity
  8
SUNPOU
100
AcDbMText
 10
36210.53588614687
 20
27364.18586377937
 30
0.0
 40
10.5
 41
0.0
 71
     7
 72
     5
  1

1001
ACAD
1000
MTEXTBEGIN
1070
    73
1070
     1
1070
    44
1040
1.0
1070
    74
1070
     0
1000
MTEXTEND
  0
MTEXT
  5
55DB
330
1A
100
AcDbEntity
  8
SUNPOU
100
AcDbMText
 10
38021.29879752181
 20
33691.59985125794
 30
0.0
 40
10.5
 41
0.0
 71
     9
 72
     5
  1

1001
ACAD
1000
MTEXTBEGIN
1070
    73
1070
     1
1070
    44
1040
1.0
1070
    74
1070
     0
1000
MTEXTEND
  0
MTEXT
  5
55DC
330
1A
100
AcDbEntity
  8
SUNPOU
100
AcDbMText
 10
46743.46636343979
 20
41107.43438279541
 30
0.0
 40
10.5
 41
0.0
 71
     9
 72
     5
  1

1001
ACAD
1000
MTEXTBEGIN
1070
    73
1070
     1
1070
    44
1040
1.0
1070
    74
1070
     0
1000
MTEXTEND
  0
MTEXT
  5
55DD
330
1A
100
AcDbEntity
  8
SUNPOU
100
AcDbMText
 10
65697.22508076975
 20
58574.01043528746
 30
0.0
 40
10.5
 41
0.0
 71
     9
 72
     5
  1

1001
ACAD
1000
MTEXTBEGIN
1070
    73
1070
     1
1070
    44
1040
1.0
1070
    74
1070
     0
1000
MTEXTEND
  0
MTEXT
  5
55DE
330
1A
100
AcDbEntity
  8
SUNPOU
100
AcDbMText
 10
67640.63232747917
 20
56772.96135540945
 30
0.0
 40
3.5
 41
0.0
 71
     9
 72
     5
  1

1001
ACAD
1000
MTEXTBEGIN
1070
    73
1070
     1
1070
    44
1040
1.0
1070
    74
1070
     0
1000
MTEXTEND
  0
MTEXT
  5
55DF
330
1A
100
AcDbEntity
  8
SUNPOU
100
AcDbMText
 10
98766.81216009888
 20
99267.9070230668
 30
0.0
 40
10.5
 41
0.0
 71
     9
 72
     5
  1

1001
ACAD
1000
MTEXTBEGIN
1070
    73
1070
     1
1070
    44
1040
1.0
1070
    74
1070
     0
1000
MTEXTEND
  0
MTEXT
  5
55E0
330
1A
100
AcDbEntity
  8
SUNPOU
100
AcDbMText
 10
100710.2194068083
 20
97466.85794318878
 30
0.0
 40
3.5
 41
0.0
 71
     9
 72
     5
  1

1001
ACAD
1000
MTEXTBEGIN
1070
    73
1070
     1
1070
    44
1040
1.0
1070
    74
1070
     0
1000
MTEXTEND
  0
MTEXT
  5
55E1
330
1A
100
AcDbEntity
  8
SUNPOU
100
AcDbMText
 10
49207.07986589444
 20
45101.07217804185
 30
0.0
 40
10.5
 41
0.0
 71
     9
 72
     5
  1

1001
ACAD
1000
MTEXTBEGIN
1070
    73
1070
     1
1070
    44
1040
1.0
1070
    74
1070
     0
1000
MTEXTEND
  0
MTEXT
  5
55E2
330
1A
100
AcDbEntity
  8
SUNPOU
100
AcDbMText
 10
35259.07976551845
 20
25928.67303892964
 30
0.0
 40
3.5
 41
0.0
 71
     7
 72
     5
  1

1001
ACAD
1000
MTEXTBEGIN
1070
    73
1070
     1
1070
    44
1040
1.0
1070
    74
1070
     0
1000
MTEXTEND
  0
MTEXT
  5
55E3
330
1A
100
AcDbEntity
  8
SUNPOU
100
AcDbMText
 10
48951.43044828905
 20
35287.73625995099
 30
0.0
 40
10.5
 41
0.0
 71
     9
 72
     5
  1

1001
ACAD
1000
MTEXTBEGIN
1070
    73
1070
     1
1070
    44
1040
1.0
1070
    74
1070
     0
1000
MTEXTEND
  0
MTEXT
  5
55E4
330
1A
100
AcDbEntity
  8
SUNPOU
100
AcDbMText
 10
57673.59801420702
 20
42703.57079148847
 30
0.0
 40
10.5
 41
0.0
 71
     9
 72
     5
  1

1001
ACAD
1000
MTEXTBEGIN
1070
    73
1070
     1
1070
    44
1040
1.0
1070
    74
1070
     0
1000
MTEXTEND
  0
MTEXT
  5
55E5
330
1A
100
AcDbEntity
  8
SUNPOU
100
AcDbMText
 10
76627.35673153699
 20
60170.14684398051
 30
0.0
 40
10.5
 41
0.0
 71
     9
 72
     5
  1

1001
ACAD
1000
MTEXTBEGIN
1070
    73
1070
     1
1070
    44
1040
1.0
1070
    74
1070
     0
1000
MTEXTEND
  0
MTEXT
  5
55E6
330
1A
100
AcDbEntity
  8
SUNPOU
100
AcDbMText
 10
78570.76397824641
 20
58369.09776410251
 30
0.0
 40
3.5
 41
0.0
 71
     9
 72
     5
  1

1001
ACAD
1000
MTEXTBEGIN
1070
    73
1070
     1
1070
    44
1040
1.0
1070
    74
1070
     0
1000
MTEXTEND
  0
MTEXT
  5
55E7
330
1A
100
AcDbEntity
  8
SUNPOU
100
AcDbMText
 10
109696.9438108661
 20
100864.0434317598
 30
0.0
 40
10.5
 41
0.0
 71
     9
 72
     5
  1

1001
ACAD
1000
MTEXTBEGIN
1070
    73
1070
     1
1070
    44
1040
1.0
1070
    74
1070
     0
1000
MTEXTEND
  0
MTEXT
  5
55E8
330
1A
100
AcDbEntity
  8
SUNPOU
100
AcDbMText
 10
111640.3510575755
 20
99062.99435188183
 30
0.0
 40
3.5
 41
0.0
 71
     9
 72
     5
  1

1001
ACAD
1000
MTEXTBEGIN
1070
    73
1070
     1
1070
    44
1040
1.0
1070
    74
1070
     0
1000
MTEXTEND
  0
MTEXT
  5
55E9
330
1A
100
AcDbEntity
  8
SUNPOU
100
AcDbMText
 10
60137.21151666167
 20
46697.20858673491
 30
0.0
 40
10.5
 41
0.0
 71
     9
 72
     5
  1

1001
ACAD
1000
MTEXTBEGIN
1070
    73
1070
     1
1070
    44
1040
1.0
1070
    74
1070
     0
1000
MTEXTEND
  0
MTEXT
  5
55EA
330
1A
100
AcDbEntity
  8
SUNPOU
100
AcDbMText
 10
46189.21141628568
 20
27524.80944762269
 30
0.0
 40
3.5
 41
0.0
 71
     7
 72
     5
  1

1001
ACAD
1000
MTEXTBEGIN
1070
    73
1070
     1
1070
    44
1040
1.0
1070
    74
1070
     0
1000
MTEXTEND
  0
MTEXT
  5
55EB
330
1A
100
AcDbEntity
  8
SUNPOU
100
AcDbMText
 10
45007.68847015541
 20
38269.57947701874
 30
0.0
 40
10.5
 41
0.0
 71
     9
 72
     5
  1

1001
ACAD
1000
MTEXTBEGIN
1070
    73
1070
     1
1070
    44
1040
1.0
1070
    74
1070
     0
1000
MTEXTEND
  0
MTEXT
  5
55EC
330
1A
100
AcDbEntity
  8
SUNPOU
100
AcDbMText
 10
63961.44718748539
 20
55736.15552951081
 30
0.0
 40
10.5
 41
0.0
 71
     9
 72
     5
  1

1001
ACAD
1000
MTEXTBEGIN
1070
    73
1070
     1
1070
    44
1040
1.0
1070
    74
1070
     0
1000
MTEXTEND
  0
MTEXT
  5
55ED
330
1A
100
AcDbEntity
  8
SUNPOU
100
AcDbMText
 10
65904.85443419479
 20
53935.10644963279
 30
0.0
 40
3.5
 41
0.0
 71
     9
 72
     5
  1

1001
ACAD
1000
MTEXTBEGIN
1070
    73
1070
     1
1070
    44
1040
1.0
1070
    74
1070
     0
1000
MTEXTEND
  0
MTEXT
  5
55EE
330
1A
100
AcDbEntity
  8
SUNPOU
100
AcDbMText
 10
97031.03426681451
 20
96430.05211729015
 30
0.0
 40
10.5
 41
0.0
 71
     9
 72
     5
  1

1001
ACAD
1000
MTEXTBEGIN
1070
    73
1070
     1
1070
    44
1040
1.0
1070
    74
1070
     0
1000
MTEXTEND
  0
MTEXT
  5
55EF
330
1A
100
AcDbEntity
  8
SUNPOU
100
AcDbMText
 10
98974.44151352393
 20
94629.00303741212
 30
0.0
 40
3.5
 41
0.0
 71
     9
 72
     5
  1

1001
ACAD
1000
MTEXTBEGIN
1070
    73
1070
     1
1070
    44
1040
1.0
1070
    74
1070
     0
1000
MTEXTEND
  0
MTEXT
  5
55F0
330
1A
100
AcDbEntity
  8
SUNPOU
100
AcDbMText
 10
47471.30197261006
 20
42263.21727226519
 30
0.0
 40
10.5
 41
0.0
 71
     9
 72
     5
  1

1001
ACAD
1000
MTEXTBEGIN
1070
    73
1070
     1
1070
    44
1040
1.0
1070
    74
1070
     0
1000
MTEXTEND
  0
MTEXT
  5
55F1
330
1A
100
AcDbEntity
  8
SUNPOU
100
AcDbMText
 10
33523.30187223408
 20
23090.81813315298
 30
0.0
 40
3.5
 41
0.0
 71
     7
 72
     5
  1

1001
ACAD
1000
MTEXTBEGIN
1070
    73
1070
     1
1070
    44
1040
1.0
1070
    74
1070
     0
1000
MTEXTEND
  0
MTEXT
  5
55F2
330
1A
100
AcDbEntity
  8
SUNPOU
100
AcDbMText
 10
57959.46254102503
 20
50038.08111611015
 30
0.0
 40
10.5
 41
0.0
 71
     9
 72
     5
  1

1001
ACAD
1000
MTEXTBEGIN
1070
    73
1070
     1
1070
    44
1040
1.0
1070
    74
1070
     0
1000
MTEXTEND
  0
MTEXT
  5
55F3
330
1A
100
AcDbEntity
  8
SUNPOU
100
AcDbMText
 10
76913.22125835503
 20
67504.65716860222
 30
0.0
 40
10.5
 41
0.0
 71
     9
 72
     5
  1

1001
ACAD
1000
MTEXTBEGIN
1070
    73
1070
     1
1070
    44
1040
1.0
1070
    74
1070
     0
1000
MTEXTEND
  0
MTEXT
  5
55F4
330
1A
100
AcDbEntity
  8
SUNPOU
100
AcDbMText
 10
78856.62850506443
 20
65703.6080887242
 30
0.0
 40
3.5
 41
0.0
 71
     9
 72
     5
  1

1001
ACAD
1000
MTEXTBEGIN
1070
    73
1070
     1
1070
    44
1040
1.0
1070
    74
1070
     0
1000
MTEXTEND
  0
MTEXT
  5
55F5
330
1A
100
AcDbEntity
  8
SUNPOU
100
AcDbMText
 10
109982.8083376841
 20
108198.5537563815
 30
0.0
 40
10.5
 41
0.0
 71
     9
 72
     5
  1

1001
ACAD
1000
MTEXTBEGIN
1070
    73
1070
     1
1070
    44
1040
1.0
1070
    74
1070
     0
1000
MTEXTEND
  0
MTEXT
  5
55F6
330
1A
100
AcDbEntity
  8
SUNPOU
100
AcDbMText
 10
111926.2155843935
 20
106397.5046765035
 30
0.0
 40
3.5
 41
0.0
 71
     9
 72
     5
  1

1001
ACAD
1000
MTEXTBEGIN
1070
    73
1070
     1
1070
    44
1040
1.0
1070
    74
1070
     0
1000
MTEXTEND
  0
MTEXT
  5
55F7
330
1A
100
AcDbEntity
  8
SUNPOU
100
AcDbMText
 10
60423.07604347968
 20
54031.71891135659
 30
0.0
 40
10.5
 41
0.0
 71
     9
 72
     5
  1

1001
ACAD
1000
MTEXTBEGIN
1070
    73
1070
     1
1070
    44
1040
1.0
1070
    74
1070
     0
1000
MTEXTEND
  0
MTEXT
  5
55F8
330
1A
100
AcDbEntity
  8
SUNPOU
100
AcDbMText
 10
46475.07594310369
 20
34859.3197722444
 30
0.0
 40
3.5
 41
0.0
 71
     7
 72
     5
  1

1001
ACAD
1000
MTEXTBEGIN
1070
    73
1070
     1
1070
    44
1040
1.0
1070
    74
1070
     0
1000
MTEXTEND
  0
MTEXT
  5
55F9
330
1A
100
AcDbEntity
  8
SUNPOU
100
AcDbMText
 10
74027.35402123588
 20
68370.58278833383
 30
0.0
 40
10.5
 41
0.0
 71
     9
 72
     5
  1

1001
ACAD
1000
MTEXTBEGIN
1070
    73
1070
     1
1070
    44
1040
1.0
1070
    74
1070
     0
1000
MTEXTEND
  0
MTEXT
  5
55FA
330
1A
100
AcDbEntity
  8
SUNPOU
100
AcDbMText
 10
75970.7612679453
 20
66569.53370845583
 30
0.0
 40
3.5
 41
0.0
 71
     9
 72
     5
  1

1001
ACAD
1000
MTEXTBEGIN
1070
    73
1070
     1
1070
    44
1040
1.0
1070
    74
1070
     0
1000
MTEXTEND
  0
MTEXT
  5
55FB
330
1A
100
AcDbEntity
  8
SUNPOU
100
AcDbMText
 10
107096.941100565
 20
109064.4793761132
 30
0.0
 40
10.5
 41
0.0
 71
     9
 72
     5
  1

1001
ACAD
1000
MTEXTBEGIN
1070
    73
1070
     1
1070
    44
1040
1.0
1070
    74
1070
     0
1000
MTEXTEND
  0
MTEXT
  5
55FC
330
1A
100
AcDbEntity
  8
SUNPOU
100
AcDbMText
 10
109040.3483472744
 20
107263.4302962351
 30
0.0
 40
3.5
 41
0.0
 71
     9
 72
     5
  1

1001
ACAD
1000
MTEXTBEGIN
1070
    73
1070
     1
1070
    44
1040
1.0
1070
    74
1070
     0
1000
MTEXTEND
  0
MTEXT
  5
55FD
330
1A
100
AcDbEntity
  8
SUNPOU
100
AcDbMText
 10
105709.1709283621
 20
108141.3777665285
 30
0.0
 40
10.5
 41
0.0
 71
     9
 72
     5
  1

1001
ACAD
1000
MTEXTBEGIN
1070
    73
1070
     1
1070
    44
1040
1.0
1070
    74
1070
     0
1000
MTEXTEND
  0
MTEXT
  5
55FE
330
1A
100
AcDbEntity
  8
SUNPOU
100
AcDbMText
 10
107652.5781750715
 20
106340.3286866505
 30
0.0
 40
3.5
 41
0.0
 71
     9
 72
     5
  1

1001
ACAD
1000
MTEXTBEGIN
1070
    73
1070
     1
1070
    44
1040
1.0
1070
    74
1070
     0
1000
MTEXTEND
  0
MTEXT
  5
55FF
330
1A
100
AcDbEntity
  8
SUNPOU
100
AcDbMText
 10
73193.09268743351
 20
66158.78082845056
 30
0.0
 40
10.5
 41
0.0
 71
     9
 72
     5
  1

1001
ACAD
1000
MTEXTBEGIN
1070
    73
1070
     1
1070
    44
1040
1.0
1070
    74
1070
     0
1000
MTEXTEND
  0
MTEXT
  5
5600
330
1A
100
AcDbEntity
  8
SUNPOU
100
AcDbMText
 10
75916.39889159806
 20
66563.46252003162
 30
0.0
 40
3.5
 41
0.0
 71
     9
 72
     5
  1

1001
ACAD
1000
MTEXTBEGIN
1070
    73
1070
     1
1070
    44
1040
1.0
1070
    74
1070
     0
1000
MTEXTEND
  0
MTEXT
  5
5601
330
1A
100
AcDbEntity
  8
SUNPOU
100
AcDbMText
 10
75124.04436649058
 20
63402.1566819768
 30
0.0
 40
10.5
 41
0.0
 71
     9
 72
     5
  1

1001
ACAD
1000
MTEXTBEGIN
1070
    73
1070
     1
1070
    44
1040
1.0
1070
    74
1070
     0
1000
MTEXTEND
  0
MTEXT
  5
5602
330
1A
100
AcDbEntity
  8
SUNPOU
100
AcDbMText
 10
77067.4516132
 20
61601.1076020988
 30
0.0
 40
3.5
 41
0.0
 71
     9
 72
     5
  1

1001
ACAD
1000
MTEXTBEGIN
1070
    73
1070
     1
1070
    44
1040
1.0
1070
    74
1070
     0
1000
MTEXTEND
  0
MTEXT
  5
5603
330
1A
100
AcDbEntity
  8
SUNPOU
100
AcDbMText
 10
77012.54710378659
 20
61488.33571981449
 30
0.0
 40
3.5
 41
0.0
 71
     9
 72
     5
  1

1001
ACAD
1000
MTEXTBEGIN
1070
    73
1070
     1
1070
    44
1040
1.0
1070
    74
1070
     0
1000
MTEXTEND
  0
MTEXT
  5
5604
330
1A
100
AcDbEntity
  8
SUNPOU
100
AcDbMText
 10
76376.61896736668
 20
60677.01447874797
 30
0.0
 40
3.5
 41
0.0
 71
     9
 72
     5
  1

1001
ACAD
1000
MTEXTBEGIN
1070
    73
1070
     1
1070
    44
1040
1.0
1070
    74
1070
     0
1000
MTEXTEND
  0
MTEXT
  5
5605
330
1A
100
AcDbEntity
  8
SUNPOU
100
AcDbMText
 10
76375.37854794595
 20
60676.76650181047
 30
0.0
 40
10.5
 41
0.0
 71
     9
 72
     5
  1

1001
ACAD
1000
MTEXTBEGIN
1070
    73
1070
     1
1070
    44
1040
1.0
1070
    74
1070
     0
1000
MTEXTEND
  0
MTEXT
  5
5606
330
1A
100
AcDbEntity
  8
SUNPOU
100
AcDbMText
 10
84709.93991079748
 20
78034.0328293557
 30
0.0
 40
10.5
 41
0.0
 71
     9
 72
     5
  1

1001
ACAD
1000
MTEXTBEGIN
1070
    73
1070
     1
1070
    44
1040
1.0
1070
    74
1070
     0
1000
MTEXTEND
  0
MTEXT
  5
5607
330
1A
100
AcDbEntity
  8
SUNPOU
100
AcDbMText
 10
93432.10747671548
 20
85449.86736089315
 30
0.0
 40
10.5
 41
0.0
 71
     9
 72
     5
  1

1001
ACAD
1000
MTEXTBEGIN
1070
    73
1070
     1
1070
    44
1040
1.0
1070
    74
1070
     0
1000
MTEXTEND
  0
MTEXT
  5
5608
330
1A
100
AcDbEntity
  8
SUNPOU
100
AcDbMText
 10
112385.8661940454
 20
102916.4434133851
 30
0.0
 40
10.5
 41
0.0
 71
     9
 72
     5
  1

1001
ACAD
1000
MTEXTBEGIN
1070
    73
1070
     1
1070
    44
1040
1.0
1070
    74
1070
     0
1000
MTEXTEND
  0
MTEXT
  5
5609
330
1A
100
AcDbEntity
  8
SUNPOU
100
AcDbMText
 10
114329.2734407548
 20
101115.3943335072
 30
0.0
 40
3.5
 41
0.0
 71
     9
 72
     5
  1

1001
ACAD
1000
MTEXTBEGIN
1070
    73
1070
     1
1070
    44
1040
1.0
1070
    74
1070
     0
1000
MTEXTEND
  0
MTEXT
  5
560A
330
1A
100
AcDbEntity
  8
SUNPOU
100
AcDbMText
 10
145455.4532733745
 20
143610.3400011645
 30
0.0
 40
10.5
 41
0.0
 71
     9
 72
     5
  1

1001
ACAD
1000
MTEXTBEGIN
1070
    73
1070
     1
1070
    44
1040
1.0
1070
    74
1070
     0
1000
MTEXTEND
  0
MTEXT
  5
560B
330
1A
100
AcDbEntity
  8
SUNPOU
100
AcDbMText
 10
147398.8605200839
 20
141809.2909212864
 30
0.0
 40
3.5
 41
0.0
 71
     9
 72
     5
  1

1001
ACAD
1000
MTEXTBEGIN
1070
    73
1070
     1
1070
    44
1040
1.0
1070
    74
1070
     0
1000
MTEXTEND
  0
MTEXT
  5
560C
330
1A
100
AcDbEntity
  8
SUNPOU
100
AcDbMText
 10
95895.72097917013
 20
89443.5051561396
 30
0.0
 40
10.5
 41
0.0
 71
     9
 72
     5
  1

1001
ACAD
1000
MTEXTBEGIN
1070
    73
1070
     1
1070
    44
1040
1.0
1070
    74
1070
     0
1000
MTEXTEND
  0
MTEXT
  5
560D
330
1A
100
AcDbEntity
  8
SUNPOU
100
AcDbMText
 10
81947.72087879414
 20
70271.1060170274
 30
0.0
 40
3.5
 41
0.0
 71
     7
 72
     5
  1

1001
ACAD
1000
MTEXTBEGIN
1070
    73
1070
     1
1070
    44
1040
1.0
1070
    74
1070
     0
1000
MTEXTEND
  0
MTEXT
  5
560E
330
1A
100
AcDbEntity
  8
SUNPOU
100
AcDbMText
 10
62932.89027578729
 20
58033.25474784561
 30
0.0
 40
10.5
 41
0.0
 71
     7
 72
     5
  1

1001
ACAD
1000
MTEXTBEGIN
1070
    73
1070
     1
1070
    44
1040
1.0
1070
    74
1070
     0
1000
MTEXTEND
  0
MTEXT
  5
560F
330
1A
100
AcDbEntity
  8
SUNPOU
100
AcDbMText
 10
50475.66201083918
 20
42188.32316974719
 30
0.0
 40
35.0
 41
0.0
 71
     9
 72
     5
  1

1001
ACAD
1000
MTEXTBEGIN
1070
    73
1070
     1
1070
    44
1040
1.0
1070
    74
1070
     0
1000
MTEXTEND
  0
MTEXT
  5
5610
330
1A
100
AcDbEntity
  8
SUNPOU
100
AcDbMText
 10
49384.14706841413
 20
42797.0985797959
 30
0.0
 40
350.0000004171781
 41
0.0
 71
     7
 72
     5
  1

1001
ACAD
1000
MTEXTBEGIN
1070
    73
1070
     1
1070
    44
1040
1.0
1070
    74
1070
     0
1000
MTEXTEND
  0
MTEXT
  5
5611
330
1A
100
AcDbEntity
  8
0
100
AcDbMText
 10
55428.09782635704
 20
40777.02094193211
 30
0.0
 40
8.0
 41
0.0
 71
     7
 72
     5
  1

1001
ACAD
1000
MTEXTBEGIN
1070
    73
1070
     1
1070
    44
1040
1.0
1070
    74
1070
     0
1000
MTEXTEND
  0
MTEXT
  5
5612
330
1A
100
AcDbEntity
  8
0
100
AcDbMText
 10
57713.45551625194
 20
41747.81123668317
 30
0.0
 40
8.0
 41
0.0
 71
     7
 72
     5
  1

1001
ACAD
1000
MTEXTBEGIN
1070
    73
1070
     1
1070
    44
1040
1.0
1070
    74
1070
     0
1000
MTEXTEND
  0
MTEXT
  5
5613
330
1A
100
AcDbEntity
  8
SUNPOU
100
AcDbMText
 10
60379.35253693408
 20
51259.9226290583
 30
0.0
 40
10.5
 41
0.0
 71
     1
 72
     5
  1

1001
ACAD
1000
MTEXTBEGIN
1070
    73
1070
     1
1070
    44
1040
1.0
1070
    74
1070
     0
1000
MTEXTEND
  0
MTEXT
  5
5614
330
1A
100
AcDbEntity
  8
SUNPOU
100
AcDbMText
 10
52448.42934099814
 20
50313.12949514535
 30
0.0
 40
10.5
 41
0.0
 71
     7
 72
     5
  1

1001
ACAD
1000
MTEXTBEGIN
1070
    73
1070
     1
1070
    44
1040
1.0
1070
    74
1070
     0
1000
MTEXTEND
  0
MTEXT
  5
5615
330
1A
100
AcDbEntity
  8
SUNPOU
100
AcDbMText
 10
55397.41300551091
 20
55213.80556698819
 30
0.0
 40
10.5
 41
0.0
 71
     7
 72
     5
  1

1001
ACAD
1000
MTEXTBEGIN
1070
    73
1070
     1
1070
    44
1040
1.0
1070
    74
1070
     0
1000
MTEXTEND
  0
MTEXT
  5
5616
330
1A
100
AcDbEntity
  8
SUNPOU
100
AcDbMText
 10
59906.49113346147
 20
57650.10631460826
 30
0.0
 40
10.5
 41
0.0
 71
     7
 72
     5
  1

1001
ACAD
1000
MTEXTBEGIN
1070
    73
1070
     1
1070
    44
1040
1.0
1070
    74
1070
     0
1000
MTEXTEND
  0
MTEXT
  5
5617
330
1A
100
AcDbEntity
  8
SUNPOU
100
AcDbMText
 10
43507.32902022979
 20
36647.70246499718
 30
0.0
 40
10.5
 41
0.0
 71
     7
 72
     5
  1

1001
ACAD
1000
MTEXTBEGIN
1070
    73
1070
     1
1070
    44
1040
1.0
1070
    74
1070
     0
1000
MTEXTEND
  0
MTEXT
  5
5618
330
1A
100
AcDbEntity
  8
SUNPOU
100
AcDbMText
 10
94698.84745413006
 20
82320.68302864542
 30
0.0
 40
10.5
 41
0.0
 71
     9
 72
     5
  1

1001
ACAD
1000
MTEXTBEGIN
1070
    73
1070
     1
1070
    44
1040
1.0
1070
    74
1070
     0
1000
MTEXTEND
  0
MTEXT
  5
5619
330
1A
100
AcDbEntity
  8
SUNPOU
100
AcDbMText
 10
103421.015020048
 20
89736.5175601829
 30
0.0
 40
10.5
 41
0.0
 71
     9
 72
     5
  1

1001
ACAD
1000
MTEXTBEGIN
1070
    73
1070
     1
1070
    44
1040
1.0
1070
    74
1070
     0
1000
MTEXTEND
  0
MTEXT
  5
561A
330
1A
100
AcDbEntity
  8
SUNPOU
100
AcDbMText
 10
122374.773737378
 20
107203.0936126749
 30
0.0
 40
10.5
 41
0.0
 71
     9
 72
     5
  1

1001
ACAD
1000
MTEXTBEGIN
1070
    73
1070
     1
1070
    44
1040
1.0
1070
    74
1070
     0
1000
MTEXTEND
  0
MTEXT
  5
561B
330
1A
100
AcDbEntity
  8
SUNPOU
100
AcDbMText
 10
124318.1809840874
 20
105402.0445327969
 30
0.0
 40
3.5
 41
0.0
 71
     9
 72
     5
  1

1001
ACAD
1000
MTEXTBEGIN
1070
    73
1070
     1
1070
    44
1040
1.0
1070
    74
1070
     0
1000
MTEXTEND
  0
MTEXT
  5
561C
330
1A
100
AcDbEntity
  8
SUNPOU
100
AcDbMText
 10
155444.3608167071
 20
147896.9902004542
 30
0.0
 40
10.5
 41
0.0
 71
     9
 72
     5
  1

1001
ACAD
1000
MTEXTBEGIN
1070
    73
1070
     1
1070
    44
1040
1.0
1070
    74
1070
     0
1000
MTEXTEND
  0
MTEXT
  5
561D
330
1A
100
AcDbEntity
  8
SUNPOU
100
AcDbMText
 10
157387.7680634165
 20
146095.9411205762
 30
0.0
 40
3.5
 41
0.0
 71
     9
 72
     5
  1

1001
ACAD
1000
MTEXTBEGIN
1070
    73
1070
     1
1070
    44
1040
1.0
1070
    74
1070
     0
1000
MTEXTEND
  0
MTEXT
  5
561E
330
1A
100
AcDbEntity
  8
SUNPOU
100
AcDbMText
 10
105884.6285225027
 20
93730.15535542933
 30
0.0
 40
10.5
 41
0.0
 71
     9
 72
     5
  1

1001
ACAD
1000
MTEXTBEGIN
1070
    73
1070
     1
1070
    44
1040
1.0
1070
    74
1070
     0
1000
MTEXTEND
  0
MTEXT
  5
561F
330
1A
100
AcDbEntity
  8
SUNPOU
100
AcDbMText
 10
91936.6284221267
 20
74557.75621631714
 30
0.0
 40
3.5
 41
0.0
 71
     7
 72
     5
  1

1001
ACAD
1000
MTEXTBEGIN
1070
    73
1070
     1
1070
    44
1040
1.0
1070
    74
1070
     0
1000
MTEXTEND
  0
MTEXT
  5
5620
330
1A
100
AcDbEntity
  8
SUNPOU
100
AcDbMText
 10
72921.79781911986
 20
62319.90494713533
 30
0.0
 40
10.5
 41
0.0
 71
     7
 72
     5
  1

1001
ACAD
1000
MTEXTBEGIN
1070
    73
1070
     1
1070
    44
1040
1.0
1070
    74
1070
     0
1000
MTEXTEND
  0
MTEXT
  5
5621
330
1A
100
AcDbEntity
  8
SUNPOU
100
AcDbMText
 10
60464.56955417175
 20
46474.97336903692
 30
0.0
 40
35.0
 41
0.0
 71
     9
 72
     5
  1

1001
ACAD
1000
MTEXTBEGIN
1070
    73
1070
     1
1070
    44
1040
1.0
1070
    74
1070
     0
1000
MTEXTEND
  0
MTEXT
  5
5622
330
1A
100
AcDbEntity
  8
SUNPOU
100
AcDbMText
 10
59373.05461174672
 20
47083.74877908562
 30
0.0
 40
350.0000004171781
 41
0.0
 71
     7
 72
     5
  1

1001
ACAD
1000
MTEXTBEGIN
1070
    73
1070
     1
1070
    44
1040
1.0
1070
    74
1070
     0
1000
MTEXTEND
  0
MTEXT
  5
5623
330
1A
100
AcDbEntity
  8
0
100
AcDbMText
 10
65417.00536968962
 20
45063.67114122186
 30
0.0
 40
8.0
 41
0.0
 71
     7
 72
     5
  1

1001
ACAD
1000
MTEXTBEGIN
1070
    73
1070
     1
1070
    44
1040
1.0
1070
    74
1070
     0
1000
MTEXTEND
  0
MTEXT
  5
5624
330
1A
100
AcDbEntity
  8
0
100
AcDbMText
 10
67702.36305958452
 20
46034.46143597292
 30
0.0
 40
8.0
 41
0.0
 71
     7
 72
     5
  1

1001
ACAD
1000
MTEXTBEGIN
1070
    73
1070
     1
1070
    44
1040
1.0
1070
    74
1070
     0
1000
MTEXTEND
  0
MTEXT
  5
5625
330
1A
100
AcDbEntity
  8
SUNPOU
100
AcDbMText
 10
70368.26008026666
 20
55546.57282834803
 30
0.0
 40
10.5
 41
0.0
 71
     1
 72
     5
  1

1001
ACAD
1000
MTEXTBEGIN
1070
    73
1070
     1
1070
    44
1040
1.0
1070
    74
1070
     0
1000
MTEXTEND
  0
MTEXT
  5
5626
330
1A
100
AcDbEntity
  8
SUNPOU
100
AcDbMText
 10
62437.33688433072
 20
54599.77969443508
 30
0.0
 40
10.5
 41
0.0
 71
     7
 72
     5
  1

1001
ACAD
1000
MTEXTBEGIN
1070
    73
1070
     1
1070
    44
1040
1.0
1070
    74
1070
     0
1000
MTEXTEND
  0
MTEXT
  5
5627
330
1A
100
AcDbEntity
  8
SUNPOU
100
AcDbMText
 10
65386.32054884349
 20
59500.45576627792
 30
0.0
 40
10.5
 41
0.0
 71
     7
 72
     5
  1

1001
ACAD
1000
MTEXTBEGIN
1070
    73
1070
     1
1070
    44
1040
1.0
1070
    74
1070
     0
1000
MTEXTEND
  0
MTEXT
  5
5628
330
1A
100
AcDbEntity
  8
SUNPOU
100
AcDbMText
 10
69895.39867679405
 20
61936.756513898
 30
0.0
 40
10.5
 41
0.0
 71
     7
 72
     5
  1

1001
ACAD
1000
MTEXTBEGIN
1070
    73
1070
     1
1070
    44
1040
1.0
1070
    74
1070
     0
1000
MTEXTEND
  0
MTEXT
  5
5629
330
1A
100
AcDbEntity
  8
SUNPOU
100
AcDbMText
 10
53496.23656356237
 20
40934.35266428691
 30
0.0
 40
10.5
 41
0.0
 71
     7
 72
     5
  1

1001
ACAD
1000
MTEXTBEGIN
1070
    73
1070
     1
1070
    44
1040
1.0
1070
    74
1070
     0
1000
MTEXTEND
  0
MTEXT
  5
562A
330
1A
100
AcDbEntity
  8
SUNPOU
100
AcDbMText
 10
55306.99947493731
 20
47261.76665176547
 30
0.0
 40
10.5
 41
0.0
 71
     9
 72
     5
  1

1001
ACAD
1000
MTEXTBEGIN
1070
    73
1070
     1
1070
    44
1040
1.0
1070
    74
1070
     0
1000
MTEXTEND
  0
MTEXT
  5
562B
330
1A
100
AcDbEntity
  8
SUNPOU
100
AcDbMText
 10
64029.16704085528
 20
54677.60118330295
 30
0.0
 40
10.5
 41
0.0
 71
     9
 72
     5
  1

1001
ACAD
1000
MTEXTBEGIN
1070
    73
1070
     1
1070
    44
1040
1.0
1070
    74
1070
     0
1000
MTEXTEND
  0
MTEXT
  5
562C
330
1A
100
AcDbEntity
  8
SUNPOU
100
AcDbMText
 10
82982.92575818527
 20
72144.17723579499
 30
0.0
 40
10.5
 41
0.0
 71
     9
 72
     5
  1

1001
ACAD
1000
MTEXTBEGIN
1070
    73
1070
     1
1070
    44
1040
1.0
1070
    74
1070
     0
1000
MTEXTEND
  0
MTEXT
  5
562D
330
1A
100
AcDbEntity
  8
SUNPOU
100
AcDbMText
 10
84926.33300489467
 20
70343.12815591698
 30
0.0
 40
3.5
 41
0.0
 71
     9
 72
     5
  1

1001
ACAD
1000
MTEXTBEGIN
1070
    73
1070
     1
1070
    44
1040
1.0
1070
    74
1070
     0
1000
MTEXTEND
  0
MTEXT
  5
562E
330
1A
100
AcDbEntity
  8
SUNPOU
100
AcDbMText
 10
116052.5128375143
 20
112838.0738235743
 30
0.0
 40
10.5
 41
0.0
 71
     9
 72
     5
  1

1001
ACAD
1000
MTEXTBEGIN
1070
    73
1070
     1
1070
    44
1040
1.0
1070
    74
1070
     0
1000
MTEXTEND
  0
MTEXT
  5
562F
330
1A
100
AcDbEntity
  8
SUNPOU
100
AcDbMText
 10
117995.9200842238
 20
111037.0247436963
 30
0.0
 40
3.5
 41
0.0
 71
     9
 72
     5
  1

1001
ACAD
1000
MTEXTBEGIN
1070
    73
1070
     1
1070
    44
1040
1.0
1070
    74
1070
     0
1000
MTEXTEND
  0
MTEXT
  5
5630
330
1A
100
AcDbEntity
  8
SUNPOU
100
AcDbMText
 10
66492.78054330994
 20
58671.23897854939
 30
0.0
 40
10.5
 41
0.0
 71
     9
 72
     5
  1

1001
ACAD
1000
MTEXTBEGIN
1070
    73
1070
     1
1070
    44
1040
1.0
1070
    74
1070
     0
1000
MTEXTEND
  0
MTEXT
  5
5631
330
1A
100
AcDbEntity
  8
SUNPOU
100
AcDbMText
 10
52544.78044293396
 20
39498.83983943717
 30
0.0
 40
3.5
 41
0.0
 71
     7
 72
     5
  1

1001
ACAD
1000
MTEXTBEGIN
1070
    73
1070
     1
1070
    44
1040
1.0
1070
    74
1070
     0
1000
MTEXTEND
  0
MTEXT
  5
5632
330
1A
100
AcDbEntity
  8
SUNPOU
100
AcDbMText
 10
66237.13112570454
 20
48857.90306045851
 30
0.0
 40
10.5
 41
0.0
 71
     9
 72
     5
  1

1001
ACAD
1000
MTEXTBEGIN
1070
    73
1070
     1
1070
    44
1040
1.0
1070
    74
1070
     0
1000
MTEXTEND
  0
MTEXT
  5
5633
330
1A
100
AcDbEntity
  8
SUNPOU
100
AcDbMText
 10
74959.29869162252
 20
56273.737591996
 30
0.0
 40
10.5
 41
0.0
 71
     9
 72
     5
  1

1001
ACAD
1000
MTEXTBEGIN
1070
    73
1070
     1
1070
    44
1040
1.0
1070
    74
1070
     0
1000
MTEXTEND
  0
MTEXT
  5
5634
330
1A
100
AcDbEntity
  8
SUNPOU
100
AcDbMText
 10
93913.0574089525
 20
73740.31364448805
 30
0.0
 40
10.5
 41
0.0
 71
     9
 72
     5
  1

1001
ACAD
1000
MTEXTBEGIN
1070
    73
1070
     1
1070
    44
1040
1.0
1070
    74
1070
     0
1000
MTEXTEND
  0
MTEXT
  5
5635
330
1A
100
AcDbEntity
  8
SUNPOU
100
AcDbMText
 10
95856.46465566192
 20
71939.26456461004
 30
0.0
 40
3.5
 41
0.0
 71
     9
 72
     5
  1

1001
ACAD
1000
MTEXTBEGIN
1070
    73
1070
     1
1070
    44
1040
1.0
1070
    74
1070
     0
1000
MTEXTEND
  0
MTEXT
  5
5636
330
1A
100
AcDbEntity
  8
SUNPOU
100
AcDbMText
 10
126982.6444882816
 20
114434.2102322673
 30
0.0
 40
10.5
 41
0.0
 71
     9
 72
     5
  1

1001
ACAD
1000
MTEXTBEGIN
1070
    73
1070
     1
1070
    44
1040
1.0
1070
    74
1070
     0
1000
MTEXTEND
  0
MTEXT
  5
5637
330
1A
100
AcDbEntity
  8
SUNPOU
100
AcDbMText
 10
128926.051734991
 20
112633.1611523893
 30
0.0
 40
3.5
 41
0.0
 71
     9
 72
     5
  1

1001
ACAD
1000
MTEXTBEGIN
1070
    73
1070
     1
1070
    44
1040
1.0
1070
    74
1070
     0
1000
MTEXTEND
  0
MTEXT
  5
5638
330
1A
100
AcDbEntity
  8
SUNPOU
100
AcDbMText
 10
77422.91219407717
 20
60267.37538724244
 30
0.0
 40
10.5
 41
0.0
 71
     9
 72
     5
  1

1001
ACAD
1000
MTEXTBEGIN
1070
    73
1070
     1
1070
    44
1040
1.0
1070
    74
1070
     0
1000
MTEXTEND
  0
MTEXT
  5
5639
330
1A
100
AcDbEntity
  8
SUNPOU
100
AcDbMText
 10
63474.91209370119
 20
41094.97624813023
 30
0.0
 40
3.5
 41
0.0
 71
     7
 72
     5
  1

1001
ACAD
1000
MTEXTBEGIN
1070
    73
1070
     1
1070
    44
1040
1.0
1070
    74
1070
     0
1000
MTEXTEND
  0
MTEXT
  5
563A
330
1A
100
AcDbEntity
  8
SUNPOU
100
AcDbMText
 10
48117.65086229006
 20
40806.11043916631
 30
0.0
 40
10.5
 41
0.0
 71
     9
 72
     5
  1

1001
ACAD
1000
MTEXTBEGIN
1070
    73
1070
     1
1070
    44
1040
1.0
1070
    74
1070
     0
1000
MTEXTEND
  0
MTEXT
  5
563B
330
1A
100
AcDbEntity
  8
SUNPOU
100
AcDbMText
 10
67071.40957962004
 20
58272.68649165837
 30
0.0
 40
10.5
 41
0.0
 71
     9
 72
     5
  1

1001
ACAD
1000
MTEXTBEGIN
1070
    73
1070
     1
1070
    44
1040
1.0
1070
    74
1070
     0
1000
MTEXTEND
  0
MTEXT
  5
563C
330
1A
100
AcDbEntity
  8
SUNPOU
100
AcDbMText
 10
69014.81682632945
 20
56471.63741178035
 30
0.0
 40
3.5
 41
0.0
 71
     9
 72
     5
  1

1001
ACAD
1000
MTEXTBEGIN
1070
    73
1070
     1
1070
    44
1040
1.0
1070
    74
1070
     0
1000
MTEXTEND
  0
MTEXT
  5
563D
330
1A
100
AcDbEntity
  8
SUNPOU
100
AcDbMText
 10
100140.9966589491
 20
98966.58307943772
 30
0.0
 40
10.5
 41
0.0
 71
     9
 72
     5
  1

1001
ACAD
1000
MTEXTBEGIN
1070
    73
1070
     1
1070
    44
1040
1.0
1070
    74
1070
     0
1000
MTEXTEND
  0
MTEXT
  5
563E
330
1A
100
AcDbEntity
  8
SUNPOU
100
AcDbMText
 10
102084.4039056586
 20
97165.53399955969
 30
0.0
 40
3.5
 41
0.0
 71
     9
 72
     5
  1

1001
ACAD
1000
MTEXTBEGIN
1070
    73
1070
     1
1070
    44
1040
1.0
1070
    74
1070
     0
1000
MTEXTEND
  0
MTEXT
  5
563F
330
1A
100
AcDbEntity
  8
SUNPOU
100
AcDbMText
 10
50581.26436474472
 20
44799.74823441275
 30
0.0
 40
10.5
 41
0.0
 71
     9
 72
     5
  1

1001
ACAD
1000
MTEXTBEGIN
1070
    73
1070
     1
1070
    44
1040
1.0
1070
    74
1070
     0
1000
MTEXTEND
  0
MTEXT
  5
5640
330
1A
100
AcDbEntity
  8
SUNPOU
100
AcDbMText
 10
36633.26426436873
 20
25627.34909530054
 30
0.0
 40
3.5
 41
0.0
 71
     7
 72
     5
  1

1001
ACAD
1000
MTEXTBEGIN
1070
    73
1070
     1
1070
    44
1040
1.0
1070
    74
1070
     0
1000
MTEXTEND
  0
MTEXT
  5
5641
330
1A
100
AcDbEntity
  8
SUNPOU
100
AcDbMText
 10
61069.42493315968
 20
52574.61207825771
 30
0.0
 40
10.5
 41
0.0
 71
     9
 72
     5
  1

1001
ACAD
1000
MTEXTBEGIN
1070
    73
1070
     1
1070
    44
1040
1.0
1070
    74
1070
     0
1000
MTEXTEND
  0
MTEXT
  5
5642
330
1A
100
AcDbEntity
  8
SUNPOU
100
AcDbMText
 10
80023.18365048967
 20
70041.18813074978
 30
0.0
 40
10.5
 41
0.0
 71
     9
 72
     5
  1

1001
ACAD
1000
MTEXTBEGIN
1070
    73
1070
     1
1070
    44
1040
1.0
1070
    74
1070
     0
1000
MTEXTEND
  0
MTEXT
  5
5643
330
1A
100
AcDbEntity
  8
SUNPOU
100
AcDbMText
 10
81966.59089719908
 20
68240.13905087176
 30
0.0
 40
3.5
 41
0.0
 71
     9
 72
     5
  1

1001
ACAD
1000
MTEXTBEGIN
1070
    73
1070
     1
1070
    44
1040
1.0
1070
    74
1070
     0
1000
MTEXTEND
  0
MTEXT
  5
5644
330
1A
100
AcDbEntity
  8
SUNPOU
100
AcDbMText
 10
113092.7707298187
 20
110735.0847185291
 30
0.0
 40
10.5
 41
0.0
 71
     9
 72
     5
  1

1001
ACAD
1000
MTEXTBEGIN
1070
    73
1070
     1
1070
    44
1040
1.0
1070
    74
1070
     0
1000
MTEXTEND
  0
MTEXT
  5
5645
330
1A
100
AcDbEntity
  8
SUNPOU
100
AcDbMText
 10
115036.1779765282
 20
108934.0356386511
 30
0.0
 40
3.5
 41
0.0
 71
     9
 72
     5
  1

1001
ACAD
1000
MTEXTBEGIN
1070
    73
1070
     1
1070
    44
1040
1.0
1070
    74
1070
     0
1000
MTEXTEND
  0
MTEXT
  5
5646
330
1A
100
AcDbEntity
  8
SUNPOU
100
AcDbMText
 10
63533.03843561433
 20
56568.24987350415
 30
0.0
 40
10.5
 41
0.0
 71
     9
 72
     5
  1

1001
ACAD
1000
MTEXTBEGIN
1070
    73
1070
     1
1070
    44
1040
1.0
1070
    74
1070
     0
1000
MTEXTEND
  0
MTEXT
  5
5647
330
1A
100
AcDbEntity
  8
SUNPOU
100
AcDbMText
 10
49585.03833523835
 20
37395.85073439196
 30
0.0
 40
3.5
 41
0.0
 71
     7
 72
     5
  1

1001
ACAD
1000
MTEXTBEGIN
1070
    73
1070
     1
1070
    44
1040
1.0
1070
    74
1070
     0
1000
MTEXTEND
  0
MTEXT
  5
5648
330
1A
100
AcDbEntity
  8
SUNPOU
100
AcDbMText
 10
77137.31641337052
 20
70907.11375048141
 30
0.0
 40
10.5
 41
0.0
 71
     9
 72
     5
  1

1001
ACAD
1000
MTEXTBEGIN
1070
    73
1070
     1
1070
    44
1040
1.0
1070
    74
1070
     0
1000
MTEXTEND
  0
MTEXT
  5
5649
330
1A
100
AcDbEntity
  8
SUNPOU
100
AcDbMText
 10
79080.72366007995
 20
69106.06467060339
 30
0.0
 40
3.5
 41
0.0
 71
     9
 72
     5
  1

1001
ACAD
1000
MTEXTBEGIN
1070
    73
1070
     1
1070
    44
1040
1.0
1070
    74
1070
     0
1000
MTEXTEND
  0
MTEXT
  5
564A
330
1A
100
AcDbEntity
  8
SUNPOU
100
AcDbMText
 10
110206.9034926996
 20
111601.0103382607
 30
0.0
 40
10.5
 41
0.0
 71
     9
 72
     5
  1

1001
ACAD
1000
MTEXTBEGIN
1070
    73
1070
     1
1070
    44
1040
1.0
1070
    74
1070
     0
1000
MTEXTEND
  0
MTEXT
  5
564B
330
1A
100
AcDbEntity
  8
SUNPOU
100
AcDbMText
 10
112150.310739409
 20
109799.9612583827
 30
0.0
 40
3.5
 41
0.0
 71
     9
 72
     5
  1

1001
ACAD
1000
MTEXTBEGIN
1070
    73
1070
     1
1070
    44
1040
1.0
1070
    74
1070
     0
1000
MTEXTEND
  0
MTEXT
  5
564C
330
1A
100
AcDbEntity
  8
SUNPOU
100
AcDbMText
 10
108819.1333204968
 20
110677.9087286761
 30
0.0
 40
10.5
 41
0.0
 71
     9
 72
     5
  1

1001
ACAD
1000
MTEXTBEGIN
1070
    73
1070
     1
1070
    44
1040
1.0
1070
    74
1070
     0
1000
MTEXTEND
  0
MTEXT
  5
564D
330
1A
100
AcDbEntity
  8
SUNPOU
100
AcDbMText
 10
110762.5405672062
 20
108876.8596487981
 30
0.0
 40
3.5
 41
0.0
 71
     9
 72
     5
  1

1001
ACAD
1000
MTEXTBEGIN
1070
    73
1070
     1
1070
    44
1040
1.0
1070
    74
1070
     0
1000
MTEXTEND
  0
MTEXT
  5
564E
330
1A
100
AcDbEntity
  8
SUNPOU
100
AcDbMText
 10
76303.05507956816
 20
68695.31179059812
 30
0.0
 40
10.5
 41
0.0
 71
     9
 72
     5
  1

1001
ACAD
1000
MTEXTBEGIN
1070
    73
1070
     1
1070
    44
1040
1.0
1070
    74
1070
     0
1000
MTEXTEND
  0
MTEXT
  5
564F
330
1A
100
AcDbEntity
  8
SUNPOU
100
AcDbMText
 10
79026.36128373271
 20
69099.99348217918
 30
0.0
 40
3.5
 41
0.0
 71
     9
 72
     5
  1

1001
ACAD
1000
MTEXTBEGIN
1070
    73
1070
     1
1070
    44
1040
1.0
1070
    74
1070
     0
1000
MTEXTEND
  0
MTEXT
  5
5650
330
1A
100
AcDbEntity
  8
SUNPOU
100
AcDbMText
 10
78234.00675862522
 20
65938.68764412436
 30
0.0
 40
10.5
 41
0.0
 71
     9
 72
     5
  1

1001
ACAD
1000
MTEXTBEGIN
1070
    73
1070
     1
1070
    44
1040
1.0
1070
    74
1070
     0
1000
MTEXTEND
  0
MTEXT
  5
5651
330
1A
100
AcDbEntity
  8
SUNPOU
100
AcDbMText
 10
80177.41400533465
 20
64137.63856424636
 30
0.0
 40
3.5
 41
0.0
 71
     9
 72
     5
  1

1001
ACAD
1000
MTEXTBEGIN
1070
    73
1070
     1
1070
    44
1040
1.0
1070
    74
1070
     0
1000
MTEXTEND
  0
MTEXT
  5
5652
330
1A
100
AcDbEntity
  8
SUNPOU
100
AcDbMText
 10
80122.50949592123
 20
64024.86668196205
 30
0.0
 40
3.5
 41
0.0
 71
     9
 72
     5
  1

1001
ACAD
1000
MTEXTBEGIN
1070
    73
1070
     1
1070
    44
1040
1.0
1070
    74
1070
     0
1000
MTEXTEND
  0
MTEXT
  5
5653
330
1A
100
AcDbEntity
  8
SUNPOU
100
AcDbMText
 10
79486.58135950133
 20
63213.54544089553
 30
0.0
 40
3.5
 41
0.0
 71
     9
 72
     5
  1

1001
ACAD
1000
MTEXTBEGIN
1070
    73
1070
     1
1070
    44
1040
1.0
1070
    74
1070
     0
1000
MTEXTEND
  0
MTEXT
  5
5654
330
1A
100
AcDbEntity
  8
SUNPOU
100
AcDbMText
 10
79485.3409400806
 20
63213.29746395804
 30
0.0
 40
10.5
 41
0.0
 71
     9
 72
     5
  1

1001
ACAD
1000
MTEXTBEGIN
1070
    73
1070
     1
1070
    44
1040
1.0
1070
    74
1070
     0
1000
MTEXTEND
  0
MTEXT
  5
5655
330
1A
100
AcDbEntity
  8
SUNPOU
100
AcDbMText
 10
85473.63363627567
 20
80747.76348077064
 30
0.0
 40
10.5
 41
0.0
 71
     9
 72
     5
  1

1001
ACAD
1000
MTEXTBEGIN
1070
    73
1070
     1
1070
    44
1040
1.0
1070
    74
1070
     0
1000
MTEXTEND
  0
MTEXT
  5
5656
330
1A
100
AcDbEntity
  8
SUNPOU
100
AcDbMText
 10
94195.80120219368
 20
88163.59801230809
 30
0.0
 40
10.5
 41
0.0
 71
     9
 72
     5
  1

1001
ACAD
1000
MTEXTBEGIN
1070
    73
1070
     1
1070
    44
1040
1.0
1070
    74
1070
     0
1000
MTEXTEND
  0
MTEXT
  5
5657
330
1A
100
AcDbEntity
  8
SUNPOU
100
AcDbMText
 10
113149.5599195236
 20
105630.1740648001
 30
0.0
 40
10.5
 41
0.0
 71
     9
 72
     5
  1

1001
ACAD
1000
MTEXTBEGIN
1070
    73
1070
     1
1070
    44
1040
1.0
1070
    74
1070
     0
1000
MTEXTEND
  0
MTEXT
  5
5658
330
1A
100
AcDbEntity
  8
SUNPOU
100
AcDbMText
 10
115092.967166233
 20
103829.1249849221
 30
0.0
 40
3.5
 41
0.0
 71
     9
 72
     5
  1

1001
ACAD
1000
MTEXTBEGIN
1070
    73
1070
     1
1070
    44
1040
1.0
1070
    74
1070
     0
1000
MTEXTEND
  0
MTEXT
  5
5659
330
1A
100
AcDbEntity
  8
SUNPOU
100
AcDbMText
 10
146219.1469988527
 20
146324.0706525794
 30
0.0
 40
10.5
 41
0.0
 71
     9
 72
     5
  1

1001
ACAD
1000
MTEXTBEGIN
1070
    73
1070
     1
1070
    44
1040
1.0
1070
    74
1070
     0
1000
MTEXTEND
  0
MTEXT
  5
565A
330
1A
100
AcDbEntity
  8
SUNPOU
100
AcDbMText
 10
148162.5542455621
 20
144523.0215727014
 30
0.0
 40
3.5
 41
0.0
 71
     9
 72
     5
  1

1001
ACAD
1000
MTEXTBEGIN
1070
    73
1070
     1
1070
    44
1040
1.0
1070
    74
1070
     0
1000
MTEXTEND
  0
MTEXT
  5
565B
330
1A
100
AcDbEntity
  8
SUNPOU
100
AcDbMText
 10
96659.41470464833
 20
92157.23580755453
 30
0.0
 40
10.5
 41
0.0
 71
     9
 72
     5
  1

1001
ACAD
1000
MTEXTBEGIN
1070
    73
1070
     1
1070
    44
1040
1.0
1070
    74
1070
     0
1000
MTEXTEND
  0
MTEXT
  5
565C
330
1A
100
AcDbEntity
  8
SUNPOU
100
AcDbMText
 10
82711.41460427234
 20
72984.83666844234
 30
0.0
 40
3.5
 41
0.0
 71
     7
 72
     5
  1

1001
ACAD
1000
MTEXTBEGIN
1070
    73
1070
     1
1070
    44
1040
1.0
1070
    74
1070
     0
1000
MTEXTEND
  0
MTEXT
  5
565D
330
1A
100
AcDbEntity
  8
SUNPOU
100
AcDbMText
 10
63696.58400126548
 20
60746.98539926055
 30
0.0
 40
10.5
 41
0.0
 71
     7
 72
     5
  1

1001
ACAD
1000
MTEXTBEGIN
1070
    73
1070
     1
1070
    44
1040
1.0
1070
    74
1070
     0
1000
MTEXTEND
  0
MTEXT
  5
565E
330
1A
100
AcDbEntity
  8
SUNPOU
100
AcDbMText
 10
51239.35573631738
 20
44902.05382116213
 30
0.0
 40
35.0
 41
0.0
 71
     9
 72
     5
  1

1001
ACAD
1000
MTEXTBEGIN
1070
    73
1070
     1
1070
    44
1040
1.0
1070
    74
1070
     0
1000
MTEXTEND
  0
MTEXT
  5
565F
330
1A
100
AcDbEntity
  8
SUNPOU
100
AcDbMText
 10
50147.84079389233
 20
45510.82923121084
 30
0.0
 40
350.0000004171781
 41
0.0
 71
     7
 72
     5
  1

1001
ACAD
1000
MTEXTBEGIN
1070
    73
1070
     1
1070
    44
1040
1.0
1070
    74
1070
     0
1000
MTEXTEND
  0
MTEXT
  5
5660
330
1A
100
AcDbEntity
  8
0
100
AcDbMText
 10
56191.79155183523
 20
43490.75159334705
 30
0.0
 40
8.0
 41
0.0
 71
     7
 72
     5
  1

1001
ACAD
1000
MTEXTBEGIN
1070
    73
1070
     1
1070
    44
1040
1.0
1070
    74
1070
     0
1000
MTEXTEND
  0
MTEXT
  5
5661
330
1A
100
AcDbEntity
  8
0
100
AcDbMText
 10
58477.14924173013
 20
44461.54188809812
 30
0.0
 40
8.0
 41
0.0
 71
     7
 72
     5
  1

1001
ACAD
1000
MTEXTBEGIN
1070
    73
1070
     1
1070
    44
1040
1.0
1070
    74
1070
     0
1000
MTEXTEND
  0
MTEXT
  5
5662
330
1A
100
AcDbEntity
  8
SUNPOU
100
AcDbMText
 10
61143.04626241227
 20
53973.65328047324
 30
0.0
 40
10.5
 41
0.0
 71
     1
 72
     5
  1

1001
ACAD
1000
MTEXTBEGIN
1070
    73
1070
     1
1070
    44
1040
1.0
1070
    74
1070
     0
1000
MTEXTEND
  0
MTEXT
  5
5663
330
1A
100
AcDbEntity
  8
SUNPOU
100
AcDbMText
 10
53212.12306647634
 20
53026.86014656028
 30
0.0
 40
10.5
 41
0.0
 71
     7
 72
     5
  1

1001
ACAD
1000
MTEXTBEGIN
1070
    73
1070
     1
1070
    44
1040
1.0
1070
    74
1070
     0
1000
MTEXTEND
  0
MTEXT
  5
5664
330
1A
100
AcDbEntity
  8
SUNPOU
100
AcDbMText
 10
56161.1067309891
 20
57927.53621840312
 30
0.0
 40
10.5
 41
0.0
 71
     7
 72
     5
  1

1001
ACAD
1000
MTEXTBEGIN
1070
    73
1070
     1
1070
    44
1040
1.0
1070
    74
1070
     0
1000
MTEXTEND
  0
MTEXT
  5
5665
330
1A
100
AcDbEntity
  8
SUNPOU
100
AcDbMText
 10
60670.18485893966
 20
60363.8369660232
 30
0.0
 40
10.5
 41
0.0
 71
     7
 72
     5
  1

1001
ACAD
1000
MTEXTBEGIN
1070
    73
1070
     1
1070
    44
1040
1.0
1070
    74
1070
     0
1000
MTEXTEND
  0
MTEXT
  5
5666
330
1A
100
AcDbEntity
  8
SUNPOU
100
AcDbMText
 10
44271.02274570799
 20
39361.43311641212
 30
0.0
 40
10.5
 41
0.0
 71
     7
 72
     5
  1

1001
ACAD
1000
MTEXTBEGIN
1070
    73
1070
     1
1070
    44
1040
1.0
1070
    74
1070
     0
1000
MTEXTEND
  0
MTEXT
  5
5667
330
1A
100
AcDbEntity
  8
SUNPOU
100
AcDbMText
 10
95462.54117960824
 20
85034.41368006038
 30
0.0
 40
10.5
 41
0.0
 71
     9
 72
     5
  1

1001
ACAD
1000
MTEXTBEGIN
1070
    73
1070
     1
1070
    44
1040
1.0
1070
    74
1070
     0
1000
MTEXTEND
  0
MTEXT
  5
5668
330
1A
100
AcDbEntity
  8
SUNPOU
100
AcDbMText
 10
104184.7087455262
 20
92450.24821159784
 30
0.0
 40
10.5
 41
0.0
 71
     9
 72
     5
  1

1001
ACAD
1000
MTEXTBEGIN
1070
    73
1070
     1
1070
    44
1040
1.0
1070
    74
1070
     0
1000
MTEXTEND
  0
MTEXT
  5
5669
330
1A
100
AcDbEntity
  8
SUNPOU
100
AcDbMText
 10
123138.4674628562
 20
109916.8242640898
 30
0.0
 40
10.5
 41
0.0
 71
     9
 72
     5
  1

1001
ACAD
1000
MTEXTBEGIN
1070
    73
1070
     1
1070
    44
1040
1.0
1070
    74
1070
     0
1000
MTEXTEND
  0
MTEXT
  5
566A
330
1A
100
AcDbEntity
  8
SUNPOU
100
AcDbMText
 10
125081.8747095656
 20
108115.7751842118
 30
0.0
 40
3.5
 41
0.0
 71
     9
 72
     5
  1

1001
ACAD
1000
MTEXTBEGIN
1070
    73
1070
     1
1070
    44
1040
1.0
1070
    74
1070
     0
1000
MTEXTEND
  0
MTEXT
  5
566B
330
1A
100
AcDbEntity
  8
SUNPOU
100
AcDbMText
 10
156208.0545421853
 20
150610.7208518691
 30
0.0
 40
10.5
 41
0.0
 71
     9
 72
     5
  1

1001
ACAD
1000
MTEXTBEGIN
1070
    73
1070
     1
1070
    44
1040
1.0
1070
    74
1070
     0
1000
MTEXTEND
  0
MTEXT
  5
566C
330
1A
100
AcDbEntity
  8
SUNPOU
100
AcDbMText
 10
158151.4617888947
 20
148809.6717719911
 30
0.0
 40
3.5
 41
0.0
 71
     9
 72
     5
  1

1001
ACAD
1000
MTEXTBEGIN
1070
    73
1070
     1
1070
    44
1040
1.0
1070
    74
1070
     0
1000
MTEXTEND
  0
MTEXT
  5
566D
330
1A
100
AcDbEntity
  8
SUNPOU
100
AcDbMText
 10
106648.3222479809
 20
96443.88600684427
 30
0.0
 40
10.5
 41
0.0
 71
     9
 72
     5
  1

1001
ACAD
1000
MTEXTBEGIN
1070
    73
1070
     1
1070
    44
1040
1.0
1070
    74
1070
     0
1000
MTEXTEND
  0
MTEXT
  5
566E
330
1A
100
AcDbEntity
  8
SUNPOU
100
AcDbMText
 10
92700.3221476049
 20
77271.48686773207
 30
0.0
 40
3.5
 41
0.0
 71
     7
 72
     5
  1

1001
ACAD
1000
MTEXTBEGIN
1070
    73
1070
     1
1070
    44
1040
1.0
1070
    74
1070
     0
1000
MTEXTEND
  0
MTEXT
  5
566F
330
1A
100
AcDbEntity
  8
SUNPOU
100
AcDbMText
 10
73685.49154459806
 20
65033.63559855027
 30
0.0
 40
10.5
 41
0.0
 71
     7
 72
     5
  1

1001
ACAD
1000
MTEXTBEGIN
1070
    73
1070
     1
1070
    44
1040
1.0
1070
    74
1070
     0
1000
MTEXTEND
  0
MTEXT
  5
5670
330
1A
100
AcDbEntity
  8
SUNPOU
100
AcDbMText
 10
61228.26327964995
 20
49188.70402045185
 30
0.0
 40
35.0
 41
0.0
 71
     9
 72
     5
  1

1001
ACAD
1000
MTEXTBEGIN
1070
    73
1070
     1
1070
    44
1040
1.0
1070
    74
1070
     0
1000
MTEXTEND
  0
MTEXT
  5
5671
330
1A
100
AcDbEntity
  8
SUNPOU
100
AcDbMText
 10
60136.74833722491
 20
49797.47943050056
 30
0.0
 40
350.0000004171781
 41
0.0
 71
     7
 72
     5
  1

1001
ACAD
1000
MTEXTBEGIN
1070
    73
1070
     1
1070
    44
1040
1.0
1070
    74
1070
     0
1000
MTEXTEND
  0
MTEXT
  5
5672
330
1A
100
AcDbEntity
  8
0
100
AcDbMText
 10
66180.69909516782
 20
47777.40179263678
 30
0.0
 40
8.0
 41
0.0
 71
     7
 72
     5
  1

1001
ACAD
1000
MTEXTBEGIN
1070
    73
1070
     1
1070
    44
1040
1.0
1070
    74
1070
     0
1000
MTEXTEND
  0
MTEXT
  5
5673
330
1A
100
AcDbEntity
  8
0
100
AcDbMText
 10
68466.05678506271
 20
48748.19208738784
 30
0.0
 40
8.0
 41
0.0
 71
     7
 72
     5
  1

1001
ACAD
1000
MTEXTBEGIN
1070
    73
1070
     1
1070
    44
1040
1.0
1070
    74
1070
     0
1000
MTEXTEND
  0
MTEXT
  5
5674
330
1A
100
AcDbEntity
  8
SUNPOU
100
AcDbMText
 10
71131.95380574485
 20
58260.30347976296
 30
0.0
 40
10.5
 41
0.0
 71
     1
 72
     5
  1

1001
ACAD
1000
MTEXTBEGIN
1070
    73
1070
     1
1070
    44
1040
1.0
1070
    74
1070
     0
1000
MTEXTEND
  0
MTEXT
  5
5675
330
1A
100
AcDbEntity
  8
SUNPOU
100
AcDbMText
 10
63201.03060980891
 20
57313.51034585002
 30
0.0
 40
10.5
 41
0.0
 71
     7
 72
     5
  1

1001
ACAD
1000
MTEXTBEGIN
1070
    73
1070
     1
1070
    44
1040
1.0
1070
    74
1070
     0
1000
MTEXTEND
  0
MTEXT
  5
5676
330
1A
100
AcDbEntity
  8
SUNPOU
100
AcDbMText
 10
66150.01427432169
 20
62214.18641769286
 30
0.0
 40
10.5
 41
0.0
 71
     7
 72
     5
  1

1001
ACAD
1000
MTEXTBEGIN
1070
    73
1070
     1
1070
    44
1040
1.0
1070
    74
1070
     0
1000
MTEXTEND
  0
MTEXT
  5
5677
330
1A
100
AcDbEntity
  8
SUNPOU
100
AcDbMText
 10
70659.09240227225
 20
64650.48716531294
 30
0.0
 40
10.5
 41
0.0
 71
     7
 72
     5
  1

1001
ACAD
1000
MTEXTBEGIN
1070
    73
1070
     1
1070
    44
1040
1.0
1070
    74
1070
     0
1000
MTEXTEND
  0
MTEXT
  5
5678
330
1A
100
AcDbEntity
  8
SUNPOU
100
AcDbMText
 10
54259.93028904056
 20
43648.08331570185
 30
0.0
 40
10.5
 41
0.0
 71
     7
 72
     5
  1

1001
ACAD
1000
MTEXTBEGIN
1070
    73
1070
     1
1070
    44
1040
1.0
1070
    74
1070
     0
1000
MTEXTEND
  0
MTEXT
  5
5679
330
1A
100
AcDbEntity
  8
SUNPOU
100
AcDbMText
 10
56070.69320041551
 20
49975.4973031804
 30
0.0
 40
10.5
 41
0.0
 71
     9
 72
     5
  1

1001
ACAD
1000
MTEXTBEGIN
1070
    73
1070
     1
1070
    44
1040
1.0
1070
    74
1070
     0
1000
MTEXTEND
  0
MTEXT
  5
567A
330
1A
100
AcDbEntity
  8
SUNPOU
100
AcDbMText
 10
64792.86076633348
 20
57391.33183471788
 30
0.0
 40
10.5
 41
0.0
 71
     9
 72
     5
  1

1001
ACAD
1000
MTEXTBEGIN
1070
    73
1070
     1
1070
    44
1040
1.0
1070
    74
1070
     0
1000
MTEXTEND
  0
MTEXT
  5
567B
330
1A
100
AcDbEntity
  8
SUNPOU
100
AcDbMText
 10
83746.61948366345
 20
74857.90788720994
 30
0.0
 40
10.5
 41
0.0
 71
     9
 72
     5
  1

1001
ACAD
1000
MTEXTBEGIN
1070
    73
1070
     1
1070
    44
1040
1.0
1070
    74
1070
     0
1000
MTEXTEND
  0
MTEXT
  5
567C
330
1A
100
AcDbEntity
  8
SUNPOU
100
AcDbMText
 10
85690.02673037287
 20
73056.85880733192
 30
0.0
 40
3.5
 41
0.0
 71
     9
 72
     5
  1

1001
ACAD
1000
MTEXTBEGIN
1070
    73
1070
     1
1070
    44
1040
1.0
1070
    74
1070
     0
1000
MTEXTEND
  0
MTEXT
  5
567D
330
1A
100
AcDbEntity
  8
SUNPOU
100
AcDbMText
 10
116816.2065629925
 20
115551.8044749892
 30
0.0
 40
10.5
 41
0.0
 71
     9
 72
     5
  1

1001
ACAD
1000
MTEXTBEGIN
1070
    73
1070
     1
1070
    44
1040
1.0
1070
    74
1070
     0
1000
MTEXTEND
  0
MTEXT
  5
567E
330
1A
100
AcDbEntity
  8
SUNPOU
100
AcDbMText
 10
118759.613809702
 20
113750.7553951112
 30
0.0
 40
3.5
 41
0.0
 71
     9
 72
     5
  1

1001
ACAD
1000
MTEXTBEGIN
1070
    73
1070
     1
1070
    44
1040
1.0
1070
    74
1070
     0
1000
MTEXTEND
  0
MTEXT
  5
567F
330
1A
100
AcDbEntity
  8
SUNPOU
100
AcDbMText
 10
67256.47426878814
 20
61384.96962996432
 30
0.0
 40
10.5
 41
0.0
 71
     9
 72
     5
  1

1001
ACAD
1000
MTEXTBEGIN
1070
    73
1070
     1
1070
    44
1040
1.0
1070
    74
1070
     0
1000
MTEXTEND
  0
MTEXT
  5
5680
330
1A
100
AcDbEntity
  8
SUNPOU
100
AcDbMText
 10
53308.47416841216
 20
42212.57049085211
 30
0.0
 40
3.5
 41
0.0
 71
     7
 72
     5
  1

1001
ACAD
1000
MTEXTBEGIN
1070
    73
1070
     1
1070
    44
1040
1.0
1070
    74
1070
     0
1000
MTEXTEND
  0
MTEXT
  5
5681
330
1A
100
AcDbEntity
  8
SUNPOU
100
AcDbMText
 10
67000.82485118274
 20
51571.63371187345
 30
0.0
 40
10.5
 41
0.0
 71
     9
 72
     5
  1

1001
ACAD
1000
MTEXTBEGIN
1070
    73
1070
     1
1070
    44
1040
1.0
1070
    74
1070
     0
1000
MTEXTEND
  0
MTEXT
  5
5682
330
1A
100
AcDbEntity
  8
SUNPOU
100
AcDbMText
 10
75722.99241710071
 20
58987.46824341094
 30
0.0
 40
10.5
 41
0.0
 71
     9
 72
     5
  1

1001
ACAD
1000
MTEXTBEGIN
1070
    73
1070
     1
1070
    44
1040
1.0
1070
    74
1070
     0
1000
MTEXTEND
  0
MTEXT
  5
5683
330
1A
100
AcDbEntity
  8
SUNPOU
100
AcDbMText
 10
94676.75113443068
 20
76454.04429590299
 30
0.0
 40
10.5
 41
0.0
 71
     9
 72
     5
  1

1001
ACAD
1000
MTEXTBEGIN
1070
    73
1070
     1
1070
    44
1040
1.0
1070
    74
1070
     0
1000
MTEXTEND
  0
MTEXT
  5
5684
330
1A
100
AcDbEntity
  8
SUNPOU
100
AcDbMText
 10
96620.1583811401
 20
74652.99521602498
 30
0.0
 40
3.5
 41
0.0
 71
     9
 72
     5
  1

1001
ACAD
1000
MTEXTBEGIN
1070
    73
1070
     1
1070
    44
1040
1.0
1070
    74
1070
     0
1000
MTEXTEND
  0
MTEXT
  5
5685
330
1A
100
AcDbEntity
  8
SUNPOU
100
AcDbMText
 10
127746.3382137598
 20
117147.9408836823
 30
0.0
 40
10.5
 41
0.0
 71
     9
 72
     5
  1

1001
ACAD
1000
MTEXTBEGIN
1070
    73
1070
     1
1070
    44
1040
1.0
1070
    74
1070
     0
1000
MTEXTEND
  0
MTEXT
  5
5686
330
1A
100
AcDbEntity
  8
SUNPOU
100
AcDbMText
 10
129689.7454604692
 20
115346.8918038043
 30
0.0
 40
3.5
 41
0.0
 71
     9
 72
     5
  1

1001
ACAD
1000
MTEXTBEGIN
1070
    73
1070
     1
1070
    44
1040
1.0
1070
    74
1070
     0
1000
MTEXTEND
  0
MTEXT
  5
5687
330
1A
100
AcDbEntity
  8
SUNPOU
100
AcDbMText
 10
78186.60591955537
 20
62981.10603865738
 30
0.0
 40
10.5
 41
0.0
 71
     9
 72
     5
  1

1001
ACAD
1000
MTEXTBEGIN
1070
    73
1070
     1
1070
    44
1040
1.0
1070
    74
1070
     0
1000
MTEXTEND
  0
MTEXT
  5
5688
330
1A
100
AcDbEntity
  8
SUNPOU
100
AcDbMText
 10
64238.60581917939
 20
43808.70689954517
 30
0.0
 40
3.5
 41
0.0
 71
     7
 72
     5
  1

1001
ACAD
1000
MTEXTBEGIN
1070
    73
1070
     1
1070
    44
1040
1.0
1070
    74
1070
     0
1000
MTEXTEND
  0
MTEXT
  5
5689
330
1A
100
AcDbEntity
  8
SUNPOU
100
AcDbMText
 10
33428.13481137435
 20
32770.04710035564
 30
0.0
 40
10.5
 41
0.0
 71
     9
 72
     5
  1

1001
ACAD
1000
MTEXTBEGIN
1070
    73
1070
     1
1070
    44
1040
1.0
1070
    74
1070
     0
1000
MTEXTEND
  0
MTEXT
  5
568A
330
1A
100
AcDbEntity
  8
SUNPOU
100
AcDbMText
 10
52381.89352870432
 20
50236.62315284769
 30
0.0
 40
10.5
 41
0.0
 71
     9
 72
     5
  1

1001
ACAD
1000
MTEXTBEGIN
1070
    73
1070
     1
1070
    44
1040
1.0
1070
    74
1070
     0
1000
MTEXTEND
  0
MTEXT
  5
568B
330
1A
100
AcDbEntity
  8
SUNPOU
100
AcDbMText
 10
54325.30077541374
 20
48435.57407296968
 30
0.0
 40
3.5
 41
0.0
 71
     9
 72
     5
  1

1001
ACAD
1000
MTEXTBEGIN
1070
    73
1070
     1
1070
    44
1040
1.0
1070
    74
1070
     0
1000
MTEXTEND
  0
MTEXT
  5
568C
330
1A
100
AcDbEntity
  8
SUNPOU
100
AcDbMText
 10
85451.48060803343
 20
90930.51974062703
 30
0.0
 40
10.5
 41
0.0
 71
     9
 72
     5
  1

1001
ACAD
1000
MTEXTBEGIN
1070
    73
1070
     1
1070
    44
1040
1.0
1070
    74
1070
     0
1000
MTEXTEND
  0
MTEXT
  5
568D
330
1A
100
AcDbEntity
  8
SUNPOU
100
AcDbMText
 10
87394.88785474286
 20
89129.47066074901
 30
0.0
 40
3.5
 41
0.0
 71
     9
 72
     5
  1

1001
ACAD
1000
MTEXTBEGIN
1070
    73
1070
     1
1070
    44
1040
1.0
1070
    74
1070
     0
1000
MTEXTEND
  0
MTEXT
  5
568E
330
1A
100
AcDbEntity
  8
SUNPOU
100
AcDbMText
 10
35891.74831382901
 20
36763.68489560208
 30
0.0
 40
10.5
 41
0.0
 71
     9
 72
     5
  1

1001
ACAD
1000
MTEXTBEGIN
1070
    73
1070
     1
1070
    44
1040
1.0
1070
    74
1070
     0
1000
MTEXTEND
  0
MTEXT
  5
568F
330
1A
100
AcDbEntity
  8
SUNPOU
100
AcDbMText
 10
21943.74821345303
 20
17591.28575648986
 30
0.0
 40
3.5
 41
0.0
 71
     7
 72
     5
  1

1001
ACAD
1000
MTEXTBEGIN
1070
    73
1070
     1
1070
    44
1040
1.0
1070
    74
1070
     0
1000
MTEXTEND
  0
MTEXT
  5
11D07
330
1A
100
AcDbEntity
  8
ZISSEN1
100
AcDbMText
 10
-736.7513918301162
 20
1777.486859459094
 30
0.0
 40
5.0
 41
111.2412999999999
 71
     1
 72
     5
  1
ADB-5F41EL　No.SS0001f110
1001
ACAD
1000
MTEXTBEGIN
1070
    73
1070
     1
1070
    44
1040
1.0
1070
    74
1070
     0
1000
MTEXTEND
  0
LINE
  5
1546C
330
1A
100
AcDbEntity
  8
ZISSEN1
 48
0.5
100
AcDbLine
 10
-656.3898986203544
 20
1689.364424949756
 30
0.0
 11
-656.3898986203544
 21
1708.964424949756
 31
0.0
  0
LINE
  5
1546D
330
1A
100
AcDbEntity
  8
ZISSEN1
100
AcDbLine
 10
-618.4686126557744
 20
1689.364424949756
 30
0.0
 11
-618.4686126557744
 21
1708.964424949756
 31
0.0
  0
LINE
  5
1546E
330
1A
100
AcDbEntity
  8
ZISSEN1
 48
0.5
100
AcDbLine
 10
-593.7686126557736
 20
1741.664424949756
 30
0.0
 11
-593.7686126557736
 21
1656.664424949756
 31
0.0
  0
LINE
  5
1546F
330
1A
100
AcDbEntity
  8
ZISSEN1
 48
0.5
100
AcDbLine
 10
-595.7686126557737
 20
1741.664424949756
 30
0.0
 11
-595.7686126557737
 21
1656.664424949756
 31
0.0
  0
LINE
  5
15470
330
1A
100
AcDbEntity
  8
ZISSEN1
 48
0.5
100
AcDbLine
 10
-598.068612655773
 20
1741.664424949756
 30
0.0
 11
-598.068612655773
 21
1656.664424949756
 31
0.0
  0
LINE
  5
15471
330
1A
100
AcDbEntity
  8
ZISSEN1
 48
0.5
100
AcDbLine
 10
-600.068612655773
 20
1741.664424949756
 30
0.0
 11
-600.068612655773
 21
1656.664424949756
 31
0.0
  0
LINE
  5
15472
330
1A
100
AcDbEntity
  8
ZISSEN1
 48
0.5
100
AcDbLine
 10
-601.9686126557744
 20
1657.164424949756
 30
0.0
 11
-601.9686126557744
 21
1741.164424949754
 31
0.0
  0
LINE
  5
15473
330
1A
100
AcDbEntity
  8
ZISSEN1
 48
0.5
100
AcDbLine
 10
-600.3686126557741
 20
1657.164424949756
 30
0.0
 11
-600.3686126557741
 21
1741.164424949754
 31
0.0
  0
LINE
  5
15474
330
1A
100
AcDbEntity
  8
ZISSEN1
 48
0.5
100
AcDbLine
 10
-600.3686126557741
 20
1741.167179949799
 30
0.0
 11
-600.3686126557741
 21
1657.164424949756
 31
0.0
  0
LINE
  5
15475
330
1A
100
AcDbEntity
  8
ZISSEN1
 48
0.5
100
AcDbLine
 10
-600.0686126557739
 20
1741.167179949799
 30
0.0
 11
-600.0686126557739
 21
1657.164424949756
 31
0.0
  0
LINE
  5
15476
330
1A
100
AcDbEntity
  8
ZISSEN1
 48
0.5
100
AcDbLine
 10
-601.9686126557744
 20
1708.964424949755
 30
0.0
 11
-601.9686126557744
 21
1689.364424949755
 31
0.0
  0
LINE
  5
15477
330
1A
100
AcDbEntity
  8
ZISSEN1
 48
0.5
100
AcDbLine
 10
-665.7898986203544
 20
1708.964424949756
 30
0.0
 11
-665.7898986203554
 21
1689.364424949756
 31
0.0
  0
LINE
  5
15478
330
1A
100
AcDbEntity
  8
ZISSEN1
 48
0.5
100
AcDbLine
 10
-621.7686126557737
 20
1740.664424949756
 30
0.0
 11
-621.7686126557737
 21
1657.664424949756
 31
0.0
  0
LINE
  5
1547B
330
1A
100
AcDbEntity
  8
ZISSEN1
 48
0.5
100
AcDbLine
 10
-729.8898986203558
 20
1737.164424949756
 30
0.0
 11
-729.8898986203558
 21
1661.164424949756
 31
0.0
  0
LINE
  5
1547C
330
1A
100
AcDbEntity
  8
ZISSEN1
100
AcDbLine
 10
-731.3898986203557
 20
1741.664424949756
 30
0.0
 11
-731.3898986203557
 21
1656.664424949756
 31
0.0
  0
LINE
  5
1547D
330
1A
100
AcDbEntity
  8
ZISSEN1
100
AcDbLine
 10
-733.3898986203557
 20
1741.664424949756
 30
0.0
 11
-733.3898986203557
 21
1656.664424949756
 31
0.0
  0
LINE
  5
1548A
330
1A
100
AcDbEntity
  8
ZISSEN1
100
AcDbLine
 10
-728.8898986203557
 20
1671.764424949756
 30
0.0
 11
-703.6898986203568
 21
1671.764424949756
 31
0.0
  0
LINE
  5
1548B
330
1A
100
AcDbEntity
  8
ZISSEN1
100
AcDbLine
 10
-730.3898986203558
 20
1656.664424949756
 30
0.0
 11
-722.6398986203557
 21
1656.664424949756
 31
0.0
  0
LINE
  5
1548C
330
1A
100
AcDbEntity
  8
ZISSEN1
100
AcDbLine
 10
-728.8898986203557
 20
1664.164424949756
 30
0.0
 11
-703.6898986203568
 21
1664.164424949756
 31
0.0
  0
LINE
  5
1548D
330
1A
100
AcDbEntity
  8
ZISSEN1
 48
0.5
100
AcDbLine
 10
-725.639898620354
 20
1657.164424949756
 30
0.0
 11
-731.3898986203557
 21
1657.164424949756
 31
0.0
  0
LINE
  5
1548E
330
1A
100
AcDbEntity
  8
ZISSEN1
 48
0.5
100
AcDbLine
 10
-703.6898986203568
 20
1605.364425463942
 30
0.0
 11
-728.8898986203557
 21
1605.364425463942
 31
0.0
  0
LINE
  5
1548F
330
1A
100
AcDbEntity
  8
ZISSEN1
 48
0.5
100
AcDbLine
 10
-728.8898986203557
 20
1616.864425463941
 30
0.0
 11
-703.6898986203568
 21
1616.864425463941
 31
0.0
  0
LINE
  5
15492
330
1A
100
AcDbEntity
  8
ZISSEN1
 48
0.5
100
AcDbLine
 10
-731.3898986203557
 20
1597.164424949755
 30
0.0
 11
-683.3898986203576
 21
1597.164424949754
 31
0.0
  0
LINE
  5
15493
330
1A
100
AcDbEntity
  8
ZISSEN1
 48
0.5
100
AcDbLine
 10
-683.3898986203557
 20
1599.164424949756
 30
0.0
 11
-731.3898986203557
 21
1599.164424949756
 31
0.0
  0
LINE
  5
15494
330
1A
100
AcDbEntity
  8
ZISSEN1
 48
0.5
100
AcDbLine
 10
-732.3898986203557
 20
1605.364425463942
 30
0.0
 11
-656.8898986203557
 21
1605.364425463942
 31
0.0
  0
LINE
  5
15495
330
1A
100
AcDbEntity
  8
ZISSEN1
 48
0.5
100
AcDbLine
 10
-732.3898986203557
 20
1603.764425463941
 30
0.0
 11
-656.8898986203557
 21
1603.764425463941
 31
0.0
  0
LINE
  5
154E8
330
1A
100
AcDbEntity
  8
ZISSEN1
 48
0.5
100
AcDbLine
 10
-729.8898986203558
 20
1603.764425463941
 30
0.0
 11
-729.8898986203558
 21
1605.364425463942
 31
0.0
  0
LINE
  5
154E9
330
1A
100
AcDbEntity
  8
ZISSEN1
 48
0.5
100
AcDbLine
 10
-732.3898986203557
 20
1605.364425463942
 30
0.0
 11
-732.3898986203557
 21
1603.764425463941
 31
0.0
  0
LINE
  5
154EA
330
1A
100
AcDbEntity
  8
ZISSEN1
 48
0.5
100
AcDbLine
 10
-733.3898986203557
 20
1599.164424949756
 30
0.0
 11
-733.3898986203557
 21
1625.164424949755
 31
0.0
  0
LINE
  5
154EB
330
1A
100
AcDbEntity
  8
ZISSEN1
 48
0.5
100
AcDbLine
 10
-731.3898986203557
 20
1625.164424949755
 30
0.0
 11
-731.3898986203557
 21
1599.164424949756
 31
0.0
  0
LINE
  5
154EC
330
1A
100
AcDbEntity
  8
ZISSEN1
 48
0.5
100
AcDbLine
 10
-730.3898986203558
 20
1599.164424949756
 30
0.0
 11
-730.3898986203558
 21
1597.164424949755
 31
0.0
  0
LINE
  5
154ED
330
1A
100
AcDbEntity
  8
ZISSEN1
 48
0.5
100
AcDbLine
 10
-731.3898986203557
 20
1603.764424949755
 30
0.0
 11
-733.3898986203557
 21
1603.764424949755
 31
0.0
  0
ARC
  5
154EE
330
1A
100
AcDbEntity
  8
ZISSEN1
 48
0.5
100
AcDbCircle
 10
-731.3898986203557
 20
1599.164424949754
 30
0.0
 40
1.99999999999909
100
AcDbArc
 50
179.9999999999479
 51
270.0
  0
LINE
  5
154EF
330
1A
100
AcDbEntity
  8
ZISSEN1
 48
0.5
100
AcDbLine
 10
-731.3898986203557
 20
1597.164424949756
 30
0.0
 11
-731.3898986203557
 21
1599.164424949756
 31
0.0
  0
LINE
  5
154F0
330
1A
100
AcDbEntity
  8
ZISSEN1
 48
0.5
100
AcDbLine
 10
-733.3898986203557
 20
1599.164424949756
 30
0.0
 11
-731.3898986203557
 21
1599.164424949756
 31
0.0
  0
LINE
  5
154F1
330
1A
100
AcDbEntity
  8
ZISSEN1
 48
0.5
100
AcDbLine
 10
-731.389898620354
 20
1600.164424949756
 30
0.0
 11
-733.3898986203539
 21
1600.164424949756
 31
0.0
  0
LINE
  5
154F5
330
1A
100
AcDbEntity
  8
ZISSEN1
 48
0.5
100
AcDbLine
 10
-728.8898986203557
 20
1605.364425463942
 30
0.0
 11
-728.8898986203557
 21
1616.864425463941
 31
0.0
  0
LINE
  5
154FB
330
1A
100
AcDbEntity
  8
ZISSEN1
 48
0.5
100
AcDbLine
 10
-733.3898986203557
 20
1625.164424949755
 30
0.0
 11
-731.3898986203557
 21
1625.164424949755
 31
0.0
  0
LINE
  5
154FC
330
1A
100
AcDbEntity
  8
ZISSEN1
 48
0.5
100
AcDbLine
 10
-731.3898986203557
 20
1624.164424949755
 30
0.0
 11
-733.3898986203557
 21
1624.164424949755
 31
0.0
  0
LINE
  5
154FE
330
1A
100
AcDbEntity
  8
ZISSEN1
 48
0.5
100
AcDbLine
 10
-731.3898986203557
 20
1614.914424949755
 30
0.0
 11
-733.3898986203557
 21
1614.914424949755
 31
0.0
  0
LINE
  5
154FF
330
1A
100
AcDbEntity
  8
ZISSEN1
 48
0.5
100
AcDbLine
 10
-731.3898986203557
 20
1611.414424949755
 30
0.0
 11
-733.3898986203557
 21
1611.414424949755
 31
0.0
  0
LINE
  5
15500
330
1A
100
AcDbEntity
  8
ZISSEN1
 48
0.5
100
AcDbLine
 10
-731.3898986203557
 20
1605.764424949755
 30
0.0
 11
-733.3898986203557
 21
1605.764424949755
 31
0.0
  0
LINE
  5
1554A
330
1A
100
AcDbEntity
  8
ZISSEN1
100
AcDbLine
 10
-728.8898986203557
 20
1671.764424949756
 30
0.0
 11
-728.8898986203557
 21
1664.164424949756
 31
0.0
  0
LINE
  5
1554B
330
1A
100
AcDbEntity
  8
ZISSEN1
100
AcDbLine
 10
-733.3898986203557
 20
1657.664424949756
 30
0.0
 11
-731.3898986203557
 21
1657.664424949756
 31
0.0
  0
LINE
  5
1554C
330
1A
100
AcDbEntity
  8
ZISSEN1
100
AcDbLine
 10
-733.3898986203557
 20
1656.664424949756
 30
0.0
 11
-731.3898986203557
 21
1656.664424949756
 31
0.0
  0
LINE
  5
1554F
330
1A
100
AcDbEntity
  8
ZISSEN1
 48
0.5
100
AcDbLine
 10
-729.8898986203558
 20
1661.164424949756
 30
0.0
 11
-731.3898986203557
 21
1661.164424949756
 31
0.0
  0
LINE
  5
15550
330
1A
100
AcDbEntity
  8
ZISSEN1
100
AcDbLine
 10
-730.8898986203558
 20
1657.164424949756
 30
0.0
 11
-730.3898986203558
 21
1656.664424949756
 31
0.0
  0
LINE
  5
15555
330
1A
100
AcDbEntity
  8
ZISSEN1
100
AcDbLine
 10
-656.3898986203544
 20
1621.864425463942
 30
0.0
 11
-665.7890814765692
 21
1621.869013433176
 31
0.0
  0
LINE
  5
15556
330
1A
100
AcDbEntity
  8
ZISSEN1
 48
0.5
100
AcDbLine
 10
-665.7898986203554
 20
1689.364424949756
 30
0.0
 11
-656.3898986203544
 21
1689.364424949756
 31
0.0
  0
LINE
  5
15557
330
1A
100
AcDbEntity
  8
ZISSEN1
100
AcDbLine
 10
-656.3898986203557
 20
1688.714424949756
 30
0.0
 11
-663.889898630141
 21
1688.714424949756
 31
0.0
  0
LINE
  5
15558
330
1A
100
AcDbEntity
  8
ZISSEN1
 48
0.5
100
AcDbLine
 10
-665.7898986203554
 20
1605.364425463942
 30
0.0
 11
-658.189898620355
 21
1605.364425463942
 31
0.0
  0
LINE
  5
15559
330
1A
100
AcDbEntity
  8
ZISSEN1
 48
0.5
100
AcDbLine
 10
-656.3898986203557
 20
1601.464424949755
 30
0.0
 11
-681.3898986203566
 21
1601.464424949755
 31
0.0
  0
LINE
  5
1555A
330
1A
100
AcDbEntity
  8
ZISSEN1
 48
0.5
100
AcDbLine
 10
-656.3898986203557
 20
1603.4644270922
 30
0.0
 11
-681.3898986203557
 21
1603.464424949755
 31
0.0
  0
LINE
  5
1555B
330
1A
100
AcDbEntity
  8
ZISSEN1
 48
0.5
100
AcDbLine
 10
-656.8898986203557
 20
1603.464425463942
 30
0.0
 11
-683.8898986203558
 21
1603.464425463942
 31
0.0
  0
LINE
  5
1555C
330
1A
100
AcDbEntity
  8
ZISSEN1
 48
0.5
100
AcDbLine
 10
-656.8898986203557
 20
1603.764425463941
 30
0.0
 11
-683.8898986203558
 21
1603.764425463941
 31
0.0
  0
LINE
  5
1555E
330
1A
100
AcDbEntity
  8
ZISSEN1
 48
0.5
100
AcDbLine
 10
-657.8898986203557
 20
1657.164424949756
 30
0.0
 11
-715.6398986203539
 21
1657.164424949756
 31
0.0
  0
LINE
  5
1555F
330
1A
100
AcDbEntity
  8
ZISSEN1
100
AcDbLine
 10
-657.3898986203557
 20
1656.664424949756
 30
0.0
 11
-719.1398986203558
 21
1656.664424949756
 31
0.0
  0
LINE
  5
15563
330
1A
100
AcDbEntity
  8
ZISSEN1
 48
0.5
100
AcDbLine
 10
-715.6398986203539
 20
1603.764425463941
 30
0.0
 11
-715.6398986203539
 21
1605.364425463942
 31
0.0
  0
LINE
  5
15564
330
1A
100
AcDbEntity
  8
ZISSEN1
 48
0.5
100
AcDbLine
 10
-725.639898620354
 20
1603.764425463941
 30
0.0
 11
-725.639898620354
 21
1605.364425463942
 31
0.0
  0
LINE
  5
15565
330
1A
100
AcDbEntity
  8
ZISSEN1
 48
0.5
100
AcDbLine
 10
-719.1398986203558
 20
1599.164424949756
 30
0.0
 11
-719.1398986203558
 21
1597.164424949755
 31
0.0
  0
LINE
  5
15566
330
1A
100
AcDbEntity
  8
ZISSEN1
 48
0.5
100
AcDbLine
 10
-722.6398986203557
 20
1599.164424949756
 30
0.0
 11
-722.6398986203557
 21
1597.164424949755
 31
0.0
  0
LINE
  5
15567
330
1A
100
AcDbEntity
  8
ZISSEN1
 48
0.5
100
AcDbLine
 10
-719.1398968700187
 20
1597.164425348242
 30
0.0
 11
-722.6398986203557
 21
1597.164424949755
 31
0.0
  0
LINE
  5
15569
330
1A
100
AcDbEntity
  8
ZISSEN1
 48
0.5
100
AcDbLine
 10
-703.6898986203568
 20
1616.864425463941
 30
0.0
 11
-699.7980766124574
 21
1616.864425463941
 31
0.0
  0
LINE
  5
1556A
330
1A
100
AcDbEntity
  8
ZISSEN1
 48
0.5
100
AcDbLine
 10
-699.7980766124574
 20
1605.364425463942
 30
0.0
 11
-703.6898986203568
 21
1605.364425463942
 31
0.0
  0
LINE
  5
1556B
330
1A
100
AcDbEntity
  8
ZISSEN1
 48
0.5
100
AcDbLine
 10
-703.6898986203568
 20
1616.864425463941
 30
0.0
 11
-703.6898986203568
 21
1605.364425463942
 31
0.0
  0
LINE
  5
1556C
330
1A
100
AcDbEntity
  8
ZISSEN1
 48
0.5
100
AcDbLine
 10
-703.6898986203568
 20
1605.364425463942
 30
0.0
 11
-703.6898986203568
 21
1616.864425463941
 31
0.0
  0
LINE
  5
1556D
330
1A
100
AcDbEntity
  8
ZISSEN1
 48
0.5
100
AcDbLine
 10
-699.7980766124574
 20
1616.864425463941
 30
0.0
 11
-699.7980766124574
 21
1605.364425463942
 31
0.0
  0
LINE
  5
1556E
330
1A
100
AcDbEntity
  8
ZISSEN1
 48
0.5
100
AcDbLine
 10
-674.0898986203565
 20
1600.364425463942
 30
0.0
 11
-676.689898620355
 21
1600.364425463942
 31
0.0
  0
LINE
  5
1556F
330
1A
100
AcDbEntity
  8
ZISSEN1
 48
0.5
100
AcDbLine
 10
-676.689898620355
 20
1600.364425463942
 30
0.0
 11
-676.6898986203568
 21
1601.464425463942
 31
0.0
  0
ARC
  5
15570
330
1A
100
AcDbEntity
  8
ZISSEN1
100
AcDbCircle
 10
-681.3898986203566
 20
1601.464424949755
 30
0.0
 40
1.99999999999909
100
AcDbArc
 50
89.99999999994789
 51
179.9999999999739
  0
LINE
  5
15571
330
1A
100
AcDbEntity
  8
ZISSEN1
 48
0.5
100
AcDbLine
 10
-683.8898986203558
 20
1603.464425463942
 30
0.0
 11
-683.8898986203558
 21
1603.764425463941
 31
0.0
  0
LINE
  5
15572
330
1A
100
AcDbEntity
  8
ZISSEN1
 48
0.5
100
AcDbLine
 10
-683.8898986203558
 20
1603.464425463942
 30
0.0
 11
-683.8898986203558
 21
1603.464425463942
 31
0.0
  0
ARC
  5
15579
330
1A
100
AcDbEntity
  8
ZISSEN1
100
AcDbCircle
 10
-683.3898986203557
 20
1599.164424949754
 30
0.0
 40
1.99999999999909
100
AcDbArc
 50
269.9999999999478
 51
359.9999999999739
  0
LINE
  5
1557A
330
1A
100
AcDbEntity
  8
ZISSEN1
 48
0.5
100
AcDbLine
 10
-681.3898986203566
 20
1601.464424949755
 30
0.0
 11
-681.3898986203566
 21
1599.164424949752
 31
0.0
  0
LINE
  5
1557B
330
1A
100
AcDbEntity
  8
ZISSEN1
 48
0.5
100
AcDbLine
 10
-683.3898986203557
 20
1601.464424949755
 30
0.0
 11
-683.3898986203557
 21
1599.164424949756
 31
0.0
  0
LINE
  5
1557C
330
1A
100
AcDbEntity
  8
ZISSEN1
100
AcDbLine
 10
-683.3898986203567
 20
1599.964424949756
 30
0.0
 11
-683.3898986203557
 21
1601.464424949755
 31
0.0
  0
LINE
  5
1557D
330
1A
100
AcDbEntity
  8
ZISSEN1
100
AcDbLine
 10
-681.3898986203566
 20
1599.964424949753
 30
0.0
 11
-681.3898986203566
 21
1601.464424949755
 31
0.0
  0
LINE
  5
1557E
330
1A
100
AcDbEntity
  8
ZISSEN1
 48
0.5
100
AcDbLine
 10
-674.0898986203565
 20
1601.464425463942
 30
0.0
 11
-674.0898986203565
 21
1600.364425463942
 31
0.0
  0
ARC
  5
1557F
330
1A
100
AcDbEntity
  8
ZISSEN1
 48
0.5
100
AcDbCircle
 10
-675.3898986203558
 20
1602.672626634478
 30
0.0
 40
4.06366340092025
100
AcDbArc
 50
47.41141701990921
 51
132.5885829800907
  0
LINE
  5
15580
330
1A
100
AcDbEntity
  8
ZISSEN1
 48
0.5
100
AcDbLine
 10
-678.1398986203558
 20
1605.364425463942
 30
0.0
 11
-672.6398986203557
 21
1605.364425463942
 31
0.0
  0
LINE
  5
15581
330
1A
100
AcDbEntity
  8
ZISSEN1
 48
0.5
100
AcDbLine
 10
-678.1398986203558
 20
1605.664425463943
 30
0.0
 11
-678.1398986203558
 21
1605.364425463942
 31
0.0
  0
LINE
  5
15582
330
1A
100
AcDbEntity
  8
ZISSEN1
 48
0.5
100
AcDbLine
 10
-676.689898620355
 20
1605.364425463942
 30
0.0
 11
-676.689898620355
 21
1605.364425463942
 31
0.0
  0
LINE
  5
15583
330
1A
100
AcDbEntity
  8
ZISSEN1
 48
0.5
100
AcDbLine
 10
-683.3898986203576
 20
1621.869013433176
 30
0.0
 11
-683.3898986203576
 21
1605.364425463942
 31
0.0
  0
LINE
  5
15584
330
1A
100
AcDbEntity
  8
ZISSEN1
 48
0.5
100
AcDbLine
 10
-692.4898986203561
 20
1605.364425463942
 30
0.0
 11
-692.4898986203561
 21
1621.869013433176
 31
0.0
  0
LINE
  5
15585
330
1A
100
AcDbEntity
  8
ZISSEN1
 48
0.5
100
AcDbLine
 10
-692.4898986203561
 20
1621.869013433176
 30
0.0
 11
-683.3898986203576
 21
1621.869013433176
 31
0.0
  0
LINE
  5
15586
330
1A
100
AcDbEntity
  8
ZISSEN1
 48
0.5
100
AcDbLine
 10
-683.3898986203576
 20
1605.364425463942
 30
0.0
 11
-692.4898986203561
 21
1605.364425463942
 31
0.0
  0
LINE
  5
15587
330
1A
100
AcDbEntity
  8
ZISSEN1
100
AcDbLine
 10
-665.7890814765692
 20
1621.869013433176
 30
0.0
 11
-665.7898986203554
 21
1605.364425463942
 31
0.0
  0
LINE
  5
15588
330
1A
100
AcDbEntity
  8
ZISSEN1
100
AcDbLine
 10
-665.7890814765692
 20
1621.869013433176
 30
0.0
 11
-665.7890814765692
 21
1620.068821379283
 31
0.0
  0
LINE
  5
15589
330
1A
100
AcDbEntity
  8
ZISSEN1
100
AcDbLine
 10
-665.7898986203554
 20
1605.364425463942
 30
0.0
 11
-665.7898986203554
 21
1615.864425463942
 31
0.0
  0
LINE
  5
1558A
330
1A
100
AcDbEntity
  8
ZISSEN1
 48
0.5
100
AcDbLine
 10
-672.6398986203557
 20
1605.364425463942
 30
0.0
 11
-672.6398986203557
 21
1605.664425463943
 31
0.0
  0
LINE
  5
1558B
330
1A
100
AcDbEntity
  8
ZISSEN1
 48
0.5
100
AcDbLine
 10
-674.0898986203565
 20
1605.364425463942
 30
0.0
 11
-674.0898986203565
 21
1605.364425463942
 31
0.0
  0
LINE
  5
1558E
330
1A
100
AcDbEntity
  8
ZISSEN1
 48
0.5
100
AcDbLine
 10
-710.689319092633
 20
1662.17886338669
 30
0.0
 11
-712.689319092633
 21
1662.17886338669
 31
0.0
  0
LINE
  5
15590
330
1A
100
AcDbEntity
  8
ZISSEN1
 48
0.5
100
AcDbLine
 10
-718.6398986203539
 20
1663.164424949756
 30
0.0
 11
-722.639898620353
 21
1663.164424949756
 31
0.0
  0
LINE
  5
15591
330
1A
100
AcDbEntity
  8
ZISSEN1
 48
0.5
100
AcDbLine
 10
-718.6398986203539
 20
1664.164424949756
 30
0.0
 11
-722.639898620353
 21
1664.164424949756
 31
0.0
  0
LINE
  5
15592
330
1A
100
AcDbEntity
  8
ZISSEN1
 48
0.5
100
AcDbLine
 10
-712.689319092633
 20
1660.92886338669
 30
0.0
 11
-710.689319092633
 21
1660.92886338669
 31
0.0
  0
LINE
  5
15594
330
1A
100
AcDbEntity
  8
ZISSEN1
 48
0.5
100
AcDbLine
 10
-715.6398986203539
 20
1660.164424949756
 30
0.0
 11
-715.6398986203539
 21
1657.164424949756
 31
0.0
  0
LINE
  5
15595
330
1A
100
AcDbEntity
  8
ZISSEN1
 48
0.5
100
AcDbLine
 10
-719.1398986203558
 20
1656.664424949756
 30
0.0
 11
-719.1398986203558
 21
1660.164424949756
 31
0.0
  0
LINE
  5
15596
330
1A
100
AcDbEntity
  8
ZISSEN1
 48
0.5
100
AcDbLine
 10
-722.6398986203557
 20
1660.164424949756
 30
0.0
 11
-722.6398986203557
 21
1656.664424949756
 31
0.0
  0
LINE
  5
15598
330
1A
100
AcDbEntity
  8
ZISSEN1
 48
0.5
100
AcDbLine
 10
-725.639898620354
 20
1660.164424949756
 30
0.0
 11
-725.639898620354
 21
1657.164424949756
 31
0.0
  0
LINE
  5
1559A
330
1A
100
AcDbEntity
  8
ZISSEN1
 48
0.5
100
AcDbLine
 10
-718.6398986203539
 20
1663.164424949756
 30
0.0
 11
-715.6398986203539
 21
1660.164424949756
 31
0.0
  0
LINE
  5
1559B
330
1A
100
AcDbEntity
  8
ZISSEN1
 48
0.5
100
AcDbLine
 10
-722.639898620353
 20
1663.164424949756
 30
0.0
 11
-725.639898620354
 21
1660.164424949756
 31
0.0
  0
LINE
  5
1559C
330
1A
100
AcDbEntity
  8
ZISSEN1
 48
0.5
100
AcDbLine
 10
-710.689319092633
 20
1660.92886338669
 30
0.0
 11
-710.689319092633
 21
1662.17886338669
 31
0.0
  0
LINE
  5
1559D
330
1A
100
AcDbEntity
  8
ZISSEN1
 48
0.5
100
AcDbLine
 10
-712.689319092633
 20
1662.17886338669
 30
0.0
 11
-712.689319092633
 21
1660.92886338669
 31
0.0
  0
ARC
  5
155A1
330
1A
100
AcDbEntity
  8
ZISSEN1
 48
0.5
100
AcDbCircle
 10
-720.8898986203557
 20
1660.164424949756
 30
0.0
 40
1.75
100
AcDbArc
 50
0.0
 51
180.0
  0
LINE
  5
155AF
330
1A
100
AcDbEntity
  8
ZISSEN1
100
AcDbLine
 10
-703.6898986203568
 20
1664.164424949756
 30
0.0
 11
-703.6898986203568
 21
1671.764424949756
 31
0.0
  0
LINE
  5
155B4
330
1A
100
AcDbEntity
  8
ZISSEN1
 48
0.5
100
AcDbLine
 10
-705.3440926686808
 20
1662.17886338669
 30
0.0
 11
-707.3440926686807
 21
1662.17886338669
 31
0.0
  0
LINE
  5
155B5
330
1A
100
AcDbEntity
  8
ZISSEN1
 48
0.5
100
AcDbLine
 10
-699.9988662447285
 20
1662.17886338669
 30
0.0
 11
-701.9988662447286
 21
1662.17886338669
 31
0.0
  0
LINE
  5
155BA
330
1A
100
AcDbEntity
  8
ZISSEN1
 48
0.5
100
AcDbLine
 10
-707.3440926686807
 20
1660.92886338669
 30
0.0
 11
-705.3440926686808
 21
1660.92886338669
 31
0.0
  0
LINE
  5
155BB
330
1A
100
AcDbEntity
  8
ZISSEN1
 48
0.5
100
AcDbLine
 10
-701.9988662447286
 20
1660.92886338669
 30
0.0
 11
-699.9988662447285
 21
1660.92886338669
 31
0.0
  0
LINE
  5
155BC
330
1A
100
AcDbEntity
  8
ZISSEN1
 48
0.5
100
AcDbLine
 10
-705.3440926686808
 20
1660.92886338669
 30
0.0
 11
-705.3440926686808
 21
1662.17886338669
 31
0.0
  0
LINE
  5
155BD
330
1A
100
AcDbEntity
  8
ZISSEN1
 48
0.5
100
AcDbLine
 10
-707.3440926686807
 20
1662.17886338669
 30
0.0
 11
-707.3440926686807
 21
1660.92886338669
 31
0.0
  0
LINE
  5
155C3
330
1A
100
AcDbEntity
  8
ZISSEN1
 48
0.5
100
AcDbLine
 10
-699.9988662447285
 20
1660.92886338669
 30
0.0
 11
-699.9988662447285
 21
1662.17886338669
 31
0.0
  0
LINE
  5
155C4
330
1A
100
AcDbEntity
  8
ZISSEN1
 48
0.5
100
AcDbLine
 10
-701.9988662447286
 20
1662.17886338669
 30
0.0
 11
-701.9988662447286
 21
1660.92886338669
 31
0.0
  0
CIRCLE
  5
155CB
330
1A
100
AcDbEntity
  8
ZISSEN1
 48
0.5
100
AcDbCircle
 10
-675.3898986203558
 20
1662.164424949756
 30
0.0
 40
2.75
  0
LINE
  5
155CC
330
1A
100
AcDbEntity
  8
ZISSEN1
100
AcDbLine
 10
-692.4898986203561
 20
1670.113621925131
 30
0.0
 11
-692.4898986203561
 21
1660.713621925131
 31
0.0
  0
LINE
  5
155CD
330
1A
100
AcDbEntity
  8
ZISSEN1
 48
0.5
100
AcDbLine
 10
-692.4898986203561
 20
1670.113621925131
 30
0.0
 11
-692.4898986203561
 21
1660.713621925131
 31
0.0
  0
LINE
  5
155CE
330
1A
100
AcDbEntity
  8
ZISSEN1
 48
0.5
100
AcDbLine
 10
-692.4898986203561
 20
1660.713621925131
 30
0.0
 11
-683.3898986203557
 21
1660.713621925131
 31
0.0
  0
LINE
  5
155CF
330
1A
100
AcDbEntity
  8
ZISSEN1
100
AcDbLine
 10
-683.3898986203557
 20
1670.113621925131
 30
0.0
 11
-683.3898986203557
 21
1660.713621925131
 31
0.0
  0
LINE
  5
155D0
330
1A
100
AcDbEntity
  8
ZISSEN1
 48
0.5
100
AcDbLine
 10
-683.3898986203557
 20
1660.713621925131
 30
0.0
 11
-683.3898986203557
 21
1670.113621925131
 31
0.0
  0
LINE
  5
155D1
330
1A
100
AcDbEntity
  8
ZISSEN1
100
AcDbLine
 10
-692.4898986203561
 20
1670.113621925131
 30
0.0
 11
-683.3898986203557
 21
1670.113621925131
 31
0.0
  0
LINE
  5
155D4
330
1A
100
AcDbEntity
  8
ZISSEN1
 48
0.5
100
AcDbLine
 10
-683.3898986203557
 20
1670.113621925129
 30
0.0
 11
-692.4898986203561
 21
1670.113621925131
 31
0.0
  0
ARC
  5
155E2
330
1A
100
AcDbEntity
  8
ZISSEN1
100
AcDbCircle
 10
-663.889898630141
 20
1689.714424949755
 30
0.0
 40
1.0
100
AcDbArc
 50
200.4873151146894
 51
270.0
  0
LINE
  5
155E3
330
1A
100
AcDbEntity
  8
ZISSEN1
 48
0.5
100
AcDbLine
 10
-656.8898986203557
 20
1603.764425463941
 30
0.0
 11
-656.8898986203557
 21
1605.364425463942
 31
0.0
  0
LINE
  5
155E4
330
1A
100
AcDbEntity
  8
ZISSEN1
 48
0.5
100
AcDbLine
 10
-657.8898986203539
 20
1605.364425463942
 30
0.0
 11
-657.8898986203539
 21
1603.764425463941
 31
0.0
  0
LINE
  5
155E6
330
1A
100
AcDbEntity
  8
ZISSEN1
 48
0.5
100
AcDbLine
 10
-656.3898986203557
 20
1603.464424949755
 30
0.0
 11
-656.3898986203557
 21
1601.464424949755
 31
0.0
  0
LINE
  5
155E7
330
1A
100
AcDbEntity
  8
ZISSEN1
 48
0.5
100
AcDbLine
 10
-656.3898973537988
 20
1603.464427092206
 30
0.0
 11
-656.8898987007915
 21
1603.464424949755
 31
0.0
  0
LINE
  5
155E8
330
1A
100
AcDbEntity
  8
ZISSEN1
 48
0.5
100
AcDbLine
 10
-657.3898986203557
 20
1601.464424949754
 30
0.0
 11
-657.3898986203557
 21
1603.464424949755
 31
0.0
  0
LINE
  5
155E9
330
1A
100
AcDbEntity
  8
ZISSEN1
 48
0.5
100
AcDbLine
 10
-656.8898986203557
 20
1603.764425463941
 30
0.0
 11
-656.8898986203557
 21
1603.464425463942
 31
0.0
  0
LINE
  5
155EA
330
1A
100
AcDbEntity
  8
ZISSEN1
 48
0.5
100
AcDbLine
 10
-657.8898985399201
 20
1603.764425463941
 30
0.0
 11
-657.8898985399201
 21
1603.464425463942
 31
0.0
  0
LINE
  5
155EE
330
1A
100
AcDbEntity
  8
ZISSEN1
100
AcDbLine
 10
-656.3898986203544
 20
1605.364425463942
 30
0.0
 11
-656.8898986203557
 21
1605.364425463942
 31
0.0
  0
LINE
  5
155EF
330
1A
100
AcDbEntity
  8
ZISSEN1
100
AcDbLine
 10
-656.3898986203544
 20
1621.864425463942
 30
0.0
 11
-656.3898986203544
 21
1605.364425463942
 31
0.0
  0
LINE
  5
155F1
330
1A
100
AcDbEntity
  8
ZISSEN1
100
AcDbLine
 10
-656.389898620354
 20
1621.3715919446
 30
0.0
 11
-656.389898620354
 21
1619.867484110098
 31
0.0
  0
LINE
  5
155F6
330
1A
100
AcDbEntity
  8
ZISSEN1
 48
0.5
100
AcDbLine
 10
-656.8898986203557
 20
1689.364424949756
 30
0.0
 11
-656.8898986203557
 21
1658.164424949756
 31
0.0
  0
LINE
  5
155F7
330
1A
100
AcDbEntity
  8
ZISSEN1
100
AcDbLine
 10
-656.3898986203557
 20
1688.714424949756
 30
0.0
 11
-656.3898986203557
 21
1657.664424949756
 31
0.0
  0
ARC
  5
155FD
330
1A
100
AcDbEntity
  8
ZISSEN1
 48
0.5
100
AcDbCircle
 10
-656.8898986203557
 20
1657.164424949756
 30
0.0
 40
1.0
100
AcDbArc
 50
90.0
 51
180.0
  0
LINE
  5
155FE
330
1A
100
AcDbEntity
  8
ZISSEN1
100
AcDbLine
 10
-656.3898986203557
 20
1657.664424949756
 30
0.0
 11
-657.3898986203557
 21
1656.664424949756
 31
0.0
  0
ARC
  5
1560B
330
1A
100
AcDbEntity
  8
ZISSEN1
 48
0.5
100
AcDbCircle
 10
-609.7686126557737
 20
1660.164424949756
 30
0.0
 40
1.75
100
AcDbArc
 50
0.0
 51
18.29000590718027
  0
LINE
  5
1560C
330
1A
100
AcDbEntity
  8
ZISSEN1
100
AcDbLine
 10
-613.4686126557735
 20
1671.764424949756
 30
0.0
 11
-601.9686126557744
 21
1671.764424949756
 31
0.0
  0
LINE
  5
1560D
330
1A
100
AcDbEntity
  8
ZISSEN1
100
AcDbLine
 10
-618.4686126557744
 20
1660.713621925131
 30
0.0
 11
-602.7827100370457
 21
1660.713621925131
 31
0.0
  0
LINE
  5
1560E
330
1A
100
AcDbEntity
  8
ZISSEN1
100
AcDbLine
 10
-618.4686126557744
 20
1670.113621925131
 30
0.0
 11
-601.9686126557744
 21
1670.113621925131
 31
0.0
  0
LINE
  5
1560F
330
1A
100
AcDbEntity
  8
ZISSEN1
 48
0.5
100
AcDbLine
 10
-612.4686126557744
 20
1670.113621925129
 30
0.0
 11
-601.9686126557744
 21
1670.113621925129
 31
0.0
  0
ARC
  5
15613
330
1A
100
AcDbEntity
  8
KAKURESEN1
 48
0.5
100
AcDbCircle
 10
-609.7686126557736
 20
1660.164424949756
 30
0.0
 40
1.749999999999924
100
AcDbArc
 50
18.29000590718027
 51
161.7099940928197
  0
ARC
  5
15614
330
1A
100
AcDbEntity
  8
ZISSEN1
 48
0.5
100
AcDbCircle
 10
-609.7686126557737
 20
1660.164424949756
 30
0.0
 40
1.75
100
AcDbArc
 50
161.7099940928197
 51
180.0
  0
LINE
  5
15615
330
1A
100
AcDbEntity
  8
ZISSEN1
100
AcDbLine
 10
-613.4686126557735
 20
1670.113621925131
 30
0.0
 11
-613.4686126557735
 21
1671.764424949756
 31
0.0
  0
LINE
  5
15616
330
1A
100
AcDbEntity
  8
ZISSEN1
100
AcDbLine
 10
-618.4686126557744
 20
1660.713621925131
 30
0.0
 11
-618.4686126557744
 21
1670.113621925131
 31
0.0
  0
LINE
  5
15618
330
1A
100
AcDbEntity
  8
ZISSEN1
 48
0.5
100
AcDbLine
 10
-611.5186126557737
 20
1660.164424949756
 30
0.0
 11
-611.5186126557737
 21
1656.664424949756
 31
0.0
  0
LINE
  5
15619
330
1A
100
AcDbEntity
  8
ZISSEN1
 48
0.5
100
AcDbLine
 10
-621.7686126557737
 20
1657.664424949756
 30
0.0
 11
-620.7686126557737
 21
1656.664424949756
 31
0.0
  0
LINE
  5
1561A
330
1A
100
AcDbEntity
  8
ZISSEN1
 48
0.5
100
AcDbLine
 10
-620.7686126557737
 20
1656.664424949756
 30
0.0
 11
-611.5186126557737
 21
1656.664424949756
 31
0.0
  0
LINE
  5
1561F
330
1A
100
AcDbEntity
  8
ZISSEN1
100
AcDbLine
 10
-601.9686126557744
 20
1670.113621925131
 30
0.0
 11
-601.9686126557744
 21
1670.113621925131
 31
0.0
  0
LINE
  5
15620
330
1A
100
AcDbEntity
  8
ZISSEN1
 48
0.5
100
AcDbLine
 10
-598.068612655773
 20
1663.464424949755
 30
0.0
 11
-596.9686126557735
 21
1663.464424949755
 31
0.0
  0
LINE
  5
15621
330
1A
100
AcDbEntity
  8
ZISSEN1
 48
0.5
100
AcDbLine
 10
-601.9686126557744
 20
1668.82362192513
 30
0.0
 11
-601.9686126557744
 21
1670.964424949755
 31
0.0
  0
LINE
  5
15622
330
1A
100
AcDbEntity
  8
ZISSEN1
 48
0.5
100
AcDbLine
 10
-602.2686126557746
 20
1664.914424949756
 30
0.0
 11
-601.9686126557744
 21
1664.914424949756
 31
0.0
  0
LINE
  5
15623
330
1A
100
AcDbEntity
  8
ZISSEN1
 48
0.5
100
AcDbLine
 10
-598.068612655773
 20
1660.864424949757
 30
0.0
 11
-598.068612655773
 21
1660.864424949757
 31
0.0
  0
LINE
  5
15624
330
1A
100
AcDbEntity
  8
ZISSEN1
 48
0.5
100
AcDbLine
 10
-598.068612655773
 20
1660.864424949757
 30
0.0
 11
-596.9686126557735
 21
1660.864424949757
 31
0.0
  0
LINE
  5
15625
330
1A
100
AcDbEntity
  8
ZISSEN1
 48
0.5
100
AcDbLine
 10
-593.7686126557736
 20
1656.664424949756
 30
0.0
 11
-595.7686126557737
 21
1656.664424949756
 31
0.0
  0
LINE
  5
15626
330
1A
100
AcDbEntity
  8
ZISSEN1
 48
0.5
100
AcDbLine
 10
-600.3686126557741
 20
1660.864424949757
 30
0.0
 11
-600.3686126557731
 21
1656.664424949756
 31
0.0
  0
LINE
  5
15627
330
1A
100
AcDbEntity
  8
ZISSEN1
 48
0.5
100
AcDbLine
 10
-602.3686126557731
 20
1659.527354561216
 30
0.0
 11
-602.3686126557731
 21
1656.664424949756
 31
0.0
  0
LINE
  5
15628
330
1A
100
AcDbEntity
  8
ZISSEN1
 48
0.5
100
AcDbLine
 10
-600.3686126557741
 20
1657.164424949756
 30
0.0
 11
-600.0686126557739
 21
1657.164424949756
 31
0.0
  0
LINE
  5
15629
330
1A
100
AcDbEntity
  8
ZISSEN1
 48
0.5
100
AcDbLine
 10
-600.3686126557741
 20
1658.164424949756
 30
0.0
 11
-600.0686126557739
 21
1658.164424949756
 31
0.0
  0
LINE
  5
1562A
330
1A
100
AcDbEntity
  8
ZISSEN1
 48
0.5
100
AcDbLine
 10
-600.3686126557741
 20
1657.164424949754
 30
0.0
 11
-601.9686126557744
 21
1657.164424949754
 31
0.0
  0
LINE
  5
1562B
330
1A
100
AcDbEntity
  8
ZISSEN1
 48
0.5
100
AcDbLine
 10
-600.3686126557741
 20
1658.164424949754
 30
0.0
 11
-601.9686126557744
 21
1658.164424949754
 31
0.0
  0
LINE
  5
1562C
330
1A
100
AcDbEntity
  8
ZISSEN1
 48
0.5
100
AcDbLine
 10
-601.9686126557744
 20
1659.414424949756
 30
0.0
 11
-602.2686126557746
 21
1659.414424949756
 31
0.0
  0
LINE
  5
1562D
330
1A
100
AcDbEntity
  8
ZISSEN1
 48
0.5
100
AcDbLine
 10
-608.0186126557737
 20
1656.664424949756
 30
0.0
 11
-608.0186126557737
 21
1660.164424949756
 31
0.0
  0
LINE
  5
1562E
330
1A
100
AcDbEntity
  8
ZISSEN1
 48
0.5
100
AcDbLine
 10
-608.0186126557737
 20
1656.664424949756
 30
0.0
 11
-602.3686126557731
 21
1656.664424949756
 31
0.0
  0
LINE
  5
15630
330
1A
100
AcDbEntity
  8
ZISSEN1
 48
0.5
100
AcDbLine
 10
-600.068612655773
 20
1657.664424949756
 30
0.0
 11
-598.068612655773
 21
1657.664424949756
 31
0.0
  0
LINE
  5
15631
330
1A
100
AcDbEntity
  8
ZISSEN1
 48
0.5
100
AcDbLine
 10
-600.3686126557731
 20
1656.664424949756
 30
0.0
 11
-594.7686126557737
 21
1656.664424949756
 31
0.0
  0
ARC
  5
15633
330
1A
100
AcDbEntity
  8
ZISSEN1
 48
0.5
100
AcDbCircle
 10
-599.2768138263109
 20
1662.164424949756
 30
0.0
 40
4.06366340092025
100
AcDbArc
 50
137.4114170198907
 51
222.5885829801092
  0
LINE
  5
15634
330
1A
100
AcDbEntity
  8
ZISSEN1
 48
0.5
100
AcDbLine
 10
-596.9686126557735
 20
1663.464424949755
 30
0.0
 11
-596.9686126557735
 21
1660.864424949757
 31
0.0
  0
LINE
  5
15635
330
1A
100
AcDbEntity
  8
ZISSEN1
 48
0.5
100
AcDbLine
 10
-601.9686126557744
 20
1664.914424949756
 30
0.0
 11
-601.9686126557744
 21
1659.414424949756
 31
0.0
  0
LINE
  5
15636
330
1A
100
AcDbEntity
  8
ZISSEN1
 48
0.5
100
AcDbLine
 10
-601.9686126557744
 20
1668.82362192513
 30
0.0
 11
-601.9686126557744
 21
1661.22362192513
 31
0.0
  0
LINE
  5
1563B
330
1A
100
AcDbEntity
  8
ZISSEN1
100
AcDbLine
 10
-601.9686126557744
 20
1689.364424949755
 30
0.0
 11
-618.4686126557744
 21
1689.364424949756
 31
0.0
  0
LINE
  5
15661
330
1A
100
AcDbEntity
  8
ZISSEN1
100
AcDbLine
 10
-696.4898986203561
 20
1726.564424949756
 30
0.0
 11
-728.8898986203557
 21
1726.564424949756
 31
0.0
  0
LINE
  5
15664
330
1A
100
AcDbEntity
  8
ZISSEN1
100
AcDbLine
 10
-730.3898986203558
 20
1741.664424949756
 30
0.0
 11
-722.6398986203557
 21
1741.664424949756
 31
0.0
  0
LINE
  5
15665
330
1A
100
AcDbEntity
  8
ZISSEN1
100
AcDbLine
 10
-728.8898986203557
 20
1734.164424949756
 30
0.0
 11
-696.4898986203561
 21
1734.164424949756
 31
0.0
  0
LINE
  5
15666
330
1A
100
AcDbEntity
  8
ZISSEN1
 48
0.5
100
AcDbLine
 10
-698.6398986204112
 20
1734.164424949756
 30
0.0
 11
-728.8898986203557
 21
1734.164424949756
 31
0.0
  0
LINE
  5
15667
330
1A
100
AcDbEntity
  8
ZISSEN1
 48
0.5
100
AcDbLine
 10
-725.639898620354
 20
1741.164424949756
 30
0.0
 11
-731.3898986203557
 21
1741.164424949756
 31
0.0
  0
LINE
  5
1569C
330
1A
100
AcDbEntity
  8
ZISSEN1
100
AcDbLine
 10
-730.8898986203558
 20
1741.164424949756
 30
0.0
 11
-730.3898986203558
 21
1741.664424949756
 31
0.0
  0
LINE
  5
1569D
330
1A
100
AcDbEntity
  8
ZISSEN1
100
AcDbLine
 10
-728.8898986203557
 20
1726.564424949756
 30
0.0
 11
-728.8898986203557
 21
1734.164424949756
 31
0.0
  0
LINE
  5
1569E
330
1A
100
AcDbEntity
  8
ZISSEN1
 48
0.5
100
AcDbLine
 10
-728.8898986203557
 20
1726.564424949756
 30
0.0
 11
-728.8898986203557
 21
1734.164424949756
 31
0.0
  0
LINE
  5
1569F
330
1A
100
AcDbEntity
  8
ZISSEN1
100
AcDbLine
 10
-733.3898986203557
 20
1740.664424949756
 30
0.0
 11
-731.3898986203557
 21
1740.664424949756
 31
0.0
  0
LINE
  5
156A0
330
1A
100
AcDbEntity
  8
ZISSEN1
 48
0.5
100
AcDbLine
 10
-731.3898986203557
 20
1737.164424949756
 30
0.0
 11
-729.8898986203558
 21
1737.164424949756
 31
0.0
  0
LINE
  5
156A3
330
1A
100
AcDbEntity
  8
ZISSEN1
100
AcDbLine
 10
-733.3898986203557
 20
1741.664424949756
 30
0.0
 11
-731.3898986203557
 21
1741.664424949756
 31
0.0
  0
LINE
  5
156A5
330
1A
100
AcDbEntity
  8
ZISSEN1
 48
0.5
100
AcDbLine
 10
-733.3898986203557
 20
1742.164424949756
 30
0.0
 11
-733.3898986203557
 21
1745.16442494975
 31
0.0
  0
LINE
  5
156A7
330
1A
100
AcDbEntity
  8
ZISSEN1
 48
0.5
100
AcDbLine
 10
-656.3898986203544
 20
1708.964424949756
 30
0.0
 11
-665.7898986203544
 21
1708.964424949756
 31
0.0
  0
LINE
  5
156A8
330
1A
100
AcDbEntity
  8
ZISSEN1
100
AcDbLine
 10
-656.3898986203557
 20
1709.614424949757
 30
0.0
 11
-663.8898986545828
 21
1709.614424949757
 31
0.0
  0
LINE
  5
156A9
330
1A
100
AcDbEntity
  8
ZISSEN1
 48
0.5
100
AcDbLine
 10
-657.8898986203557
 20
1741.164424949756
 30
0.0
 11
-715.6398986203539
 21
1741.164424949756
 31
0.0
  0
LINE
  5
156AA
330
1A
100
AcDbEntity
  8
ZISSEN1
100
AcDbLine
 10
-657.3898986203557
 20
1741.664424949756
 30
0.0
 11
-719.1398986203558
 21
1741.664424949756
 31
0.0
  0
LINE
  5
156AF
330
1A
100
AcDbEntity
  8
ZISSEN1
 48
0.5
100
AcDbLine
 10
-719.1398986203558
 20
1741.664424949756
 30
0.0
 11
-719.1398986203558
 21
1738.164424949756
 31
0.0
  0
LINE
  5
156B0
330
1A
100
AcDbEntity
  8
ZISSEN1
 48
0.5
100
AcDbLine
 10
-722.6398986203557
 20
1738.164424949756
 30
0.0
 11
-722.6398986203557
 21
1741.664424949756
 31
0.0
  0
LINE
  5
156B2
330
1A
100
AcDbEntity
  8
ZISSEN1
 48
0.5
100
AcDbLine
 10
-715.6398986203539
 20
1738.164424949756
 30
0.0
 11
-715.6398986203539
 21
1741.164424949756
 31
0.0
  0
LINE
  5
156B4
330
1A
100
AcDbEntity
  8
ZISSEN1
 48
0.5
100
AcDbLine
 10
-725.639898620354
 20
1738.164424949756
 30
0.0
 11
-725.639898620354
 21
1741.164424949756
 31
0.0
  0
LINE
  5
156B6
330
1A
100
AcDbEntity
  8
ZISSEN1
 48
0.5
100
AcDbLine
 10
-718.6398986203539
 20
1735.164424949756
 30
0.0
 11
-722.639898620353
 21
1735.164424949756
 31
0.0
  0
LINE
  5
156B7
330
1A
100
AcDbEntity
  8
ZISSEN1
 48
0.5
100
AcDbLine
 10
-718.6398986203539
 20
1735.164424949756
 30
0.0
 11
-715.6398986203539
 21
1738.164424949756
 31
0.0
  0
LINE
  5
156B8
330
1A
100
AcDbEntity
  8
ZISSEN1
 48
0.5
100
AcDbLine
 10
-722.639898620353
 20
1735.164424949756
 30
0.0
 11
-725.639898620354
 21
1738.164424949756
 31
0.0
  0
ARC
  5
156B9
330
1A
100
AcDbEntity
  8
ZISSEN1
 48
0.5
100
AcDbCircle
 10
-720.8898986203557
 20
1738.164424949756
 30
0.0
 40
1.75
100
AcDbArc
 50
180.0
 51
0.0
  0
LINE
  5
156BA
330
1A
100
AcDbEntity
  8
ZISSEN1
100
AcDbLine
 10
-696.4898986203561
 20
1734.164424949756
 30
0.0
 11
-696.4898986203561
 21
1726.564424949756
 31
0.0
  0
CIRCLE
  5
156C0
330
1A
100
AcDbEntity
  8
ZISSEN1
 48
0.5
100
AcDbCircle
 10
-675.3898986203558
 20
1736.164424949756
 30
0.0
 40
2.75
  0
LINE
  5
156C1
330
1A
100
AcDbEntity
  8
ZISSEN1
100
AcDbLine
 10
-691.0612497128713
 20
1732.562757967976
 30
0.0
 11
-691.0612497128713
 21
1732.562757967976
 31
0.0
  0
LINE
  5
156C2
330
1A
100
AcDbEntity
  8
ZISSEN1
100
AcDbLine
 10
-685.4604660903851
 20
1732.562757967976
 30
0.0
 11
-691.0612497128713
 21
1732.562757967976
 31
0.0
  0
LINE
  5
156C3
330
1A
100
AcDbEntity
  8
ZISSEN1
100
AcDbLine
 10
-685.4604660903851
 20
1732.562757967976
 30
0.0
 11
-685.4604660903851
 21
1739.164424949756
 31
0.0
  0
LINE
  5
156C4
330
1A
100
AcDbEntity
  8
ZISSEN1
100
AcDbLine
 10
-691.0612497128713
 20
1739.164424949756
 30
0.0
 11
-691.0612497128713
 21
1732.562757967976
 31
0.0
  0
LINE
  5
156C5
330
1A
100
AcDbEntity
  8
ZISSEN1
100
AcDbLine
 10
-685.5638085447836
 20
1739.166093191342
 30
0.0
 11
-690.9638075140319
 21
1739.16275670817
 31
0.0
  0
LINE
  5
156C6
330
1A
100
AcDbEntity
  8
ZISSEN1
100
AcDbLine
 10
-685.7238085142426
 20
1739.165994332583
 30
0.0
 11
-690.8038075445729
 21
1739.16285556693
 31
0.0
  0
LINE
  5
156C7
330
1A
100
AcDbEntity
  8
ZISSEN1
100
AcDbLine
 10
-691.0612497128713
 20
1724.683066829811
 30
0.0
 11
-685.4604660903851
 21
1724.683066829811
 31
0.0
  0
LINE
  5
156C8
330
1A
100
AcDbEntity
  8
ZISSEN1
100
AcDbLine
 10
-691.0612497128713
 20
1731.283065570004
 30
0.0
 11
-685.4604660903851
 21
1731.283065570004
 31
0.0
  0
LINE
  5
156C9
330
1A
100
AcDbEntity
  8
ZISSEN1
100
AcDbLine
 10
-685.4604660903851
 20
1724.683066829811
 30
0.0
 11
-685.4604660903851
 21
1731.283065570004
 31
0.0
  0
LINE
  5
156CA
330
1A
100
AcDbEntity
  8
ZISSEN1
100
AcDbLine
 10
-691.0612497128713
 20
1731.283065570004
 30
0.0
 11
-691.0612497128713
 21
1724.683066829811
 31
0.0
  0
ARC
  5
156CD
330
1A
100
AcDbEntity
  8
ZISSEN1
100
AcDbCircle
 10
-663.889898690782
 20
1708.61442503715
 30
0.0
 40
0.9999999126071095
100
AcDbArc
 50
89.99999792593555
 51
159.5126883597836
  0
LINE
  5
156E0
330
1A
100
AcDbEntity
  8
ZISSEN1
100
AcDbLine
 10
-657.3898986203557
 20
1741.664424949756
 30
0.0
 11
-656.3898986203557
 21
1740.664424949756
 31
0.0
  0
LINE
  5
156E3
330
1A
100
AcDbEntity
  8
ZISSEN1
 48
0.5
100
AcDbLine
 10
-656.8898986203557
 20
1740.164424949756
 30
0.0
 11
-656.8898986203557
 21
1708.964424949756
 31
0.0
  0
ARC
  5
156E7
330
1A
100
AcDbEntity
  8
ZISSEN1
 48
0.5
100
AcDbCircle
 10
-656.8898986203557
 20
1741.164424949756
 30
0.0
 40
1.0
100
AcDbArc
 50
180.0
 51
270.0
  0
LINE
  5
156E8
330
1A
100
AcDbEntity
  8
ZISSEN1
100
AcDbLine
 10
-656.3898986203557
 20
1740.664424949756
 30
0.0
 11
-656.3898986203557
 21
1709.614424949757
 31
0.0
  0
LINE
  5
156F5
330
1A
100
AcDbEntity
  8
ZISSEN1
 48
0.5
100
AcDbLine
 10
-600.3686126557741
 20
1737.464424949755
 30
0.0
 11
-600.3686126557731
 21
1741.664424949755
 31
0.0
  0
LINE
  5
156F6
330
1A
100
AcDbEntity
  8
ZISSEN1
 48
0.5
100
AcDbLine
 10
-602.3686126557731
 20
1738.801495338297
 30
0.0
 11
-602.3686126557731
 21
1741.664424949755
 31
0.0
  0
LINE
  5
156F7
330
1A
100
AcDbEntity
  8
ZISSEN1
 48
0.5
100
AcDbLine
 10
-608.0186126557737
 20
1741.664424949756
 30
0.0
 11
-608.0186126557737
 21
1738.164424949756
 31
0.0
  0
LINE
  5
156F8
330
1A
100
AcDbEntity
  8
ZISSEN1
 48
0.5
100
AcDbLine
 10
-611.5186126557737
 20
1738.164424949756
 30
0.0
 11
-611.5186126557737
 21
1741.664424949756
 31
0.0
  0
LINE
  5
156F9
330
1A
100
AcDbEntity
  8
ZISSEN1
 48
0.5
100
AcDbLine
 10
-620.7686126557737
 20
1741.664424949756
 30
0.0
 11
-621.7686126557737
 21
1740.664424949756
 31
0.0
  0
LINE
  5
156FA
330
1A
100
AcDbEntity
  8
ZISSEN1
100
AcDbLine
 10
-602.565033066601
 20
1734.164424949756
 30
0.0
 11
-613.4686126557735
 21
1734.164424949756
 31
0.0
  0
LINE
  5
156FB
330
1A
100
AcDbEntity
  8
ZISSEN1
100
AcDbLine
 10
-613.4686126557735
 20
1726.564424949756
 30
0.0
 11
-601.9686126557744
 21
1726.564424949756
 31
0.0
  0
LINE
  5
156FC
330
1A
100
AcDbEntity
  8
ZISSEN1
100
AcDbLine
 10
-618.4686126557744
 20
1708.964424949756
 30
0.0
 11
-601.9686126557744
 21
1708.964424949755
 31
0.0
  0
ARC
  5
156FD
330
1A
100
AcDbEntity
  8
ZISSEN1
 48
0.5
100
AcDbCircle
 10
-609.7686126557737
 20
1738.164424949756
 30
0.0
 40
1.75
100
AcDbArc
 50
180.0
 51
0.0
  0
LINE
  5
156FF
330
1A
100
AcDbEntity
  8
ZISSEN1
100
AcDbLine
 10
-613.4686126557735
 20
1734.164424949756
 30
0.0
 11
-613.4686126557735
 21
1727.364424949757
 31
0.0
  0
LINE
  5
15700
330
1A
100
AcDbEntity
  8
ZISSEN1
100
AcDbLine
 10
-613.4686126557735
 20
1734.164424949756
 30
0.0
 11
-613.4686126557735
 21
1726.564424949756
 31
0.0
  0
LINE
  5
15702
330
1A
100
AcDbEntity
  8
ZISSEN1
 48
0.5
100
AcDbLine
 10
-596.9686126557735
 20
1737.464424949755
 30
0.0
 11
-598.068612655773
 21
1737.464424949755
 31
0.0
  0
LINE
  5
15703
330
1A
100
AcDbEntity
  8
ZISSEN1
 48
0.5
100
AcDbLine
 10
-602.2686126557746
 20
1738.914424949756
 30
0.0
 11
-601.9686126557744
 21
1738.914424949756
 31
0.0
  0
LINE
  5
15704
330
1A
100
AcDbEntity
  8
ZISSEN1
 48
0.5
100
AcDbLine
 10
-600.0686126557739
 20
1741.167179949799
 30
0.0
 11
-600.3686126557741
 21
1741.167179949799
 31
0.0
  0
LINE
  5
15705
330
1A
100
AcDbEntity
  8
ZISSEN1
 48
0.5
100
AcDbLine
 10
-600.3686126557741
 20
1741.164424949754
 30
0.0
 11
-601.9686126557744
 21
1741.164424949754
 31
0.0
  0
LINE
  5
15706
330
1A
100
AcDbEntity
  8
ZISSEN1
 48
0.5
100
AcDbLine
 10
-600.3686126557741
 20
1740.164424949754
 30
0.0
 11
-601.9686126557744
 21
1740.164424949754
 31
0.0
  0
LINE
  5
15707
330
1A
100
AcDbEntity
  8
ZISSEN1
 48
0.5
100
AcDbLine
 10
-600.3686126557741
 20
1741.164424949754
 30
0.0
 11
-601.9686126557744
 21
1741.164424949754
 31
0.0
  0
LINE
  5
15708
330
1A
100
AcDbEntity
  8
ZISSEN1
 48
0.5
100
AcDbLine
 10
-600.3686126557741
 20
1740.164424949754
 30
0.0
 11
-601.9686126557744
 21
1740.164424949754
 31
0.0
  0
LINE
  5
15709
330
1A
100
AcDbEntity
  8
ZISSEN1
 48
0.5
100
AcDbLine
 10
-600.0686126557739
 20
1741.167179949799
 30
0.0
 11
-600.3686126557741
 21
1741.167179949799
 31
0.0
  0
LINE
  5
1570A
330
1A
100
AcDbEntity
  8
ZISSEN1
 48
0.5
100
AcDbLine
 10
-600.0686126557739
 20
1741.167179949799
 30
0.0
 11
-600.3686126557741
 21
1741.167179949799
 31
0.0
  0
LINE
  5
1570B
330
1A
100
AcDbEntity
  8
ZISSEN1
 48
0.5
100
AcDbLine
 10
-602.3686119996718
 20
1738.801496107534
 30
0.0
 11
-602.3686119996718
 21
1738.801490048367
 31
0.0
  0
LINE
  5
1570C
330
1A
100
AcDbEntity
  8
ZISSEN1
 48
0.5
100
AcDbLine
 10
-600.3686126557741
 20
1736.664424949755
 30
0.0
 11
-600.3686113435715
 21
1737.464421044891
 31
0.0
  0
LINE
  5
1570D
330
1A
100
AcDbEntity
  8
ZISSEN1
 48
0.5
100
AcDbLine
 10
-600.068612655773
 20
1740.164420054102
 30
0.0
 11
-600.3686126557741
 21
1740.164420054102
 31
0.0
  0
LINE
  5
1570E
330
1A
100
AcDbEntity
  8
ZISSEN1
 48
0.5
100
AcDbLine
 10
-600.068612655773
 20
1740.664424949756
 30
0.0
 11
-598.068612655773
 21
1740.664424949756
 31
0.0
  0
LINE
  5
1570F
330
1A
100
AcDbEntity
  8
ZISSEN1
 48
0.5
100
AcDbLine
 10
-596.9686126557735
 20
1734.864424949757
 30
0.0
 11
-598.068612655773
 21
1734.864424949757
 31
0.0
  0
LINE
  5
15710
330
1A
100
AcDbEntity
  8
ZISSEN1
 48
0.5
100
AcDbLine
 10
-601.9686126557744
 20
1733.414424949756
 30
0.0
 11
-602.2686126557746
 21
1733.414424949756
 31
0.0
  0
LINE
  5
15711
330
1A
100
AcDbEntity
  8
ZISSEN1
 48
0.5
100
AcDbLine
 10
-601.9686126557744
 20
1734.164424949756
 30
0.0
 11
-601.9686126557744
 21
1727.364424949757
 31
0.0
  0
ARC
  5
15712
330
1A
100
AcDbEntity
  8
ZISSEN1
 48
0.5
100
AcDbCircle
 10
-599.2768138263109
 20
1736.164424949756
 30
0.0
 40
4.06366340092025
100
AcDbArc
 50
137.4114170198907
 51
222.5885829801092
  0
LINE
  5
15713
330
1A
100
AcDbEntity
  8
ZISSEN1
 48
0.5
100
AcDbLine
 10
-596.9686126557735
 20
1737.464424949755
 30
0.0
 11
-596.9686126557735
 21
1734.864424949757
 31
0.0
  0
LINE
  5
15714
330
1A
100
AcDbEntity
  8
ZISSEN1
 48
0.5
100
AcDbLine
 10
-601.9686126557744
 20
1738.914424949756
 30
0.0
 11
-601.9686126557744
 21
1733.414424949756
 31
0.0
  0
LINE
  5
1571B
330
1A
100
AcDbEntity
  8
ZISSEN1
 48
0.5
100
AcDbLine
 10
-620.7686126557737
 20
1741.664424949756
 30
0.0
 11
-611.5186126557737
 21
1741.664424949756
 31
0.0
  0
LINE
  5
1571C
330
1A
100
AcDbEntity
  8
ZISSEN1
 48
0.5
100
AcDbLine
 10
-595.7686126557737
 20
1741.664424949756
 30
0.0
 11
-593.7686126557736
 21
1741.664424949756
 31
0.0
  0
LINE
  5
1571E
330
1A
100
AcDbEntity
  8
ZISSEN1
 48
0.5
100
AcDbLine
 10
-608.0186126557737
 20
1741.664424949756
 30
0.0
 11
-602.3686126557731
 21
1741.664424949756
 31
0.0
  0
LINE
  5
15720
330
1A
100
AcDbEntity
  8
ZISSEN1
 48
0.5
100
AcDbLine
 10
-600.3686126557731
 20
1741.664424949755
 30
0.0
 11
-595.7686126557737
 21
1741.664424949756
 31
0.0
  0
DIMENSION
  5
158BE
330
1A
100
AcDbEntity
  8
SUNPOU
100
AcDbDimension
  2
*D0
 10
-742.0289326887111
 20
1656.664424949756
 30
0.0
 11
-744.7789326887114
 21
1699.164424949756
 31
0.0
 70
    32
  3
標準スタイル
100
AcDbAlignedDimension
 13
-733.3898986203557
 23
1741.664424949756
 33
0.0
 14
-733.3898986203557
 24
1656.664424949756
 34
0.0
 50
90.0
100
AcDbRotatedDimension
1001
ACAD
1000
DSTYLE
1002
{
1070
   340
1005
10
1070
    40
1040
1.0
1002
}
  0
LINE
  5
158EC
330
1A
100
AcDbEntity
  8
CL1
100
AcDbLine
 10
-613.5918634905892
 20
1739.164424949756
 30
0.0
 11
-606.0628836176768
 21
1739.164424949756
 31
0.0
  0
LINE
  5
158EE
330
1A
100
AcDbEntity
  8
CL1
100
AcDbLine
 10
-609.7686126557737
 20
1741.664424949756
 30
0.0
 11
-609.7686126557737
 21
1735.164424949756
 31
0.0
  0
LINE
  5
158EF
330
1A
100
AcDbEntity
  8
CL1
100
AcDbLine
 10
-609.7686126557737
 20
1663.164424949756
 30
0.0
 11
-609.7686126557737
 21
1656.664424949756
 31
0.0
  0
LINE
  5
158F0
330
1A
100
AcDbEntity
  8
CL1
100
AcDbLine
 10
-613.5918634905892
 20
1659.164424949755
 30
0.0
 11
-606.0628836176768
 21
1659.164424949756
 31
0.0
  0
LINE
  5
158F2
330
1A
100
AcDbEntity
  8
CL1
100
AcDbLine
 10
-720.8898986203557
 20
1663.164424949756
 30
0.0
 11
-720.8898986203557
 21
1656.664424949756
 31
0.0
  0
LINE
  5
158F4
330
1A
100
AcDbEntity
  8
CL1
100
AcDbLine
 10
-720.8898986203557
 20
1741.664424949756
 30
0.0
 11
-720.8898986203557
 21
1735.164424949756
 31
0.0
  0
LINE
  5
158F7
330
1A
100
AcDbEntity
  8
CL1
100
AcDbLine
 10
-724.1038460834047
 20
1739.164424949756
 30
0.0
 11
-717.6158548095959
 21
1739.164424949756
 31
0.0
  0
LINE
  5
158F8
330
1A
100
AcDbEntity
  8
CL1
100
AcDbLine
 10
-724.1038460834047
 20
1659.164424949756
 30
0.0
 11
-717.6158548095959
 21
1659.164424949756
 31
0.0
  0
LINE
  5
158FB
330
1A
100
AcDbEntity
  8
CL1
100
AcDbLine
 10
-720.8898986203557
 20
1600.164424949756
 30
0.0
 11
-720.8898986203557
 21
1596.116965527849
 31
0.0
  0
DIMENSION
  5
158FD
330
1A
100
AcDbEntity
  8
SUNPOU
100
AcDbDimension
  2
*D2
 10
-720.8898986203557
 20
1748.167249838645
 30
0.0
 11
-688.6398986203557
 21
1750.917249838645
 31
0.0
 70
    32
  3
標準スタイル
100
AcDbAlignedDimension
 13
-656.3898986203557
 23
1740.664424949756
 33
0.0
 14
-720.8898986203557
 24
1741.664424949756
 34
0.0
100
AcDbRotatedDimension
1001
ACAD
1000
DSTYLE
1002
{
1070
   340
1005
10
1070
    40
1040
1.0
1002
}
  0
DIMENSION
  5
1590A
330
1A
100
AcDbEntity
  8
SUNPOU
100
AcDbDimension
  2
*D3
 10
-733.3898986203557
 20
1748.167249838645
 30
0.0
 11
-727.1398986203557
 21
1750.917249838645
 31
0.0
 70
    32
  3
標準スタイル
100
AcDbAlignedDimension
 13
-720.8898986203557
 23
1741.664424949756
 33
0.0
 14
-733.3898986203557
 24
1740.664424949756
 34
0.0
100
AcDbRotatedDimension
1001
ACAD
1000
DSTYLE
1002
{
1070
   287
1070
     4
1070
   340
1005
10
1070
    40
1040
1.0
1070
   279
1070
     1
1002
}
  0
DIMENSION
  5
15917
330
1A
100
AcDbEntity
  8
SUNPOU
100
AcDbDimension
  2
*D4
 10
-648.5423749746058
 20
1739.164424949756
 30
0.0
 11
-648.5423749746059
 21
1752.164424949756
 31
0.0
 70
   160
  3
標準スタイル
100
AcDbAlignedDimension
 13
-657.3898986203557
 23
1741.664424949756
 33
0.0
 14
-717.6158548095959
 24
1739.164424949756
 34
0.0
 50
90.0
100
AcDbRotatedDimension
1001
ACAD
1000
DSTYLE
1002
{
1070
   340
1005
10
1070
    40
1040
1.0
1002
}
  0
DIMENSION
  5
15926
330
1A
100
AcDbEntity
  8
SUNPOU
100
AcDbDimension
  2
*D5
 10
-648.5349385387459
 20
1659.164424949756
 30
0.0
 11
-651.2849385387462
 21
1699.164424949756
 31
0.0
 70
    32
  3
標準スタイル
100
AcDbAlignedDimension
 13
-717.6158548095959
 23
1739.164424949756
 33
0.0
 14
-717.6158548095959
 24
1659.164424949756
 34
0.0
 50
90.0
100
AcDbRotatedDimension
1001
ACAD
1000
DSTYLE
1002
{
1070
   287
1070
     4
1070
   340
1005
10
1070
    40
1040
1.0
1070
   279
1070
     1
1002
}
  0
DIMENSION
  5
15933
330
1A
100
AcDbEntity
  8
SUNPOU
100
AcDbDimension
  2
*D6
 10
-648.5543315447953
 20
1656.664424949756
 30
0.0
 11
-648.5543315447955
 21
1646.164424949756
 31
0.0
 70
   160
  3
標準スタイル
100
AcDbAlignedDimension
 13
-717.6158548095959
 23
1659.164424949756
 33
0.0
 14
-657.3898986203557
 24
1656.664424949756
 34
0.0
 50
90.0
100
AcDbRotatedDimension
1001
ACAD
1000
DSTYLE
1002
{
1070
    40
1040
1.0
1070
   340
1005
10
1002
}
  0
DIMENSION
  5
15982
330
1A
100
AcDbEntity
  8
SUNPOU
100
AcDbDimension
  2
*D7
 10
-719.1398986203558
 20
1647.129946129795
 30
0.0
 11
-687.7648986203557
 21
1649.879946129795
 31
0.0
 70
    32
  3
標準スタイル
100
AcDbAlignedDimension
 13
-656.3898986203557
 23
1657.664424949756
 33
0.0
 14
-719.1398986203558
 24
1656.664424949756
 34
0.0
100
AcDbRotatedDimension
1001
ACAD
1000
DSTYLE
1002
{
1070
   340
1005
10
1070
    40
1040
1.0
1002
}
  0
DIMENSION
  5
1598F
330
1A
100
AcDbEntity
  8
SUNPOU
100
AcDbDimension
  2
*D8
 10
-722.6398986203557
 20
1647.129946129795
 30
0.0
 11
-717.7148986203558
 21
1642.629946129795
 31
0.0
 70
    32
  3
標準スタイル
100
AcDbAlignedDimension
 13
-719.1398986203558
 23
1656.664424949756
 33
0.0
 14
-722.6398986203557
 24
1656.664424949756
 34
0.0
100
AcDbRotatedDimension
1001
ACAD
1000
DSTYLE
1002
{
1070
   287
1070
     4
1070
   340
1005
10
1070
    40
1040
1.0
1070
   279
1070
     1
1002
}
  0
DIMENSION
  5
159A1
330
1A
100
AcDbEntity
  8
SUNPOU
100
AcDbDimension
  2
*D9
 10
-733.3898986203557
 20
1647.18940895069
 30
0.0
 11
-743.5148986203557
 21
1647.18940895069
 31
0.0
 70
   160
  3
標準スタイル
100
AcDbAlignedDimension
 13
-722.6398986203557
 23
1656.664424949756
 33
0.0
 14
-733.3898986203557
 24
1656.664424949756
 34
0.0
100
AcDbRotatedDimension
1001
ACAD
1000
DSTYLE
1002
{
1070
    40
1040
1.0
1070
   340
1005
10
1002
}
  0
LINE
  5
159B4
330
1A
100
AcDbEntity
  8
CL1
100
AcDbLine
 10
-735.3679982150351
 20
1613.164424949754
 30
0.0
 11
-729.5425003128063
 21
1613.164424949754
 31
0.0
  0
DIMENSION
  5
159B5
330
1A
100
AcDbEntity
  8
SUNPOU
100
AcDbDimension
  2
*D10
 10
-648.5349385387459
 20
1597.164424949754
 30
0.0
 11
-651.2849385387462
 21
1609.514425206848
 31
0.0
 70
    32
  1
(24.7)
  3
標準スタイル
100
AcDbAlignedDimension
 13
-656.3898986203544
 23
1621.864425463942
 33
0.0
 14
-683.3898986203557
 24
1597.164424949754
 34
0.0
 50
90.0
100
AcDbRotatedDimension
1001
ACAD
1000
DSTYLE
1002
{
1070
   340
1005
10
1070
    40
1040
1.0
1002
}
  0
DIMENSION
  5
159D4
330
1A
100
AcDbEntity
  8
SUNPOU
100
AcDbDimension
  2
*D11
 10
-731.3898986203557
 20
1628.761090322747
 30
0.0
 11
-723.2232319536891
 21
1631.511090322747
 31
0.0
 70
    32
  3
標準スタイル
100
AcDbAlignedDimension
 13
-733.3898986203557
 23
1625.164424949755
 33
0.0
 14
-731.3898986203557
 24
1625.164424949755
 34
0.0
100
AcDbRotatedDimension
1001
ACAD
1000
DSTYLE
1002
{
1070
   340
1005
10
1070
    40
1040
1.0
1002
}
  0
DIMENSION
  5
15A10
330
1A
100
AcDbEntity
  8
SUNPOU
100
AcDbDimension
  2
*D12
 10
-593.7686126557736
 20
1641.817262054275
 30
0.0
 11
-607.7686126557737
 21
1644.567262054275
 31
0.0
 70
    32
  3
標準スタイル
100
AcDbAlignedDimension
 13
-621.7686126557737
 23
1657.664424949756
 33
0.0
 14
-593.7686126557736
 24
1656.664424949756
 34
0.0
100
AcDbRotatedDimension
1001
ACAD
1000
DSTYLE
1002
{
1070
   340
1005
10
1070
    40
1040
1.0
1002
}
  0
DIMENSION
  5
15A1D
330
1A
100
AcDbEntity
  8
SUNPOU
100
AcDbDimension
  2
*D13
 10
-593.7686126557736
 20
1648.911768986639
 30
0.0
 11
-601.7686126557737
 21
1651.661768986639
 31
0.0
 70
    32
  3
標準スタイル
100
AcDbAlignedDimension
 13
-609.7686126557737
 23
1656.664424949756
 33
0.0
 14
-593.7686126557736
 24
1656.164424949756
 34
0.0
100
AcDbRotatedDimension
1001
ACAD
1000
DSTYLE
1002
{
1070
   340
1005
10
1070
    40
1040
1.0
1002
}
  0
DIMENSION
  5
15A2A
330
1A
100
AcDbEntity
  8
SUNPOU
100
AcDbDimension
  2
*D14
 10
-630.3103396506299
 20
1659.164424949755
 30
0.0
 11
-630.3103396506301
 21
1644.884701732376
 31
0.0
 70
   160
  3
標準スタイル
100
AcDbAlignedDimension
 13
-620.7686126557737
 23
1656.664424949756
 33
0.0
 14
-613.5918634905892
 24
1659.164424949755
 34
0.0
 50
90.0
100
AcDbRotatedDimension
1001
ACAD
1000
DSTYLE
1002
{
1070
   340
1005
10
1070
    40
1040
1.0
1002
}
  0
DIMENSION
  5
15A39
330
1A
100
AcDbEntity
  8
SUNPOU
100
AcDbDimension
  2
*D15
 10
-630.2953590141182
 20
1739.164424949756
 30
0.0
 11
-633.0453590141185
 21
1699.164424949755
 31
0.0
 70
    32
  3
標準スタイル
100
AcDbAlignedDimension
 13
-613.5918634905892
 23
1659.164424949755
 33
0.0
 14
-613.5918634905892
 24
1739.164424949756
 34
0.0
 50
90.0
100
AcDbRotatedDimension
1001
ACAD
1000
DSTYLE
1002
{
1070
   287
1070
     4
1070
   340
1005
10
1070
    40
1040
1.0
1070
   279
1070
     1
1002
}
  0
DIMENSION
  5
15A46
330
1A
100
AcDbEntity
  8
SUNPOU
100
AcDbDimension
  2
*D16
 10
-630.317909129443
 20
1741.664424949756
 30
0.0
 11
-630.3179091294432
 21
1752.164424949756
 31
0.0
 70
   160
  3
標準スタイル
100
AcDbAlignedDimension
 13
-613.5918634905892
 23
1739.164424949756
 33
0.0
 14
-620.7686126557737
 24
1741.664424949756
 34
0.0
 50
90.0
100
AcDbRotatedDimension
1001
ACAD
1000
DSTYLE
1002
{
1070
    40
1040
1.0
1070
   340
1005
10
1002
}
  0
LINE
  5
15B0E
330
1A
100
AcDbEntity
  8
CL1
100
AcDbLine
 10
-734.6323292236406
 20
1659.164424949756
 30
0.0
 11
-730.0866459907269
 21
1659.164424949756
 31
0.0
  0
LINE
  5
15B0F
330
1A
100
AcDbEntity
  8
CL1
100
AcDbLine
 10
-734.6323292236406
 20
1739.164424949756
 30
0.0
 11
-730.0866459907269
 21
1739.164424949756
 31
0.0
  0
DIMENSION
  5
15B10
330
1A
100
AcDbEntity
  8
SUNPOU
100
AcDbDimension
  2
*D17
 10
-656.3898986203557
 20
1588.658119488945
 30
0.0
 11
-694.8898986203557
 21
1591.408119488945
 31
0.0
 70
    32
  3
標準スタイル
100
AcDbAlignedDimension
 13
-733.3898986203556
 23
1599.164424949754
 33
0.0
 14
-656.3898986203557
 24
1601.464424949755
 34
0.0
100
AcDbRotatedDimension
1001
ACAD
1000
DSTYLE
1002
{
1070
   340
1005
10
1070
    40
1040
1.0
1002
}
  0
VIEWPORT
  5
5D8F
330
5D8E
100
AcDbEntity
 67
     1
  8
0
100
AcDbViewport
 10
221.7940542839247
 20
157.689821644077
 30
0.0
 40
559.956636120789
 41
314.237268371582
 68
     1
 69
     1
1001
ACAD
1000
MVIEW
1002
{
1070
    16
1010
0.0
1020
0.0
1030
0.0
1010
0.0
1020
0.0
1030
1.0
1040
0.0
1040
314.237268371582
1040
221.7940542839247
1040
157.689821644077
1040
50.0
1040
0.0
1040
0.0
1070
     0
1070
   100
1070
     1
1070
     0
1070
     0
1070
     0
1070
     0
1070
     0
1040
0.0
1040
0.0
1040
0.0
1040
1.0
1040
1.0
1040
10.0
1040
10.0
1070
     0
1002
{
1002
}
1002
}
  0
VIEWPORT
  5
6001
330
5D8E
100
AcDbEntity
 67
     1
  8
ZISSEN1
100
AcDbViewport
 10
221.7861955525412
 20
157.6960273330388
 30
0.0
 40
385.4999999999997
 41
259.9999999999999
 68
     2
 69
     2
1001
ACAD
1000
MVIEW
1002
{
1070
    16
1010
0.0
1020
0.0
1030
0.0
1010
0.0
1020
0.0
1030
1.0
1040
0.0
1040
259.9999999999999
1040
-674.8508863282007
1040
1685.553030014364
1040
50.0
1040
0.0
1040
0.0
1070
     0
1070
   100
1070
     1
1070
     0
1070
     0
1070
     0
1070
     0
1070
     0
1040
0.0
1040
0.0
1040
0.0
1040
1.0
1040
1.0
1040
10.0
1040
10.0
1070
     0
1002
{
1002
}
1002
}
  0
TEXT
  5
716F
330
5D8E
100
AcDbEntity
 67
     1
  8
SUNPOU
 62
     0
100
AcDbText
 10
329.2365168140136
 20
48.53763487172603
 30
0.0
 40
3.5
  1
縮尺 1/1
  7
ゴシック体
100
AcDbText
  0
ENDSEC
  0
SECTION
  2
OBJECTS
  0
DICTIONARY
  5
C
330
0
100
AcDbDictionary
  3
ACAD_GROUP
350
D
  3
ACAD_LAYOUT
350
5C7D
  3
ACAD_MLINESTYLE
350
E
  3
ACAD_PLOTSETTINGS
350
5C7E
  3
ACAD_PLOTSTYLENAME
350
5C7B
  3
ACADDIM
350
14F3E
  3
DWGPROPS
350
13E94
  3
ACDBHEADERROUNDTRIPXREC
350
15B55
  0
DICTIONARY
  5
130FA
330
2
100
AcDbDictionary
280
     1
  3
ACAD_LAYERFILTERS
360
130FB
  0
DICTIONARY
  5
15B75
330
1A
100
AcDbDictionary
280
     1
  3
ACAD_LAYOUTSELFREF
360
15B76
  0
DICTIONARY
  5
15B77
330
5D8E
100
AcDbDictionary
280
     1
  3
ACAD_LAYOUTSELFREF
360
15B78
  0
DICTIONARY
  5
D
102
{ACAD_REACTORS
330
C
102
}
330
C
100
AcDbDictionary
  3
*A1
350
477D
  3
*A2
350
4C13
  3
*A3
350
4C14
  3
*A4
350
14EB1
  3
*A5
350
4C15
  3
*A6
350
4C16
  3
*A7
350
4C17
  3
*A8
350
14EA7
  3
*A9
350
14EAC
  3
*A10
350
14EBA
  3
*A11
350
477E
  3
*A12
350
477F
  3
*A13
350
14EBB
  3
*A14
350
14EC0
  3
*A15
350
14EC5
  3
*A16
350
14ECA
  3
*A17
350
14ECF
  3
*A18
350
4780
  3
*A19
350
4C12
  3
*A20
350
4781
  3
*A21
350
4C0E
  3
*A22
350
4C0F
  3
*A23
350
4C10
  3
*A24
350
4C11
  0
DICTIONARY
  5
5C7D
102
{ACAD_REACTORS
330
C
102
}
330
C
100
AcDbDictionary
  0
DICTIONARY
  5
E
102
{ACAD_REACTORS
330
C
102
}
330
C
100
AcDbDictionary
  3
STANDARD
350
13
  0
DICTIONARY
  5
5C7E
102
{ACAD_REACTORS
330
C
102
}
330
C
100
AcDbDictionary
  0
ACDBDICTIONARYWDFLT
  5
5C7B
102
{ACAD_REACTORS
330
C
102
}
330
C
100
AcDbDictionary
281
     1
  3
Normal
350
5C7C
100
AcDbDictionaryWithDefault
340
5C7C
  0
XRECORD
  5
14F3E
102
{ACAD_REACTORS
330
C
102
}
330
C
100
AcDbXrecord
 90
   990106
  3

 60
     0
 61
     0
 62
     1
 63
     3
 64
     0
 65
     0
 66
     0
 67
     3
 68
     1
 69
     0
 70
     0
 71
     0
 72
     0
 40
0.0
170
     0
  0
XRECORD
  5
13E94
102
{ACAD_REACTORS
330
C
102
}
330
C
100
AcDbXrecord
  1
DWGPROPS COOKIE
  2

  3

  4

  6

  7

  8

  9

300
=
301
=
302
=
303
=
304
=
305
=
306
=
307
=
308
=
309
=
 40
1.825955324074074
 41
2450495.493631365
 42
2455083.433891168
  1

 90
        0
  0
DICTIONARY
  5
15B55
102
{ACAD_REACTORS
330
C
102
}
330
C
100
AcDbDictionary
  3
TSTACKALIGN
350
15B56
  3
TSTACKSIZE
350
15B57
  3
HYPERLINKBASE
350
15B58
  3
STYLESHEET
350
15B59
  3
LAYOUTDICT
350
15B5A
  3
PLOTSETDICT
350
15B5B
  3
PLOTSTYLNAMDICT
350
15B5C
  3
LWETCUNION
350
15B5D
  3
INSUNITS
350
15B5E
  3
CEPSNTYPE
350
15B5F
  3
FINGERPRINTGUID
350
15B60
  3
VERSIONGUID
350
15B61
  3
PSVPSCALE
350
15B62
  3
PUCSORTHOREF
350
15B63
  3
PUCSORTHOVIEW
350
15B64
  3
PUCSBASE
350
15B65
  3
PUCSORGTOP
350
15B66
  3
PUCSORGBOTTOM
350
15B67
  3
PUCSORGLEFT
350
15B68
  3
PUCSORGRIGHT
350
15B69
  3
PUCSORGFRONT
350
15B6A
  3
PUCSORGBACK
350
15B6B
  3
UCSORTHOREF
350
15B6C
  3
UCSORTHOVIEW
350
15B6D
  3
UCSBASE
350
15B6E
  3
UCSORGTOP
350
15B6F
  3
UCSORGBOTTOM
350
15B70
  3
UCSORGLEFT
350
15B71
  3
UCSORGRIGHT
350
15B72
  3
UCSORGFRONT
350
15B73
  3
UCSORGBACK
350
15B74
  0
DICTIONARY
  5
130FB
102
{ACAD_REACTORS
330
130FA
102
}
330
130FA
100
AcDbDictionary
280
     1
  3
BASE
360
130FC
  3
CASE
360
130FD
  3
KIKOU
360
130FE
  0
XRECORD
  5
15B76
102
{ACAD_REACTORS
330
15B75
102
}
330
15B75
100
AcDbXrecord
340
1A
  0
XRECORD
  5
15B78
102
{ACAD_REACTORS
330
15B77
102
}
330
15B77
100
AcDbXrecord
340
5D8E
  0
GROUP
  5
477D
102
{ACAD_REACTORS
330
D
102
}
330
D
100
AcDbGroup
300

 70
     1
 71
     1
  0
GROUP
  5
4C13
102
{ACAD_REACTORS
330
D
102
}
330
D
100
AcDbGroup
300

 70
     1
 71
     1
  0
GROUP
  5
4C14
102
{ACAD_REACTORS
330
D
102
}
330
D
100
AcDbGroup
300

 70
     1
 71
     1
  0
GROUP
  5
14EB1
102
{ACAD_REACTORS
330
D
102
}
330
D
100
AcDbGroup
300

 70
     1
 71
     1
  0
GROUP
  5
4C15
102
{ACAD_REACTORS
330
D
102
}
330
D
100
AcDbGroup
300

 70
     1
 71
     1
  0
GROUP
  5
4C16
102
{ACAD_REACTORS
330
D
102
}
330
D
100
AcDbGroup
300

 70
     1
 71
     1
  0
GROUP
  5
4C17
102
{ACAD_REACTORS
330
D
102
}
330
D
100
AcDbGroup
300

 70
     1
 71
     1
  0
GROUP
  5
14EA7
102
{ACAD_REACTORS
330
D
102
}
330
D
100
AcDbGroup
300

 70
     1
 71
     1
  0
GROUP
  5
14EAC
102
{ACAD_REACTORS
330
D
102
}
330
D
100
AcDbGroup
300

 70
     1
 71
     1
  0
GROUP
  5
14EBA
102
{ACAD_REACTORS
330
D
102
}
330
D
100
AcDbGroup
300

 70
     1
 71
     1
  0
GROUP
  5
477E
102
{ACAD_REACTORS
330
D
102
}
330
D
100
AcDbGroup
300

 70
     1
 71
     1
  0
GROUP
  5
477F
102
{ACAD_REACTORS
330
D
102
}
330
D
100
AcDbGroup
300

 70
     1
 71
     1
  0
GROUP
  5
14EBB
102
{ACAD_REACTORS
330
D
102
}
330
D
100
AcDbGroup
300

 70
     1
 71
     1
  0
GROUP
  5
14EC0
102
{ACAD_REACTORS
330
D
102
}
330
D
100
AcDbGroup
300

 70
     1
 71
     1
  0
GROUP
  5
14EC5
102
{ACAD_REACTORS
330
D
102
}
330
D
100
AcDbGroup
300

 70
     1
 71
     1
  0
GROUP
  5
14ECA
102
{ACAD_REACTORS
330
D
102
}
330
D
100
AcDbGroup
300

 70
     1
 71
     1
  0
GROUP
  5
14ECF
102
{ACAD_REACTORS
330
D
102
}
330
D
100
AcDbGroup
300

 70
     1
 71
     1
  0
GROUP
  5
4780
102
{ACAD_REACTORS
330
D
102
}
330
D
100
AcDbGroup
300

 70
     1
 71
     1
  0
GROUP
  5
4C12
102
{ACAD_REACTORS
330
D
102
}
330
D
100
AcDbGroup
300

 70
     1
 71
     1
  0
GROUP
  5
4781
102
{ACAD_REACTORS
330
D
102
}
330
D
100
AcDbGroup
300

 70
     1
 71
     1
  0
GROUP
  5
4C0E
102
{ACAD_REACTORS
330
D
102
}
330
D
100
AcDbGroup
300

 70
     1
 71
     1
  0
GROUP
  5
4C0F
102
{ACAD_REACTORS
330
D
102
}
330
D
100
AcDbGroup
300

 70
     1
 71
     1
  0
GROUP
  5
4C10
102
{ACAD_REACTORS
330
D
102
}
330
D
100
AcDbGroup
300

 70
     1
 71
     1
  0
GROUP
  5
4C11
102
{ACAD_REACTORS
330
D
102
}
330
D
100
AcDbGroup
300

 70
     1
 71
     1
  0
MLINESTYLE
  5
13
102
{ACAD_REACTORS
330
E
102
}
330
E
100
AcDbMlineStyle
  2
STANDARD
 70
     0
  3

 62
     0
 51
90.0
 52
90.0
 71
     2
 49
0.5
 62
   256
  6
BYLAYER
 49
-0.5
 62
   256
  6
BYLAYER
  0
ACDBPLACEHOLDER
  5
5C7C
102
{ACAD_REACTORS
330
5C7B
102
}
330
5C7B
100
AcDbPlaceHolder
280
     0
  0
XRECORD
  5
15B56
102
{ACAD_REACTORS
330
15B55
102
}
330
15B55
100
AcDbXrecord
 90
        1
  0
XRECORD
  5
15B57
102
{ACAD_REACTORS
330
15B55
102
}
330
15B55
100
AcDbXrecord
 90
       70
  0
XRECORD
  5
15B58
102
{ACAD_REACTORS
330
15B55
102
}
330
15B55
100
AcDbXrecord
  1

  0
XRECORD
  5
15B59
102
{ACAD_REACTORS
330
15B55
102
}
330
15B55
100
AcDbXrecord
  1

  0
XRECORD
  5
15B5A
102
{ACAD_REACTORS
330
15B55
102
}
330
15B55
100
AcDbXrecord
340
5C7D
  0
XRECORD
  5
15B5B
102
{ACAD_REACTORS
330
15B55
102
}
330
15B55
100
AcDbXrecord
340
5C7E
  0
XRECORD
  5
15B5C
102
{ACAD_REACTORS
330
15B55
102
}
330
15B55
100
AcDbXrecord
340
5C7B
  0
XRECORD
  5
15B5D
102
{ACAD_REACTORS
330
15B55
102
}
330
15B55
100
AcDbXrecord
 90
    10781
  0
XRECORD
  5
15B5E
102
{ACAD_REACTORS
330
15B55
102
}
330
15B55
100
AcDbXrecord
 90
        0
  0
XRECORD
  5
15B5F
102
{ACAD_REACTORS
330
15B55
102
}
330
15B55
100
AcDbXrecord
 90
        0
  0
XRECORD
  5
15B60
102
{ACAD_REACTORS
330
15B55
102
}
330
15B55
100
AcDbXrecord
  1
{225A7F0D-DA29-11D8-946A-0000E2416295}
  0
XRECORD
  5
15B61
102
{ACAD_REACTORS
330
15B55
102
}
330
15B55
100
AcDbXrecord
  1
{0AE7FDB2-A17C-42EB-81B1-21126B8EFC5D}
  0
XRECORD
  5
15B62
102
{ACAD_REACTORS
330
15B55
102
}
330
15B55
100
AcDbXrecord
 40
0.0
  0
XRECORD
  5
15B63
102
{ACAD_REACTORS
330
15B55
102
}
330
15B55
100
AcDbXrecord
340
0
  0
XRECORD
  5
15B64
102
{ACAD_REACTORS
330
15B55
102
}
330
15B55
100
AcDbXrecord
 70
     0
  0
XRECORD
  5
15B65
102
{ACAD_REACTORS
330
15B55
102
}
330
15B55
100
AcDbXrecord
340
0
  0
XRECORD
  5
15B66
102
{ACAD_REACTORS
330
15B55
102
}
330
15B55
100
AcDbXrecord
 10
0.0
 20
0.0
 30
0.0
  0
XRECORD
  5
15B67
102
{ACAD_REACTORS
330
15B55
102
}
330
15B55
100
AcDbXrecord
 10
0.0
 20
0.0
 30
0.0
  0
XRECORD
  5
15B68
102
{ACAD_REACTORS
330
15B55
102
}
330
15B55
100
AcDbXrecord
 10
0.0
 20
0.0
 30
0.0
  0
XRECORD
  5
15B69
102
{ACAD_REACTORS
330
15B55
102
}
330
15B55
100
AcDbXrecord
 10
0.0
 20
0.0
 30
0.0
  0
XRECORD
  5
15B6A
102
{ACAD_REACTORS
330
15B55
102
}
330
15B55
100
AcDbXrecord
 10
0.0
 20
0.0
 30
0.0
  0
XRECORD
  5
15B6B
102
{ACAD_REACTORS
330
15B55
102
}
330
15B55
100
AcDbXrecord
 10
0.0
 20
0.0
 30
0.0
  0
XRECORD
  5
15B6C
102
{ACAD_REACTORS
330
15B55
102
}
330
15B55
100
AcDbXrecord
340
0
  0
XRECORD
  5
15B6D
102
{ACAD_REACTORS
330
15B55
102
}
330
15B55
100
AcDbXrecord
 70
     0
  0
XRECORD
  5
15B6E
102
{ACAD_REACTORS
330
15B55
102
}
330
15B55
100
AcDbXrecord
340
0
  0
XRECORD
  5
15B6F
102
{ACAD_REACTORS
330
15B55
102
}
330
15B55
100
AcDbXrecord
 10
0.0
 20
0.0
 30
0.0
  0
XRECORD
  5
15B70
102
{ACAD_REACTORS
330
15B55
102
}
330
15B55
100
AcDbXrecord
 10
0.0
 20
0.0
 30
0.0
  0
XRECORD
  5
15B71
102
{ACAD_REACTORS
330
15B55
102
}
330
15B55
100
AcDbXrecord
 10
0.0
 20
0.0
 30
0.0
  0
XRECORD
  5
15B72
102
{ACAD_REACTORS
330
15B55
102
}
330
15B55
100
AcDbXrecord
 10
0.0
 20
0.0
 30
0.0
  0
XRECORD
  5
15B73
102
{ACAD_REACTORS
330
15B55
102
}
330
15B55
100
AcDbXrecord
 10
0.0
 20
0.0
 30
0.0
  0
XRECORD
  5
15B74
102
{ACAD_REACTORS
330
15B55
102
}
330
15B55
100
AcDbXrecord
 10
0.0
 20
0.0
 30
0.0
  0
XRECORD
  5
130FC
102
{ACAD_REACTORS
330
130FB
102
}
330
130FB
100
AcDbXrecord
  1
BASE
  1
BASE*
  1
*
  1
*
 70
     0
  1
*
  1
*
  0
XRECORD
  5
130FD
102
{ACAD_REACTORS
330
130FB
102
}
330
130FB
100
AcDbXrecord
  1
CASE
  1
CASE*
  1
*
  1
*
 70
     0
  1
*
  1
*
  0
XRECORD
  5
130FE
102
{ACAD_REACTORS
330
130FB
102
}
330
130FB
100
AcDbXrecord
  1
KIKOU
  1
KIKOU*
  1
*
  1
*
 70
     0
  1
*
  1
*
  0
ENDSEC
  0
EOF
