  0
SECTION
  2
HEADER
  9
$ACADVER
  1
AC1014
  9
$ACADMAINTVER
 70
     9
  9
$DWGCODEPAGE
  3
ANSI_932
  9
$INSBASE
 10
0.0
 20
0.0
 30
0.0
  9
$EXTMIN
 10
-1533.17799766413
 20
1484.903771191296
 30
0.0
  9
$EXTMAX
 10
-1377.881279378627
 20
1642.219462827005
 30
0.0
  9
$LIMMIN
 10
0.0
 20
0.0
  9
$LIMMAX
 10
420.0
 20
297.0
  9
$ORTHOMODE
 70
     0
  9
$REGENMODE
 70
     1
  9
$FILLMODE
 70
     1
  9
$QTEXTMODE
 70
     0
  9
$MIRRTEXT
 70
     1
  9
$DRAGMODE
 70
     2
  9
$LTSCALE
 40
1.0
  9
$OSMODE
 70
    37
  9
$ATTMODE
 70
     1
  9
$TEXTSIZE
 40
2.5
  9
$TRACEWID
 40
1.0
  9
$TEXTSTYLE
  7
ゴシック体
  9
$CLAYER
  8
SUNPOU
  9
$CELTYPE
  6
BYLAYER
  9
$CECOLOR
 62
   256
  9
$CELTSCALE
 40
1.0
  9
$DELOBJ
 70
     1
  9
$DISPSILH
 70
     0
  9
$DIMSCALE
 40
0.0
  9
$DIMASZ
 40
3.0
  9
$DIMEXO
 40
0.5
  9
$DIMDLI
 40
0.5
  9
$DIMRND
 40
0.0
  9
$DIMDLE
 40
0.0
  9
$DIMEXE
 40
0.5
  9
$DIMTP
 40
0.0
  9
$DIMTM
 40
0.0
  9
$DIMTXT
 40
3.5
  9
$DIMCEN
 40
0.0
  9
$DIMTSZ
 40
0.0
  9
$DIMTOL
 70
     0
  9
$DIMLIM
 70
     0
  9
$DIMTIH
 70
     0
  9
$DIMTOH
 70
     0
  9
$DIMSE1
 70
     0
  9
$DIMSE2
 70
     0
  9
$DIMTAD
 70
     1
  9
$DIMZIN
 70
     8
  9
$DIMBLK
  1

  9
$DIMASO
 70
     1
  9
$DIMSHO
 70
     1
  9
$DIMPOST
  1

  9
$DIMAPOST
  1

  9
$DIMALT
 70
     0
  9
$DIMALTD
 70
     2
  9
$DIMALTF
 40
25.4
  9
$DIMLFAC
 40
1.0
  9
$DIMTOFL
 70
     1
  9
$DIMTVP
 40
0.0
  9
$DIMTIX
 70
     0
  9
$DIMSOXD
 70
     0
  9
$DIMSAH
 70
     0
  9
$DIMBLK1
  1

  9
$DIMBLK2
  1

  9
$DIMSTYLE
  2
標準スタイル
  9
$DIMCLRD
 70
     1
  9
$DIMCLRE
 70
     1
  9
$DIMCLRT
 70
     1
  9
$DIMTFAC
 40
1.0
  9
$DIMGAP
 40
1.0
  9
$DIMJUST
 70
     0
  9
$DIMSD1
 70
     0
  9
$DIMSD2
 70
     0
  9
$DIMTOLJ
 70
     1
  9
$DIMTZIN
 70
     8
  9
$DIMALTZ
 70
     0
  9
$DIMALTTZ
 70
     0
  9
$DIMFIT
 70
     3
  9
$DIMUPT
 70
     0
  9
$DIMUNIT
 70
     2
  9
$DIMDEC
 70
     2
  9
$DIMTDEC
 70
     2
  9
$DIMALTU
 70
     2
  9
$DIMALTTD
 70
     2
  9
$DIMTXSTY
  7
ゴシック体
  9
$DIMAUNIT
 70
     0
  9
$LUNITS
 70
     2
  9
$LUPREC
 70
     4
  9
$SKETCHINC
 40
1.0
  9
$FILLETRAD
 40
0.0
  9
$AUNITS
 70
     0
  9
$AUPREC
 70
     0
  9
$MENU
  1
.
  9
$ELEVATION
 40
0.0
  9
$PELEVATION
 40
0.0
  9
$THICKNESS
 40
0.0
  9
$LIMCHECK
 70
     0
  9
$BLIPMODE
 70
     0
  9
$CHAMFERA
 40
10.0
  9
$CHAMFERB
 40
10.0
  9
$CHAMFERC
 40
2.0
  9
$CHAMFERD
 40
0.7853981633974483
  9
$SKPOLY
 70
     0
  9
$TDCREATE
 40
2450495.493631365
  9
$TDUPDATE
 40
2453984.394975775
  9
$TDINDWG
 40
1.4855790741
  9
$TDUSRTIMER
 40
1.4855789583
  9
$USRTIMER
 70
     1
  9
$ANGBASE
 50
0.0
  9
$ANGDIR
 70
     0
  9
$PDMODE
 70
    99
  9
$PDSIZE
 40
0.0
  9
$PLINEWID
 40
0.0
  9
$COORDS
 70
     1
  9
$SPLFRAME
 70
     0
  9
$SPLINETYPE
 70
     6
  9
$SPLINESEGS
 70
     8
  9
$ATTDIA
 70
     0
  9
$ATTREQ
 70
     1
  9
$HANDLING
 70
 10241
  9
$HANDSEED
  5
1148A
  9
$SURFTAB1
 70
     6
  9
$SURFTAB2
 70
     6
  9
$SURFTYPE
 70
     6
  9
$SURFU
 70
     6
  9
$SURFV
 70
     6
  9
$UCSNAME
  2

  9
$UCSORG
 10
0.0
 20
0.0
 30
0.0
  9
$UCSXDIR
 10
1.0
 20
0.0
 30
0.0
  9
$UCSYDIR
 10
0.0
 20
1.0
 30
0.0
  9
$PUCSNAME
  2

  9
$PUCSORG
 10
0.0
 20
0.0
 30
0.0
  9
$PUCSXDIR
 10
1.0
 20
0.0
 30
0.0
  9
$PUCSYDIR
 10
0.0
 20
1.0
 30
0.0
  9
$USERI1
 70
     0
  9
$USERI2
 70
     0
  9
$USERI3
 70
     0
  9
$USERI4
 70
     0
  9
$USERI5
 70
     0
  9
$USERR1
 40
0.0
  9
$USERR2
 40
0.0
  9
$USERR3
 40
0.0
  9
$USERR4
 40
0.0
  9
$USERR5
 40
0.0
  9
$WORLDVIEW
 70
     1
  9
$SHADEDGE
 70
     3
  9
$SHADEDIF
 70
    70
  9
$TILEMODE
 70
     1
  9
$MAXACTVP
 70
    16
  9
$PINSBASE
 10
0.0
 20
0.0
 30
0.0
  9
$PLIMCHECK
 70
     0
  9
$PEXTMIN
 10
29.03619555254133
 20
27.69602733303884
 30
0.0
  9
$PEXTMAX
 10
414.536195552541
 20
287.6960273330388
 30
0.0
  9
$PLIMMIN
 10
15.15433780389673
 20
13.80781516542163
  9
$PLIMMAX
 10
435.1009930773342
 20
310.8184658001872
  9
$UNITMODE
 70
     0
  9
$VISRETAIN
 70
     0
  9
$PLINEGEN
 70
     0
  9
$PSLTSCALE
 70
     1
  9
$TREEDEPTH
 70
  3020
  9
$PICKSTYLE
 70
     1
  9
$CMLSTYLE
  2
STANDARD
  9
$CMLJUST
 70
     0
  9
$CMLSCALE
 40
1.0
  9
$PROXYGRAPHICS
 70
     1
  9
$MEASUREMENT
 70
     1
  0
ENDSEC
  0
SECTION
  2
CLASSES
  0
CLASS
  1
LWPOLYLINE
  2
AcDbPolyline
  3
AutoCAD 2000
 90
        0
280
     0
281
     1
  0
CLASS
  1
HATCH
  2
AcDbHatch
  3
AutoCAD 2000
 90
        0
280
     0
281
     1
  0
CLASS
  1
ACDBDICTIONARYWDFLT
  2
AcDbDictionaryWithDefault
  3
AutoCAD 2000
 90
        0
280
     0
281
     0
  0
CLASS
  1
ACDBPLACEHOLDER
  2
AcDbPlaceHolder
  3
AutoCAD 2000
 90
        0
280
     0
281
     0
  0
CLASS
  1
LAYOUT
  2
AcDbLayout
  3
AutoCAD 2000
 90
        0
280
     0
281
     0
  0
CLASS
  1
DICTIONARYVAR
  2
AcDbDictionaryVar
  3
AutoCAD 2000
 90
        0
280
     0
281
     0
  0
CLASS
  1
LONG_TRANSACTION
  2
AcDbLongTransaction
  3
AutoCAD 2000
 90
        0
280
     0
281
     0
  0
CLASS
  1
LWPOLYLINE
  2
AcDbPolyline
  3
AutoCAD 2000
 90
        0
280
     0
281
     1
  0
CLASS
  1
HATCH
  2
AcDbHatch
  3
AutoCAD 2000
 90
        0
280
     0
281
     1
  0
CLASS
  1
XRECORD
  2
AcDbXrecord
  3
AutoCAD 2000
 90
        0
280
     0
281
     0
  0
ENDSEC
  0
SECTION
  2
TABLES
  0
TABLE
  2
VPORT
  5
8
330
0
100
AcDbSymbolTable
 70
     2
  0
VPORT
  5
11465
330
8
100
AcDbSymbolTableRecord
100
AcDbViewportTableRecord
  2
*ACTIVE
 70
     0
 10
0.0
 20
0.0
 11
1.0
 21
1.0
 12
-1400.539737517745
 22
1563.586583690014
 13
0.0
 23
0.0
 14
5.0
 24
5.0
 15
0.0
 25
0.0
 16
0.0
 26
0.0
 36
1.0
 17
0.0
 27
0.0
 37
0.0
 40
159.3047998523515
 41
2.192560175054704
 42
50.0
 43
0.0
 44
0.0
 50
0.0
 51
0.0
 71
     0
 72
   100
 73
     1
 74
     0
 75
     0
 76
     0
 77
     0
 78
     0
  0
ENDTAB
  0
TABLE
  2
LTYPE
  5
5
330
0
100
AcDbSymbolTable
 70
    13
  0
LTYPE
  5
14
330
5
100
AcDbSymbolTableRecord
100
AcDbLinetypeTableRecord
  2
BYBLOCK
 70
     0
  3

 72
    65
 73
     0
 40
0.0
  0
LTYPE
  5
15
330
5
100
AcDbSymbolTableRecord
100
AcDbLinetypeTableRecord
  2
BYLAYER
 70
     0
  3

 72
    65
 73
     0
 40
0.0
  0
LTYPE
  5
16
330
5
100
AcDbSymbolTableRecord
100
AcDbLinetypeTableRecord
  2
CONTINUOUS
 70
     0
  3
Solid line
 72
    65
 73
     0
 40
0.0
  0
LTYPE
  5
1956
330
5
100
AcDbSymbolTableRecord
100
AcDbLinetypeTableRecord
  2
CENTERX2
 70
     0
  3
________  __  ________  __  ________  __  _____
 72
    65
 73
     4
 40
4.0
 49
2.5
 74
     0
 49
-0.5
 74
     0
 49
0.5
 74
     0
 49
-0.5
 74
     0
  0
ENDTAB
  0
TABLE
  2
LAYER
  5
2
330
0
100
AcDbSymbolTable
 70
    33
  0
LAYER
  5
F
330
2
100
AcDbSymbolTableRecord
100
AcDbLayerTableRecord
  2
0
 70
     0
 62
     7
  6
CONTINUOUS
  0
LAYER
  5
18F
330
2
100
AcDbSymbolTableRecord
100
AcDbLayerTableRecord
  2
ZISSEN1
 70
     0
 62
     7
  6
CONTINUOUS
  0
LAYER
  5
529
330
2
100
AcDbSymbolTableRecord
100
AcDbLayerTableRecord
  2
SUNPOU
 70
     0
 62
     1
  6
CONTINUOUS
  0
LAYER
  5
195A
330
2
100
AcDbSymbolTableRecord
100
AcDbLayerTableRecord
  2
CL1
 70
     0
 62
   210
  6
CENTERX2
  0
LAYER
  5
3A9B
330
2
100
AcDbSymbolTableRecord
100
AcDbLayerTableRecord
  2
DEFPOINTS
 70
     0
 62
     7
  6
CONTINUOUS
  0
ENDTAB
  0
TABLE
  2
STYLE
  5
3
330
0
100
AcDbSymbolTable
 70
     5
  0
STYLE
  5
10
330
3
100
AcDbSymbolTableRecord
100
AcDbTextStyleTableRecord
  2
STANDARD
 70
     0
 40
0.0
 41
1.0
 50
0.0
 71
     0
 42
3.0
  3
txt
  4
BigFont
  0
STYLE
  5
1960
330
3
100
AcDbSymbolTableRecord
100
AcDbTextStyleTableRecord
  2
ゴシック体
 70
     0
 40
0.0
 41
1.0
 50
0.0
 71
     0
 42
2.5
  3
MS Gothic.ttf
  4

1001
ACAD
1000
MS Gothic
1071
    32817
  0
ENDTAB
  0
TABLE
  2
VIEW
  5
6
330
0
100
AcDbSymbolTable
 70
     0
  0
ENDTAB
  0
TABLE
  2
UCS
  5
7
330
0
100
AcDbSymbolTable
 70
     0
  0
ENDTAB
  0
TABLE
  2
APPID
  5
9
330
0
100
AcDbSymbolTable
 70
     5
  0
APPID
  5
11
330
9
100
AcDbSymbolTableRecord
100
AcDbRegAppTableRecord
  2
ACAD
 70
     0
  0
APPID
  5
4005
330
9
100
AcDbSymbolTableRecord
100
AcDbRegAppTableRecord
  2
CONTENTTABDATA
 70
     0
  0
APPID
  5
4006
330
9
100
AcDbSymbolTableRecord
100
AcDbRegAppTableRecord
  2
CONTENTCURRENTTAB
 70
     0
  0
APPID
  5
477B
330
9
100
AcDbSymbolTableRecord
100
AcDbRegAppTableRecord
  2
CONTENTBLOCKDESCRIPTION
 70
     0
  0
APPID
  5
477C
330
9
100
AcDbSymbolTableRecord
100
AcDbRegAppTableRecord
  2
CONTENTBLOCKICON
 70
     0
  0
ENDTAB
  0
TABLE
  2
DIMSTYLE
  5
A
330
0
100
AcDbSymbolTable
 70
    12
  0
DIMSTYLE
105
1D
330
A
100
AcDbSymbolTableRecord
100
AcDbDimStyleTableRecord
  2
STANDARD
 70
     0
  3

  4

  5

  6

  7

 40
1.0
 41
0.18
 42
0.0625
 43
0.38
 44
0.18
 45
0.0
 46
0.0
 47
0.0
 48
0.0
140
0.18
141
0.09
142
0.0
143
25.4
144
1.0
145
0.0
146
1.0
147
0.09
 71
     0
 72
     0
 73
     1
 74
     1
 75
     0
 76
     0
 77
     0
 78
     0
170
     0
171
     2
172
     0
173
     0
174
     0
175
     0
176
     0
177
     0
178
     0
270
     2
271
     4
272
     4
273
     2
274
     2
340
10
275
     0
280
     0
281
     0
282
     0
283
     1
284
     0
285
     0
286
     0
287
     3
288
     0
  0
DIMSTYLE
105
52E
102
{ACAD_REACTORS
330
1134A
330
11357
330
11364
330
1137E
330
1138B
330
1139A
330
113A9
330
113D5
330
113E2
330
113F1
330
11407
330
11414
330
11423
330
1143B
102
}
330
A
100
AcDbSymbolTableRecord
100
AcDbDimStyleTableRecord
  2
標準スタイル
 70
     0
  3

  4

  5

  6

  7

 40
0.0
 41
3.0
 42
0.5
 43
0.5
 44
0.5
 45
0.0
 46
0.0
 47
0.0
 48
0.0
140
3.5
141
0.0
142
0.0
143
25.4
144
1.0
145
0.0
146
1.0
147
1.0
 71
     0
 72
     0
 73
     0
 74
     0
 75
     0
 76
     0
 77
     1
 78
     8
170
     0
171
     2
172
     1
173
     0
174
     0
175
     0
176
     1
177
     1
178
     1
270
     2
271
     2
272
     2
273
     2
274
     2
340
1960
275
     0
280
     0
281
     0
282
     0
283
     1
284
     8
285
     0
286
     0
287
     3
288
     0
  0
ENDTAB
  0
TABLE
  2
BLOCK_RECORD
  5
1
330
0
100
AcDbSymbolTable
 70
    37
  0
BLOCK_RECORD
  5
1A
102
{ACAD_XDICTIONARY
360
11486
102
}
330
1
100
AcDbSymbolTableRecord
100
AcDbBlockTableRecord
  2
*MODEL_SPACE
  0
BLOCK_RECORD
  5
5D8E
102
{ACAD_XDICTIONARY
360
11488
102
}
330
1
100
AcDbSymbolTableRecord
100
AcDbBlockTableRecord
  2
*PAPER_SPACE
  0
BLOCK_RECORD
  5
1134B
330
1
100
AcDbSymbolTableRecord
100
AcDbBlockTableRecord
  2
*D23
  0
BLOCK_RECORD
  5
11358
330
1
100
AcDbSymbolTableRecord
100
AcDbBlockTableRecord
  2
*D24
  0
BLOCK_RECORD
  5
11365
330
1
100
AcDbSymbolTableRecord
100
AcDbBlockTableRecord
  2
*D25
  0
BLOCK_RECORD
  5
1137F
330
1
100
AcDbSymbolTableRecord
100
AcDbBlockTableRecord
  2
*D26
  0
BLOCK_RECORD
  5
1138C
330
1
100
AcDbSymbolTableRecord
100
AcDbBlockTableRecord
  2
*D27
  0
BLOCK_RECORD
  5
1139B
330
1
100
AcDbSymbolTableRecord
100
AcDbBlockTableRecord
  2
*D28
  0
BLOCK_RECORD
  5
113AA
330
1
100
AcDbSymbolTableRecord
100
AcDbBlockTableRecord
  2
*D29
  0
BLOCK_RECORD
  5
113D6
330
1
100
AcDbSymbolTableRecord
100
AcDbBlockTableRecord
  2
*D30
  0
BLOCK_RECORD
  5
113E3
330
1
100
AcDbSymbolTableRecord
100
AcDbBlockTableRecord
  2
*D31
  0
BLOCK_RECORD
  5
113F2
330
1
100
AcDbSymbolTableRecord
100
AcDbBlockTableRecord
  2
*D32
  0
BLOCK_RECORD
  5
11408
330
1
100
AcDbSymbolTableRecord
100
AcDbBlockTableRecord
  2
*D33
  0
BLOCK_RECORD
  5
11415
330
1
100
AcDbSymbolTableRecord
100
AcDbBlockTableRecord
  2
*D34
  0
BLOCK_RECORD
  5
11424
330
1
100
AcDbSymbolTableRecord
100
AcDbBlockTableRecord
  2
*D35
  0
BLOCK_RECORD
  5
1143C
330
1
100
AcDbSymbolTableRecord
100
AcDbBlockTableRecord
  2
*D36
  0
ENDTAB
  0
ENDSEC
  0
SECTION
  2
BLOCKS
  0
BLOCK
  5
1B
330
1A
100
AcDbEntity
  8
0
100
AcDbBlockBegin
  2
*MODEL_SPACE
 70
     0
 10
0.0
 20
0.0
 30
0.0
  3
*MODEL_SPACE
  1

  0
ENDBLK
  5
1C
330
1A
100
AcDbEntity
  8
0
100
AcDbBlockEnd
  0
BLOCK
  5
5E60
330
5D8E
100
AcDbEntity
 67
     1
  8
0
100
AcDbBlockBegin
  2
*PAPER_SPACE
 70
     0
 10
0.0
 20
0.0
 30
0.0
  3
*PAPER_SPACE
  1

  0
ENDBLK
  5
5E61
330
5D8E
100
AcDbEntity
 67
     1
  8
0
100
AcDbBlockEnd
  0
BLOCK
  5
11355
330
1134B
100
AcDbEntity
  8
0
100
AcDbBlockBegin
  2
*D23
 70
     1
 10
0.0
 20
0.0
 30
0.0
  3
*D23
  1

  0
LINE
  5
1134C
330
1134B
100
AcDbEntity
  8
SUNPOU
 62
     1
100
AcDbLine
 10
-1518.356059378627
 20
1622.173230920946
 30
0.0
 11
-1528.769368222506
 21
1622.173230920946
 31
0.0
  0
LINE
  5
1134D
330
1134B
100
AcDbEntity
  8
SUNPOU
 62
     1
100
AcDbLine
 10
-1518.356059378627
 20
1539.173230920946
 30
0.0
 11
-1528.769368222506
 21
1539.173230920946
 31
0.0
  0
LINE
  5
1134E
330
1134B
100
AcDbEntity
  8
SUNPOU
 62
     1
100
AcDbLine
 10
-1528.269368222506
 20
1619.173230920946
 30
0.0
 11
-1528.269368222506
 21
1542.173230920946
 31
0.0
  0
SOLID
  5
1134F
330
1134B
100
AcDbEntity
  8
SUNPOU
 62
     1
100
AcDbTrace
 10
-1528.769368222506
 20
1619.173230920946
 30
0.0
 11
-1527.769368222506
 21
1619.173230920946
 31
0.0
 12
-1528.269368222506
 22
1622.173230920946
 32
0.0
 13
-1528.269368222506
 23
1622.173230920946
 33
0.0
  0
SOLID
  5
11350
330
1134B
100
AcDbEntity
  8
SUNPOU
 62
     1
100
AcDbTrace
 10
-1528.769368222506
 20
1542.173230920946
 30
0.0
 11
-1527.769368222506
 21
1542.173230920946
 31
0.0
 12
-1528.269368222506
 22
1539.173230920946
 32
0.0
 13
-1528.269368222506
 23
1539.173230920946
 33
0.0
  0
MTEXT
  5
11351
330
1134B
100
AcDbEntity
  8
SUNPOU
 62
     1
100
AcDbMText
 10
-1531.019368222506
 20
1580.673230920946
 30
0.0
 40
3.5
 41
0.0
 71
     5
 72
     1
  1
\A1;83
  7
ゴシック体
 11
0.0000000000000001
 21
1.0
 31
0.0
1001
ACAD
1000
MTEXTBEGIN
1070
    73
1070
     1
1070
    44
1040
1.0
1070
    74
1070
     0
1000
MTEXTEND
  0
POINT
  5
11352
330
1134B
100
AcDbEntity
  8
DEFPOINTS
 62
     0
100
AcDbPoint
 10
-1517.856059378626
 20
1622.173230920946
 30
0.0
  0
POINT
  5
11353
330
1134B
100
AcDbEntity
  8
DEFPOINTS
 62
     0
100
AcDbPoint
 10
-1517.856059378626
 20
1539.173230920946
 30
0.0
  0
POINT
  5
11354
330
1134B
100
AcDbEntity
  8
DEFPOINTS
 62
     0
100
AcDbPoint
 10
-1528.269368222506
 20
1539.173230920946
 30
0.0
  0
ENDBLK
  5
11356
330
1134B
100
AcDbEntity
  8
0
100
AcDbBlockEnd
  0
BLOCK
  5
11362
330
11358
100
AcDbEntity
  8
0
100
AcDbBlockBegin
  2
*D24
 70
     1
 10
0.0
 20
0.0
 30
0.0
  3
*D24
  1

  0
LINE
  5
11359
330
11358
100
AcDbEntity
  8
SUNPOU
 62
     1
100
AcDbLine
 10
-1452.063179378627
 20
1617.173210920946
 30
0.0
 11
-1442.025930526485
 21
1617.173210920946
 31
0.0
  0
LINE
  5
1135A
330
11358
100
AcDbEntity
  8
SUNPOU
 62
     1
100
AcDbLine
 10
-1452.063179378627
 20
1544.173220920946
 30
0.0
 11
-1442.025930526485
 21
1544.173220920946
 31
0.0
  0
LINE
  5
1135B
330
11358
100
AcDbEntity
  8
SUNPOU
 62
     1
100
AcDbLine
 10
-1442.525930526485
 20
1614.173210920946
 30
0.0
 11
-1442.525930526485
 21
1547.173220920946
 31
0.0
  0
SOLID
  5
1135C
330
11358
100
AcDbEntity
  8
SUNPOU
 62
     1
100
AcDbTrace
 10
-1443.025930526484
 20
1614.173210920946
 30
0.0
 11
-1442.025930526485
 21
1614.173210920946
 31
0.0
 12
-1442.525930526485
 22
1617.173210920946
 32
0.0
 13
-1442.525930526485
 23
1617.173210920946
 33
0.0
  0
SOLID
  5
1135D
330
11358
100
AcDbEntity
  8
SUNPOU
 62
     1
100
AcDbTrace
 10
-1443.025930526484
 20
1547.173220920946
 30
0.0
 11
-1442.025930526485
 21
1547.173220920946
 31
0.0
 12
-1442.525930526485
 22
1544.173220920946
 32
0.0
 13
-1442.525930526485
 23
1544.173220920946
 33
0.0
  0
MTEXT
  5
1135E
330
11358
100
AcDbEntity
  8
SUNPOU
 62
     1
100
AcDbMText
 10
-1445.275930526484
 20
1580.673215920946
 30
0.0
 40
3.5
 41
0.0
 71
     5
 72
     1
  1
\A1;73
  7
ゴシック体
 11
0.0000000000000001
 21
1.0
 31
0.0
1001
ACAD
1000
MTEXTBEGIN
1070
    73
1070
     1
1070
    44
1040
1.0
1070
    74
1070
     0
1000
MTEXTEND
  0
POINT
  5
1135F
330
11358
100
AcDbEntity
  8
DEFPOINTS
 62
     0
100
AcDbPoint
 10
-1452.563179378627
 20
1617.173210920946
 30
0.0
  0
POINT
  5
11360
330
11358
100
AcDbEntity
  8
DEFPOINTS
 62
     0
100
AcDbPoint
 10
-1452.563179378627
 20
1544.173220920946
 30
0.0
  0
POINT
  5
11361
330
11358
100
AcDbEntity
  8
DEFPOINTS
 62
     0
100
AcDbPoint
 10
-1442.525930526485
 20
1544.173220920946
 30
0.0
  0
ENDBLK
  5
11363
330
11358
100
AcDbEntity
  8
0
100
AcDbBlockEnd
  0
BLOCK
  5
11371
330
11365
100
AcDbEntity
  8
0
100
AcDbBlockBegin
  2
*D25
 70
     1
 10
0.0
 20
0.0
 30
0.0
  3
*D25
  1

  0
LINE
  5
11373
330
11365
100
AcDbEntity
  8
SUNPOU
 62
     1
100
AcDbLine
 10
-1407.674179378627
 20
1622.173230920946
 30
0.0
 11
-1416.381766272745
 21
1622.173230920946
 31
0.0
  0
LINE
  5
11374
330
11365
100
AcDbEntity
  8
SUNPOU
 62
     1
100
AcDbLine
 10
-1400.881289378627
 20
1619.173240920946
 30
0.0
 11
-1416.381766272745
 21
1619.173240920946
 31
0.0
  0
LINE
  5
11375
330
11365
100
AcDbEntity
  8
SUNPOU
 62
     1
100
AcDbLine
 10
-1415.881766272745
 20
1616.173240920946
 30
0.0
 11
-1415.881766272745
 21
1613.173240920946
 31
0.0
  0
LINE
  5
11376
330
11365
100
AcDbEntity
  8
SUNPOU
 62
     1
100
AcDbLine
 10
-1415.881766272745
 20
1625.173230920946
 30
0.0
 11
-1415.881766272745
 21
1631.985413662063
 31
0.0
  0
LINE
  5
11377
330
11365
100
AcDbEntity
  8
SUNPOU
 62
     1
100
AcDbLine
 10
-1415.881766272745
 20
1619.173240920946
 30
0.0
 11
-1415.881766272745
 21
1622.173230920946
 31
0.0
  0
SOLID
  5
11378
330
11365
100
AcDbEntity
  8
SUNPOU
 62
     1
100
AcDbTrace
 10
-1416.381766272745
 20
1616.173240920946
 30
0.0
 11
-1415.381766272745
 21
1616.173240920946
 31
0.0
 12
-1415.881766272745
 22
1619.173240920946
 32
0.0
 13
-1415.881766272745
 23
1619.173240920946
 33
0.0
  0
SOLID
  5
11379
330
11365
100
AcDbEntity
  8
SUNPOU
 62
     1
100
AcDbTrace
 10
-1416.381766272745
 20
1625.173230920946
 30
0.0
 11
-1415.381766272745
 21
1625.173230920946
 31
0.0
 12
-1415.881766272745
 22
1622.173230920946
 32
0.0
 13
-1415.881766272745
 23
1622.173230920946
 33
0.0
  0
MTEXT
  5
1137A
330
11365
100
AcDbEntity
  8
SUNPOU
 62
     1
100
AcDbMText
 10
-1418.631766272745
 20
1630.079322291503
 30
0.0
 40
3.5
 41
0.0
 71
     5
 72
     1
  1
\A1;3
  7
ゴシック体
 11
0.0000000000000001
 21
1.0
 31
0.0
1001
ACAD
1000
MTEXTBEGIN
1070
    73
1070
     1
1070
    44
1040
1.0
1070
    74
1070
     0
1000
MTEXTEND
  0
POINT
  5
1137B
330
11365
100
AcDbEntity
  8
DEFPOINTS
 62
     0
100
AcDbPoint
 10
-1407.174179378627
 20
1622.173230920946
 30
0.0
  0
POINT
  5
1137C
330
11365
100
AcDbEntity
  8
DEFPOINTS
 62
     0
100
AcDbPoint
 10
-1400.381289378627
 20
1619.173240920946
 30
0.0
  0
POINT
  5
1137D
330
11365
100
AcDbEntity
  8
DEFPOINTS
 62
     0
100
AcDbPoint
 10
-1415.881766272745
 20
1619.173240920946
 30
0.0
  0
ENDBLK
  5
11372
330
11365
100
AcDbEntity
  8
0
100
AcDbBlockEnd
  0
BLOCK
  5
11389
330
1137F
100
AcDbEntity
  8
0
100
AcDbBlockBegin
  2
*D26
 70
     1
 10
0.0
 20
0.0
 30
0.0
  3
*D26
  1

  0
LINE
  5
11380
330
1137F
100
AcDbEntity
  8
SUNPOU
 62
     1
100
AcDbLine
 10
-1401.381289378627
 20
1619.173240920946
 30
0.0
 11
-1416.381766272745
 21
1619.173240920946
 31
0.0
  0
LINE
  5
11381
330
1137F
100
AcDbEntity
  8
SUNPOU
 62
     1
100
AcDbLine
 10
-1400.881289378627
 20
1542.173210920946
 30
0.0
 11
-1416.381766272745
 21
1542.173210920946
 31
0.0
  0
LINE
  5
11382
330
1137F
100
AcDbEntity
  8
SUNPOU
 62
     1
100
AcDbLine
 10
-1415.881766272745
 20
1616.173240920946
 30
0.0
 11
-1415.881766272745
 21
1545.173210920946
 31
0.0
  0
SOLID
  5
11383
330
1137F
100
AcDbEntity
  8
SUNPOU
 62
     1
100
AcDbTrace
 10
-1416.381766272745
 20
1616.173240920946
 30
0.0
 11
-1415.381766272745
 21
1616.173240920946
 31
0.0
 12
-1415.881766272745
 22
1619.173240920946
 32
0.0
 13
-1415.881766272745
 23
1619.173240920946
 33
0.0
  0
SOLID
  5
11384
330
1137F
100
AcDbEntity
  8
SUNPOU
 62
     1
100
AcDbTrace
 10
-1416.381766272745
 20
1545.173210920946
 30
0.0
 11
-1415.381766272745
 21
1545.173210920946
 31
0.0
 12
-1415.881766272745
 22
1542.173210920946
 32
0.0
 13
-1415.881766272745
 23
1542.173210920946
 33
0.0
  0
MTEXT
  5
11385
330
1137F
100
AcDbEntity
  8
SUNPOU
 62
     1
100
AcDbMText
 10
-1418.631766272745
 20
1580.673225920946
 30
0.0
 40
3.5
 41
0.0
 71
     5
 72
     1
  1
\A1;77
  7
ゴシック体
 11
0.0000000000000001
 21
1.0
 31
0.0
1001
ACAD
1000
MTEXTBEGIN
1070
    73
1070
     1
1070
    44
1040
1.0
1070
    74
1070
     0
1000
MTEXTEND
  0
POINT
  5
11386
330
1137F
100
AcDbEntity
  8
DEFPOINTS
 62
     0
100
AcDbPoint
 10
-1400.881289378627
 20
1619.173240920946
 30
0.0
  0
POINT
  5
11387
330
1137F
100
AcDbEntity
  8
DEFPOINTS
 62
     0
100
AcDbPoint
 10
-1400.381289378627
 20
1542.173210920946
 30
0.0
  0
POINT
  5
11388
330
1137F
100
AcDbEntity
  8
DEFPOINTS
 62
     0
100
AcDbPoint
 10
-1415.881766272745
 20
1542.173210920946
 30
0.0
  0
ENDBLK
  5
1138A
330
1137F
100
AcDbEntity
  8
0
100
AcDbBlockEnd
  0
BLOCK
  5
11398
330
1138C
100
AcDbEntity
  8
0
100
AcDbBlockBegin
  2
*D27
 70
     1
 10
0.0
 20
0.0
 30
0.0
  3
*D27
  1

  0
LINE
  5
1138D
330
1138C
100
AcDbEntity
  8
SUNPOU
 62
     1
100
AcDbLine
 10
-1401.381289378627
 20
1542.173210920946
 30
0.0
 11
-1416.381766272745
 21
1542.173210920946
 31
0.0
  0
LINE
  5
1138E
330
1138C
100
AcDbEntity
  8
SUNPOU
 62
     1
100
AcDbLine
 10
-1407.674179378627
 20
1539.173230920946
 30
0.0
 11
-1416.381766272745
 21
1539.173230920946
 31
0.0
  0
LINE
  5
1138F
330
1138C
100
AcDbEntity
  8
SUNPOU
 62
     1
100
AcDbLine
 10
-1415.881766272745
 20
1545.173210920946
 30
0.0
 11
-1415.881766272745
 21
1548.173210920946
 31
0.0
  0
LINE
  5
11390
330
1138C
100
AcDbEntity
  8
SUNPOU
 62
     1
100
AcDbLine
 10
-1415.881766272745
 20
1536.173230920946
 30
0.0
 11
-1415.881766272745
 21
1529.361048179829
 31
0.0
  0
LINE
  5
11391
330
1138C
100
AcDbEntity
  8
SUNPOU
 62
     1
100
AcDbLine
 10
-1415.881766272745
 20
1542.173210920946
 30
0.0
 11
-1415.881766272745
 21
1539.173230920946
 31
0.0
  0
SOLID
  5
11392
330
1138C
100
AcDbEntity
  8
SUNPOU
 62
     1
100
AcDbTrace
 10
-1416.381766272745
 20
1545.173210920946
 30
0.0
 11
-1415.381766272745
 21
1545.173210920946
 31
0.0
 12
-1415.881766272745
 22
1542.173210920946
 32
0.0
 13
-1415.881766272745
 23
1542.173210920946
 33
0.0
  0
SOLID
  5
11393
330
1138C
100
AcDbEntity
  8
SUNPOU
 62
     1
100
AcDbTrace
 10
-1416.381766272745
 20
1536.173230920946
 30
0.0
 11
-1415.381766272745
 21
1536.173230920946
 31
0.0
 12
-1415.881766272745
 22
1539.173230920946
 32
0.0
 13
-1415.881766272745
 23
1539.173230920946
 33
0.0
  0
MTEXT
  5
11394
330
1138C
100
AcDbEntity
  8
SUNPOU
 62
     1
100
AcDbMText
 10
-1418.631766272745
 20
1531.267139550386
 30
0.0
 40
3.5
 41
0.0
 71
     5
 72
     1
  1
\A1;3
  7
ゴシック体
 11
0.0000000000000001
 21
1.0
 31
0.0
1001
ACAD
1000
MTEXTBEGIN
1070
    73
1070
     1
1070
    44
1040
1.0
1070
    74
1070
     0
1000
MTEXTEND
  0
POINT
  5
11395
330
1138C
100
AcDbEntity
  8
DEFPOINTS
 62
     0
100
AcDbPoint
 10
-1400.881289378627
 20
1542.173210920946
 30
0.0
  0
POINT
  5
11396
330
1138C
100
AcDbEntity
  8
DEFPOINTS
 62
     0
100
AcDbPoint
 10
-1407.174179378627
 20
1539.173230920946
 30
0.0
  0
POINT
  5
11397
330
1138C
100
AcDbEntity
  8
DEFPOINTS
 62
     0
100
AcDbPoint
 10
-1415.881766272745
 20
1539.173230920946
 30
0.0
  0
ENDBLK
  5
11399
330
1138C
100
AcDbEntity
  8
0
100
AcDbBlockEnd
  0
BLOCK
  5
113A7
330
1139B
100
AcDbEntity
  8
0
100
AcDbBlockBegin
  2
*D28
 70
     1
 10
0.0
 20
0.0
 30
0.0
  3
*D28
  1

  0
LINE
  5
1139C
330
1139B
100
AcDbEntity
  8
SUNPOU
 62
     1
100
AcDbLine
 10
-1399.131269378627
 20
1621.966120920945
 30
0.0
 11
-1399.131269378627
 21
1629.44806415165
 31
0.0
  0
LINE
  5
1139D
330
1139B
100
AcDbEntity
  8
SUNPOU
 62
     1
100
AcDbLine
 10
-1395.631279378626
 20
1621.966120920945
 30
0.0
 11
-1395.631279378626
 21
1629.44806415165
 31
0.0
  0
LINE
  5
1139E
330
1139B
100
AcDbEntity
  8
SUNPOU
 62
     1
100
AcDbLine
 10
-1402.131269378626
 20
1628.94806415165
 30
0.0
 11
-1405.131269378627
 21
1628.94806415165
 31
0.0
  0
LINE
  5
1139F
330
1139B
100
AcDbEntity
  8
SUNPOU
 62
     1
100
AcDbLine
 10
-1392.631279378627
 20
1628.94806415165
 30
0.0
 11
-1381.270873287256
 21
1628.94806415165
 31
0.0
  0
LINE
  5
113A0
330
1139B
100
AcDbEntity
  8
SUNPOU
 62
     1
100
AcDbLine
 10
-1399.131269378627
 20
1628.94806415165
 30
0.0
 11
-1395.631279378626
 21
1628.94806415165
 31
0.0
  0
SOLID
  5
113A1
330
1139B
100
AcDbEntity
  8
SUNPOU
 62
     1
100
AcDbTrace
 10
-1402.131269378626
 20
1629.44806415165
 30
0.0
 11
-1402.131269378626
 21
1628.448064151649
 31
0.0
 12
-1399.131269378627
 22
1628.94806415165
 32
0.0
 13
-1399.131269378627
 23
1628.94806415165
 33
0.0
  0
SOLID
  5
113A2
330
1139B
100
AcDbEntity
  8
SUNPOU
 62
     1
100
AcDbTrace
 10
-1392.631279378627
 20
1629.44806415165
 30
0.0
 11
-1392.631279378627
 21
1628.448064151649
 31
0.0
 12
-1395.631279378626
 22
1628.94806415165
 32
0.0
 13
-1395.631279378626
 23
1628.94806415165
 33
0.0
  0
MTEXT
  5
113A3
330
1139B
100
AcDbEntity
  8
SUNPOU
 62
     1
100
AcDbMText
 10
-1385.451076332942
 20
1631.69806415165
 30
0.0
 40
3.5
 41
0.0
 71
     5
 72
     1
  1
\A1;3.5
  7
ゴシック体
1001
ACAD
1000
MTEXTBEGIN
1070
    73
1070
     1
1070
    44
1040
1.0
1070
    74
1070
     0
1000
MTEXTEND
  0
POINT
  5
113A4
330
1139B
100
AcDbEntity
  8
DEFPOINTS
 62
     0
100
AcDbPoint
 10
-1399.131269378627
 20
1621.466120920945
 30
0.0
  0
POINT
  5
113A5
330
1139B
100
AcDbEntity
  8
DEFPOINTS
 62
     0
100
AcDbPoint
 10
-1395.631279378626
 20
1621.466120920945
 30
0.0
  0
POINT
  5
113A6
330
1139B
100
AcDbEntity
  8
DEFPOINTS
 62
     0
100
AcDbPoint
 10
-1395.631279378626
 20
1628.94806415165
 30
0.0
  0
ENDBLK
  5
113A8
330
1139B
100
AcDbEntity
  8
0
100
AcDbBlockEnd
  0
BLOCK
  5
113B4
330
113AA
100
AcDbEntity
  8
0
100
AcDbBlockBegin
  2
*D29
 70
     1
 10
0.0
 20
0.0
 30
0.0
  3
*D29
  1

  0
LINE
  5
113CA
330
113AA
100
AcDbEntity
  8
SUNPOU
 62
     1
100
AcDbLine
 10
-1397.381279378627
 20
1539.673200920946
 30
0.0
 11
-1397.381279378627
 21
1530.275801544338
 31
0.0
  0
LINE
  5
113CB
330
113AA
100
AcDbEntity
  8
SUNPOU
 62
     1
100
AcDbLine
 10
-1383.881279378627
 20
1543.673220920946
 30
0.0
 11
-1383.881279378627
 21
1530.275801544338
 31
0.0
  0
LINE
  5
113CC
330
113AA
100
AcDbEntity
  8
SUNPOU
 62
     1
100
AcDbLine
 10
-1400.381279378627
 20
1530.775801544339
 30
0.0
 11
-1403.381279378627
 21
1530.775801544339
 31
0.0
  0
LINE
  5
113CD
330
113AA
100
AcDbEntity
  8
SUNPOU
 62
     1
100
AcDbLine
 10
-1380.881279378627
 20
1530.775801544339
 30
0.0
 11
-1377.881279378627
 21
1530.775801544339
 31
0.0
  0
LINE
  5
113CE
330
113AA
100
AcDbEntity
  8
SUNPOU
 62
     1
100
AcDbLine
 10
-1397.381279378627
 20
1530.775801544339
 30
0.0
 11
-1383.881279378627
 21
1530.775801544339
 31
0.0
  0
SOLID
  5
113CF
330
113AA
100
AcDbEntity
  8
SUNPOU
 62
     1
100
AcDbTrace
 10
-1400.381279378627
 20
1531.275801544339
 30
0.0
 11
-1400.381279378627
 21
1530.275801544338
 31
0.0
 12
-1397.381279378627
 22
1530.775801544339
 32
0.0
 13
-1397.381279378627
 23
1530.775801544339
 33
0.0
  0
SOLID
  5
113D0
330
113AA
100
AcDbEntity
  8
SUNPOU
 62
     1
100
AcDbTrace
 10
-1380.881279378627
 20
1531.275801544339
 30
0.0
 11
-1380.881279378627
 21
1530.275801544338
 31
0.0
 12
-1383.881279378627
 22
1530.775801544339
 32
0.0
 13
-1383.881279378627
 23
1530.775801544339
 33
0.0
  0
MTEXT
  5
113D1
330
113AA
100
AcDbEntity
  8
SUNPOU
 62
     1
100
AcDbMText
 10
-1390.545343953268
 20
1533.525801544339
 30
0.0
 40
3.5
 41
0.0
 71
     5
 72
     1
  1
\A1;13.5
  7
ゴシック体
1001
ACAD
1000
MTEXTBEGIN
1070
    73
1070
     1
1070
    44
1040
1.0
1070
    74
1070
     0
1000
MTEXTEND
  0
POINT
  5
113D2
330
113AA
100
AcDbEntity
  8
DEFPOINTS
 62
     0
100
AcDbPoint
 10
-1397.381279378627
 20
1540.173200920946
 30
0.0
  0
POINT
  5
113D3
330
113AA
100
AcDbEntity
  8
DEFPOINTS
 62
     0
100
AcDbPoint
 10
-1383.881279378627
 20
1544.173220920946
 30
0.0
  0
POINT
  5
113D4
330
113AA
100
AcDbEntity
  8
DEFPOINTS
 62
     0
100
AcDbPoint
 10
-1383.881279378627
 20
1530.775801544339
 30
0.0
  0
ENDBLK
  5
113B5
330
113AA
100
AcDbEntity
  8
0
100
AcDbBlockEnd
  0
BLOCK
  5
113E0
330
113D6
100
AcDbEntity
  8
0
100
AcDbBlockBegin
  2
*D30
 70
     1
 10
0.0
 20
0.0
 30
0.0
  3
*D30
  1

  0
LINE
  5
113D7
330
113D6
100
AcDbEntity
  8
SUNPOU
 62
     1
100
AcDbLine
 10
-1407.881289378627
 20
1539.380330920946
 30
0.0
 11
-1407.881289378627
 21
1522.055630906621
 31
0.0
  0
LINE
  5
113D8
330
113D6
100
AcDbEntity
  8
SUNPOU
 62
     1
100
AcDbLine
 10
-1383.881279378627
 20
1543.673220920946
 30
0.0
 11
-1383.881279378627
 21
1522.055630906621
 31
0.0
  0
LINE
  5
113D9
330
113D6
100
AcDbEntity
  8
SUNPOU
 62
     1
100
AcDbLine
 10
-1404.881289378627
 20
1522.555630906621
 30
0.0
 11
-1386.881279378626
 21
1522.555630906621
 31
0.0
  0
SOLID
  5
113DA
330
113D6
100
AcDbEntity
  8
SUNPOU
 62
     1
100
AcDbTrace
 10
-1404.881289378627
 20
1523.055630906621
 30
0.0
 11
-1404.881289378627
 21
1522.055630906621
 31
0.0
 12
-1407.881289378627
 22
1522.555630906621
 32
0.0
 13
-1407.881289378627
 23
1522.555630906621
 33
0.0
  0
SOLID
  5
113DB
330
113D6
100
AcDbEntity
  8
SUNPOU
 62
     1
100
AcDbTrace
 10
-1386.881279378626
 20
1523.055630906621
 30
0.0
 11
-1386.881279378626
 21
1522.055630906621
 31
0.0
 12
-1383.881279378627
 22
1522.555630906621
 32
0.0
 13
-1383.881279378627
 23
1522.555630906621
 33
0.0
  0
MTEXT
  5
113DC
330
113D6
100
AcDbEntity
  8
SUNPOU
 62
     1
100
AcDbMText
 10
-1395.881284378627
 20
1525.305630906621
 30
0.0
 40
3.5
 41
0.0
 71
     5
 72
     1
  1
\A1;24
  7
ゴシック体
1001
ACAD
1000
MTEXTBEGIN
1070
    73
1070
     1
1070
    44
1040
1.0
1070
    74
1070
     0
1000
MTEXTEND
  0
POINT
  5
113DD
330
113D6
100
AcDbEntity
  8
DEFPOINTS
 62
     0
100
AcDbPoint
 10
-1407.881289378627
 20
1539.880330920946
 30
0.0
  0
POINT
  5
113DE
330
113D6
100
AcDbEntity
  8
DEFPOINTS
 62
     0
100
AcDbPoint
 10
-1383.881279378627
 20
1544.173220920946
 30
0.0
  0
POINT
  5
113DF
330
113D6
100
AcDbEntity
  8
DEFPOINTS
 62
     0
100
AcDbPoint
 10
-1383.881279378627
 20
1522.555630906621
 30
0.0
  0
ENDBLK
  5
113E1
330
113D6
100
AcDbEntity
  8
0
100
AcDbBlockEnd
  0
BLOCK
  5
113EF
330
113E3
100
AcDbEntity
  8
0
100
AcDbBlockBegin
  2
*D31
 70
     1
 10
0.0
 20
0.0
 30
0.0
  3
*D31
  1

  0
LINE
  5
113E4
330
113E3
100
AcDbEntity
  8
SUNPOU
 62
     1
100
AcDbLine
 10
-1517.856059378626
 20
1519.275280920946
 30
0.0
 11
-1517.856059378626
 21
1526.194189144513
 31
0.0
  0
LINE
  5
113E5
330
113E3
100
AcDbEntity
  8
SUNPOU
 62
     1
100
AcDbLine
 10
-1514.856069378627
 20
1519.275280920946
 30
0.0
 11
-1514.856069378627
 21
1526.194189144513
 31
0.0
  0
LINE
  5
113E6
330
113E3
100
AcDbEntity
  8
SUNPOU
 62
     1
100
AcDbLine
 10
-1520.856059378627
 20
1525.694189144513
 30
0.0
 11
-1523.856059378626
 21
1525.694189144513
 31
0.0
  0
LINE
  5
113E7
330
113E3
100
AcDbEntity
  8
SUNPOU
 62
     1
100
AcDbLine
 10
-1511.856069378627
 20
1525.694189144513
 30
0.0
 11
-1505.04388663751
 21
1525.694189144513
 31
0.0
  0
LINE
  5
113E8
330
113E3
100
AcDbEntity
  8
SUNPOU
 62
     1
100
AcDbLine
 10
-1517.856059378626
 20
1525.694189144513
 30
0.0
 11
-1514.856069378627
 21
1525.694189144513
 31
0.0
  0
SOLID
  5
113E9
330
113E3
100
AcDbEntity
  8
SUNPOU
 62
     1
100
AcDbTrace
 10
-1520.856059378627
 20
1526.194189144513
 30
0.0
 11
-1520.856059378627
 21
1525.194189144514
 31
0.0
 12
-1517.856059378626
 22
1525.694189144513
 32
0.0
 13
-1517.856059378626
 23
1525.694189144513
 33
0.0
  0
SOLID
  5
113EA
330
113E3
100
AcDbEntity
  8
SUNPOU
 62
     1
100
AcDbTrace
 10
-1511.856069378627
 20
1526.194189144513
 30
0.0
 11
-1511.856069378627
 21
1525.194189144514
 31
0.0
 12
-1514.856069378627
 22
1525.694189144513
 32
0.0
 13
-1514.856069378627
 23
1525.694189144513
 33
0.0
  0
MTEXT
  5
113EB
330
113E3
100
AcDbEntity
  8
SUNPOU
 62
     1
100
AcDbMText
 10
-1506.949978008069
 20
1528.444189144513
 30
0.0
 40
3.5
 41
0.0
 71
     5
 72
     1
  1
\A1;3
  7
ゴシック体
1001
ACAD
1000
MTEXTBEGIN
1070
    73
1070
     1
1070
    44
1040
1.0
1070
    74
1070
     0
1000
MTEXTEND
  0
POINT
  5
113EC
330
113E3
100
AcDbEntity
  8
DEFPOINTS
 62
     0
100
AcDbPoint
 10
-1517.856059378626
 20
1518.775280920946
 30
0.0
  0
POINT
  5
113ED
330
113E3
100
AcDbEntity
  8
DEFPOINTS
 62
     0
100
AcDbPoint
 10
-1514.856069378627
 20
1518.775280920946
 30
0.0
  0
POINT
  5
113EE
330
113E3
100
AcDbEntity
  8
DEFPOINTS
 62
     0
100
AcDbPoint
 10
-1514.856069378627
 20
1525.694189144513
 30
0.0
  0
ENDBLK
  5
113F0
330
113E3
100
AcDbEntity
  8
0
100
AcDbBlockEnd
  0
BLOCK
  5
113FC
330
113F2
100
AcDbEntity
  8
0
100
AcDbBlockBegin
  2
*D32
 70
     1
 10
0.0
 20
0.0
 30
0.0
  3
*D32
  1

  0
LINE
  5
113FE
330
113F2
100
AcDbEntity
  8
SUNPOU
 62
     1
100
AcDbLine
 10
-1518.356059378627
 20
1518.775280920946
 30
0.0
 11
-1528.695732933161
 21
1518.775280920946
 31
0.0
  0
LINE
  5
113FF
330
113F2
100
AcDbEntity
  8
SUNPOU
 62
     1
100
AcDbLine
 10
-1517.648949378627
 20
1494.775270920946
 30
0.0
 11
-1528.695732933161
 21
1494.775270920946
 31
0.0
  0
LINE
  5
11400
330
113F2
100
AcDbEntity
  8
SUNPOU
 62
     1
100
AcDbLine
 10
-1528.195732933161
 20
1515.775280920946
 30
0.0
 11
-1528.195732933161
 21
1497.775270920945
 31
0.0
  0
SOLID
  5
11401
330
113F2
100
AcDbEntity
  8
SUNPOU
 62
     1
100
AcDbTrace
 10
-1528.695732933161
 20
1515.775280920946
 30
0.0
 11
-1527.695732933161
 21
1515.775280920946
 31
0.0
 12
-1528.195732933161
 22
1518.775280920946
 32
0.0
 13
-1528.195732933161
 23
1518.775280920946
 33
0.0
  0
SOLID
  5
11402
330
113F2
100
AcDbEntity
  8
SUNPOU
 62
     1
100
AcDbTrace
 10
-1528.695732933161
 20
1497.775270920945
 30
0.0
 11
-1527.695732933161
 21
1497.775270920945
 31
0.0
 12
-1528.195732933161
 22
1494.775270920946
 32
0.0
 13
-1528.195732933161
 23
1494.775270920946
 33
0.0
  0
MTEXT
  5
11403
330
113F2
100
AcDbEntity
  8
SUNPOU
 62
     1
100
AcDbMText
 10
-1530.945732933162
 20
1506.775275920946
 30
0.0
 40
3.5
 41
0.0
 71
     5
 72
     1
  1
\A1;24
  7
ゴシック体
 11
0.0000000000000001
 21
1.0
 31
0.0
1001
ACAD
1000
MTEXTBEGIN
1070
    73
1070
     1
1070
    44
1040
1.0
1070
    74
1070
     0
1000
MTEXTEND
  0
POINT
  5
11404
330
113F2
100
AcDbEntity
  8
DEFPOINTS
 62
     0
100
AcDbPoint
 10
-1517.856059378626
 20
1518.775280920946
 30
0.0
  0
POINT
  5
11405
330
113F2
100
AcDbEntity
  8
DEFPOINTS
 62
     0
100
AcDbPoint
 10
-1517.148949378627
 20
1494.775270920946
 30
0.0
  0
POINT
  5
11406
330
113F2
100
AcDbEntity
  8
DEFPOINTS
 62
     0
100
AcDbPoint
 10
-1528.195732933161
 20
1494.775270920946
 30
0.0
  0
ENDBLK
  5
113FD
330
113F2
100
AcDbEntity
  8
0
100
AcDbBlockEnd
  0
BLOCK
  5
11412
330
11408
100
AcDbEntity
  8
0
100
AcDbBlockBegin
  2
*D33
 70
     1
 10
0.0
 20
0.0
 30
0.0
  3
*D33
  1

  0
LINE
  5
11409
330
11408
100
AcDbEntity
  8
SUNPOU
 62
     1
100
AcDbLine
 10
-1517.856059378626
 20
1494.982380920946
 30
0.0
 11
-1517.856059378626
 21
1484.903771191296
 31
0.0
  0
LINE
  5
1140A
330
11408
100
AcDbEntity
  8
SUNPOU
 62
     1
100
AcDbLine
 10
-1451.856069378627
 20
1494.275270920946
 30
0.0
 11
-1451.856069378627
 21
1484.903771191296
 31
0.0
  0
LINE
  5
1140B
330
11408
100
AcDbEntity
  8
SUNPOU
 62
     1
100
AcDbLine
 10
-1514.856059378627
 20
1485.403771191296
 30
0.0
 11
-1454.856069378627
 21
1485.403771191296
 31
0.0
  0
SOLID
  5
1140C
330
11408
100
AcDbEntity
  8
SUNPOU
 62
     1
100
AcDbTrace
 10
-1514.856059378627
 20
1485.903771191296
 30
0.0
 11
-1514.856059378627
 21
1484.903771191296
 31
0.0
 12
-1517.856059378626
 22
1485.403771191296
 32
0.0
 13
-1517.856059378626
 23
1485.403771191296
 33
0.0
  0
SOLID
  5
1140D
330
11408
100
AcDbEntity
  8
SUNPOU
 62
     1
100
AcDbTrace
 10
-1454.856069378627
 20
1485.903771191296
 30
0.0
 11
-1454.856069378627
 21
1484.903771191296
 31
0.0
 12
-1451.856069378627
 22
1485.403771191296
 32
0.0
 13
-1451.856069378627
 23
1485.403771191296
 33
0.0
  0
MTEXT
  5
1140E
330
11408
100
AcDbEntity
  8
SUNPOU
 62
     1
100
AcDbMText
 10
-1484.856064378627
 20
1488.153771191296
 30
0.0
 40
3.5
 41
0.0
 71
     5
 72
     1
  1
\A1;66
  7
ゴシック体
1001
ACAD
1000
MTEXTBEGIN
1070
    73
1070
     1
1070
    44
1040
1.0
1070
    74
1070
     0
1000
MTEXTEND
  0
POINT
  5
1140F
330
11408
100
AcDbEntity
  8
DEFPOINTS
 62
     0
100
AcDbPoint
 10
-1517.856059378626
 20
1495.482380920946
 30
0.0
  0
POINT
  5
11410
330
11408
100
AcDbEntity
  8
DEFPOINTS
 62
     0
100
AcDbPoint
 10
-1451.856069378627
 20
1494.775270920946
 30
0.0
  0
POINT
  5
11411
330
11408
100
AcDbEntity
  8
DEFPOINTS
 62
     0
100
AcDbPoint
 10
-1451.856069378627
 20
1485.403771191296
 30
0.0
  0
ENDBLK
  5
11413
330
11408
100
AcDbEntity
  8
0
100
AcDbBlockEnd
  0
BLOCK
  5
11421
330
11415
100
AcDbEntity
  8
0
100
AcDbBlockBegin
  2
*D34
 70
     1
 10
0.0
 20
0.0
 30
0.0
  3
*D34
  1

  0
LINE
  5
11430
330
11415
100
AcDbEntity
  8
SUNPOU
 62
     1
100
AcDbLine
 10
-1451.356069378627
 20
1497.775280920946
 30
0.0
 11
-1441.525930526484
 21
1497.775280920946
 31
0.0
  0
LINE
  5
11431
330
11415
100
AcDbEntity
  8
SUNPOU
 62
     1
100
AcDbLine
 10
-1451.356069378627
 20
1494.775270920946
 30
0.0
 11
-1441.525930526484
 21
1494.775270920946
 31
0.0
  0
LINE
  5
11432
330
11415
100
AcDbEntity
  8
SUNPOU
 62
     1
100
AcDbLine
 10
-1442.025930526485
 20
1500.775280920946
 30
0.0
 11
-1442.025930526485
 21
1503.775280920946
 31
0.0
  0
LINE
  5
11433
330
11415
100
AcDbEntity
  8
SUNPOU
 62
     1
100
AcDbLine
 10
-1442.025930526485
 20
1491.775270920946
 30
0.0
 11
-1442.025930526485
 21
1484.963088179829
 31
0.0
  0
LINE
  5
11434
330
11415
100
AcDbEntity
  8
SUNPOU
 62
     1
100
AcDbLine
 10
-1442.025930526485
 20
1497.775280920946
 30
0.0
 11
-1442.025930526485
 21
1494.775270920946
 31
0.0
  0
SOLID
  5
11435
330
11415
100
AcDbEntity
  8
SUNPOU
 62
     1
100
AcDbTrace
 10
-1442.525930526485
 20
1500.775280920946
 30
0.0
 11
-1441.525930526484
 21
1500.775280920946
 31
0.0
 12
-1442.025930526485
 22
1497.775280920946
 32
0.0
 13
-1442.025930526485
 23
1497.775280920946
 33
0.0
  0
SOLID
  5
11436
330
11415
100
AcDbEntity
  8
SUNPOU
 62
     1
100
AcDbTrace
 10
-1442.525930526485
 20
1491.775270920946
 30
0.0
 11
-1441.525930526484
 21
1491.775270920946
 31
0.0
 12
-1442.025930526485
 22
1494.775270920946
 32
0.0
 13
-1442.025930526485
 23
1494.775270920946
 33
0.0
  0
MTEXT
  5
11437
330
11415
100
AcDbEntity
  8
SUNPOU
 62
     1
100
AcDbMText
 10
-1444.775930526486
 20
1486.869179550386
 30
0.0
 40
3.5
 41
0.0
 71
     5
 72
     1
  1
\A1;3
  7
ゴシック体
 11
0.0000000000000001
 21
1.0
 31
0.0
1001
ACAD
1000
MTEXTBEGIN
1070
    73
1070
     1
1070
    44
1040
1.0
1070
    74
1070
     0
1000
MTEXTEND
  0
POINT
  5
11438
330
11415
100
AcDbEntity
  8
DEFPOINTS
 62
     0
100
AcDbPoint
 10
-1451.856069378627
 20
1497.775280920946
 30
0.0
  0
POINT
  5
11439
330
11415
100
AcDbEntity
  8
DEFPOINTS
 62
     0
100
AcDbPoint
 10
-1451.856069378627
 20
1494.775270920946
 30
0.0
  0
POINT
  5
1143A
330
11415
100
AcDbEntity
  8
DEFPOINTS
 62
     0
100
AcDbPoint
 10
-1442.025930526485
 20
1494.775270920946
 30
0.0
  0
ENDBLK
  5
11422
330
11415
100
AcDbEntity
  8
0
100
AcDbBlockEnd
  0
BLOCK
  5
1142E
330
11424
100
AcDbEntity
  8
0
100
AcDbBlockBegin
  2
*D35
 70
     1
 10
0.0
 20
0.0
 30
0.0
  3
*D35
  1

  0
LINE
  5
11425
330
11424
100
AcDbEntity
  8
SUNPOU
 62
     1
100
AcDbLine
 10
-1451.356069378627
 20
1494.775270920946
 30
0.0
 11
-1432.126152888369
 21
1494.775270920946
 31
0.0
  0
LINE
  5
11426
330
11424
100
AcDbEntity
  8
SUNPOU
 62
     1
100
AcDbLine
 10
-1463.156049378627
 20
1513.875270920946
 30
0.0
 11
-1432.126152888369
 21
1513.875270920946
 31
0.0
  0
LINE
  5
11427
330
11424
100
AcDbEntity
  8
SUNPOU
 62
     1
100
AcDbLine
 10
-1432.626152888369
 20
1497.775270920945
 30
0.0
 11
-1432.626152888369
 21
1510.875270920946
 31
0.0
  0
SOLID
  5
11428
330
11424
100
AcDbEntity
  8
SUNPOU
 62
     1
100
AcDbTrace
 10
-1433.126152888369
 20
1497.775270920945
 30
0.0
 11
-1432.126152888369
 21
1497.775270920945
 31
0.0
 12
-1432.626152888369
 22
1494.775270920946
 32
0.0
 13
-1432.626152888369
 23
1494.775270920946
 33
0.0
  0
SOLID
  5
11429
330
11424
100
AcDbEntity
  8
SUNPOU
 62
     1
100
AcDbTrace
 10
-1433.126152888369
 20
1510.875270920946
 30
0.0
 11
-1432.126152888369
 21
1510.875270920946
 31
0.0
 12
-1432.626152888369
 22
1513.875270920946
 32
0.0
 13
-1432.626152888369
 23
1513.875270920946
 33
0.0
  0
MTEXT
  5
1142A
330
11424
100
AcDbEntity
  8
SUNPOU
 62
     1
100
AcDbMText
 10
-1435.37615288837
 20
1504.325270920945
 30
0.0
 40
3.5
 41
0.0
 71
     5
 72
     1
  1
\A1;19.1
  7
ゴシック体
 11
0.0000000000000001
 21
1.0
 31
0.0
1001
ACAD
1000
MTEXTBEGIN
1070
    73
1070
     1
1070
    44
1040
1.0
1070
    74
1070
     0
1000
MTEXTEND
  0
POINT
  5
1142B
330
11424
100
AcDbEntity
  8
DEFPOINTS
 62
     0
100
AcDbPoint
 10
-1451.856069378627
 20
1494.775270920946
 30
0.0
  0
POINT
  5
1142C
330
11424
100
AcDbEntity
  8
DEFPOINTS
 62
     0
100
AcDbPoint
 10
-1463.656049378626
 20
1513.875270920946
 30
0.0
  0
POINT
  5
1142D
330
11424
100
AcDbEntity
  8
DEFPOINTS
 62
     0
100
AcDbPoint
 10
-1432.626152888369
 20
1513.875270920946
 30
0.0
  0
ENDBLK
  5
1142F
330
11424
100
AcDbEntity
  8
0
100
AcDbBlockEnd
  0
BLOCK
  5
11446
330
1143C
100
AcDbEntity
  8
0
100
AcDbBlockBegin
  2
*D36
 70
     1
 10
0.0
 20
0.0
 30
0.0
  3
*D36
  1

  0
LINE
  5
1143D
330
1143C
100
AcDbEntity
  8
SUNPOU
 62
     1
100
AcDbLine
 10
-1451.356069378627
 20
1518.875270920946
 30
0.0
 11
-1422.817578204601
 21
1518.875270920946
 31
0.0
  0
LINE
  5
1143E
330
1143C
100
AcDbEntity
  8
SUNPOU
 62
     1
100
AcDbLine
 10
-1450.856069378627
 20
1494.775270920946
 30
0.0
 11
-1422.817578204601
 21
1494.775270920946
 31
0.0
  0
LINE
  5
1143F
330
1143C
100
AcDbEntity
  8
SUNPOU
 62
     1
100
AcDbLine
 10
-1423.317578204601
 20
1515.875270920946
 30
0.0
 11
-1423.317578204601
 21
1497.775270920945
 31
0.0
  0
SOLID
  5
11440
330
1143C
100
AcDbEntity
  8
SUNPOU
 62
     1
100
AcDbTrace
 10
-1423.817578204602
 20
1515.875270920946
 30
0.0
 11
-1422.817578204601
 21
1515.875270920946
 31
0.0
 12
-1423.317578204601
 22
1518.875270920946
 32
0.0
 13
-1423.317578204601
 23
1518.875270920946
 33
0.0
  0
SOLID
  5
11441
330
1143C
100
AcDbEntity
  8
SUNPOU
 62
     1
100
AcDbTrace
 10
-1423.817578204602
 20
1497.775270920945
 30
0.0
 11
-1422.817578204601
 21
1497.775270920945
 31
0.0
 12
-1423.317578204601
 22
1494.775270920946
 32
0.0
 13
-1423.317578204601
 23
1494.775270920946
 33
0.0
  0
MTEXT
  5
11442
330
1143C
100
AcDbEntity
  8
SUNPOU
 62
     1
100
AcDbMText
 10
-1426.067578204602
 20
1506.825270920946
 30
0.0
 40
3.5
 41
0.0
 71
     5
 72
     1
  1
\A1;24.1
  7
ゴシック体
 11
0.0000000000000001
 21
1.0
 31
0.0
1001
ACAD
1000
MTEXTBEGIN
1070
    73
1070
     1
1070
    44
1040
1.0
1070
    74
1070
     0
1000
MTEXTEND
  0
POINT
  5
11443
330
1143C
100
AcDbEntity
  8
DEFPOINTS
 62
     0
100
AcDbPoint
 10
-1451.856069378627
 20
1518.875270920946
 30
0.0
  0
POINT
  5
11444
330
1143C
100
AcDbEntity
  8
DEFPOINTS
 62
     0
100
AcDbPoint
 10
-1451.356069378627
 20
1494.775270920946
 30
0.0
  0
POINT
  5
11445
330
1143C
100
AcDbEntity
  8
DEFPOINTS
 62
     0
100
AcDbPoint
 10
-1423.317578204601
 20
1494.775270920946
 30
0.0
  0
ENDBLK
  5
11447
330
1143C
100
AcDbEntity
  8
0
100
AcDbBlockEnd
  0
ENDSEC
  0
SECTION
  2
ENTITIES
  0
MTEXT
  5
5084
330
1A
100
AcDbEntity
  8
0
100
AcDbMText
 10
1985.239088685434
 20
-948.5420423450428
 30
0.0
 40
8.0
 41
0.0
 71
     7
 72
     5
  1

1001
ACAD
1000
MTEXTBEGIN
1070
    73
1070
     1
1070
    44
1040
1.0
1070
    74
1070
     0
1000
MTEXTEND
  0
MTEXT
  5
5085
330
1A
100
AcDbEntity
  8
0
100
AcDbMText
 10
4270.596778580329
 20
22.24825240601648
 30
0.0
 40
8.0
 41
0.0
 71
     7
 72
     5
  1

1001
ACAD
1000
MTEXTBEGIN
1070
    73
1070
     1
1070
    44
1040
1.0
1070
    74
1070
     0
1000
MTEXTEND
  0
MTEXT
  5
5343
330
1A
100
AcDbEntity
  8
SUNPOU
100
AcDbMText
 10
6936.493799262471
 20
9534.359644781137
 30
0.0
 40
10.5
 41
0.0
 71
     1
 72
     5
  1

1001
ACAD
1000
MTEXTBEGIN
1070
    73
1070
     1
1070
    44
1040
1.0
1070
    74
1070
     0
1000
MTEXTEND
  0
MTEXT
  5
544F
330
1A
100
AcDbEntity
  8
0
100
AcDbMText
 10
16317.2832773148
 20
12833.35428897674
 30
0.0
 40
8.0
 41
0.0
 71
     7
 72
     5
  1

1001
ACAD
1000
MTEXTBEGIN
1070
    73
1070
     1
1070
    44
1040
1.0
1070
    74
1070
     0
1000
MTEXTEND
  0
MTEXT
  5
5450
330
1A
100
AcDbEntity
  8
0
100
AcDbMText
 10
18602.64096720968
 20
13804.1445837278
 30
0.0
 40
8.0
 41
0.0
 71
     7
 72
     5
  1

1001
ACAD
1000
MTEXTBEGIN
1070
    73
1070
     1
1070
    44
1040
1.0
1070
    74
1070
     0
1000
MTEXTEND
  0
MTEXT
  5
5451
330
1A
100
AcDbEntity
  8
SUNPOU
100
AcDbMText
 10
21268.53798789184
 20
23316.25597610292
 30
0.0
 40
10.5
 41
0.0
 71
     1
 72
     5
  1

1001
ACAD
1000
MTEXTBEGIN
1070
    73
1070
     1
1070
    44
1040
1.0
1070
    74
1070
     0
1000
MTEXTEND
  0
MTEXT
  5
5452
330
1A
100
AcDbEntity
  8
SUNPOU
100
AcDbMText
 10
13337.6147919559
 20
22369.46284218996
 30
0.0
 40
10.5
 41
0.0
 71
     7
 72
     5
  1

1001
ACAD
1000
MTEXTBEGIN
1070
    73
1070
     1
1070
    44
1040
1.0
1070
    74
1070
     0
1000
MTEXTEND
  0
MTEXT
  5
5453
330
1A
100
AcDbEntity
  8
SUNPOU
100
AcDbMText
 10
16286.59845646867
 20
27270.1389140328
 30
0.0
 40
10.5
 41
0.0
 71
     7
 72
     5
  1

1001
ACAD
1000
MTEXTBEGIN
1070
    73
1070
     1
1070
    44
1040
1.0
1070
    74
1070
     0
1000
MTEXTEND
  0
MTEXT
  5
5454
330
1A
100
AcDbEntity
  8
SUNPOU
100
AcDbMText
 10
20795.67658441924
 20
29706.43966165288
 30
0.0
 40
10.5
 41
0.0
 71
     7
 72
     5
  1

1001
ACAD
1000
MTEXTBEGIN
1070
    73
1070
     1
1070
    44
1040
1.0
1070
    74
1070
     0
1000
MTEXTEND
  0
MTEXT
  5
5455
330
1A
100
AcDbEntity
  8
0
100
AcDbMText
 10
16611.93789220313
 20
14707.52144344448
 30
0.0
 40
8.0
 41
0.0
 71
     7
 72
     5
  1

1001
ACAD
1000
MTEXTBEGIN
1070
    73
1070
     1
1070
    44
1040
1.0
1070
    74
1070
     0
1000
MTEXTEND
  0
MTEXT
  5
5456
330
1A
100
AcDbEntity
  8
0
100
AcDbMText
 10
18897.29558209803
 20
15678.31173819554
 30
0.0
 40
8.0
 41
0.0
 71
     7
 72
     5
  1

1001
ACAD
1000
MTEXTBEGIN
1070
    73
1070
     1
1070
    44
1040
1.0
1070
    74
1070
     0
1000
MTEXTEND
  0
MTEXT
  5
5457
330
1A
100
AcDbEntity
  8
SUNPOU
100
AcDbMText
 10
21563.19260278019
 20
25190.42313057066
 30
0.0
 40
10.5
 41
0.0
 71
     1
 72
     5
  1

1001
ACAD
1000
MTEXTBEGIN
1070
    73
1070
     1
1070
    44
1040
1.0
1070
    74
1070
     0
1000
MTEXTEND
  0
MTEXT
  5
5458
330
1A
100
AcDbEntity
  8
SUNPOU
100
AcDbMText
 10
13632.26940684425
 20
24243.6299966577
 30
0.0
 40
10.5
 41
0.0
 71
     7
 72
     5
  1

1001
ACAD
1000
MTEXTBEGIN
1070
    73
1070
     1
1070
    44
1040
1.0
1070
    74
1070
     0
1000
MTEXTEND
  0
MTEXT
  5
5459
330
1A
100
AcDbEntity
  8
SUNPOU
100
AcDbMText
 10
16581.25307135702
 20
29144.30606850055
 30
0.0
 40
10.5
 41
0.0
 71
     7
 72
     5
  1

1001
ACAD
1000
MTEXTBEGIN
1070
    73
1070
     1
1070
    44
1040
1.0
1070
    74
1070
     0
1000
MTEXTEND
  0
MTEXT
  5
545A
330
1A
100
AcDbEntity
  8
SUNPOU
100
AcDbMText
 10
21090.33119930759
 20
31580.60681612062
 30
0.0
 40
10.5
 41
0.0
 71
     7
 72
     5
  1

1001
ACAD
1000
MTEXTBEGIN
1070
    73
1070
     1
1070
    44
1040
1.0
1070
    74
1070
     0
1000
MTEXTEND
  0
MTEXT
  5
545B
330
1A
100
AcDbEntity
  8
0
100
AcDbMText
 10
22871.60517627166
 20
23974.88367124799
 30
0.0
 40
8.0
 41
0.0
 71
     7
 72
     5
  1

1001
ACAD
1000
MTEXTBEGIN
1070
    73
1070
     1
1070
    44
1040
1.0
1070
    74
1070
     0
1000
MTEXTEND
  0
MTEXT
  5
545C
330
1A
100
AcDbEntity
  8
0
100
AcDbMText
 10
25156.96286616656
 20
24945.67396599905
 30
0.0
 40
8.0
 41
0.0
 71
     7
 72
     5
  1

1001
ACAD
1000
MTEXTBEGIN
1070
    73
1070
     1
1070
    44
1040
1.0
1070
    74
1070
     0
1000
MTEXTEND
  0
MTEXT
  5
545D
330
1A
100
AcDbEntity
  8
SUNPOU
100
AcDbMText
 10
27822.85988684871
 20
34457.78535837418
 30
0.0
 40
10.5
 41
0.0
 71
     1
 72
     5
  1

1001
ACAD
1000
MTEXTBEGIN
1070
    73
1070
     1
1070
    44
1040
1.0
1070
    74
1070
     0
1000
MTEXTEND
  0
MTEXT
  5
545E
330
1A
100
AcDbEntity
  8
SUNPOU
100
AcDbMText
 10
19891.93669091278
 20
33510.99222446122
 30
0.0
 40
10.5
 41
0.0
 71
     7
 72
     5
  1

1001
ACAD
1000
MTEXTBEGIN
1070
    73
1070
     1
1070
    44
1040
1.0
1070
    74
1070
     0
1000
MTEXTEND
  0
MTEXT
  5
545F
330
1A
100
AcDbEntity
  8
SUNPOU
100
AcDbMText
 10
22840.92035542555
 20
38411.66829630406
 30
0.0
 40
10.5
 41
0.0
 71
     7
 72
     5
  1

1001
ACAD
1000
MTEXTBEGIN
1070
    73
1070
     1
1070
    44
1040
1.0
1070
    74
1070
     0
1000
MTEXTEND
  0
MTEXT
  5
5460
330
1A
100
AcDbEntity
  8
SUNPOU
100
AcDbMText
 10
27349.99848337611
 20
40847.96904392415
 30
0.0
 40
10.5
 41
0.0
 71
     7
 72
     5
  1

1001
ACAD
1000
MTEXTBEGIN
1070
    73
1070
     1
1070
    44
1040
1.0
1070
    74
1070
     0
1000
MTEXTEND
  0
MTEXT
  5
55B7
330
1A
100
AcDbEntity
  8
SUNPOU
100
AcDbMText
 10
67424.23923338197
 20
64463.86602884816
 30
0.0
 40
10.5
 41
0.0
 71
     9
 72
     5
  1

1001
ACAD
1000
MTEXTBEGIN
1070
    73
1070
     1
1070
    44
1040
1.0
1070
    74
1070
     0
1000
MTEXTEND
  0
MTEXT
  5
55B8
330
1A
100
AcDbEntity
  8
SUNPOU
100
AcDbMText
 10
76146.40679929998
 20
71879.70056038563
 30
0.0
 40
10.5
 41
0.0
 71
     9
 72
     5
  1

1001
ACAD
1000
MTEXTBEGIN
1070
    73
1070
     1
1070
    44
1040
1.0
1070
    74
1070
     0
1000
MTEXTEND
  0
MTEXT
  5
55B9
330
1A
100
AcDbEntity
  8
SUNPOU
100
AcDbMText
 10
95100.16551662994
 20
89346.27661287766
 30
0.0
 40
10.5
 41
0.0
 71
     9
 72
     5
  1

1001
ACAD
1000
MTEXTBEGIN
1070
    73
1070
     1
1070
    44
1040
1.0
1070
    74
1070
     0
1000
MTEXTEND
  0
MTEXT
  5
55BA
330
1A
100
AcDbEntity
  8
SUNPOU
100
AcDbMText
 10
97043.57276333935
 20
87545.22753299966
 30
0.0
 40
3.5
 41
0.0
 71
     9
 72
     5
  1

1001
ACAD
1000
MTEXTBEGIN
1070
    73
1070
     1
1070
    44
1040
1.0
1070
    74
1070
     0
1000
MTEXTEND
  0
MTEXT
  5
55BB
330
1A
100
AcDbEntity
  8
SUNPOU
100
AcDbMText
 10
128169.7525959589
 20
130040.1732006569
 30
0.0
 40
10.5
 41
0.0
 71
     9
 72
     5
  1

1001
ACAD
1000
MTEXTBEGIN
1070
    73
1070
     1
1070
    44
1040
1.0
1070
    74
1070
     0
1000
MTEXTEND
  0
MTEXT
  5
55BC
330
1A
100
AcDbEntity
  8
SUNPOU
100
AcDbMText
 10
130113.1598426684
 20
128239.1241207789
 30
0.0
 40
3.5
 41
0.0
 71
     9
 72
     5
  1

1001
ACAD
1000
MTEXTBEGIN
1070
    73
1070
     1
1070
    44
1040
1.0
1070
    74
1070
     0
1000
MTEXTEND
  0
MTEXT
  5
55BD
330
1A
100
AcDbEntity
  8
SUNPOU
100
AcDbMText
 10
78610.02030175463
 20
75873.33835563206
 30
0.0
 40
10.5
 41
0.0
 71
     9
 72
     5
  1

1001
ACAD
1000
MTEXTBEGIN
1070
    73
1070
     1
1070
    44
1040
1.0
1070
    74
1070
     0
1000
MTEXTEND
  0
MTEXT
  5
55BE
330
1A
100
AcDbEntity
  8
SUNPOU
100
AcDbMText
 10
64662.02020137862
 20
56700.93921651987
 30
0.0
 40
3.5
 41
0.0
 71
     7
 72
     5
  1

1001
ACAD
1000
MTEXTBEGIN
1070
    73
1070
     1
1070
    44
1040
1.0
1070
    74
1070
     0
1000
MTEXTEND
  0
MTEXT
  5
55BF
330
1A
100
AcDbEntity
  8
SUNPOU
100
AcDbMText
 10
45647.18959837177
 20
44463.08794733806
 30
0.0
 40
10.5
 41
0.0
 71
     7
 72
     5
  1

1001
ACAD
1000
MTEXTBEGIN
1070
    73
1070
     1
1070
    44
1040
1.0
1070
    74
1070
     0
1000
MTEXTEND
  0
MTEXT
  5
55C0
330
1A
100
AcDbEntity
  8
SUNPOU
100
AcDbMText
 10
33189.96133342368
 20
28618.15636923965
 30
0.0
 40
35.0
 41
0.0
 71
     9
 72
     5
  1

1001
ACAD
1000
MTEXTBEGIN
1070
    73
1070
     1
1070
    44
1040
1.0
1070
    74
1070
     0
1000
MTEXTEND
  0
MTEXT
  5
55C1
330
1A
100
AcDbEntity
  8
SUNPOU
100
AcDbMText
 10
32098.44639099864
 20
29226.93177928834
 30
0.0
 40
350.0000004171781
 41
0.0
 71
     7
 72
     5
  1

1001
ACAD
1000
MTEXTBEGIN
1070
    73
1070
     1
1070
    44
1040
1.0
1070
    74
1070
     0
1000
MTEXTEND
  0
MTEXT
  5
55C2
330
1A
100
AcDbEntity
  8
0
100
AcDbMText
 10
38142.39714894154
 20
27206.85414142458
 30
0.0
 40
8.0
 41
0.0
 71
     7
 72
     5
  1

1001
ACAD
1000
MTEXTBEGIN
1070
    73
1070
     1
1070
    44
1040
1.0
1070
    74
1070
     0
1000
MTEXTEND
  0
MTEXT
  5
55C3
330
1A
100
AcDbEntity
  8
0
100
AcDbMText
 10
40427.75483883644
 20
28177.64443617564
 30
0.0
 40
8.0
 41
0.0
 71
     7
 72
     5
  1

1001
ACAD
1000
MTEXTBEGIN
1070
    73
1070
     1
1070
    44
1040
1.0
1070
    74
1070
     0
1000
MTEXTEND
  0
MTEXT
  5
55C4
330
1A
100
AcDbEntity
  8
SUNPOU
100
AcDbMText
 10
43093.65185951858
 20
37689.75582855077
 30
0.0
 40
10.5
 41
0.0
 71
     1
 72
     5
  1

1001
ACAD
1000
MTEXTBEGIN
1070
    73
1070
     1
1070
    44
1040
1.0
1070
    74
1070
     0
1000
MTEXTEND
  0
MTEXT
  5
55C5
330
1A
100
AcDbEntity
  8
SUNPOU
100
AcDbMText
 10
35162.72866358265
 20
36742.96269463781
 30
0.0
 40
10.5
 41
0.0
 71
     7
 72
     5
  1

1001
ACAD
1000
MTEXTBEGIN
1070
    73
1070
     1
1070
    44
1040
1.0
1070
    74
1070
     0
1000
MTEXTEND
  0
MTEXT
  5
55C6
330
1A
100
AcDbEntity
  8
SUNPOU
100
AcDbMText
 10
38111.71232809542
 20
41643.63876648065
 30
0.0
 40
10.5
 41
0.0
 71
     7
 72
     5
  1

1001
ACAD
1000
MTEXTBEGIN
1070
    73
1070
     1
1070
    44
1040
1.0
1070
    74
1070
     0
1000
MTEXTEND
  0
MTEXT
  5
55C7
330
1A
100
AcDbEntity
  8
SUNPOU
100
AcDbMText
 10
42620.79045604596
 20
44079.93951410074
 30
0.0
 40
10.5
 41
0.0
 71
     7
 72
     5
  1

1001
ACAD
1000
MTEXTBEGIN
1070
    73
1070
     1
1070
    44
1040
1.0
1070
    74
1070
     0
1000
MTEXTEND
  0
MTEXT
  5
55C8
330
1A
100
AcDbEntity
  8
SUNPOU
100
AcDbMText
 10
26221.62834281429
 20
23077.53566448964
 30
0.0
 40
10.5
 41
0.0
 71
     7
 72
     5
  1

1001
ACAD
1000
MTEXTBEGIN
1070
    73
1070
     1
1070
    44
1040
1.0
1070
    74
1070
     0
1000
MTEXTEND
  0
MTEXT
  5
55C9
330
1A
100
AcDbEntity
  8
SUNPOU
100
AcDbMText
 10
77413.14677671455
 20
68750.51622813789
 30
0.0
 40
10.5
 41
0.0
 71
     9
 72
     5
  1

1001
ACAD
1000
MTEXTBEGIN
1070
    73
1070
     1
1070
    44
1040
1.0
1070
    74
1070
     0
1000
MTEXTEND
  0
MTEXT
  5
55CA
330
1A
100
AcDbEntity
  8
SUNPOU
100
AcDbMText
 10
86135.31434263256
 20
76166.35075967536
 30
0.0
 40
10.5
 41
0.0
 71
     9
 72
     5
  1

1001
ACAD
1000
MTEXTBEGIN
1070
    73
1070
     1
1070
    44
1040
1.0
1070
    74
1070
     0
1000
MTEXTEND
  0
MTEXT
  5
55CB
330
1A
100
AcDbEntity
  8
SUNPOU
100
AcDbMText
 10
105089.0730599624
 20
93632.92681216739
 30
0.0
 40
10.5
 41
0.0
 71
     9
 72
     5
  1

1001
ACAD
1000
MTEXTBEGIN
1070
    73
1070
     1
1070
    44
1040
1.0
1070
    74
1070
     0
1000
MTEXTEND
  0
MTEXT
  5
55CC
330
1A
100
AcDbEntity
  8
SUNPOU
100
AcDbMText
 10
107032.4803066718
 20
91831.87773228938
 30
0.0
 40
3.5
 41
0.0
 71
     9
 72
     5
  1

1001
ACAD
1000
MTEXTBEGIN
1070
    73
1070
     1
1070
    44
1040
1.0
1070
    74
1070
     0
1000
MTEXTEND
  0
MTEXT
  5
55CD
330
1A
100
AcDbEntity
  8
SUNPOU
100
AcDbMText
 10
138158.6601392916
 20
134326.8233999467
 30
0.0
 40
10.5
 41
0.0
 71
     9
 72
     5
  1

1001
ACAD
1000
MTEXTBEGIN
1070
    73
1070
     1
1070
    44
1040
1.0
1070
    74
1070
     0
1000
MTEXTEND
  0
MTEXT
  5
55CE
330
1A
100
AcDbEntity
  8
SUNPOU
100
AcDbMText
 10
140102.067386001
 20
132525.7743200686
 30
0.0
 40
3.5
 41
0.0
 71
     9
 72
     5
  1

1001
ACAD
1000
MTEXTBEGIN
1070
    73
1070
     1
1070
    44
1040
1.0
1070
    74
1070
     0
1000
MTEXTEND
  0
MTEXT
  5
55CF
330
1A
100
AcDbEntity
  8
SUNPOU
100
AcDbMText
 10
88598.92784508721
 20
80159.98855492179
 30
0.0
 40
10.5
 41
0.0
 71
     9
 72
     5
  1

1001
ACAD
1000
MTEXTBEGIN
1070
    73
1070
     1
1070
    44
1040
1.0
1070
    74
1070
     0
1000
MTEXTEND
  0
MTEXT
  5
55D0
330
1A
100
AcDbEntity
  8
SUNPOU
100
AcDbMText
 10
74650.92774471121
 20
60987.58941580959
 30
0.0
 40
3.5
 41
0.0
 71
     7
 72
     5
  1

1001
ACAD
1000
MTEXTBEGIN
1070
    73
1070
     1
1070
    44
1040
1.0
1070
    74
1070
     0
1000
MTEXTEND
  0
MTEXT
  5
55D1
330
1A
100
AcDbEntity
  8
SUNPOU
100
AcDbMText
 10
55636.09714170436
 20
48749.73814662781
 30
0.0
 40
10.5
 41
0.0
 71
     7
 72
     5
  1

1001
ACAD
1000
MTEXTBEGIN
1070
    73
1070
     1
1070
    44
1040
1.0
1070
    74
1070
     0
1000
MTEXTEND
  0
MTEXT
  5
55D2
330
1A
100
AcDbEntity
  8
SUNPOU
100
AcDbMText
 10
43178.86887675626
 20
32904.80656852937
 30
0.0
 40
35.0
 41
0.0
 71
     9
 72
     5
  1

1001
ACAD
1000
MTEXTBEGIN
1070
    73
1070
     1
1070
    44
1040
1.0
1070
    74
1070
     0
1000
MTEXTEND
  0
MTEXT
  5
55D3
330
1A
100
AcDbEntity
  8
SUNPOU
100
AcDbMText
 10
42087.3539343312
 20
33513.58197857808
 30
0.0
 40
350.0000004171781
 41
0.0
 71
     7
 72
     5
  1

1001
ACAD
1000
MTEXTBEGIN
1070
    73
1070
     1
1070
    44
1040
1.0
1070
    74
1070
     0
1000
MTEXTEND
  0
MTEXT
  5
55D4
330
1A
100
AcDbEntity
  8
0
100
AcDbMText
 10
48131.30469227412
 20
31493.50434071431
 30
0.0
 40
8.0
 41
0.0
 71
     7
 72
     5
  1

1001
ACAD
1000
MTEXTBEGIN
1070
    73
1070
     1
1070
    44
1040
1.0
1070
    74
1070
     0
1000
MTEXTEND
  0
MTEXT
  5
55D5
330
1A
100
AcDbEntity
  8
0
100
AcDbMText
 10
50416.66238216901
 20
32464.29463546537
 30
0.0
 40
8.0
 41
0.0
 71
     7
 72
     5
  1

1001
ACAD
1000
MTEXTBEGIN
1070
    73
1070
     1
1070
    44
1040
1.0
1070
    74
1070
     0
1000
MTEXTEND
  0
MTEXT
  5
55D6
330
1A
100
AcDbEntity
  8
SUNPOU
100
AcDbMText
 10
53082.55940285115
 20
41976.4060278405
 30
0.0
 40
10.5
 41
0.0
 71
     1
 72
     5
  1

1001
ACAD
1000
MTEXTBEGIN
1070
    73
1070
     1
1070
    44
1040
1.0
1070
    74
1070
     0
1000
MTEXTEND
  0
MTEXT
  5
55D7
330
1A
100
AcDbEntity
  8
SUNPOU
100
AcDbMText
 10
45151.63620691521
 20
41029.61289392755
 30
0.0
 40
10.5
 41
0.0
 71
     7
 72
     5
  1

1001
ACAD
1000
MTEXTBEGIN
1070
    73
1070
     1
1070
    44
1040
1.0
1070
    74
1070
     0
1000
MTEXTEND
  0
MTEXT
  5
55D8
330
1A
100
AcDbEntity
  8
SUNPOU
100
AcDbMText
 10
48100.61987142798
 20
45930.28896577039
 30
0.0
 40
10.5
 41
0.0
 71
     7
 72
     5
  1

1001
ACAD
1000
MTEXTBEGIN
1070
    73
1070
     1
1070
    44
1040
1.0
1070
    74
1070
     0
1000
MTEXTEND
  0
MTEXT
  5
55D9
330
1A
100
AcDbEntity
  8
SUNPOU
100
AcDbMText
 10
52609.69799937853
 20
48366.58971339046
 30
0.0
 40
10.5
 41
0.0
 71
     7
 72
     5
  1

1001
ACAD
1000
MTEXTBEGIN
1070
    73
1070
     1
1070
    44
1040
1.0
1070
    74
1070
     0
1000
MTEXTEND
  0
MTEXT
  5
55DA
330
1A
100
AcDbEntity
  8
SUNPOU
100
AcDbMText
 10
36210.53588614687
 20
27364.18586377937
 30
0.0
 40
10.5
 41
0.0
 71
     7
 72
     5
  1

1001
ACAD
1000
MTEXTBEGIN
1070
    73
1070
     1
1070
    44
1040
1.0
1070
    74
1070
     0
1000
MTEXTEND
  0
MTEXT
  5
55DB
330
1A
100
AcDbEntity
  8
SUNPOU
100
AcDbMText
 10
38021.29879752181
 20
33691.59985125794
 30
0.0
 40
10.5
 41
0.0
 71
     9
 72
     5
  1

1001
ACAD
1000
MTEXTBEGIN
1070
    73
1070
     1
1070
    44
1040
1.0
1070
    74
1070
     0
1000
MTEXTEND
  0
MTEXT
  5
55DC
330
1A
100
AcDbEntity
  8
SUNPOU
100
AcDbMText
 10
46743.46636343979
 20
41107.4343827954
 30
0.0
 40
10.5
 41
0.0
 71
     9
 72
     5
  1

1001
ACAD
1000
MTEXTBEGIN
1070
    73
1070
     1
1070
    44
1040
1.0
1070
    74
1070
     0
1000
MTEXTEND
  0
MTEXT
  5
55DD
330
1A
100
AcDbEntity
  8
SUNPOU
100
AcDbMText
 10
65697.22508076974
 20
58574.01043528746
 30
0.0
 40
10.5
 41
0.0
 71
     9
 72
     5
  1

1001
ACAD
1000
MTEXTBEGIN
1070
    73
1070
     1
1070
    44
1040
1.0
1070
    74
1070
     0
1000
MTEXTEND
  0
MTEXT
  5
55DE
330
1A
100
AcDbEntity
  8
SUNPOU
100
AcDbMText
 10
67640.63232747917
 20
56772.96135540945
 30
0.0
 40
3.5
 41
0.0
 71
     9
 72
     5
  1

1001
ACAD
1000
MTEXTBEGIN
1070
    73
1070
     1
1070
    44
1040
1.0
1070
    74
1070
     0
1000
MTEXTEND
  0
MTEXT
  5
55DF
330
1A
100
AcDbEntity
  8
SUNPOU
100
AcDbMText
 10
98766.81216009886
 20
99267.9070230668
 30
0.0
 40
10.5
 41
0.0
 71
     9
 72
     5
  1

1001
ACAD
1000
MTEXTBEGIN
1070
    73
1070
     1
1070
    44
1040
1.0
1070
    74
1070
     0
1000
MTEXTEND
  0
MTEXT
  5
55E0
330
1A
100
AcDbEntity
  8
SUNPOU
100
AcDbMText
 10
100710.2194068083
 20
97466.85794318876
 30
0.0
 40
3.5
 41
0.0
 71
     9
 72
     5
  1

1001
ACAD
1000
MTEXTBEGIN
1070
    73
1070
     1
1070
    44
1040
1.0
1070
    74
1070
     0
1000
MTEXTEND
  0
MTEXT
  5
55E1
330
1A
100
AcDbEntity
  8
SUNPOU
100
AcDbMText
 10
49207.07986589443
 20
45101.07217804184
 30
0.0
 40
10.5
 41
0.0
 71
     9
 72
     5
  1

1001
ACAD
1000
MTEXTBEGIN
1070
    73
1070
     1
1070
    44
1040
1.0
1070
    74
1070
     0
1000
MTEXTEND
  0
MTEXT
  5
55E2
330
1A
100
AcDbEntity
  8
SUNPOU
100
AcDbMText
 10
35259.07976551845
 20
25928.67303892964
 30
0.0
 40
3.5
 41
0.0
 71
     7
 72
     5
  1

1001
ACAD
1000
MTEXTBEGIN
1070
    73
1070
     1
1070
    44
1040
1.0
1070
    74
1070
     0
1000
MTEXTEND
  0
MTEXT
  5
55E3
330
1A
100
AcDbEntity
  8
SUNPOU
100
AcDbMText
 10
48951.43044828905
 20
35287.73625995099
 30
0.0
 40
10.5
 41
0.0
 71
     9
 72
     5
  1

1001
ACAD
1000
MTEXTBEGIN
1070
    73
1070
     1
1070
    44
1040
1.0
1070
    74
1070
     0
1000
MTEXTEND
  0
MTEXT
  5
55E4
330
1A
100
AcDbEntity
  8
SUNPOU
100
AcDbMText
 10
57673.59801420702
 20
42703.57079148847
 30
0.0
 40
10.5
 41
0.0
 71
     9
 72
     5
  1

1001
ACAD
1000
MTEXTBEGIN
1070
    73
1070
     1
1070
    44
1040
1.0
1070
    74
1070
     0
1000
MTEXTEND
  0
MTEXT
  5
55E5
330
1A
100
AcDbEntity
  8
SUNPOU
100
AcDbMText
 10
76627.35673153699
 20
60170.14684398051
 30
0.0
 40
10.5
 41
0.0
 71
     9
 72
     5
  1

1001
ACAD
1000
MTEXTBEGIN
1070
    73
1070
     1
1070
    44
1040
1.0
1070
    74
1070
     0
1000
MTEXTEND
  0
MTEXT
  5
55E6
330
1A
100
AcDbEntity
  8
SUNPOU
100
AcDbMText
 10
78570.76397824641
 20
58369.09776410251
 30
0.0
 40
3.5
 41
0.0
 71
     9
 72
     5
  1

1001
ACAD
1000
MTEXTBEGIN
1070
    73
1070
     1
1070
    44
1040
1.0
1070
    74
1070
     0
1000
MTEXTEND
  0
MTEXT
  5
55E7
330
1A
100
AcDbEntity
  8
SUNPOU
100
AcDbMText
 10
109696.943810866
 20
100864.0434317598
 30
0.0
 40
10.5
 41
0.0
 71
     9
 72
     5
  1

1001
ACAD
1000
MTEXTBEGIN
1070
    73
1070
     1
1070
    44
1040
1.0
1070
    74
1070
     0
1000
MTEXTEND
  0
MTEXT
  5
55E8
330
1A
100
AcDbEntity
  8
SUNPOU
100
AcDbMText
 10
111640.3510575755
 20
99062.99435188183
 30
0.0
 40
3.5
 41
0.0
 71
     9
 72
     5
  1

1001
ACAD
1000
MTEXTBEGIN
1070
    73
1070
     1
1070
    44
1040
1.0
1070
    74
1070
     0
1000
MTEXTEND
  0
MTEXT
  5
55E9
330
1A
100
AcDbEntity
  8
SUNPOU
100
AcDbMText
 10
60137.21151666167
 20
46697.20858673491
 30
0.0
 40
10.5
 41
0.0
 71
     9
 72
     5
  1

1001
ACAD
1000
MTEXTBEGIN
1070
    73
1070
     1
1070
    44
1040
1.0
1070
    74
1070
     0
1000
MTEXTEND
  0
MTEXT
  5
55EA
330
1A
100
AcDbEntity
  8
SUNPOU
100
AcDbMText
 10
46189.21141628568
 20
27524.80944762269
 30
0.0
 40
3.5
 41
0.0
 71
     7
 72
     5
  1

1001
ACAD
1000
MTEXTBEGIN
1070
    73
1070
     1
1070
    44
1040
1.0
1070
    74
1070
     0
1000
MTEXTEND
  0
MTEXT
  5
55EB
330
1A
100
AcDbEntity
  8
SUNPOU
100
AcDbMText
 10
45007.68847015541
 20
38269.57947701873
 30
0.0
 40
10.5
 41
0.0
 71
     9
 72
     5
  1

1001
ACAD
1000
MTEXTBEGIN
1070
    73
1070
     1
1070
    44
1040
1.0
1070
    74
1070
     0
1000
MTEXTEND
  0
MTEXT
  5
55EC
330
1A
100
AcDbEntity
  8
SUNPOU
100
AcDbMText
 10
63961.44718748539
 20
55736.15552951081
 30
0.0
 40
10.5
 41
0.0
 71
     9
 72
     5
  1

1001
ACAD
1000
MTEXTBEGIN
1070
    73
1070
     1
1070
    44
1040
1.0
1070
    74
1070
     0
1000
MTEXTEND
  0
MTEXT
  5
55ED
330
1A
100
AcDbEntity
  8
SUNPOU
100
AcDbMText
 10
65904.85443419479
 20
53935.10644963278
 30
0.0
 40
3.5
 41
0.0
 71
     9
 72
     5
  1

1001
ACAD
1000
MTEXTBEGIN
1070
    73
1070
     1
1070
    44
1040
1.0
1070
    74
1070
     0
1000
MTEXTEND
  0
MTEXT
  5
55EE
330
1A
100
AcDbEntity
  8
SUNPOU
100
AcDbMText
 10
97031.03426681453
 20
96430.05211729015
 30
0.0
 40
10.5
 41
0.0
 71
     9
 72
     5
  1

1001
ACAD
1000
MTEXTBEGIN
1070
    73
1070
     1
1070
    44
1040
1.0
1070
    74
1070
     0
1000
MTEXTEND
  0
MTEXT
  5
55EF
330
1A
100
AcDbEntity
  8
SUNPOU
100
AcDbMText
 10
98974.44151352393
 20
94629.00303741212
 30
0.0
 40
3.5
 41
0.0
 71
     9
 72
     5
  1

1001
ACAD
1000
MTEXTBEGIN
1070
    73
1070
     1
1070
    44
1040
1.0
1070
    74
1070
     0
1000
MTEXTEND
  0
MTEXT
  5
55F0
330
1A
100
AcDbEntity
  8
SUNPOU
100
AcDbMText
 10
47471.30197261006
 20
42263.21727226519
 30
0.0
 40
10.5
 41
0.0
 71
     9
 72
     5
  1

1001
ACAD
1000
MTEXTBEGIN
1070
    73
1070
     1
1070
    44
1040
1.0
1070
    74
1070
     0
1000
MTEXTEND
  0
MTEXT
  5
55F1
330
1A
100
AcDbEntity
  8
SUNPOU
100
AcDbMText
 10
33523.30187223408
 20
23090.81813315298
 30
0.0
 40
3.5
 41
0.0
 71
     7
 72
     5
  1

1001
ACAD
1000
MTEXTBEGIN
1070
    73
1070
     1
1070
    44
1040
1.0
1070
    74
1070
     0
1000
MTEXTEND
  0
MTEXT
  5
55F2
330
1A
100
AcDbEntity
  8
SUNPOU
100
AcDbMText
 10
57959.46254102503
 20
50038.08111611014
 30
0.0
 40
10.5
 41
0.0
 71
     9
 72
     5
  1

1001
ACAD
1000
MTEXTBEGIN
1070
    73
1070
     1
1070
    44
1040
1.0
1070
    74
1070
     0
1000
MTEXTEND
  0
MTEXT
  5
55F3
330
1A
100
AcDbEntity
  8
SUNPOU
100
AcDbMText
 10
76913.22125835503
 20
67504.65716860222
 30
0.0
 40
10.5
 41
0.0
 71
     9
 72
     5
  1

1001
ACAD
1000
MTEXTBEGIN
1070
    73
1070
     1
1070
    44
1040
1.0
1070
    74
1070
     0
1000
MTEXTEND
  0
MTEXT
  5
55F4
330
1A
100
AcDbEntity
  8
SUNPOU
100
AcDbMText
 10
78856.62850506443
 20
65703.6080887242
 30
0.0
 40
3.5
 41
0.0
 71
     9
 72
     5
  1

1001
ACAD
1000
MTEXTBEGIN
1070
    73
1070
     1
1070
    44
1040
1.0
1070
    74
1070
     0
1000
MTEXTEND
  0
MTEXT
  5
55F5
330
1A
100
AcDbEntity
  8
SUNPOU
100
AcDbMText
 10
109982.8083376841
 20
108198.5537563815
 30
0.0
 40
10.5
 41
0.0
 71
     9
 72
     5
  1

1001
ACAD
1000
MTEXTBEGIN
1070
    73
1070
     1
1070
    44
1040
1.0
1070
    74
1070
     0
1000
MTEXTEND
  0
MTEXT
  5
55F6
330
1A
100
AcDbEntity
  8
SUNPOU
100
AcDbMText
 10
111926.2155843934
 20
106397.5046765035
 30
0.0
 40
3.5
 41
0.0
 71
     9
 72
     5
  1

1001
ACAD
1000
MTEXTBEGIN
1070
    73
1070
     1
1070
    44
1040
1.0
1070
    74
1070
     0
1000
MTEXTEND
  0
MTEXT
  5
55F7
330
1A
100
AcDbEntity
  8
SUNPOU
100
AcDbMText
 10
60423.07604347968
 20
54031.71891135658
 30
0.0
 40
10.5
 41
0.0
 71
     9
 72
     5
  1

1001
ACAD
1000
MTEXTBEGIN
1070
    73
1070
     1
1070
    44
1040
1.0
1070
    74
1070
     0
1000
MTEXTEND
  0
MTEXT
  5
55F8
330
1A
100
AcDbEntity
  8
SUNPOU
100
AcDbMText
 10
46475.07594310369
 20
34859.3197722444
 30
0.0
 40
3.5
 41
0.0
 71
     7
 72
     5
  1

1001
ACAD
1000
MTEXTBEGIN
1070
    73
1070
     1
1070
    44
1040
1.0
1070
    74
1070
     0
1000
MTEXTEND
  0
MTEXT
  5
55F9
330
1A
100
AcDbEntity
  8
SUNPOU
100
AcDbMText
 10
74027.35402123588
 20
68370.58278833383
 30
0.0
 40
10.5
 41
0.0
 71
     9
 72
     5
  1

1001
ACAD
1000
MTEXTBEGIN
1070
    73
1070
     1
1070
    44
1040
1.0
1070
    74
1070
     0
1000
MTEXTEND
  0
MTEXT
  5
55FA
330
1A
100
AcDbEntity
  8
SUNPOU
100
AcDbMText
 10
75970.7612679453
 20
66569.53370845583
 30
0.0
 40
3.5
 41
0.0
 71
     9
 72
     5
  1

1001
ACAD
1000
MTEXTBEGIN
1070
    73
1070
     1
1070
    44
1040
1.0
1070
    74
1070
     0
1000
MTEXTEND
  0
MTEXT
  5
55FB
330
1A
100
AcDbEntity
  8
SUNPOU
100
AcDbMText
 10
107096.941100565
 20
109064.4793761132
 30
0.0
 40
10.5
 41
0.0
 71
     9
 72
     5
  1

1001
ACAD
1000
MTEXTBEGIN
1070
    73
1070
     1
1070
    44
1040
1.0
1070
    74
1070
     0
1000
MTEXTEND
  0
MTEXT
  5
55FC
330
1A
100
AcDbEntity
  8
SUNPOU
100
AcDbMText
 10
109040.3483472744
 20
107263.430296235
 30
0.0
 40
3.5
 41
0.0
 71
     9
 72
     5
  1

1001
ACAD
1000
MTEXTBEGIN
1070
    73
1070
     1
1070
    44
1040
1.0
1070
    74
1070
     0
1000
MTEXTEND
  0
MTEXT
  5
55FD
330
1A
100
AcDbEntity
  8
SUNPOU
100
AcDbMText
 10
105709.1709283621
 20
108141.3777665285
 30
0.0
 40
10.5
 41
0.0
 71
     9
 72
     5
  1

1001
ACAD
1000
MTEXTBEGIN
1070
    73
1070
     1
1070
    44
1040
1.0
1070
    74
1070
     0
1000
MTEXTEND
  0
MTEXT
  5
55FE
330
1A
100
AcDbEntity
  8
SUNPOU
100
AcDbMText
 10
107652.5781750715
 20
106340.3286866505
 30
0.0
 40
3.5
 41
0.0
 71
     9
 72
     5
  1

1001
ACAD
1000
MTEXTBEGIN
1070
    73
1070
     1
1070
    44
1040
1.0
1070
    74
1070
     0
1000
MTEXTEND
  0
MTEXT
  5
55FF
330
1A
100
AcDbEntity
  8
SUNPOU
100
AcDbMText
 10
73193.09268743351
 20
66158.78082845057
 30
0.0
 40
10.5
 41
0.0
 71
     9
 72
     5
  1

1001
ACAD
1000
MTEXTBEGIN
1070
    73
1070
     1
1070
    44
1040
1.0
1070
    74
1070
     0
1000
MTEXTEND
  0
MTEXT
  5
5600
330
1A
100
AcDbEntity
  8
SUNPOU
100
AcDbMText
 10
75916.39889159807
 20
66563.46252003162
 30
0.0
 40
3.5
 41
0.0
 71
     9
 72
     5
  1

1001
ACAD
1000
MTEXTBEGIN
1070
    73
1070
     1
1070
    44
1040
1.0
1070
    74
1070
     0
1000
MTEXTEND
  0
MTEXT
  5
5601
330
1A
100
AcDbEntity
  8
SUNPOU
100
AcDbMText
 10
75124.04436649058
 20
63402.1566819768
 30
0.0
 40
10.5
 41
0.0
 71
     9
 72
     5
  1

1001
ACAD
1000
MTEXTBEGIN
1070
    73
1070
     1
1070
    44
1040
1.0
1070
    74
1070
     0
1000
MTEXTEND
  0
MTEXT
  5
5602
330
1A
100
AcDbEntity
  8
SUNPOU
100
AcDbMText
 10
77067.4516132
 20
61601.1076020988
 30
0.0
 40
3.5
 41
0.0
 71
     9
 72
     5
  1

1001
ACAD
1000
MTEXTBEGIN
1070
    73
1070
     1
1070
    44
1040
1.0
1070
    74
1070
     0
1000
MTEXTEND
  0
MTEXT
  5
5603
330
1A
100
AcDbEntity
  8
SUNPOU
100
AcDbMText
 10
77012.54710378659
 20
61488.33571981449
 30
0.0
 40
3.5
 41
0.0
 71
     9
 72
     5
  1

1001
ACAD
1000
MTEXTBEGIN
1070
    73
1070
     1
1070
    44
1040
1.0
1070
    74
1070
     0
1000
MTEXTEND
  0
MTEXT
  5
5604
330
1A
100
AcDbEntity
  8
SUNPOU
100
AcDbMText
 10
76376.61896736668
 20
60677.01447874798
 30
0.0
 40
3.5
 41
0.0
 71
     9
 72
     5
  1

1001
ACAD
1000
MTEXTBEGIN
1070
    73
1070
     1
1070
    44
1040
1.0
1070
    74
1070
     0
1000
MTEXTEND
  0
MTEXT
  5
5605
330
1A
100
AcDbEntity
  8
SUNPOU
100
AcDbMText
 10
76375.37854794595
 20
60676.76650181048
 30
0.0
 40
10.5
 41
0.0
 71
     9
 72
     5
  1

1001
ACAD
1000
MTEXTBEGIN
1070
    73
1070
     1
1070
    44
1040
1.0
1070
    74
1070
     0
1000
MTEXTEND
  0
MTEXT
  5
5606
330
1A
100
AcDbEntity
  8
SUNPOU
100
AcDbMText
 10
84709.93991079748
 20
78034.0328293557
 30
0.0
 40
10.5
 41
0.0
 71
     9
 72
     5
  1

1001
ACAD
1000
MTEXTBEGIN
1070
    73
1070
     1
1070
    44
1040
1.0
1070
    74
1070
     0
1000
MTEXTEND
  0
MTEXT
  5
5607
330
1A
100
AcDbEntity
  8
SUNPOU
100
AcDbMText
 10
93432.10747671546
 20
85449.86736089315
 30
0.0
 40
10.5
 41
0.0
 71
     9
 72
     5
  1

1001
ACAD
1000
MTEXTBEGIN
1070
    73
1070
     1
1070
    44
1040
1.0
1070
    74
1070
     0
1000
MTEXTEND
  0
MTEXT
  5
5608
330
1A
100
AcDbEntity
  8
SUNPOU
100
AcDbMText
 10
112385.8661940454
 20
102916.4434133851
 30
0.0
 40
10.5
 41
0.0
 71
     9
 72
     5
  1

1001
ACAD
1000
MTEXTBEGIN
1070
    73
1070
     1
1070
    44
1040
1.0
1070
    74
1070
     0
1000
MTEXTEND
  0
MTEXT
  5
5609
330
1A
100
AcDbEntity
  8
SUNPOU
100
AcDbMText
 10
114329.2734407548
 20
101115.3943335072
 30
0.0
 40
3.5
 41
0.0
 71
     9
 72
     5
  1

1001
ACAD
1000
MTEXTBEGIN
1070
    73
1070
     1
1070
    44
1040
1.0
1070
    74
1070
     0
1000
MTEXTEND
  0
MTEXT
  5
560A
330
1A
100
AcDbEntity
  8
SUNPOU
100
AcDbMText
 10
145455.4532733745
 20
143610.3400011645
 30
0.0
 40
10.5
 41
0.0
 71
     9
 72
     5
  1

1001
ACAD
1000
MTEXTBEGIN
1070
    73
1070
     1
1070
    44
1040
1.0
1070
    74
1070
     0
1000
MTEXTEND
  0
MTEXT
  5
560B
330
1A
100
AcDbEntity
  8
SUNPOU
100
AcDbMText
 10
147398.8605200839
 20
141809.2909212864
 30
0.0
 40
3.5
 41
0.0
 71
     9
 72
     5
  1

1001
ACAD
1000
MTEXTBEGIN
1070
    73
1070
     1
1070
    44
1040
1.0
1070
    74
1070
     0
1000
MTEXTEND
  0
MTEXT
  5
560C
330
1A
100
AcDbEntity
  8
SUNPOU
100
AcDbMText
 10
95895.72097917011
 20
89443.50515613962
 30
0.0
 40
10.5
 41
0.0
 71
     9
 72
     5
  1

1001
ACAD
1000
MTEXTBEGIN
1070
    73
1070
     1
1070
    44
1040
1.0
1070
    74
1070
     0
1000
MTEXTEND
  0
MTEXT
  5
560D
330
1A
100
AcDbEntity
  8
SUNPOU
100
AcDbMText
 10
81947.72087879414
 20
70271.1060170274
 30
0.0
 40
3.5
 41
0.0
 71
     7
 72
     5
  1

1001
ACAD
1000
MTEXTBEGIN
1070
    73
1070
     1
1070
    44
1040
1.0
1070
    74
1070
     0
1000
MTEXTEND
  0
MTEXT
  5
560E
330
1A
100
AcDbEntity
  8
SUNPOU
100
AcDbMText
 10
62932.89027578729
 20
58033.25474784561
 30
0.0
 40
10.5
 41
0.0
 71
     7
 72
     5
  1

1001
ACAD
1000
MTEXTBEGIN
1070
    73
1070
     1
1070
    44
1040
1.0
1070
    74
1070
     0
1000
MTEXTEND
  0
MTEXT
  5
560F
330
1A
100
AcDbEntity
  8
SUNPOU
100
AcDbMText
 10
50475.66201083918
 20
42188.32316974718
 30
0.0
 40
35.0
 41
0.0
 71
     9
 72
     5
  1

1001
ACAD
1000
MTEXTBEGIN
1070
    73
1070
     1
1070
    44
1040
1.0
1070
    74
1070
     0
1000
MTEXTEND
  0
MTEXT
  5
5610
330
1A
100
AcDbEntity
  8
SUNPOU
100
AcDbMText
 10
49384.14706841413
 20
42797.0985797959
 30
0.0
 40
350.0000004171781
 41
0.0
 71
     7
 72
     5
  1

1001
ACAD
1000
MTEXTBEGIN
1070
    73
1070
     1
1070
    44
1040
1.0
1070
    74
1070
     0
1000
MTEXTEND
  0
MTEXT
  5
5611
330
1A
100
AcDbEntity
  8
0
100
AcDbMText
 10
55428.09782635704
 20
40777.0209419321
 30
0.0
 40
8.0
 41
0.0
 71
     7
 72
     5
  1

1001
ACAD
1000
MTEXTBEGIN
1070
    73
1070
     1
1070
    44
1040
1.0
1070
    74
1070
     0
1000
MTEXTEND
  0
MTEXT
  5
5612
330
1A
100
AcDbEntity
  8
0
100
AcDbMText
 10
57713.45551625193
 20
41747.81123668316
 30
0.0
 40
8.0
 41
0.0
 71
     7
 72
     5
  1

1001
ACAD
1000
MTEXTBEGIN
1070
    73
1070
     1
1070
    44
1040
1.0
1070
    74
1070
     0
1000
MTEXTEND
  0
MTEXT
  5
5613
330
1A
100
AcDbEntity
  8
SUNPOU
100
AcDbMText
 10
60379.35253693407
 20
51259.9226290583
 30
0.0
 40
10.5
 41
0.0
 71
     1
 72
     5
  1

1001
ACAD
1000
MTEXTBEGIN
1070
    73
1070
     1
1070
    44
1040
1.0
1070
    74
1070
     0
1000
MTEXTEND
  0
MTEXT
  5
5614
330
1A
100
AcDbEntity
  8
SUNPOU
100
AcDbMText
 10
52448.42934099813
 20
50313.12949514535
 30
0.0
 40
10.5
 41
0.0
 71
     7
 72
     5
  1

1001
ACAD
1000
MTEXTBEGIN
1070
    73
1070
     1
1070
    44
1040
1.0
1070
    74
1070
     0
1000
MTEXTEND
  0
MTEXT
  5
5615
330
1A
100
AcDbEntity
  8
SUNPOU
100
AcDbMText
 10
55397.4130055109
 20
55213.80556698819
 30
0.0
 40
10.5
 41
0.0
 71
     7
 72
     5
  1

1001
ACAD
1000
MTEXTBEGIN
1070
    73
1070
     1
1070
    44
1040
1.0
1070
    74
1070
     0
1000
MTEXTEND
  0
MTEXT
  5
5616
330
1A
100
AcDbEntity
  8
SUNPOU
100
AcDbMText
 10
59906.49113346147
 20
57650.10631460826
 30
0.0
 40
10.5
 41
0.0
 71
     7
 72
     5
  1

1001
ACAD
1000
MTEXTBEGIN
1070
    73
1070
     1
1070
    44
1040
1.0
1070
    74
1070
     0
1000
MTEXTEND
  0
MTEXT
  5
5617
330
1A
100
AcDbEntity
  8
SUNPOU
100
AcDbMText
 10
43507.32902022978
 20
36647.70246499718
 30
0.0
 40
10.5
 41
0.0
 71
     7
 72
     5
  1

1001
ACAD
1000
MTEXTBEGIN
1070
    73
1070
     1
1070
    44
1040
1.0
1070
    74
1070
     0
1000
MTEXTEND
  0
MTEXT
  5
5618
330
1A
100
AcDbEntity
  8
SUNPOU
100
AcDbMText
 10
94698.84745413006
 20
82320.68302864544
 30
0.0
 40
10.5
 41
0.0
 71
     9
 72
     5
  1

1001
ACAD
1000
MTEXTBEGIN
1070
    73
1070
     1
1070
    44
1040
1.0
1070
    74
1070
     0
1000
MTEXTEND
  0
MTEXT
  5
5619
330
1A
100
AcDbEntity
  8
SUNPOU
100
AcDbMText
 10
103421.015020048
 20
89736.5175601829
 30
0.0
 40
10.5
 41
0.0
 71
     9
 72
     5
  1

1001
ACAD
1000
MTEXTBEGIN
1070
    73
1070
     1
1070
    44
1040
1.0
1070
    74
1070
     0
1000
MTEXTEND
  0
MTEXT
  5
561A
330
1A
100
AcDbEntity
  8
SUNPOU
100
AcDbMText
 10
122374.773737378
 20
107203.0936126749
 30
0.0
 40
10.5
 41
0.0
 71
     9
 72
     5
  1

1001
ACAD
1000
MTEXTBEGIN
1070
    73
1070
     1
1070
    44
1040
1.0
1070
    74
1070
     0
1000
MTEXTEND
  0
MTEXT
  5
561B
330
1A
100
AcDbEntity
  8
SUNPOU
100
AcDbMText
 10
124318.1809840874
 20
105402.0445327969
 30
0.0
 40
3.5
 41
0.0
 71
     9
 72
     5
  1

1001
ACAD
1000
MTEXTBEGIN
1070
    73
1070
     1
1070
    44
1040
1.0
1070
    74
1070
     0
1000
MTEXTEND
  0
MTEXT
  5
561C
330
1A
100
AcDbEntity
  8
SUNPOU
100
AcDbMText
 10
155444.3608167071
 20
147896.9902004542
 30
0.0
 40
10.5
 41
0.0
 71
     9
 72
     5
  1

1001
ACAD
1000
MTEXTBEGIN
1070
    73
1070
     1
1070
    44
1040
1.0
1070
    74
1070
     0
1000
MTEXTEND
  0
MTEXT
  5
561D
330
1A
100
AcDbEntity
  8
SUNPOU
100
AcDbMText
 10
157387.7680634165
 20
146095.9411205762
 30
0.0
 40
3.5
 41
0.0
 71
     9
 72
     5
  1

1001
ACAD
1000
MTEXTBEGIN
1070
    73
1070
     1
1070
    44
1040
1.0
1070
    74
1070
     0
1000
MTEXTEND
  0
MTEXT
  5
561E
330
1A
100
AcDbEntity
  8
SUNPOU
100
AcDbMText
 10
105884.6285225027
 20
93730.15535542933
 30
0.0
 40
10.5
 41
0.0
 71
     9
 72
     5
  1

1001
ACAD
1000
MTEXTBEGIN
1070
    73
1070
     1
1070
    44
1040
1.0
1070
    74
1070
     0
1000
MTEXTEND
  0
MTEXT
  5
561F
330
1A
100
AcDbEntity
  8
SUNPOU
100
AcDbMText
 10
91936.6284221267
 20
74557.75621631714
 30
0.0
 40
3.5
 41
0.0
 71
     7
 72
     5
  1

1001
ACAD
1000
MTEXTBEGIN
1070
    73
1070
     1
1070
    44
1040
1.0
1070
    74
1070
     0
1000
MTEXTEND
  0
MTEXT
  5
5620
330
1A
100
AcDbEntity
  8
SUNPOU
100
AcDbMText
 10
72921.79781911986
 20
62319.90494713532
 30
0.0
 40
10.5
 41
0.0
 71
     7
 72
     5
  1

1001
ACAD
1000
MTEXTBEGIN
1070
    73
1070
     1
1070
    44
1040
1.0
1070
    74
1070
     0
1000
MTEXTEND
  0
MTEXT
  5
5621
330
1A
100
AcDbEntity
  8
SUNPOU
100
AcDbMText
 10
60464.56955417175
 20
46474.97336903692
 30
0.0
 40
35.0
 41
0.0
 71
     9
 72
     5
  1

1001
ACAD
1000
MTEXTBEGIN
1070
    73
1070
     1
1070
    44
1040
1.0
1070
    74
1070
     0
1000
MTEXTEND
  0
MTEXT
  5
5622
330
1A
100
AcDbEntity
  8
SUNPOU
100
AcDbMText
 10
59373.05461174673
 20
47083.74877908561
 30
0.0
 40
350.0000004171781
 41
0.0
 71
     7
 72
     5
  1

1001
ACAD
1000
MTEXTBEGIN
1070
    73
1070
     1
1070
    44
1040
1.0
1070
    74
1070
     0
1000
MTEXTEND
  0
MTEXT
  5
5623
330
1A
100
AcDbEntity
  8
0
100
AcDbMText
 10
65417.00536968963
 20
45063.67114122186
 30
0.0
 40
8.0
 41
0.0
 71
     7
 72
     5
  1

1001
ACAD
1000
MTEXTBEGIN
1070
    73
1070
     1
1070
    44
1040
1.0
1070
    74
1070
     0
1000
MTEXTEND
  0
MTEXT
  5
5624
330
1A
100
AcDbEntity
  8
0
100
AcDbMText
 10
67702.36305958452
 20
46034.46143597292
 30
0.0
 40
8.0
 41
0.0
 71
     7
 72
     5
  1

1001
ACAD
1000
MTEXTBEGIN
1070
    73
1070
     1
1070
    44
1040
1.0
1070
    74
1070
     0
1000
MTEXTEND
  0
MTEXT
  5
5625
330
1A
100
AcDbEntity
  8
SUNPOU
100
AcDbMText
 10
70368.26008026666
 20
55546.57282834803
 30
0.0
 40
10.5
 41
0.0
 71
     1
 72
     5
  1

1001
ACAD
1000
MTEXTBEGIN
1070
    73
1070
     1
1070
    44
1040
1.0
1070
    74
1070
     0
1000
MTEXTEND
  0
MTEXT
  5
5626
330
1A
100
AcDbEntity
  8
SUNPOU
100
AcDbMText
 10
62437.33688433072
 20
54599.77969443507
 30
0.0
 40
10.5
 41
0.0
 71
     7
 72
     5
  1

1001
ACAD
1000
MTEXTBEGIN
1070
    73
1070
     1
1070
    44
1040
1.0
1070
    74
1070
     0
1000
MTEXTEND
  0
MTEXT
  5
5627
330
1A
100
AcDbEntity
  8
SUNPOU
100
AcDbMText
 10
65386.32054884348
 20
59500.45576627792
 30
0.0
 40
10.5
 41
0.0
 71
     7
 72
     5
  1

1001
ACAD
1000
MTEXTBEGIN
1070
    73
1070
     1
1070
    44
1040
1.0
1070
    74
1070
     0
1000
MTEXTEND
  0
MTEXT
  5
5628
330
1A
100
AcDbEntity
  8
SUNPOU
100
AcDbMText
 10
69895.39867679405
 20
61936.756513898
 30
0.0
 40
10.5
 41
0.0
 71
     7
 72
     5
  1

1001
ACAD
1000
MTEXTBEGIN
1070
    73
1070
     1
1070
    44
1040
1.0
1070
    74
1070
     0
1000
MTEXTEND
  0
MTEXT
  5
5629
330
1A
100
AcDbEntity
  8
SUNPOU
100
AcDbMText
 10
53496.23656356237
 20
40934.35266428691
 30
0.0
 40
10.5
 41
0.0
 71
     7
 72
     5
  1

1001
ACAD
1000
MTEXTBEGIN
1070
    73
1070
     1
1070
    44
1040
1.0
1070
    74
1070
     0
1000
MTEXTEND
  0
MTEXT
  5
562A
330
1A
100
AcDbEntity
  8
SUNPOU
100
AcDbMText
 10
55306.99947493731
 20
47261.76665176546
 30
0.0
 40
10.5
 41
0.0
 71
     9
 72
     5
  1

1001
ACAD
1000
MTEXTBEGIN
1070
    73
1070
     1
1070
    44
1040
1.0
1070
    74
1070
     0
1000
MTEXTEND
  0
MTEXT
  5
562B
330
1A
100
AcDbEntity
  8
SUNPOU
100
AcDbMText
 10
64029.16704085527
 20
54677.60118330295
 30
0.0
 40
10.5
 41
0.0
 71
     9
 72
     5
  1

1001
ACAD
1000
MTEXTBEGIN
1070
    73
1070
     1
1070
    44
1040
1.0
1070
    74
1070
     0
1000
MTEXTEND
  0
MTEXT
  5
562C
330
1A
100
AcDbEntity
  8
SUNPOU
100
AcDbMText
 10
82982.92575818527
 20
72144.17723579499
 30
0.0
 40
10.5
 41
0.0
 71
     9
 72
     5
  1

1001
ACAD
1000
MTEXTBEGIN
1070
    73
1070
     1
1070
    44
1040
1.0
1070
    74
1070
     0
1000
MTEXTEND
  0
MTEXT
  5
562D
330
1A
100
AcDbEntity
  8
SUNPOU
100
AcDbMText
 10
84926.33300489467
 20
70343.12815591697
 30
0.0
 40
3.5
 41
0.0
 71
     9
 72
     5
  1

1001
ACAD
1000
MTEXTBEGIN
1070
    73
1070
     1
1070
    44
1040
1.0
1070
    74
1070
     0
1000
MTEXTEND
  0
MTEXT
  5
562E
330
1A
100
AcDbEntity
  8
SUNPOU
100
AcDbMText
 10
116052.5128375142
 20
112838.0738235742
 30
0.0
 40
10.5
 41
0.0
 71
     9
 72
     5
  1

1001
ACAD
1000
MTEXTBEGIN
1070
    73
1070
     1
1070
    44
1040
1.0
1070
    74
1070
     0
1000
MTEXTEND
  0
MTEXT
  5
562F
330
1A
100
AcDbEntity
  8
SUNPOU
100
AcDbMText
 10
117995.9200842238
 20
111037.0247436963
 30
0.0
 40
3.5
 41
0.0
 71
     9
 72
     5
  1

1001
ACAD
1000
MTEXTBEGIN
1070
    73
1070
     1
1070
    44
1040
1.0
1070
    74
1070
     0
1000
MTEXTEND
  0
MTEXT
  5
5630
330
1A
100
AcDbEntity
  8
SUNPOU
100
AcDbMText
 10
66492.78054330994
 20
58671.23897854939
 30
0.0
 40
10.5
 41
0.0
 71
     9
 72
     5
  1

1001
ACAD
1000
MTEXTBEGIN
1070
    73
1070
     1
1070
    44
1040
1.0
1070
    74
1070
     0
1000
MTEXTEND
  0
MTEXT
  5
5631
330
1A
100
AcDbEntity
  8
SUNPOU
100
AcDbMText
 10
52544.78044293397
 20
39498.83983943717
 30
0.0
 40
3.5
 41
0.0
 71
     7
 72
     5
  1

1001
ACAD
1000
MTEXTBEGIN
1070
    73
1070
     1
1070
    44
1040
1.0
1070
    74
1070
     0
1000
MTEXTEND
  0
MTEXT
  5
5632
330
1A
100
AcDbEntity
  8
SUNPOU
100
AcDbMText
 10
66237.13112570454
 20
48857.90306045851
 30
0.0
 40
10.5
 41
0.0
 71
     9
 72
     5
  1

1001
ACAD
1000
MTEXTBEGIN
1070
    73
1070
     1
1070
    44
1040
1.0
1070
    74
1070
     0
1000
MTEXTEND
  0
MTEXT
  5
5633
330
1A
100
AcDbEntity
  8
SUNPOU
100
AcDbMText
 10
74959.29869162253
 20
56273.73759199599
 30
0.0
 40
10.5
 41
0.0
 71
     9
 72
     5
  1

1001
ACAD
1000
MTEXTBEGIN
1070
    73
1070
     1
1070
    44
1040
1.0
1070
    74
1070
     0
1000
MTEXTEND
  0
MTEXT
  5
5634
330
1A
100
AcDbEntity
  8
SUNPOU
100
AcDbMText
 10
93913.0574089525
 20
73740.31364448805
 30
0.0
 40
10.5
 41
0.0
 71
     9
 72
     5
  1

1001
ACAD
1000
MTEXTBEGIN
1070
    73
1070
     1
1070
    44
1040
1.0
1070
    74
1070
     0
1000
MTEXTEND
  0
MTEXT
  5
5635
330
1A
100
AcDbEntity
  8
SUNPOU
100
AcDbMText
 10
95856.46465566192
 20
71939.26456461004
 30
0.0
 40
3.5
 41
0.0
 71
     9
 72
     5
  1

1001
ACAD
1000
MTEXTBEGIN
1070
    73
1070
     1
1070
    44
1040
1.0
1070
    74
1070
     0
1000
MTEXTEND
  0
MTEXT
  5
5636
330
1A
100
AcDbEntity
  8
SUNPOU
100
AcDbMText
 10
126982.6444882816
 20
114434.2102322673
 30
0.0
 40
10.5
 41
0.0
 71
     9
 72
     5
  1

1001
ACAD
1000
MTEXTBEGIN
1070
    73
1070
     1
1070
    44
1040
1.0
1070
    74
1070
     0
1000
MTEXTEND
  0
MTEXT
  5
5637
330
1A
100
AcDbEntity
  8
SUNPOU
100
AcDbMText
 10
128926.051734991
 20
112633.1611523893
 30
0.0
 40
3.5
 41
0.0
 71
     9
 72
     5
  1

1001
ACAD
1000
MTEXTBEGIN
1070
    73
1070
     1
1070
    44
1040
1.0
1070
    74
1070
     0
1000
MTEXTEND
  0
MTEXT
  5
5638
330
1A
100
AcDbEntity
  8
SUNPOU
100
AcDbMText
 10
77422.91219407717
 20
60267.37538724244
 30
0.0
 40
10.5
 41
0.0
 71
     9
 72
     5
  1

1001
ACAD
1000
MTEXTBEGIN
1070
    73
1070
     1
1070
    44
1040
1.0
1070
    74
1070
     0
1000
MTEXTEND
  0
MTEXT
  5
5639
330
1A
100
AcDbEntity
  8
SUNPOU
100
AcDbMText
 10
63474.91209370119
 20
41094.97624813023
 30
0.0
 40
3.5
 41
0.0
 71
     7
 72
     5
  1

1001
ACAD
1000
MTEXTBEGIN
1070
    73
1070
     1
1070
    44
1040
1.0
1070
    74
1070
     0
1000
MTEXTEND
  0
MTEXT
  5
563A
330
1A
100
AcDbEntity
  8
SUNPOU
100
AcDbMText
 10
48117.65086229006
 20
40806.11043916631
 30
0.0
 40
10.5
 41
0.0
 71
     9
 72
     5
  1

1001
ACAD
1000
MTEXTBEGIN
1070
    73
1070
     1
1070
    44
1040
1.0
1070
    74
1070
     0
1000
MTEXTEND
  0
MTEXT
  5
563B
330
1A
100
AcDbEntity
  8
SUNPOU
100
AcDbMText
 10
67071.40957962004
 20
58272.68649165838
 30
0.0
 40
10.5
 41
0.0
 71
     9
 72
     5
  1

1001
ACAD
1000
MTEXTBEGIN
1070
    73
1070
     1
1070
    44
1040
1.0
1070
    74
1070
     0
1000
MTEXTEND
  0
MTEXT
  5
563C
330
1A
100
AcDbEntity
  8
SUNPOU
100
AcDbMText
 10
69014.81682632945
 20
56471.63741178035
 30
0.0
 40
3.5
 41
0.0
 71
     9
 72
     5
  1

1001
ACAD
1000
MTEXTBEGIN
1070
    73
1070
     1
1070
    44
1040
1.0
1070
    74
1070
     0
1000
MTEXTEND
  0
MTEXT
  5
563D
330
1A
100
AcDbEntity
  8
SUNPOU
100
AcDbMText
 10
100140.9966589491
 20
98966.58307943773
 30
0.0
 40
10.5
 41
0.0
 71
     9
 72
     5
  1

1001
ACAD
1000
MTEXTBEGIN
1070
    73
1070
     1
1070
    44
1040
1.0
1070
    74
1070
     0
1000
MTEXTEND
  0
MTEXT
  5
563E
330
1A
100
AcDbEntity
  8
SUNPOU
100
AcDbMText
 10
102084.4039056586
 20
97165.53399955968
 30
0.0
 40
3.5
 41
0.0
 71
     9
 72
     5
  1

1001
ACAD
1000
MTEXTBEGIN
1070
    73
1070
     1
1070
    44
1040
1.0
1070
    74
1070
     0
1000
MTEXTEND
  0
MTEXT
  5
563F
330
1A
100
AcDbEntity
  8
SUNPOU
100
AcDbMText
 10
50581.26436474472
 20
44799.74823441275
 30
0.0
 40
10.5
 41
0.0
 71
     9
 72
     5
  1

1001
ACAD
1000
MTEXTBEGIN
1070
    73
1070
     1
1070
    44
1040
1.0
1070
    74
1070
     0
1000
MTEXTEND
  0
MTEXT
  5
5640
330
1A
100
AcDbEntity
  8
SUNPOU
100
AcDbMText
 10
36633.26426436873
 20
25627.34909530054
 30
0.0
 40
3.5
 41
0.0
 71
     7
 72
     5
  1

1001
ACAD
1000
MTEXTBEGIN
1070
    73
1070
     1
1070
    44
1040
1.0
1070
    74
1070
     0
1000
MTEXTEND
  0
MTEXT
  5
5641
330
1A
100
AcDbEntity
  8
SUNPOU
100
AcDbMText
 10
61069.42493315968
 20
52574.61207825771
 30
0.0
 40
10.5
 41
0.0
 71
     9
 72
     5
  1

1001
ACAD
1000
MTEXTBEGIN
1070
    73
1070
     1
1070
    44
1040
1.0
1070
    74
1070
     0
1000
MTEXTEND
  0
MTEXT
  5
5642
330
1A
100
AcDbEntity
  8
SUNPOU
100
AcDbMText
 10
80023.18365048967
 20
70041.18813074978
 30
0.0
 40
10.5
 41
0.0
 71
     9
 72
     5
  1

1001
ACAD
1000
MTEXTBEGIN
1070
    73
1070
     1
1070
    44
1040
1.0
1070
    74
1070
     0
1000
MTEXTEND
  0
MTEXT
  5
5643
330
1A
100
AcDbEntity
  8
SUNPOU
100
AcDbMText
 10
81966.59089719908
 20
68240.13905087176
 30
0.0
 40
3.5
 41
0.0
 71
     9
 72
     5
  1

1001
ACAD
1000
MTEXTBEGIN
1070
    73
1070
     1
1070
    44
1040
1.0
1070
    74
1070
     0
1000
MTEXTEND
  0
MTEXT
  5
5644
330
1A
100
AcDbEntity
  8
SUNPOU
100
AcDbMText
 10
113092.7707298186
 20
110735.0847185291
 30
0.0
 40
10.5
 41
0.0
 71
     9
 72
     5
  1

1001
ACAD
1000
MTEXTBEGIN
1070
    73
1070
     1
1070
    44
1040
1.0
1070
    74
1070
     0
1000
MTEXTEND
  0
MTEXT
  5
5645
330
1A
100
AcDbEntity
  8
SUNPOU
100
AcDbMText
 10
115036.1779765282
 20
108934.0356386511
 30
0.0
 40
3.5
 41
0.0
 71
     9
 72
     5
  1

1001
ACAD
1000
MTEXTBEGIN
1070
    73
1070
     1
1070
    44
1040
1.0
1070
    74
1070
     0
1000
MTEXTEND
  0
MTEXT
  5
5646
330
1A
100
AcDbEntity
  8
SUNPOU
100
AcDbMText
 10
63533.03843561432
 20
56568.24987350415
 30
0.0
 40
10.5
 41
0.0
 71
     9
 72
     5
  1

1001
ACAD
1000
MTEXTBEGIN
1070
    73
1070
     1
1070
    44
1040
1.0
1070
    74
1070
     0
1000
MTEXTEND
  0
MTEXT
  5
5647
330
1A
100
AcDbEntity
  8
SUNPOU
100
AcDbMText
 10
49585.03833523835
 20
37395.85073439196
 30
0.0
 40
3.5
 41
0.0
 71
     7
 72
     5
  1

1001
ACAD
1000
MTEXTBEGIN
1070
    73
1070
     1
1070
    44
1040
1.0
1070
    74
1070
     0
1000
MTEXTEND
  0
MTEXT
  5
5648
330
1A
100
AcDbEntity
  8
SUNPOU
100
AcDbMText
 10
77137.31641337052
 20
70907.11375048141
 30
0.0
 40
10.5
 41
0.0
 71
     9
 72
     5
  1

1001
ACAD
1000
MTEXTBEGIN
1070
    73
1070
     1
1070
    44
1040
1.0
1070
    74
1070
     0
1000
MTEXTEND
  0
MTEXT
  5
5649
330
1A
100
AcDbEntity
  8
SUNPOU
100
AcDbMText
 10
79080.72366007995
 20
69106.06467060339
 30
0.0
 40
3.5
 41
0.0
 71
     9
 72
     5
  1

1001
ACAD
1000
MTEXTBEGIN
1070
    73
1070
     1
1070
    44
1040
1.0
1070
    74
1070
     0
1000
MTEXTEND
  0
MTEXT
  5
564A
330
1A
100
AcDbEntity
  8
SUNPOU
100
AcDbMText
 10
110206.9034926996
 20
111601.0103382607
 30
0.0
 40
10.5
 41
0.0
 71
     9
 72
     5
  1

1001
ACAD
1000
MTEXTBEGIN
1070
    73
1070
     1
1070
    44
1040
1.0
1070
    74
1070
     0
1000
MTEXTEND
  0
MTEXT
  5
564B
330
1A
100
AcDbEntity
  8
SUNPOU
100
AcDbMText
 10
112150.310739409
 20
109799.9612583826
 30
0.0
 40
3.5
 41
0.0
 71
     9
 72
     5
  1

1001
ACAD
1000
MTEXTBEGIN
1070
    73
1070
     1
1070
    44
1040
1.0
1070
    74
1070
     0
1000
MTEXTEND
  0
MTEXT
  5
564C
330
1A
100
AcDbEntity
  8
SUNPOU
100
AcDbMText
 10
108819.1333204967
 20
110677.9087286761
 30
0.0
 40
10.5
 41
0.0
 71
     9
 72
     5
  1

1001
ACAD
1000
MTEXTBEGIN
1070
    73
1070
     1
1070
    44
1040
1.0
1070
    74
1070
     0
1000
MTEXTEND
  0
MTEXT
  5
564D
330
1A
100
AcDbEntity
  8
SUNPOU
100
AcDbMText
 10
110762.5405672062
 20
108876.8596487981
 30
0.0
 40
3.5
 41
0.0
 71
     9
 72
     5
  1

1001
ACAD
1000
MTEXTBEGIN
1070
    73
1070
     1
1070
    44
1040
1.0
1070
    74
1070
     0
1000
MTEXTEND
  0
MTEXT
  5
564E
330
1A
100
AcDbEntity
  8
SUNPOU
100
AcDbMText
 10
76303.05507956816
 20
68695.31179059812
 30
0.0
 40
10.5
 41
0.0
 71
     9
 72
     5
  1

1001
ACAD
1000
MTEXTBEGIN
1070
    73
1070
     1
1070
    44
1040
1.0
1070
    74
1070
     0
1000
MTEXTEND
  0
MTEXT
  5
564F
330
1A
100
AcDbEntity
  8
SUNPOU
100
AcDbMText
 10
79026.36128373271
 20
69099.99348217918
 30
0.0
 40
3.5
 41
0.0
 71
     9
 72
     5
  1

1001
ACAD
1000
MTEXTBEGIN
1070
    73
1070
     1
1070
    44
1040
1.0
1070
    74
1070
     0
1000
MTEXTEND
  0
MTEXT
  5
5650
330
1A
100
AcDbEntity
  8
SUNPOU
100
AcDbMText
 10
78234.00675862522
 20
65938.68764412436
 30
0.0
 40
10.5
 41
0.0
 71
     9
 72
     5
  1

1001
ACAD
1000
MTEXTBEGIN
1070
    73
1070
     1
1070
    44
1040
1.0
1070
    74
1070
     0
1000
MTEXTEND
  0
MTEXT
  5
5651
330
1A
100
AcDbEntity
  8
SUNPOU
100
AcDbMText
 10
80177.41400533465
 20
64137.63856424636
 30
0.0
 40
3.5
 41
0.0
 71
     9
 72
     5
  1

1001
ACAD
1000
MTEXTBEGIN
1070
    73
1070
     1
1070
    44
1040
1.0
1070
    74
1070
     0
1000
MTEXTEND
  0
MTEXT
  5
5652
330
1A
100
AcDbEntity
  8
SUNPOU
100
AcDbMText
 10
80122.50949592122
 20
64024.86668196204
 30
0.0
 40
3.5
 41
0.0
 71
     9
 72
     5
  1

1001
ACAD
1000
MTEXTBEGIN
1070
    73
1070
     1
1070
    44
1040
1.0
1070
    74
1070
     0
1000
MTEXTEND
  0
MTEXT
  5
5653
330
1A
100
AcDbEntity
  8
SUNPOU
100
AcDbMText
 10
79486.58135950133
 20
63213.54544089553
 30
0.0
 40
3.5
 41
0.0
 71
     9
 72
     5
  1

1001
ACAD
1000
MTEXTBEGIN
1070
    73
1070
     1
1070
    44
1040
1.0
1070
    74
1070
     0
1000
MTEXTEND
  0
MTEXT
  5
5654
330
1A
100
AcDbEntity
  8
SUNPOU
100
AcDbMText
 10
79485.3409400806
 20
63213.29746395804
 30
0.0
 40
10.5
 41
0.0
 71
     9
 72
     5
  1

1001
ACAD
1000
MTEXTBEGIN
1070
    73
1070
     1
1070
    44
1040
1.0
1070
    74
1070
     0
1000
MTEXTEND
  0
MTEXT
  5
5655
330
1A
100
AcDbEntity
  8
SUNPOU
100
AcDbMText
 10
85473.63363627567
 20
80747.76348077064
 30
0.0
 40
10.5
 41
0.0
 71
     9
 72
     5
  1

1001
ACAD
1000
MTEXTBEGIN
1070
    73
1070
     1
1070
    44
1040
1.0
1070
    74
1070
     0
1000
MTEXTEND
  0
MTEXT
  5
5656
330
1A
100
AcDbEntity
  8
SUNPOU
100
AcDbMText
 10
94195.80120219368
 20
88163.59801230808
 30
0.0
 40
10.5
 41
0.0
 71
     9
 72
     5
  1

1001
ACAD
1000
MTEXTBEGIN
1070
    73
1070
     1
1070
    44
1040
1.0
1070
    74
1070
     0
1000
MTEXTEND
  0
MTEXT
  5
5657
330
1A
100
AcDbEntity
  8
SUNPOU
100
AcDbMText
 10
113149.5599195236
 20
105630.1740648001
 30
0.0
 40
10.5
 41
0.0
 71
     9
 72
     5
  1

1001
ACAD
1000
MTEXTBEGIN
1070
    73
1070
     1
1070
    44
1040
1.0
1070
    74
1070
     0
1000
MTEXTEND
  0
MTEXT
  5
5658
330
1A
100
AcDbEntity
  8
SUNPOU
100
AcDbMText
 10
115092.967166233
 20
103829.1249849221
 30
0.0
 40
3.5
 41
0.0
 71
     9
 72
     5
  1

1001
ACAD
1000
MTEXTBEGIN
1070
    73
1070
     1
1070
    44
1040
1.0
1070
    74
1070
     0
1000
MTEXTEND
  0
MTEXT
  5
5659
330
1A
100
AcDbEntity
  8
SUNPOU
100
AcDbMText
 10
146219.1469988527
 20
146324.0706525794
 30
0.0
 40
10.5
 41
0.0
 71
     9
 72
     5
  1

1001
ACAD
1000
MTEXTBEGIN
1070
    73
1070
     1
1070
    44
1040
1.0
1070
    74
1070
     0
1000
MTEXTEND
  0
MTEXT
  5
565A
330
1A
100
AcDbEntity
  8
SUNPOU
100
AcDbMText
 10
148162.5542455621
 20
144523.0215727014
 30
0.0
 40
3.5
 41
0.0
 71
     9
 72
     5
  1

1001
ACAD
1000
MTEXTBEGIN
1070
    73
1070
     1
1070
    44
1040
1.0
1070
    74
1070
     0
1000
MTEXTEND
  0
MTEXT
  5
565B
330
1A
100
AcDbEntity
  8
SUNPOU
100
AcDbMText
 10
96659.41470464833
 20
92157.23580755453
 30
0.0
 40
10.5
 41
0.0
 71
     9
 72
     5
  1

1001
ACAD
1000
MTEXTBEGIN
1070
    73
1070
     1
1070
    44
1040
1.0
1070
    74
1070
     0
1000
MTEXTEND
  0
MTEXT
  5
565C
330
1A
100
AcDbEntity
  8
SUNPOU
100
AcDbMText
 10
82711.41460427234
 20
72984.83666844234
 30
0.0
 40
3.5
 41
0.0
 71
     7
 72
     5
  1

1001
ACAD
1000
MTEXTBEGIN
1070
    73
1070
     1
1070
    44
1040
1.0
1070
    74
1070
     0
1000
MTEXTEND
  0
MTEXT
  5
565D
330
1A
100
AcDbEntity
  8
SUNPOU
100
AcDbMText
 10
63696.58400126548
 20
60746.98539926055
 30
0.0
 40
10.5
 41
0.0
 71
     7
 72
     5
  1

1001
ACAD
1000
MTEXTBEGIN
1070
    73
1070
     1
1070
    44
1040
1.0
1070
    74
1070
     0
1000
MTEXTEND
  0
MTEXT
  5
565E
330
1A
100
AcDbEntity
  8
SUNPOU
100
AcDbMText
 10
51239.35573631738
 20
44902.05382116213
 30
0.0
 40
35.0
 41
0.0
 71
     9
 72
     5
  1

1001
ACAD
1000
MTEXTBEGIN
1070
    73
1070
     1
1070
    44
1040
1.0
1070
    74
1070
     0
1000
MTEXTEND
  0
MTEXT
  5
565F
330
1A
100
AcDbEntity
  8
SUNPOU
100
AcDbMText
 10
50147.84079389233
 20
45510.82923121084
 30
0.0
 40
350.0000004171781
 41
0.0
 71
     7
 72
     5
  1

1001
ACAD
1000
MTEXTBEGIN
1070
    73
1070
     1
1070
    44
1040
1.0
1070
    74
1070
     0
1000
MTEXTEND
  0
MTEXT
  5
5660
330
1A
100
AcDbEntity
  8
0
100
AcDbMText
 10
56191.79155183523
 20
43490.75159334705
 30
0.0
 40
8.0
 41
0.0
 71
     7
 72
     5
  1

1001
ACAD
1000
MTEXTBEGIN
1070
    73
1070
     1
1070
    44
1040
1.0
1070
    74
1070
     0
1000
MTEXTEND
  0
MTEXT
  5
5661
330
1A
100
AcDbEntity
  8
0
100
AcDbMText
 10
58477.14924173012
 20
44461.54188809812
 30
0.0
 40
8.0
 41
0.0
 71
     7
 72
     5
  1

1001
ACAD
1000
MTEXTBEGIN
1070
    73
1070
     1
1070
    44
1040
1.0
1070
    74
1070
     0
1000
MTEXTEND
  0
MTEXT
  5
5662
330
1A
100
AcDbEntity
  8
SUNPOU
100
AcDbMText
 10
61143.04626241227
 20
53973.65328047324
 30
0.0
 40
10.5
 41
0.0
 71
     1
 72
     5
  1

1001
ACAD
1000
MTEXTBEGIN
1070
    73
1070
     1
1070
    44
1040
1.0
1070
    74
1070
     0
1000
MTEXTEND
  0
MTEXT
  5
5663
330
1A
100
AcDbEntity
  8
SUNPOU
100
AcDbMText
 10
53212.12306647633
 20
53026.86014656028
 30
0.0
 40
10.5
 41
0.0
 71
     7
 72
     5
  1

1001
ACAD
1000
MTEXTBEGIN
1070
    73
1070
     1
1070
    44
1040
1.0
1070
    74
1070
     0
1000
MTEXTEND
  0
MTEXT
  5
5664
330
1A
100
AcDbEntity
  8
SUNPOU
100
AcDbMText
 10
56161.10673098909
 20
57927.53621840312
 30
0.0
 40
10.5
 41
0.0
 71
     7
 72
     5
  1

1001
ACAD
1000
MTEXTBEGIN
1070
    73
1070
     1
1070
    44
1040
1.0
1070
    74
1070
     0
1000
MTEXTEND
  0
MTEXT
  5
5665
330
1A
100
AcDbEntity
  8
SUNPOU
100
AcDbMText
 10
60670.18485893966
 20
60363.8369660232
 30
0.0
 40
10.5
 41
0.0
 71
     7
 72
     5
  1

1001
ACAD
1000
MTEXTBEGIN
1070
    73
1070
     1
1070
    44
1040
1.0
1070
    74
1070
     0
1000
MTEXTEND
  0
MTEXT
  5
5666
330
1A
100
AcDbEntity
  8
SUNPOU
100
AcDbMText
 10
44271.02274570799
 20
39361.43311641211
 30
0.0
 40
10.5
 41
0.0
 71
     7
 72
     5
  1

1001
ACAD
1000
MTEXTBEGIN
1070
    73
1070
     1
1070
    44
1040
1.0
1070
    74
1070
     0
1000
MTEXTEND
  0
MTEXT
  5
5667
330
1A
100
AcDbEntity
  8
SUNPOU
100
AcDbMText
 10
95462.54117960824
 20
85034.41368006038
 30
0.0
 40
10.5
 41
0.0
 71
     9
 72
     5
  1

1001
ACAD
1000
MTEXTBEGIN
1070
    73
1070
     1
1070
    44
1040
1.0
1070
    74
1070
     0
1000
MTEXTEND
  0
MTEXT
  5
5668
330
1A
100
AcDbEntity
  8
SUNPOU
100
AcDbMText
 10
104184.7087455262
 20
92450.24821159784
 30
0.0
 40
10.5
 41
0.0
 71
     9
 72
     5
  1

1001
ACAD
1000
MTEXTBEGIN
1070
    73
1070
     1
1070
    44
1040
1.0
1070
    74
1070
     0
1000
MTEXTEND
  0
MTEXT
  5
5669
330
1A
100
AcDbEntity
  8
SUNPOU
100
AcDbMText
 10
123138.4674628562
 20
109916.8242640898
 30
0.0
 40
10.5
 41
0.0
 71
     9
 72
     5
  1

1001
ACAD
1000
MTEXTBEGIN
1070
    73
1070
     1
1070
    44
1040
1.0
1070
    74
1070
     0
1000
MTEXTEND
  0
MTEXT
  5
566A
330
1A
100
AcDbEntity
  8
SUNPOU
100
AcDbMText
 10
125081.8747095656
 20
108115.7751842118
 30
0.0
 40
3.5
 41
0.0
 71
     9
 72
     5
  1

1001
ACAD
1000
MTEXTBEGIN
1070
    73
1070
     1
1070
    44
1040
1.0
1070
    74
1070
     0
1000
MTEXTEND
  0
MTEXT
  5
566B
330
1A
100
AcDbEntity
  8
SUNPOU
100
AcDbMText
 10
156208.0545421853
 20
150610.7208518691
 30
0.0
 40
10.5
 41
0.0
 71
     9
 72
     5
  1

1001
ACAD
1000
MTEXTBEGIN
1070
    73
1070
     1
1070
    44
1040
1.0
1070
    74
1070
     0
1000
MTEXTEND
  0
MTEXT
  5
566C
330
1A
100
AcDbEntity
  8
SUNPOU
100
AcDbMText
 10
158151.4617888947
 20
148809.6717719911
 30
0.0
 40
3.5
 41
0.0
 71
     9
 72
     5
  1

1001
ACAD
1000
MTEXTBEGIN
1070
    73
1070
     1
1070
    44
1040
1.0
1070
    74
1070
     0
1000
MTEXTEND
  0
MTEXT
  5
566D
330
1A
100
AcDbEntity
  8
SUNPOU
100
AcDbMText
 10
106648.3222479809
 20
96443.88600684427
 30
0.0
 40
10.5
 41
0.0
 71
     9
 72
     5
  1

1001
ACAD
1000
MTEXTBEGIN
1070
    73
1070
     1
1070
    44
1040
1.0
1070
    74
1070
     0
1000
MTEXTEND
  0
MTEXT
  5
566E
330
1A
100
AcDbEntity
  8
SUNPOU
100
AcDbMText
 10
92700.3221476049
 20
77271.48686773207
 30
0.0
 40
3.5
 41
0.0
 71
     7
 72
     5
  1

1001
ACAD
1000
MTEXTBEGIN
1070
    73
1070
     1
1070
    44
1040
1.0
1070
    74
1070
     0
1000
MTEXTEND
  0
MTEXT
  5
566F
330
1A
100
AcDbEntity
  8
SUNPOU
100
AcDbMText
 10
73685.49154459807
 20
65033.63559855027
 30
0.0
 40
10.5
 41
0.0
 71
     7
 72
     5
  1

1001
ACAD
1000
MTEXTBEGIN
1070
    73
1070
     1
1070
    44
1040
1.0
1070
    74
1070
     0
1000
MTEXTEND
  0
MTEXT
  5
5670
330
1A
100
AcDbEntity
  8
SUNPOU
100
AcDbMText
 10
61228.26327964995
 20
49188.70402045184
 30
0.0
 40
35.0
 41
0.0
 71
     9
 72
     5
  1

1001
ACAD
1000
MTEXTBEGIN
1070
    73
1070
     1
1070
    44
1040
1.0
1070
    74
1070
     0
1000
MTEXTEND
  0
MTEXT
  5
5671
330
1A
100
AcDbEntity
  8
SUNPOU
100
AcDbMText
 10
60136.74833722491
 20
49797.47943050056
 30
0.0
 40
350.0000004171781
 41
0.0
 71
     7
 72
     5
  1

1001
ACAD
1000
MTEXTBEGIN
1070
    73
1070
     1
1070
    44
1040
1.0
1070
    74
1070
     0
1000
MTEXTEND
  0
MTEXT
  5
5672
330
1A
100
AcDbEntity
  8
0
100
AcDbMText
 10
66180.69909516782
 20
47777.40179263677
 30
0.0
 40
8.0
 41
0.0
 71
     7
 72
     5
  1

1001
ACAD
1000
MTEXTBEGIN
1070
    73
1070
     1
1070
    44
1040
1.0
1070
    74
1070
     0
1000
MTEXTEND
  0
MTEXT
  5
5673
330
1A
100
AcDbEntity
  8
0
100
AcDbMText
 10
68466.05678506271
 20
48748.19208738784
 30
0.0
 40
8.0
 41
0.0
 71
     7
 72
     5
  1

1001
ACAD
1000
MTEXTBEGIN
1070
    73
1070
     1
1070
    44
1040
1.0
1070
    74
1070
     0
1000
MTEXTEND
  0
MTEXT
  5
5674
330
1A
100
AcDbEntity
  8
SUNPOU
100
AcDbMText
 10
71131.95380574485
 20
58260.30347976296
 30
0.0
 40
10.5
 41
0.0
 71
     1
 72
     5
  1

1001
ACAD
1000
MTEXTBEGIN
1070
    73
1070
     1
1070
    44
1040
1.0
1070
    74
1070
     0
1000
MTEXTEND
  0
MTEXT
  5
5675
330
1A
100
AcDbEntity
  8
SUNPOU
100
AcDbMText
 10
63201.03060980891
 20
57313.51034585003
 30
0.0
 40
10.5
 41
0.0
 71
     7
 72
     5
  1

1001
ACAD
1000
MTEXTBEGIN
1070
    73
1070
     1
1070
    44
1040
1.0
1070
    74
1070
     0
1000
MTEXTEND
  0
MTEXT
  5
5676
330
1A
100
AcDbEntity
  8
SUNPOU
100
AcDbMText
 10
66150.01427432169
 20
62214.18641769286
 30
0.0
 40
10.5
 41
0.0
 71
     7
 72
     5
  1

1001
ACAD
1000
MTEXTBEGIN
1070
    73
1070
     1
1070
    44
1040
1.0
1070
    74
1070
     0
1000
MTEXTEND
  0
MTEXT
  5
5677
330
1A
100
AcDbEntity
  8
SUNPOU
100
AcDbMText
 10
70659.09240227225
 20
64650.48716531294
 30
0.0
 40
10.5
 41
0.0
 71
     7
 72
     5
  1

1001
ACAD
1000
MTEXTBEGIN
1070
    73
1070
     1
1070
    44
1040
1.0
1070
    74
1070
     0
1000
MTEXTEND
  0
MTEXT
  5
5678
330
1A
100
AcDbEntity
  8
SUNPOU
100
AcDbMText
 10
54259.93028904056
 20
43648.08331570185
 30
0.0
 40
10.5
 41
0.0
 71
     7
 72
     5
  1

1001
ACAD
1000
MTEXTBEGIN
1070
    73
1070
     1
1070
    44
1040
1.0
1070
    74
1070
     0
1000
MTEXTEND
  0
MTEXT
  5
5679
330
1A
100
AcDbEntity
  8
SUNPOU
100
AcDbMText
 10
56070.69320041551
 20
49975.4973031804
 30
0.0
 40
10.5
 41
0.0
 71
     9
 72
     5
  1

1001
ACAD
1000
MTEXTBEGIN
1070
    73
1070
     1
1070
    44
1040
1.0
1070
    74
1070
     0
1000
MTEXTEND
  0
MTEXT
  5
567A
330
1A
100
AcDbEntity
  8
SUNPOU
100
AcDbMText
 10
64792.86076633347
 20
57391.33183471787
 30
0.0
 40
10.5
 41
0.0
 71
     9
 72
     5
  1

1001
ACAD
1000
MTEXTBEGIN
1070
    73
1070
     1
1070
    44
1040
1.0
1070
    74
1070
     0
1000
MTEXTEND
  0
MTEXT
  5
567B
330
1A
100
AcDbEntity
  8
SUNPOU
100
AcDbMText
 10
83746.61948366345
 20
74857.90788720994
 30
0.0
 40
10.5
 41
0.0
 71
     9
 72
     5
  1

1001
ACAD
1000
MTEXTBEGIN
1070
    73
1070
     1
1070
    44
1040
1.0
1070
    74
1070
     0
1000
MTEXTEND
  0
MTEXT
  5
567C
330
1A
100
AcDbEntity
  8
SUNPOU
100
AcDbMText
 10
85690.02673037287
 20
73056.85880733192
 30
0.0
 40
3.5
 41
0.0
 71
     9
 72
     5
  1

1001
ACAD
1000
MTEXTBEGIN
1070
    73
1070
     1
1070
    44
1040
1.0
1070
    74
1070
     0
1000
MTEXTEND
  0
MTEXT
  5
567D
330
1A
100
AcDbEntity
  8
SUNPOU
100
AcDbMText
 10
116816.2065629925
 20
115551.8044749892
 30
0.0
 40
10.5
 41
0.0
 71
     9
 72
     5
  1

1001
ACAD
1000
MTEXTBEGIN
1070
    73
1070
     1
1070
    44
1040
1.0
1070
    74
1070
     0
1000
MTEXTEND
  0
MTEXT
  5
567E
330
1A
100
AcDbEntity
  8
SUNPOU
100
AcDbMText
 10
118759.6138097019
 20
113750.7553951111
 30
0.0
 40
3.5
 41
0.0
 71
     9
 72
     5
  1

1001
ACAD
1000
MTEXTBEGIN
1070
    73
1070
     1
1070
    44
1040
1.0
1070
    74
1070
     0
1000
MTEXTEND
  0
MTEXT
  5
567F
330
1A
100
AcDbEntity
  8
SUNPOU
100
AcDbMText
 10
67256.47426878814
 20
61384.96962996432
 30
0.0
 40
10.5
 41
0.0
 71
     9
 72
     5
  1

1001
ACAD
1000
MTEXTBEGIN
1070
    73
1070
     1
1070
    44
1040
1.0
1070
    74
1070
     0
1000
MTEXTEND
  0
MTEXT
  5
5680
330
1A
100
AcDbEntity
  8
SUNPOU
100
AcDbMText
 10
53308.47416841216
 20
42212.57049085211
 30
0.0
 40
3.5
 41
0.0
 71
     7
 72
     5
  1

1001
ACAD
1000
MTEXTBEGIN
1070
    73
1070
     1
1070
    44
1040
1.0
1070
    74
1070
     0
1000
MTEXTEND
  0
MTEXT
  5
5681
330
1A
100
AcDbEntity
  8
SUNPOU
100
AcDbMText
 10
67000.82485118274
 20
51571.63371187344
 30
0.0
 40
10.5
 41
0.0
 71
     9
 72
     5
  1

1001
ACAD
1000
MTEXTBEGIN
1070
    73
1070
     1
1070
    44
1040
1.0
1070
    74
1070
     0
1000
MTEXTEND
  0
MTEXT
  5
5682
330
1A
100
AcDbEntity
  8
SUNPOU
100
AcDbMText
 10
75722.99241710071
 20
58987.46824341094
 30
0.0
 40
10.5
 41
0.0
 71
     9
 72
     5
  1

1001
ACAD
1000
MTEXTBEGIN
1070
    73
1070
     1
1070
    44
1040
1.0
1070
    74
1070
     0
1000
MTEXTEND
  0
MTEXT
  5
5683
330
1A
100
AcDbEntity
  8
SUNPOU
100
AcDbMText
 10
94676.75113443068
 20
76454.04429590299
 30
0.0
 40
10.5
 41
0.0
 71
     9
 72
     5
  1

1001
ACAD
1000
MTEXTBEGIN
1070
    73
1070
     1
1070
    44
1040
1.0
1070
    74
1070
     0
1000
MTEXTEND
  0
MTEXT
  5
5684
330
1A
100
AcDbEntity
  8
SUNPOU
100
AcDbMText
 10
96620.1583811401
 20
74652.99521602497
 30
0.0
 40
3.5
 41
0.0
 71
     9
 72
     5
  1

1001
ACAD
1000
MTEXTBEGIN
1070
    73
1070
     1
1070
    44
1040
1.0
1070
    74
1070
     0
1000
MTEXTEND
  0
MTEXT
  5
5685
330
1A
100
AcDbEntity
  8
SUNPOU
100
AcDbMText
 10
127746.3382137598
 20
117147.9408836822
 30
0.0
 40
10.5
 41
0.0
 71
     9
 72
     5
  1

1001
ACAD
1000
MTEXTBEGIN
1070
    73
1070
     1
1070
    44
1040
1.0
1070
    74
1070
     0
1000
MTEXTEND
  0
MTEXT
  5
5686
330
1A
100
AcDbEntity
  8
SUNPOU
100
AcDbMText
 10
129689.7454604692
 20
115346.8918038042
 30
0.0
 40
3.5
 41
0.0
 71
     9
 72
     5
  1

1001
ACAD
1000
MTEXTBEGIN
1070
    73
1070
     1
1070
    44
1040
1.0
1070
    74
1070
     0
1000
MTEXTEND
  0
MTEXT
  5
5687
330
1A
100
AcDbEntity
  8
SUNPOU
100
AcDbMText
 10
78186.60591955537
 20
62981.10603865737
 30
0.0
 40
10.5
 41
0.0
 71
     9
 72
     5
  1

1001
ACAD
1000
MTEXTBEGIN
1070
    73
1070
     1
1070
    44
1040
1.0
1070
    74
1070
     0
1000
MTEXTEND
  0
MTEXT
  5
5688
330
1A
100
AcDbEntity
  8
SUNPOU
100
AcDbMText
 10
64238.60581917939
 20
43808.70689954517
 30
0.0
 40
3.5
 41
0.0
 71
     7
 72
     5
  1

1001
ACAD
1000
MTEXTBEGIN
1070
    73
1070
     1
1070
    44
1040
1.0
1070
    74
1070
     0
1000
MTEXTEND
  0
MTEXT
  5
5689
330
1A
100
AcDbEntity
  8
SUNPOU
100
AcDbMText
 10
33428.13481137435
 20
32770.04710035563
 30
0.0
 40
10.5
 41
0.0
 71
     9
 72
     5
  1

1001
ACAD
1000
MTEXTBEGIN
1070
    73
1070
     1
1070
    44
1040
1.0
1070
    74
1070
     0
1000
MTEXTEND
  0
MTEXT
  5
568A
330
1A
100
AcDbEntity
  8
SUNPOU
100
AcDbMText
 10
52381.89352870431
 20
50236.62315284768
 30
0.0
 40
10.5
 41
0.0
 71
     9
 72
     5
  1

1001
ACAD
1000
MTEXTBEGIN
1070
    73
1070
     1
1070
    44
1040
1.0
1070
    74
1070
     0
1000
MTEXTEND
  0
MTEXT
  5
568B
330
1A
100
AcDbEntity
  8
SUNPOU
100
AcDbMText
 10
54325.30077541374
 20
48435.57407296968
 30
0.0
 40
3.5
 41
0.0
 71
     9
 72
     5
  1

1001
ACAD
1000
MTEXTBEGIN
1070
    73
1070
     1
1070
    44
1040
1.0
1070
    74
1070
     0
1000
MTEXTEND
  0
MTEXT
  5
568C
330
1A
100
AcDbEntity
  8
SUNPOU
100
AcDbMText
 10
85451.48060803342
 20
90930.51974062703
 30
0.0
 40
10.5
 41
0.0
 71
     9
 72
     5
  1

1001
ACAD
1000
MTEXTBEGIN
1070
    73
1070
     1
1070
    44
1040
1.0
1070
    74
1070
     0
1000
MTEXTEND
  0
MTEXT
  5
568D
330
1A
100
AcDbEntity
  8
SUNPOU
100
AcDbMText
 10
87394.88785474286
 20
89129.47066074901
 30
0.0
 40
3.5
 41
0.0
 71
     9
 72
     5
  1

1001
ACAD
1000
MTEXTBEGIN
1070
    73
1070
     1
1070
    44
1040
1.0
1070
    74
1070
     0
1000
MTEXTEND
  0
MTEXT
  5
568E
330
1A
100
AcDbEntity
  8
SUNPOU
100
AcDbMText
 10
35891.74831382901
 20
36763.68489560208
 30
0.0
 40
10.5
 41
0.0
 71
     9
 72
     5
  1

1001
ACAD
1000
MTEXTBEGIN
1070
    73
1070
     1
1070
    44
1040
1.0
1070
    74
1070
     0
1000
MTEXTEND
  0
MTEXT
  5
568F
330
1A
100
AcDbEntity
  8
SUNPOU
100
AcDbMText
 10
21943.74821345303
 20
17591.28575648985
 30
0.0
 40
3.5
 41
0.0
 71
     7
 72
     5
  1

1001
ACAD
1000
MTEXTBEGIN
1070
    73
1070
     1
1070
    44
1040
1.0
1070
    74
1070
     0
1000
MTEXTEND
  0
LINE
  5
1117D
330
1A
100
AcDbEntity
  8
ZISSEN1
100
AcDbLine
 10
-1451.856069378627
 20
1544.880330920946
 30
0.0
 11
-1451.856069378627
 21
1558.873220920946
 31
0.0
  0
LINE
  5
1117E
330
1A
100
AcDbEntity
  8
ZISSEN1
100
AcDbLine
 10
-1514.856079378627
 20
1546.423240920946
 30
0.0
 11
-1514.856079378627
 21
1577.923240920946
 31
0.0
  0
LINE
  5
1117F
330
1A
100
AcDbEntity
  8
ZISSEN1
100
AcDbLine
 10
-1510.856059378626
 20
1546.423240920946
 30
0.0
 11
-1510.856059378626
 21
1577.923240920946
 31
0.0
  0
LINE
  5
11180
330
1A
100
AcDbEntity
  8
ZISSEN1
100
AcDbLine
 10
-1514.856069378627
 20
1539.173230920946
 30
0.0
 11
-1514.856069378627
 21
1622.173230920946
 31
0.0
  0
LINE
  5
11181
330
1A
100
AcDbEntity
  8
ZISSEN1
100
AcDbLine
 10
-1517.856059378626
 20
1622.173230920946
 30
0.0
 11
-1517.856059378626
 21
1539.173230920946
 31
0.0
  0
LINE
  5
11183
330
1A
100
AcDbEntity
  8
ZISSEN1
100
AcDbLine
 10
-1514.856069378627
 20
1502.575270920946
 30
0.0
 11
-1451.856069378627
 21
1502.575270920946
 31
0.0
  0
LINE
  5
11184
330
1A
100
AcDbEntity
  8
ZISSEN1
100
AcDbLine
 10
-1514.856069378627
 20
1500.975270920946
 30
0.0
 11
-1451.856069378627
 21
1500.975270920946
 31
0.0
  0
LINE
  5
11185
330
1A
100
AcDbEntity
  8
ZISSEN1
100
AcDbLine
 10
-1452.563179378627
 20
1544.173220920946
 30
0.0
 11
-1514.856069378627
 21
1544.173220920946
 31
0.0
  0
LINE
  5
11186
330
1A
100
AcDbEntity
  8
ZISSEN1
100
AcDbLine
 10
-1517.148949378627
 20
1494.775270920946
 30
0.0
 11
-1451.856069378627
 21
1494.775270920946
 31
0.0
  0
LINE
  5
11187
330
1A
100
AcDbEntity
  8
ZISSEN1
100
AcDbLine
 10
-1451.856069378627
 20
1497.775280920946
 30
0.0
 11
-1517.856059378626
 21
1497.775280920946
 31
0.0
  0
LINE
  5
11188
330
1A
100
AcDbEntity
  8
ZISSEN1
100
AcDbLine
 10
-1517.856059378626
 20
1495.482380920946
 30
0.0
 11
-1517.856059378626
 21
1518.775280920946
 31
0.0
  0
LINE
  5
11189
330
1A
100
AcDbEntity
  8
ZISSEN1
100
AcDbLine
 10
-1514.856069378627
 20
1518.775280920946
 30
0.0
 11
-1514.856069378627
 21
1497.775280920946
 31
0.0
  0
LINE
  5
1118A
330
1A
100
AcDbEntity
  8
ZISSEN1
100
AcDbLine
 10
-1517.148949378627
 20
1494.775270920946
 30
0.0
 11
-1517.856059378626
 21
1495.482380920946
 31
0.0
  0
LINE
  5
1118B
330
1A
100
AcDbEntity
  8
CL1
100
AcDbLine
 10
-1520.856059378627
 20
1508.275280920946
 30
0.0
 11
-1512.856059378627
 21
1508.275280920946
 31
0.0
  0
LINE
  5
1118C
330
1A
100
AcDbEntity
  8
CL1
100
AcDbLine
 10
-1512.856059378627
 20
1542.173210920946
 30
0.0
 11
-1520.856059378627
 21
1542.173210920946
 31
0.0
  0
LINE
  5
1118D
330
1A
100
AcDbEntity
  8
ZISSEN1
100
AcDbLine
 10
-1507.856079378627
 20
1507.775270920946
 30
0.0
 11
-1507.856079378627
 21
1518.275280920946
 31
0.0
  0
LINE
  5
1118E
330
1A
100
AcDbEntity
  8
ZISSEN1
100
AcDbLine
 10
-1510.856079378627
 20
1507.775270920946
 30
0.0
 11
-1510.856079378627
 21
1518.275280920946
 31
0.0
  0
LINE
  5
1118F
330
1A
100
AcDbEntity
  8
ZISSEN1
100
AcDbLine
 10
-1514.856069378627
 20
1507.775270920946
 30
0.0
 11
-1514.856069378627
 21
1518.275280920946
 31
0.0
  0
LINE
  5
11190
330
1A
100
AcDbEntity
  8
ZISSEN1
100
AcDbLine
 10
-1510.856079378627
 20
1507.775270920946
 30
0.0
 11
-1507.856079378627
 21
1507.775270920946
 31
0.0
  0
LINE
  5
11191
330
1A
100
AcDbEntity
  8
ZISSEN1
100
AcDbLine
 10
-1510.856079378627
 20
1507.775270920946
 30
0.0
 11
-1514.856069378627
 21
1507.775270920946
 31
0.0
  0
LINE
  5
11192
330
1A
100
AcDbEntity
  8
ZISSEN1
100
AcDbLine
 10
-1510.856079378627
 20
1518.775280920946
 30
0.0
 11
-1507.856079378627
 21
1518.775280920946
 31
0.0
  0
LINE
  5
11193
330
1A
100
AcDbEntity
  8
ZISSEN1
100
AcDbLine
 10
-1510.856079378627
 20
1518.275280920946
 30
0.0
 11
-1514.856069378627
 21
1518.275280920946
 31
0.0
  0
LINE
  5
11194
330
1A
100
AcDbEntity
  8
ZISSEN1
100
AcDbLine
 10
-1514.856069378627
 20
1518.065270920946
 30
0.0
 11
-1517.856059378626
 21
1518.065270920946
 31
0.0
  0
LINE
  5
11195
330
1A
100
AcDbEntity
  8
ZISSEN1
100
AcDbLine
 10
-1514.856069378627
 20
1518.775280920946
 30
0.0
 11
-1517.856059378626
 21
1518.775280920946
 31
0.0
  0
LINE
  5
11196
330
1A
100
AcDbEntity
  8
ZISSEN1
100
AcDbLine
 10
-1510.856079378627
 20
1518.275280920946
 30
0.0
 11
-1510.856079378627
 21
1518.775280920946
 31
0.0
  0
LINE
  5
11197
330
1A
100
AcDbEntity
  8
ZISSEN1
100
AcDbLine
 10
-1507.856079378627
 20
1518.275280920946
 30
0.0
 11
-1507.856079378627
 21
1518.775280920946
 31
0.0
  0
LINE
  5
11198
330
1A
100
AcDbEntity
  8
ZISSEN1
100
AcDbLine
 10
-1486.056089378627
 20
1513.875323896729
 30
0.0
 11
-1486.056089378627
 21
1502.575270920946
 31
0.0
  0
LINE
  5
11199
330
1A
100
AcDbEntity
  8
ZISSEN1
100
AcDbLine
 10
-1514.856069378627
 20
1539.173230920946
 30
0.0
 11
-1517.856059378626
 21
1539.173230920946
 31
0.0
  0
LINE
  5
1119A
330
1A
100
AcDbEntity
  8
ZISSEN1
100
AcDbLine
 10
-1514.856049378627
 20
1539.880330920946
 30
0.0
 11
-1517.856059378626
 21
1539.880330920946
 31
0.0
  0
LINE
  5
1119B
330
1A
100
AcDbEntity
  8
ZISSEN1
100
AcDbLine
 10
-1514.856079378627
 20
1546.423240920946
 30
0.0
 11
-1510.856059378626
 21
1546.423240920946
 31
0.0
  0
LINE
  5
1119C
330
1A
100
AcDbEntity
  8
ZISSEN1
100
AcDbLine
 10
-1452.563179378627
 20
1502.575270920946
 30
0.0
 11
-1452.563179378627
 21
1500.975270920946
 31
0.0
  0
LINE
  5
1119D
330
1A
100
AcDbEntity
  8
ZISSEN1
100
AcDbLine
 10
-1451.856069378627
 20
1500.975270920946
 30
0.0
 11
-1451.856069378627
 21
1502.575270920946
 31
0.0
  0
LINE
  5
1119E
330
1A
100
AcDbEntity
  8
ZISSEN1
100
AcDbLine
 10
-1458.356059378627
 20
1500.975270920946
 30
0.0
 11
-1458.356059378627
 21
1497.775280920946
 31
0.0
  0
LINE
  5
1119F
330
1A
100
AcDbEntity
  8
ZISSEN1
100
AcDbLine
 10
-1453.356069378627
 20
1500.975270920946
 30
0.0
 11
-1453.356069378627
 21
1497.775280920946
 31
0.0
  0
LINE
  5
111A0
330
1A
100
AcDbEntity
  8
ZISSEN1
100
AcDbLine
 10
-1452.563179378627
 20
1497.775280920946
 30
0.0
 11
-1452.563179378627
 21
1494.775270920946
 31
0.0
  0
LINE
  5
111A1
330
1A
100
AcDbEntity
  8
ZISSEN1
100
AcDbLine
 10
-1451.856069378627
 20
1497.775280920946
 30
0.0
 11
-1451.856069378627
 21
1494.775270920946
 31
0.0
  0
LINE
  5
111A3
330
1A
100
AcDbEntity
  8
ZISSEN1
100
AcDbLine
 10
-1461.056089378627
 20
1518.875380447527
 30
0.0
 11
-1461.056089378627
 21
1502.575270920946
 31
0.0
  0
LINE
  5
111A4
330
1A
100
AcDbEntity
  8
ZISSEN1
100
AcDbLine
 10
-1461.856049378627
 20
1504.675270920946
 30
0.0
 11
-1461.056089378627
 21
1504.675270920946
 31
0.0
  0
LINE
  5
111A5
330
1A
100
AcDbEntity
  8
ZISSEN1
100
AcDbLine
 10
-1463.656049378626
 20
1513.875277713408
 30
0.0
 11
-1463.656049378626
 21
1502.575270920946
 31
0.0
  0
LINE
  5
111A6
330
1A
100
AcDbEntity
  8
ZISSEN1
100
AcDbLine
 10
-1461.856049378627
 20
1504.675270920946
 30
0.0
 11
-1461.856049378627
 21
1502.575270920946
 31
0.0
  0
LINE
  5
111A7
330
1A
100
AcDbEntity
  8
ZISSEN1
100
AcDbLine
 10
-1451.656099378627
 20
1518.877348841866
 30
0.0
 11
-1451.656099378627
 21
1502.575270920946
 31
0.0
  0
LINE
  5
111A8
330
1A
100
AcDbEntity
  8
ZISSEN1
100
AcDbLine
 10
-1451.856069378627
 20
1502.575270920946
 30
0.0
 11
-1451.656099378627
 21
1502.575270920946
 31
0.0
  0
LINE
  5
111A9
330
1A
100
AcDbEntity
  8
ZISSEN1
100
AcDbLine
 10
-1452.563179378627
 20
1544.173220920946
 30
0.0
 11
-1451.856069378627
 21
1544.880330920946
 31
0.0
  0
LINE
  5
111AA
330
1A
100
AcDbEntity
  8
ZISSEN1
100
AcDbLine
 10
-1486.056089378627
 20
1616.973210920946
 30
0.0
 11
-1463.656049378626
 21
1616.973210920946
 31
0.0
  0
LINE
  5
111AB
330
1A
100
AcDbEntity
  8
ZISSEN1
100
AcDbLine
 10
-1486.056089378627
 20
1609.373210920946
 30
0.0
 11
-1463.656049378626
 21
1609.373210920946
 31
0.0
  0
LINE
  5
111AC
330
1A
100
AcDbEntity
  8
ZISSEN1
100
AcDbLine
 10
-1452.563179378627
 20
1617.173210920946
 30
0.0
 11
-1514.856069378627
 21
1617.173210920946
 31
0.0
  0
LINE
  5
111AD
330
1A
100
AcDbEntity
  8
ZISSEN1
100
AcDbLine
 10
-1507.856079378627
 20
1562.173200920946
 30
0.0
 11
-1507.856079378627
 21
1599.173230920946
 31
0.0
  0
LINE
  5
111AE
330
1A
100
AcDbEntity
  8
ZISSEN1
100
AcDbLine
 10
-1510.856059378626
 20
1583.423210920946
 30
0.0
 11
-1510.856059378626
 21
1614.923220920946
 31
0.0
  0
LINE
  5
111AF
330
1A
100
AcDbEntity
  8
ZISSEN1
100
AcDbLine
 10
-1514.856079378627
 20
1583.423210920946
 30
0.0
 11
-1514.856079378627
 21
1614.923220920946
 31
0.0
  0
LINE
  5
111B0
330
1A
100
AcDbEntity
  8
ZISSEN1
100
AcDbLine
 10
-1507.856079378627
 20
1562.173200920946
 30
0.0
 11
-1510.856059378626
 21
1562.173200920946
 31
0.0
  0
LINE
  5
111B1
330
1A
100
AcDbEntity
  8
ZISSEN1
100
AcDbLine
 10
-1514.856079378627
 20
1577.923240920946
 30
0.0
 11
-1510.856059378626
 21
1577.923240920946
 31
0.0
  0
LINE
  5
111B2
330
1A
100
AcDbEntity
  8
ZISSEN1
100
AcDbLine
 10
-1514.856079378627
 20
1583.423210920946
 30
0.0
 11
-1510.856059378626
 21
1583.423210920946
 31
0.0
  0
LINE
  5
111B3
330
1A
100
AcDbEntity
  8
ZISSEN1
100
AcDbLine
 10
-1510.856059378626
 20
1577.923240920946
 30
0.0
 11
-1510.856059378626
 21
1583.423210920946
 31
0.0
  0
LINE
  5
111B4
330
1A
100
AcDbEntity
  8
CL1
100
AcDbLine
 10
-1512.856059378627
 20
1619.173240920946
 30
0.0
 11
-1520.856059378627
 21
1619.173240920946
 31
0.0
  0
LINE
  5
111B5
330
1A
100
AcDbEntity
  8
ZISSEN1
100
AcDbLine
 10
-1507.856079378627
 20
1599.173230920946
 30
0.0
 11
-1510.856059378626
 21
1599.173230920946
 31
0.0
  0
LINE
  5
111B6
330
1A
100
AcDbEntity
  8
ZISSEN1
100
AcDbLine
 10
-1514.856079378627
 20
1614.923220920946
 30
0.0
 11
-1510.856059378626
 21
1614.923220920946
 31
0.0
  0
LINE
  5
111B7
330
1A
100
AcDbEntity
  8
ZISSEN1
100
AcDbLine
 10
-1486.056089378627
 20
1609.373210920946
 30
0.0
 11
-1486.056089378627
 21
1616.973210920946
 31
0.0
  0
LINE
  5
111B8
330
1A
100
AcDbEntity
  8
ZISSEN1
100
AcDbLine
 10
-1517.856059378626
 20
1622.173230920946
 30
0.0
 11
-1514.856069378627
 21
1622.173230920946
 31
0.0
  0
LINE
  5
111B9
330
1A
100
AcDbEntity
  8
ZISSEN1
100
AcDbLine
 10
-1514.856069378627
 20
1621.466120920945
 30
0.0
 11
-1517.856059378626
 21
1621.466120920945
 31
0.0
  0
LINE
  5
111BA
330
1A
100
AcDbEntity
  8
ZISSEN1
100
AcDbLine
 10
-1451.856069378627
 20
1588.223220920946
 30
0.0
 11
-1451.856069378627
 21
1616.466100920946
 31
0.0
  0
LINE
  5
111BB
330
1A
100
AcDbEntity
  8
ZISSEN1
100
AcDbLine
 10
-1461.006069378627
 20
1595.218220920946
 30
0.0
 11
-1461.006069378627
 21
1602.128230920946
 31
0.0
  0
LINE
  5
111BC
330
1A
100
AcDbEntity
  8
ZISSEN1
100
AcDbLine
 10
-1454.706059378627
 20
1595.218220920946
 30
0.0
 11
-1454.706059378627
 21
1602.128230920946
 31
0.0
  0
LINE
  5
111BD
330
1A
100
AcDbEntity
  8
ZISSEN1
100
AcDbLine
 10
-1454.256089378627
 20
1595.218220920946
 30
0.0
 11
-1454.256089378627
 21
1602.128230920946
 31
0.0
  0
LINE
  5
111BE
330
1A
100
AcDbEntity
  8
ZISSEN1
100
AcDbLine
 10
-1461.456039378627
 20
1595.218220920946
 30
0.0
 11
-1461.456039378627
 21
1602.128230920946
 31
0.0
  0
LINE
  5
111BF
330
1A
100
AcDbEntity
  8
ZISSEN1
100
AcDbLine
 10
-1453.856069378627
 20
1595.218220920946
 30
0.0
 11
-1453.856069378627
 21
1602.128230920946
 31
0.0
  0
LINE
  5
111C0
330
1A
100
AcDbEntity
  8
ZISSEN1
100
AcDbLine
 10
-1461.856049378627
 20
1595.218220920946
 30
0.0
 11
-1461.856049378627
 21
1602.128230920946
 31
0.0
  0
LINE
  5
111C1
330
1A
100
AcDbEntity
  8
ZISSEN1
100
AcDbLine
 10
-1461.056089378627
 20
1578.473230920946
 30
0.0
 11
-1451.656099378627
 21
1578.473230920946
 31
0.0
  0
LINE
  5
111C2
330
1A
100
AcDbEntity
  8
ZISSEN1
100
AcDbLine
 10
-1451.656099378627
 20
1558.873220920946
 30
0.0
 11
-1461.056089378627
 21
1558.873220920946
 31
0.0
  0
LINE
  5
111C3
330
1A
100
AcDbEntity
  8
ZISSEN1
100
AcDbLine
 10
-1461.056089378627
 20
1588.223220920946
 30
0.0
 11
-1451.656099378627
 21
1588.223220920946
 31
0.0
  0
LINE
  5
111C4
330
1A
100
AcDbEntity
  8
ZISSEN1
100
AcDbLine
 10
-1451.656099378627
 20
1579.123230920946
 30
0.0
 11
-1461.056089378627
 21
1579.123230920946
 31
0.0
  0
LINE
  5
111C5
330
1A
100
AcDbEntity
  8
ZISSEN1
100
AcDbLine
 10
-1461.056089378627
 20
1558.873220920946
 30
0.0
 11
-1461.056089378627
 21
1578.473230920946
 31
0.0
  0
LINE
  5
111C7
330
1A
100
AcDbEntity
  8
ZISSEN1
100
AcDbLine
 10
-1461.056089378627
 20
1579.123230920946
 30
0.0
 11
-1461.056089378627
 21
1588.223220920946
 31
0.0
  0
LINE
  5
111C8
330
1A
100
AcDbEntity
  8
ZISSEN1
100
AcDbLine
 10
-1461.856049378627
 20
1595.218220920946
 30
0.0
 11
-1453.856069378627
 21
1595.218220920946
 31
0.0
  0
LINE
  5
111C9
330
1A
100
AcDbEntity
  8
ZISSEN1
100
AcDbLine
 10
-1455.856079378627
 20
1589.823190920946
 30
0.0
 11
-1457.456079378627
 21
1589.823190920946
 31
0.0
  0
LINE
  5
111CA
330
1A
100
AcDbEntity
  8
ZISSEN1
100
AcDbLine
 10
-1457.456079378627
 20
1590.623210920946
 30
0.0
 11
-1455.856079378627
 21
1590.623210920946
 31
0.0
  0
LINE
  5
111CB
330
1A
100
AcDbEntity
  8
ZISSEN1
100
AcDbLine
 10
-1455.856079378627
 20
1592.823200920945
 30
0.0
 11
-1457.456079378627
 21
1592.823200920945
 31
0.0
  0
LINE
  5
111CC
330
1A
100
AcDbEntity
  8
ZISSEN1
100
AcDbLine
 10
-1457.456079378627
 20
1593.623220920946
 30
0.0
 11
-1455.856079378627
 21
1593.623220920946
 31
0.0
  0
LINE
  5
111CD
330
1A
100
AcDbEntity
  8
ZISSEN1
100
AcDbLine
 10
-1457.456079378627
 20
1589.823190920946
 30
0.0
 11
-1457.456079378627
 21
1590.623210920946
 31
0.0
  0
LINE
  5
111CE
330
1A
100
AcDbEntity
  8
ZISSEN1
100
AcDbLine
 10
-1457.456079378627
 20
1592.823200920945
 30
0.0
 11
-1457.456079378627
 21
1593.623220920946
 31
0.0
  0
LINE
  5
111CF
330
1A
100
AcDbEntity
  8
ZISSEN1
100
AcDbLine
 10
-1455.856079378627
 20
1590.623210920946
 30
0.0
 11
-1455.856079378627
 21
1589.823190920946
 31
0.0
  0
LINE
  5
111D0
330
1A
100
AcDbEntity
  8
ZISSEN1
100
AcDbLine
 10
-1455.856079378627
 20
1593.623220920946
 30
0.0
 11
-1455.856079378627
 21
1592.823200920945
 31
0.0
  0
LINE
  5
111D1
330
1A
100
AcDbEntity
  8
ZISSEN1
100
AcDbLine
 10
-1451.656099378627
 20
1578.473230920946
 30
0.0
 11
-1451.656099378627
 21
1558.873220920946
 31
0.0
  0
LINE
  5
111D2
330
1A
100
AcDbEntity
  8
ZISSEN1
100
AcDbLine
 10
-1451.856069378627
 20
1558.873220920946
 30
0.0
 11
-1451.656099378627
 21
1558.873220920946
 31
0.0
  0
LINE
  5
111D3
330
1A
100
AcDbEntity
  8
ZISSEN1
100
AcDbLine
 10
-1451.656099378627
 20
1588.223220920946
 30
0.0
 11
-1451.656099378627
 21
1579.123230920946
 31
0.0
  0
LINE
  5
111D4
330
1A
100
AcDbEntity
  8
ZISSEN1
100
AcDbLine
 10
-1451.856069378627
 20
1578.473230920946
 30
0.0
 11
-1451.856069378627
 21
1579.123230920946
 31
0.0
  0
LINE
  5
111D5
330
1A
100
AcDbEntity
  8
ZISSEN1
100
AcDbLine
 10
-1451.856069378627
 20
1579.123230920946
 30
0.0
 11
-1451.656099378627
 21
1579.123230920946
 31
0.0
  0
LINE
  5
111D6
330
1A
100
AcDbEntity
  8
ZISSEN1
100
AcDbLine
 10
-1451.856069378627
 20
1588.223220920946
 30
0.0
 11
-1451.656099378627
 21
1588.223220920946
 31
0.0
  0
LINE
  5
111D7
330
1A
100
AcDbEntity
  8
ZISSEN1
100
AcDbLine
 10
-1461.006069378627
 20
1602.718220920946
 30
0.0
 11
-1461.006069378627
 21
1609.628230920946
 31
0.0
  0
LINE
  5
111D8
330
1A
100
AcDbEntity
  8
ZISSEN1
100
AcDbLine
 10
-1454.706059378627
 20
1602.718220920946
 30
0.0
 11
-1454.706059378627
 21
1609.628230920946
 31
0.0
  0
LINE
  5
111D9
330
1A
100
AcDbEntity
  8
ZISSEN1
100
AcDbLine
 10
-1454.256089378627
 20
1602.718220920946
 30
0.0
 11
-1454.256089378627
 21
1609.628230920946
 31
0.0
  0
LINE
  5
111DA
330
1A
100
AcDbEntity
  8
ZISSEN1
100
AcDbLine
 10
-1461.456039378627
 20
1602.718220920946
 30
0.0
 11
-1461.456039378627
 21
1609.628230920946
 31
0.0
  0
LINE
  5
111DB
330
1A
100
AcDbEntity
  8
ZISSEN1
100
AcDbLine
 10
-1453.856069378627
 20
1602.718220920946
 30
0.0
 11
-1453.856069378627
 21
1609.628230920946
 31
0.0
  0
LINE
  5
111DC
330
1A
100
AcDbEntity
  8
ZISSEN1
100
AcDbLine
 10
-1461.856049378627
 20
1602.718220920946
 30
0.0
 11
-1461.856049378627
 21
1609.628230920946
 31
0.0
  0
LINE
  5
111DD
330
1A
100
AcDbEntity
  8
ZISSEN1
100
AcDbLine
 10
-1461.856049378627
 20
1602.128230920946
 30
0.0
 11
-1453.856069378627
 21
1602.128230920946
 31
0.0
  0
LINE
  5
111DE
330
1A
100
AcDbEntity
  8
ZISSEN1
100
AcDbLine
 10
-1461.856049378627
 20
1602.718220920946
 30
0.0
 11
-1453.856069378627
 21
1602.718220920946
 31
0.0
  0
LINE
  5
111DF
330
1A
100
AcDbEntity
  8
ZISSEN1
100
AcDbLine
 10
-1463.851069378627
 20
1596.773210920946
 30
0.0
 11
-1463.851069378627
 21
1603.573200920946
 31
0.0
  0
LINE
  5
111E0
330
1A
100
AcDbEntity
  8
ZISSEN1
100
AcDbLine
 10
-1468.951069378626
 20
1596.773210920946
 30
0.0
 11
-1468.951069378626
 21
1603.573200920946
 31
0.0
  0
LINE
  5
111E1
330
1A
100
AcDbEntity
  8
ZISSEN1
100
AcDbLine
 10
-1468.951069378626
 20
1596.773210920946
 30
0.0
 11
-1463.851069378627
 21
1596.773210920946
 31
0.0
  0
LINE
  5
111E2
330
1A
100
AcDbEntity
  8
ZISSEN1
100
AcDbLine
 10
-1468.951069378626
 20
1603.573200920946
 30
0.0
 11
-1463.851069378627
 21
1603.573200920946
 31
0.0
  0
LINE
  5
111E3
330
1A
100
AcDbEntity
  8
ZISSEN1
100
AcDbLine
 10
-1461.856049378627
 20
1609.628230920946
 30
0.0
 11
-1453.856069378627
 21
1609.628230920946
 31
0.0
  0
LINE
  5
111E4
330
1A
100
AcDbEntity
  8
ZISSEN1
100
AcDbLine
 10
-1463.656049378626
 20
1609.373210920946
 30
0.0
 11
-1463.656049378626
 21
1616.973210920946
 31
0.0
  0
LINE
  5
111E6
330
1A
100
AcDbEntity
  8
ZISSEN1
100
AcDbLine
 10
-1452.563179378627
 20
1617.173210920946
 30
0.0
 11
-1451.856069378627
 21
1616.466100920946
 31
0.0
  0
LINE
  5
111E7
330
1A
100
AcDbEntity
  8
ZISSEN1
100
AcDbLine
 10
-1407.881289378627
 20
1544.173220920946
 30
0.0
 11
-1407.881289378627
 21
1558.873220920946
 31
0.0
  0
LINE
  5
111E8
330
1A
100
AcDbEntity
  8
ZISSEN1
100
AcDbLine
 10
-1396.881269378626
 20
1558.873220920946
 30
0.0
 11
-1396.881269378626
 21
1546.173220920946
 31
0.0
  0
LINE
  5
111E9
330
1A
100
AcDbEntity
  8
ZISSEN1
100
AcDbLine
 10
-1407.381279378626
 20
1546.423240920946
 30
0.0
 11
-1407.381279378626
 21
1558.873220920946
 31
0.0
  0
LINE
  5
111EA
330
1A
100
AcDbEntity
  8
ZISSEN1
100
AcDbLine
 10
-1407.881289378627
 20
1539.880330920946
 30
0.0
 11
-1407.881289378627
 21
1558.873220920946
 31
0.0
  0
LINE
  5
111EB
330
1A
100
AcDbEntity
  8
ZISSEN1
100
AcDbLine
 10
-1390.081279378627
 20
1544.173220920946
 30
0.0
 11
-1390.081279378627
 21
1617.173210920946
 31
0.0
  0
LINE
  5
111EC
330
1A
100
AcDbEntity
  8
ZISSEN1
100
AcDbLine
 10
-1391.681279378627
 20
1544.173220920946
 30
0.0
 11
-1391.681279378627
 21
1617.173210920946
 31
0.0
  0
LINE
  5
111ED
330
1A
100
AcDbEntity
  8
ZISSEN1
100
AcDbLine
 10
-1386.881289378627
 20
1539.880330920946
 30
0.0
 11
-1386.881289378627
 21
1621.466120920945
 31
0.0
  0
LINE
  5
111EE
330
1A
100
AcDbEntity
  8
ZISSEN1
100
AcDbLine
 10
-1383.881279378627
 20
1544.173220920946
 30
0.0
 11
-1383.881279378627
 21
1617.173210920946
 31
0.0
  0
LINE
  5
111EF
330
1A
100
AcDbEntity
  8
ZISSEN1
100
AcDbLine
 10
-1387.588399378627
 20
1539.173230920946
 30
0.0
 11
-1386.881289378627
 21
1539.880330920946
 31
0.0
  0
LINE
  5
111F0
330
1A
100
AcDbEntity
  8
ZISSEN1
100
AcDbLine
 10
-1407.381279378626
 20
1546.423240920946
 30
0.0
 11
-1396.881269378626
 21
1546.423240920946
 31
0.0
  0
LINE
  5
111F1
330
1A
100
AcDbEntity
  8
ZISSEN1
100
AcDbLine
 10
-1399.838379378627
 20
1539.173230920946
 30
0.0
 11
-1407.174179378627
 21
1539.173230920946
 31
0.0
  0
LINE
  5
111F2
330
1A
100
AcDbEntity
  8
ZISSEN1
100
AcDbLine
 10
-1407.881289378627
 20
1539.880330920946
 30
0.0
 11
-1407.174179378627
 21
1539.173230920946
 31
0.0
  0
LINE
  5
111F3
330
1A
100
AcDbEntity
  8
CL1
100
AcDbLine
 10
-1400.381289378627
 20
1542.173210920946
 30
0.0
 11
-1394.381269378627
 21
1542.173210920946
 31
0.0
  0
LINE
  5
111F4
330
1A
100
AcDbEntity
  8
ZISSEN1
100
AcDbLine
 10
-1395.631279378626
 20
1539.880330920946
 30
0.0
 11
-1394.924169378627
 21
1539.173230920946
 31
0.0
  0
LINE
  5
111F5
330
1A
100
AcDbEntity
  8
CL1
100
AcDbLine
 10
-1397.381279378627
 20
1540.173200920946
 30
0.0
 11
-1397.381279378627
 21
1546.173220920946
 31
0.0
  0
LINE
  5
111F6
330
1A
100
AcDbEntity
  8
ZISSEN1
100
AcDbLine
 10
-1395.631279378626
 20
1539.880330920946
 30
0.0
 11
-1395.631279378626
 21
1543.173210920946
 31
0.0
  0
LINE
  5
111F7
330
1A
100
AcDbEntity
  8
ZISSEN1
100
AcDbLine
 10
-1399.131269378627
 20
1539.880330920946
 30
0.0
 11
-1399.131269378627
 21
1543.173210920946
 31
0.0
  0
LINE
  5
111F8
330
1A
100
AcDbEntity
  8
ZISSEN1
100
AcDbLine
 10
-1399.838379378627
 20
1539.173230920946
 30
0.0
 11
-1399.131269378627
 21
1539.880330920946
 31
0.0
  0
ARC
  5
111F9
330
1A
100
AcDbEntity
  8
ZISSEN1
100
AcDbCircle
 10
-1397.381279378627
 20
1543.173210920946
 30
0.0
 40
1.749999899999999
100
AcDbArc
 50
0.0
 51
180.0
  0
LINE
  5
111FA
330
1A
100
AcDbEntity
  8
ZISSEN1
100
AcDbLine
 10
-1387.588399378627
 20
1539.173230920946
 30
0.0
 11
-1394.924169378627
 21
1539.173230920946
 31
0.0
  0
LINE
  5
111FB
330
1A
100
AcDbEntity
  8
ZISSEN1
100
AcDbLine
 10
-1390.081279378627
 20
1544.173220920946
 30
0.0
 11
-1391.681279378627
 21
1544.173220920946
 31
0.0
  0
LINE
  5
111FC
330
1A
100
AcDbEntity
  8
ZISSEN1
100
AcDbLine
 10
-1386.881289378627
 20
1544.880330920946
 30
0.0
 11
-1383.881279378627
 21
1544.880330920946
 31
0.0
  0
LINE
  5
111FD
330
1A
100
AcDbEntity
  8
ZISSEN1
100
AcDbLine
 10
-1386.881289378627
 20
1544.173220920946
 30
0.0
 11
-1383.881279378627
 21
1544.173220920946
 31
0.0
  0
LINE
  5
111FE
330
1A
100
AcDbEntity
  8
ZISSEN1
100
AcDbLine
 10
-1396.881269378626
 20
1588.223220920946
 30
0.0
 11
-1396.881269378626
 21
1596.773210920946
 31
0.0
  0
LINE
  5
111FF
330
1A
100
AcDbEntity
  8
ZISSEN1
100
AcDbLine
 10
-1407.881289378627
 20
1588.223220920946
 30
0.0
 11
-1407.881289378627
 21
1617.173210920946
 31
0.0
  0
LINE
  5
11200
330
1A
100
AcDbEntity
  8
ZISSEN1
100
AcDbLine
 10
-1407.881289378627
 20
1588.223220920946
 30
0.0
 11
-1407.881289378627
 21
1621.466120920945
 31
0.0
  0
LINE
  5
11201
330
1A
100
AcDbEntity
  8
ZISSEN1
100
AcDbLine
 10
-1391.881279378627
 20
1595.218220920946
 30
0.0
 11
-1391.881279378627
 21
1602.128230920946
 31
0.0
  0
LINE
  5
11202
330
1A
100
AcDbEntity
  8
ZISSEN1
100
AcDbLine
 10
-1391.681279378627
 20
1595.218220920946
 30
0.0
 11
-1391.681279378627
 21
1602.128230920946
 31
0.0
  0
LINE
  5
11203
330
1A
100
AcDbEntity
  8
ZISSEN1
100
AcDbLine
 10
-1393.981279378627
 20
1595.218220920946
 30
0.0
 11
-1393.981279378627
 21
1602.128230920946
 31
0.0
  0
LINE
  5
11204
330
1A
100
AcDbEntity
  8
ZISSEN1
100
AcDbLine
 10
-1390.081279378627
 20
1551.673220920946
 30
0.0
 11
-1386.881289378627
 21
1551.673220920946
 31
0.0
  0
LINE
  5
11205
330
1A
100
AcDbEntity
  8
ZISSEN1
100
AcDbLine
 10
-1390.081279378627
 20
1556.673230920946
 30
0.0
 11
-1386.881289378627
 21
1556.673230920946
 31
0.0
  0
LINE
  5
11207
330
1A
100
AcDbEntity
  8
ZISSEN1
100
AcDbLine
 10
-1407.981279378627
 20
1558.873220920946
 30
0.0
 11
-1391.681279378627
 21
1558.873220920946
 31
0.0
  0
LINE
  5
11208
330
1A
100
AcDbEntity
  8
ZISSEN1
100
AcDbLine
 10
-1407.981279378627
 20
1588.223220920946
 30
0.0
 11
-1391.681279378627
 21
1588.223220920946
 31
0.0
  0
LINE
  5
11209
330
1A
100
AcDbEntity
  8
ZISSEN1
100
AcDbLine
 10
-1407.981279378627
 20
1579.123230920946
 30
0.0
 11
-1391.681279378627
 21
1579.123230920946
 31
0.0
  0
LINE
  5
1120A
330
1A
100
AcDbEntity
  8
ZISSEN1
100
AcDbLine
 10
-1407.981279378627
 20
1578.473230920946
 30
0.0
 11
-1391.681279378627
 21
1578.473230920946
 31
0.0
  0
LINE
  5
1120C
330
1A
100
AcDbEntity
  8
ZISSEN1
100
AcDbLine
 10
-1407.881289378627
 20
1578.473230920946
 30
0.0
 11
-1407.881289378627
 21
1579.123230920946
 31
0.0
  0
LINE
  5
1120D
330
1A
100
AcDbEntity
  8
ZISSEN1
100
AcDbLine
 10
-1407.881289378627
 20
1578.473230920946
 30
0.0
 11
-1407.881289378627
 21
1579.123230920946
 31
0.0
  0
ARC
  5
1120E
330
1A
100
AcDbEntity
  8
ZISSEN1
100
AcDbCircle
 10
-1402.381289378627
 20
1580.673210920946
 30
0.0
 40
2.0
100
AcDbArc
 50
230.8042599999952
 51
309.1957299999991
  0
LINE
  5
1120F
330
1A
100
AcDbEntity
  8
ZISSEN1
100
AcDbLine
 10
-1396.881269378626
 20
1579.123230920946
 30
0.0
 11
-1396.881269378626
 21
1578.473230920946
 31
0.0
  0
LINE
  5
11210
330
1A
100
AcDbEntity
  8
ZISSEN1
100
AcDbLine
 10
-1392.281269378627
 20
1589.823190920946
 30
0.0
 11
-1392.281269378627
 21
1590.623210920946
 31
0.0
  0
LINE
  5
11211
330
1A
100
AcDbEntity
  8
ZISSEN1
100
AcDbLine
 10
-1392.281269378627
 20
1592.823200920945
 30
0.0
 11
-1392.281269378627
 21
1593.623220920946
 31
0.0
  0
LINE
  5
11212
330
1A
100
AcDbEntity
  8
ZISSEN1
100
AcDbLine
 10
-1392.281269378627
 20
1590.623210920946
 30
0.0
 11
-1391.681279378627
 21
1590.623210920946
 31
0.0
  0
LINE
  5
11213
330
1A
100
AcDbEntity
  8
ZISSEN1
100
AcDbLine
 10
-1392.281269378627
 20
1589.823190920946
 30
0.0
 11
-1391.681279378627
 21
1589.823190920946
 31
0.0
  0
LINE
  5
11214
330
1A
100
AcDbEntity
  8
ZISSEN1
100
AcDbLine
 10
-1392.281269378627
 20
1592.823200920945
 30
0.0
 11
-1391.681279378627
 21
1592.823200920945
 31
0.0
  0
LINE
  5
11215
330
1A
100
AcDbEntity
  8
ZISSEN1
100
AcDbLine
 10
-1392.281269378627
 20
1593.623220920946
 30
0.0
 11
-1391.681279378627
 21
1593.623220920946
 31
0.0
  0
LINE
  5
11216
330
1A
100
AcDbEntity
  8
ZISSEN1
100
AcDbLine
 10
-1393.981279378627
 20
1595.218220920946
 30
0.0
 11
-1391.681279378627
 21
1595.218220920946
 31
0.0
  0
LINE
  5
11217
330
1A
100
AcDbEntity
  8
ZISSEN1
100
AcDbLine
 10
-1390.081279378627
 20
1616.173210920946
 30
0.0
 11
-1386.881289378627
 21
1616.173210920946
 31
0.0
  0
LINE
  5
11218
330
1A
100
AcDbEntity
  8
ZISSEN1
100
AcDbLine
 10
-1390.081279378627
 20
1611.173190920946
 30
0.0
 11
-1386.881289378627
 21
1611.173190920946
 31
0.0
  0
LINE
  5
11219
330
1A
100
AcDbEntity
  8
ZISSEN1
100
AcDbLine
 10
-1387.588399378627
 20
1622.173230920946
 30
0.0
 11
-1386.881289378627
 21
1621.466120920945
 31
0.0
  0
LINE
  5
1121A
330
1A
100
AcDbEntity
  8
CL1
100
AcDbLine
 10
-1397.381279378627
 20
1615.173230920946
 30
0.0
 11
-1397.381279378627
 21
1621.173250920946
 31
0.0
  0
LINE
  5
1121B
330
1A
100
AcDbEntity
  8
ZISSEN1
100
AcDbLine
 10
-1395.631279378626
 20
1621.466120920945
 30
0.0
 11
-1395.631279378626
 21
1618.173240920945
 31
0.0
  0
LINE
  5
1121C
330
1A
100
AcDbEntity
  8
ZISSEN1
100
AcDbLine
 10
-1399.131269378627
 20
1621.466120920945
 30
0.0
 11
-1399.131269378627
 21
1618.173240920945
 31
0.0
  0
LINE
  5
1121D
330
1A
100
AcDbEntity
  8
ZISSEN1
100
AcDbLine
 10
-1407.881289378627
 20
1599.173230920946
 30
0.0
 11
-1399.881279378627
 21
1599.173230920946
 31
0.0
  0
LINE
  5
1121E
330
1A
100
AcDbEntity
  8
ZISSEN1
100
AcDbLine
 10
-1407.381279378626
 20
1614.923220920946
 30
0.0
 11
-1402.981269378627
 21
1614.923220920946
 31
0.0
  0
LINE
  5
1121F
330
1A
100
AcDbEntity
  8
ZISSEN1
100
AcDbLine
 10
-1407.381279378626
 20
1599.173230920946
 30
0.0
 11
-1407.381279378626
 21
1614.923220920946
 31
0.0
  0
LINE
  5
11220
330
1A
100
AcDbEntity
  8
ZISSEN1
100
AcDbLine
 10
-1396.881269378626
 20
1603.573200920946
 30
0.0
 11
-1396.881269378626
 21
1609.373210920946
 31
0.0
  0
LINE
  5
11221
330
1A
100
AcDbEntity
  8
ZISSEN1
100
AcDbLine
 10
-1391.881279378627
 20
1602.718220920946
 30
0.0
 11
-1391.881279378627
 21
1609.628230920946
 31
0.0
  0
LINE
  5
11222
330
1A
100
AcDbEntity
  8
ZISSEN1
100
AcDbLine
 10
-1391.681279378627
 20
1602.718220920946
 30
0.0
 11
-1391.681279378627
 21
1609.628230920946
 31
0.0
  0
LINE
  5
11223
330
1A
100
AcDbEntity
  8
ZISSEN1
100
AcDbLine
 10
-1393.981279378627
 20
1602.718220920946
 30
0.0
 11
-1393.981279378627
 21
1609.628230920946
 31
0.0
  0
LINE
  5
11224
330
1A
100
AcDbEntity
  8
ZISSEN1
100
AcDbLine
 10
-1399.881279378627
 20
1596.773210920946
 30
0.0
 11
-1393.981279378627
 21
1596.773210920946
 31
0.0
  0
LINE
  5
11225
330
1A
100
AcDbEntity
  8
ZISSEN1
100
AcDbLine
 10
-1399.881279378627
 20
1603.573200920946
 30
0.0
 11
-1393.981279378627
 21
1603.573200920946
 31
0.0
  0
LINE
  5
11226
330
1A
100
AcDbEntity
  8
ZISSEN1
100
AcDbLine
 10
-1399.881279378627
 20
1596.773210920946
 30
0.0
 11
-1399.881279378627
 21
1603.573200920946
 31
0.0
  0
LINE
  5
11227
330
1A
100
AcDbEntity
  8
ZISSEN1
100
AcDbLine
 10
-1393.981279378627
 20
1602.128230920946
 30
0.0
 11
-1391.681279378627
 21
1602.128230920946
 31
0.0
  0
LINE
  5
11228
330
1A
100
AcDbEntity
  8
ZISSEN1
100
AcDbLine
 10
-1393.981279378627
 20
1602.718220920946
 30
0.0
 11
-1391.681279378627
 21
1602.718220920946
 31
0.0
  0
ARC
  5
11229
330
1A
100
AcDbEntity
  8
ZISSEN1
100
AcDbCircle
 10
-1397.381279378627
 20
1618.173240920945
 30
0.0
 40
1.749999899999999
100
AcDbArc
 50
316.7067499999959
 51
0.0
  0
LINE
  5
1122A
330
1A
100
AcDbEntity
  8
ZISSEN1
100
AcDbLine
 10
-1402.981269378627
 20
1609.373210920946
 30
0.0
 11
-1393.981279378627
 21
1609.373210920946
 31
0.0
  0
LINE
  5
1122B
330
1A
100
AcDbEntity
  8
ZISSEN1
100
AcDbLine
 10
-1402.981269378627
 20
1616.973210920946
 30
0.0
 11
-1391.681279378627
 21
1616.973210920946
 31
0.0
  0
ARC
  5
1122E
330
1A
100
AcDbEntity
  8
ZISSEN1
100
AcDbCircle
 10
-1397.381279378627
 20
1618.173240920945
 30
0.0
 40
1.749999899999999
100
AcDbArc
 50
180.0
 51
223.2932399999971
  0
LINE
  5
1122F
330
1A
100
AcDbEntity
  8
ZISSEN1
100
AcDbLine
 10
-1393.981279378627
 20
1609.628230920946
 30
0.0
 11
-1391.681279378627
 21
1609.628230920946
 31
0.0
  0
LINE
  5
11230
330
1A
100
AcDbEntity
  8
ZISSEN1
100
AcDbLine
 10
-1390.081279378627
 20
1617.173210920946
 30
0.0
 11
-1391.681279378627
 21
1617.173210920946
 31
0.0
  0
LINE
  5
11231
330
1A
100
AcDbEntity
  8
ZISSEN1
100
AcDbLine
 10
-1399.838379378627
 20
1622.173230920946
 30
0.0
 11
-1407.174179378627
 21
1622.173230920946
 31
0.0
  0
LINE
  5
11232
330
1A
100
AcDbEntity
  8
ZISSEN1
100
AcDbLine
 10
-1407.174179378627
 20
1622.173230920946
 30
0.0
 11
-1407.881289378627
 21
1621.466120920945
 31
0.0
  0
LINE
  5
11233
330
1A
100
AcDbEntity
  8
CL1
100
AcDbLine
 10
-1400.381289378627
 20
1619.173240920946
 30
0.0
 11
-1394.381269378627
 21
1619.173240920946
 31
0.0
  0
LINE
  5
11234
330
1A
100
AcDbEntity
  8
ZISSEN1
100
AcDbLine
 10
-1395.631279378626
 20
1621.466120920945
 30
0.0
 11
-1394.924169378627
 21
1622.173230920946
 31
0.0
  0
LINE
  5
11235
330
1A
100
AcDbEntity
  8
ZISSEN1
100
AcDbLine
 10
-1399.838379378627
 20
1622.173230920946
 30
0.0
 11
-1399.131269378627
 21
1621.466120920945
 31
0.0
  0
LINE
  5
11236
330
1A
100
AcDbEntity
  8
ZISSEN1
100
AcDbLine
 10
-1387.588399378627
 20
1622.173230920946
 30
0.0
 11
-1394.924169378627
 21
1622.173230920946
 31
0.0
  0
LINE
  5
11237
330
1A
100
AcDbEntity
  8
ZISSEN1
100
AcDbLine
 10
-1386.881289378627
 20
1616.466100920946
 30
0.0
 11
-1383.881279378627
 21
1616.466100920946
 31
0.0
  0
LINE
  5
11238
330
1A
100
AcDbEntity
  8
ZISSEN1
100
AcDbLine
 10
-1386.881289378627
 20
1617.173210920946
 30
0.0
 11
-1383.881279378627
 21
1617.173210920946
 31
0.0
  0
MTEXT
  5
1123F
330
1A
100
AcDbEntity
  8
ZISSEN1
100
AcDbMText
 10
-1518.294722853124
 20
1641.635706481828
 30
0.0
 40
5.0
 41
126.5657
 71
     1
 72
     5
  1
ADB-5432　No.SS0001f03
  7
ゴシック体
1001
ACAD
1000
MTEXTBEGIN
1070
    73
1070
     1
1070
    44
1040
1.0
1070
    74
1070
     0
1000
MTEXTEND
  0
LINE
  5
112B2
330
1A
100
AcDbEntity
  8
ZISSEN1
100
AcDbLine
 10
-1486.056089378627
 20
1513.875270920946
 30
0.0
 11
-1463.656049378626
 21
1513.875270920946
 31
0.0
  0
LINE
  5
112B4
330
1A
100
AcDbEntity
  8
ZISSEN1
100
AcDbLine
 10
-1461.056089378627
 20
1518.875270920946
 30
0.0
 11
-1451.856069378627
 21
1518.875270920946
 31
0.0
  0
LINE
  5
11309
330
1A
100
AcDbEntity
  8
ZISSEN1
100
AcDbLine
 10
-1402.981269378627
 20
1614.923220920946
 30
0.0
 11
-1402.981269378627
 21
1616.973210920946
 31
0.0
  0
LINE
  5
1130A
330
1A
100
AcDbEntity
  8
ZISSEN1
100
AcDbLine
 10
-1402.981269378627
 20
1614.923220920946
 30
0.0
 11
-1402.981269378627
 21
1609.373210920946
 31
0.0
  0
LINE
  5
11316
330
1A
100
AcDbEntity
  8
ZISSEN1
100
AcDbLine
 10
-1407.981279378627
 20
1579.123230920946
 30
0.0
 11
-1407.981279378627
 21
1588.223220920946
 31
0.0
  0
LINE
  5
11317
330
1A
100
AcDbEntity
  8
ZISSEN1
100
AcDbLine
 10
-1407.981279378627
 20
1558.873220920946
 30
0.0
 11
-1407.981279378627
 21
1578.473230920946
 31
0.0
  0
DIMENSION
  5
1134A
330
1A
100
AcDbEntity
  8
SUNPOU
100
AcDbDimension
  2
*D23
 10
-1528.269368222506
 20
1539.173230920946
 30
0.0
 11
-1531.019368222506
 21
1580.673230920946
 31
0.0
 70
    32
  3
標準スタイル
100
AcDbAlignedDimension
 13
-1517.856059378626
 23
1622.173230920946
 33
0.0
 14
-1517.856059378626
 24
1539.173230920946
 34
0.0
 50
90.0
100
AcDbRotatedDimension
1001
ACAD
1000
DSTYLE
1002
{
1070
    40
1040
1.0
1002
}
  0
DIMENSION
  5
11357
330
1A
100
AcDbEntity
  8
SUNPOU
100
AcDbDimension
  2
*D24
 10
-1442.525930526485
 20
1544.173220920946
 30
0.0
 11
-1445.275930526484
 21
1580.673215920946
 31
0.0
 70
    32
  3
標準スタイル
100
AcDbAlignedDimension
 13
-1452.563179378627
 23
1617.173210920946
 33
0.0
 14
-1452.563179378627
 24
1544.173220920946
 34
0.0
 50
90.0
100
AcDbRotatedDimension
1001
ACAD
1000
DSTYLE
1002
{
1070
    40
1040
1.0
1002
}
  0
DIMENSION
  5
11364
330
1A
100
AcDbEntity
  8
SUNPOU
100
AcDbDimension
  2
*D25
 10
-1415.881766272745
 20
1619.173240920946
 30
0.0
 11
-1415.881766272745
 21
1630.079322291503
 31
0.0
 70
   160
  3
標準スタイル
100
AcDbAlignedDimension
 13
-1407.174179378627
 23
1622.173230920946
 33
0.0
 14
-1400.381289378627
 24
1619.173240920946
 34
0.0
 50
90.0
100
AcDbRotatedDimension
1001
ACAD
1000
DSTYLE
1002
{
1070
    40
1040
1.0
1002
}
  0
DIMENSION
  5
1137E
330
1A
100
AcDbEntity
  8
SUNPOU
100
AcDbDimension
  2
*D26
 10
-1415.881766272745
 20
1542.173210920946
 30
0.0
 11
-1418.631766272745
 21
1580.673225920946
 31
0.0
 70
    32
  3
標準スタイル
100
AcDbAlignedDimension
 13
-1400.881289378627
 23
1619.173240920946
 33
0.0
 14
-1400.381289378627
 24
1542.173210920946
 34
0.0
 50
90.0
100
AcDbRotatedDimension
1001
ACAD
1000
DSTYLE
1002
{
1070
    40
1040
1.0
1002
}
  0
DIMENSION
  5
1138B
330
1A
100
AcDbEntity
  8
SUNPOU
100
AcDbDimension
  2
*D27
 10
-1415.881766272745
 20
1539.173230920946
 30
0.0
 11
-1418.631766272745
 21
1531.267139550386
 31
0.0
 70
    32
  3
標準スタイル
100
AcDbAlignedDimension
 13
-1400.881289378627
 23
1542.173210920946
 33
0.0
 14
-1407.174179378627
 24
1539.173230920946
 34
0.0
 50
90.0
100
AcDbRotatedDimension
1001
ACAD
1000
DSTYLE
1002
{
1070
    40
1040
1.0
1002
}
  0
DIMENSION
  5
1139A
330
1A
100
AcDbEntity
  8
SUNPOU
100
AcDbDimension
  2
*D28
 10
-1395.631279378626
 20
1628.94806415165
 30
0.0
 11
-1385.451076332942
 21
1631.69806415165
 31
0.0
 70
    32
  3
標準スタイル
100
AcDbAlignedDimension
 13
-1399.131269378627
 23
1621.466120920945
 33
0.0
 14
-1395.631279378626
 24
1621.466120920945
 34
0.0
100
AcDbRotatedDimension
1001
ACAD
1000
DSTYLE
1002
{
1070
    40
1040
1.0
1002
}
  0
DIMENSION
  5
113A9
330
1A
100
AcDbEntity
  8
SUNPOU
100
AcDbDimension
  2
*D29
 10
-1383.881279378627
 20
1530.775801544339
 30
0.0
 11
-1390.545343953268
 21
1530.775801544339
 31
0.0
 70
   160
  3
標準スタイル
100
AcDbAlignedDimension
 13
-1397.381279378627
 23
1540.173200920946
 33
0.0
 14
-1383.881279378627
 24
1544.173220920946
 34
0.0
100
AcDbRotatedDimension
1001
ACAD
1000
DSTYLE
1002
{
1070
    40
1040
1.0
1002
}
  0
DIMENSION
  5
113D5
330
1A
100
AcDbEntity
  8
SUNPOU
100
AcDbDimension
  2
*D30
 10
-1383.881279378627
 20
1522.555630906621
 30
0.0
 11
-1395.881284378627
 21
1525.305630906621
 31
0.0
 70
    32
  3
標準スタイル
100
AcDbAlignedDimension
 13
-1407.881289378627
 23
1539.880330920946
 33
0.0
 14
-1383.881279378627
 24
1544.173220920946
 34
0.0
100
AcDbRotatedDimension
1001
ACAD
1000
DSTYLE
1002
{
1070
    40
1040
1.0
1002
}
  0
DIMENSION
  5
113E2
330
1A
100
AcDbEntity
  8
SUNPOU
100
AcDbDimension
  2
*D31
 10
-1514.856069378627
 20
1525.694189144513
 30
0.0
 11
-1506.949978008069
 21
1528.444189144513
 31
0.0
 70
    32
  3
標準スタイル
100
AcDbAlignedDimension
 13
-1517.856059378626
 23
1518.775280920946
 33
0.0
 14
-1514.856069378627
 24
1518.775280920946
 34
0.0
100
AcDbRotatedDimension
1001
ACAD
1000
DSTYLE
1002
{
1070
    40
1040
1.0
1002
}
  0
DIMENSION
  5
113F1
330
1A
100
AcDbEntity
  8
SUNPOU
100
AcDbDimension
  2
*D32
 10
-1528.195732933161
 20
1494.775270920946
 30
0.0
 11
-1530.945732933162
 21
1506.775275920946
 31
0.0
 70
    32
  3
標準スタイル
100
AcDbAlignedDimension
 13
-1517.856059378626
 23
1518.775280920946
 33
0.0
 14
-1517.148949378627
 24
1494.775270920946
 34
0.0
 50
90.0
100
AcDbRotatedDimension
1001
ACAD
1000
DSTYLE
1002
{
1070
    40
1040
1.0
1002
}
  0
DIMENSION
  5
11407
330
1A
100
AcDbEntity
  8
SUNPOU
100
AcDbDimension
  2
*D33
 10
-1451.856069378627
 20
1485.403771191296
 30
0.0
 11
-1484.856064378627
 21
1488.153771191296
 31
0.0
 70
    32
  3
標準スタイル
100
AcDbAlignedDimension
 13
-1517.856059378626
 23
1495.482380920946
 33
0.0
 14
-1451.856069378627
 24
1494.775270920946
 34
0.0
100
AcDbRotatedDimension
1001
ACAD
1000
DSTYLE
1002
{
1070
    40
1040
1.0
1002
}
  0
DIMENSION
  5
11414
330
1A
100
AcDbEntity
  8
SUNPOU
100
AcDbDimension
  2
*D34
 10
-1442.025930526485
 20
1494.775270920946
 30
0.0
 11
-1444.775930526486
 21
1486.869179550386
 31
0.0
 70
    32
  3
標準スタイル
100
AcDbAlignedDimension
 13
-1451.856069378627
 23
1497.775280920946
 33
0.0
 14
-1451.856069378627
 24
1494.775270920946
 34
0.0
 50
90.0
100
AcDbRotatedDimension
1001
ACAD
1000
DSTYLE
1002
{
1070
    40
1040
1.0
1002
}
  0
DIMENSION
  5
11423
330
1A
100
AcDbEntity
  8
SUNPOU
100
AcDbDimension
  2
*D35
 10
-1432.626152888369
 20
1513.875270920946
 30
0.0
 11
-1435.37615288837
 21
1504.325270920945
 31
0.0
 70
    32
  3
標準スタイル
100
AcDbAlignedDimension
 13
-1451.856069378627
 23
1494.775270920946
 33
0.0
 14
-1463.656049378626
 24
1513.875270920946
 34
0.0
 50
90.0
100
AcDbRotatedDimension
1001
ACAD
1000
DSTYLE
1002
{
1070
    40
1040
1.0
1002
}
  0
DIMENSION
  5
1143B
330
1A
100
AcDbEntity
  8
SUNPOU
100
AcDbDimension
  2
*D36
 10
-1423.317578204601
 20
1494.775270920946
 30
0.0
 11
-1426.067578204602
 21
1506.825270920946
 31
0.0
 70
    32
  3
標準スタイル
100
AcDbAlignedDimension
 13
-1451.856069378627
 23
1518.875270920946
 33
0.0
 14
-1451.356069378627
 24
1494.775270920946
 34
0.0
 50
90.0
100
AcDbRotatedDimension
1001
ACAD
1000
DSTYLE
1002
{
1070
    40
1040
1.0
1002
}
  0
VIEWPORT
  5
5D8F
330
5D8E
100
AcDbEntity
 67
     1
  8
0
100
AcDbViewport
 10
414.4493646210943
 20
429.5567854953327
 30
0.0
 40
821.895771042759
 41
937.7481004716585
 68
     1
 69
     1
1001
ACAD
1000
MVIEW
1002
{
1070
    16
1010
0.0
1020
0.0
1030
0.0
1010
0.0
1020
0.0
1030
1.0
1040
0.0
1040
937.7481004716585
1040
414.4493646210943
1040
429.5567854953327
1040
50.0
1040
0.0
1040
0.0
1070
     0
1070
   100
1070
     1
1070
     0
1070
     0
1070
     0
1070
     0
1070
     0
1040
0.0
1040
0.0
1040
0.0
1040
1.0
1040
1.0
1040
10.0
1040
10.0
1070
     0
1002
{
1002
}
1002
}
  0
VIEWPORT
  5
6001
330
5D8E
100
AcDbEntity
 67
     1
  8
ZISSEN1
100
AcDbViewport
 10
221.7861955525411
 20
157.6960273330388
 30
0.0
 40
385.4999999999997
 41
259.9999999999999
 68
     2
 69
     2
1001
ACAD
1000
MVIEW
1002
{
1070
    16
1010
0.0
1020
0.0
1030
0.0
1010
0.0
1020
0.0
1030
1.0
1040
0.0
1040
259.9999999999999
1040
-1455.552399910871
1040
1563.571656593342
1040
50.0
1040
0.0
1040
0.0
1070
     0
1070
   100
1070
     1
1070
     0
1070
     0
1070
     0
1070
     0
1070
     0
1040
0.0
1040
0.0
1040
0.0
1040
1.0
1040
1.0
1040
10.0
1040
10.0
1070
     0
1002
{
1002
}
1002
}
  0
TEXT
  5
11344
330
5D8E
100
AcDbEntity
 67
     1
  8
SUNPOU
 62
     0
100
AcDbText
 10
370.9719645612322
 20
50.84806879854738
 30
0.0
 40
3.5
  1
縮尺 1/1
  7
ゴシック体
100
AcDbText
  0
ENDSEC
  0
SECTION
  2
OBJECTS
  0
DICTIONARY
  5
C
330
0
100
AcDbDictionary
  3
ACAD_GROUP
350
D
  3
ACAD_LAYOUT
350
5C7D
  3
ACAD_MLINESTYLE
350
E
  3
ACAD_PLOTSETTINGS
350
5C7E
  3
ACAD_PLOTSTYLENAME
350
5C7B
  3
DWGPROPS
350
5E8E
  3
ACDBVARIABLEDICTIONARY
350
1145B
  3
ACDBHEADERROUNDTRIPXREC
350
11466
  0
DICTIONARY
  5
11486
330
1A
100
AcDbDictionary
280
     1
  3
ACAD_LAYOUTSELFREF
360
11487
  0
DICTIONARY
  5
11488
330
5D8E
100
AcDbDictionary
280
     1
  3
ACAD_LAYOUTSELFREF
360
11489
  0
DICTIONARY
  5
D
102
{ACAD_REACTORS
330
C
102
}
330
C
100
AcDbDictionary
  3
*A1
350
477D
  3
*A2
350
4C12
  3
*A3
350
4C13
  3
*A4
350
4C14
  3
*A5
350
4C15
  3
*A6
350
4C16
  3
*A7
350
4C17
  3
*A8
350
477E
  3
*A9
350
477F
  3
*A10
350
4780
  3
*A11
350
4781
  3
*A12
350
4C0E
  3
*A13
350
4C0F
  3
*A14
350
4C10
  3
*A15
350
4C11
  0
DICTIONARY
  5
5C7D
102
{ACAD_REACTORS
330
C
102
}
330
C
100
AcDbDictionary
  0
DICTIONARY
  5
E
102
{ACAD_REACTORS
330
C
102
}
330
C
100
AcDbDictionary
  3
STANDARD
350
13
  0
DICTIONARY
  5
5C7E
102
{ACAD_REACTORS
330
C
102
}
330
C
100
AcDbDictionary
  0
ACDBDICTIONARYWDFLT
  5
5C7B
102
{ACAD_REACTORS
330
C
102
}
330
C
100
AcDbDictionary
281
     1
  3
Normal
350
5C7C
100
AcDbDictionaryWithDefault
340
5C7C
  0
XRECORD
  5
5E8E
102
{ACAD_REACTORS
330
C
102
}
330
C
100
AcDbXrecord
  1
DWGPROPS COOKIE
  2

  3

  4

  6

  7

  8

  9

300
=
301
=
302
=
303
=
304
=
305
=
306
=
307
=
308
=
309
=
 40
0.586753587962963
 41
2450495.493631364
 42
2453208.662277431
  1

 90
        0
  0
DICTIONARY
  5
1145B
102
{ACAD_REACTORS
330
C
102
}
330
C
100
AcDbDictionary
  3
INDEXCTL
350
1145C
  0
DICTIONARY
  5
11466
102
{ACAD_REACTORS
330
C
102
}
330
C
100
AcDbDictionary
  3
TSTACKALIGN
350
11467
  3
TSTACKSIZE
350
11468
  3
HYPERLINKBASE
350
11469
  3
STYLESHEET
350
1146A
  3
LAYOUTDICT
350
1146B
  3
PLOTSETDICT
350
1146C
  3
PLOTSTYLNAMDICT
350
1146D
  3
LWETCUNION
350
1146E
  3
INSUNITS
350
1146F
  3
CEPSNTYPE
350
11470
  3
FINGERPRINTGUID
350
11471
  3
VERSIONGUID
350
11472
  3
PSVPSCALE
350
11473
  3
PUCSORTHOREF
350
11474
  3
PUCSORTHOVIEW
350
11475
  3
PUCSBASE
350
11476
  3
PUCSORGTOP
350
11477
  3
PUCSORGBOTTOM
350
11478
  3
PUCSORGLEFT
350
11479
  3
PUCSORGRIGHT
350
1147A
  3
PUCSORGFRONT
350
1147B
  3
PUCSORGBACK
350
1147C
  3
UCSORTHOREF
350
1147D
  3
UCSORTHOVIEW
350
1147E
  3
UCSBASE
350
1147F
  3
UCSORGTOP
350
11480
  3
UCSORGBOTTOM
350
11481
  3
UCSORGLEFT
350
11482
  3
UCSORGRIGHT
350
11483
  3
UCSORGFRONT
350
11484
  3
UCSORGBACK
350
11485
  0
XRECORD
  5
11487
102
{ACAD_REACTORS
330
11486
102
}
330
11486
100
AcDbXrecord
340
1A
  0
XRECORD
  5
11489
102
{ACAD_REACTORS
330
11488
102
}
330
11488
100
AcDbXrecord
340
5D8E
  0
GROUP
  5
477D
102
{ACAD_REACTORS
330
D
102
}
330
D
100
AcDbGroup
300

 70
     1
 71
     1
  0
GROUP
  5
4C12
102
{ACAD_REACTORS
330
D
102
}
330
D
100
AcDbGroup
300

 70
     1
 71
     1
  0
GROUP
  5
4C13
102
{ACAD_REACTORS
330
D
102
}
330
D
100
AcDbGroup
300

 70
     1
 71
     1
  0
GROUP
  5
4C14
102
{ACAD_REACTORS
330
D
102
}
330
D
100
AcDbGroup
300

 70
     1
 71
     1
  0
GROUP
  5
4C15
102
{ACAD_REACTORS
330
D
102
}
330
D
100
AcDbGroup
300

 70
     1
 71
     1
  0
GROUP
  5
4C16
102
{ACAD_REACTORS
330
D
102
}
330
D
100
AcDbGroup
300

 70
     1
 71
     1
  0
GROUP
  5
4C17
102
{ACAD_REACTORS
330
D
102
}
330
D
100
AcDbGroup
300

 70
     1
 71
     1
  0
GROUP
  5
477E
102
{ACAD_REACTORS
330
D
102
}
330
D
100
AcDbGroup
300

 70
     1
 71
     1
  0
GROUP
  5
477F
102
{ACAD_REACTORS
330
D
102
}
330
D
100
AcDbGroup
300

 70
     1
 71
     1
  0
GROUP
  5
4780
102
{ACAD_REACTORS
330
D
102
}
330
D
100
AcDbGroup
300

 70
     1
 71
     1
  0
GROUP
  5
4781
102
{ACAD_REACTORS
330
D
102
}
330
D
100
AcDbGroup
300

 70
     1
 71
     1
  0
GROUP
  5
4C0E
102
{ACAD_REACTORS
330
D
102
}
330
D
100
AcDbGroup
300

 70
     1
 71
     1
  0
GROUP
  5
4C0F
102
{ACAD_REACTORS
330
D
102
}
330
D
100
AcDbGroup
300

 70
     1
 71
     1
  0
GROUP
  5
4C10
102
{ACAD_REACTORS
330
D
102
}
330
D
100
AcDbGroup
300

 70
     1
 71
     1
  0
GROUP
  5
4C11
102
{ACAD_REACTORS
330
D
102
}
330
D
100
AcDbGroup
300

 70
     1
 71
     1
  0
MLINESTYLE
  5
13
102
{ACAD_REACTORS
330
E
102
}
330
E
100
AcDbMlineStyle
  2
STANDARD
 70
     0
  3

 62
     0
 51
90.0
 52
90.0
 71
     2
 49
0.5
 62
   256
  6
BYLAYER
 49
-0.5
 62
   256
  6
BYLAYER
  0
ACDBPLACEHOLDER
  5
5C7C
102
{ACAD_REACTORS
330
5C7B
102
}
330
5C7B
100
AcDbPlaceHolder
280
     0
  0
DICTIONARYVAR
  5
1145C
102
{ACAD_REACTORS
330
1145B
102
}
330
1145B
100
DictionaryVariables
280
     0
  1
-1
  0
XRECORD
  5
11467
102
{ACAD_REACTORS
330
11466
102
}
330
11466
100
AcDbXrecord
 90
        1
  0
XRECORD
  5
11468
102
{ACAD_REACTORS
330
11466
102
}
330
11466
100
AcDbXrecord
 90
       70
  0
XRECORD
  5
11469
102
{ACAD_REACTORS
330
11466
102
}
330
11466
100
AcDbXrecord
  1

  0
XRECORD
  5
1146A
102
{ACAD_REACTORS
330
11466
102
}
330
11466
100
AcDbXrecord
  1

  0
XRECORD
  5
1146B
102
{ACAD_REACTORS
330
11466
102
}
330
11466
100
AcDbXrecord
340
5C7D
  0
XRECORD
  5
1146C
102
{ACAD_REACTORS
330
11466
102
}
330
11466
100
AcDbXrecord
340
5C7E
  0
XRECORD
  5
1146D
102
{ACAD_REACTORS
330
11466
102
}
330
11466
100
AcDbXrecord
340
5C7B
  0
XRECORD
  5
1146E
102
{ACAD_REACTORS
330
11466
102
}
330
11466
100
AcDbXrecord
 90
    10781
  0
XRECORD
  5
1146F
102
{ACAD_REACTORS
330
11466
102
}
330
11466
100
AcDbXrecord
 90
        0
  0
XRECORD
  5
11470
102
{ACAD_REACTORS
330
11466
102
}
330
11466
100
AcDbXrecord
 90
        0
  0
XRECORD
  5
11471
102
{ACAD_REACTORS
330
11466
102
}
330
11466
100
AcDbXrecord
  1
{225A7F0D-DA29-11D8-946A-0000E2416295}
  0
XRECORD
  5
11472
102
{ACAD_REACTORS
330
11466
102
}
330
11466
100
AcDbXrecord
  1
{027F3BF6-E5EC-4005-A792-144353471C27}
  0
XRECORD
  5
11473
102
{ACAD_REACTORS
330
11466
102
}
330
11466
100
AcDbXrecord
 40
0.0
  0
XRECORD
  5
11474
102
{ACAD_REACTORS
330
11466
102
}
330
11466
100
AcDbXrecord
340
0
  0
XRECORD
  5
11475
102
{ACAD_REACTORS
330
11466
102
}
330
11466
100
AcDbXrecord
 70
     0
  0
XRECORD
  5
11476
102
{ACAD_REACTORS
330
11466
102
}
330
11466
100
AcDbXrecord
340
0
  0
XRECORD
  5
11477
102
{ACAD_REACTORS
330
11466
102
}
330
11466
100
AcDbXrecord
 10
0.0
 20
0.0
 30
0.0
  0
XRECORD
  5
11478
102
{ACAD_REACTORS
330
11466
102
}
330
11466
100
AcDbXrecord
 10
0.0
 20
0.0
 30
0.0
  0
XRECORD
  5
11479
102
{ACAD_REACTORS
330
11466
102
}
330
11466
100
AcDbXrecord
 10
0.0
 20
0.0
 30
0.0
  0
XRECORD
  5
1147A
102
{ACAD_REACTORS
330
11466
102
}
330
11466
100
AcDbXrecord
 10
0.0
 20
0.0
 30
0.0
  0
XRECORD
  5
1147B
102
{ACAD_REACTORS
330
11466
102
}
330
11466
100
AcDbXrecord
 10
0.0
 20
0.0
 30
0.0
  0
XRECORD
  5
1147C
102
{ACAD_REACTORS
330
11466
102
}
330
11466
100
AcDbXrecord
 10
0.0
 20
0.0
 30
0.0
  0
XRECORD
  5
1147D
102
{ACAD_REACTORS
330
11466
102
}
330
11466
100
AcDbXrecord
340
0
  0
XRECORD
  5
1147E
102
{ACAD_REACTORS
330
11466
102
}
330
11466
100
AcDbXrecord
 70
     0
  0
XRECORD
  5
1147F
102
{ACAD_REACTORS
330
11466
102
}
330
11466
100
AcDbXrecord
340
0
  0
XRECORD
  5
11480
102
{ACAD_REACTORS
330
11466
102
}
330
11466
100
AcDbXrecord
 10
0.0
 20
0.0
 30
0.0
  0
XRECORD
  5
11481
102
{ACAD_REACTORS
330
11466
102
}
330
11466
100
AcDbXrecord
 10
0.0
 20
0.0
 30
0.0
  0
XRECORD
  5
11482
102
{ACAD_REACTORS
330
11466
102
}
330
11466
100
AcDbXrecord
 10
0.0
 20
0.0
 30
0.0
  0
XRECORD
  5
11483
102
{ACAD_REACTORS
330
11466
102
}
330
11466
100
AcDbXrecord
 10
0.0
 20
0.0
 30
0.0
  0
XRECORD
  5
11484
102
{ACAD_REACTORS
330
11466
102
}
330
11466
100
AcDbXrecord
 10
0.0
 20
0.0
 30
0.0
  0
XRECORD
  5
11485
102
{ACAD_REACTORS
330
11466
102
}
330
11466
100
AcDbXrecord
 10
0.0
 20
0.0
 30
0.0
  0
ENDSEC
  0
EOF
