  0
SECTION
  2
HEADER
  9
$ACADVER
  1
AC1014
  9
$ACADMAINTVER
 70
     9
  9
$DWGCODEPAGE
  3
ANSI_932
  9
$INSBASE
 10
0.0
 20
0.0
 30
0.0
  9
$EXTMIN
 10
-627.0636752769664
 20
1495.250696003934
 30
0.0
  9
$EXTMAX
 10
-479.9710088984588
 20
1685.233566703279
 30
0.0
  9
$LIMMIN
 10
0.0
 20
0.0
  9
$LIMMAX
 10
420.0
 20
297.0
  9
$ORTHOMODE
 70
     1
  9
$REGENMODE
 70
     1
  9
$FILLMODE
 70
     1
  9
$QTEXTMODE
 70
     0
  9
$MIRRTEXT
 70
     1
  9
$DRAGMODE
 70
     2
  9
$LTSCALE
 40
1.0
  9
$OSMODE
 70
    37
  9
$ATTMODE
 70
     1
  9
$TEXTSIZE
 40
2.5
  9
$TRACEWID
 40
1.0
  9
$TEXTSTYLE
  7
ゴシック体
  9
$CLAYER
  8
SOUZOUSEN
  9
$CELTYPE
  6
BYLAYER
  9
$CECOLOR
 62
   256
  9
$CELTSCALE
 40
1.0
  9
$DELOBJ
 70
     1
  9
$DISPSILH
 70
     0
  9
$DIMSCALE
 40
0.0
  9
$DIMASZ
 40
3.0
  9
$DIMEXO
 40
0.5
  9
$DIMDLI
 40
0.5
  9
$DIMRND
 40
0.0
  9
$DIMDLE
 40
0.0
  9
$DIMEXE
 40
0.5
  9
$DIMTP
 40
0.0
  9
$DIMTM
 40
0.0
  9
$DIMTXT
 40
3.5
  9
$DIMCEN
 40
0.0
  9
$DIMTSZ
 40
0.0
  9
$DIMTOL
 70
     0
  9
$DIMLIM
 70
     0
  9
$DIMTIH
 70
     0
  9
$DIMTOH
 70
     0
  9
$DIMSE1
 70
     0
  9
$DIMSE2
 70
     0
  9
$DIMTAD
 70
     1
  9
$DIMZIN
 70
     8
  9
$DIMBLK
  1

  9
$DIMASO
 70
     1
  9
$DIMSHO
 70
     1
  9
$DIMPOST
  1

  9
$DIMAPOST
  1

  9
$DIMALT
 70
     0
  9
$DIMALTD
 70
     2
  9
$DIMALTF
 40
25.4
  9
$DIMLFAC
 40
1.0
  9
$DIMTOFL
 70
     1
  9
$DIMTVP
 40
0.0
  9
$DIMTIX
 70
     0
  9
$DIMSOXD
 70
     0
  9
$DIMSAH
 70
     0
  9
$DIMBLK1
  1

  9
$DIMBLK2
  1

  9
$DIMSTYLE
  2
標準スタイル
  9
$DIMCLRD
 70
     1
  9
$DIMCLRE
 70
     1
  9
$DIMCLRT
 70
     1
  9
$DIMTFAC
 40
1.0
  9
$DIMGAP
 40
1.0
  9
$DIMJUST
 70
     0
  9
$DIMSD1
 70
     0
  9
$DIMSD2
 70
     0
  9
$DIMTOLJ
 70
     1
  9
$DIMTZIN
 70
     8
  9
$DIMALTZ
 70
     0
  9
$DIMALTTZ
 70
     0
  9
$DIMFIT
 70
     3
  9
$DIMUPT
 70
     0
  9
$DIMUNIT
 70
     2
  9
$DIMDEC
 70
     2
  9
$DIMTDEC
 70
     2
  9
$DIMALTU
 70
     2
  9
$DIMALTTD
 70
     2
  9
$DIMTXSTY
  7
ゴシック体
  9
$DIMAUNIT
 70
     0
  9
$LUNITS
 70
     2
  9
$LUPREC
 70
     4
  9
$SKETCHINC
 40
1.0
  9
$FILLETRAD
 40
0.0
  9
$AUNITS
 70
     0
  9
$AUPREC
 70
     0
  9
$MENU
  1
.
  9
$ELEVATION
 40
0.0
  9
$PELEVATION
 40
0.0
  9
$THICKNESS
 40
0.0
  9
$LIMCHECK
 70
     0
  9
$BLIPMODE
 70
     0
  9
$CHAMFERA
 40
10.0
  9
$CHAMFERB
 40
10.0
  9
$CHAMFERC
 40
2.0
  9
$CHAMFERD
 40
0.7853981633974483
  9
$SKPOLY
 70
     0
  9
$TDCREATE
 40
2450495.493631365
  9
$TDUPDATE
 40
2456315.763827940
  9
$TDINDWG
 40
1.7885177894
  9
$TDUSRTIMER
 40
1.7885177894
  9
$USRTIMER
 70
     1
  9
$ANGBASE
 50
0.0
  9
$ANGDIR
 70
     0
  9
$PDMODE
 70
    99
  9
$PDSIZE
 40
0.0
  9
$PLINEWID
 40
0.0
  9
$COORDS
 70
     1
  9
$SPLFRAME
 70
     0
  9
$SPLINETYPE
 70
     6
  9
$SPLINESEGS
 70
     8
  9
$ATTDIA
 70
     0
  9
$ATTREQ
 70
     1
  9
$HANDLING
 70
 10241
  9
$HANDSEED
  5
1A08D
  9
$SURFTAB1
 70
     6
  9
$SURFTAB2
 70
     6
  9
$SURFTYPE
 70
     6
  9
$SURFU
 70
     6
  9
$SURFV
 70
     6
  9
$UCSNAME
  2

  9
$UCSORG
 10
0.0
 20
0.0
 30
0.0
  9
$UCSXDIR
 10
1.0
 20
0.0
 30
0.0
  9
$UCSYDIR
 10
0.0
 20
1.0
 30
0.0
  9
$PUCSNAME
  2

  9
$PUCSORG
 10
0.0
 20
0.0
 30
0.0
  9
$PUCSXDIR
 10
1.0
 20
0.0
 30
0.0
  9
$PUCSYDIR
 10
0.0
 20
1.0
 30
0.0
  9
$USERI1
 70
     0
  9
$USERI2
 70
     0
  9
$USERI3
 70
     0
  9
$USERI4
 70
     0
  9
$USERI5
 70
     0
  9
$USERR1
 40
0.0
  9
$USERR2
 40
0.0
  9
$USERR3
 40
0.0
  9
$USERR4
 40
0.0
  9
$USERR5
 40
0.0
  9
$WORLDVIEW
 70
     1
  9
$SHADEDGE
 70
     3
  9
$SHADEDIF
 70
    70
  9
$TILEMODE
 70
     0
  9
$MAXACTVP
 70
    16
  9
$PINSBASE
 10
0.0
 20
0.0
 30
0.0
  9
$PLIMCHECK
 70
     0
  9
$PEXTMIN
 10
29.03619555254135
 20
27.69602733303884
 30
0.0
  9
$PEXTMAX
 10
414.5361955525411
 20
287.6960273330388
 30
0.0
  9
$PLIMMIN
 10
11.82004301553063
 20
9.193992763477359
  9
$PLIMMAX
 10
431.7666982889681
 20
306.204643398243
  9
$UNITMODE
 70
     0
  9
$VISRETAIN
 70
     0
  9
$PLINEGEN
 70
     0
  9
$PSLTSCALE
 70
     1
  9
$TREEDEPTH
 70
  3020
  9
$PICKSTYLE
 70
     1
  9
$CMLSTYLE
  2
STANDARD
  9
$CMLJUST
 70
     0
  9
$CMLSCALE
 40
1.0
  9
$PROXYGRAPHICS
 70
     1
  9
$MEASUREMENT
 70
     1
  0
ENDSEC
  0
SECTION
  2
CLASSES
  0
CLASS
  1
LWPOLYLINE
  2
AcDbPolyline
  3
AutoCAD 2000
 90
        0
280
     0
281
     1
  0
CLASS
  1
HATCH
  2
AcDbHatch
  3
AutoCAD 2000
 90
        0
280
     0
281
     1
  0
CLASS
  1
ACDBDICTIONARYWDFLT
  2
AcDbDictionaryWithDefault
  3
AutoCAD 2000
 90
        0
280
     0
281
     0
  0
CLASS
  1
ACDBPLACEHOLDER
  2
AcDbPlaceHolder
  3
AutoCAD 2000
 90
        0
280
     0
281
     0
  0
CLASS
  1
LAYOUT
  2
AcDbLayout
  3
AutoCAD 2000
 90
        0
280
     0
281
     0
  0
CLASS
  1
DICTIONARYVAR
  2
AcDbDictionaryVar
  3
AutoCAD 2000
 90
        0
280
     0
281
     0
  0
CLASS
  1
LONG_TRANSACTION
  2
AcDbLongTransaction
  3
AutoCAD 2000
 90
        0
280
     0
281
     0
  0
CLASS
  1
LWPOLYLINE
  2
AcDbPolyline
  3
AutoCAD 2000
 90
        0
280
     0
281
     1
  0
CLASS
  1
HATCH
  2
AcDbHatch
  3
AutoCAD 2000
 90
        0
280
     0
281
     1
  0
CLASS
  1
XRECORD
  2
AcDbXrecord
  3
AutoCAD 2000
 90
        0
280
     0
281
     0
  0
ENDSEC
  0
SECTION
  2
TABLES
  0
TABLE
  2
VPORT
  5
8
330
0
100
AcDbSymbolTable
 70
     3
  0
VPORT
  5
1A052
330
8
100
AcDbSymbolTableRecord
100
AcDbViewportTableRecord
  2
*ACTIVE
 70
     0
 10
0.0
 20
0.0
 11
1.0
 21
1.0
 12
-553.5218933138075
 22
1590.205180296277
 13
0.0
 23
0.0
 14
5.0
 24
5.0
 15
0.0
 25
0.0
 16
0.0
 26
0.0
 36
1.0
 17
0.0
 27
0.0
 37
0.0
 40
192.3002729923141
 41
1.781954887218045
 42
50.0
 43
0.0
 44
0.0
 50
0.0
 51
0.0
 71
     0
 72
   100
 73
     1
 74
     0
 75
     0
 76
     0
 77
     0
 78
     0
  0
ENDTAB
  0
TABLE
  2
LTYPE
  5
5
330
0
100
AcDbSymbolTable
 70
     4
  0
LTYPE
  5
14
330
5
100
AcDbSymbolTableRecord
100
AcDbLinetypeTableRecord
  2
BYBLOCK
 70
     0
  3

 72
    65
 73
     0
 40
0.0
  0
LTYPE
  5
15
330
5
100
AcDbSymbolTableRecord
100
AcDbLinetypeTableRecord
  2
BYLAYER
 70
     0
  3

 72
    65
 73
     0
 40
0.0
  0
LTYPE
  5
16
330
5
100
AcDbSymbolTableRecord
100
AcDbLinetypeTableRecord
  2
CONTINUOUS
 70
     0
  3
Solid line
 72
    65
 73
     0
 40
0.0
  0
LTYPE
  5
1956
330
5
100
AcDbSymbolTableRecord
100
AcDbLinetypeTableRecord
  2
CENTERX2
 70
     0
  3
________  __  ________  __  ________  __  _____
 72
    65
 73
     4
 40
4.0
 49
2.5
 74
     0
 49
-0.5
 74
     0
 49
0.5
 74
     0
 49
-0.5
 74
     0
  0
LTYPE
  5
1958
330
5
100
AcDbSymbolTableRecord
100
AcDbLinetypeTableRecord
  2
PHANTOMX2
 70
     0
  3
____________    ____    ____    ____________   
 72
    65
 73
     6
 40
5.0
 49
2.5
 74
     0
 49
-0.5
 74
     0
 49
0.5
 74
     0
 49
-0.5
 74
     0
 49
0.5
 74
     0
 49
-0.5
 74
     0
  0
LTYPE
  5
142A2
330
5
100
AcDbSymbolTableRecord
100
AcDbLinetypeTableRecord
  2
DASHEDX2
 70
     0
  3
____  ____  ____  ____  ____  ____  ____  ____ 
 72
    65
 73
     2
 40
1.5
 49
1.0
 74
     0
 49
-0.5
 74
     0
  0
ENDTAB
  0
TABLE
  2
LAYER
  5
2
102
{ACAD_XDICTIONARY
360
14053
102
}
330
0
100
AcDbSymbolTable
 70
     6
  0
LAYER
  5
F
330
2
100
AcDbSymbolTableRecord
100
AcDbLayerTableRecord
  2
0
 70
     0
 62
     7
  6
CONTINUOUS
  0
LAYER
  5
18F
330
2
100
AcDbSymbolTableRecord
100
AcDbLayerTableRecord
  2
ZISSEN1
 70
     0
 62
     7
  6
CONTINUOUS
  0
LAYER
  5
529
330
2
100
AcDbSymbolTableRecord
100
AcDbLayerTableRecord
  2
SUNPOU
 70
     0
 62
     1
  6
CONTINUOUS
  0
LAYER
  5
195A
330
2
100
AcDbSymbolTableRecord
100
AcDbLayerTableRecord
  2
CL1
 70
     0
 62
   210
  6
CENTERX2
  0
LAYER
  5
195C
330
2
100
AcDbSymbolTableRecord
100
AcDbLayerTableRecord
  2
SOUZOUSEN
 70
     0
 62
     5
  6
PHANTOMX2
  0
LAYER
  5
3A9B
330
2
100
AcDbSymbolTableRecord
100
AcDbLayerTableRecord
  2
DEFPOINTS
 70
     0
 62
     7
  6
CONTINUOUS
  0
ENDTAB
  0
TABLE
  2
STYLE
  5
3
330
0
100
AcDbSymbolTable
 70
     2
  0
STYLE
  5
10
330
3
100
AcDbSymbolTableRecord
100
AcDbTextStyleTableRecord
  2
STANDARD
 70
     0
 40
0.0
 41
1.0
 50
0.0
 71
     0
 42
3.0
  3
txt
  4
BigFont
  0
STYLE
  5
1960
330
3
100
AcDbSymbolTableRecord
100
AcDbTextStyleTableRecord
  2
ゴシック体
 70
     0
 40
0.0
 41
1.0
 50
0.0
 71
     0
 42
2.5
  3
MS Gothic.ttf
  4

1001
ACAD
1000
MS Gothic
1071
    32817
  0
ENDTAB
  0
TABLE
  2
VIEW
  5
6
330
0
100
AcDbSymbolTable
 70
     0
  0
ENDTAB
  0
TABLE
  2
UCS
  5
7
330
0
100
AcDbSymbolTable
 70
     0
  0
ENDTAB
  0
TABLE
  2
APPID
  5
9
330
0
100
AcDbSymbolTable
 70
     5
  0
APPID
  5
11
330
9
100
AcDbSymbolTableRecord
100
AcDbRegAppTableRecord
  2
ACAD
 70
     0
  0
APPID
  5
4005
330
9
100
AcDbSymbolTableRecord
100
AcDbRegAppTableRecord
  2
CONTENTTABDATA
 70
     0
  0
APPID
  5
4006
330
9
100
AcDbSymbolTableRecord
100
AcDbRegAppTableRecord
  2
CONTENTCURRENTTAB
 70
     0
  0
APPID
  5
477B
330
9
100
AcDbSymbolTableRecord
100
AcDbRegAppTableRecord
  2
CONTENTBLOCKDESCRIPTION
 70
     0
  0
APPID
  5
477C
330
9
100
AcDbSymbolTableRecord
100
AcDbRegAppTableRecord
  2
CONTENTBLOCKICON
 70
     0
  0
ENDTAB
  0
TABLE
  2
DIMSTYLE
  5
A
330
0
100
AcDbSymbolTable
 70
     2
  0
DIMSTYLE
105
1D
330
A
100
AcDbSymbolTableRecord
100
AcDbDimStyleTableRecord
  2
STANDARD
 70
     0
  3

  4

  5

  6

  7

 40
1.0
 41
0.18
 42
0.0625
 43
0.38
 44
0.18
 45
0.0
 46
0.0
 47
0.0
 48
0.0
140
0.18
141
0.09
142
0.0
143
25.4
144
1.0
145
0.0
146
1.0
147
0.09
 71
     0
 72
     0
 73
     1
 74
     1
 75
     0
 76
     0
 77
     0
 78
     0
170
     0
171
     2
172
     0
173
     0
174
     0
175
     0
176
     0
177
     0
178
     0
270
     2
271
     4
272
     4
273
     2
274
     2
340
10
275
     0
280
     0
281
     0
282
     0
283
     1
284
     0
285
     0
286
     0
287
     3
288
     0
  0
DIMSTYLE
105
52E
102
{ACAD_REACTORS
330
19EA1
330
19EC4
330
19F05
330
19F2A
330
19F37
330
19F56
330
19F71
330
19F87
330
19FA1
330
19FED
102
}
330
A
100
AcDbSymbolTableRecord
100
AcDbDimStyleTableRecord
  2
標準スタイル
 70
     0
  3

  4

  5

  6

  7

 40
0.0
 41
3.0
 42
0.5
 43
0.5
 44
0.5
 45
0.0
 46
0.0
 47
0.0
 48
0.0
140
3.5
141
0.0
142
0.0
143
25.4
144
1.0
145
0.0
146
1.0
147
1.0
 71
     0
 72
     0
 73
     0
 74
     0
 75
     0
 76
     0
 77
     1
 78
     8
170
     0
171
     2
172
     1
173
     0
174
     0
175
     0
176
     1
177
     1
178
     1
270
     2
271
     2
272
     2
273
     2
274
     2
340
1960
275
     0
280
     0
281
     0
282
     0
283
     1
284
     8
285
     0
286
     0
287
     3
288
     0
  0
ENDTAB
  0
TABLE
  2
BLOCK_RECORD
  5
1
330
0
100
AcDbSymbolTable
 70
    10
  0
BLOCK_RECORD
  5
1A
102
{ACAD_XDICTIONARY
360
1A073
102
}
330
1
100
AcDbSymbolTableRecord
100
AcDbBlockTableRecord
  2
*MODEL_SPACE
  0
BLOCK_RECORD
  5
5D8E
102
{ACAD_XDICTIONARY
360
1A075
102
}
330
1
100
AcDbSymbolTableRecord
100
AcDbBlockTableRecord
  2
*PAPER_SPACE
  0
BLOCK_RECORD
  5
19EA2
330
1
100
AcDbSymbolTableRecord
100
AcDbBlockTableRecord
  2
*D0
  0
BLOCK_RECORD
  5
19EC5
330
1
100
AcDbSymbolTableRecord
100
AcDbBlockTableRecord
  2
*D1
  0
BLOCK_RECORD
  5
19F06
330
1
100
AcDbSymbolTableRecord
100
AcDbBlockTableRecord
  2
*D2
  0
BLOCK_RECORD
  5
19F2B
330
1
100
AcDbSymbolTableRecord
100
AcDbBlockTableRecord
  2
*D3
  0
BLOCK_RECORD
  5
19F38
330
1
100
AcDbSymbolTableRecord
100
AcDbBlockTableRecord
  2
*D4
  0
BLOCK_RECORD
  5
19F57
330
1
100
AcDbSymbolTableRecord
100
AcDbBlockTableRecord
  2
*D5
  0
BLOCK_RECORD
  5
19F72
330
1
100
AcDbSymbolTableRecord
100
AcDbBlockTableRecord
  2
*D6
  0
BLOCK_RECORD
  5
19F88
330
1
100
AcDbSymbolTableRecord
100
AcDbBlockTableRecord
  2
*D7
  0
BLOCK_RECORD
  5
19FA2
330
1
100
AcDbSymbolTableRecord
100
AcDbBlockTableRecord
  2
*D8
  0
BLOCK_RECORD
  5
19FEE
330
1
100
AcDbSymbolTableRecord
100
AcDbBlockTableRecord
  2
*D9
  0
ENDTAB
  0
ENDSEC
  0
SECTION
  2
BLOCKS
  0
BLOCK
  5
1B
330
1A
100
AcDbEntity
  8
0
100
AcDbBlockBegin
  2
*MODEL_SPACE
 70
     0
 10
0.0
 20
0.0
 30
0.0
  3
*MODEL_SPACE
  1

  0
ENDBLK
  5
1C
330
1A
100
AcDbEntity
  8
0
100
AcDbBlockEnd
  0
BLOCK
  5
5E60
330
5D8E
100
AcDbEntity
 67
     1
  8
0
100
AcDbBlockBegin
  2
*PAPER_SPACE
 70
     0
 10
0.0
 20
0.0
 30
0.0
  3
*PAPER_SPACE
  1

  0
ENDBLK
  5
5E61
330
5D8E
100
AcDbEntity
 67
     1
  8
0
100
AcDbBlockEnd
  0
BLOCK
  5
19EAC
330
19EA2
100
AcDbEntity
  8
0
100
AcDbBlockBegin
  2
*D0
 70
     1
 10
0.0
 20
0.0
 30
0.0
  3
*D0
  1

  0
LINE
  5
19EAE
330
19EA2
100
AcDbEntity
  8
SUNPOU
 62
     1
100
AcDbLine
 10
-497.2210088984586
 20
1631.620993269049
 30
0.0
 11
-517.9015747271542
 21
1631.620993269049
 31
0.0
  0
LINE
  5
19EAF
330
19EA2
100
AcDbEntity
  8
SUNPOU
 62
     1
100
AcDbLine
 10
-497.2210088984586
 20
1566.620993269049
 30
0.0
 11
-517.9015747271542
 21
1566.620993269049
 31
0.0
  0
LINE
  5
19EB0
330
19EA2
100
AcDbEntity
  8
SUNPOU
 62
     1
100
AcDbLine
 10
-517.4015747271542
 20
1628.620993269049
 30
0.0
 11
-517.4015747271542
 21
1569.620993269049
 31
0.0
  0
SOLID
  5
19EB1
330
19EA2
100
AcDbEntity
  8
SUNPOU
 62
     1
100
AcDbTrace
 10
-517.9015747271542
 20
1628.620993269049
 30
0.0
 11
-516.9015747271542
 21
1628.620993269049
 31
0.0
 12
-517.4015747271542
 22
1631.620993269049
 32
0.0
 13
-517.4015747271542
 23
1631.620993269049
 33
0.0
  0
SOLID
  5
19EB2
330
19EA2
100
AcDbEntity
  8
SUNPOU
 62
     1
100
AcDbTrace
 10
-517.9015747271542
 20
1569.620993269049
 30
0.0
 11
-516.9015747271542
 21
1569.620993269049
 31
0.0
 12
-517.4015747271542
 22
1566.620993269049
 32
0.0
 13
-517.4015747271542
 23
1566.620993269049
 33
0.0
  0
MTEXT
  5
19EB3
330
19EA2
100
AcDbEntity
  8
SUNPOU
 62
     1
100
AcDbMText
 10
-520.1515747271543
 20
1599.120993269049
 30
0.0
 40
3.5
 41
0.0
 71
     5
 72
     1
  1
\A1;65
 11
0.0000000000000001
 21
1.0
 31
0.0
1001
ACAD
1000
MTEXTBEGIN
1070
    73
1070
     1
1070
    44
1040
1.0
1070
    74
1070
     0
1000
MTEXTEND
  0
POINT
  5
19EB4
330
19EA2
100
AcDbEntity
  8
DEFPOINTS
 62
     0
100
AcDbPoint
 10
-496.7210088984585
 20
1631.620993269049
 30
0.0
  0
POINT
  5
19EB5
330
19EA2
100
AcDbEntity
  8
DEFPOINTS
 62
     0
100
AcDbPoint
 10
-496.7210088984585
 20
1566.620993269049
 30
0.0
  0
POINT
  5
19EB6
330
19EA2
100
AcDbEntity
  8
DEFPOINTS
 62
     0
100
AcDbPoint
 10
-517.4015747271542
 20
1566.620993269049
 30
0.0
  0
ENDBLK
  5
19EAD
330
19EA2
100
AcDbEntity
  8
0
100
AcDbBlockEnd
  0
BLOCK
  5
19ED1
330
19EC5
100
AcDbEntity
  8
0
100
AcDbBlockBegin
  2
*D1
 70
     1
 10
0.0
 20
0.0
 30
0.0
  3
*D1
  1

  0
LINE
  5
1A077
330
19EC5
100
AcDbEntity
  8
SUNPOU
 62
     1
100
AcDbLine
 10
-509.7210088984589
 20
1631.620993269049
 30
0.0
 11
-517.9015747271542
 21
1631.620993269049
 31
0.0
  0
LINE
  5
1A078
330
19EC5
100
AcDbEntity
  8
SUNPOU
 62
     1
100
AcDbLine
 10
-508.7210088984589
 20
1634.120993269049
 30
0.0
 11
-517.9015747271542
 21
1634.120993269049
 31
0.0
  0
LINE
  5
1A079
330
19EC5
100
AcDbEntity
  8
SUNPOU
 62
     1
100
AcDbLine
 10
-517.4015747271542
 20
1628.62099326905
 30
0.0
 11
-517.4015747271542
 21
1625.620993269049
 31
0.0
  0
LINE
  5
1A07A
330
19EC5
100
AcDbEntity
  8
SUNPOU
 62
     1
100
AcDbLine
 10
-517.4015747271542
 20
1637.120993269049
 30
0.0
 11
-517.4015747271542
 21
1640.120993269049
 31
0.0
  0
MTEXT
  5
1A07B
330
19EC5
100
AcDbEntity
  8
SUNPOU
 62
     1
100
AcDbMText
 10
-520.9499736631642
 20
1637.364555043053
 30
0.0
 40
3.5
 41
0.0
 71
     5
 72
     1
  1
\A1;2.5
 11
0.0000000000000001
 21
1.0
 31
0.0
  0
LINE
  5
1A07C
330
19EC5
100
AcDbEntity
  8
SUNPOU
 62
     1
100
AcDbLine
 10
-517.4015747271542
 20
1631.620993269049
 30
0.0
 11
-517.4015747271542
 21
1634.120993269049
 31
0.0
  0
SOLID
  5
1A07D
330
19EC5
100
AcDbEntity
  8
SUNPOU
 62
     1
100
AcDbTrace
 10
-517.9015747271542
 20
1628.62099326905
 30
0.0
 11
-516.9015747271542
 21
1628.62099326905
 31
0.0
 12
-517.4015747271542
 22
1631.620993269049
 32
0.0
 13
-517.4015747271542
 23
1631.620993269049
 33
0.0
  0
SOLID
  5
1A07E
330
19EC5
100
AcDbEntity
  8
SUNPOU
 62
     1
100
AcDbTrace
 10
-517.9015747271542
 20
1637.120993269049
 30
0.0
 11
-516.9015747271542
 21
1637.120993269049
 31
0.0
 12
-517.4015747271542
 22
1634.120993269049
 32
0.0
 13
-517.4015747271542
 23
1634.120993269049
 33
0.0
  0
POINT
  5
1A07F
330
19EC5
100
AcDbEntity
  8
DEFPOINTS
 62
     0
100
AcDbPoint
 10
-509.2210088984589
 20
1631.620993269049
 30
0.0
  0
POINT
  5
1A080
330
19EC5
100
AcDbEntity
  8
DEFPOINTS
 62
     0
100
AcDbPoint
 10
-508.2210088984588
 20
1634.120993269049
 30
0.0
  0
POINT
  5
1A081
330
19EC5
100
AcDbEntity
  8
DEFPOINTS
 62
     0
100
AcDbPoint
 10
-517.4015747271542
 20
1634.120993269049
 30
0.0
  0
ENDBLK
  5
19ED2
330
19EC5
100
AcDbEntity
  8
0
100
AcDbBlockEnd
  0
BLOCK
  5
19F12
330
19F06
100
AcDbEntity
  8
0
100
AcDbBlockBegin
  2
*D2
 70
     1
 10
0.0
 20
0.0
 30
0.0
  3
*D2
  1

  0
LINE
  5
1A082
330
19F06
100
AcDbEntity
  8
SUNPOU
 62
     1
100
AcDbLine
 10
-497.2210088984586
 20
1566.620993269049
 30
0.0
 11
-517.9015747271542
 21
1566.620993269049
 31
0.0
  0
LINE
  5
1A083
330
19F06
100
AcDbEntity
  8
SUNPOU
 62
     1
100
AcDbLine
 10
-508.7210088984589
 20
1564.120993269049
 30
0.0
 11
-517.9015747271542
 21
1564.120993269049
 31
0.0
  0
LINE
  5
1A084
330
19F06
100
AcDbEntity
  8
SUNPOU
 62
     1
100
AcDbLine
 10
-517.4015747271542
 20
1569.620993269049
 30
0.0
 11
-517.4015747271542
 21
1572.620993269049
 31
0.0
  0
LINE
  5
1A085
330
19F06
100
AcDbEntity
  8
SUNPOU
 62
     1
100
AcDbLine
 10
-517.4015747271542
 20
1561.120993269049
 30
0.0
 11
-517.4015747271542
 21
1558.120993269049
 31
0.0
  0
MTEXT
  5
1A086
330
19F06
100
AcDbEntity
  8
SUNPOU
 62
     1
100
AcDbMText
 10
-520.6656162187819
 20
1560.004472419167
 30
0.0
 40
3.5
 41
0.0
 71
     5
 72
     1
  1
\A1;2.5
 11
0.0000000000000001
 21
1.0
 31
0.0
  0
LINE
  5
1A087
330
19F06
100
AcDbEntity
  8
SUNPOU
 62
     1
100
AcDbLine
 10
-517.4015747271542
 20
1566.620993269049
 30
0.0
 11
-517.4015747271542
 21
1564.120993269049
 31
0.0
  0
SOLID
  5
1A088
330
19F06
100
AcDbEntity
  8
SUNPOU
 62
     1
100
AcDbTrace
 10
-517.9015747271542
 20
1569.620993269049
 30
0.0
 11
-516.9015747271542
 21
1569.620993269049
 31
0.0
 12
-517.4015747271542
 22
1566.620993269049
 32
0.0
 13
-517.4015747271542
 23
1566.620993269049
 33
0.0
  0
SOLID
  5
1A089
330
19F06
100
AcDbEntity
  8
SUNPOU
 62
     1
100
AcDbTrace
 10
-517.9015747271542
 20
1561.120993269049
 30
0.0
 11
-516.9015747271542
 21
1561.120993269049
 31
0.0
 12
-517.4015747271542
 22
1564.120993269049
 32
0.0
 13
-517.4015747271542
 23
1564.120993269049
 33
0.0
  0
POINT
  5
1A08A
330
19F06
100
AcDbEntity
  8
DEFPOINTS
 62
     0
100
AcDbPoint
 10
-496.7210088984585
 20
1566.620993269049
 30
0.0
  0
POINT
  5
1A08B
330
19F06
100
AcDbEntity
  8
DEFPOINTS
 62
     0
100
AcDbPoint
 10
-508.2210088984588
 20
1564.120993269049
 30
0.0
  0
POINT
  5
1A08C
330
19F06
100
AcDbEntity
  8
DEFPOINTS
 62
     0
100
AcDbPoint
 10
-517.4015747271542
 20
1564.120993269049
 30
0.0
  0
ENDBLK
  5
19F13
330
19F06
100
AcDbEntity
  8
0
100
AcDbBlockEnd
  0
BLOCK
  5
19F35
330
19F2B
100
AcDbEntity
  8
0
100
AcDbBlockBegin
  2
*D3
 70
     1
 10
0.0
 20
0.0
 30
0.0
  3
*D3
  1

  0
LINE
  5
19F44
330
19F2B
100
AcDbEntity
  8
SUNPOU
 62
     1
100
AcDbLine
 10
-481.2210088984588
 20
1563.620993269049
 30
0.0
 11
-481.2210088984588
 21
1551.326155213802
 31
0.0
  0
LINE
  5
19F45
330
19F2B
100
AcDbEntity
  8
SUNPOU
 62
     1
100
AcDbLine
 10
-496.7210088984585
 20
1566.120993269049
 30
0.0
 11
-496.7210088984585
 21
1551.326155213802
 31
0.0
  0
LINE
  5
19F46
330
19F2B
100
AcDbEntity
  8
SUNPOU
 62
     1
100
AcDbLine
 10
-484.2210088984589
 20
1551.826155213802
 30
0.0
 11
-493.7210088984586
 21
1551.826155213802
 31
0.0
  0
SOLID
  5
19F47
330
19F2B
100
AcDbEntity
  8
SUNPOU
 62
     1
100
AcDbTrace
 10
-484.2210088984589
 20
1552.326155213802
 30
0.0
 11
-484.2210088984589
 21
1551.326155213802
 31
0.0
 12
-481.2210088984588
 22
1551.826155213802
 32
0.0
 13
-481.2210088984588
 23
1551.826155213802
 33
0.0
  0
SOLID
  5
19F48
330
19F2B
100
AcDbEntity
  8
SUNPOU
 62
     1
100
AcDbTrace
 10
-493.7210088984586
 20
1552.326155213802
 30
0.0
 11
-493.7210088984586
 21
1551.326155213802
 31
0.0
 12
-496.7210088984585
 22
1551.826155213802
 32
0.0
 13
-496.7210088984585
 23
1551.826155213802
 33
0.0
  0
MTEXT
  5
19F49
330
19F2B
100
AcDbEntity
  8
SUNPOU
 62
     1
100
AcDbMText
 10
-488.9710088984587
 20
1554.576155213802
 30
0.0
 40
3.5
 41
0.0
 71
     5
 72
     1
  1
\A1;15.5
1001
ACAD
1000
MTEXTBEGIN
1070
    73
1070
     1
1070
    44
1040
1.0
1070
    74
1070
     0
1000
MTEXTEND
  0
POINT
  5
19F4A
330
19F2B
100
AcDbEntity
  8
DEFPOINTS
 62
     0
100
AcDbPoint
 10
-481.2210088984588
 20
1564.120993269049
 30
0.0
  0
POINT
  5
19F4B
330
19F2B
100
AcDbEntity
  8
DEFPOINTS
 62
     0
100
AcDbPoint
 10
-496.7210088984585
 20
1566.620993269049
 30
0.0
  0
POINT
  5
19F4C
330
19F2B
100
AcDbEntity
  8
DEFPOINTS
 62
     0
100
AcDbPoint
 10
-496.7210088984585
 20
1551.826155213802
 30
0.0
  0
ENDBLK
  5
19F36
330
19F2B
100
AcDbEntity
  8
0
100
AcDbBlockEnd
  0
BLOCK
  5
19F42
330
19F38
100
AcDbEntity
  8
0
100
AcDbBlockBegin
  2
*D4
 70
     1
 10
0.0
 20
0.0
 30
0.0
  3
*D4
  1

  0
LINE
  5
19F4D
330
19F38
100
AcDbEntity
  8
SUNPOU
 62
     1
100
AcDbLine
 10
-481.2210088984588
 20
1563.620993269049
 30
0.0
 11
-481.2210088984588
 21
1542.294051562276
 31
0.0
  0
LINE
  5
19F4E
330
19F38
100
AcDbEntity
  8
SUNPOU
 62
     1
100
AcDbLine
 10
-509.2210088984589
 20
1564.620993269049
 30
0.0
 11
-509.2210088984589
 21
1542.294051562276
 31
0.0
  0
LINE
  5
19F4F
330
19F38
100
AcDbEntity
  8
SUNPOU
 62
     1
100
AcDbLine
 10
-484.2210088984589
 20
1542.794051562276
 30
0.0
 11
-506.2210088984588
 21
1542.794051562276
 31
0.0
  0
SOLID
  5
19F50
330
19F38
100
AcDbEntity
  8
SUNPOU
 62
     1
100
AcDbTrace
 10
-484.2210088984589
 20
1543.294051562276
 30
0.0
 11
-484.2210088984589
 21
1542.294051562276
 31
0.0
 12
-481.2210088984588
 22
1542.794051562276
 32
0.0
 13
-481.2210088984588
 23
1542.794051562276
 33
0.0
  0
SOLID
  5
19F51
330
19F38
100
AcDbEntity
  8
SUNPOU
 62
     1
100
AcDbTrace
 10
-506.2210088984588
 20
1543.294051562276
 30
0.0
 11
-506.2210088984588
 21
1542.294051562276
 31
0.0
 12
-509.2210088984589
 22
1542.794051562276
 32
0.0
 13
-509.2210088984589
 23
1542.794051562276
 33
0.0
  0
MTEXT
  5
19F52
330
19F38
100
AcDbEntity
  8
SUNPOU
 62
     1
100
AcDbMText
 10
-495.2210088984588
 20
1545.544051562276
 30
0.0
 40
3.5
 41
0.0
 71
     5
 72
     1
  1
\A1;28
1001
ACAD
1000
MTEXTBEGIN
1070
    73
1070
     1
1070
    44
1040
1.0
1070
    74
1070
     0
1000
MTEXTEND
  0
POINT
  5
19F53
330
19F38
100
AcDbEntity
  8
DEFPOINTS
 62
     0
100
AcDbPoint
 10
-481.2210088984588
 20
1564.120993269049
 30
0.0
  0
POINT
  5
19F54
330
19F38
100
AcDbEntity
  8
DEFPOINTS
 62
     0
100
AcDbPoint
 10
-509.2210088984589
 20
1565.120993269049
 30
0.0
  0
POINT
  5
19F55
330
19F38
100
AcDbEntity
  8
DEFPOINTS
 62
     0
100
AcDbPoint
 10
-509.2210088984589
 20
1542.794051562276
 30
0.0
  0
ENDBLK
  5
19F43
330
19F38
100
AcDbEntity
  8
0
100
AcDbBlockEnd
  0
BLOCK
  5
19F63
330
19F57
100
AcDbEntity
  8
0
100
AcDbBlockBegin
  2
*D5
 70
     1
 10
0.0
 20
0.0
 30
0.0
  3
*D5
  1

  0
LINE
  5
19F65
330
19F57
100
AcDbEntity
  8
SUNPOU
 62
     1
100
AcDbLine
 10
-498.4710088984589
 20
1634.620993269049
 30
0.0
 11
-498.4710088984589
 21
1641.942825700586
 31
0.0
  0
LINE
  5
19F66
330
19F57
100
AcDbEntity
  8
SUNPOU
 62
     1
100
AcDbLine
 10
-494.9710088984589
 20
1634.620993269049
 30
0.0
 11
-494.9710088984589
 21
1641.942825700586
 31
0.0
  0
LINE
  5
19F67
330
19F57
100
AcDbEntity
  8
SUNPOU
 62
     1
100
AcDbLine
 10
-501.4710088984588
 20
1641.442825700586
 30
0.0
 11
-504.4710088984588
 21
1641.442825700586
 31
0.0
  0
LINE
  5
19F68
330
19F57
100
AcDbEntity
  8
SUNPOU
 62
     1
100
AcDbLine
 10
-491.9710088984588
 20
1641.442825700586
 30
0.0
 11
-479.9710088984588
 21
1641.442825700586
 31
0.0
  0
LINE
  5
19F69
330
19F57
100
AcDbEntity
  8
SUNPOU
 62
     1
100
AcDbLine
 10
-498.4710088984589
 20
1641.442825700586
 30
0.0
 11
-494.9710088984589
 21
1641.442825700586
 31
0.0
  0
SOLID
  5
19F6A
330
19F57
100
AcDbEntity
  8
SUNPOU
 62
     1
100
AcDbTrace
 10
-501.4710088984588
 20
1641.942825700586
 30
0.0
 11
-501.4710088984588
 21
1640.942825700586
 31
0.0
 12
-498.4710088984589
 22
1641.442825700586
 32
0.0
 13
-498.4710088984589
 23
1641.442825700586
 33
0.0
  0
SOLID
  5
19F6B
330
19F57
100
AcDbEntity
  8
SUNPOU
 62
     1
100
AcDbTrace
 10
-491.9710088984588
 20
1641.942825700586
 30
0.0
 11
-491.9710088984588
 21
1640.942825700586
 31
0.0
 12
-494.9710088984589
 22
1641.442825700586
 32
0.0
 13
-494.9710088984589
 23
1641.442825700586
 33
0.0
  0
MTEXT
  5
19F6C
330
19F57
100
AcDbEntity
  8
SUNPOU
 62
     1
100
AcDbMText
 10
-484.4710088984588
 20
1644.192825700586
 30
0.0
 40
3.5
 41
0.0
 71
     5
 72
     1
  1
\A1;3.5
1001
ACAD
1000
MTEXTBEGIN
1070
    73
1070
     1
1070
    44
1040
1.0
1070
    74
1070
     0
1000
MTEXTEND
  0
POINT
  5
19F6D
330
19F57
100
AcDbEntity
  8
DEFPOINTS
 62
     0
100
AcDbPoint
 10
-498.4710088984589
 20
1634.120993269049
 30
0.0
  0
POINT
  5
19F6E
330
19F57
100
AcDbEntity
  8
DEFPOINTS
 62
     0
100
AcDbPoint
 10
-494.9710088984589
 20
1634.120993269049
 30
0.0
  0
POINT
  5
19F6F
330
19F57
100
AcDbEntity
  8
DEFPOINTS
 62
     0
100
AcDbPoint
 10
-494.9710088984589
 20
1641.442825700586
 30
0.0
  0
ENDBLK
  5
19F64
330
19F57
100
AcDbEntity
  8
0
100
AcDbBlockEnd
  0
BLOCK
  5
19F7C
330
19F72
100
AcDbEntity
  8
0
100
AcDbBlockBegin
  2
*D6
 70
     1
 10
0.0
 20
0.0
 30
0.0
  3
*D6
  1

  0
LINE
  5
19F7E
330
19F72
100
AcDbEntity
  8
SUNPOU
 62
     1
100
AcDbLine
 10
-613.7210088984597
 20
1634.120993269048
 30
0.0
 11
-623.063675276966
 21
1634.120993269048
 31
0.0
  0
LINE
  5
19F7F
330
19F72
100
AcDbEntity
  8
SUNPOU
 62
     1
100
AcDbLine
 10
-613.7210088984597
 20
1564.120993269048
 30
0.0
 11
-623.063675276966
 21
1564.120993269048
 31
0.0
  0
LINE
  5
19F80
330
19F72
100
AcDbEntity
  8
SUNPOU
 62
     1
100
AcDbLine
 10
-622.563675276966
 20
1631.120993269048
 30
0.0
 11
-622.563675276966
 21
1567.120993269048
 31
0.0
  0
SOLID
  5
19F81
330
19F72
100
AcDbEntity
  8
SUNPOU
 62
     1
100
AcDbTrace
 10
-623.063675276966
 20
1631.120993269048
 30
0.0
 11
-622.063675276966
 21
1631.120993269048
 31
0.0
 12
-622.563675276966
 22
1634.120993269048
 32
0.0
 13
-622.563675276966
 23
1634.120993269048
 33
0.0
  0
SOLID
  5
19F82
330
19F72
100
AcDbEntity
  8
SUNPOU
 62
     1
100
AcDbTrace
 10
-623.063675276966
 20
1567.120993269048
 30
0.0
 11
-622.063675276966
 21
1567.120993269048
 31
0.0
 12
-622.563675276966
 22
1564.120993269048
 32
0.0
 13
-622.563675276966
 23
1564.120993269048
 33
0.0
  0
MTEXT
  5
19F83
330
19F72
100
AcDbEntity
  8
SUNPOU
 62
     1
100
AcDbMText
 10
-625.3136752769663
 20
1599.120993269048
 30
0.0
 40
3.5
 41
0.0
 71
     5
 72
     1
  1
\A1;70
 11
0.0000000000000001
 21
1.0
 31
0.0
1001
ACAD
1000
MTEXTBEGIN
1070
    73
1070
     1
1070
    44
1040
1.0
1070
    74
1070
     0
1000
MTEXTEND
  0
POINT
  5
19F84
330
19F72
100
AcDbEntity
  8
DEFPOINTS
 62
     0
100
AcDbPoint
 10
-613.2210088984598
 20
1634.120993269048
 30
0.0
  0
POINT
  5
19F85
330
19F72
100
AcDbEntity
  8
DEFPOINTS
 62
     0
100
AcDbPoint
 10
-613.2210088984598
 20
1564.120993269048
 30
0.0
  0
POINT
  5
19F86
330
19F72
100
AcDbEntity
  8
DEFPOINTS
 62
     0
100
AcDbPoint
 10
-622.563675276966
 20
1564.120993269048
 30
0.0
  0
ENDBLK
  5
19F7D
330
19F72
100
AcDbEntity
  8
0
100
AcDbBlockEnd
  0
BLOCK
  5
19F94
330
19F88
100
AcDbEntity
  8
0
100
AcDbBlockBegin
  2
*D7
 70
     1
 10
0.0
 20
0.0
 30
0.0
  3
*D7
  1

  0
LINE
  5
19F96
330
19F88
100
AcDbEntity
  8
SUNPOU
 62
     1
100
AcDbLine
 10
-613.2210088984598
 20
1536.620993269048
 30
0.0
 11
-613.2210088984598
 21
1543.794679980461
 31
0.0
  0
LINE
  5
19F97
330
19F88
100
AcDbEntity
  8
SUNPOU
 62
     1
100
AcDbLine
 10
-610.2210088984597
 20
1536.620993269048
 30
0.0
 11
-610.2210088984597
 21
1543.794679980461
 31
0.0
  0
LINE
  5
19F98
330
19F88
100
AcDbEntity
  8
SUNPOU
 62
     1
100
AcDbLine
 10
-616.2210088984598
 20
1543.294679980461
 30
0.0
 11
-619.2210088984597
 21
1543.294679980461
 31
0.0
  0
LINE
  5
19F99
330
19F88
100
AcDbEntity
  8
SUNPOU
 62
     1
100
AcDbLine
 10
-607.2210088984597
 20
1543.294679980461
 30
0.0
 11
-599.8876755651264
 21
1543.294679980461
 31
0.0
  0
LINE
  5
19F9A
330
19F88
100
AcDbEntity
  8
SUNPOU
 62
     1
100
AcDbLine
 10
-613.2210088984598
 20
1543.294679980461
 30
0.0
 11
-610.2210088984597
 21
1543.294679980461
 31
0.0
  0
SOLID
  5
19F9B
330
19F88
100
AcDbEntity
  8
SUNPOU
 62
     1
100
AcDbTrace
 10
-616.2210088984598
 20
1543.794679980461
 30
0.0
 11
-616.2210088984598
 21
1542.794679980461
 31
0.0
 12
-613.2210088984598
 22
1543.294679980461
 32
0.0
 13
-613.2210088984598
 23
1543.294679980461
 33
0.0
  0
SOLID
  5
19F9C
330
19F88
100
AcDbEntity
  8
SUNPOU
 62
     1
100
AcDbTrace
 10
-607.2210088984597
 20
1543.794679980461
 30
0.0
 11
-607.2210088984597
 21
1542.794679980461
 31
0.0
 12
-610.2210088984597
 22
1543.294679980461
 32
0.0
 13
-610.2210088984597
 23
1543.294679980461
 33
0.0
  0
MTEXT
  5
19F9D
330
19F88
100
AcDbEntity
  8
SUNPOU
 62
     1
100
AcDbMText
 10
-602.0543422317931
 20
1546.044679980461
 30
0.0
 40
3.5
 41
0.0
 71
     5
 72
     1
  1
\A1;3
1001
ACAD
1000
MTEXTBEGIN
1070
    73
1070
     1
1070
    44
1040
1.0
1070
    74
1070
     0
1000
MTEXTEND
  0
POINT
  5
19F9E
330
19F88
100
AcDbEntity
  8
DEFPOINTS
 62
     0
100
AcDbPoint
 10
-613.2210088984598
 20
1536.120993269048
 30
0.0
  0
POINT
  5
19F9F
330
19F88
100
AcDbEntity
  8
DEFPOINTS
 62
     0
100
AcDbPoint
 10
-610.2210088984597
 20
1536.120993269048
 30
0.0
  0
POINT
  5
19FA0
330
19F88
100
AcDbEntity
  8
DEFPOINTS
 62
     0
100
AcDbPoint
 10
-610.2210088984597
 20
1543.294679980461
 30
0.0
  0
ENDBLK
  5
19F95
330
19F88
100
AcDbEntity
  8
0
100
AcDbBlockEnd
  0
BLOCK
  5
19FAC
330
19FA2
100
AcDbEntity
  8
0
100
AcDbBlockBegin
  2
*D8
 70
     1
 10
0.0
 20
0.0
 30
0.0
  3
*D8
  1

  0
LINE
  5
19FAE
330
19FA2
100
AcDbEntity
  8
SUNPOU
 62
     1
100
AcDbLine
 10
-613.2210088984589
 20
1510.620993269048
 30
0.0
 11
-613.2210088984589
 21
1495.250696003934
 31
0.0
  0
LINE
  5
19FAF
330
19FA2
100
AcDbEntity
  8
SUNPOU
 62
     1
100
AcDbLine
 10
-543.2210088984597
 20
1507.620993269048
 30
0.0
 11
-543.2210088984597
 21
1495.250696003934
 31
0.0
  0
LINE
  5
19FB0
330
19FA2
100
AcDbEntity
  8
SUNPOU
 62
     1
100
AcDbLine
 10
-610.2210088984588
 20
1495.750696003934
 30
0.0
 11
-546.2210088984598
 21
1495.750696003934
 31
0.0
  0
SOLID
  5
19FB1
330
19FA2
100
AcDbEntity
  8
SUNPOU
 62
     1
100
AcDbTrace
 10
-610.2210088984588
 20
1496.250696003934
 30
0.0
 11
-610.2210088984588
 21
1495.250696003934
 31
0.0
 12
-613.2210088984589
 22
1495.750696003934
 32
0.0
 13
-613.2210088984589
 23
1495.750696003934
 33
0.0
  0
SOLID
  5
19FB2
330
19FA2
100
AcDbEntity
  8
SUNPOU
 62
     1
100
AcDbTrace
 10
-546.2210088984598
 20
1496.250696003934
 30
0.0
 11
-546.2210088984598
 21
1495.250696003934
 31
0.0
 12
-543.2210088984597
 22
1495.750696003934
 32
0.0
 13
-543.2210088984597
 23
1495.750696003934
 33
0.0
  0
MTEXT
  5
19FB3
330
19FA2
100
AcDbEntity
  8
SUNPOU
 62
     1
100
AcDbMText
 10
-578.2210088984593
 20
1498.500696003934
 30
0.0
 40
3.5
 41
0.0
 71
     5
 72
     1
  1
\A1;70
1001
ACAD
1000
MTEXTBEGIN
1070
    73
1070
     1
1070
    44
1040
1.0
1070
    74
1070
     0
1000
MTEXTEND
  0
POINT
  5
19FB4
330
19FA2
100
AcDbEntity
  8
DEFPOINTS
 62
     0
100
AcDbPoint
 10
-613.2210088984589
 20
1511.120993269048
 30
0.0
  0
POINT
  5
19FB5
330
19FA2
100
AcDbEntity
  8
DEFPOINTS
 62
     0
100
AcDbPoint
 10
-543.2210088984597
 20
1508.120993269048
 30
0.0
  0
POINT
  5
19FB6
330
19FA2
100
AcDbEntity
  8
DEFPOINTS
 62
     0
100
AcDbPoint
 10
-543.2210088984597
 20
1495.750696003934
 30
0.0
  0
ENDBLK
  5
19FAD
330
19FA2
100
AcDbEntity
  8
0
100
AcDbBlockEnd
  0
BLOCK
  5
19FF8
330
19FEE
100
AcDbEntity
  8
0
100
AcDbBlockBegin
  2
*D9
 70
     1
 10
0.0
 20
0.0
 30
0.0
  3
*D9
  1

  0
LINE
  5
1A003
330
19FEE
100
AcDbEntity
  8
ZISSEN1
 62
     1
100
AcDbLine
 10
-542.7210088984598
 20
1508.120993269048
 30
0.0
 11
-531.82110991321
 21
1508.120993269048
 31
0.0
  0
LINE
  5
1A004
330
19FEE
100
AcDbEntity
  8
ZISSEN1
 62
     1
100
AcDbLine
 10
-542.7210088984598
 20
1532.820993269049
 30
0.0
 11
-531.82110991321
 21
1532.820993269049
 31
0.0
  0
LINE
  5
1A005
330
19FEE
100
AcDbEntity
  8
ZISSEN1
 62
     1
100
AcDbLine
 10
-532.3211099132101
 20
1511.120993269048
 30
0.0
 11
-532.3211099132101
 21
1529.820993269049
 31
0.0
  0
SOLID
  5
1A006
330
19FEE
100
AcDbEntity
  8
ZISSEN1
 62
     1
100
AcDbTrace
 10
-532.8211099132101
 20
1511.120993269048
 30
0.0
 11
-531.82110991321
 21
1511.120993269048
 31
0.0
 12
-532.3211099132101
 22
1508.120993269048
 32
0.0
 13
-532.3211099132101
 23
1508.120993269048
 33
0.0
  0
SOLID
  5
1A007
330
19FEE
100
AcDbEntity
  8
ZISSEN1
 62
     1
100
AcDbTrace
 10
-532.8211099132101
 20
1529.820993269049
 30
0.0
 11
-531.82110991321
 21
1529.820993269049
 31
0.0
 12
-532.3211099132101
 22
1532.820993269049
 32
0.0
 13
-532.3211099132101
 23
1532.820993269049
 33
0.0
  0
MTEXT
  5
1A008
330
19FEE
100
AcDbEntity
  8
ZISSEN1
 62
     1
100
AcDbMText
 10
-535.0711099132102
 20
1520.470993269048
 30
0.0
 40
3.5
 41
0.0
 71
     5
 72
     1
  1
\A1;(24.7)
 11
0.0000000000000001
 21
1.0
 31
0.0
1001
ACAD
1000
MTEXTBEGIN
1070
    73
1070
     1
1070
    44
1040
1.0
1070
    74
1070
     0
1000
MTEXTEND
  0
POINT
  5
1A009
330
19FEE
100
AcDbEntity
  8
DEFPOINTS
 62
     0
100
AcDbPoint
 10
-543.2210088984597
 20
1508.120993269048
 30
0.0
  0
POINT
  5
1A00A
330
19FEE
100
AcDbEntity
  8
DEFPOINTS
 62
     0
100
AcDbPoint
 10
-543.2210088984597
 20
1532.820993269049
 30
0.0
  0
POINT
  5
1A00B
330
19FEE
100
AcDbEntity
  8
DEFPOINTS
 62
     0
100
AcDbPoint
 10
-532.3211099132101
 20
1532.820993269049
 30
0.0
  0
ENDBLK
  5
19FF9
330
19FEE
100
AcDbEntity
  8
0
100
AcDbBlockEnd
  0
ENDSEC
  0
SECTION
  2
ENTITIES
  0
MTEXT
  5
5084
330
1A
100
AcDbEntity
  8
0
100
AcDbMText
 10
1985.239088685435
 20
-948.5420423450428
 30
0.0
 40
8.0
 41
0.0
 71
     7
 72
     5
  1

1001
ACAD
1000
MTEXTBEGIN
1070
    73
1070
     1
1070
    44
1040
1.0
1070
    74
1070
     0
1000
MTEXTEND
  0
MTEXT
  5
5085
330
1A
100
AcDbEntity
  8
0
100
AcDbMText
 10
4270.596778580329
 20
22.24825240601649
 30
0.0
 40
8.0
 41
0.0
 71
     7
 72
     5
  1

1001
ACAD
1000
MTEXTBEGIN
1070
    73
1070
     1
1070
    44
1040
1.0
1070
    74
1070
     0
1000
MTEXTEND
  0
MTEXT
  5
5343
330
1A
100
AcDbEntity
  8
SUNPOU
100
AcDbMText
 10
6936.493799262471
 20
9534.359644781135
 30
0.0
 40
10.5
 41
0.0
 71
     1
 72
     5
  1

1001
ACAD
1000
MTEXTBEGIN
1070
    73
1070
     1
1070
    44
1040
1.0
1070
    74
1070
     0
1000
MTEXTEND
  0
MTEXT
  5
544F
330
1A
100
AcDbEntity
  8
0
100
AcDbMText
 10
16317.2832773148
 20
12833.35428897674
 30
0.0
 40
8.0
 41
0.0
 71
     7
 72
     5
  1

1001
ACAD
1000
MTEXTBEGIN
1070
    73
1070
     1
1070
    44
1040
1.0
1070
    74
1070
     0
1000
MTEXTEND
  0
MTEXT
  5
5450
330
1A
100
AcDbEntity
  8
0
100
AcDbMText
 10
18602.64096720969
 20
13804.1445837278
 30
0.0
 40
8.0
 41
0.0
 71
     7
 72
     5
  1

1001
ACAD
1000
MTEXTBEGIN
1070
    73
1070
     1
1070
    44
1040
1.0
1070
    74
1070
     0
1000
MTEXTEND
  0
MTEXT
  5
5451
330
1A
100
AcDbEntity
  8
SUNPOU
100
AcDbMText
 10
21268.53798789184
 20
23316.25597610292
 30
0.0
 40
10.5
 41
0.0
 71
     1
 72
     5
  1

1001
ACAD
1000
MTEXTBEGIN
1070
    73
1070
     1
1070
    44
1040
1.0
1070
    74
1070
     0
1000
MTEXTEND
  0
MTEXT
  5
5452
330
1A
100
AcDbEntity
  8
SUNPOU
100
AcDbMText
 10
13337.6147919559
 20
22369.46284218996
 30
0.0
 40
10.5
 41
0.0
 71
     7
 72
     5
  1

1001
ACAD
1000
MTEXTBEGIN
1070
    73
1070
     1
1070
    44
1040
1.0
1070
    74
1070
     0
1000
MTEXTEND
  0
MTEXT
  5
5453
330
1A
100
AcDbEntity
  8
SUNPOU
100
AcDbMText
 10
16286.59845646867
 20
27270.13891403281
 30
0.0
 40
10.5
 41
0.0
 71
     7
 72
     5
  1

1001
ACAD
1000
MTEXTBEGIN
1070
    73
1070
     1
1070
    44
1040
1.0
1070
    74
1070
     0
1000
MTEXTEND
  0
MTEXT
  5
5454
330
1A
100
AcDbEntity
  8
SUNPOU
100
AcDbMText
 10
20795.67658441924
 20
29706.43966165288
 30
0.0
 40
10.5
 41
0.0
 71
     7
 72
     5
  1

1001
ACAD
1000
MTEXTBEGIN
1070
    73
1070
     1
1070
    44
1040
1.0
1070
    74
1070
     0
1000
MTEXTEND
  0
MTEXT
  5
5455
330
1A
100
AcDbEntity
  8
0
100
AcDbMText
 10
16611.93789220314
 20
14707.52144344448
 30
0.0
 40
8.0
 41
0.0
 71
     7
 72
     5
  1

1001
ACAD
1000
MTEXTBEGIN
1070
    73
1070
     1
1070
    44
1040
1.0
1070
    74
1070
     0
1000
MTEXTEND
  0
MTEXT
  5
5456
330
1A
100
AcDbEntity
  8
0
100
AcDbMText
 10
18897.29558209804
 20
15678.31173819554
 30
0.0
 40
8.0
 41
0.0
 71
     7
 72
     5
  1

1001
ACAD
1000
MTEXTBEGIN
1070
    73
1070
     1
1070
    44
1040
1.0
1070
    74
1070
     0
1000
MTEXTEND
  0
MTEXT
  5
5457
330
1A
100
AcDbEntity
  8
SUNPOU
100
AcDbMText
 10
21563.19260278019
 20
25190.42313057066
 30
0.0
 40
10.5
 41
0.0
 71
     1
 72
     5
  1

1001
ACAD
1000
MTEXTBEGIN
1070
    73
1070
     1
1070
    44
1040
1.0
1070
    74
1070
     0
1000
MTEXTEND
  0
MTEXT
  5
5458
330
1A
100
AcDbEntity
  8
SUNPOU
100
AcDbMText
 10
13632.26940684426
 20
24243.6299966577
 30
0.0
 40
10.5
 41
0.0
 71
     7
 72
     5
  1

1001
ACAD
1000
MTEXTBEGIN
1070
    73
1070
     1
1070
    44
1040
1.0
1070
    74
1070
     0
1000
MTEXTEND
  0
MTEXT
  5
5459
330
1A
100
AcDbEntity
  8
SUNPOU
100
AcDbMText
 10
16581.25307135702
 20
29144.30606850055
 30
0.0
 40
10.5
 41
0.0
 71
     7
 72
     5
  1

1001
ACAD
1000
MTEXTBEGIN
1070
    73
1070
     1
1070
    44
1040
1.0
1070
    74
1070
     0
1000
MTEXTEND
  0
MTEXT
  5
545A
330
1A
100
AcDbEntity
  8
SUNPOU
100
AcDbMText
 10
21090.33119930759
 20
31580.60681612062
 30
0.0
 40
10.5
 41
0.0
 71
     7
 72
     5
  1

1001
ACAD
1000
MTEXTBEGIN
1070
    73
1070
     1
1070
    44
1040
1.0
1070
    74
1070
     0
1000
MTEXTEND
  0
MTEXT
  5
545B
330
1A
100
AcDbEntity
  8
0
100
AcDbMText
 10
22871.60517627167
 20
23974.88367124799
 30
0.0
 40
8.0
 41
0.0
 71
     7
 72
     5
  1

1001
ACAD
1000
MTEXTBEGIN
1070
    73
1070
     1
1070
    44
1040
1.0
1070
    74
1070
     0
1000
MTEXTEND
  0
MTEXT
  5
545C
330
1A
100
AcDbEntity
  8
0
100
AcDbMText
 10
25156.96286616657
 20
24945.67396599906
 30
0.0
 40
8.0
 41
0.0
 71
     7
 72
     5
  1

1001
ACAD
1000
MTEXTBEGIN
1070
    73
1070
     1
1070
    44
1040
1.0
1070
    74
1070
     0
1000
MTEXTEND
  0
MTEXT
  5
545D
330
1A
100
AcDbEntity
  8
SUNPOU
100
AcDbMText
 10
27822.85988684871
 20
34457.78535837418
 30
0.0
 40
10.5
 41
0.0
 71
     1
 72
     5
  1

1001
ACAD
1000
MTEXTBEGIN
1070
    73
1070
     1
1070
    44
1040
1.0
1070
    74
1070
     0
1000
MTEXTEND
  0
MTEXT
  5
545E
330
1A
100
AcDbEntity
  8
SUNPOU
100
AcDbMText
 10
19891.93669091278
 20
33510.99222446122
 30
0.0
 40
10.5
 41
0.0
 71
     7
 72
     5
  1

1001
ACAD
1000
MTEXTBEGIN
1070
    73
1070
     1
1070
    44
1040
1.0
1070
    74
1070
     0
1000
MTEXTEND
  0
MTEXT
  5
545F
330
1A
100
AcDbEntity
  8
SUNPOU
100
AcDbMText
 10
22840.92035542555
 20
38411.66829630407
 30
0.0
 40
10.5
 41
0.0
 71
     7
 72
     5
  1

1001
ACAD
1000
MTEXTBEGIN
1070
    73
1070
     1
1070
    44
1040
1.0
1070
    74
1070
     0
1000
MTEXTEND
  0
MTEXT
  5
5460
330
1A
100
AcDbEntity
  8
SUNPOU
100
AcDbMText
 10
27349.99848337611
 20
40847.96904392415
 30
0.0
 40
10.5
 41
0.0
 71
     7
 72
     5
  1

1001
ACAD
1000
MTEXTBEGIN
1070
    73
1070
     1
1070
    44
1040
1.0
1070
    74
1070
     0
1000
MTEXTEND
  0
MTEXT
  5
55B7
330
1A
100
AcDbEntity
  8
SUNPOU
100
AcDbMText
 10
67424.23923338197
 20
64463.86602884816
 30
0.0
 40
10.5
 41
0.0
 71
     9
 72
     5
  1

1001
ACAD
1000
MTEXTBEGIN
1070
    73
1070
     1
1070
    44
1040
1.0
1070
    74
1070
     0
1000
MTEXTEND
  0
MTEXT
  5
55B8
330
1A
100
AcDbEntity
  8
SUNPOU
100
AcDbMText
 10
76146.40679929998
 20
71879.70056038563
 30
0.0
 40
10.5
 41
0.0
 71
     9
 72
     5
  1

1001
ACAD
1000
MTEXTBEGIN
1070
    73
1070
     1
1070
    44
1040
1.0
1070
    74
1070
     0
1000
MTEXTEND
  0
MTEXT
  5
55B9
330
1A
100
AcDbEntity
  8
SUNPOU
100
AcDbMText
 10
95100.16551662994
 20
89346.27661287766
 30
0.0
 40
10.5
 41
0.0
 71
     9
 72
     5
  1

1001
ACAD
1000
MTEXTBEGIN
1070
    73
1070
     1
1070
    44
1040
1.0
1070
    74
1070
     0
1000
MTEXTEND
  0
MTEXT
  5
55BA
330
1A
100
AcDbEntity
  8
SUNPOU
100
AcDbMText
 10
97043.57276333936
 20
87545.22753299966
 30
0.0
 40
3.5
 41
0.0
 71
     9
 72
     5
  1

1001
ACAD
1000
MTEXTBEGIN
1070
    73
1070
     1
1070
    44
1040
1.0
1070
    74
1070
     0
1000
MTEXTEND
  0
MTEXT
  5
55BB
330
1A
100
AcDbEntity
  8
SUNPOU
100
AcDbMText
 10
128169.752595959
 20
130040.1732006569
 30
0.0
 40
10.5
 41
0.0
 71
     9
 72
     5
  1

1001
ACAD
1000
MTEXTBEGIN
1070
    73
1070
     1
1070
    44
1040
1.0
1070
    74
1070
     0
1000
MTEXTEND
  0
MTEXT
  5
55BC
330
1A
100
AcDbEntity
  8
SUNPOU
100
AcDbMText
 10
130113.1598426684
 20
128239.1241207789
 30
0.0
 40
3.5
 41
0.0
 71
     9
 72
     5
  1

1001
ACAD
1000
MTEXTBEGIN
1070
    73
1070
     1
1070
    44
1040
1.0
1070
    74
1070
     0
1000
MTEXTEND
  0
MTEXT
  5
55BD
330
1A
100
AcDbEntity
  8
SUNPOU
100
AcDbMText
 10
78610.02030175463
 20
75873.33835563206
 30
0.0
 40
10.5
 41
0.0
 71
     9
 72
     5
  1

1001
ACAD
1000
MTEXTBEGIN
1070
    73
1070
     1
1070
    44
1040
1.0
1070
    74
1070
     0
1000
MTEXTEND
  0
MTEXT
  5
55BE
330
1A
100
AcDbEntity
  8
SUNPOU
100
AcDbMText
 10
64662.02020137863
 20
56700.93921651987
 30
0.0
 40
3.5
 41
0.0
 71
     7
 72
     5
  1

1001
ACAD
1000
MTEXTBEGIN
1070
    73
1070
     1
1070
    44
1040
1.0
1070
    74
1070
     0
1000
MTEXTEND
  0
MTEXT
  5
55BF
330
1A
100
AcDbEntity
  8
SUNPOU
100
AcDbMText
 10
45647.18959837178
 20
44463.08794733807
 30
0.0
 40
10.5
 41
0.0
 71
     7
 72
     5
  1

1001
ACAD
1000
MTEXTBEGIN
1070
    73
1070
     1
1070
    44
1040
1.0
1070
    74
1070
     0
1000
MTEXTEND
  0
MTEXT
  5
55C0
330
1A
100
AcDbEntity
  8
SUNPOU
100
AcDbMText
 10
33189.96133342368
 20
28618.15636923965
 30
0.0
 40
35.0
 41
0.0
 71
     9
 72
     5
  1

1001
ACAD
1000
MTEXTBEGIN
1070
    73
1070
     1
1070
    44
1040
1.0
1070
    74
1070
     0
1000
MTEXTEND
  0
MTEXT
  5
55C1
330
1A
100
AcDbEntity
  8
SUNPOU
100
AcDbMText
 10
32098.44639099864
 20
29226.93177928835
 30
0.0
 40
350.0000004171781
 41
0.0
 71
     7
 72
     5
  1

1001
ACAD
1000
MTEXTBEGIN
1070
    73
1070
     1
1070
    44
1040
1.0
1070
    74
1070
     0
1000
MTEXTEND
  0
MTEXT
  5
55C2
330
1A
100
AcDbEntity
  8
0
100
AcDbMText
 10
38142.39714894154
 20
27206.85414142458
 30
0.0
 40
8.0
 41
0.0
 71
     7
 72
     5
  1

1001
ACAD
1000
MTEXTBEGIN
1070
    73
1070
     1
1070
    44
1040
1.0
1070
    74
1070
     0
1000
MTEXTEND
  0
MTEXT
  5
55C3
330
1A
100
AcDbEntity
  8
0
100
AcDbMText
 10
40427.75483883644
 20
28177.64443617564
 30
0.0
 40
8.0
 41
0.0
 71
     7
 72
     5
  1

1001
ACAD
1000
MTEXTBEGIN
1070
    73
1070
     1
1070
    44
1040
1.0
1070
    74
1070
     0
1000
MTEXTEND
  0
MTEXT
  5
55C4
330
1A
100
AcDbEntity
  8
SUNPOU
100
AcDbMText
 10
43093.65185951858
 20
37689.75582855077
 30
0.0
 40
10.5
 41
0.0
 71
     1
 72
     5
  1

1001
ACAD
1000
MTEXTBEGIN
1070
    73
1070
     1
1070
    44
1040
1.0
1070
    74
1070
     0
1000
MTEXTEND
  0
MTEXT
  5
55C5
330
1A
100
AcDbEntity
  8
SUNPOU
100
AcDbMText
 10
35162.72866358265
 20
36742.96269463781
 30
0.0
 40
10.5
 41
0.0
 71
     7
 72
     5
  1

1001
ACAD
1000
MTEXTBEGIN
1070
    73
1070
     1
1070
    44
1040
1.0
1070
    74
1070
     0
1000
MTEXTEND
  0
MTEXT
  5
55C6
330
1A
100
AcDbEntity
  8
SUNPOU
100
AcDbMText
 10
38111.71232809542
 20
41643.63876648066
 30
0.0
 40
10.5
 41
0.0
 71
     7
 72
     5
  1

1001
ACAD
1000
MTEXTBEGIN
1070
    73
1070
     1
1070
    44
1040
1.0
1070
    74
1070
     0
1000
MTEXTEND
  0
MTEXT
  5
55C7
330
1A
100
AcDbEntity
  8
SUNPOU
100
AcDbMText
 10
42620.79045604597
 20
44079.93951410074
 30
0.0
 40
10.5
 41
0.0
 71
     7
 72
     5
  1

1001
ACAD
1000
MTEXTBEGIN
1070
    73
1070
     1
1070
    44
1040
1.0
1070
    74
1070
     0
1000
MTEXTEND
  0
MTEXT
  5
55C8
330
1A
100
AcDbEntity
  8
SUNPOU
100
AcDbMText
 10
26221.62834281429
 20
23077.53566448964
 30
0.0
 40
10.5
 41
0.0
 71
     7
 72
     5
  1

1001
ACAD
1000
MTEXTBEGIN
1070
    73
1070
     1
1070
    44
1040
1.0
1070
    74
1070
     0
1000
MTEXTEND
  0
MTEXT
  5
55C9
330
1A
100
AcDbEntity
  8
SUNPOU
100
AcDbMText
 10
77413.14677671455
 20
68750.51622813789
 30
0.0
 40
10.5
 41
0.0
 71
     9
 72
     5
  1

1001
ACAD
1000
MTEXTBEGIN
1070
    73
1070
     1
1070
    44
1040
1.0
1070
    74
1070
     0
1000
MTEXTEND
  0
MTEXT
  5
55CA
330
1A
100
AcDbEntity
  8
SUNPOU
100
AcDbMText
 10
86135.31434263256
 20
76166.35075967536
 30
0.0
 40
10.5
 41
0.0
 71
     9
 72
     5
  1

1001
ACAD
1000
MTEXTBEGIN
1070
    73
1070
     1
1070
    44
1040
1.0
1070
    74
1070
     0
1000
MTEXTEND
  0
MTEXT
  5
55CB
330
1A
100
AcDbEntity
  8
SUNPOU
100
AcDbMText
 10
105089.0730599625
 20
93632.92681216739
 30
0.0
 40
10.5
 41
0.0
 71
     9
 72
     5
  1

1001
ACAD
1000
MTEXTBEGIN
1070
    73
1070
     1
1070
    44
1040
1.0
1070
    74
1070
     0
1000
MTEXTEND
  0
MTEXT
  5
55CC
330
1A
100
AcDbEntity
  8
SUNPOU
100
AcDbMText
 10
107032.4803066719
 20
91831.8777322894
 30
0.0
 40
3.5
 41
0.0
 71
     9
 72
     5
  1

1001
ACAD
1000
MTEXTBEGIN
1070
    73
1070
     1
1070
    44
1040
1.0
1070
    74
1070
     0
1000
MTEXTEND
  0
MTEXT
  5
55CD
330
1A
100
AcDbEntity
  8
SUNPOU
100
AcDbMText
 10
138158.6601392916
 20
134326.8233999467
 30
0.0
 40
10.5
 41
0.0
 71
     9
 72
     5
  1

1001
ACAD
1000
MTEXTBEGIN
1070
    73
1070
     1
1070
    44
1040
1.0
1070
    74
1070
     0
1000
MTEXTEND
  0
MTEXT
  5
55CE
330
1A
100
AcDbEntity
  8
SUNPOU
100
AcDbMText
 10
140102.067386001
 20
132525.7743200686
 30
0.0
 40
3.5
 41
0.0
 71
     9
 72
     5
  1

1001
ACAD
1000
MTEXTBEGIN
1070
    73
1070
     1
1070
    44
1040
1.0
1070
    74
1070
     0
1000
MTEXTEND
  0
MTEXT
  5
55CF
330
1A
100
AcDbEntity
  8
SUNPOU
100
AcDbMText
 10
88598.92784508721
 20
80159.98855492179
 30
0.0
 40
10.5
 41
0.0
 71
     9
 72
     5
  1

1001
ACAD
1000
MTEXTBEGIN
1070
    73
1070
     1
1070
    44
1040
1.0
1070
    74
1070
     0
1000
MTEXTEND
  0
MTEXT
  5
55D0
330
1A
100
AcDbEntity
  8
SUNPOU
100
AcDbMText
 10
74650.92774471121
 20
60987.5894158096
 30
0.0
 40
3.5
 41
0.0
 71
     7
 72
     5
  1

1001
ACAD
1000
MTEXTBEGIN
1070
    73
1070
     1
1070
    44
1040
1.0
1070
    74
1070
     0
1000
MTEXTEND
  0
MTEXT
  5
55D1
330
1A
100
AcDbEntity
  8
SUNPOU
100
AcDbMText
 10
55636.09714170436
 20
48749.73814662781
 30
0.0
 40
10.5
 41
0.0
 71
     7
 72
     5
  1

1001
ACAD
1000
MTEXTBEGIN
1070
    73
1070
     1
1070
    44
1040
1.0
1070
    74
1070
     0
1000
MTEXTEND
  0
MTEXT
  5
55D2
330
1A
100
AcDbEntity
  8
SUNPOU
100
AcDbMText
 10
43178.86887675626
 20
32904.80656852938
 30
0.0
 40
35.0
 41
0.0
 71
     9
 72
     5
  1

1001
ACAD
1000
MTEXTBEGIN
1070
    73
1070
     1
1070
    44
1040
1.0
1070
    74
1070
     0
1000
MTEXTEND
  0
MTEXT
  5
55D3
330
1A
100
AcDbEntity
  8
SUNPOU
100
AcDbMText
 10
42087.35393433121
 20
33513.58197857809
 30
0.0
 40
350.0000004171781
 41
0.0
 71
     7
 72
     5
  1

1001
ACAD
1000
MTEXTBEGIN
1070
    73
1070
     1
1070
    44
1040
1.0
1070
    74
1070
     0
1000
MTEXTEND
  0
MTEXT
  5
55D4
330
1A
100
AcDbEntity
  8
0
100
AcDbMText
 10
48131.30469227412
 20
31493.50434071431
 30
0.0
 40
8.0
 41
0.0
 71
     7
 72
     5
  1

1001
ACAD
1000
MTEXTBEGIN
1070
    73
1070
     1
1070
    44
1040
1.0
1070
    74
1070
     0
1000
MTEXTEND
  0
MTEXT
  5
55D5
330
1A
100
AcDbEntity
  8
0
100
AcDbMText
 10
50416.66238216901
 20
32464.29463546537
 30
0.0
 40
8.0
 41
0.0
 71
     7
 72
     5
  1

1001
ACAD
1000
MTEXTBEGIN
1070
    73
1070
     1
1070
    44
1040
1.0
1070
    74
1070
     0
1000
MTEXTEND
  0
MTEXT
  5
55D6
330
1A
100
AcDbEntity
  8
SUNPOU
100
AcDbMText
 10
53082.55940285115
 20
41976.4060278405
 30
0.0
 40
10.5
 41
0.0
 71
     1
 72
     5
  1

1001
ACAD
1000
MTEXTBEGIN
1070
    73
1070
     1
1070
    44
1040
1.0
1070
    74
1070
     0
1000
MTEXTEND
  0
MTEXT
  5
55D7
330
1A
100
AcDbEntity
  8
SUNPOU
100
AcDbMText
 10
45151.63620691522
 20
41029.61289392755
 30
0.0
 40
10.5
 41
0.0
 71
     7
 72
     5
  1

1001
ACAD
1000
MTEXTBEGIN
1070
    73
1070
     1
1070
    44
1040
1.0
1070
    74
1070
     0
1000
MTEXTEND
  0
MTEXT
  5
55D8
330
1A
100
AcDbEntity
  8
SUNPOU
100
AcDbMText
 10
48100.61987142798
 20
45930.28896577039
 30
0.0
 40
10.5
 41
0.0
 71
     7
 72
     5
  1

1001
ACAD
1000
MTEXTBEGIN
1070
    73
1070
     1
1070
    44
1040
1.0
1070
    74
1070
     0
1000
MTEXTEND
  0
MTEXT
  5
55D9
330
1A
100
AcDbEntity
  8
SUNPOU
100
AcDbMText
 10
52609.69799937854
 20
48366.58971339046
 30
0.0
 40
10.5
 41
0.0
 71
     7
 72
     5
  1

1001
ACAD
1000
MTEXTBEGIN
1070
    73
1070
     1
1070
    44
1040
1.0
1070
    74
1070
     0
1000
MTEXTEND
  0
MTEXT
  5
55DA
330
1A
100
AcDbEntity
  8
SUNPOU
100
AcDbMText
 10
36210.53588614687
 20
27364.18586377937
 30
0.0
 40
10.5
 41
0.0
 71
     7
 72
     5
  1

1001
ACAD
1000
MTEXTBEGIN
1070
    73
1070
     1
1070
    44
1040
1.0
1070
    74
1070
     0
1000
MTEXTEND
  0
MTEXT
  5
55DB
330
1A
100
AcDbEntity
  8
SUNPOU
100
AcDbMText
 10
38021.29879752181
 20
33691.59985125794
 30
0.0
 40
10.5
 41
0.0
 71
     9
 72
     5
  1

1001
ACAD
1000
MTEXTBEGIN
1070
    73
1070
     1
1070
    44
1040
1.0
1070
    74
1070
     0
1000
MTEXTEND
  0
MTEXT
  5
55DC
330
1A
100
AcDbEntity
  8
SUNPOU
100
AcDbMText
 10
46743.46636343979
 20
41107.43438279541
 30
0.0
 40
10.5
 41
0.0
 71
     9
 72
     5
  1

1001
ACAD
1000
MTEXTBEGIN
1070
    73
1070
     1
1070
    44
1040
1.0
1070
    74
1070
     0
1000
MTEXTEND
  0
MTEXT
  5
55DD
330
1A
100
AcDbEntity
  8
SUNPOU
100
AcDbMText
 10
65697.22508076975
 20
58574.01043528746
 30
0.0
 40
10.5
 41
0.0
 71
     9
 72
     5
  1

1001
ACAD
1000
MTEXTBEGIN
1070
    73
1070
     1
1070
    44
1040
1.0
1070
    74
1070
     0
1000
MTEXTEND
  0
MTEXT
  5
55DE
330
1A
100
AcDbEntity
  8
SUNPOU
100
AcDbMText
 10
67640.63232747917
 20
56772.96135540945
 30
0.0
 40
3.5
 41
0.0
 71
     9
 72
     5
  1

1001
ACAD
1000
MTEXTBEGIN
1070
    73
1070
     1
1070
    44
1040
1.0
1070
    74
1070
     0
1000
MTEXTEND
  0
MTEXT
  5
55DF
330
1A
100
AcDbEntity
  8
SUNPOU
100
AcDbMText
 10
98766.81216009888
 20
99267.9070230668
 30
0.0
 40
10.5
 41
0.0
 71
     9
 72
     5
  1

1001
ACAD
1000
MTEXTBEGIN
1070
    73
1070
     1
1070
    44
1040
1.0
1070
    74
1070
     0
1000
MTEXTEND
  0
MTEXT
  5
55E0
330
1A
100
AcDbEntity
  8
SUNPOU
100
AcDbMText
 10
100710.2194068083
 20
97466.85794318878
 30
0.0
 40
3.5
 41
0.0
 71
     9
 72
     5
  1

1001
ACAD
1000
MTEXTBEGIN
1070
    73
1070
     1
1070
    44
1040
1.0
1070
    74
1070
     0
1000
MTEXTEND
  0
MTEXT
  5
55E1
330
1A
100
AcDbEntity
  8
SUNPOU
100
AcDbMText
 10
49207.07986589444
 20
45101.07217804185
 30
0.0
 40
10.5
 41
0.0
 71
     9
 72
     5
  1

1001
ACAD
1000
MTEXTBEGIN
1070
    73
1070
     1
1070
    44
1040
1.0
1070
    74
1070
     0
1000
MTEXTEND
  0
MTEXT
  5
55E2
330
1A
100
AcDbEntity
  8
SUNPOU
100
AcDbMText
 10
35259.07976551845
 20
25928.67303892964
 30
0.0
 40
3.5
 41
0.0
 71
     7
 72
     5
  1

1001
ACAD
1000
MTEXTBEGIN
1070
    73
1070
     1
1070
    44
1040
1.0
1070
    74
1070
     0
1000
MTEXTEND
  0
MTEXT
  5
55E3
330
1A
100
AcDbEntity
  8
SUNPOU
100
AcDbMText
 10
48951.43044828905
 20
35287.73625995099
 30
0.0
 40
10.5
 41
0.0
 71
     9
 72
     5
  1

1001
ACAD
1000
MTEXTBEGIN
1070
    73
1070
     1
1070
    44
1040
1.0
1070
    74
1070
     0
1000
MTEXTEND
  0
MTEXT
  5
55E4
330
1A
100
AcDbEntity
  8
SUNPOU
100
AcDbMText
 10
57673.59801420702
 20
42703.57079148847
 30
0.0
 40
10.5
 41
0.0
 71
     9
 72
     5
  1

1001
ACAD
1000
MTEXTBEGIN
1070
    73
1070
     1
1070
    44
1040
1.0
1070
    74
1070
     0
1000
MTEXTEND
  0
MTEXT
  5
55E5
330
1A
100
AcDbEntity
  8
SUNPOU
100
AcDbMText
 10
76627.35673153699
 20
60170.14684398051
 30
0.0
 40
10.5
 41
0.0
 71
     9
 72
     5
  1

1001
ACAD
1000
MTEXTBEGIN
1070
    73
1070
     1
1070
    44
1040
1.0
1070
    74
1070
     0
1000
MTEXTEND
  0
MTEXT
  5
55E6
330
1A
100
AcDbEntity
  8
SUNPOU
100
AcDbMText
 10
78570.76397824641
 20
58369.09776410251
 30
0.0
 40
3.5
 41
0.0
 71
     9
 72
     5
  1

1001
ACAD
1000
MTEXTBEGIN
1070
    73
1070
     1
1070
    44
1040
1.0
1070
    74
1070
     0
1000
MTEXTEND
  0
MTEXT
  5
55E7
330
1A
100
AcDbEntity
  8
SUNPOU
100
AcDbMText
 10
109696.9438108661
 20
100864.0434317598
 30
0.0
 40
10.5
 41
0.0
 71
     9
 72
     5
  1

1001
ACAD
1000
MTEXTBEGIN
1070
    73
1070
     1
1070
    44
1040
1.0
1070
    74
1070
     0
1000
MTEXTEND
  0
MTEXT
  5
55E8
330
1A
100
AcDbEntity
  8
SUNPOU
100
AcDbMText
 10
111640.3510575755
 20
99062.99435188183
 30
0.0
 40
3.5
 41
0.0
 71
     9
 72
     5
  1

1001
ACAD
1000
MTEXTBEGIN
1070
    73
1070
     1
1070
    44
1040
1.0
1070
    74
1070
     0
1000
MTEXTEND
  0
MTEXT
  5
55E9
330
1A
100
AcDbEntity
  8
SUNPOU
100
AcDbMText
 10
60137.21151666167
 20
46697.20858673491
 30
0.0
 40
10.5
 41
0.0
 71
     9
 72
     5
  1

1001
ACAD
1000
MTEXTBEGIN
1070
    73
1070
     1
1070
    44
1040
1.0
1070
    74
1070
     0
1000
MTEXTEND
  0
MTEXT
  5
55EA
330
1A
100
AcDbEntity
  8
SUNPOU
100
AcDbMText
 10
46189.21141628568
 20
27524.80944762269
 30
0.0
 40
3.5
 41
0.0
 71
     7
 72
     5
  1

1001
ACAD
1000
MTEXTBEGIN
1070
    73
1070
     1
1070
    44
1040
1.0
1070
    74
1070
     0
1000
MTEXTEND
  0
MTEXT
  5
55EB
330
1A
100
AcDbEntity
  8
SUNPOU
100
AcDbMText
 10
45007.68847015541
 20
38269.57947701874
 30
0.0
 40
10.5
 41
0.0
 71
     9
 72
     5
  1

1001
ACAD
1000
MTEXTBEGIN
1070
    73
1070
     1
1070
    44
1040
1.0
1070
    74
1070
     0
1000
MTEXTEND
  0
MTEXT
  5
55EC
330
1A
100
AcDbEntity
  8
SUNPOU
100
AcDbMText
 10
63961.44718748539
 20
55736.15552951081
 30
0.0
 40
10.5
 41
0.0
 71
     9
 72
     5
  1

1001
ACAD
1000
MTEXTBEGIN
1070
    73
1070
     1
1070
    44
1040
1.0
1070
    74
1070
     0
1000
MTEXTEND
  0
MTEXT
  5
55ED
330
1A
100
AcDbEntity
  8
SUNPOU
100
AcDbMText
 10
65904.85443419479
 20
53935.10644963279
 30
0.0
 40
3.5
 41
0.0
 71
     9
 72
     5
  1

1001
ACAD
1000
MTEXTBEGIN
1070
    73
1070
     1
1070
    44
1040
1.0
1070
    74
1070
     0
1000
MTEXTEND
  0
MTEXT
  5
55EE
330
1A
100
AcDbEntity
  8
SUNPOU
100
AcDbMText
 10
97031.03426681451
 20
96430.05211729015
 30
0.0
 40
10.5
 41
0.0
 71
     9
 72
     5
  1

1001
ACAD
1000
MTEXTBEGIN
1070
    73
1070
     1
1070
    44
1040
1.0
1070
    74
1070
     0
1000
MTEXTEND
  0
MTEXT
  5
55EF
330
1A
100
AcDbEntity
  8
SUNPOU
100
AcDbMText
 10
98974.44151352393
 20
94629.00303741212
 30
0.0
 40
3.5
 41
0.0
 71
     9
 72
     5
  1

1001
ACAD
1000
MTEXTBEGIN
1070
    73
1070
     1
1070
    44
1040
1.0
1070
    74
1070
     0
1000
MTEXTEND
  0
MTEXT
  5
55F0
330
1A
100
AcDbEntity
  8
SUNPOU
100
AcDbMText
 10
47471.30197261006
 20
42263.21727226519
 30
0.0
 40
10.5
 41
0.0
 71
     9
 72
     5
  1

1001
ACAD
1000
MTEXTBEGIN
1070
    73
1070
     1
1070
    44
1040
1.0
1070
    74
1070
     0
1000
MTEXTEND
  0
MTEXT
  5
55F1
330
1A
100
AcDbEntity
  8
SUNPOU
100
AcDbMText
 10
33523.30187223408
 20
23090.81813315298
 30
0.0
 40
3.5
 41
0.0
 71
     7
 72
     5
  1

1001
ACAD
1000
MTEXTBEGIN
1070
    73
1070
     1
1070
    44
1040
1.0
1070
    74
1070
     0
1000
MTEXTEND
  0
MTEXT
  5
55F2
330
1A
100
AcDbEntity
  8
SUNPOU
100
AcDbMText
 10
57959.46254102503
 20
50038.08111611015
 30
0.0
 40
10.5
 41
0.0
 71
     9
 72
     5
  1

1001
ACAD
1000
MTEXTBEGIN
1070
    73
1070
     1
1070
    44
1040
1.0
1070
    74
1070
     0
1000
MTEXTEND
  0
MTEXT
  5
55F3
330
1A
100
AcDbEntity
  8
SUNPOU
100
AcDbMText
 10
76913.22125835503
 20
67504.65716860222
 30
0.0
 40
10.5
 41
0.0
 71
     9
 72
     5
  1

1001
ACAD
1000
MTEXTBEGIN
1070
    73
1070
     1
1070
    44
1040
1.0
1070
    74
1070
     0
1000
MTEXTEND
  0
MTEXT
  5
55F4
330
1A
100
AcDbEntity
  8
SUNPOU
100
AcDbMText
 10
78856.62850506443
 20
65703.6080887242
 30
0.0
 40
3.5
 41
0.0
 71
     9
 72
     5
  1

1001
ACAD
1000
MTEXTBEGIN
1070
    73
1070
     1
1070
    44
1040
1.0
1070
    74
1070
     0
1000
MTEXTEND
  0
MTEXT
  5
55F5
330
1A
100
AcDbEntity
  8
SUNPOU
100
AcDbMText
 10
109982.8083376841
 20
108198.5537563815
 30
0.0
 40
10.5
 41
0.0
 71
     9
 72
     5
  1

1001
ACAD
1000
MTEXTBEGIN
1070
    73
1070
     1
1070
    44
1040
1.0
1070
    74
1070
     0
1000
MTEXTEND
  0
MTEXT
  5
55F6
330
1A
100
AcDbEntity
  8
SUNPOU
100
AcDbMText
 10
111926.2155843935
 20
106397.5046765035
 30
0.0
 40
3.5
 41
0.0
 71
     9
 72
     5
  1

1001
ACAD
1000
MTEXTBEGIN
1070
    73
1070
     1
1070
    44
1040
1.0
1070
    74
1070
     0
1000
MTEXTEND
  0
MTEXT
  5
55F7
330
1A
100
AcDbEntity
  8
SUNPOU
100
AcDbMText
 10
60423.07604347968
 20
54031.71891135659
 30
0.0
 40
10.5
 41
0.0
 71
     9
 72
     5
  1

1001
ACAD
1000
MTEXTBEGIN
1070
    73
1070
     1
1070
    44
1040
1.0
1070
    74
1070
     0
1000
MTEXTEND
  0
MTEXT
  5
55F8
330
1A
100
AcDbEntity
  8
SUNPOU
100
AcDbMText
 10
46475.07594310369
 20
34859.3197722444
 30
0.0
 40
3.5
 41
0.0
 71
     7
 72
     5
  1

1001
ACAD
1000
MTEXTBEGIN
1070
    73
1070
     1
1070
    44
1040
1.0
1070
    74
1070
     0
1000
MTEXTEND
  0
MTEXT
  5
55F9
330
1A
100
AcDbEntity
  8
SUNPOU
100
AcDbMText
 10
74027.35402123588
 20
68370.58278833383
 30
0.0
 40
10.5
 41
0.0
 71
     9
 72
     5
  1

1001
ACAD
1000
MTEXTBEGIN
1070
    73
1070
     1
1070
    44
1040
1.0
1070
    74
1070
     0
1000
MTEXTEND
  0
MTEXT
  5
55FA
330
1A
100
AcDbEntity
  8
SUNPOU
100
AcDbMText
 10
75970.7612679453
 20
66569.53370845583
 30
0.0
 40
3.5
 41
0.0
 71
     9
 72
     5
  1

1001
ACAD
1000
MTEXTBEGIN
1070
    73
1070
     1
1070
    44
1040
1.0
1070
    74
1070
     0
1000
MTEXTEND
  0
MTEXT
  5
55FB
330
1A
100
AcDbEntity
  8
SUNPOU
100
AcDbMText
 10
107096.941100565
 20
109064.4793761132
 30
0.0
 40
10.5
 41
0.0
 71
     9
 72
     5
  1

1001
ACAD
1000
MTEXTBEGIN
1070
    73
1070
     1
1070
    44
1040
1.0
1070
    74
1070
     0
1000
MTEXTEND
  0
MTEXT
  5
55FC
330
1A
100
AcDbEntity
  8
SUNPOU
100
AcDbMText
 10
109040.3483472744
 20
107263.4302962351
 30
0.0
 40
3.5
 41
0.0
 71
     9
 72
     5
  1

1001
ACAD
1000
MTEXTBEGIN
1070
    73
1070
     1
1070
    44
1040
1.0
1070
    74
1070
     0
1000
MTEXTEND
  0
MTEXT
  5
55FD
330
1A
100
AcDbEntity
  8
SUNPOU
100
AcDbMText
 10
105709.1709283621
 20
108141.3777665285
 30
0.0
 40
10.5
 41
0.0
 71
     9
 72
     5
  1

1001
ACAD
1000
MTEXTBEGIN
1070
    73
1070
     1
1070
    44
1040
1.0
1070
    74
1070
     0
1000
MTEXTEND
  0
MTEXT
  5
55FE
330
1A
100
AcDbEntity
  8
SUNPOU
100
AcDbMText
 10
107652.5781750715
 20
106340.3286866505
 30
0.0
 40
3.5
 41
0.0
 71
     9
 72
     5
  1

1001
ACAD
1000
MTEXTBEGIN
1070
    73
1070
     1
1070
    44
1040
1.0
1070
    74
1070
     0
1000
MTEXTEND
  0
MTEXT
  5
55FF
330
1A
100
AcDbEntity
  8
SUNPOU
100
AcDbMText
 10
73193.09268743351
 20
66158.78082845056
 30
0.0
 40
10.5
 41
0.0
 71
     9
 72
     5
  1

1001
ACAD
1000
MTEXTBEGIN
1070
    73
1070
     1
1070
    44
1040
1.0
1070
    74
1070
     0
1000
MTEXTEND
  0
MTEXT
  5
5600
330
1A
100
AcDbEntity
  8
SUNPOU
100
AcDbMText
 10
75916.39889159806
 20
66563.46252003162
 30
0.0
 40
3.5
 41
0.0
 71
     9
 72
     5
  1

1001
ACAD
1000
MTEXTBEGIN
1070
    73
1070
     1
1070
    44
1040
1.0
1070
    74
1070
     0
1000
MTEXTEND
  0
MTEXT
  5
5601
330
1A
100
AcDbEntity
  8
SUNPOU
100
AcDbMText
 10
75124.04436649058
 20
63402.1566819768
 30
0.0
 40
10.5
 41
0.0
 71
     9
 72
     5
  1

1001
ACAD
1000
MTEXTBEGIN
1070
    73
1070
     1
1070
    44
1040
1.0
1070
    74
1070
     0
1000
MTEXTEND
  0
MTEXT
  5
5602
330
1A
100
AcDbEntity
  8
SUNPOU
100
AcDbMText
 10
77067.4516132
 20
61601.1076020988
 30
0.0
 40
3.5
 41
0.0
 71
     9
 72
     5
  1

1001
ACAD
1000
MTEXTBEGIN
1070
    73
1070
     1
1070
    44
1040
1.0
1070
    74
1070
     0
1000
MTEXTEND
  0
MTEXT
  5
5603
330
1A
100
AcDbEntity
  8
SUNPOU
100
AcDbMText
 10
77012.54710378659
 20
61488.33571981449
 30
0.0
 40
3.5
 41
0.0
 71
     9
 72
     5
  1

1001
ACAD
1000
MTEXTBEGIN
1070
    73
1070
     1
1070
    44
1040
1.0
1070
    74
1070
     0
1000
MTEXTEND
  0
MTEXT
  5
5604
330
1A
100
AcDbEntity
  8
SUNPOU
100
AcDbMText
 10
76376.61896736668
 20
60677.01447874797
 30
0.0
 40
3.5
 41
0.0
 71
     9
 72
     5
  1

1001
ACAD
1000
MTEXTBEGIN
1070
    73
1070
     1
1070
    44
1040
1.0
1070
    74
1070
     0
1000
MTEXTEND
  0
MTEXT
  5
5605
330
1A
100
AcDbEntity
  8
SUNPOU
100
AcDbMText
 10
76375.37854794595
 20
60676.76650181047
 30
0.0
 40
10.5
 41
0.0
 71
     9
 72
     5
  1

1001
ACAD
1000
MTEXTBEGIN
1070
    73
1070
     1
1070
    44
1040
1.0
1070
    74
1070
     0
1000
MTEXTEND
  0
MTEXT
  5
5606
330
1A
100
AcDbEntity
  8
SUNPOU
100
AcDbMText
 10
84709.93991079748
 20
78034.0328293557
 30
0.0
 40
10.5
 41
0.0
 71
     9
 72
     5
  1

1001
ACAD
1000
MTEXTBEGIN
1070
    73
1070
     1
1070
    44
1040
1.0
1070
    74
1070
     0
1000
MTEXTEND
  0
MTEXT
  5
5607
330
1A
100
AcDbEntity
  8
SUNPOU
100
AcDbMText
 10
93432.10747671548
 20
85449.86736089315
 30
0.0
 40
10.5
 41
0.0
 71
     9
 72
     5
  1

1001
ACAD
1000
MTEXTBEGIN
1070
    73
1070
     1
1070
    44
1040
1.0
1070
    74
1070
     0
1000
MTEXTEND
  0
MTEXT
  5
5608
330
1A
100
AcDbEntity
  8
SUNPOU
100
AcDbMText
 10
112385.8661940454
 20
102916.4434133851
 30
0.0
 40
10.5
 41
0.0
 71
     9
 72
     5
  1

1001
ACAD
1000
MTEXTBEGIN
1070
    73
1070
     1
1070
    44
1040
1.0
1070
    74
1070
     0
1000
MTEXTEND
  0
MTEXT
  5
5609
330
1A
100
AcDbEntity
  8
SUNPOU
100
AcDbMText
 10
114329.2734407548
 20
101115.3943335072
 30
0.0
 40
3.5
 41
0.0
 71
     9
 72
     5
  1

1001
ACAD
1000
MTEXTBEGIN
1070
    73
1070
     1
1070
    44
1040
1.0
1070
    74
1070
     0
1000
MTEXTEND
  0
MTEXT
  5
560A
330
1A
100
AcDbEntity
  8
SUNPOU
100
AcDbMText
 10
145455.4532733745
 20
143610.3400011645
 30
0.0
 40
10.5
 41
0.0
 71
     9
 72
     5
  1

1001
ACAD
1000
MTEXTBEGIN
1070
    73
1070
     1
1070
    44
1040
1.0
1070
    74
1070
     0
1000
MTEXTEND
  0
MTEXT
  5
560B
330
1A
100
AcDbEntity
  8
SUNPOU
100
AcDbMText
 10
147398.8605200839
 20
141809.2909212864
 30
0.0
 40
3.5
 41
0.0
 71
     9
 72
     5
  1

1001
ACAD
1000
MTEXTBEGIN
1070
    73
1070
     1
1070
    44
1040
1.0
1070
    74
1070
     0
1000
MTEXTEND
  0
MTEXT
  5
560C
330
1A
100
AcDbEntity
  8
SUNPOU
100
AcDbMText
 10
95895.72097917013
 20
89443.5051561396
 30
0.0
 40
10.5
 41
0.0
 71
     9
 72
     5
  1

1001
ACAD
1000
MTEXTBEGIN
1070
    73
1070
     1
1070
    44
1040
1.0
1070
    74
1070
     0
1000
MTEXTEND
  0
MTEXT
  5
560D
330
1A
100
AcDbEntity
  8
SUNPOU
100
AcDbMText
 10
81947.72087879414
 20
70271.1060170274
 30
0.0
 40
3.5
 41
0.0
 71
     7
 72
     5
  1

1001
ACAD
1000
MTEXTBEGIN
1070
    73
1070
     1
1070
    44
1040
1.0
1070
    74
1070
     0
1000
MTEXTEND
  0
MTEXT
  5
560E
330
1A
100
AcDbEntity
  8
SUNPOU
100
AcDbMText
 10
62932.89027578729
 20
58033.25474784561
 30
0.0
 40
10.5
 41
0.0
 71
     7
 72
     5
  1

1001
ACAD
1000
MTEXTBEGIN
1070
    73
1070
     1
1070
    44
1040
1.0
1070
    74
1070
     0
1000
MTEXTEND
  0
MTEXT
  5
560F
330
1A
100
AcDbEntity
  8
SUNPOU
100
AcDbMText
 10
50475.66201083918
 20
42188.32316974719
 30
0.0
 40
35.0
 41
0.0
 71
     9
 72
     5
  1

1001
ACAD
1000
MTEXTBEGIN
1070
    73
1070
     1
1070
    44
1040
1.0
1070
    74
1070
     0
1000
MTEXTEND
  0
MTEXT
  5
5610
330
1A
100
AcDbEntity
  8
SUNPOU
100
AcDbMText
 10
49384.14706841413
 20
42797.0985797959
 30
0.0
 40
350.0000004171781
 41
0.0
 71
     7
 72
     5
  1

1001
ACAD
1000
MTEXTBEGIN
1070
    73
1070
     1
1070
    44
1040
1.0
1070
    74
1070
     0
1000
MTEXTEND
  0
MTEXT
  5
5611
330
1A
100
AcDbEntity
  8
0
100
AcDbMText
 10
55428.09782635704
 20
40777.02094193211
 30
0.0
 40
8.0
 41
0.0
 71
     7
 72
     5
  1

1001
ACAD
1000
MTEXTBEGIN
1070
    73
1070
     1
1070
    44
1040
1.0
1070
    74
1070
     0
1000
MTEXTEND
  0
MTEXT
  5
5612
330
1A
100
AcDbEntity
  8
0
100
AcDbMText
 10
57713.45551625194
 20
41747.81123668317
 30
0.0
 40
8.0
 41
0.0
 71
     7
 72
     5
  1

1001
ACAD
1000
MTEXTBEGIN
1070
    73
1070
     1
1070
    44
1040
1.0
1070
    74
1070
     0
1000
MTEXTEND
  0
MTEXT
  5
5613
330
1A
100
AcDbEntity
  8
SUNPOU
100
AcDbMText
 10
60379.35253693408
 20
51259.9226290583
 30
0.0
 40
10.5
 41
0.0
 71
     1
 72
     5
  1

1001
ACAD
1000
MTEXTBEGIN
1070
    73
1070
     1
1070
    44
1040
1.0
1070
    74
1070
     0
1000
MTEXTEND
  0
MTEXT
  5
5614
330
1A
100
AcDbEntity
  8
SUNPOU
100
AcDbMText
 10
52448.42934099814
 20
50313.12949514535
 30
0.0
 40
10.5
 41
0.0
 71
     7
 72
     5
  1

1001
ACAD
1000
MTEXTBEGIN
1070
    73
1070
     1
1070
    44
1040
1.0
1070
    74
1070
     0
1000
MTEXTEND
  0
MTEXT
  5
5615
330
1A
100
AcDbEntity
  8
SUNPOU
100
AcDbMText
 10
55397.41300551091
 20
55213.80556698819
 30
0.0
 40
10.5
 41
0.0
 71
     7
 72
     5
  1

1001
ACAD
1000
MTEXTBEGIN
1070
    73
1070
     1
1070
    44
1040
1.0
1070
    74
1070
     0
1000
MTEXTEND
  0
MTEXT
  5
5616
330
1A
100
AcDbEntity
  8
SUNPOU
100
AcDbMText
 10
59906.49113346147
 20
57650.10631460826
 30
0.0
 40
10.5
 41
0.0
 71
     7
 72
     5
  1

1001
ACAD
1000
MTEXTBEGIN
1070
    73
1070
     1
1070
    44
1040
1.0
1070
    74
1070
     0
1000
MTEXTEND
  0
MTEXT
  5
5617
330
1A
100
AcDbEntity
  8
SUNPOU
100
AcDbMText
 10
43507.32902022979
 20
36647.70246499718
 30
0.0
 40
10.5
 41
0.0
 71
     7
 72
     5
  1

1001
ACAD
1000
MTEXTBEGIN
1070
    73
1070
     1
1070
    44
1040
1.0
1070
    74
1070
     0
1000
MTEXTEND
  0
MTEXT
  5
5618
330
1A
100
AcDbEntity
  8
SUNPOU
100
AcDbMText
 10
94698.84745413006
 20
82320.68302864542
 30
0.0
 40
10.5
 41
0.0
 71
     9
 72
     5
  1

1001
ACAD
1000
MTEXTBEGIN
1070
    73
1070
     1
1070
    44
1040
1.0
1070
    74
1070
     0
1000
MTEXTEND
  0
MTEXT
  5
5619
330
1A
100
AcDbEntity
  8
SUNPOU
100
AcDbMText
 10
103421.015020048
 20
89736.5175601829
 30
0.0
 40
10.5
 41
0.0
 71
     9
 72
     5
  1

1001
ACAD
1000
MTEXTBEGIN
1070
    73
1070
     1
1070
    44
1040
1.0
1070
    74
1070
     0
1000
MTEXTEND
  0
MTEXT
  5
561A
330
1A
100
AcDbEntity
  8
SUNPOU
100
AcDbMText
 10
122374.773737378
 20
107203.0936126749
 30
0.0
 40
10.5
 41
0.0
 71
     9
 72
     5
  1

1001
ACAD
1000
MTEXTBEGIN
1070
    73
1070
     1
1070
    44
1040
1.0
1070
    74
1070
     0
1000
MTEXTEND
  0
MTEXT
  5
561B
330
1A
100
AcDbEntity
  8
SUNPOU
100
AcDbMText
 10
124318.1809840874
 20
105402.0445327969
 30
0.0
 40
3.5
 41
0.0
 71
     9
 72
     5
  1

1001
ACAD
1000
MTEXTBEGIN
1070
    73
1070
     1
1070
    44
1040
1.0
1070
    74
1070
     0
1000
MTEXTEND
  0
MTEXT
  5
561C
330
1A
100
AcDbEntity
  8
SUNPOU
100
AcDbMText
 10
155444.3608167071
 20
147896.9902004542
 30
0.0
 40
10.5
 41
0.0
 71
     9
 72
     5
  1

1001
ACAD
1000
MTEXTBEGIN
1070
    73
1070
     1
1070
    44
1040
1.0
1070
    74
1070
     0
1000
MTEXTEND
  0
MTEXT
  5
561D
330
1A
100
AcDbEntity
  8
SUNPOU
100
AcDbMText
 10
157387.7680634165
 20
146095.9411205762
 30
0.0
 40
3.5
 41
0.0
 71
     9
 72
     5
  1

1001
ACAD
1000
MTEXTBEGIN
1070
    73
1070
     1
1070
    44
1040
1.0
1070
    74
1070
     0
1000
MTEXTEND
  0
MTEXT
  5
561E
330
1A
100
AcDbEntity
  8
SUNPOU
100
AcDbMText
 10
105884.6285225027
 20
93730.15535542933
 30
0.0
 40
10.5
 41
0.0
 71
     9
 72
     5
  1

1001
ACAD
1000
MTEXTBEGIN
1070
    73
1070
     1
1070
    44
1040
1.0
1070
    74
1070
     0
1000
MTEXTEND
  0
MTEXT
  5
561F
330
1A
100
AcDbEntity
  8
SUNPOU
100
AcDbMText
 10
91936.6284221267
 20
74557.75621631714
 30
0.0
 40
3.5
 41
0.0
 71
     7
 72
     5
  1

1001
ACAD
1000
MTEXTBEGIN
1070
    73
1070
     1
1070
    44
1040
1.0
1070
    74
1070
     0
1000
MTEXTEND
  0
MTEXT
  5
5620
330
1A
100
AcDbEntity
  8
SUNPOU
100
AcDbMText
 10
72921.79781911986
 20
62319.90494713533
 30
0.0
 40
10.5
 41
0.0
 71
     7
 72
     5
  1

1001
ACAD
1000
MTEXTBEGIN
1070
    73
1070
     1
1070
    44
1040
1.0
1070
    74
1070
     0
1000
MTEXTEND
  0
MTEXT
  5
5621
330
1A
100
AcDbEntity
  8
SUNPOU
100
AcDbMText
 10
60464.56955417175
 20
46474.97336903692
 30
0.0
 40
35.0
 41
0.0
 71
     9
 72
     5
  1

1001
ACAD
1000
MTEXTBEGIN
1070
    73
1070
     1
1070
    44
1040
1.0
1070
    74
1070
     0
1000
MTEXTEND
  0
MTEXT
  5
5622
330
1A
100
AcDbEntity
  8
SUNPOU
100
AcDbMText
 10
59373.05461174672
 20
47083.74877908562
 30
0.0
 40
350.0000004171781
 41
0.0
 71
     7
 72
     5
  1

1001
ACAD
1000
MTEXTBEGIN
1070
    73
1070
     1
1070
    44
1040
1.0
1070
    74
1070
     0
1000
MTEXTEND
  0
MTEXT
  5
5623
330
1A
100
AcDbEntity
  8
0
100
AcDbMText
 10
65417.00536968962
 20
45063.67114122186
 30
0.0
 40
8.0
 41
0.0
 71
     7
 72
     5
  1

1001
ACAD
1000
MTEXTBEGIN
1070
    73
1070
     1
1070
    44
1040
1.0
1070
    74
1070
     0
1000
MTEXTEND
  0
MTEXT
  5
5624
330
1A
100
AcDbEntity
  8
0
100
AcDbMText
 10
67702.36305958452
 20
46034.46143597292
 30
0.0
 40
8.0
 41
0.0
 71
     7
 72
     5
  1

1001
ACAD
1000
MTEXTBEGIN
1070
    73
1070
     1
1070
    44
1040
1.0
1070
    74
1070
     0
1000
MTEXTEND
  0
MTEXT
  5
5625
330
1A
100
AcDbEntity
  8
SUNPOU
100
AcDbMText
 10
70368.26008026666
 20
55546.57282834803
 30
0.0
 40
10.5
 41
0.0
 71
     1
 72
     5
  1

1001
ACAD
1000
MTEXTBEGIN
1070
    73
1070
     1
1070
    44
1040
1.0
1070
    74
1070
     0
1000
MTEXTEND
  0
MTEXT
  5
5626
330
1A
100
AcDbEntity
  8
SUNPOU
100
AcDbMText
 10
62437.33688433072
 20
54599.77969443508
 30
0.0
 40
10.5
 41
0.0
 71
     7
 72
     5
  1

1001
ACAD
1000
MTEXTBEGIN
1070
    73
1070
     1
1070
    44
1040
1.0
1070
    74
1070
     0
1000
MTEXTEND
  0
MTEXT
  5
5627
330
1A
100
AcDbEntity
  8
SUNPOU
100
AcDbMText
 10
65386.32054884349
 20
59500.45576627792
 30
0.0
 40
10.5
 41
0.0
 71
     7
 72
     5
  1

1001
ACAD
1000
MTEXTBEGIN
1070
    73
1070
     1
1070
    44
1040
1.0
1070
    74
1070
     0
1000
MTEXTEND
  0
MTEXT
  5
5628
330
1A
100
AcDbEntity
  8
SUNPOU
100
AcDbMText
 10
69895.39867679405
 20
61936.756513898
 30
0.0
 40
10.5
 41
0.0
 71
     7
 72
     5
  1

1001
ACAD
1000
MTEXTBEGIN
1070
    73
1070
     1
1070
    44
1040
1.0
1070
    74
1070
     0
1000
MTEXTEND
  0
MTEXT
  5
5629
330
1A
100
AcDbEntity
  8
SUNPOU
100
AcDbMText
 10
53496.23656356237
 20
40934.35266428691
 30
0.0
 40
10.5
 41
0.0
 71
     7
 72
     5
  1

1001
ACAD
1000
MTEXTBEGIN
1070
    73
1070
     1
1070
    44
1040
1.0
1070
    74
1070
     0
1000
MTEXTEND
  0
MTEXT
  5
562A
330
1A
100
AcDbEntity
  8
SUNPOU
100
AcDbMText
 10
55306.99947493731
 20
47261.76665176547
 30
0.0
 40
10.5
 41
0.0
 71
     9
 72
     5
  1

1001
ACAD
1000
MTEXTBEGIN
1070
    73
1070
     1
1070
    44
1040
1.0
1070
    74
1070
     0
1000
MTEXTEND
  0
MTEXT
  5
562B
330
1A
100
AcDbEntity
  8
SUNPOU
100
AcDbMText
 10
64029.16704085528
 20
54677.60118330295
 30
0.0
 40
10.5
 41
0.0
 71
     9
 72
     5
  1

1001
ACAD
1000
MTEXTBEGIN
1070
    73
1070
     1
1070
    44
1040
1.0
1070
    74
1070
     0
1000
MTEXTEND
  0
MTEXT
  5
562C
330
1A
100
AcDbEntity
  8
SUNPOU
100
AcDbMText
 10
82982.92575818527
 20
72144.17723579499
 30
0.0
 40
10.5
 41
0.0
 71
     9
 72
     5
  1

1001
ACAD
1000
MTEXTBEGIN
1070
    73
1070
     1
1070
    44
1040
1.0
1070
    74
1070
     0
1000
MTEXTEND
  0
MTEXT
  5
562D
330
1A
100
AcDbEntity
  8
SUNPOU
100
AcDbMText
 10
84926.33300489467
 20
70343.12815591698
 30
0.0
 40
3.5
 41
0.0
 71
     9
 72
     5
  1

1001
ACAD
1000
MTEXTBEGIN
1070
    73
1070
     1
1070
    44
1040
1.0
1070
    74
1070
     0
1000
MTEXTEND
  0
MTEXT
  5
562E
330
1A
100
AcDbEntity
  8
SUNPOU
100
AcDbMText
 10
116052.5128375143
 20
112838.0738235743
 30
0.0
 40
10.5
 41
0.0
 71
     9
 72
     5
  1

1001
ACAD
1000
MTEXTBEGIN
1070
    73
1070
     1
1070
    44
1040
1.0
1070
    74
1070
     0
1000
MTEXTEND
  0
MTEXT
  5
562F
330
1A
100
AcDbEntity
  8
SUNPOU
100
AcDbMText
 10
117995.9200842238
 20
111037.0247436963
 30
0.0
 40
3.5
 41
0.0
 71
     9
 72
     5
  1

1001
ACAD
1000
MTEXTBEGIN
1070
    73
1070
     1
1070
    44
1040
1.0
1070
    74
1070
     0
1000
MTEXTEND
  0
MTEXT
  5
5630
330
1A
100
AcDbEntity
  8
SUNPOU
100
AcDbMText
 10
66492.78054330994
 20
58671.23897854939
 30
0.0
 40
10.5
 41
0.0
 71
     9
 72
     5
  1

1001
ACAD
1000
MTEXTBEGIN
1070
    73
1070
     1
1070
    44
1040
1.0
1070
    74
1070
     0
1000
MTEXTEND
  0
MTEXT
  5
5631
330
1A
100
AcDbEntity
  8
SUNPOU
100
AcDbMText
 10
52544.78044293396
 20
39498.83983943717
 30
0.0
 40
3.5
 41
0.0
 71
     7
 72
     5
  1

1001
ACAD
1000
MTEXTBEGIN
1070
    73
1070
     1
1070
    44
1040
1.0
1070
    74
1070
     0
1000
MTEXTEND
  0
MTEXT
  5
5632
330
1A
100
AcDbEntity
  8
SUNPOU
100
AcDbMText
 10
66237.13112570454
 20
48857.90306045851
 30
0.0
 40
10.5
 41
0.0
 71
     9
 72
     5
  1

1001
ACAD
1000
MTEXTBEGIN
1070
    73
1070
     1
1070
    44
1040
1.0
1070
    74
1070
     0
1000
MTEXTEND
  0
MTEXT
  5
5633
330
1A
100
AcDbEntity
  8
SUNPOU
100
AcDbMText
 10
74959.29869162252
 20
56273.737591996
 30
0.0
 40
10.5
 41
0.0
 71
     9
 72
     5
  1

1001
ACAD
1000
MTEXTBEGIN
1070
    73
1070
     1
1070
    44
1040
1.0
1070
    74
1070
     0
1000
MTEXTEND
  0
MTEXT
  5
5634
330
1A
100
AcDbEntity
  8
SUNPOU
100
AcDbMText
 10
93913.0574089525
 20
73740.31364448805
 30
0.0
 40
10.5
 41
0.0
 71
     9
 72
     5
  1

1001
ACAD
1000
MTEXTBEGIN
1070
    73
1070
     1
1070
    44
1040
1.0
1070
    74
1070
     0
1000
MTEXTEND
  0
MTEXT
  5
5635
330
1A
100
AcDbEntity
  8
SUNPOU
100
AcDbMText
 10
95856.46465566192
 20
71939.26456461004
 30
0.0
 40
3.5
 41
0.0
 71
     9
 72
     5
  1

1001
ACAD
1000
MTEXTBEGIN
1070
    73
1070
     1
1070
    44
1040
1.0
1070
    74
1070
     0
1000
MTEXTEND
  0
MTEXT
  5
5636
330
1A
100
AcDbEntity
  8
SUNPOU
100
AcDbMText
 10
126982.6444882816
 20
114434.2102322673
 30
0.0
 40
10.5
 41
0.0
 71
     9
 72
     5
  1

1001
ACAD
1000
MTEXTBEGIN
1070
    73
1070
     1
1070
    44
1040
1.0
1070
    74
1070
     0
1000
MTEXTEND
  0
MTEXT
  5
5637
330
1A
100
AcDbEntity
  8
SUNPOU
100
AcDbMText
 10
128926.051734991
 20
112633.1611523893
 30
0.0
 40
3.5
 41
0.0
 71
     9
 72
     5
  1

1001
ACAD
1000
MTEXTBEGIN
1070
    73
1070
     1
1070
    44
1040
1.0
1070
    74
1070
     0
1000
MTEXTEND
  0
MTEXT
  5
5638
330
1A
100
AcDbEntity
  8
SUNPOU
100
AcDbMText
 10
77422.91219407717
 20
60267.37538724244
 30
0.0
 40
10.5
 41
0.0
 71
     9
 72
     5
  1

1001
ACAD
1000
MTEXTBEGIN
1070
    73
1070
     1
1070
    44
1040
1.0
1070
    74
1070
     0
1000
MTEXTEND
  0
MTEXT
  5
5639
330
1A
100
AcDbEntity
  8
SUNPOU
100
AcDbMText
 10
63474.91209370119
 20
41094.97624813023
 30
0.0
 40
3.5
 41
0.0
 71
     7
 72
     5
  1

1001
ACAD
1000
MTEXTBEGIN
1070
    73
1070
     1
1070
    44
1040
1.0
1070
    74
1070
     0
1000
MTEXTEND
  0
MTEXT
  5
563A
330
1A
100
AcDbEntity
  8
SUNPOU
100
AcDbMText
 10
48117.65086229006
 20
40806.11043916631
 30
0.0
 40
10.5
 41
0.0
 71
     9
 72
     5
  1

1001
ACAD
1000
MTEXTBEGIN
1070
    73
1070
     1
1070
    44
1040
1.0
1070
    74
1070
     0
1000
MTEXTEND
  0
MTEXT
  5
563B
330
1A
100
AcDbEntity
  8
SUNPOU
100
AcDbMText
 10
67071.40957962004
 20
58272.68649165837
 30
0.0
 40
10.5
 41
0.0
 71
     9
 72
     5
  1

1001
ACAD
1000
MTEXTBEGIN
1070
    73
1070
     1
1070
    44
1040
1.0
1070
    74
1070
     0
1000
MTEXTEND
  0
MTEXT
  5
563C
330
1A
100
AcDbEntity
  8
SUNPOU
100
AcDbMText
 10
69014.81682632945
 20
56471.63741178035
 30
0.0
 40
3.5
 41
0.0
 71
     9
 72
     5
  1

1001
ACAD
1000
MTEXTBEGIN
1070
    73
1070
     1
1070
    44
1040
1.0
1070
    74
1070
     0
1000
MTEXTEND
  0
MTEXT
  5
563D
330
1A
100
AcDbEntity
  8
SUNPOU
100
AcDbMText
 10
100140.9966589491
 20
98966.58307943772
 30
0.0
 40
10.5
 41
0.0
 71
     9
 72
     5
  1

1001
ACAD
1000
MTEXTBEGIN
1070
    73
1070
     1
1070
    44
1040
1.0
1070
    74
1070
     0
1000
MTEXTEND
  0
MTEXT
  5
563E
330
1A
100
AcDbEntity
  8
SUNPOU
100
AcDbMText
 10
102084.4039056586
 20
97165.53399955969
 30
0.0
 40
3.5
 41
0.0
 71
     9
 72
     5
  1

1001
ACAD
1000
MTEXTBEGIN
1070
    73
1070
     1
1070
    44
1040
1.0
1070
    74
1070
     0
1000
MTEXTEND
  0
MTEXT
  5
563F
330
1A
100
AcDbEntity
  8
SUNPOU
100
AcDbMText
 10
50581.26436474472
 20
44799.74823441275
 30
0.0
 40
10.5
 41
0.0
 71
     9
 72
     5
  1

1001
ACAD
1000
MTEXTBEGIN
1070
    73
1070
     1
1070
    44
1040
1.0
1070
    74
1070
     0
1000
MTEXTEND
  0
MTEXT
  5
5640
330
1A
100
AcDbEntity
  8
SUNPOU
100
AcDbMText
 10
36633.26426436873
 20
25627.34909530054
 30
0.0
 40
3.5
 41
0.0
 71
     7
 72
     5
  1

1001
ACAD
1000
MTEXTBEGIN
1070
    73
1070
     1
1070
    44
1040
1.0
1070
    74
1070
     0
1000
MTEXTEND
  0
MTEXT
  5
5641
330
1A
100
AcDbEntity
  8
SUNPOU
100
AcDbMText
 10
61069.42493315968
 20
52574.61207825771
 30
0.0
 40
10.5
 41
0.0
 71
     9
 72
     5
  1

1001
ACAD
1000
MTEXTBEGIN
1070
    73
1070
     1
1070
    44
1040
1.0
1070
    74
1070
     0
1000
MTEXTEND
  0
MTEXT
  5
5642
330
1A
100
AcDbEntity
  8
SUNPOU
100
AcDbMText
 10
80023.18365048967
 20
70041.18813074978
 30
0.0
 40
10.5
 41
0.0
 71
     9
 72
     5
  1

1001
ACAD
1000
MTEXTBEGIN
1070
    73
1070
     1
1070
    44
1040
1.0
1070
    74
1070
     0
1000
MTEXTEND
  0
MTEXT
  5
5643
330
1A
100
AcDbEntity
  8
SUNPOU
100
AcDbMText
 10
81966.59089719908
 20
68240.13905087176
 30
0.0
 40
3.5
 41
0.0
 71
     9
 72
     5
  1

1001
ACAD
1000
MTEXTBEGIN
1070
    73
1070
     1
1070
    44
1040
1.0
1070
    74
1070
     0
1000
MTEXTEND
  0
MTEXT
  5
5644
330
1A
100
AcDbEntity
  8
SUNPOU
100
AcDbMText
 10
113092.7707298187
 20
110735.0847185291
 30
0.0
 40
10.5
 41
0.0
 71
     9
 72
     5
  1

1001
ACAD
1000
MTEXTBEGIN
1070
    73
1070
     1
1070
    44
1040
1.0
1070
    74
1070
     0
1000
MTEXTEND
  0
MTEXT
  5
5645
330
1A
100
AcDbEntity
  8
SUNPOU
100
AcDbMText
 10
115036.1779765282
 20
108934.0356386511
 30
0.0
 40
3.5
 41
0.0
 71
     9
 72
     5
  1

1001
ACAD
1000
MTEXTBEGIN
1070
    73
1070
     1
1070
    44
1040
1.0
1070
    74
1070
     0
1000
MTEXTEND
  0
MTEXT
  5
5646
330
1A
100
AcDbEntity
  8
SUNPOU
100
AcDbMText
 10
63533.03843561433
 20
56568.24987350415
 30
0.0
 40
10.5
 41
0.0
 71
     9
 72
     5
  1

1001
ACAD
1000
MTEXTBEGIN
1070
    73
1070
     1
1070
    44
1040
1.0
1070
    74
1070
     0
1000
MTEXTEND
  0
MTEXT
  5
5647
330
1A
100
AcDbEntity
  8
SUNPOU
100
AcDbMText
 10
49585.03833523835
 20
37395.85073439196
 30
0.0
 40
3.5
 41
0.0
 71
     7
 72
     5
  1

1001
ACAD
1000
MTEXTBEGIN
1070
    73
1070
     1
1070
    44
1040
1.0
1070
    74
1070
     0
1000
MTEXTEND
  0
MTEXT
  5
5648
330
1A
100
AcDbEntity
  8
SUNPOU
100
AcDbMText
 10
77137.31641337052
 20
70907.11375048141
 30
0.0
 40
10.5
 41
0.0
 71
     9
 72
     5
  1

1001
ACAD
1000
MTEXTBEGIN
1070
    73
1070
     1
1070
    44
1040
1.0
1070
    74
1070
     0
1000
MTEXTEND
  0
MTEXT
  5
5649
330
1A
100
AcDbEntity
  8
SUNPOU
100
AcDbMText
 10
79080.72366007995
 20
69106.06467060339
 30
0.0
 40
3.5
 41
0.0
 71
     9
 72
     5
  1

1001
ACAD
1000
MTEXTBEGIN
1070
    73
1070
     1
1070
    44
1040
1.0
1070
    74
1070
     0
1000
MTEXTEND
  0
MTEXT
  5
564A
330
1A
100
AcDbEntity
  8
SUNPOU
100
AcDbMText
 10
110206.9034926996
 20
111601.0103382607
 30
0.0
 40
10.5
 41
0.0
 71
     9
 72
     5
  1

1001
ACAD
1000
MTEXTBEGIN
1070
    73
1070
     1
1070
    44
1040
1.0
1070
    74
1070
     0
1000
MTEXTEND
  0
MTEXT
  5
564B
330
1A
100
AcDbEntity
  8
SUNPOU
100
AcDbMText
 10
112150.310739409
 20
109799.9612583827
 30
0.0
 40
3.5
 41
0.0
 71
     9
 72
     5
  1

1001
ACAD
1000
MTEXTBEGIN
1070
    73
1070
     1
1070
    44
1040
1.0
1070
    74
1070
     0
1000
MTEXTEND
  0
MTEXT
  5
564C
330
1A
100
AcDbEntity
  8
SUNPOU
100
AcDbMText
 10
108819.1333204968
 20
110677.9087286761
 30
0.0
 40
10.5
 41
0.0
 71
     9
 72
     5
  1

1001
ACAD
1000
MTEXTBEGIN
1070
    73
1070
     1
1070
    44
1040
1.0
1070
    74
1070
     0
1000
MTEXTEND
  0
MTEXT
  5
564D
330
1A
100
AcDbEntity
  8
SUNPOU
100
AcDbMText
 10
110762.5405672062
 20
108876.8596487981
 30
0.0
 40
3.5
 41
0.0
 71
     9
 72
     5
  1

1001
ACAD
1000
MTEXTBEGIN
1070
    73
1070
     1
1070
    44
1040
1.0
1070
    74
1070
     0
1000
MTEXTEND
  0
MTEXT
  5
564E
330
1A
100
AcDbEntity
  8
SUNPOU
100
AcDbMText
 10
76303.05507956816
 20
68695.31179059812
 30
0.0
 40
10.5
 41
0.0
 71
     9
 72
     5
  1

1001
ACAD
1000
MTEXTBEGIN
1070
    73
1070
     1
1070
    44
1040
1.0
1070
    74
1070
     0
1000
MTEXTEND
  0
MTEXT
  5
564F
330
1A
100
AcDbEntity
  8
SUNPOU
100
AcDbMText
 10
79026.36128373271
 20
69099.99348217918
 30
0.0
 40
3.5
 41
0.0
 71
     9
 72
     5
  1

1001
ACAD
1000
MTEXTBEGIN
1070
    73
1070
     1
1070
    44
1040
1.0
1070
    74
1070
     0
1000
MTEXTEND
  0
MTEXT
  5
5650
330
1A
100
AcDbEntity
  8
SUNPOU
100
AcDbMText
 10
78234.00675862522
 20
65938.68764412436
 30
0.0
 40
10.5
 41
0.0
 71
     9
 72
     5
  1

1001
ACAD
1000
MTEXTBEGIN
1070
    73
1070
     1
1070
    44
1040
1.0
1070
    74
1070
     0
1000
MTEXTEND
  0
MTEXT
  5
5651
330
1A
100
AcDbEntity
  8
SUNPOU
100
AcDbMText
 10
80177.41400533465
 20
64137.63856424636
 30
0.0
 40
3.5
 41
0.0
 71
     9
 72
     5
  1

1001
ACAD
1000
MTEXTBEGIN
1070
    73
1070
     1
1070
    44
1040
1.0
1070
    74
1070
     0
1000
MTEXTEND
  0
MTEXT
  5
5652
330
1A
100
AcDbEntity
  8
SUNPOU
100
AcDbMText
 10
80122.50949592123
 20
64024.86668196205
 30
0.0
 40
3.5
 41
0.0
 71
     9
 72
     5
  1

1001
ACAD
1000
MTEXTBEGIN
1070
    73
1070
     1
1070
    44
1040
1.0
1070
    74
1070
     0
1000
MTEXTEND
  0
MTEXT
  5
5653
330
1A
100
AcDbEntity
  8
SUNPOU
100
AcDbMText
 10
79486.58135950133
 20
63213.54544089553
 30
0.0
 40
3.5
 41
0.0
 71
     9
 72
     5
  1

1001
ACAD
1000
MTEXTBEGIN
1070
    73
1070
     1
1070
    44
1040
1.0
1070
    74
1070
     0
1000
MTEXTEND
  0
MTEXT
  5
5654
330
1A
100
AcDbEntity
  8
SUNPOU
100
AcDbMText
 10
79485.3409400806
 20
63213.29746395804
 30
0.0
 40
10.5
 41
0.0
 71
     9
 72
     5
  1

1001
ACAD
1000
MTEXTBEGIN
1070
    73
1070
     1
1070
    44
1040
1.0
1070
    74
1070
     0
1000
MTEXTEND
  0
MTEXT
  5
5655
330
1A
100
AcDbEntity
  8
SUNPOU
100
AcDbMText
 10
85473.63363627567
 20
80747.76348077064
 30
0.0
 40
10.5
 41
0.0
 71
     9
 72
     5
  1

1001
ACAD
1000
MTEXTBEGIN
1070
    73
1070
     1
1070
    44
1040
1.0
1070
    74
1070
     0
1000
MTEXTEND
  0
MTEXT
  5
5656
330
1A
100
AcDbEntity
  8
SUNPOU
100
AcDbMText
 10
94195.80120219368
 20
88163.59801230809
 30
0.0
 40
10.5
 41
0.0
 71
     9
 72
     5
  1

1001
ACAD
1000
MTEXTBEGIN
1070
    73
1070
     1
1070
    44
1040
1.0
1070
    74
1070
     0
1000
MTEXTEND
  0
MTEXT
  5
5657
330
1A
100
AcDbEntity
  8
SUNPOU
100
AcDbMText
 10
113149.5599195236
 20
105630.1740648001
 30
0.0
 40
10.5
 41
0.0
 71
     9
 72
     5
  1

1001
ACAD
1000
MTEXTBEGIN
1070
    73
1070
     1
1070
    44
1040
1.0
1070
    74
1070
     0
1000
MTEXTEND
  0
MTEXT
  5
5658
330
1A
100
AcDbEntity
  8
SUNPOU
100
AcDbMText
 10
115092.967166233
 20
103829.1249849221
 30
0.0
 40
3.5
 41
0.0
 71
     9
 72
     5
  1

1001
ACAD
1000
MTEXTBEGIN
1070
    73
1070
     1
1070
    44
1040
1.0
1070
    74
1070
     0
1000
MTEXTEND
  0
MTEXT
  5
5659
330
1A
100
AcDbEntity
  8
SUNPOU
100
AcDbMText
 10
146219.1469988527
 20
146324.0706525794
 30
0.0
 40
10.5
 41
0.0
 71
     9
 72
     5
  1

1001
ACAD
1000
MTEXTBEGIN
1070
    73
1070
     1
1070
    44
1040
1.0
1070
    74
1070
     0
1000
MTEXTEND
  0
MTEXT
  5
565A
330
1A
100
AcDbEntity
  8
SUNPOU
100
AcDbMText
 10
148162.5542455621
 20
144523.0215727014
 30
0.0
 40
3.5
 41
0.0
 71
     9
 72
     5
  1

1001
ACAD
1000
MTEXTBEGIN
1070
    73
1070
     1
1070
    44
1040
1.0
1070
    74
1070
     0
1000
MTEXTEND
  0
MTEXT
  5
565B
330
1A
100
AcDbEntity
  8
SUNPOU
100
AcDbMText
 10
96659.41470464833
 20
92157.23580755453
 30
0.0
 40
10.5
 41
0.0
 71
     9
 72
     5
  1

1001
ACAD
1000
MTEXTBEGIN
1070
    73
1070
     1
1070
    44
1040
1.0
1070
    74
1070
     0
1000
MTEXTEND
  0
MTEXT
  5
565C
330
1A
100
AcDbEntity
  8
SUNPOU
100
AcDbMText
 10
82711.41460427234
 20
72984.83666844234
 30
0.0
 40
3.5
 41
0.0
 71
     7
 72
     5
  1

1001
ACAD
1000
MTEXTBEGIN
1070
    73
1070
     1
1070
    44
1040
1.0
1070
    74
1070
     0
1000
MTEXTEND
  0
MTEXT
  5
565D
330
1A
100
AcDbEntity
  8
SUNPOU
100
AcDbMText
 10
63696.58400126548
 20
60746.98539926055
 30
0.0
 40
10.5
 41
0.0
 71
     7
 72
     5
  1

1001
ACAD
1000
MTEXTBEGIN
1070
    73
1070
     1
1070
    44
1040
1.0
1070
    74
1070
     0
1000
MTEXTEND
  0
MTEXT
  5
565E
330
1A
100
AcDbEntity
  8
SUNPOU
100
AcDbMText
 10
51239.35573631738
 20
44902.05382116213
 30
0.0
 40
35.0
 41
0.0
 71
     9
 72
     5
  1

1001
ACAD
1000
MTEXTBEGIN
1070
    73
1070
     1
1070
    44
1040
1.0
1070
    74
1070
     0
1000
MTEXTEND
  0
MTEXT
  5
565F
330
1A
100
AcDbEntity
  8
SUNPOU
100
AcDbMText
 10
50147.84079389233
 20
45510.82923121084
 30
0.0
 40
350.0000004171781
 41
0.0
 71
     7
 72
     5
  1

1001
ACAD
1000
MTEXTBEGIN
1070
    73
1070
     1
1070
    44
1040
1.0
1070
    74
1070
     0
1000
MTEXTEND
  0
MTEXT
  5
5660
330
1A
100
AcDbEntity
  8
0
100
AcDbMText
 10
56191.79155183523
 20
43490.75159334705
 30
0.0
 40
8.0
 41
0.0
 71
     7
 72
     5
  1

1001
ACAD
1000
MTEXTBEGIN
1070
    73
1070
     1
1070
    44
1040
1.0
1070
    74
1070
     0
1000
MTEXTEND
  0
MTEXT
  5
5661
330
1A
100
AcDbEntity
  8
0
100
AcDbMText
 10
58477.14924173013
 20
44461.54188809812
 30
0.0
 40
8.0
 41
0.0
 71
     7
 72
     5
  1

1001
ACAD
1000
MTEXTBEGIN
1070
    73
1070
     1
1070
    44
1040
1.0
1070
    74
1070
     0
1000
MTEXTEND
  0
MTEXT
  5
5662
330
1A
100
AcDbEntity
  8
SUNPOU
100
AcDbMText
 10
61143.04626241227
 20
53973.65328047324
 30
0.0
 40
10.5
 41
0.0
 71
     1
 72
     5
  1

1001
ACAD
1000
MTEXTBEGIN
1070
    73
1070
     1
1070
    44
1040
1.0
1070
    74
1070
     0
1000
MTEXTEND
  0
MTEXT
  5
5663
330
1A
100
AcDbEntity
  8
SUNPOU
100
AcDbMText
 10
53212.12306647634
 20
53026.86014656028
 30
0.0
 40
10.5
 41
0.0
 71
     7
 72
     5
  1

1001
ACAD
1000
MTEXTBEGIN
1070
    73
1070
     1
1070
    44
1040
1.0
1070
    74
1070
     0
1000
MTEXTEND
  0
MTEXT
  5
5664
330
1A
100
AcDbEntity
  8
SUNPOU
100
AcDbMText
 10
56161.1067309891
 20
57927.53621840312
 30
0.0
 40
10.5
 41
0.0
 71
     7
 72
     5
  1

1001
ACAD
1000
MTEXTBEGIN
1070
    73
1070
     1
1070
    44
1040
1.0
1070
    74
1070
     0
1000
MTEXTEND
  0
MTEXT
  5
5665
330
1A
100
AcDbEntity
  8
SUNPOU
100
AcDbMText
 10
60670.18485893966
 20
60363.8369660232
 30
0.0
 40
10.5
 41
0.0
 71
     7
 72
     5
  1

1001
ACAD
1000
MTEXTBEGIN
1070
    73
1070
     1
1070
    44
1040
1.0
1070
    74
1070
     0
1000
MTEXTEND
  0
MTEXT
  5
5666
330
1A
100
AcDbEntity
  8
SUNPOU
100
AcDbMText
 10
44271.02274570799
 20
39361.43311641212
 30
0.0
 40
10.5
 41
0.0
 71
     7
 72
     5
  1

1001
ACAD
1000
MTEXTBEGIN
1070
    73
1070
     1
1070
    44
1040
1.0
1070
    74
1070
     0
1000
MTEXTEND
  0
MTEXT
  5
5667
330
1A
100
AcDbEntity
  8
SUNPOU
100
AcDbMText
 10
95462.54117960824
 20
85034.41368006038
 30
0.0
 40
10.5
 41
0.0
 71
     9
 72
     5
  1

1001
ACAD
1000
MTEXTBEGIN
1070
    73
1070
     1
1070
    44
1040
1.0
1070
    74
1070
     0
1000
MTEXTEND
  0
MTEXT
  5
5668
330
1A
100
AcDbEntity
  8
SUNPOU
100
AcDbMText
 10
104184.7087455262
 20
92450.24821159784
 30
0.0
 40
10.5
 41
0.0
 71
     9
 72
     5
  1

1001
ACAD
1000
MTEXTBEGIN
1070
    73
1070
     1
1070
    44
1040
1.0
1070
    74
1070
     0
1000
MTEXTEND
  0
MTEXT
  5
5669
330
1A
100
AcDbEntity
  8
SUNPOU
100
AcDbMText
 10
123138.4674628562
 20
109916.8242640898
 30
0.0
 40
10.5
 41
0.0
 71
     9
 72
     5
  1

1001
ACAD
1000
MTEXTBEGIN
1070
    73
1070
     1
1070
    44
1040
1.0
1070
    74
1070
     0
1000
MTEXTEND
  0
MTEXT
  5
566A
330
1A
100
AcDbEntity
  8
SUNPOU
100
AcDbMText
 10
125081.8747095656
 20
108115.7751842118
 30
0.0
 40
3.5
 41
0.0
 71
     9
 72
     5
  1

1001
ACAD
1000
MTEXTBEGIN
1070
    73
1070
     1
1070
    44
1040
1.0
1070
    74
1070
     0
1000
MTEXTEND
  0
MTEXT
  5
566B
330
1A
100
AcDbEntity
  8
SUNPOU
100
AcDbMText
 10
156208.0545421853
 20
150610.7208518691
 30
0.0
 40
10.5
 41
0.0
 71
     9
 72
     5
  1

1001
ACAD
1000
MTEXTBEGIN
1070
    73
1070
     1
1070
    44
1040
1.0
1070
    74
1070
     0
1000
MTEXTEND
  0
MTEXT
  5
566C
330
1A
100
AcDbEntity
  8
SUNPOU
100
AcDbMText
 10
158151.4617888947
 20
148809.6717719911
 30
0.0
 40
3.5
 41
0.0
 71
     9
 72
     5
  1

1001
ACAD
1000
MTEXTBEGIN
1070
    73
1070
     1
1070
    44
1040
1.0
1070
    74
1070
     0
1000
MTEXTEND
  0
MTEXT
  5
566D
330
1A
100
AcDbEntity
  8
SUNPOU
100
AcDbMText
 10
106648.3222479809
 20
96443.88600684427
 30
0.0
 40
10.5
 41
0.0
 71
     9
 72
     5
  1

1001
ACAD
1000
MTEXTBEGIN
1070
    73
1070
     1
1070
    44
1040
1.0
1070
    74
1070
     0
1000
MTEXTEND
  0
MTEXT
  5
566E
330
1A
100
AcDbEntity
  8
SUNPOU
100
AcDbMText
 10
92700.3221476049
 20
77271.48686773207
 30
0.0
 40
3.5
 41
0.0
 71
     7
 72
     5
  1

1001
ACAD
1000
MTEXTBEGIN
1070
    73
1070
     1
1070
    44
1040
1.0
1070
    74
1070
     0
1000
MTEXTEND
  0
MTEXT
  5
566F
330
1A
100
AcDbEntity
  8
SUNPOU
100
AcDbMText
 10
73685.49154459806
 20
65033.63559855027
 30
0.0
 40
10.5
 41
0.0
 71
     7
 72
     5
  1

1001
ACAD
1000
MTEXTBEGIN
1070
    73
1070
     1
1070
    44
1040
1.0
1070
    74
1070
     0
1000
MTEXTEND
  0
MTEXT
  5
5670
330
1A
100
AcDbEntity
  8
SUNPOU
100
AcDbMText
 10
61228.26327964995
 20
49188.70402045185
 30
0.0
 40
35.0
 41
0.0
 71
     9
 72
     5
  1

1001
ACAD
1000
MTEXTBEGIN
1070
    73
1070
     1
1070
    44
1040
1.0
1070
    74
1070
     0
1000
MTEXTEND
  0
MTEXT
  5
5671
330
1A
100
AcDbEntity
  8
SUNPOU
100
AcDbMText
 10
60136.74833722491
 20
49797.47943050056
 30
0.0
 40
350.0000004171781
 41
0.0
 71
     7
 72
     5
  1

1001
ACAD
1000
MTEXTBEGIN
1070
    73
1070
     1
1070
    44
1040
1.0
1070
    74
1070
     0
1000
MTEXTEND
  0
MTEXT
  5
5672
330
1A
100
AcDbEntity
  8
0
100
AcDbMText
 10
66180.69909516782
 20
47777.40179263678
 30
0.0
 40
8.0
 41
0.0
 71
     7
 72
     5
  1

1001
ACAD
1000
MTEXTBEGIN
1070
    73
1070
     1
1070
    44
1040
1.0
1070
    74
1070
     0
1000
MTEXTEND
  0
MTEXT
  5
5673
330
1A
100
AcDbEntity
  8
0
100
AcDbMText
 10
68466.05678506271
 20
48748.19208738784
 30
0.0
 40
8.0
 41
0.0
 71
     7
 72
     5
  1

1001
ACAD
1000
MTEXTBEGIN
1070
    73
1070
     1
1070
    44
1040
1.0
1070
    74
1070
     0
1000
MTEXTEND
  0
MTEXT
  5
5674
330
1A
100
AcDbEntity
  8
SUNPOU
100
AcDbMText
 10
71131.95380574485
 20
58260.30347976296
 30
0.0
 40
10.5
 41
0.0
 71
     1
 72
     5
  1

1001
ACAD
1000
MTEXTBEGIN
1070
    73
1070
     1
1070
    44
1040
1.0
1070
    74
1070
     0
1000
MTEXTEND
  0
MTEXT
  5
5675
330
1A
100
AcDbEntity
  8
SUNPOU
100
AcDbMText
 10
63201.03060980891
 20
57313.51034585002
 30
0.0
 40
10.5
 41
0.0
 71
     7
 72
     5
  1

1001
ACAD
1000
MTEXTBEGIN
1070
    73
1070
     1
1070
    44
1040
1.0
1070
    74
1070
     0
1000
MTEXTEND
  0
MTEXT
  5
5676
330
1A
100
AcDbEntity
  8
SUNPOU
100
AcDbMText
 10
66150.01427432169
 20
62214.18641769286
 30
0.0
 40
10.5
 41
0.0
 71
     7
 72
     5
  1

1001
ACAD
1000
MTEXTBEGIN
1070
    73
1070
     1
1070
    44
1040
1.0
1070
    74
1070
     0
1000
MTEXTEND
  0
MTEXT
  5
5677
330
1A
100
AcDbEntity
  8
SUNPOU
100
AcDbMText
 10
70659.09240227225
 20
64650.48716531294
 30
0.0
 40
10.5
 41
0.0
 71
     7
 72
     5
  1

1001
ACAD
1000
MTEXTBEGIN
1070
    73
1070
     1
1070
    44
1040
1.0
1070
    74
1070
     0
1000
MTEXTEND
  0
MTEXT
  5
5678
330
1A
100
AcDbEntity
  8
SUNPOU
100
AcDbMText
 10
54259.93028904056
 20
43648.08331570185
 30
0.0
 40
10.5
 41
0.0
 71
     7
 72
     5
  1

1001
ACAD
1000
MTEXTBEGIN
1070
    73
1070
     1
1070
    44
1040
1.0
1070
    74
1070
     0
1000
MTEXTEND
  0
MTEXT
  5
5679
330
1A
100
AcDbEntity
  8
SUNPOU
100
AcDbMText
 10
56070.69320041551
 20
49975.4973031804
 30
0.0
 40
10.5
 41
0.0
 71
     9
 72
     5
  1

1001
ACAD
1000
MTEXTBEGIN
1070
    73
1070
     1
1070
    44
1040
1.0
1070
    74
1070
     0
1000
MTEXTEND
  0
MTEXT
  5
567A
330
1A
100
AcDbEntity
  8
SUNPOU
100
AcDbMText
 10
64792.86076633348
 20
57391.33183471788
 30
0.0
 40
10.5
 41
0.0
 71
     9
 72
     5
  1

1001
ACAD
1000
MTEXTBEGIN
1070
    73
1070
     1
1070
    44
1040
1.0
1070
    74
1070
     0
1000
MTEXTEND
  0
MTEXT
  5
567B
330
1A
100
AcDbEntity
  8
SUNPOU
100
AcDbMText
 10
83746.61948366345
 20
74857.90788720994
 30
0.0
 40
10.5
 41
0.0
 71
     9
 72
     5
  1

1001
ACAD
1000
MTEXTBEGIN
1070
    73
1070
     1
1070
    44
1040
1.0
1070
    74
1070
     0
1000
MTEXTEND
  0
MTEXT
  5
567C
330
1A
100
AcDbEntity
  8
SUNPOU
100
AcDbMText
 10
85690.02673037287
 20
73056.85880733192
 30
0.0
 40
3.5
 41
0.0
 71
     9
 72
     5
  1

1001
ACAD
1000
MTEXTBEGIN
1070
    73
1070
     1
1070
    44
1040
1.0
1070
    74
1070
     0
1000
MTEXTEND
  0
MTEXT
  5
567D
330
1A
100
AcDbEntity
  8
SUNPOU
100
AcDbMText
 10
116816.2065629925
 20
115551.8044749892
 30
0.0
 40
10.5
 41
0.0
 71
     9
 72
     5
  1

1001
ACAD
1000
MTEXTBEGIN
1070
    73
1070
     1
1070
    44
1040
1.0
1070
    74
1070
     0
1000
MTEXTEND
  0
MTEXT
  5
567E
330
1A
100
AcDbEntity
  8
SUNPOU
100
AcDbMText
 10
118759.613809702
 20
113750.7553951112
 30
0.0
 40
3.5
 41
0.0
 71
     9
 72
     5
  1

1001
ACAD
1000
MTEXTBEGIN
1070
    73
1070
     1
1070
    44
1040
1.0
1070
    74
1070
     0
1000
MTEXTEND
  0
MTEXT
  5
567F
330
1A
100
AcDbEntity
  8
SUNPOU
100
AcDbMText
 10
67256.47426878814
 20
61384.96962996432
 30
0.0
 40
10.5
 41
0.0
 71
     9
 72
     5
  1

1001
ACAD
1000
MTEXTBEGIN
1070
    73
1070
     1
1070
    44
1040
1.0
1070
    74
1070
     0
1000
MTEXTEND
  0
MTEXT
  5
5680
330
1A
100
AcDbEntity
  8
SUNPOU
100
AcDbMText
 10
53308.47416841216
 20
42212.57049085211
 30
0.0
 40
3.5
 41
0.0
 71
     7
 72
     5
  1

1001
ACAD
1000
MTEXTBEGIN
1070
    73
1070
     1
1070
    44
1040
1.0
1070
    74
1070
     0
1000
MTEXTEND
  0
MTEXT
  5
5681
330
1A
100
AcDbEntity
  8
SUNPOU
100
AcDbMText
 10
67000.82485118274
 20
51571.63371187345
 30
0.0
 40
10.5
 41
0.0
 71
     9
 72
     5
  1

1001
ACAD
1000
MTEXTBEGIN
1070
    73
1070
     1
1070
    44
1040
1.0
1070
    74
1070
     0
1000
MTEXTEND
  0
MTEXT
  5
5682
330
1A
100
AcDbEntity
  8
SUNPOU
100
AcDbMText
 10
75722.99241710071
 20
58987.46824341094
 30
0.0
 40
10.5
 41
0.0
 71
     9
 72
     5
  1

1001
ACAD
1000
MTEXTBEGIN
1070
    73
1070
     1
1070
    44
1040
1.0
1070
    74
1070
     0
1000
MTEXTEND
  0
MTEXT
  5
5683
330
1A
100
AcDbEntity
  8
SUNPOU
100
AcDbMText
 10
94676.75113443068
 20
76454.04429590299
 30
0.0
 40
10.5
 41
0.0
 71
     9
 72
     5
  1

1001
ACAD
1000
MTEXTBEGIN
1070
    73
1070
     1
1070
    44
1040
1.0
1070
    74
1070
     0
1000
MTEXTEND
  0
MTEXT
  5
5684
330
1A
100
AcDbEntity
  8
SUNPOU
100
AcDbMText
 10
96620.1583811401
 20
74652.99521602498
 30
0.0
 40
3.5
 41
0.0
 71
     9
 72
     5
  1

1001
ACAD
1000
MTEXTBEGIN
1070
    73
1070
     1
1070
    44
1040
1.0
1070
    74
1070
     0
1000
MTEXTEND
  0
MTEXT
  5
5685
330
1A
100
AcDbEntity
  8
SUNPOU
100
AcDbMText
 10
127746.3382137598
 20
117147.9408836823
 30
0.0
 40
10.5
 41
0.0
 71
     9
 72
     5
  1

1001
ACAD
1000
MTEXTBEGIN
1070
    73
1070
     1
1070
    44
1040
1.0
1070
    74
1070
     0
1000
MTEXTEND
  0
MTEXT
  5
5686
330
1A
100
AcDbEntity
  8
SUNPOU
100
AcDbMText
 10
129689.7454604692
 20
115346.8918038043
 30
0.0
 40
3.5
 41
0.0
 71
     9
 72
     5
  1

1001
ACAD
1000
MTEXTBEGIN
1070
    73
1070
     1
1070
    44
1040
1.0
1070
    74
1070
     0
1000
MTEXTEND
  0
MTEXT
  5
5687
330
1A
100
AcDbEntity
  8
SUNPOU
100
AcDbMText
 10
78186.60591955537
 20
62981.10603865738
 30
0.0
 40
10.5
 41
0.0
 71
     9
 72
     5
  1

1001
ACAD
1000
MTEXTBEGIN
1070
    73
1070
     1
1070
    44
1040
1.0
1070
    74
1070
     0
1000
MTEXTEND
  0
MTEXT
  5
5688
330
1A
100
AcDbEntity
  8
SUNPOU
100
AcDbMText
 10
64238.60581917939
 20
43808.70689954517
 30
0.0
 40
3.5
 41
0.0
 71
     7
 72
     5
  1

1001
ACAD
1000
MTEXTBEGIN
1070
    73
1070
     1
1070
    44
1040
1.0
1070
    74
1070
     0
1000
MTEXTEND
  0
MTEXT
  5
5689
330
1A
100
AcDbEntity
  8
SUNPOU
100
AcDbMText
 10
33428.13481137435
 20
32770.04710035564
 30
0.0
 40
10.5
 41
0.0
 71
     9
 72
     5
  1

1001
ACAD
1000
MTEXTBEGIN
1070
    73
1070
     1
1070
    44
1040
1.0
1070
    74
1070
     0
1000
MTEXTEND
  0
MTEXT
  5
568A
330
1A
100
AcDbEntity
  8
SUNPOU
100
AcDbMText
 10
52381.89352870432
 20
50236.62315284769
 30
0.0
 40
10.5
 41
0.0
 71
     9
 72
     5
  1

1001
ACAD
1000
MTEXTBEGIN
1070
    73
1070
     1
1070
    44
1040
1.0
1070
    74
1070
     0
1000
MTEXTEND
  0
MTEXT
  5
568B
330
1A
100
AcDbEntity
  8
SUNPOU
100
AcDbMText
 10
54325.30077541374
 20
48435.57407296968
 30
0.0
 40
3.5
 41
0.0
 71
     9
 72
     5
  1

1001
ACAD
1000
MTEXTBEGIN
1070
    73
1070
     1
1070
    44
1040
1.0
1070
    74
1070
     0
1000
MTEXTEND
  0
MTEXT
  5
568C
330
1A
100
AcDbEntity
  8
SUNPOU
100
AcDbMText
 10
85451.48060803343
 20
90930.51974062703
 30
0.0
 40
10.5
 41
0.0
 71
     9
 72
     5
  1

1001
ACAD
1000
MTEXTBEGIN
1070
    73
1070
     1
1070
    44
1040
1.0
1070
    74
1070
     0
1000
MTEXTEND
  0
MTEXT
  5
568D
330
1A
100
AcDbEntity
  8
SUNPOU
100
AcDbMText
 10
87394.88785474286
 20
89129.47066074901
 30
0.0
 40
3.5
 41
0.0
 71
     9
 72
     5
  1

1001
ACAD
1000
MTEXTBEGIN
1070
    73
1070
     1
1070
    44
1040
1.0
1070
    74
1070
     0
1000
MTEXTEND
  0
MTEXT
  5
568E
330
1A
100
AcDbEntity
  8
SUNPOU
100
AcDbMText
 10
35891.74831382901
 20
36763.68489560208
 30
0.0
 40
10.5
 41
0.0
 71
     9
 72
     5
  1

1001
ACAD
1000
MTEXTBEGIN
1070
    73
1070
     1
1070
    44
1040
1.0
1070
    74
1070
     0
1000
MTEXTEND
  0
MTEXT
  5
568F
330
1A
100
AcDbEntity
  8
SUNPOU
100
AcDbMText
 10
21943.74821345303
 20
17591.28575648986
 30
0.0
 40
3.5
 41
0.0
 71
     7
 72
     5
  1

1001
ACAD
1000
MTEXTBEGIN
1070
    73
1070
     1
1070
    44
1040
1.0
1070
    74
1070
     0
1000
MTEXTEND
  0
LINE
  5
17BE6
330
1A
100
AcDbEntity
  8
ZISSEN1
 48
0.5
100
AcDbLine
 10
-489.4210088984595
 20
1633.370993269048
 30
0.0
 11
-489.4210088984595
 21
1627.870993269048
 31
0.0
  0
LINE
  5
17BE7
330
1A
100
AcDbEntity
  8
ZISSEN1
100
AcDbLine
 10
-489.7210088984597
 20
1570.370993269049
 30
0.0
 11
-489.4210088984595
 21
1570.370993269049
 31
0.0
  0
LINE
  5
17BE8
330
1A
100
AcDbEntity
  8
ZISSEN1
100
AcDbLine
 10
-489.4210088984595
 20
1564.870993269049
 30
0.0
 11
-489.7210088984597
 21
1564.870993269049
 31
0.0
  0
ARC
  5
17BE9
330
1A
100
AcDbEntity
  8
ZISSEN1
100
AcDbCircle
 10
-486.7292100689957
 20
1567.620993269049
 30
0.0
 40
4.06366340092025
100
AcDbArc
 50
137.4114170199003
 51
222.5885829800996
  0
LINE
  5
17BED
330
1A
100
AcDbEntity
  8
ZISSEN1
100
AcDbLine
 10
-489.7210088984588
 20
1633.370993269048
 30
0.0
 11
-489.4210088984586
 21
1633.370993269048
 31
0.0
  0
LINE
  5
17BEE
330
1A
100
AcDbEntity
  8
ZISSEN1
100
AcDbLine
 10
-489.4210088984586
 20
1627.870993269048
 30
0.0
 11
-489.7210088984588
 21
1627.870993269048
 31
0.0
  0
ARC
  5
17BEF
330
1A
100
AcDbEntity
  8
ZISSEN1
100
AcDbCircle
 10
-486.7292100689948
 20
1630.620993269047
 30
0.0
 40
4.06366340092025
100
AcDbArc
 50
137.4114170199003
 51
222.5885829800996
  0
CIRCLE
  5
17BF8
330
1A
100
AcDbEntity
  8
ZISSEN1
 62
     0
100
AcDbCircle
 10
-493.4210088984593
 20
1623.920993269049
 30
0.0
 40
1.7
  0
CIRCLE
  5
17BFA
330
1A
100
AcDbEntity
  8
ZISSEN1
 62
     0
100
AcDbCircle
 10
-493.4210088984593
 20
1623.920993269049
 30
0.0
 40
1.75
  0
LINE
  5
17BFB
330
1A
100
AcDbEntity
  8
ZISSEN1
 62
     0
100
AcDbLine
 10
-497.0210088984599
 20
1627.020993269049
 30
0.0
 11
-497.0210088984599
 21
1620.820993269048
 31
0.0
  0
LINE
  5
17BFD
330
1A
100
AcDbEntity
  8
ZISSEN1
 62
     0
100
AcDbLine
 10
-497.0010088984595
 20
1626.620941269048
 30
0.0
 11
-497.0010088984595
 21
1623.920993269049
 31
0.0
  0
LINE
  5
17C03
330
1A
100
AcDbEntity
  8
ZISSEN1
 62
     0
100
AcDbLine
 10
-496.1210088984594
 20
1620.240993269048
 30
0.0
 11
-490.7189948984592
 21
1620.240993269048
 31
0.0
  0
ARC
  5
17C04
330
1A
100
AcDbEntity
  8
ZISSEN1
 62
     0
100
AcDbCircle
 10
-490.5210088984596
 20
1620.570993269048
 30
0.0
 40
0.2
100
AcDbArc
 50
90.00000000010421
 51
180.000002414787
  0
LINE
  5
17C05
330
1A
100
AcDbEntity
  8
ZISSEN1
 62
     0
100
AcDbLine
 10
-489.4210088984595
 20
1620.620991269048
 30
0.0
 11
-489.4210088984595
 21
1621.030991269048
 31
0.0
  0
LINE
  5
17C06
330
1A
100
AcDbEntity
  8
ZISSEN1
 62
     0
100
AcDbLine
 10
-489.4210088984595
 20
1620.620993269049
 30
0.0
 11
-489.4210088984595
 21
1621.030991269048
 31
0.0
  0
LINE
  5
17C07
330
1A
100
AcDbEntity
  8
ZISSEN1
 62
     0
100
AcDbLine
 10
-490.0710088984592
 20
1621.220993269048
 30
0.0
 11
-490.0710088984592
 21
1620.620993269049
 31
0.0
  0
LINE
  5
17C08
330
1A
100
AcDbEntity
  8
ZISSEN1
 62
     0
100
AcDbLine
 10
-490.1710088984596
 20
1620.920991269048
 30
0.0
 11
-490.1710088984596
 21
1620.620993269049
 31
0.0
  0
LINE
  5
17C09
330
1A
100
AcDbEntity
  8
ZISSEN1
 62
     0
100
AcDbLine
 10
-490.7146588984592
 20
1620.620993269049
 30
0.0
 11
-489.4210088984595
 21
1620.620993269049
 31
0.0
  0
LINE
  5
17C0A
330
1A
100
AcDbEntity
  8
ZISSEN1
 62
     0
100
AcDbLine
 10
-490.7210088984597
 20
1620.240993269048
 30
0.0
 11
-490.7210088984597
 21
1620.570993269048
 31
0.0
  0
LINE
  5
17C10
330
1A
100
AcDbEntity
  8
ZISSEN1
 62
     0
100
AcDbLine
 10
-489.4210088984595
 20
1621.030991269048
 30
0.0
 11
-489.8210088984592
 21
1621.030991269048
 31
0.0
  0
LINE
  5
17C11
330
1A
100
AcDbEntity
  8
ZISSEN1
 62
     0
100
AcDbLine
 10
-489.4210088984595
 20
1621.130995269048
 30
0.0
 11
-489.8210088984592
 21
1621.130995269048
 31
0.0
  0
LINE
  5
17C15
330
1A
100
AcDbEntity
  8
ZISSEN1
 62
     0
100
AcDbLine
 10
-489.4210088984595
 20
1621.730991269049
 30
0.0
 11
-489.4210088984595
 21
1622.300993269048
 31
0.0
  0
LINE
  5
17C17
330
1A
100
AcDbEntity
  8
ZISSEN1
 62
     0
100
AcDbLine
 10
-489.4210088984595
 20
1621.220993269048
 30
0.0
 11
-489.4210088984595
 21
1622.220993269047
 31
0.0
  0
LINE
  5
17C18
330
1A
100
AcDbEntity
  8
ZISSEN1
 62
     0
100
AcDbLine
 10
-489.5710088984592
 20
1621.130995269048
 30
0.0
 11
-489.5710088984592
 21
1621.030991269048
 31
0.0
  0
LINE
  5
17C19
330
1A
100
AcDbEntity
  8
ZISSEN1
 62
     0
100
AcDbLine
 10
-489.4210088984595
 20
1621.030991269048
 30
0.0
 11
-489.6210088984594
 21
1621.030991269048
 31
0.0
  0
LINE
  5
17C1A
330
1A
100
AcDbEntity
  8
ZISSEN1
 62
     0
100
AcDbLine
 10
-489.4210088984595
 20
1621.130995269048
 30
0.0
 11
-489.4210088984595
 21
1621.220993269048
 31
0.0
  0
LINE
  5
17C21
330
1A
100
AcDbEntity
  8
ZISSEN1
 62
     0
100
AcDbLine
 10
-489.8210088984592
 20
1621.220993269048
 30
0.0
 11
-489.8210088984592
 21
1621.030991269048
 31
0.0
  0
LINE
  5
17C22
330
1A
100
AcDbEntity
  8
ZISSEN1
 62
     0
100
AcDbLine
 10
-490.3210088984592
 20
1620.770993269049
 30
0.0
 11
-490.5210088984599
 21
1620.770993269049
 31
0.0
  0
LINE
  5
17C23
330
1A
100
AcDbEntity
  8
ZISSEN1
 62
     0
100
AcDbLine
 10
-490.1210088984594
 20
1620.970993269048
 30
0.0
 11
-490.1210088984594
 21
1621.214311269048
 31
0.0
  0
LINE
  5
17C24
330
1A
100
AcDbEntity
  8
ZISSEN1
 62
     0
100
AcDbLine
 10
-490.3210088984592
 20
1620.770993269049
 30
0.0
 11
-490.1210088984594
 21
1620.970993269048
 31
0.0
  0
ARC
  5
17C3F
330
1A
100
AcDbEntity
  8
ZISSEN1
 62
     0
100
AcDbCircle
 10
-496.3210088984589
 20
1620.570993269048
 30
0.0
 40
0.2
100
AcDbArc
 50
359.9999975851869
 51
90.00000000010421
  0
ARC
  5
17C40
330
1A
100
AcDbEntity
  8
ZISSEN1
 62
     0
100
AcDbCircle
 10
-496.8210088984589
 20
1620.820993269048
 30
0.0
 40
0.2
100
AcDbArc
 50
179.9999950217034
 51
269.999983835205
  0
LINE
  5
17C41
330
1A
100
AcDbEntity
  8
ZISSEN1
 62
     0
100
AcDbLine
 10
-496.6710088984596
 20
1620.920991269048
 30
0.0
 11
-496.6710088984596
 21
1620.620993269049
 31
0.0
  0
LINE
  5
17C42
330
1A
100
AcDbEntity
  8
ZISSEN1
 62
     0
100
AcDbLine
 10
-496.7710088984599
 20
1621.220993269048
 30
0.0
 11
-496.7710088984599
 21
1620.620993269049
 31
0.0
  0
LINE
  5
17C43
330
1A
100
AcDbEntity
  8
ZISSEN1
 62
     0
100
AcDbLine
 10
-494.9210088984596
 20
1620.220993269048
 30
0.0
 11
-491.9210088984596
 21
1620.220993269048
 31
0.0
  0
LINE
  5
17C44
330
1A
100
AcDbEntity
  8
ZISSEN1
 62
     0
100
AcDbLine
 10
-491.9210088984596
 20
1620.240993269048
 30
0.0
 11
-491.9210088984596
 21
1620.220993269048
 31
0.0
  0
LINE
  5
17C45
330
1A
100
AcDbEntity
  8
ZISSEN1
 62
     0
100
AcDbLine
 10
-496.8210088984592
 20
1620.620993269049
 30
0.0
 11
-496.1273608984597
 21
1620.620993269049
 31
0.0
  0
LINE
  5
17C46
330
1A
100
AcDbEntity
  8
ZISSEN1
 62
     0
100
AcDbLine
 10
-494.9210088984596
 20
1620.220993269048
 30
0.0
 11
-494.9210088984596
 21
1620.240993269048
 31
0.0
  0
LINE
  5
17C47
330
1A
100
AcDbEntity
  8
ZISSEN1
 62
     0
100
AcDbLine
 10
-496.1210088984594
 20
1620.240993269048
 30
0.0
 11
-496.1210088984594
 21
1620.570993269048
 31
0.0
  0
LINE
  5
17C4A
330
1A
100
AcDbEntity
  8
ZISSEN1
 62
     0
100
AcDbLine
 10
-492.483588602337
 20
1624.614274980539
 30
0.0
 11
-492.808716489068
 21
1625.399203134193
 31
0.0
  0
LINE
  5
17C4B
330
1A
100
AcDbEntity
  8
ZISSEN1
 62
     0
100
AcDbLine
 10
-492.8087183368274
 20
1625.399203899561
 30
0.0
 11
-493.5915429241072
 21
1625.07494733855
 31
0.0
  0
LINE
  5
17C4C
330
1A
100
AcDbEntity
  8
ZISSEN1
 62
     0
100
AcDbLine
 10
-493.5259652136487
 20
1624.451544088388
 30
0.0
 11
-493.2005794408783
 21
1625.237094834016
 31
0.0
  0
LINE
  5
17C4D
330
1A
100
AcDbEntity
  8
ZISSEN1
 62
     0
100
AcDbLine
 10
-492.9716374941421
 20
1624.221934028969
 30
0.0
 11
-492.6462517213717
 21
1625.007484774596
 31
0.0
  0
LINE
  5
17C4E
330
1A
100
AcDbEntity
  8
ZISSEN1
 62
     0
100
AcDbLine
 10
-493.7219496583806
 20
1624.370364673367
 30
0.0
 11
-494.3206642461477
 21
1624.618360375611
 31
0.0
  0
LINE
  5
17C4F
330
1A
100
AcDbEntity
  8
ZISSEN1
 62
     0
100
AcDbLine
 10
-493.9515597177992
 20
1623.81603695386
 30
0.0
 11
-494.5549990254953
 21
1624.065989699176
 31
0.0
  0
LINE
  5
17C50
330
1A
100
AcDbEntity
  8
ZISSEN1
 62
     0
100
AcDbLine
 10
-494.552315616193
 20
1624.064215770623
 30
0.0
 11
-494.3233124926978
 21
1624.617078217192
 31
0.0
  0
LINE
  5
17C51
330
1A
100
AcDbEntity
  8
ZISSEN1
 62
     0
100
AcDbLine
 10
-493.1200681385393
 20
1623.471621864732
 30
0.0
 11
-493.3160525832704
 21
1623.390442449709
 31
0.0
  0
LINE
  5
17C52
330
1A
100
AcDbEntity
  8
ZISSEN1
 62
     0
100
AcDbLine
 10
-493.8703803027778
 20
1623.620052509128
 30
0.0
 11
-493.9515597177992
 21
1623.81603695386
 31
0.0
  0
LINE
  5
17C53
330
1A
100
AcDbEntity
  8
ZISSEN1
 62
     0
100
AcDbLine
 10
-494.2339287981581
 20
1622.742368801002
 30
0.0
 11
-493.8703803027778
 21
1623.620052509128
 31
0.0
  0
LINE
  5
17C54
330
1A
100
AcDbEntity
  8
ZISSEN1
 62
     0
100
AcDbLine
 10
-493.6796010786506
 20
1622.512758741583
 30
0.0
 11
-493.3160525832704
 21
1623.390442449709
 31
0.0
  0
LINE
  5
17C55
330
1A
100
AcDbEntity
  8
ZISSEN1
 62
     0
100
AcDbLine
 10
-493.6796018440177
 20
1622.512756893824
 30
0.0
 11
-494.2339295635242
 21
1622.742366953244
 31
0.0
  0
LINE
  5
17C56
330
1A
100
AcDbEntity
  8
ZISSEN1
 62
     0
100
AcDbLine
 10
-492.4887039889276
 20
1624.617212131545
 30
0.0
 11
-492.7627728522461
 21
1624.730735171757
 31
0.0
  0
LINE
  5
17C57
330
1A
100
AcDbEntity
  8
ZISSEN1
 62
     0
100
AcDbLine
 10
-492.8904580791209
 20
1624.025949584238
 30
0.0
 11
-492.9716374941421
 21
1624.221934028969
 31
0.0
  0
LINE
  5
17C58
330
1A
100
AcDbEntity
  8
ZISSEN1
 62
     0
100
AcDbLine
 10
-493.3156352988139
 20
1624.959738295252
 30
0.0
 11
-493.5944288820633
 21
1625.075218378537
 31
0.0
  0
LINE
  5
17C59
330
1A
100
AcDbEntity
  8
ZISSEN1
 62
     0
100
AcDbLine
 10
-493.7219496583806
 20
1624.370364673367
 30
0.0
 11
-493.5259652136487
 21
1624.451544088388
 31
0.0
  0
LINE
  5
17C5A
330
1A
100
AcDbEntity
  8
ZISSEN1
 62
     0
100
AcDbLine
 10
-492.2887759902955
 20
1623.77672470281
 30
0.0
 11
-492.8904580791209
 21
1624.025949584238
 31
0.0
  0
LINE
  5
17C5B
330
1A
100
AcDbEntity
  8
ZISSEN1
 62
     0
100
AcDbLine
 10
-492.518386049714
 20
1623.222396983303
 30
0.0
 11
-493.1200681385393
 21
1623.471621864732
 31
0.0
  0
LINE
  5
17C5C
330
1A
100
AcDbEntity
  8
ZISSEN1
 62
     0
100
AcDbLine
 10
-492.5197806446681
 20
1623.222312219421
 30
0.0
 11
-492.2907775211728
 21
1623.775174665989
 31
0.0
  0
LINE
  5
17C5E
330
1A
100
AcDbEntity
  8
ZISSEN1
 62
     0
100
AcDbLine
 10
-497.0010088984595
 20
1621.221045269049
 30
0.0
 11
-497.0010088984595
 21
1623.920993269049
 31
0.0
  0
LINE
  5
17C5F
330
1A
100
AcDbEntity
  8
ZISSEN1
 62
     0
100
AcDbLine
 10
-496.52100889846
 20
1620.770993269049
 30
0.0
 11
-496.3210088984592
 21
1620.770993269049
 31
0.0
  0
LINE
  5
17C60
330
1A
100
AcDbEntity
  8
ZISSEN1
 62
     0
100
AcDbLine
 10
-497.0010088984595
 20
1621.220993269048
 30
0.0
 11
-496.7180208984595
 21
1621.220993269048
 31
0.0
  0
LINE
  5
17C61
330
1A
100
AcDbEntity
  8
ZISSEN1
 62
     0
100
AcDbLine
 10
-496.7210088984598
 20
1620.970993269048
 30
0.0
 11
-496.7210088984598
 21
1621.214311269048
 31
0.0
  0
LINE
  5
17C62
330
1A
100
AcDbEntity
  8
ZISSEN1
 62
     0
100
AcDbLine
 10
-496.52100889846
 20
1620.770991269048
 30
0.0
 11
-496.7210108984595
 21
1620.970993269048
 31
0.0
  0
LINE
  5
17C64
330
1A
100
AcDbEntity
  8
ZISSEN1
 62
     0
100
AcDbLine
 10
-496.1210088984594
 20
1627.600993269049
 30
0.0
 11
-490.7189948984592
 21
1627.600993269049
 31
0.0
  0
LINE
  5
17C66
330
1A
100
AcDbEntity
  8
ZISSEN1
 62
     0
100
AcDbLine
 10
-489.4210088984595
 20
1626.810993269048
 30
0.0
 11
-489.8210088984592
 21
1626.810993269048
 31
0.0
  0
LINE
  5
17C68
330
1A
100
AcDbEntity
  8
ZISSEN1
 62
     0
100
AcDbLine
 10
-489.4210088984595
 20
1626.710993269048
 30
0.0
 11
-489.8210088984592
 21
1626.710993269048
 31
0.0
  0
LINE
  5
17C6A
330
1A
100
AcDbEntity
  8
ZISSEN1
 62
     0
100
AcDbLine
 10
-490.7146588984592
 20
1627.220993269047
 30
0.0
 11
-489.4210088984595
 21
1627.220993269047
 31
0.0
  0
LINE
  5
17C6B
330
1A
100
AcDbEntity
  8
ZISSEN1
 62
     0
100
AcDbLine
 10
-490.1184568984595
 20
1626.620993269049
 30
0.0
 11
-489.4210088984595
 21
1626.620993269049
 31
0.0
  0
LINE
  5
17C6D
330
1A
100
AcDbEntity
  8
ZISSEN1
 62
     0
100
AcDbLine
 10
-489.4210088984595
 20
1625.620993269049
 30
0.0
 11
-489.4210088984595
 21
1626.620993269049
 31
0.0
  0
LINE
  5
17C70
330
1A
100
AcDbEntity
  8
ZISSEN1
 62
     0
100
AcDbLine
 10
-489.4210088984595
 20
1626.110993269049
 30
0.0
 11
-489.4210088984595
 21
1625.540991269049
 31
0.0
  0
LINE
  5
17C72
330
1A
100
AcDbEntity
  8
ZISSEN1
 62
     0
100
AcDbLine
 10
-489.5710088984592
 20
1626.810993269048
 30
0.0
 11
-489.5710088984592
 21
1626.710993269048
 31
0.0
  0
LINE
  5
17C73
330
1A
100
AcDbEntity
  8
ZISSEN1
 62
     0
100
AcDbLine
 10
-489.4210088984595
 20
1627.220993269047
 30
0.0
 11
-489.4210088984595
 21
1626.810993269048
 31
0.0
  0
LINE
  5
17C74
330
1A
100
AcDbEntity
  8
ZISSEN1
 62
     0
100
AcDbLine
 10
-489.4210088984595
 20
1627.220993269047
 30
0.0
 11
-489.4210088984595
 21
1626.810993269048
 31
0.0
  0
LINE
  5
17C75
330
1A
100
AcDbEntity
  8
ZISSEN1
 62
     0
100
AcDbLine
 10
-489.4210088984595
 20
1626.810993269048
 30
0.0
 11
-489.6210088984594
 21
1626.810993269048
 31
0.0
  0
LINE
  5
17C76
330
1A
100
AcDbEntity
  8
ZISSEN1
 62
     0
100
AcDbLine
 10
-489.4210088984595
 20
1626.710993269048
 30
0.0
 11
-489.4210088984595
 21
1626.620993269049
 31
0.0
  0
ARC
  5
17C78
330
1A
100
AcDbEntity
  8
ZISSEN1
 62
     0
100
AcDbCircle
 10
-490.5210088984596
 20
1627.270993269049
 30
0.0
 40
0.2
100
AcDbArc
 50
180.000002414787
 51
270.0000050086768
  0
LINE
  5
17C79
330
1A
100
AcDbEntity
  8
ZISSEN1
 62
     0
100
AcDbLine
 10
-490.1710088984596
 20
1627.220993269047
 30
0.0
 11
-490.1710088984596
 21
1626.920991269048
 31
0.0
  0
LINE
  5
17C7A
330
1A
100
AcDbEntity
  8
ZISSEN1
 62
     0
100
AcDbLine
 10
-490.0710088984592
 20
1627.220993269047
 30
0.0
 11
-490.0710088984592
 21
1626.620993269049
 31
0.0
  0
LINE
  5
17C7B
330
1A
100
AcDbEntity
  8
ZISSEN1
 62
     0
100
AcDbLine
 10
-489.8210088984592
 20
1626.810993269048
 30
0.0
 11
-489.8210088984592
 21
1626.620993269049
 31
0.0
  0
LINE
  5
17C7C
330
1A
100
AcDbEntity
  8
ZISSEN1
 62
     0
100
AcDbLine
 10
-490.7210088984597
 20
1627.600993269049
 30
0.0
 11
-490.7210088984597
 21
1627.270993269049
 31
0.0
  0
LINE
  5
17C7D
330
1A
100
AcDbEntity
  8
ZISSEN1
 62
     0
100
AcDbLine
 10
-490.3210088984592
 20
1627.070993269048
 30
0.0
 11
-490.5210088984599
 21
1627.070993269048
 31
0.0
  0
LINE
  5
17C7E
330
1A
100
AcDbEntity
  8
ZISSEN1
 62
     0
100
AcDbLine
 10
-490.1184568984595
 20
1626.620993269049
 30
0.0
 11
-489.9184688984592
 21
1626.620993269049
 31
0.0
  0
LINE
  5
17C7F
330
1A
100
AcDbEntity
  8
ZISSEN1
 62
     0
100
AcDbLine
 10
-490.1210088984594
 20
1626.870993269049
 30
0.0
 11
-490.1210088984594
 21
1626.620533269048
 31
0.0
  0
LINE
  5
17C80
330
1A
100
AcDbEntity
  8
ZISSEN1
 62
     0
100
AcDbLine
 10
-490.1210088984594
 20
1626.870991269049
 30
0.0
 11
-490.3210088984592
 21
1627.070991269049
 31
0.0
  0
LINE
  5
17C82
330
1A
100
AcDbEntity
  8
ZISSEN1
 62
     0
100
AcDbLine
 10
-494.9210088984596
 20
1627.620993269049
 30
0.0
 11
-491.9210088984596
 21
1627.620993269049
 31
0.0
  0
LINE
  5
17C84
330
1A
100
AcDbEntity
  8
ZISSEN1
 62
     0
100
AcDbLine
 10
-491.9210088984596
 20
1627.620993269049
 30
0.0
 11
-491.9210088984596
 21
1627.600993269049
 31
0.0
  0
LINE
  5
17C85
330
1A
100
AcDbEntity
  8
ZISSEN1
 62
     0
100
AcDbLine
 10
-496.8210088984592
 20
1627.220993269047
 30
0.0
 11
-496.1273608984597
 21
1627.220993269047
 31
0.0
  0
LINE
  5
17C86
330
1A
100
AcDbEntity
  8
ZISSEN1
 62
     0
100
AcDbLine
 10
-496.52100889846
 20
1627.070993269048
 30
0.0
 11
-496.3210088984592
 21
1627.070993269048
 31
0.0
  0
ARC
  5
17C87
330
1A
100
AcDbEntity
  8
ZISSEN1
 62
     0
100
AcDbCircle
 10
-496.3210088984589
 20
1627.270993269049
 30
0.0
 40
0.2
100
AcDbArc
 50
269.9999949911147
 51
359.9999975851869
  0
LINE
  5
17C88
330
1A
100
AcDbEntity
  8
ZISSEN1
 62
     0
100
AcDbLine
 10
-494.9210088984596
 20
1627.620993269049
 30
0.0
 11
-494.9210088984596
 21
1627.600993269049
 31
0.0
  0
LINE
  5
17C89
330
1A
100
AcDbEntity
  8
ZISSEN1
 62
     0
100
AcDbLine
 10
-496.1210088984594
 20
1627.600993269049
 30
0.0
 11
-496.1210088984594
 21
1627.270993269049
 31
0.0
  0
ARC
  5
17C8A
330
1A
100
AcDbEntity
  8
ZISSEN1
 62
     0
100
AcDbCircle
 10
-496.8210088984589
 20
1627.020993269049
 30
0.0
 40
0.2
100
AcDbArc
 50
90.00001616489914
 51
180.0000049782966
  0
LINE
  5
17C8B
330
1A
100
AcDbEntity
  8
ZISSEN1
 62
     0
100
AcDbLine
 10
-496.6710088984596
 20
1627.220993269047
 30
0.0
 11
-496.6710088984596
 21
1626.920993269048
 31
0.0
  0
LINE
  5
17C8C
330
1A
100
AcDbEntity
  8
ZISSEN1
 62
     0
100
AcDbLine
 10
-496.7710088984599
 20
1627.220993269047
 30
0.0
 11
-496.7710088984599
 21
1626.620993269049
 31
0.0
  0
LINE
  5
17C8D
330
1A
100
AcDbEntity
  8
ZISSEN1
 62
     0
100
AcDbLine
 10
-497.0010088984595
 20
1626.620993269049
 30
0.0
 11
-496.7180208984595
 21
1626.620993269049
 31
0.0
  0
LINE
  5
17C8E
330
1A
100
AcDbEntity
  8
ZISSEN1
 62
     0
100
AcDbLine
 10
-496.7210088984598
 20
1626.870993269049
 30
0.0
 11
-496.7210088984598
 21
1626.627265269048
 31
0.0
  0
LINE
  5
17C8F
330
1A
100
AcDbEntity
  8
ZISSEN1
 62
     0
100
AcDbLine
 10
-496.7210088984598
 20
1626.870993269049
 30
0.0
 11
-496.52100889846
 21
1627.070993269048
 31
0.0
  0
LINE
  5
17C90
330
1A
100
AcDbEntity
  8
ZISSEN1
100
AcDbLine
 10
-500.9210088984587
 20
1620.020993269047
 30
0.0
 11
-499.9210088984587
 21
1620.020993269047
 31
0.0
  0
LINE
  5
17C91
330
1A
100
AcDbEntity
  8
ZISSEN1
100
AcDbLine
 10
-499.9210088984587
 20
1620.020993269047
 30
0.0
 11
-499.9210088984587
 21
1620.820993269048
 31
0.0
  0
LINE
  5
17C92
330
1A
100
AcDbEntity
  8
ZISSEN1
100
AcDbLine
 10
-500.9210088984587
 20
1627.620993269047
 30
0.0
 11
-500.9210088984587
 21
1626.120993269047
 31
0.0
  0
LINE
  5
17C94
330
1A
100
AcDbEntity
  8
ZISSEN1
100
AcDbLine
 10
-500.9210088984587
 20
1627.620993269047
 30
0.0
 11
-500.9210088984587
 21
1620.820993269048
 31
0.0
  0
LINE
  5
17C96
330
1A
100
AcDbEntity
  8
ZISSEN1
100
AcDbLine
 10
-500.9210088984587
 20
1627.620993269047
 30
0.0
 11
-500.9210088984587
 21
1620.020993269047
 31
0.0
  0
LINE
  5
17C97
330
1A
100
AcDbEntity
  8
ZISSEN1
100
AcDbLine
 10
-489.4210088984595
 20
1627.620993269047
 30
0.0
 11
-500.9210088984587
 21
1627.620993269047
 31
0.0
  0
LINE
  5
17C98
330
1A
100
AcDbEntity
  8
ZISSEN1
100
AcDbLine
 10
-500.9210088984587
 20
1620.820993269048
 30
0.0
 11
-497.0210088984599
 21
1620.820993269048
 31
0.0
  0
LINE
  5
17C99
330
1A
100
AcDbEntity
  8
ZISSEN1
 62
     0
100
AcDbLine
 10
-490.1184568984595
 20
1621.220993269048
 30
0.0
 11
-489.4210088984595
 21
1621.220993269048
 31
0.0
  0
LINE
  5
17C9A
330
1A
100
AcDbEntity
  8
ZISSEN1
 62
     0
100
AcDbLine
 10
-490.1184568984595
 20
1621.220993269048
 30
0.0
 11
-489.9184688984592
 21
1621.220993269048
 31
0.0
  0
LINE
  5
17C9B
330
1A
100
AcDbEntity
  8
ZISSEN1
 48
0.5
100
AcDbLine
 10
-497.0210088984599
 20
1620.820993269048
 30
0.0
 11
-489.4210088984595
 21
1620.820993269048
 31
0.0
  0
LINE
  5
17CF1
330
1A
100
AcDbEntity
  8
ZISSEN1
 48
0.5
100
AcDbLine
 10
-489.4210088984595
 20
1570.370993269049
 30
0.0
 11
-489.4210088984595
 21
1564.870993269049
 31
0.0
  0
LINE
  5
17CF2
330
1A
100
AcDbEntity
  8
ZISSEN1
 48
0.5
100
AcDbLine
 10
-484.2210088984589
 20
1633.620993269049
 30
0.0
 11
-484.2210088984589
 21
1564.620993269049
 31
0.0
  0
LINE
  5
17CF3
330
1A
100
AcDbEntity
  8
ZISSEN1
 48
0.5
100
AcDbLine
 10
-484.2210088984589
 20
1564.620993269049
 30
0.0
 11
-484.5210088984591
 21
1564.620993269049
 31
0.0
  0
LINE
  5
17CF4
330
1A
100
AcDbEntity
  8
ZISSEN1
 48
0.5
100
AcDbLine
 10
-484.5210088984591
 20
1564.620993269049
 30
0.0
 11
-484.5210088984591
 21
1633.620993269049
 31
0.0
  0
LINE
  5
17CF5
330
1A
100
AcDbEntity
  8
ZISSEN1
 48
0.5
100
AcDbLine
 10
-484.5210088984591
 20
1633.620993269049
 30
0.0
 11
-484.2210088984589
 21
1633.620993269049
 31
0.0
  0
LINE
  5
17D0A
330
1A
100
AcDbEntity
  8
ZISSEN1
 48
0.5
100
AcDbLine
 10
-487.521008898459
 20
1633.620993269049
 30
0.0
 11
-487.521008898459
 21
1564.620993269049
 31
0.0
  0
LINE
  5
17D0B
330
1A
100
AcDbEntity
  8
ZISSEN1
 48
0.5
100
AcDbLine
 10
-487.521008898459
 20
1564.620993269049
 30
0.0
 11
-487.8210088984592
 21
1564.620993269049
 31
0.0
  0
LINE
  5
17D0C
330
1A
100
AcDbEntity
  8
ZISSEN1
 48
0.5
100
AcDbLine
 10
-487.8210088984592
 20
1564.620993269049
 30
0.0
 11
-487.8210088984592
 21
1633.620993269049
 31
0.0
  0
LINE
  5
17D0D
330
1A
100
AcDbEntity
  8
ZISSEN1
 48
0.5
100
AcDbLine
 10
-487.8210088984592
 20
1633.620993269049
 30
0.0
 11
-487.521008898459
 21
1633.620993269049
 31
0.0
  0
LINE
  5
17D16
330
1A
100
AcDbEntity
  8
ZISSEN1
 48
0.5
100
AcDbLine
 10
-487.8210088984592
 20
1633.620993269049
 30
0.0
 11
-489.4210088984595
 21
1633.620993269049
 31
0.0
  0
LINE
  5
17D17
330
1A
100
AcDbEntity
  8
ZISSEN1
 48
0.5
100
AcDbLine
 10
-489.4210088984595
 20
1633.620993269049
 30
0.0
 11
-489.4210088984595
 21
1564.620993269049
 31
0.0
  0
LINE
  5
17D18
330
1A
100
AcDbEntity
  8
ZISSEN1
 48
0.5
100
AcDbLine
 10
-489.4210088984595
 20
1564.620993269049
 30
0.0
 11
-487.8210088984592
 21
1564.620993269049
 31
0.0
  0
LINE
  5
17D19
330
1A
100
AcDbEntity
  8
ZISSEN1
 48
0.5
100
AcDbLine
 10
-487.8210088984592
 20
1564.620993269049
 30
0.0
 11
-487.8210088984592
 21
1633.620993269049
 31
0.0
  0
LINE
  5
17D1E
330
1A
100
AcDbEntity
  8
ZISSEN1
 48
0.5
100
AcDbLine
 10
-489.8210088984592
 20
1634.120993269049
 30
0.0
 11
-494.9710088984589
 21
1634.120993269049
 31
0.0
  0
LINE
  5
17D1F
330
1A
100
AcDbEntity
  8
ZISSEN1
 48
0.5
100
AcDbLine
 10
-494.9710088984589
 20
1634.120993269049
 30
0.0
 11
-494.9710088984589
 21
1630.620993269049
 31
0.0
  0
LINE
  5
17D20
330
1A
100
AcDbEntity
  8
ZISSEN1
 48
0.5
100
AcDbLine
 10
-498.4710088984589
 20
1630.620993269049
 30
0.0
 11
-498.4710088984589
 21
1634.120993269049
 31
0.0
  0
LINE
  5
17D21
330
1A
100
AcDbEntity
  8
ZISSEN1
 48
0.5
100
AcDbLine
 10
-498.4710088984589
 20
1634.120993269049
 30
0.0
 11
-508.2210088984588
 21
1634.120993269049
 31
0.0
  0
LINE
  5
17D22
330
1A
100
AcDbEntity
  8
ZISSEN1
 48
0.5
100
AcDbLine
 10
-508.2210088984588
 20
1634.120993269049
 30
0.0
 11
-509.2210088984589
 21
1633.120993269049
 31
0.0
  0
LINE
  5
17D23
330
1A
100
AcDbEntity
  8
ZISSEN1
 48
0.5
100
AcDbLine
 10
-509.2210088984589
 20
1633.120993269049
 30
0.0
 11
-509.2210088984589
 21
1565.120993269049
 31
0.0
  0
LINE
  5
17D24
330
1A
100
AcDbEntity
  8
ZISSEN1
 48
0.5
100
AcDbLine
 10
-509.2210088984589
 20
1565.120993269049
 30
0.0
 11
-508.2210088984588
 21
1564.120993269049
 31
0.0
  0
LINE
  5
17D25
330
1A
100
AcDbEntity
  8
ZISSEN1
 48
0.5
100
AcDbLine
 10
-508.2210088984588
 20
1564.120993269049
 30
0.0
 11
-498.4710088984589
 21
1564.120993269049
 31
0.0
  0
LINE
  5
17D26
330
1A
100
AcDbEntity
  8
ZISSEN1
 48
0.5
100
AcDbLine
 10
-498.4710088984589
 20
1564.120993269049
 30
0.0
 11
-498.4710088984589
 21
1567.620993269049
 31
0.0
  0
LINE
  5
17D27
330
1A
100
AcDbEntity
  8
ZISSEN1
 48
0.5
100
AcDbLine
 10
-494.9710088984589
 20
1567.620993269049
 30
0.0
 11
-494.9710088984589
 21
1564.120993269049
 31
0.0
  0
LINE
  5
17D28
330
1A
100
AcDbEntity
  8
ZISSEN1
 48
0.5
100
AcDbLine
 10
-481.2210088984588
 20
1634.120993269049
 30
0.0
 11
-484.2210088984589
 21
1634.120993269049
 31
0.0
  0
LINE
  5
17D29
330
1A
100
AcDbEntity
  8
ZISSEN1
 48
0.5
100
AcDbLine
 10
-484.2210088984589
 20
1633.120993269049
 30
0.0
 11
-484.2210088984589
 21
1565.120993269049
 31
0.0
  0
LINE
  5
17D2A
330
1A
100
AcDbEntity
  8
ZISSEN1
 48
0.5
100
AcDbLine
 10
-484.2210088984589
 20
1564.120993269049
 30
0.0
 11
-481.2210088984588
 21
1564.120993269049
 31
0.0
  0
LINE
  5
17D2B
330
1A
100
AcDbEntity
  8
ZISSEN1
 48
0.5
100
AcDbLine
 10
-481.2210088984588
 20
1564.120993269049
 30
0.0
 11
-481.2210088984588
 21
1634.120993269049
 31
0.0
  0
ARC
  5
17D2C
330
1A
100
AcDbEntity
  8
ZISSEN1
 48
0.5
100
AcDbCircle
 10
-496.7210088984585
 20
1630.620993269049
 30
0.0
 40
1.75
100
AcDbArc
 50
180.0
 51
0.0
  0
ARC
  5
17D2D
330
1A
100
AcDbEntity
  8
ZISSEN1
 48
0.5
100
AcDbCircle
 10
-496.7210088984585
 20
1567.620993269049
 30
0.0
 40
1.75
100
AcDbArc
 50
0.0
 51
180.0
  0
LINE
  5
17D2E
330
1A
100
AcDbEntity
  8
ZISSEN1
 48
0.5
100
AcDbLine
 10
-485.2210088984588
 20
1634.120993269049
 30
0.0
 11
-487.8210088984592
 21
1634.120993269049
 31
0.0
  0
LINE
  5
17D2F
330
1A
100
AcDbEntity
  8
ZISSEN1
 48
0.5
100
AcDbLine
 10
-494.9710088984589
 20
1564.120993269049
 30
0.0
 11
-489.8210088984592
 21
1564.120993269049
 31
0.0
  0
LINE
  5
17D32
330
1A
100
AcDbEntity
  8
ZISSEN1
 48
0.5
100
AcDbLine
 10
-485.2210088984588
 20
1564.120993269049
 30
0.0
 11
-487.8210088984592
 21
1564.120993269049
 31
0.0
  0
LINE
  5
17D33
330
1A
100
AcDbEntity
  8
ZISSEN1
 48
0.5
100
AcDbLine
 10
-487.8210088984592
 20
1634.120993269049
 30
0.0
 11
-487.8210088984592
 21
1633.620993269049
 31
0.0
  0
LINE
  5
17D35
330
1A
100
AcDbEntity
  8
ZISSEN1
 48
0.5
100
AcDbLine
 10
-487.8210088984592
 20
1564.620993269049
 30
0.0
 11
-487.8210088984592
 21
1564.120993269049
 31
0.0
  0
LINE
  5
17D36
330
1A
100
AcDbEntity
  8
ZISSEN1
 48
0.5
100
AcDbLine
 10
-489.8210088984592
 20
1564.98392288051
 30
0.0
 11
-489.8210088984592
 21
1564.120993269049
 31
0.0
  0
LINE
  5
17D37
330
1A
100
AcDbEntity
  8
ZISSEN1
 48
0.5
100
AcDbLine
 10
-484.5210088984591
 20
1564.820993269049
 30
0.0
 11
-485.2210088984588
 21
1564.120993269049
 31
0.0
  0
LINE
  5
17D38
330
1A
100
AcDbEntity
  8
ZISSEN1
 48
0.5
100
AcDbLine
 10
-484.5210088984591
 20
1633.420993269049
 30
0.0
 11
-485.2210088984588
 21
1634.120993269049
 31
0.0
  0
LINE
  5
17D41
330
1A
100
AcDbEntity
  8
ZISSEN1
  6
DASHEDX2
 48
0.5
100
AcDbLine
 10
-481.2210088984588
 20
1633.120993269049
 30
0.0
 11
-484.2210088984589
 21
1633.120993269049
 31
0.0
  0
LINE
  5
17D42
330
1A
100
AcDbEntity
  8
ZISSEN1
  6
DASHEDX2
 48
0.5
100
AcDbLine
 10
-481.2210088984588
 20
1565.120993269049
 30
0.0
 11
-484.2210088984589
 21
1565.120993269049
 31
0.0
  0
LINE
  5
17D43
330
1A
100
AcDbEntity
  8
ZISSEN1
 48
0.5
100
AcDbLine
 10
-484.2210088984589
 20
1633.120993269049
 30
0.0
 11
-484.2210088984589
 21
1634.120993269049
 31
0.0
  0
LINE
  5
17D44
330
1A
100
AcDbEntity
  8
ZISSEN1
 48
0.5
100
AcDbLine
 10
-484.2210088984589
 20
1565.120993269049
 30
0.0
 11
-484.2210088984589
 21
1564.120993269049
 31
0.0
  0
LINE
  5
17D45
330
1A
100
AcDbEntity
  8
ZISSEN1
 48
0.5
100
AcDbLine
 10
-610.2210088984597
 20
1536.120993269048
 30
0.0
 11
-613.2210088984598
 21
1536.120993269048
 31
0.0
  0
LINE
  5
17D46
330
1A
100
AcDbEntity
  8
ZISSEN1
 48
0.5
100
AcDbLine
 10
-613.2210088984598
 20
1536.120993269048
 30
0.0
 11
-613.2210088984598
 21
1511.120993269048
 31
0.0
  0
LINE
  5
17D47
330
1A
100
AcDbEntity
  8
ZISSEN1
 48
0.5
100
AcDbLine
 10
-613.2210088984589
 20
1511.120993269048
 30
0.0
 11
-543.2210088984597
 21
1511.120993269048
 31
0.0
  0
LINE
  5
17D48
330
1A
100
AcDbEntity
  8
ZISSEN1
 48
0.5
100
AcDbLine
 10
-543.2210088984597
 20
1511.120993269048
 30
0.0
 11
-543.2210088984597
 21
1508.120993269048
 31
0.0
  0
LINE
  5
17D49
330
1A
100
AcDbEntity
  8
ZISSEN1
 48
0.5
100
AcDbLine
 10
-543.2210088984597
 20
1508.120993269048
 30
0.0
 11
-610.2210088984616
 21
1508.120993269049
 31
0.0
  0
LINE
  5
17D4A
330
1A
100
AcDbEntity
  8
ZISSEN1
 48
0.5
100
AcDbLine
 10
-610.2210088984597
 20
1536.120993269048
 30
0.0
 11
-610.2210088984612
 21
1516.320993269049
 31
0.0
  0
LINE
  5
17D4B
330
1A
100
AcDbEntity
  8
ZISSEN1
 48
0.5
100
AcDbLine
 10
-610.2210088984597
 20
1535.120993269048
 30
0.0
 11
-613.2210088984598
 21
1535.120993269048
 31
0.0
  0
LINE
  5
17D4C
330
1A
100
AcDbEntity
  8
ZISSEN1
 48
0.5
100
AcDbLine
 10
-610.2210088984597
 20
1516.720993269049
 30
0.0
 11
-613.2210088984598
 21
1516.720993269049
 31
0.0
  0
LINE
  5
17D4D
330
1A
100
AcDbEntity
  8
ZISSEN1
 48
0.5
100
AcDbLine
 10
-610.2210088984606
 20
1512.120993269048
 30
0.0
 11
-613.2210088984598
 21
1512.120993269048
 31
0.0
  0
LINE
  5
17D4E
330
1A
100
AcDbEntity
  8
ZISSEN1
 48
0.5
100
AcDbLine
 10
-609.2210088984606
 20
1511.120993269048
 30
0.0
 11
-609.2210088984606
 21
1508.120993269048
 31
0.0
  0
ARC
  5
17D4F
330
1A
100
AcDbEntity
  8
ZISSEN1
 48
0.5
100
AcDbCircle
 10
-610.2210088984577
 20
1511.12099326905
 30
0.0
 40
3.000000000001364
100
AcDbArc
 50
180.000000000026
 51
269.9999999999478
  0
LINE
  5
17D50
330
1A
100
AcDbEntity
  8
ZISSEN1
 48
0.5
100
AcDbLine
 10
-610.2210088984597
 20
1525.370993269048
 30
0.0
 11
-613.2210088984598
 21
1525.370993269048
 31
0.0
  0
LINE
  5
17D51
330
1A
100
AcDbEntity
  8
ZISSEN1
 48
0.5
100
AcDbLine
 10
-610.2210088984597
 20
1521.870993269048
 30
0.0
 11
-613.2210088984598
 21
1521.870993269048
 31
0.0
  0
LINE
  5
17D52
330
1A
100
AcDbEntity
  8
ZISSEN1
 48
0.5
100
AcDbLine
 10
-544.2210088984597
 20
1511.120993269048
 30
0.0
 11
-544.2210088984597
 21
1508.120993269048
 31
0.0
  0
LINE
  5
17D56
330
1A
100
AcDbEntity
  8
CL1
 48
0.5
100
AcDbLine
 10
-609.2210088984606
 20
1523.620993269048
 30
0.0
 11
-614.2210088984606
 21
1523.620993269048
 31
0.0
  0
LINE
  5
17D58
330
1A
100
AcDbEntity
  8
ZISSEN1
 48
0.5
100
AcDbLine
 10
-610.2210088984597
 20
1514.720993269048
 30
0.0
 11
-613.2210088984598
 21
1514.720993269048
 31
0.0
  0
LINE
  5
17DB6
330
1A
100
AcDbEntity
  8
ZISSEN1
 48
0.5
100
AcDbLine
 10
-566.7210088984615
 20
1514.720993269048
 30
0.0
 11
-566.7210088984615
 21
1514.420993269048
 31
0.0
  0
LINE
  5
17DB7
330
1A
100
AcDbEntity
  8
ZISSEN1
 48
0.5
100
AcDbLine
 10
-566.7210088984615
 20
1514.420993269048
 30
0.0
 11
-543.7210088984616
 21
1514.420993269048
 31
0.0
  0
LINE
  5
17DB8
330
1A
100
AcDbEntity
  8
ZISSEN1
 48
0.5
100
AcDbLine
 10
-543.7210088984616
 20
1514.420993269048
 30
0.0
 11
-543.7210088984616
 21
1514.720993269048
 31
0.0
  0
LINE
  5
17DB9
330
1A
100
AcDbEntity
  8
ZISSEN1
 48
0.5
100
AcDbLine
 10
-543.7210088984616
 20
1514.720993269048
 30
0.0
 11
-566.7210088984615
 21
1514.720993269048
 31
0.0
  0
LINE
  5
17DBA
330
1A
100
AcDbEntity
  8
ZISSEN1
 48
0.5
100
AcDbLine
 10
-544.7210088984616
 20
1511.420993269048
 30
0.0
 11
-544.7210088984616
 21
1514.720993269048
 31
0.0
  0
LINE
  5
17DBC
330
1A
100
AcDbEntity
  8
ZISSEN1
 48
0.5
100
AcDbLine
 10
-565.7210088984616
 20
1514.420993269048
 30
0.0
 11
-565.7210088984616
 21
1514.720993269048
 31
0.0
  0
LINE
  5
17DBF
330
1A
100
AcDbEntity
  8
ZISSEN1
 48
0.5
100
AcDbLine
 10
-566.7210088984615
 20
1511.420993269048
 30
0.0
 11
-566.7210088984615
 21
1511.120993269048
 31
0.0
  0
LINE
  5
17DC0
330
1A
100
AcDbEntity
  8
ZISSEN1
 48
0.5
100
AcDbLine
 10
-566.7210088984615
 20
1511.120993269048
 30
0.0
 11
-543.7210088984616
 21
1511.120993269048
 31
0.0
  0
LINE
  5
17DC1
330
1A
100
AcDbEntity
  8
ZISSEN1
 48
0.5
100
AcDbLine
 10
-543.7210088984616
 20
1511.120993269048
 30
0.0
 11
-543.7210088984616
 21
1511.420993269048
 31
0.0
  0
LINE
  5
17DC2
330
1A
100
AcDbEntity
  8
ZISSEN1
 48
0.5
100
AcDbLine
 10
-543.7210088984616
 20
1511.420993269048
 30
0.0
 11
-566.7210088984615
 21
1511.420993269048
 31
0.0
  0
LINE
  5
17DC3
330
1A
100
AcDbEntity
  8
ZISSEN1
 48
0.5
100
AcDbLine
 10
-544.7210088984616
 20
1511.120993269048
 30
0.0
 11
-544.7210088984616
 21
1511.420993269048
 31
0.0
  0
LINE
  5
17DC5
330
1A
100
AcDbEntity
  8
ZISSEN1
 48
0.5
100
AcDbLine
 10
-565.7210088984616
 20
1511.120993269048
 30
0.0
 11
-565.7210088984616
 21
1511.420993269048
 31
0.0
  0
LINE
  5
17DC8
330
1A
100
AcDbEntity
  8
ZISSEN1
 48
0.5
100
AcDbLine
 10
-612.2210088984588
 20
1514.720993269048
 30
0.0
 11
-612.2210088984588
 21
1516.320993269049
 31
0.0
  0
LINE
  5
17DC9
330
1A
100
AcDbEntity
  8
ZISSEN1
 48
0.5
100
AcDbLine
 10
-612.2210088984588
 20
1516.320993269049
 30
0.0
 11
-610.2369825758869
 21
1516.320993269049
 31
0.0
  0
LINE
  5
17DCA
330
1A
100
AcDbEntity
  8
ZISSEN1
 48
0.5
100
AcDbLine
 10
-543.7210088984588
 20
1514.720993269048
 30
0.0
 11
-543.7210088984588
 21
1516.320993269049
 31
0.0
  0
LINE
  5
17DCB
330
1A
100
AcDbEntity
  8
ZISSEN1
 48
0.5
100
AcDbLine
 10
-612.2210088984588
 20
1514.720993269048
 30
0.0
 11
-610.2223626212417
 21
1514.720993269048
 31
0.0
  0
LINE
  5
17DCC
330
1A
100
AcDbEntity
  8
ZISSEN1
 48
0.5
100
AcDbLine
 10
-544.7210088984607
 20
1514.720993269048
 30
0.0
 11
-544.7210088984607
 21
1516.320993269049
 31
0.0
  0
LINE
  5
17DD0
330
1A
100
AcDbEntity
  8
ZISSEN1
100
AcDbLine
 10
-551.4710088984616
 20
1516.620993269048
 30
0.0
 11
-551.4710088984616
 21
1516.320993269049
 31
0.0
  0
LINE
  5
17DD1
330
1A
100
AcDbEntity
  8
ZISSEN1
100
AcDbLine
 10
-556.9710088984615
 20
1516.320993269049
 30
0.0
 11
-556.9710088984615
 21
1516.620993269048
 31
0.0
  0
ARC
  5
17DD2
330
1A
100
AcDbEntity
  8
ZISSEN1
100
AcDbCircle
 10
-554.2210088984614
 20
1513.629194439585
 30
0.0
 40
4.06366340092025
100
AcDbArc
 50
47.41141701992759
 51
132.5885829800724
  0
LINE
  5
17DD6
330
1A
100
AcDbEntity
  8
ZISSEN1
100
AcDbLine
 10
-552.6210088984575
 20
1517.364614126309
 30
0.0
 11
-552.6210088984592
 21
1532.820993269049
 31
0.0
  0
LINE
  5
17DD7
330
1A
100
AcDbEntity
  8
ZISSEN1
100
AcDbLine
 10
-598.0986390503026
 20
1532.820993269049
 30
0.0
 11
-598.0986390503026
 21
1516.320993269049
 31
0.0
  0
LINE
  5
17DDE
330
1A
100
AcDbEntity
  8
ZISSEN1
100
AcDbLine
 10
-551.4710088984616
 20
1516.320993269049
 30
0.0
 11
-556.9710088984615
 21
1516.320993269049
 31
0.0
  0
LINE
  5
17E26
330
1A
100
AcDbEntity
  8
ZISSEN1
 48
0.5
100
AcDbLine
 10
-489.4210088984595
 20
1565.795993269047
 30
0.0
 11
-489.4210088984595
 21
1568.595993269047
 31
0.0
  0
LINE
  5
17EB8
330
1A
100
AcDbEntity
  8
ZISSEN1
100
AcDbLine
 10
-544.7210088984597
 20
1564.620993269048
 30
0.0
 11
-543.7210088984597
 21
1565.620993269048
 31
0.0
  0
LINE
  5
17EBA
330
1A
100
AcDbEntity
  8
ZISSEN1
100
AcDbLine
 10
-544.7210088984597
 20
1633.620993269048
 30
0.0
 11
-543.7210088984597
 21
1632.620993269048
 31
0.0
  0
LINE
  5
17EC5
330
1A
100
AcDbEntity
  8
ZISSEN1
100
AcDbLine
 10
-552.0210088984581
 20
1588.020993269048
 30
0.0
 11
-552.0210088984581
 21
1598.870993269047
 31
0.0
  0
LINE
  5
17EC6
330
1A
100
AcDbEntity
  8
ZISSEN1
100
AcDbLine
 10
-552.6210088984584
 20
1598.870993269047
 30
0.0
 11
-552.6210088984584
 21
1587.320993269047
 31
0.0
  0
LINE
  5
17EC7
330
1A
100
AcDbEntity
  8
ZISSEN1
100
AcDbLine
 10
-545.021008898459
 20
1598.870993269047
 30
0.0
 11
-545.021008898459
 21
1587.320993269047
 31
0.0
  0
LINE
  5
17EC8
330
1A
100
AcDbEntity
  8
ZISSEN1
100
AcDbLine
 10
-545.6210088984585
 20
1588.020993269048
 30
0.0
 11
-545.6210088984585
 21
1598.870993269047
 31
0.0
  0
LINE
  5
17ECC
330
1A
100
AcDbEntity
  8
ZISSEN1
100
AcDbLine
 10
-552.6210088984584
 20
1610.420993269047
 30
0.0
 11
-548.3410088984578
 21
1610.420993269047
 31
0.0
  0
LINE
  5
17ECD
330
1A
100
AcDbEntity
  8
ZISSEN1
100
AcDbLine
 10
-552.6210088984584
 20
1610.420993269047
 30
0.0
 11
-548.8210088984592
 21
1610.420993269047
 31
0.0
  0
LINE
  5
17ECE
330
1A
100
AcDbEntity
  8
ZISSEN1
100
AcDbLine
 10
-548.8210088984592
 20
1609.720993269047
 30
0.0
 11
-552.0210088984581
 21
1609.720993269047
 31
0.0
  0
LINE
  5
17ED2
330
1A
100
AcDbEntity
  8
ZISSEN1
100
AcDbLine
 10
-552.0210088984581
 20
1609.720993269047
 30
0.0
 11
-552.0210088984581
 21
1598.870993269047
 31
0.0
  0
LINE
  5
17ED3
330
1A
100
AcDbEntity
  8
ZISSEN1
100
AcDbLine
 10
-552.6210088984584
 20
1598.870993269047
 30
0.0
 11
-552.6210088984584
 21
1610.420993269047
 31
0.0
  0
LINE
  5
17ED4
330
1A
100
AcDbEntity
  8
ZISSEN1
100
AcDbLine
 10
-545.021008898459
 20
1600.070993269047
 30
0.0
 11
-544.4210088984596
 21
1600.070993269047
 31
0.0
  0
LINE
  5
17ED5
330
1A
100
AcDbEntity
  8
ZISSEN1
100
AcDbLine
 10
-545.6210088984585
 20
1602.020993269048
 30
0.0
 11
-545.021008898459
 21
1602.020993269048
 31
0.0
  0
LINE
  5
17ED6
330
1A
100
AcDbEntity
  8
ZISSEN1
100
AcDbLine
 10
-545.6210088984585
 20
1603.220993269048
 30
0.0
 11
-545.6210088984585
 21
1602.020993269048
 31
0.0
  0
LINE
  5
17ED7
330
1A
100
AcDbEntity
  8
ZISSEN1
100
AcDbLine
 10
-545.021008898459
 20
1603.220993269048
 30
0.0
 11
-545.6210088984585
 21
1603.220993269048
 31
0.0
  0
LINE
  5
17ED8
330
1A
100
AcDbEntity
  8
ZISSEN1
100
AcDbLine
 10
-545.021008898459
 20
1594.520993269048
 30
0.0
 11
-545.6210088984585
 21
1594.520993269048
 31
0.0
  0
LINE
  5
17ED9
330
1A
100
AcDbEntity
  8
ZISSEN1
100
AcDbLine
 10
-545.6210088984585
 20
1594.520993269048
 30
0.0
 11
-545.6210088984585
 21
1595.720993269048
 31
0.0
  0
LINE
  5
17EDA
330
1A
100
AcDbEntity
  8
ZISSEN1
100
AcDbLine
 10
-545.6210088984585
 20
1595.720993269048
 30
0.0
 11
-545.021008898459
 21
1595.720993269048
 31
0.0
  0
LINE
  5
17EDB
330
1A
100
AcDbEntity
  8
ZISSEN1
100
AcDbLine
 10
-545.021008898459
 20
1597.670993269048
 30
0.0
 11
-544.4210088984596
 21
1597.670993269048
 31
0.0
  0
LINE
  5
17EDC
330
1A
100
AcDbEntity
  8
ZISSEN1
100
AcDbLine
 10
-545.021008898459
 20
1598.870993269047
 30
0.0
 11
-545.021008898459
 21
1594.520993269048
 31
0.0
  0
LINE
  5
17EDD
330
1A
100
AcDbEntity
  8
ZISSEN1
100
AcDbLine
 10
-545.021008898459
 20
1598.870993269047
 30
0.0
 11
-545.021008898459
 21
1597.670993269048
 31
0.0
  0
LINE
  5
17EDE
330
1A
100
AcDbEntity
  8
ZISSEN1
100
AcDbLine
 10
-544.4210088984596
 20
1597.670993269048
 30
0.0
 11
-544.4210088984596
 21
1598.870993269047
 31
0.0
  0
LINE
  5
17EDF
330
1A
100
AcDbEntity
  8
ZISSEN1
100
AcDbLine
 10
-544.4210088984596
 20
1600.070993269047
 30
0.0
 11
-544.4210088984596
 21
1598.870993269047
 31
0.0
  0
LINE
  5
17EE0
330
1A
100
AcDbEntity
  8
ZISSEN1
100
AcDbLine
 10
-545.021008898459
 20
1598.870993269047
 30
0.0
 11
-545.021008898459
 21
1600.070993269047
 31
0.0
  0
LINE
  5
17EE1
330
1A
100
AcDbEntity
  8
ZISSEN1
100
AcDbLine
 10
-545.021008898459
 20
1598.870993269047
 30
0.0
 11
-545.021008898459
 21
1603.220993269048
 31
0.0
  0
LINE
  5
17EE8
330
1A
100
AcDbEntity
  8
ZISSEN1
100
AcDbLine
 10
-545.021008898459
 20
1610.420993269047
 30
0.0
 11
-548.8210088984592
 21
1610.420993269047
 31
0.0
  0
LINE
  5
17EE9
330
1A
100
AcDbEntity
  8
ZISSEN1
100
AcDbLine
 10
-548.8210088984592
 20
1609.720993269047
 30
0.0
 11
-545.6210088984585
 21
1609.720993269047
 31
0.0
  0
LINE
  5
17EEC
330
1A
100
AcDbEntity
  8
ZISSEN1
100
AcDbLine
 10
-545.021008898459
 20
1598.870993269047
 30
0.0
 11
-545.021008898459
 21
1610.420993269047
 31
0.0
  0
LINE
  5
17EED
330
1A
100
AcDbEntity
  8
ZISSEN1
100
AcDbLine
 10
-545.6210088984585
 20
1609.720993269047
 30
0.0
 11
-545.6210088984585
 21
1598.870993269047
 31
0.0
  0
LINE
  5
17EEE
330
1A
100
AcDbEntity
  8
ZISSEN1
100
AcDbLine
 10
-552.6210088984584
 20
1587.320993269047
 30
0.0
 11
-548.8210088984592
 21
1587.320993269047
 31
0.0
  0
LINE
  5
17EEF
330
1A
100
AcDbEntity
  8
ZISSEN1
100
AcDbLine
 10
-548.8210088984592
 20
1588.020993269048
 30
0.0
 11
-552.0210088984581
 21
1588.020993269048
 31
0.0
  0
LINE
  5
17EF1
330
1A
100
AcDbEntity
  8
ZISSEN1
100
AcDbLine
 10
-545.8210088984592
 20
1587.320993269047
 30
0.0
 11
-552.6210088984584
 21
1587.320993269047
 31
0.0
  0
LINE
  5
17EF4
330
1A
100
AcDbEntity
  8
ZISSEN1
100
AcDbLine
 10
-545.021008898459
 20
1587.320993269047
 30
0.0
 11
-548.8210088984592
 21
1587.320993269047
 31
0.0
  0
LINE
  5
17EF5
330
1A
100
AcDbEntity
  8
ZISSEN1
100
AcDbLine
 10
-548.8210088984592
 20
1588.020993269048
 30
0.0
 11
-545.6210088984585
 21
1588.020993269048
 31
0.0
  0
LINE
  5
17EF8
330
1A
100
AcDbEntity
  8
ZISSEN1
100
AcDbLine
 10
-607.2210088984588
 20
1620.820993269048
 30
0.0
 11
-607.2210088984588
 21
1627.620993269047
 31
0.0
  0
LINE
  5
17F16
330
1A
100
AcDbEntity
  8
ZISSEN1
100
AcDbLine
 10
-607.2210088984588
 20
1627.620993269047
 30
0.0
 11
-584.8210088984592
 21
1627.620993269047
 31
0.0
  0
LINE
  5
17F20
102
{ACAD_REACTORS
330
19E69
102
}
330
1A
100
AcDbEntity
  8
ZISSEN1
100
AcDbLine
 10
-598.798639050303
 20
1574.970993269049
 30
0.0
 11
-598.798639050303
 21
1578.170993269049
 31
0.0
  0
LINE
  5
17F21
102
{ACAD_REACTORS
330
19E69
102
}
330
1A
100
AcDbEntity
  8
ZISSEN1
100
AcDbLine
 10
-598.0986390503022
 20
1578.770993269049
 30
0.0
 11
-598.0986390503022
 21
1574.970993269049
 31
0.0
  0
LINE
  5
17F22
102
{ACAD_REACTORS
330
19E69
102
}
330
1A
100
AcDbEntity
  8
ZISSEN1
100
AcDbLine
 10
-598.798639050303
 20
1574.970993269049
 30
0.0
 11
-598.798639050303
 21
1571.770993269049
 31
0.0
  0
LINE
  5
17F23
102
{ACAD_REACTORS
330
19E69
102
}
330
1A
100
AcDbEntity
  8
ZISSEN1
100
AcDbLine
 10
-598.0986390503022
 20
1571.170993269049
 30
0.0
 11
-598.0986390503022
 21
1574.970993269049
 31
0.0
  0
LINE
  5
17F24
102
{ACAD_REACTORS
330
19E69
102
}
330
1A
100
AcDbEntity
  8
ZISSEN1
100
AcDbLine
 10
-598.0986390503022
 20
1578.770993269049
 30
0.0
 11
-598.0986390503022
 21
1574.490993269049
 31
0.0
  0
LINE
  5
17F27
102
{ACAD_REACTORS
330
19E69
102
}
330
1A
100
AcDbEntity
  8
ZISSEN1
100
AcDbLine
 10
-603.548639050303
 20
1571.770993269049
 30
0.0
 11
-604.7486390503028
 21
1571.770993269049
 31
0.0
  0
LINE
  5
17F2C
102
{ACAD_REACTORS
330
19E69
102
}
330
1A
100
AcDbEntity
  8
ZISSEN1
100
AcDbLine
 10
-607.1986390503026
 20
1571.170993269049
 30
0.0
 11
-607.1986390503026
 21
1578.770993269049
 31
0.0
  0
LINE
  5
17F2D
102
{ACAD_REACTORS
330
19E69
102
}
330
1A
100
AcDbEntity
  8
ZISSEN1
100
AcDbLine
 10
-606.4986390503028
 20
1571.770993269049
 30
0.0
 11
-606.4986390503028
 21
1578.170993269049
 31
0.0
  0
LINE
  5
17F2E
102
{ACAD_REACTORS
330
19E69
102
}
330
1A
100
AcDbEntity
  8
ZISSEN1
100
AcDbLine
 10
-606.4986390503028
 20
1571.770993269049
 30
0.0
 11
-602.6486390503024
 21
1571.770993269049
 31
0.0
  0
LINE
  5
17F2F
102
{ACAD_REACTORS
330
19E69
102
}
330
1A
100
AcDbEntity
  8
ZISSEN1
100
AcDbLine
 10
-602.6486390503024
 20
1571.770993269049
 30
0.0
 11
-599.5986390503023
 21
1571.770993269049
 31
0.0
  0
LINE
  5
17F30
102
{ACAD_REACTORS
330
19E69
102
}
330
1A
100
AcDbEntity
  8
ZISSEN1
100
AcDbLine
 10
-599.5986390503023
 20
1571.770993269049
 30
0.0
 11
-599.5986390503023
 21
1571.170993269049
 31
0.0
  0
LINE
  5
17F31
102
{ACAD_REACTORS
330
19E69
102
}
330
1A
100
AcDbEntity
  8
ZISSEN1
100
AcDbLine
 10
-602.6486390503024
 20
1571.770993269049
 30
0.0
 11
-605.6986390503026
 21
1571.770993269049
 31
0.0
  0
LINE
  5
17F32
102
{ACAD_REACTORS
330
19E69
102
}
330
1A
100
AcDbEntity
  8
ZISSEN1
100
AcDbLine
 10
-605.6986390503026
 20
1571.770993269049
 30
0.0
 11
-605.6986390503026
 21
1571.170993269049
 31
0.0
  0
LINE
  5
17F33
102
{ACAD_REACTORS
330
19E69
102
}
330
1A
100
AcDbEntity
  8
ZISSEN1
100
AcDbLine
 10
-604.6986390503026
 20
1571.770993269049
 30
0.0
 11
-604.6986390503026
 21
1571.170993269049
 31
0.0
  0
LINE
  5
17F34
102
{ACAD_REACTORS
330
19E69
102
}
330
1A
100
AcDbEntity
  8
ZISSEN1
100
AcDbLine
 10
-600.5986390503022
 20
1571.770993269049
 30
0.0
 11
-600.5986390503022
 21
1571.170993269049
 31
0.0
  0
LINE
  5
17F35
102
{ACAD_REACTORS
330
19E69
102
}
330
1A
100
AcDbEntity
  8
ZISSEN1
100
AcDbLine
 10
-602.6486390503024
 20
1571.770993269049
 30
0.0
 11
-603.1486390503024
 21
1571.770993269049
 31
0.0
  0
LINE
  5
17F36
102
{ACAD_REACTORS
330
19E69
102
}
330
1A
100
AcDbEntity
  8
ZISSEN1
100
AcDbLine
 10
-602.6486390503024
 20
1571.770993269049
 30
0.0
 11
-602.1486390503024
 21
1571.770993269049
 31
0.0
  0
LINE
  5
17F37
102
{ACAD_REACTORS
330
19E69
102
}
330
1A
100
AcDbEntity
  8
ZISSEN1
100
AcDbLine
 10
-602.1486390503024
 20
1571.170993269049
 30
0.0
 11
-602.1486390503024
 21
1570.570993269049
 31
0.0
  0
LINE
  5
17F38
102
{ACAD_REACTORS
330
19E69
102
}
330
1A
100
AcDbEntity
  8
ZISSEN1
100
AcDbLine
 10
-603.1486390503024
 20
1571.170993269049
 30
0.0
 11
-603.1486390503024
 21
1570.570993269049
 31
0.0
  0
LINE
  5
17F39
102
{ACAD_REACTORS
330
19E69
102
}
330
1A
100
AcDbEntity
  8
ZISSEN1
100
AcDbLine
 10
-603.1486390503024
 20
1570.570993269049
 30
0.0
 11
-602.1486390503024
 21
1570.570993269049
 31
0.0
  0
LINE
  5
17F3A
102
{ACAD_REACTORS
330
19E69
102
}
330
1A
100
AcDbEntity
  8
ZISSEN1
100
AcDbLine
 10
-598.0986390503022
 20
1571.170993269049
 30
0.0
 11
-607.1986390503026
 21
1571.170993269049
 31
0.0
  0
LINE
  5
17F3B
102
{ACAD_REACTORS
330
19E69
102
}
330
1A
100
AcDbEntity
  8
ZISSEN1
100
AcDbLine
 10
-598.798639050303
 20
1571.770993269049
 30
0.0
 11
-606.4986390503028
 21
1571.770993269049
 31
0.0
  0
LINE
  5
17F3C
102
{ACAD_REACTORS
330
19E69
102
}
330
1A
100
AcDbEntity
  8
ZISSEN1
100
AcDbLine
 10
-607.1986390503026
 20
1578.770993269049
 30
0.0
 11
-598.0986390503022
 21
1578.770993269049
 31
0.0
  0
LINE
  5
17F3D
102
{ACAD_REACTORS
330
19E69
102
}
330
1A
100
AcDbEntity
  8
ZISSEN1
100
AcDbLine
 10
-598.798639050303
 20
1578.170993269049
 30
0.0
 11
-606.4986390503028
 21
1578.170993269049
 31
0.0
  0
LINE
  5
17F41
102
{ACAD_REACTORS
330
19E69
102
}
330
1A
100
AcDbEntity
  8
ZISSEN1
100
AcDbLine
 10
-602.6486390503024
 20
1571.170993269049
 30
0.0
 11
-602.6486390503024
 21
1570.570993269049
 31
0.0
  0
LINE
  5
17F42
102
{ACAD_REACTORS
330
19B1E
102
}
330
1A
100
AcDbEntity
  8
ZISSEN1
  6
CONTINUOUS
 62
     0
100
AcDbLine
 10
-553.8210088984601
 20
1630.220993269049
 30
0.0
 11
-552.7210088984597
 21
1630.220993269049
 31
0.0
  0
LINE
  5
17F43
102
{ACAD_REACTORS
330
19B1E
102
}
330
1A
100
AcDbEntity
  8
ZISSEN1
  6
CONTINUOUS
 62
     0
100
AcDbLine
 10
-552.7210088984597
 20
1631.02099326905
 30
0.0
 11
-553.8210088984601
 21
1631.02099326905
 31
0.0
  0
LINE
  5
17F44
102
{ACAD_REACTORS
330
19B1E
102
}
330
1A
100
AcDbEntity
  8
ZISSEN1
  6
CONTINUOUS
 62
     0
100
AcDbLine
 10
-553.8210088984601
 20
1631.02099326905
 30
0.0
 11
-553.8210088984601
 21
1632.120993269049
 31
0.0
  0
LINE
  5
17F45
102
{ACAD_REACTORS
330
19B1E
102
}
330
1A
100
AcDbEntity
  8
ZISSEN1
  6
CONTINUOUS
 62
     0
100
AcDbLine
 10
-554.6210088984603
 20
1632.120993269049
 30
0.0
 11
-554.6210088984603
 21
1631.02099326905
 31
0.0
  0
LINE
  5
17F46
102
{ACAD_REACTORS
330
19B1E
102
}
330
1A
100
AcDbEntity
  8
ZISSEN1
  6
CONTINUOUS
 62
     0
100
AcDbLine
 10
-553.8210088984601
 20
1632.120993269049
 30
0.0
 11
-554.2210088984598
 21
1632.120993269049
 31
0.0
  0
LINE
  5
17F47
102
{ACAD_REACTORS
330
19B1E
102
}
330
1A
100
AcDbEntity
  8
ZISSEN1
  6
CONTINUOUS
 62
     0
100
AcDbLine
 10
-554.2210088984598
 20
1632.120993269049
 30
0.0
 11
-554.6210088984603
 21
1632.120993269049
 31
0.0
  0
LINE
  5
17F48
102
{ACAD_REACTORS
330
19B1E
102
}
330
1A
100
AcDbEntity
  8
ZISSEN1
  6
CONTINUOUS
 62
     0
100
AcDbLine
 10
-555.7210088984597
 20
1631.02099326905
 30
0.0
 11
-554.6210088984603
 21
1631.02099326905
 31
0.0
  0
LINE
  5
17F49
102
{ACAD_REACTORS
330
19B1E
102
}
330
1A
100
AcDbEntity
  8
ZISSEN1
  6
CONTINUOUS
 62
     0
100
AcDbLine
 10
-554.6210088984603
 20
1630.220993269049
 30
0.0
 11
-555.7210088984597
 21
1630.220993269049
 31
0.0
  0
LINE
  5
17F4A
102
{ACAD_REACTORS
330
19B1E
102
}
330
1A
100
AcDbEntity
  8
ZISSEN1
  6
CONTINUOUS
 62
     0
100
AcDbLine
 10
-554.6210088984603
 20
1629.120993269049
 30
0.0
 11
-554.6210088984603
 21
1630.220993269049
 31
0.0
  0
LINE
  5
17F4B
102
{ACAD_REACTORS
330
19B1E
102
}
330
1A
100
AcDbEntity
  8
ZISSEN1
  6
CONTINUOUS
 62
     0
100
AcDbLine
 10
-553.8210088984601
 20
1630.220993269049
 30
0.0
 11
-553.8210088984601
 21
1629.120993269049
 31
0.0
  0
LINE
  5
17F4C
102
{ACAD_REACTORS
330
19B1E
102
}
330
1A
100
AcDbEntity
  8
ZISSEN1
  6
CONTINUOUS
 62
     0
100
AcDbLine
 10
-555.7210088984597
 20
1630.220993269049
 30
0.0
 11
-555.7210088984597
 21
1630.620993269049
 31
0.0
  0
LINE
  5
17F4D
102
{ACAD_REACTORS
330
19B1E
102
}
330
1A
100
AcDbEntity
  8
ZISSEN1
  6
CONTINUOUS
 62
     0
100
AcDbLine
 10
-555.7210088984597
 20
1630.620993269049
 30
0.0
 11
-555.7210088984597
 21
1631.02099326905
 31
0.0
  0
LINE
  5
17F4E
102
{ACAD_REACTORS
330
19B1E
102
}
330
1A
100
AcDbEntity
  8
ZISSEN1
  6
CONTINUOUS
 62
     0
100
AcDbLine
 10
-554.2210088984598
 20
1629.120993269049
 30
0.0
 11
-554.6210088984603
 21
1629.120993269049
 31
0.0
  0
LINE
  5
17F4F
102
{ACAD_REACTORS
330
19B1E
102
}
330
1A
100
AcDbEntity
  8
ZISSEN1
  6
CONTINUOUS
 62
     0
100
AcDbLine
 10
-553.8210088984601
 20
1629.120993269049
 30
0.0
 11
-554.2210088984598
 21
1629.120993269049
 31
0.0
  0
LINE
  5
17F50
102
{ACAD_REACTORS
330
19B1E
102
}
330
1A
100
AcDbEntity
  8
ZISSEN1
  6
CONTINUOUS
 62
     0
100
AcDbLine
 10
-552.7210088984597
 20
1630.620993269049
 30
0.0
 11
-552.7210088984597
 21
1631.02099326905
 31
0.0
  0
LINE
  5
17F51
102
{ACAD_REACTORS
330
19B1E
102
}
330
1A
100
AcDbEntity
  8
ZISSEN1
  6
CONTINUOUS
 62
     0
100
AcDbLine
 10
-552.7210088984597
 20
1630.220993269049
 30
0.0
 11
-552.7210088984597
 21
1630.620993269049
 31
0.0
  0
CIRCLE
  5
17F52
102
{ACAD_REACTORS
330
19B1E
102
}
330
1A
100
AcDbEntity
  8
ZISSEN1
  6
CONTINUOUS
 62
     0
100
AcDbCircle
 10
-554.2210088984603
 20
1630.620993269049
 30
0.0
 40
2.75
  0
LINE
  5
17F53
330
1A
100
AcDbEntity
  8
ZISSEN1
  6
CONTINUOUS
 62
     0
100
AcDbLine
 10
-553.8210088984601
 20
1567.220993269049
 30
0.0
 11
-552.7210088984597
 21
1567.220993269049
 31
0.0
  0
LINE
  5
17F54
330
1A
100
AcDbEntity
  8
ZISSEN1
  6
CONTINUOUS
 62
     0
100
AcDbLine
 10
-552.7210088984597
 20
1568.02099326905
 30
0.0
 11
-553.8210088984601
 21
1568.02099326905
 31
0.0
  0
LINE
  5
17F61
330
1A
100
AcDbEntity
  8
ZISSEN1
  6
CONTINUOUS
 62
     0
100
AcDbLine
 10
-552.7210088984597
 20
1567.620993269049
 30
0.0
 11
-552.7210088984597
 21
1568.02099326905
 31
0.0
  0
LINE
  5
17F62
330
1A
100
AcDbEntity
  8
ZISSEN1
  6
CONTINUOUS
 62
     0
100
AcDbLine
 10
-552.7210088984597
 20
1567.220993269049
 30
0.0
 11
-552.7210088984597
 21
1567.620993269049
 31
0.0
  0
LINE
  5
1818A
330
1A
100
AcDbEntity
  8
ZISSEN1
100
AcDbLine
 10
-570.4718508133214
 20
1629.723248618895
 30
0.0
 11
-570.7718508133216
 21
1629.723248618895
 31
0.0
  0
LINE
  5
1818B
330
1A
100
AcDbEntity
  8
ZISSEN1
100
AcDbLine
 10
-572.4718508133214
 20
1629.723248618895
 30
0.0
 11
-570.4718508133214
 21
1629.723248618895
 31
0.0
  0
LINE
  5
1818C
330
1A
100
AcDbEntity
  8
ZISSEN1
100
AcDbLine
 10
-570.4718508133214
 20
1630.973248618895
 30
0.0
 11
-572.4718508133214
 21
1630.973248618895
 31
0.0
  0
LINE
  5
18191
330
1A
100
AcDbEntity
  8
ZISSEN1
100
AcDbLine
 10
-572.4718508133214
 20
1630.973248618895
 30
0.0
 11
-572.4718508133214
 21
1629.723248618895
 31
0.0
  0
LINE
  5
18192
330
1A
100
AcDbEntity
  8
ZISSEN1
100
AcDbLine
 10
-570.4718508133214
 20
1629.723248618895
 30
0.0
 11
-570.4718508133214
 21
1630.973248618895
 31
0.0
  0
LINE
  5
1819A
330
1A
100
AcDbEntity
  8
ZISSEN1
100
AcDbLine
 10
-565.1210088984603
 20
1629.75599326905
 30
0.0
 11
-565.4210088984605
 21
1629.75599326905
 31
0.0
  0
LINE
  5
1819B
330
1A
100
AcDbEntity
  8
ZISSEN1
100
AcDbLine
 10
-567.1210088984603
 20
1629.75599326905
 30
0.0
 11
-565.1210088984603
 21
1629.75599326905
 31
0.0
  0
LINE
  5
1819C
330
1A
100
AcDbEntity
  8
ZISSEN1
100
AcDbLine
 10
-565.1210088984603
 20
1631.00599326905
 30
0.0
 11
-567.1210088984603
 21
1631.00599326905
 31
0.0
  0
LINE
  5
181A0
330
1A
100
AcDbEntity
  8
ZISSEN1
100
AcDbLine
 10
-567.1210088984603
 20
1631.00599326905
 30
0.0
 11
-567.1210088984603
 21
1629.75599326905
 31
0.0
  0
LINE
  5
181A1
330
1A
100
AcDbEntity
  8
ZISSEN1
100
AcDbLine
 10
-565.1210088984603
 20
1629.75599326905
 30
0.0
 11
-565.1210088984603
 21
1631.00599326905
 31
0.0
  0
LINE
  5
181BE
330
1A
100
AcDbEntity
  8
ZISSEN1
100
AcDbLine
 10
-568.0210088984599
 20
1627.480993269049
 30
0.0
 11
-571.6210088984603
 21
1627.480993269049
 31
0.0
  0
LINE
  5
181BF
330
1A
100
AcDbEntity
  8
ZISSEN1
100
AcDbLine
 10
-571.6210088984603
 20
1620.080993269048
 30
0.0
 11
-568.0210088984599
 21
1620.080993269048
 31
0.0
  0
LINE
  5
181C0
330
1A
100
AcDbEntity
  8
ZISSEN1
100
AcDbLine
 10
-568.0210088984599
 20
1620.080993269048
 30
0.0
 11
-568.0210088984599
 21
1627.480993269049
 31
0.0
  0
LINE
  5
181C7
330
1A
100
AcDbEntity
  8
ZISSEN1
100
AcDbLine
 10
-571.6210088984603
 20
1620.080993269048
 30
0.0
 11
-571.6210088984603
 21
1627.480993269049
 31
0.0
  0
LWPOLYLINE
  5
181E9
330
1A
100
AcDbEntity
  8
ZISSEN1
100
AcDbPolyline
 90
        4
 70
     1
 43
0.0
 10
-581.8184718682346
 20
1625.57954072804
 10
-575.2184718682342
 20
1625.57954072804
 10
-575.2184718682342
 20
1630.65954072804
 10
-581.8184718682346
 20
1630.65954072804
  0
LWPOLYLINE
  5
181EA
330
1A
100
AcDbEntity
  8
ZISSEN1
100
AcDbPolyline
 90
        4
 70
     1
 43
0.0
 10
-578.1787767240461
 20
1629.619540728039
 10
-577.5787767240458
 20
1629.619540728039
 10
-577.5787767240458
 20
1626.619540728039
 10
-578.1787767240461
 20
1626.619540728039
  0
LWPOLYLINE
  5
181EB
330
1A
100
AcDbEntity
  8
ZISSEN1
100
AcDbPolyline
 90
        4
 70
     1
 43
0.0
 10
-576.9067006421032
 20
1629.619540728039
 10
-576.3067006421029
 20
1629.619540728039
 10
-576.3067006421029
 20
1626.619540728039
 10
-576.9067006421032
 20
1626.619540728039
  0
LWPOLYLINE
  5
181EC
330
1A
100
AcDbEntity
  8
ZISSEN1
100
AcDbPolyline
 90
        4
 70
     1
 43
0.0
 10
-579.4467006421032
 20
1629.619540728039
 10
-578.8467006421028
 20
1629.619540728039
 10
-578.8467006421028
 20
1626.619540728039
 10
-579.4467006421032
 20
1626.619540728039
  0
LWPOLYLINE
  5
181ED
330
1A
100
AcDbEntity
  8
ZISSEN1
100
AcDbPolyline
 90
        4
 70
     1
 43
0.0
 10
-580.7187767240462
 20
1629.619540728039
 10
-580.1187767240458
 20
1629.619540728039
 10
-580.1187767240458
 20
1626.619540728039
 10
-580.7187767240462
 20
1626.619540728039
  0
LWPOLYLINE
  5
181F2
330
1A
100
AcDbEntity
  8
ZISSEN1
100
AcDbPolyline
 90
        4
 70
     1
 43
0.0
 10
-581.8184718682346
 20
1625.41954072804
 10
-575.2184718682342
 20
1625.41954072804
 10
-575.2184718682342
 20
1630.81954072804
 10
-581.8184718682346
 20
1630.81954072804
  0
LWPOLYLINE
  5
1845C
330
1A
100
AcDbEntity
  8
ZISSEN1
100
AcDbPolyline
 90
        4
 70
     1
 43
0.0
 10
-581.8184718682346
 20
1615.720993269049
 10
-575.2184718682342
 20
1615.720993269049
 10
-575.2184718682342
 20
1620.800993269049
 10
-581.8184718682346
 20
1620.800993269049
  0
LWPOLYLINE
  5
1845D
330
1A
100
AcDbEntity
  8
ZISSEN1
100
AcDbPolyline
 90
        4
 70
     1
 43
0.0
 10
-578.1787767240461
 20
1619.760993269049
 10
-577.5787767240458
 20
1619.760993269049
 10
-577.5787767240458
 20
1616.760993269048
 10
-578.1787767240461
 20
1616.760993269048
  0
LWPOLYLINE
  5
1845E
330
1A
100
AcDbEntity
  8
ZISSEN1
100
AcDbPolyline
 90
        4
 70
     1
 43
0.0
 10
-576.9067006421032
 20
1619.760993269049
 10
-576.3067006421029
 20
1619.760993269049
 10
-576.3067006421029
 20
1616.760993269048
 10
-576.9067006421032
 20
1616.760993269048
  0
LWPOLYLINE
  5
1845F
330
1A
100
AcDbEntity
  8
ZISSEN1
100
AcDbPolyline
 90
        4
 70
     1
 43
0.0
 10
-579.4467006421032
 20
1619.760993269049
 10
-578.8467006421028
 20
1619.760993269049
 10
-578.8467006421028
 20
1616.760993269048
 10
-579.4467006421032
 20
1616.760993269048
  0
LWPOLYLINE
  5
18460
330
1A
100
AcDbEntity
  8
ZISSEN1
100
AcDbPolyline
 90
        4
 70
     1
 43
0.0
 10
-580.7187767240462
 20
1619.760993269049
 10
-580.1187767240458
 20
1619.760993269049
 10
-580.1187767240458
 20
1616.760993269048
 10
-580.7187767240462
 20
1616.760993269048
  0
LWPOLYLINE
  5
18465
330
1A
100
AcDbEntity
  8
ZISSEN1
100
AcDbPolyline
 90
        4
 70
     1
 43
0.0
 10
-581.8184718682346
 20
1615.56099326905
 10
-575.2184718682342
 20
1615.56099326905
 10
-575.2184718682342
 20
1620.960993269049
 10
-581.8184718682346
 20
1620.960993269049
  0
LINE
  5
18474
330
1A
100
AcDbEntity
  8
ZISSEN1
100
AcDbLine
 10
-544.7210088984588
 20
1564.620993269047
 30
0.0
 11
-610.2210088984597
 21
1564.620993269047
 31
0.0
  0
LINE
  5
18476
330
1A
100
AcDbEntity
  8
ZISSEN1
100
AcDbLine
 10
-610.2210088984597
 20
1633.620993269047
 30
0.0
 11
-544.7210088984588
 21
1633.620993269047
 31
0.0
  0
LINE
  5
1847A
330
1A
100
AcDbEntity
  8
ZISSEN1
100
AcDbLine
 10
-609.7210088984589
 20
1568.620993269047
 30
0.0
 11
-609.7210088984589
 21
1629.620993269047
 31
0.0
  0
LINE
  5
1847B
330
1A
100
AcDbEntity
  8
ZISSEN1
100
AcDbLine
 10
-609.7210088984589
 20
1629.620993269047
 30
0.0
 11
-610.2210088984597
 21
1629.620993269047
 31
0.0
  0
LINE
  5
1847C
330
1A
100
AcDbEntity
  8
ZISSEN1
100
AcDbLine
 10
-609.7210088984589
 20
1568.620993269047
 30
0.0
 11
-610.2210088984597
 21
1568.620993269047
 31
0.0
  0
LINE
  5
18495
330
1A
100
AcDbEntity
  8
ZISSEN1
 62
     0
100
AcDbLine
 10
-610.2210088984597
 20
1634.120993269048
 30
0.0
 11
-610.2210088984588
 21
1627.620993269047
 31
0.0
  0
LINE
  5
18497
330
1A
100
AcDbEntity
  8
ZISSEN1
 62
     0
 48
0.5
100
AcDbLine
 10
-613.221008898457
 20
1568.370993269047
 30
0.0
 11
-613.2210088984579
 21
1564.870993269047
 31
0.0
  0
LINE
  5
1849A
330
1A
100
AcDbEntity
  8
ZISSEN1
 62
     0
 48
0.5
100
AcDbLine
 10
-613.221008898457
 20
1633.370993269048
 30
0.0
 11
-613.2210088984579
 21
1629.870993269048
 31
0.0
  0
LINE
  5
1849B
330
1A
100
AcDbEntity
  8
ZISSEN1
 48
0.5
100
AcDbLine
 10
-543.2210088984597
 20
1633.120993269048
 30
0.0
 11
-544.2210088984597
 21
1634.120993269048
 31
0.0
  0
LINE
  5
1849C
330
1A
100
AcDbEntity
  8
ZISSEN1
 48
0.5
100
AcDbLine
 10
-544.2210088984597
 20
1634.120993269048
 30
0.0
 11
-609.2210088984598
 21
1634.120993269048
 31
0.0
  0
LINE
  5
1849D
330
1A
100
AcDbEntity
  8
ZISSEN1
 48
0.5
100
AcDbLine
 10
-609.2210088984598
 20
1634.120993269048
 30
0.0
 11
-609.7210088984606
 21
1633.620993269047
 31
0.0
  0
LINE
  5
1849E
330
1A
100
AcDbEntity
  8
ZISSEN1
 48
0.5
100
AcDbLine
 10
-610.2210088984597
 20
1634.120993269048
 30
0.0
 11
-613.2210088984598
 21
1634.120993269048
 31
0.0
  0
LINE
  5
1849F
330
1A
100
AcDbEntity
  8
ZISSEN1
 48
0.5
100
AcDbLine
 10
-613.2210088984598
 20
1634.120993269048
 30
0.0
 11
-613.2210088984598
 21
1564.120993269048
 31
0.0
  0
LINE
  5
184A0
330
1A
100
AcDbEntity
  8
ZISSEN1
 48
0.5
100
AcDbLine
 10
-613.2210088984598
 20
1564.120993269048
 30
0.0
 11
-610.2210088984597
 21
1564.120993269048
 31
0.0
  0
LINE
  5
184A1
330
1A
100
AcDbEntity
  8
ZISSEN1
 48
0.5
100
AcDbLine
 10
-610.2210088984597
 20
1564.120993269048
 30
0.0
 11
-610.2210088984597
 21
1634.120993269048
 31
0.0
  0
LINE
  5
184A3
330
1A
100
AcDbEntity
  8
ZISSEN1
 48
0.5
100
AcDbLine
 10
-613.2210088984598
 20
1565.120993269048
 30
0.0
 11
-610.2210088984597
 21
1565.120993269048
 31
0.0
  0
LINE
  5
184A4
330
1A
100
AcDbEntity
  8
ZISSEN1
 48
0.5
100
AcDbLine
 10
-609.2210088984598
 20
1564.120993269048
 30
0.0
 11
-544.2210088984597
 21
1564.120993269048
 31
0.0
  0
LINE
  5
184A5
330
1A
100
AcDbEntity
  8
ZISSEN1
 48
0.5
100
AcDbLine
 10
-544.2210088984597
 20
1564.120993269048
 30
0.0
 11
-543.2210088984597
 21
1565.120993269048
 31
0.0
  0
LINE
  5
184A6
330
1A
100
AcDbEntity
  8
ZISSEN1
 48
0.5
100
AcDbLine
 10
-543.2210088984597
 20
1565.120993269048
 30
0.0
 11
-543.2210088984597
 21
1633.120993269048
 31
0.0
  0
LINE
  5
184A9
330
1A
100
AcDbEntity
  8
ZISSEN1
 48
0.5
100
AcDbLine
 10
-609.2210088984598
 20
1564.120993269048
 30
0.0
 11
-609.7210088984589
 21
1564.620993269047
 31
0.0
  0
LINE
  5
184AC
330
1A
100
AcDbEntity
  8
SOUZOUSEN
  6
DASHEDX2
 48
0.5
100
AcDbLine
 10
-610.2210088984597
 20
1628.870993269048
 30
0.0
 11
-613.2210088984598
 21
1628.870993269048
 31
0.0
  0
LINE
  5
184AF
330
1A
100
AcDbEntity
  8
SOUZOUSEN
  6
DASHEDX2
 48
0.5
100
AcDbLine
 10
-610.2210088984597
 20
1569.370993269048
 30
0.0
 11
-613.2210088984598
 21
1569.370993269048
 31
0.0
  0
CIRCLE
  5
19B1F
102
{ACAD_REACTORS
330
19B30
102
}
330
1A
100
AcDbEntity
  8
ZISSEN1
  6
CONTINUOUS
 62
     0
100
AcDbCircle
 10
-554.2210088984604
 20
1567.620993269049
 30
0.0
 40
2.75
  0
LINE
  5
19B20
102
{ACAD_REACTORS
330
19B30
102
}
330
1A
100
AcDbEntity
  8
ZISSEN1
  6
CONTINUOUS
 62
     0
100
AcDbLine
 10
-553.8210088984601
 20
1566.120993269049
 30
0.0
 11
-554.2210088984598
 21
1566.120993269049
 31
0.0
  0
LINE
  5
19B21
102
{ACAD_REACTORS
330
19B30
102
}
330
1A
100
AcDbEntity
  8
ZISSEN1
  6
CONTINUOUS
 62
     0
100
AcDbLine
 10
-553.8210088984601
 20
1569.120993269049
 30
0.0
 11
-554.2210088984598
 21
1569.120993269049
 31
0.0
  0
LINE
  5
19B22
102
{ACAD_REACTORS
330
19B30
102
}
330
1A
100
AcDbEntity
  8
ZISSEN1
  6
CONTINUOUS
 62
     0
100
AcDbLine
 10
-554.2210088984598
 20
1566.120993269049
 30
0.0
 11
-554.6210088984603
 21
1566.120993269049
 31
0.0
  0
LINE
  5
19B23
102
{ACAD_REACTORS
330
19B30
102
}
330
1A
100
AcDbEntity
  8
ZISSEN1
  6
CONTINUOUS
 62
     0
100
AcDbLine
 10
-555.7210088984597
 20
1567.620993269049
 30
0.0
 11
-555.7210088984597
 21
1568.02099326905
 31
0.0
  0
LINE
  5
19B24
102
{ACAD_REACTORS
330
19B30
102
}
330
1A
100
AcDbEntity
  8
ZISSEN1
  6
CONTINUOUS
 62
     0
100
AcDbLine
 10
-555.7210088984597
 20
1567.220993269049
 30
0.0
 11
-555.7210088984597
 21
1567.620993269049
 31
0.0
  0
LINE
  5
19B25
102
{ACAD_REACTORS
330
19B30
102
}
330
1A
100
AcDbEntity
  8
ZISSEN1
  6
CONTINUOUS
 62
     0
100
AcDbLine
 10
-554.6210088984603
 20
1566.120993269049
 30
0.0
 11
-554.6210088984603
 21
1567.220993269049
 31
0.0
  0
LINE
  5
19B26
102
{ACAD_REACTORS
330
19B30
102
}
330
1A
100
AcDbEntity
  8
ZISSEN1
  6
CONTINUOUS
 62
     0
100
AcDbLine
 10
-554.6210088984603
 20
1567.220993269049
 30
0.0
 11
-555.7210088984597
 21
1567.220993269049
 31
0.0
  0
LINE
  5
19B27
102
{ACAD_REACTORS
330
19B30
102
}
330
1A
100
AcDbEntity
  8
ZISSEN1
  6
CONTINUOUS
 62
     0
100
AcDbLine
 10
-555.7210088984597
 20
1568.02099326905
 30
0.0
 11
-554.6210088984603
 21
1568.02099326905
 31
0.0
  0
LINE
  5
19B28
102
{ACAD_REACTORS
330
19B30
102
}
330
1A
100
AcDbEntity
  8
ZISSEN1
  6
CONTINUOUS
 62
     0
100
AcDbLine
 10
-554.2210088984598
 20
1569.120993269049
 30
0.0
 11
-554.6210088984603
 21
1569.120993269049
 31
0.0
  0
LINE
  5
19B29
102
{ACAD_REACTORS
330
19B30
102
}
330
1A
100
AcDbEntity
  8
ZISSEN1
  6
CONTINUOUS
 62
     0
100
AcDbLine
 10
-554.6210088984603
 20
1569.120993269049
 30
0.0
 11
-554.6210088984603
 21
1568.02099326905
 31
0.0
  0
LINE
  5
19B2A
102
{ACAD_REACTORS
330
19B30
102
}
330
1A
100
AcDbEntity
  8
ZISSEN1
  6
CONTINUOUS
 62
     0
100
AcDbLine
 10
-552.7210088984597
 20
1567.220993269049
 30
0.0
 11
-552.7210088984597
 21
1567.620993269049
 31
0.0
  0
LINE
  5
19B2B
102
{ACAD_REACTORS
330
19B30
102
}
330
1A
100
AcDbEntity
  8
ZISSEN1
  6
CONTINUOUS
 62
     0
100
AcDbLine
 10
-552.7210088984597
 20
1567.620993269049
 30
0.0
 11
-552.7210088984597
 21
1568.02099326905
 31
0.0
  0
LINE
  5
19B2C
102
{ACAD_REACTORS
330
19B30
102
}
330
1A
100
AcDbEntity
  8
ZISSEN1
  6
CONTINUOUS
 62
     0
100
AcDbLine
 10
-553.8210088984601
 20
1567.220993269049
 30
0.0
 11
-553.8210088984601
 21
1566.120993269049
 31
0.0
  0
LINE
  5
19B2D
102
{ACAD_REACTORS
330
19B30
102
}
330
1A
100
AcDbEntity
  8
ZISSEN1
  6
CONTINUOUS
 62
     0
100
AcDbLine
 10
-553.8210088984601
 20
1568.02099326905
 30
0.0
 11
-553.8210088984601
 21
1569.120993269049
 31
0.0
  0
LINE
  5
19B2E
102
{ACAD_REACTORS
330
19B30
102
}
330
1A
100
AcDbEntity
  8
ZISSEN1
  6
CONTINUOUS
 62
     0
100
AcDbLine
 10
-552.7210088984597
 20
1568.02099326905
 30
0.0
 11
-553.8210088984601
 21
1568.02099326905
 31
0.0
  0
LINE
  5
19B2F
102
{ACAD_REACTORS
330
19B30
102
}
330
1A
100
AcDbEntity
  8
ZISSEN1
  6
CONTINUOUS
 62
     0
100
AcDbLine
 10
-553.8210088984601
 20
1567.220993269049
 30
0.0
 11
-552.7210088984597
 21
1567.220993269049
 31
0.0
  0
LINE
  5
19B7F
330
1A
100
AcDbEntity
  8
ZISSEN1
 48
0.5
100
AcDbLine
 10
-610.2210088984612
 20
1514.720993269048
 30
0.0
 11
-543.7210088984588
 21
1514.720993269048
 31
0.0
  0
LINE
  5
19B80
330
1A
100
AcDbEntity
  8
ZISSEN1
 48
0.5
100
AcDbLine
 10
-610.2223626212417
 20
1516.320993269049
 30
0.0
 11
-543.7210088984588
 21
1516.320993269049
 31
0.0
  0
LINE
  5
19B81
330
1A
100
AcDbEntity
  8
ZISSEN1
100
AcDbLine
 10
-610.2210088984597
 20
1514.720993269048
 30
0.0
 11
-610.221008898458
 21
1508.120993269048
 31
0.0
  0
LINE
  5
19B8F
330
1A
100
AcDbEntity
  8
ZISSEN1
100
AcDbLine
 10
-543.7210088984616
 20
1511.420993269048
 30
0.0
 11
-543.7210088984616
 21
1514.420993269048
 31
0.0
  0
LINE
  5
19B90
330
1A
100
AcDbEntity
  8
ZISSEN1
100
AcDbLine
 10
-565.7210088984616
 20
1514.420993269048
 30
0.0
 11
-565.7210088984616
 21
1511.420993269048
 31
0.0
  0
LINE
  5
19B94
330
1A
100
AcDbEntity
  8
ZISSEN1
100
AcDbLine
 10
-484.5210088984591
 20
1610.620993269049
 30
0.0
 11
-487.521008898459
 21
1610.620993269049
 31
0.0
  0
LINE
  5
19B95
330
1A
100
AcDbEntity
  8
ZISSEN1
100
AcDbLine
 10
-484.5210088984591
 20
1587.120993269049
 30
0.0
 11
-487.521008898459
 21
1587.120993269049
 31
0.0
  0
LINE
  5
19BBE
102
{ACAD_REACTORS
330
19BD3
330
19DB9
330
19E69
102
}
330
1A
100
AcDbEntity
  8
ZISSEN1
100
AcDbLine
 10
-598.0986390503026
 20
1569.370993269049
 30
0.0
 11
-607.1986390503026
 21
1569.370993269049
 31
0.0
  0
LINE
  5
19BBF
102
{ACAD_REACTORS
330
19BD3
330
19DB9
330
19E69
102
}
330
1A
100
AcDbEntity
  8
ZISSEN1
100
AcDbLine
 10
-607.1986390503026
 20
1578.770993269049
 30
0.0
 11
-598.0986390503026
 21
1578.770993269049
 31
0.0
  0
LINE
  5
19BC0
102
{ACAD_REACTORS
330
19BD3
330
19DB9
330
19E69
102
}
330
1A
100
AcDbEntity
  8
ZISSEN1
100
AcDbLine
 10
-607.1986390503026
 20
1569.370993269049
 30
0.0
 11
-598.0986390503026
 21
1569.370993269049
 31
0.0
  0
LINE
  5
19BC1
102
{ACAD_REACTORS
330
19BD3
330
19DB9
330
19E69
102
}
330
1A
100
AcDbEntity
  8
ZISSEN1
100
AcDbLine
 10
-607.1986390503026
 20
1569.370993269049
 30
0.0
 11
-607.1986390503026
 21
1578.770993269049
 31
0.0
  0
LINE
  5
19BC2
102
{ACAD_REACTORS
330
19BD3
330
19DB9
330
19E69
102
}
330
1A
100
AcDbEntity
  8
ZISSEN1
100
AcDbLine
 10
-598.0986390503026
 20
1578.770993269049
 30
0.0
 11
-598.0986390503026
 21
1569.370993269049
 31
0.0
  0
LINE
  5
19BC3
102
{ACAD_REACTORS
330
19BD3
330
19DB9
330
19E69
102
}
330
1A
100
AcDbEntity
  8
ZISSEN1
100
AcDbLine
 10
-607.1986390503026
 20
1569.370993269049
 30
0.0
 11
-607.1986390503026
 21
1576.970993269048
 31
0.0
  0
LINE
  5
19BC4
102
{ACAD_REACTORS
330
19BD3
330
19DB9
330
19E69
102
}
330
1A
100
AcDbEntity
  8
ZISSEN1
100
AcDbLine
 10
-598.0986390503026
 20
1576.970993269048
 30
0.0
 11
-598.0986390503026
 21
1569.370993269049
 31
0.0
  0
LINE
  5
19BC5
102
{ACAD_REACTORS
330
19BD3
330
19DB9
330
19E69
102
}
330
1A
100
AcDbEntity
  8
ZISSEN1
100
AcDbLine
 10
-598.0986390503026
 20
1576.970993269048
 30
0.0
 11
-598.0986390503026
 21
1569.370993269049
 31
0.0
  0
LINE
  5
19BC6
102
{ACAD_REACTORS
330
19BD3
330
19DB9
330
19E69
102
}
330
1A
100
AcDbEntity
  8
ZISSEN1
100
AcDbLine
 10
-607.1986390503026
 20
1569.370993269049
 30
0.0
 11
-607.1986390503026
 21
1576.970993269048
 31
0.0
  0
LINE
  5
19C97
102
{ACAD_REACTORS
330
19DAB
102
}
330
1A
100
AcDbEntity
  8
ZISSEN1
100
AcDbLine
 10
-552.6210088984584
 20
1587.320993269047
 30
0.0
 11
-552.6210088984584
 21
1610.420993269047
 31
0.0
  0
LINE
  5
19C98
102
{ACAD_REACTORS
330
19DAB
102
}
330
1A
100
AcDbEntity
  8
ZISSEN1
100
AcDbLine
 10
-543.2210088984584
 20
1610.420993269047
 30
0.0
 11
-543.2210088984584
 21
1587.320993269047
 31
0.0
  0
LINE
  5
19C99
102
{ACAD_REACTORS
330
19DAB
102
}
330
1A
100
AcDbEntity
  8
ZISSEN1
100
AcDbLine
 10
-552.6210088984584
 20
1610.420993269047
 30
0.0
 11
-552.6210088984584
 21
1587.320993269047
 31
0.0
  0
LINE
  5
19C9A
102
{ACAD_REACTORS
330
19DAB
102
}
330
1A
100
AcDbEntity
  8
ZISSEN1
100
AcDbLine
 10
-543.2210088984584
 20
1587.320993269047
 30
0.0
 11
-552.6210088984584
 21
1587.320993269047
 31
0.0
  0
LINE
  5
19C9B
102
{ACAD_REACTORS
330
19DAB
102
}
330
1A
100
AcDbEntity
  8
ZISSEN1
100
AcDbLine
 10
-545.0210088984586
 20
1587.320993269047
 30
0.0
 11
-552.6210088984584
 21
1587.320993269047
 31
0.0
  0
LINE
  5
19C9C
102
{ACAD_REACTORS
330
19DAB
102
}
330
1A
100
AcDbEntity
  8
ZISSEN1
100
AcDbLine
 10
-552.6210088984584
 20
1610.420993269047
 30
0.0
 11
-543.2210088984584
 21
1610.420993269047
 31
0.0
  0
LINE
  5
19C9D
102
{ACAD_REACTORS
330
19DAB
102
}
330
1A
100
AcDbEntity
  8
ZISSEN1
100
AcDbLine
 10
-552.6210088984584
 20
1610.420993269047
 30
0.0
 11
-545.0210088984586
 21
1610.420993269047
 31
0.0
  0
LINE
  5
19C9E
102
{ACAD_REACTORS
330
19DAA
102
}
330
1A
100
AcDbEntity
  8
ZISSEN1
100
AcDbLine
 10
-505.9210088984595
 20
1610.420993269048
 30
0.0
 11
-505.9210088984595
 21
1587.320993269048
 31
0.0
  0
LINE
  5
19C9F
102
{ACAD_REACTORS
330
19DAA
102
}
330
1A
100
AcDbEntity
  8
ZISSEN1
100
AcDbLine
 10
-489.4210088984595
 20
1587.320993269048
 30
0.0
 11
-489.4210088984595
 21
1610.420993269048
 31
0.0
  0
LINE
  5
19CA0
102
{ACAD_REACTORS
330
19DAA
102
}
330
1A
100
AcDbEntity
  8
ZISSEN1
100
AcDbLine
 10
-505.9210088984595
 20
1587.320993269048
 30
0.0
 11
-489.4210088984595
 21
1587.320993269048
 31
0.0
  0
LINE
  5
19CA1
102
{ACAD_REACTORS
330
19DAA
102
}
330
1A
100
AcDbEntity
  8
ZISSEN1
100
AcDbLine
 10
-489.4210088984595
 20
1587.320993269048
 30
0.0
 11
-499.9210088984596
 21
1587.320993269048
 31
0.0
  0
LINE
  5
19CA2
102
{ACAD_REACTORS
330
19DAA
102
}
330
1A
100
AcDbEntity
  8
ZISSEN1
100
AcDbLine
 10
-489.4210088984595
 20
1610.420993269048
 30
0.0
 11
-505.9210088984595
 21
1610.420993269048
 31
0.0
  0
LINE
  5
19CA3
102
{ACAD_REACTORS
330
19DAA
102
}
330
1A
100
AcDbEntity
  8
ZISSEN1
100
AcDbLine
 10
-499.9210088984596
 20
1610.420993269048
 30
0.0
 11
-489.4210088984595
 21
1610.420993269048
 31
0.0
  0
LINE
  5
19DED
102
{ACAD_REACTORS
330
19E0C
330
19E0D
102
}
330
1A
100
AcDbEntity
  8
ZISSEN1
100
AcDbLine
 10
-607.2210088984588
 20
1620.020993269047
 30
0.0
 11
-607.2210088984588
 21
1627.620993269048
 31
0.0
  0
LINE
  5
19DEE
102
{ACAD_REACTORS
330
19E0C
330
19E0D
102
}
330
1A
100
AcDbEntity
  8
ZISSEN1
100
AcDbLine
 10
-584.821008898459
 20
1627.620993269047
 30
0.0
 11
-584.821008898459
 21
1620.820993269047
 31
0.0
  0
LINE
  5
19DEF
102
{ACAD_REACTORS
330
19E0C
330
19E0D
102
}
330
1A
100
AcDbEntity
  8
ZISSEN1
100
AcDbLine
 10
-607.2210088984588
 20
1620.820993269047
 30
0.0
 11
-607.2210088984588
 21
1627.620993269047
 31
0.0
  0
LINE
  5
19DF0
102
{ACAD_REACTORS
330
19E0C
330
19E0D
102
}
330
1A
100
AcDbEntity
  8
ZISSEN1
100
AcDbLine
 10
-585.6710088984597
 20
1626.920993269047
 30
0.0
 11
-585.6710088984597
 21
1621.520993269047
 31
0.0
  0
LINE
  5
19DF1
102
{ACAD_REACTORS
330
19E0C
330
19E0D
102
}
330
1A
100
AcDbEntity
  8
ZISSEN1
100
AcDbLine
 10
-606.3710088984589
 20
1621.520993269047
 30
0.0
 11
-606.3710088984589
 21
1626.920993269047
 31
0.0
  0
LINE
  5
19DF2
102
{ACAD_REACTORS
330
19E0C
330
19E0D
102
}
330
1A
100
AcDbEntity
  8
ZISSEN1
100
AcDbLine
 10
-585.6710088984597
 20
1626.920993269047
 30
0.0
 11
-585.6710088984597
 21
1621.520993269047
 31
0.0
  0
LINE
  5
19DF3
102
{ACAD_REACTORS
330
19E0C
330
19E0D
102
}
330
1A
100
AcDbEntity
  8
ZISSEN1
100
AcDbLine
 10
-585.6710088984597
 20
1621.520993269047
 30
0.0
 11
-585.6710088984597
 21
1626.920993269047
 31
0.0
  0
LWPOLYLINE
  5
19DF4
102
{ACAD_REACTORS
330
19E0C
330
19E0D
102
}
330
1A
100
AcDbEntity
  8
ZISSEN1
100
AcDbPolyline
 90
        4
 70
     1
 43
0.0
 10
-593.2710088984588
 20
1621.120993269047
 10
-592.0210088984597
 20
1621.120993269047
 10
-592.0210088984597
 20
1621.720993269046
 10
-593.2710088984588
 20
1621.720993269046
  0
LWPOLYLINE
  5
19DF5
102
{ACAD_REACTORS
330
19E0C
330
19E0D
102
}
330
1A
100
AcDbEntity
  8
ZISSEN1
100
AcDbPolyline
 90
        4
 70
     1
 43
0.0
 10
-600.0210088984588
 20
1621.120993269047
 10
-598.7710088984588
 20
1621.120993269047
 10
-598.7710088984588
 20
1621.720993269047
 10
-600.0210088984588
 20
1621.720993269047
  0
LINE
  5
19DF6
102
{ACAD_REACTORS
330
19E0C
330
19E0D
102
}
330
1A
100
AcDbEntity
  8
ZISSEN1
100
AcDbLine
 10
-598.571008898459
 20
1620.820993269047
 30
0.0
 11
-593.4710088984588
 21
1620.820993269047
 31
0.0
  0
LINE
  5
19DF7
102
{ACAD_REACTORS
330
19E0C
330
19E0D
102
}
330
1A
100
AcDbEntity
  8
ZISSEN1
100
AcDbLine
 10
-584.821008898459
 20
1620.820993269047
 30
0.0
 11
-591.8210088984599
 21
1620.820993269047
 31
0.0
  0
LINE
  5
19DF8
102
{ACAD_REACTORS
330
19E0C
330
19E0D
102
}
330
1A
100
AcDbEntity
  8
ZISSEN1
100
AcDbLine
 10
-600.2210088984589
 20
1620.820993269047
 30
0.0
 11
-607.2210088984588
 21
1620.820993269047
 31
0.0
  0
LINE
  5
19DF9
102
{ACAD_REACTORS
330
19E0C
330
19E0D
102
}
330
1A
100
AcDbEntity
  8
ZISSEN1
100
AcDbLine
 10
-598.571008898459
 20
1621.720993269047
 30
0.0
 11
-598.571008898459
 21
1620.820993269047
 31
0.0
  0
LINE
  5
19DFA
102
{ACAD_REACTORS
330
19E0C
330
19E0D
102
}
330
1A
100
AcDbEntity
  8
ZISSEN1
100
AcDbLine
 10
-600.2210088984589
 20
1621.720993269047
 30
0.0
 11
-600.2210088984589
 21
1620.820993269047
 31
0.0
  0
LINE
  5
19DFB
102
{ACAD_REACTORS
330
19E0C
330
19E0D
102
}
330
1A
100
AcDbEntity
  8
ZISSEN1
100
AcDbLine
 10
-591.8210088984599
 20
1621.720993269046
 30
0.0
 11
-591.8210088984599
 21
1620.820993269047
 31
0.0
  0
LINE
  5
19DFC
102
{ACAD_REACTORS
330
19E0C
330
19E0D
102
}
330
1A
100
AcDbEntity
  8
ZISSEN1
100
AcDbLine
 10
-593.4710088984588
 20
1621.720993269046
 30
0.0
 11
-593.4710088984588
 21
1620.820993269047
 31
0.0
  0
LINE
  5
19DFD
102
{ACAD_REACTORS
330
19E0C
330
19E0D
102
}
330
1A
100
AcDbEntity
  8
ZISSEN1
100
AcDbLine
 10
-587.2710088984597
 20
1621.720993269046
 30
0.0
 11
-587.2710088984597
 21
1620.820993269047
 31
0.0
  0
LINE
  5
19DFE
102
{ACAD_REACTORS
330
19E0C
330
19E0D
102
}
330
1A
100
AcDbEntity
  8
ZISSEN1
100
AcDbLine
 10
-604.7710088984597
 20
1621.720993269047
 30
0.0
 11
-587.2710088984597
 21
1621.720993269046
 31
0.0
  0
LINE
  5
19DFF
102
{ACAD_REACTORS
330
19E0C
330
19E0D
102
}
330
1A
100
AcDbEntity
  8
ZISSEN1
100
AcDbLine
 10
-604.7710088984597
 20
1620.820993269047
 30
0.0
 11
-604.7710088984597
 21
1621.720993269047
 31
0.0
  0
LINE
  5
19E00
102
{ACAD_REACTORS
330
19E0C
330
19E0D
102
}
330
1A
100
AcDbEntity
  8
ZISSEN1
100
AcDbLine
 10
-605.371008898459
 20
1621.520993269047
 30
0.0
 11
-606.3710088984589
 21
1621.520993269047
 31
0.0
  0
LINE
  5
19E01
102
{ACAD_REACTORS
330
19E0C
330
19E0D
102
}
330
1A
100
AcDbEntity
  8
ZISSEN1
100
AcDbLine
 10
-605.371008898459
 20
1622.320993269047
 30
0.0
 11
-605.371008898459
 21
1621.520993269047
 31
0.0
  0
LINE
  5
19E02
102
{ACAD_REACTORS
330
19E0C
330
19E0D
102
}
330
1A
100
AcDbEntity
  8
ZISSEN1
100
AcDbLine
 10
-586.6710088984588
 20
1622.320993269047
 30
0.0
 11
-605.371008898459
 21
1622.320993269047
 31
0.0
  0
LINE
  5
19E03
102
{ACAD_REACTORS
330
19E0C
330
19E0D
102
}
330
1A
100
AcDbEntity
  8
ZISSEN1
100
AcDbLine
 10
-586.6710088984588
 20
1621.520993269047
 30
0.0
 11
-586.6710088984588
 21
1622.320993269047
 31
0.0
  0
LINE
  5
19E04
102
{ACAD_REACTORS
330
19E0C
330
19E0D
102
}
330
1A
100
AcDbEntity
  8
ZISSEN1
100
AcDbLine
 10
-585.6710088984597
 20
1621.520993269047
 30
0.0
 11
-586.6710088984588
 21
1621.520993269047
 31
0.0
  0
LINE
  5
19E05
102
{ACAD_REACTORS
330
19E0C
330
19E0D
102
}
330
1A
100
AcDbEntity
  8
ZISSEN1
100
AcDbLine
 10
-607.2210088984588
 20
1627.620993269047
 30
0.0
 11
-584.821008898459
 21
1627.620993269047
 31
0.0
  0
LINE
  5
19E06
102
{ACAD_REACTORS
330
19E0C
330
19E0D
102
}
330
1A
100
AcDbEntity
  8
ZISSEN1
100
AcDbLine
 10
-606.3710088984589
 20
1626.920993269047
 30
0.0
 11
-585.6710088984597
 21
1626.920993269047
 31
0.0
  0
LINE
  5
19E07
102
{ACAD_REACTORS
330
19E0C
330
19E0D
102
}
330
1A
100
AcDbEntity
  8
ZISSEN1
100
AcDbLine
 10
-607.2210088984588
 20
1620.020993269047
 30
0.0
 11
-584.821008898459
 21
1620.026763180476
 31
0.0
  0
LINE
  5
19E08
102
{ACAD_REACTORS
330
19E0C
330
19E0D
102
}
330
1A
100
AcDbEntity
  8
ZISSEN1
100
AcDbLine
 10
-584.821008898459
 20
1620.026763180476
 30
0.0
 11
-584.821008898459
 21
1627.626763180476
 31
0.0
  0
LINE
  5
19E09
102
{ACAD_REACTORS
330
19E0C
330
19E0D
102
}
330
1A
100
AcDbEntity
  8
ZISSEN1
100
AcDbLine
 10
-584.8210088984592
 20
1627.620993269048
 30
0.0
 11
-584.8210088984592
 21
1620.820993269048
 31
0.0
  0
LINE
  5
19E0A
102
{ACAD_REACTORS
330
19E0C
330
19E0D
102
}
330
1A
100
AcDbEntity
  8
ZISSEN1
100
AcDbLine
 10
-584.8210088984592
 20
1620.820993269048
 30
0.0
 11
-591.8210088984592
 21
1620.820993269048
 31
0.0
  0
LINE
  5
19E0B
102
{ACAD_REACTORS
330
19E0C
330
19E0D
102
}
330
1A
100
AcDbEntity
  8
ZISSEN1
100
AcDbLine
 10
-607.2210088984588
 20
1627.620993269048
 30
0.0
 11
-584.8210088984592
 21
1627.620993269048
 31
0.0
  0
LINE
  5
19E17
330
1A
100
AcDbEntity
  8
ZISSEN1
100
AcDbLine
 10
-490.7880201338421
 20
1630.81954072804
 30
0.0
 11
-491.9210088984596
 21
1630.81954072804
 31
0.0
  0
LINE
  5
19E18
330
1A
100
AcDbEntity
  8
ZISSEN1
100
AcDbLine
 10
-491.9210088984596
 20
1630.81954072804
 30
0.0
 11
-491.9210088984596
 21
1627.600993269049
 31
0.0
  0
LINE
  5
19E5C
330
1A
100
AcDbEntity
  8
ZISSEN1
100
AcDbLine
 10
-552.6210088984592
 20
1532.820993269049
 30
0.0
 11
-543.2210088984597
 21
1532.820993269049
 31
0.0
  0
LINE
  5
19E5D
330
1A
100
AcDbEntity
  8
ZISSEN1
100
AcDbLine
 10
-543.2210088984597
 20
1532.820993269049
 30
0.0
 11
-543.2210088984597
 21
1516.320993269049
 31
0.0
  0
LINE
  5
19E5E
330
1A
100
AcDbEntity
  8
ZISSEN1
100
AcDbLine
 10
-543.2210088984597
 20
1516.320993269049
 30
0.0
 11
-551.4710088984616
 21
1516.320993269049
 31
0.0
  0
LINE
  5
19E66
330
1A
100
AcDbEntity
  8
ZISSEN1
100
AcDbLine
 10
-490.3967515119761
 20
1569.370993269049
 30
0.0
 11
-505.9210088984595
 21
1569.370993269049
 31
0.0
  0
LINE
  5
19E67
330
1A
100
AcDbEntity
  8
ZISSEN1
100
AcDbLine
 10
-505.9210088984595
 20
1569.370993269049
 30
0.0
 11
-505.9210088984595
 21
1578.770993269049
 31
0.0
  0
LINE
  5
19E68
330
1A
100
AcDbEntity
  8
ZISSEN1
100
AcDbLine
 10
-505.9210088984595
 20
1578.770993269049
 30
0.0
 11
-489.4210088984595
 21
1578.770993269049
 31
0.0
  0
LINE
  5
19E73
330
1A
100
AcDbEntity
  8
ZISSEN1
100
AcDbLine
 10
-543.7210088984588
 20
1587.320993269047
 30
0.0
 11
-543.7210088984588
 21
1565.620993269049
 31
0.0
  0
LINE
  5
19E74
330
1A
100
AcDbEntity
  8
ZISSEN1
100
AcDbLine
 10
-543.7210088984588
 20
1610.420993269047
 30
0.0
 11
-543.7210088984588
 21
1632.620993269047
 31
0.0
  0
LINE
  5
19E7E
330
1A
100
AcDbEntity
  8
ZISSEN1
100
AcDbLine
 10
-489.8210088984592
 20
1633.258063657585
 30
0.0
 11
-489.8210088984592
 21
1634.120993269049
 31
0.0
  0
LINE
  5
19E86
330
1A
100
AcDbEntity
  8
CL1
100
AcDbLine
 10
-496.7210088984585
 20
1564.120993269049
 30
0.0
 11
-496.7210088984585
 21
1569.370993269049
 31
0.0
  0
LINE
  5
19E87
330
1A
100
AcDbEntity
  8
CL1
100
AcDbLine
 10
-498.4710088984589
 20
1631.620993269049
 30
0.0
 11
-494.9710088984589
 21
1631.620993269049
 31
0.0
  0
LINE
  5
19E88
330
1A
100
AcDbEntity
  8
CL1
100
AcDbLine
 10
-496.7210088984585
 20
1634.120993269049
 30
0.0
 11
-496.7210088984585
 21
1628.870993269049
 31
0.0
  0
LINE
  5
19E89
330
1A
100
AcDbEntity
  8
CL1
100
AcDbLine
 10
-614.6080830278233
 20
1631.620993269049
 30
0.0
 11
-608.584515476009
 21
1631.620993269049
 31
0.0
  0
LINE
  5
19E8A
330
1A
100
AcDbEntity
  8
CL1
100
AcDbLine
 10
-614.1319401794617
 20
1566.620993269049
 30
0.0
 11
-608.410615367954
 21
1566.620993269049
 31
0.0
  0
LINE
  5
19E8B
330
1A
100
AcDbEntity
  8
CL1
100
AcDbLine
 10
-498.4710088984589
 20
1566.620993269049
 30
0.0
 11
-494.9710088984589
 21
1566.620993269049
 31
0.0
  0
DIMENSION
  5
19EA1
330
1A
100
AcDbEntity
  8
SUNPOU
100
AcDbDimension
  2
*D0
 10
-517.4015747271542
 20
1566.620993269049
 30
0.0
 11
-520.1515747271543
 21
1599.120993269049
 31
0.0
 70
    32
  3
標準スタイル
100
AcDbAlignedDimension
 13
-496.7210088984585
 23
1631.620993269049
 33
0.0
 14
-496.7210088984585
 24
1566.620993269049
 34
0.0
 50
90.0
100
AcDbRotatedDimension
1001
ACAD
1000
DSTYLE
1002
{
1070
   340
1005
10
1070
    40
1040
1.0
1002
}
  0
DIMENSION
  5
19EC4
330
1A
100
AcDbEntity
  8
SUNPOU
100
AcDbDimension
  2
*D1
 10
-517.4015747271542
 20
1634.120993269049
 30
0.0
 11
-520.9499736631642
 21
1637.364555043053
 31
0.0
 70
   160
  3
標準スタイル
100
AcDbAlignedDimension
 13
-509.2210088984589
 23
1631.620993269049
 33
0.0
 14
-508.2210088984588
 24
1634.120993269049
 34
0.0
 50
90.0
100
AcDbRotatedDimension
1001
ACAD
1000
DSTYLE
1002
{
1070
   287
1070
     5
1070
   340
1005
10
1070
    40
1040
1.0
1070
   279
1070
     2
1002
}
  0
DIMENSION
  5
19F05
330
1A
100
AcDbEntity
  8
SUNPOU
100
AcDbDimension
  2
*D2
 10
-517.4015747271542
 20
1564.120993269049
 30
0.0
 11
-520.6656162187819
 21
1560.004472419167
 31
0.0
 70
   160
  3
標準スタイル
100
AcDbAlignedDimension
 13
-496.7210088984585
 23
1566.620993269049
 33
0.0
 14
-508.2210088984588
 24
1564.120993269049
 34
0.0
 50
90.0
100
AcDbRotatedDimension
1001
ACAD
1000
DSTYLE
1002
{
1070
   287
1070
     5
1070
   340
1005
10
1070
    40
1040
1.0
1070
   279
1070
     2
1002
}
  0
DIMENSION
  5
19F2A
330
1A
100
AcDbEntity
  8
SUNPOU
100
AcDbDimension
  2
*D3
 10
-496.7210088984585
 20
1551.826155213802
 30
0.0
 11
-488.9710088984587
 21
1554.576155213802
 31
0.0
 70
    32
  3
標準スタイル
100
AcDbAlignedDimension
 13
-481.2210088984588
 23
1564.120993269049
 33
0.0
 14
-496.7210088984585
 24
1566.620993269049
 34
0.0
100
AcDbRotatedDimension
1001
ACAD
1000
DSTYLE
1002
{
1070
   340
1005
10
1070
    40
1040
1.0
1002
}
  0
DIMENSION
  5
19F37
330
1A
100
AcDbEntity
  8
SUNPOU
100
AcDbDimension
  2
*D4
 10
-509.2210088984589
 20
1542.794051562276
 30
0.0
 11
-495.2210088984588
 21
1545.544051562276
 31
0.0
 70
    32
  3
標準スタイル
100
AcDbAlignedDimension
 13
-481.2210088984588
 23
1564.120993269049
 33
0.0
 14
-509.2210088984589
 24
1565.120993269049
 34
0.0
100
AcDbRotatedDimension
1001
ACAD
1000
DSTYLE
1002
{
1070
   340
1005
10
1070
    40
1040
1.0
1002
}
  0
DIMENSION
  5
19F56
330
1A
100
AcDbEntity
  8
SUNPOU
100
AcDbDimension
  2
*D5
 10
-494.9710088984589
 20
1641.442825700586
 30
0.0
 11
-484.4710088984588
 21
1644.192825700586
 31
0.0
 70
    32
  3
標準スタイル
100
AcDbAlignedDimension
 13
-498.4710088984589
 23
1634.120993269049
 33
0.0
 14
-494.9710088984589
 24
1634.120993269049
 34
0.0
100
AcDbRotatedDimension
1001
ACAD
1000
DSTYLE
1002
{
1070
   340
1005
10
1070
    40
1040
1.0
1002
}
  0
DIMENSION
  5
19F71
330
1A
100
AcDbEntity
  8
SUNPOU
100
AcDbDimension
  2
*D6
 10
-622.563675276966
 20
1564.120993269048
 30
0.0
 11
-625.3136752769663
 21
1599.120993269048
 31
0.0
 70
    32
  3
標準スタイル
100
AcDbAlignedDimension
 13
-613.2210088984598
 23
1634.120993269048
 33
0.0
 14
-613.2210088984598
 24
1564.120993269048
 34
0.0
 50
90.0
100
AcDbRotatedDimension
1001
ACAD
1000
DSTYLE
1002
{
1070
   340
1005
10
1070
    40
1040
1.0
1002
}
  0
DIMENSION
  5
19F87
330
1A
100
AcDbEntity
  8
SUNPOU
100
AcDbDimension
  2
*D7
 10
-610.2210088984597
 20
1543.294679980461
 30
0.0
 11
-602.0543422317931
 21
1546.044679980461
 31
0.0
 70
    32
  3
標準スタイル
100
AcDbAlignedDimension
 13
-613.2210088984598
 23
1536.120993269048
 33
0.0
 14
-610.2210088984597
 24
1536.120993269048
 34
0.0
100
AcDbRotatedDimension
1001
ACAD
1000
DSTYLE
1002
{
1070
   340
1005
10
1070
    40
1040
1.0
1002
}
  0
DIMENSION
  5
19FA1
330
1A
100
AcDbEntity
  8
SUNPOU
100
AcDbDimension
  2
*D8
 10
-543.2210088984597
 20
1495.750696003934
 30
0.0
 11
-578.2210088984593
 21
1498.500696003934
 31
0.0
 70
    32
  3
標準スタイル
100
AcDbAlignedDimension
 13
-613.2210088984589
 23
1511.120993269048
 33
0.0
 14
-543.2210088984597
 24
1508.120993269048
 34
0.0
100
AcDbRotatedDimension
1001
ACAD
1000
DSTYLE
1002
{
1070
   340
1005
10
1070
    40
1040
1.0
1002
}
  0
MTEXT
  5
19FB7
330
1A
100
AcDbEntity
  8
ZISSEN1
100
AcDbMText
 10
-615.5664567672743
 20
1685.233566703279
 30
0.0
 40
5.0
 41
108.3598999999999
 71
     1
 72
     5
  1
DB-2640UA  No.SS0001f96
1001
ACAD
1000
MTEXTBEGIN
1070
    73
1070
     1
1070
    44
1040
1.0
1070
    74
1070
     0
1000
MTEXTEND
1000
MTEXTBEGIN
1070
    73
1070
     1
1070
    44
1040
1.0
1070
    74
1070
     0
1000
MTEXTEND
1000
MTEXTBEGIN
1070
    73
1070
     1
1070
    44
1040
1.0
1070
    74
1070
     0
1000
MTEXTEND
  0
LINE
  5
19FCA
330
1A
100
AcDbEntity
  8
ZISSEN1
100
AcDbLine
 10
-584.821008898459
 20
1527.820993269049
 30
0.0
 11
-584.821008898459
 21
1516.320993269049
 31
0.0
  0
LINE
  5
19FCC
330
1A
100
AcDbEntity
  8
ZISSEN1
100
AcDbLine
 10
-552.6210088984592
 20
1532.820993269049
 30
0.0
 11
-543.2210088984597
 21
1532.820993269049
 31
0.0
  0
LINE
  5
19FD9
330
1A
100
AcDbEntity
  8
ZISSEN1
100
AcDbLine
 10
-607.1986390503026
 20
1532.820993269049
 30
0.0
 11
-598.0986390503026
 21
1532.820993269049
 31
0.0
  0
LINE
  5
19FDB
330
1A
100
AcDbEntity
  8
ZISSEN1
100
AcDbLine
 10
-607.1986390503026
 20
1532.820993269049
 30
0.0
 11
-607.1986390503026
 21
1516.320993269049
 31
0.0
  0
LINE
  5
19FDC
330
1A
100
AcDbEntity
  8
ZISSEN1
100
AcDbLine
 10
-607.2210088984588
 20
1516.320993269049
 30
0.0
 11
-607.2210088984588
 21
1527.820993269049
 31
0.0
  0
DIMENSION
  5
19FED
330
1A
100
AcDbEntity
  8
ZISSEN1
100
AcDbDimension
  2
*D9
 10
-532.3211099132101
 20
1532.820993269049
 30
0.0
 11
-535.0711099132102
 21
1520.470993269048
 31
0.0
 70
    32
  1
(24.7)
  3
標準スタイル
100
AcDbAlignedDimension
 13
-543.2210088984597
 23
1508.120993269048
 33
0.0
 14
-543.2210088984597
 24
1532.820993269049
 34
0.0
 50
90.0
100
AcDbRotatedDimension
1001
ACAD
1000
DSTYLE
1002
{
1070
   340
1005
10
1070
    40
1040
1.0
1002
}
  0
LINE
  5
1A024
330
1A
100
AcDbEntity
  8
ZISSEN1
100
AcDbLine
 10
-607.2210088984588
 20
1527.820993269049
 30
0.0
 11
-607.1986390503026
 21
1527.820993269049
 31
0.0
  0
LINE
  5
1A025
330
1A
100
AcDbEntity
  8
ZISSEN1
100
AcDbLine
 10
-598.0986390503026
 20
1527.820993269049
 30
0.0
 11
-584.821008898459
 21
1527.820993269049
 31
0.0
  0
LINE
  5
1A028
330
1A
100
AcDbEntity
  8
SOUZOUSEN
100
AcDbLine
 10
-607.1986390503026
 20
1527.820993269049
 30
0.0
 11
-598.0986390503026
 21
1527.820993269049
 31
0.0
  0
VIEWPORT
  5
5D8F
330
5D8E
100
AcDbEntity
 67
     1
  8
0
100
AcDbViewport
 10
221.7773519364194
 20
157.6879887152104
 30
0.0
 40
468.5684599252842
 41
262.9519205487881
 68
     1
 69
     1
1001
ACAD
1000
MVIEW
1002
{
1070
    16
1010
0.0
1020
0.0
1030
0.0
1010
0.0
1020
0.0
1030
1.0
1040
0.0
1040
262.9519205487881
1040
221.7773519364194
1040
157.6879887152104
1040
50.0
1040
0.0
1040
0.0
1070
     0
1070
   100
1070
     1
1070
     0
1070
     0
1070
     0
1070
     0
1070
     0
1040
0.0
1040
0.0
1040
0.0
1040
1.0
1040
1.0
1040
10.0
1040
10.0
1070
     0
1002
{
1002
}
1002
}
  0
VIEWPORT
  5
6001
330
5D8E
100
AcDbEntity
 67
     1
  8
ZISSEN1
100
AcDbViewport
 10
221.7861955525412
 20
157.6960273330388
 30
0.0
 40
385.4999999999997
 41
259.9999999999999
 68
     2
 69
     2
1001
ACAD
1000
MVIEW
1002
{
1070
    16
1010
0.0
1020
0.0
1030
0.0
1010
0.0
1020
0.0
1030
1.0
1040
0.0
1040
259.9999999999999
1040
-563.0963235758908
1040
1591.313627263258
1040
50.0
1040
0.0
1040
0.0
1070
     0
1070
   100
1070
     1
1070
     0
1070
     0
1070
     0
1070
     0
1070
     0
1040
0.0
1040
0.0
1040
0.0
1040
1.0
1040
1.0
1040
10.0
1040
10.0
1070
     0
1002
{
1002
}
1002
}
  0
TEXT
  5
716F
330
5D8E
100
AcDbEntity
 67
     1
  8
SUNPOU
 62
     0
100
AcDbText
 10
374.1863124306944
 20
60.86794705907585
 30
0.0
 40
3.5
  1
縮尺 1/1
  7
ゴシック体
100
AcDbText
  0
ENDSEC
  0
SECTION
  2
OBJECTS
  0
DICTIONARY
  5
C
330
0
100
AcDbDictionary
  3
ACAD_GROUP
350
D
  3
ACAD_LAYOUT
350
5C7D
  3
ACAD_MLINESTYLE
350
E
  3
ACAD_PLOTSETTINGS
350
5C7E
  3
ACAD_PLOTSTYLENAME
350
5C7B
  3
DWGPROPS
350
12861
  3
ACDBHEADERROUNDTRIPXREC
350
1A053
  0
DICTIONARY
  5
14053
330
2
100
AcDbDictionary
280
     1
  3
ACAD_LAYERFILTERS
360
14054
  0
DICTIONARY
  5
1A073
330
1A
100
AcDbDictionary
280
     1
  3
ACAD_LAYOUTSELFREF
360
1A074
  0
DICTIONARY
  5
1A075
330
5D8E
100
AcDbDictionary
280
     1
  3
ACAD_LAYOUTSELFREF
360
1A076
  0
DICTIONARY
  5
D
102
{ACAD_REACTORS
330
C
102
}
330
C
100
AcDbDictionary
  3
*A1
350
477D
  3
*A2
350
477E
  3
*A3
350
477F
  3
*A4
350
19BD4
  3
*A5
350
4780
  3
*A6
350
4C0F
  3
*A7
350
13E2E
  3
*A8
350
19B96
  3
*A9
350
4C10
  3
*A10
350
4C11
  3
*A11
350
4C12
  3
*A12
350
19E0C
  3
*A13
350
19B1E
  3
*A14
350
4C13
  3
*A15
350
19B97
  3
*A16
350
19BD5
  3
*A17
350
19B98
  3
*A18
350
19B99
  3
*A19
350
19B9A
  3
*A20
350
19BD3
  3
*A21
350
4781
  3
*A22
350
19BD6
  3
*A23
350
19E0D
  3
*A24
350
19DAA
  3
*A25
350
4C14
  3
*A26
350
19DAB
  3
*A27
350
19DB9
  3
*A28
350
19B30
  3
*A29
350
19E69
  3
*A30
350
4C15
  3
*A31
350
4C16
  3
*A32
350
4C0E
  3
*A33
350
4C17
  0
DICTIONARY
  5
5C7D
102
{ACAD_REACTORS
330
C
102
}
330
C
100
AcDbDictionary
  0
DICTIONARY
  5
E
102
{ACAD_REACTORS
330
C
102
}
330
C
100
AcDbDictionary
  3
STANDARD
350
13
  0
DICTIONARY
  5
5C7E
102
{ACAD_REACTORS
330
C
102
}
330
C
100
AcDbDictionary
  0
ACDBDICTIONARYWDFLT
  5
5C7B
102
{ACAD_REACTORS
330
C
102
}
330
C
100
AcDbDictionary
281
     1
  3
Normal
350
5C7C
100
AcDbDictionaryWithDefault
340
5C7C
  0
XRECORD
  5
12861
102
{ACAD_REACTORS
330
C
102
}
330
C
100
AcDbXrecord
  1
DWGPROPS COOKIE
  2

  3

  4

  6

  7

  8

  9

300
=
301
=
302
=
303
=
304
=
305
=
306
=
307
=
308
=
309
=
 40
1.583646701388888
 41
2450495.493631365
 42
2455325.72058449
  1

 90
        0
  0
DICTIONARY
  5
1A053
102
{ACAD_REACTORS
330
C
102
}
330
C
100
AcDbDictionary
  3
TSTACKALIGN
350
1A054
  3
TSTACKSIZE
350
1A055
  3
HYPERLINKBASE
350
1A056
  3
STYLESHEET
350
1A057
  3
LAYOUTDICT
350
1A058
  3
PLOTSETDICT
350
1A059
  3
PLOTSTYLNAMDICT
350
1A05A
  3
LWETCUNION
350
1A05B
  3
INSUNITS
350
1A05C
  3
CEPSNTYPE
350
1A05D
  3
FINGERPRINTGUID
350
1A05E
  3
VERSIONGUID
350
1A05F
  3
PSVPSCALE
350
1A060
  3
PUCSORTHOREF
350
1A061
  3
PUCSORTHOVIEW
350
1A062
  3
PUCSBASE
350
1A063
  3
PUCSORGTOP
350
1A064
  3
PUCSORGBOTTOM
350
1A065
  3
PUCSORGLEFT
350
1A066
  3
PUCSORGRIGHT
350
1A067
  3
PUCSORGFRONT
350
1A068
  3
PUCSORGBACK
350
1A069
  3
UCSORTHOREF
350
1A06A
  3
UCSORTHOVIEW
350
1A06B
  3
UCSBASE
350
1A06C
  3
UCSORGTOP
350
1A06D
  3
UCSORGBOTTOM
350
1A06E
  3
UCSORGLEFT
350
1A06F
  3
UCSORGRIGHT
350
1A070
  3
UCSORGFRONT
350
1A071
  3
UCSORGBACK
350
1A072
  0
DICTIONARY
  5
14054
102
{ACAD_REACTORS
330
14053
102
}
330
14053
100
AcDbDictionary
280
     1
  3
BASE
360
14055
  3
CASE
360
14056
  3
KIKOU
360
14057
  0
XRECORD
  5
1A074
102
{ACAD_REACTORS
330
1A073
102
}
330
1A073
100
AcDbXrecord
340
1A
  0
XRECORD
  5
1A076
102
{ACAD_REACTORS
330
1A075
102
}
330
1A075
100
AcDbXrecord
340
5D8E
  0
GROUP
  5
477D
102
{ACAD_REACTORS
330
D
102
}
330
D
100
AcDbGroup
300

 70
     1
 71
     1
  0
GROUP
  5
477E
102
{ACAD_REACTORS
330
D
102
}
330
D
100
AcDbGroup
300

 70
     1
 71
     1
  0
GROUP
  5
477F
102
{ACAD_REACTORS
330
D
102
}
330
D
100
AcDbGroup
300

 70
     1
 71
     1
  0
GROUP
  5
19BD4
102
{ACAD_REACTORS
330
D
102
}
330
D
100
AcDbGroup
300

 70
     1
 71
     1
  0
GROUP
  5
4780
102
{ACAD_REACTORS
330
D
102
}
330
D
100
AcDbGroup
300

 70
     1
 71
     1
  0
GROUP
  5
4C0F
102
{ACAD_REACTORS
330
D
102
}
330
D
100
AcDbGroup
300

 70
     1
 71
     1
  0
GROUP
  5
13E2E
102
{ACAD_REACTORS
330
D
102
}
330
D
100
AcDbGroup
300

 70
     1
 71
     1
  0
GROUP
  5
19B96
102
{ACAD_REACTORS
330
D
102
}
330
D
100
AcDbGroup
300

 70
     1
 71
     1
  0
GROUP
  5
4C10
102
{ACAD_REACTORS
330
D
102
}
330
D
100
AcDbGroup
300

 70
     1
 71
     1
  0
GROUP
  5
4C11
102
{ACAD_REACTORS
330
D
102
}
330
D
100
AcDbGroup
300

 70
     1
 71
     1
  0
GROUP
  5
4C12
102
{ACAD_REACTORS
330
D
102
}
330
D
100
AcDbGroup
300

 70
     1
 71
     1
  0
GROUP
  5
19E0C
102
{ACAD_REACTORS
330
D
102
}
330
D
100
AcDbGroup
300

 70
     1
 71
     1
340
19E0B
340
19E07
340
19E06
340
19E05
340
19E02
340
19DFE
340
19DF8
340
19E01
340
19E00
340
19DFF
340
19DF1
340
19DEF
340
19DED
340
19E0A
340
19E09
340
19E08
340
19E04
340
19E03
340
19DFD
340
19DFC
340
19DFB
340
19DFA
340
19DF9
340
19DF7
340
19DF6
340
19DF5
340
19DF4
340
19DF3
340
19DF2
340
19DF0
340
19DEE
  0
GROUP
  5
19B1E
102
{ACAD_REACTORS
330
D
102
}
330
D
100
AcDbGroup
300

 70
     1
 71
     1
340
17F52
340
17F4F
340
17F46
340
17F4E
340
17F4D
340
17F4C
340
17F4A
340
17F49
340
17F48
340
17F47
340
17F45
340
17F51
340
17F50
340
17F4B
340
17F44
340
17F43
340
17F42
  0
GROUP
  5
4C13
102
{ACAD_REACTORS
330
D
102
}
330
D
100
AcDbGroup
300

 70
     1
 71
     1
  0
GROUP
  5
19B97
102
{ACAD_REACTORS
330
D
102
}
330
D
100
AcDbGroup
300

 70
     1
 71
     1
  0
GROUP
  5
19BD5
102
{ACAD_REACTORS
330
D
102
}
330
D
100
AcDbGroup
300

 70
     1
 71
     1
  0
GROUP
  5
19B98
102
{ACAD_REACTORS
330
D
102
}
330
D
100
AcDbGroup
300

 70
     1
 71
     1
  0
GROUP
  5
19B99
102
{ACAD_REACTORS
330
D
102
}
330
D
100
AcDbGroup
300

 70
     1
 71
     1
  0
GROUP
  5
19B9A
102
{ACAD_REACTORS
330
D
102
}
330
D
100
AcDbGroup
300

 70
     1
 71
     1
  0
GROUP
  5
19BD3
102
{ACAD_REACTORS
330
D
102
}
330
D
100
AcDbGroup
300

 70
     1
 71
     1
340
19BBE
340
19BBF
340
19BC0
340
19BC1
340
19BC2
340
19BC3
340
19BC4
340
19BC5
340
19BC6
  0
GROUP
  5
4781
102
{ACAD_REACTORS
330
D
102
}
330
D
100
AcDbGroup
300

 70
     1
 71
     1
  0
GROUP
  5
19BD6
102
{ACAD_REACTORS
330
D
102
}
330
D
100
AcDbGroup
300

 70
     1
 71
     1
  0
GROUP
  5
19E0D
102
{ACAD_REACTORS
330
D
102
}
330
D
100
AcDbGroup
300

 70
     1
 71
     1
340
19E0B
340
19E05
340
19E07
340
19E06
340
19E02
340
19DFE
340
19DF8
340
19E01
340
19E00
340
19DFF
340
19DF1
340
19DEF
340
19DED
340
19E0A
340
19E09
340
19E08
340
19E04
340
19E03
340
19DFD
340
19DFC
340
19DFB
340
19DFA
340
19DF9
340
19DF7
340
19DF6
340
19DF5
340
19DF4
340
19DF3
340
19DF2
340
19DF0
340
19DEE
  0
GROUP
  5
19DAA
102
{ACAD_REACTORS
330
D
102
}
330
D
100
AcDbGroup
300

 70
     1
 71
     1
340
19C9E
340
19C9F
340
19CA0
340
19CA1
340
19CA2
340
19CA3
  0
GROUP
  5
4C14
102
{ACAD_REACTORS
330
D
102
}
330
D
100
AcDbGroup
300

 70
     1
 71
     1
  0
GROUP
  5
19DAB
102
{ACAD_REACTORS
330
D
102
}
330
D
100
AcDbGroup
300

 70
     1
 71
     1
340
19C98
340
19C97
340
19C99
340
19C9A
340
19C9B
340
19C9C
340
19C9D
  0
GROUP
  5
19DB9
102
{ACAD_REACTORS
330
D
102
}
330
D
100
AcDbGroup
300

 70
     1
 71
     1
340
19BC6
340
19BC5
340
19BC4
340
19BC3
340
19BC2
340
19BC1
340
19BC0
340
19BBF
340
19BBE
  0
GROUP
  5
19B30
102
{ACAD_REACTORS
330
D
102
}
330
D
100
AcDbGroup
300

 70
     1
 71
     1
340
19B1F
340
19B20
340
19B21
340
19B22
340
19B23
340
19B24
340
19B25
340
19B26
340
19B27
340
19B28
340
19B29
340
19B2A
340
19B2B
340
19B2C
340
19B2D
340
19B2E
340
19B2F
  0
GROUP
  5
19E69
102
{ACAD_REACTORS
330
D
102
}
330
D
100
AcDbGroup
300

 70
     1
 71
     1
340
19BC0
340
19BBE
340
19BBF
340
17F2F
340
17F36
340
17F3B
340
17F3C
340
17F3D
340
17F3A
340
17F39
340
19BC6
340
19BC3
340
19BC1
340
17F27
340
17F2C
340
17F2D
340
17F2E
340
17F31
340
17F32
340
17F33
340
17F35
340
17F38
340
17F41
340
19BC5
340
19BC4
340
19BC2
340
17F20
340
17F21
340
17F22
340
17F23
340
17F24
340
17F30
340
17F34
340
17F37
  0
GROUP
  5
4C15
102
{ACAD_REACTORS
330
D
102
}
330
D
100
AcDbGroup
300

 70
     1
 71
     1
  0
GROUP
  5
4C16
102
{ACAD_REACTORS
330
D
102
}
330
D
100
AcDbGroup
300

 70
     1
 71
     1
  0
GROUP
  5
4C0E
102
{ACAD_REACTORS
330
D
102
}
330
D
100
AcDbGroup
300

 70
     1
 71
     1
  0
GROUP
  5
4C17
102
{ACAD_REACTORS
330
D
102
}
330
D
100
AcDbGroup
300

 70
     1
 71
     1
  0
MLINESTYLE
  5
13
102
{ACAD_REACTORS
330
E
102
}
330
E
100
AcDbMlineStyle
  2
STANDARD
 70
     0
  3

 62
     0
 51
90.0
 52
90.0
 71
     2
 49
0.5
 62
   256
  6
BYLAYER
 49
-0.5
 62
   256
  6
BYLAYER
  0
ACDBPLACEHOLDER
  5
5C7C
102
{ACAD_REACTORS
330
5C7B
102
}
330
5C7B
100
AcDbPlaceHolder
280
     0
  0
XRECORD
  5
1A054
102
{ACAD_REACTORS
330
1A053
102
}
330
1A053
100
AcDbXrecord
 90
        1
  0
XRECORD
  5
1A055
102
{ACAD_REACTORS
330
1A053
102
}
330
1A053
100
AcDbXrecord
 90
       70
  0
XRECORD
  5
1A056
102
{ACAD_REACTORS
330
1A053
102
}
330
1A053
100
AcDbXrecord
  1

  0
XRECORD
  5
1A057
102
{ACAD_REACTORS
330
1A053
102
}
330
1A053
100
AcDbXrecord
  1

  0
XRECORD
  5
1A058
102
{ACAD_REACTORS
330
1A053
102
}
330
1A053
100
AcDbXrecord
340
5C7D
  0
XRECORD
  5
1A059
102
{ACAD_REACTORS
330
1A053
102
}
330
1A053
100
AcDbXrecord
340
5C7E
  0
XRECORD
  5
1A05A
102
{ACAD_REACTORS
330
1A053
102
}
330
1A053
100
AcDbXrecord
340
5C7B
  0
XRECORD
  5
1A05B
102
{ACAD_REACTORS
330
1A053
102
}
330
1A053
100
AcDbXrecord
 90
    10781
  0
XRECORD
  5
1A05C
102
{ACAD_REACTORS
330
1A053
102
}
330
1A053
100
AcDbXrecord
 90
        0
  0
XRECORD
  5
1A05D
102
{ACAD_REACTORS
330
1A053
102
}
330
1A053
100
AcDbXrecord
 90
        0
  0
XRECORD
  5
1A05E
102
{ACAD_REACTORS
330
1A053
102
}
330
1A053
100
AcDbXrecord
  1
{225A7F0D-DA29-11D8-946A-0000E2416295}
  0
XRECORD
  5
1A05F
102
{ACAD_REACTORS
330
1A053
102
}
330
1A053
100
AcDbXrecord
  1
{FD7511E9-F5FD-4730-82E2-88EC1BB0FBA1}
  0
XRECORD
  5
1A060
102
{ACAD_REACTORS
330
1A053
102
}
330
1A053
100
AcDbXrecord
 40
0.0
  0
XRECORD
  5
1A061
102
{ACAD_REACTORS
330
1A053
102
}
330
1A053
100
AcDbXrecord
340
0
  0
XRECORD
  5
1A062
102
{ACAD_REACTORS
330
1A053
102
}
330
1A053
100
AcDbXrecord
 70
     0
  0
XRECORD
  5
1A063
102
{ACAD_REACTORS
330
1A053
102
}
330
1A053
100
AcDbXrecord
340
0
  0
XRECORD
  5
1A064
102
{ACAD_REACTORS
330
1A053
102
}
330
1A053
100
AcDbXrecord
 10
0.0
 20
0.0
 30
0.0
  0
XRECORD
  5
1A065
102
{ACAD_REACTORS
330
1A053
102
}
330
1A053
100
AcDbXrecord
 10
0.0
 20
0.0
 30
0.0
  0
XRECORD
  5
1A066
102
{ACAD_REACTORS
330
1A053
102
}
330
1A053
100
AcDbXrecord
 10
0.0
 20
0.0
 30
0.0
  0
XRECORD
  5
1A067
102
{ACAD_REACTORS
330
1A053
102
}
330
1A053
100
AcDbXrecord
 10
0.0
 20
0.0
 30
0.0
  0
XRECORD
  5
1A068
102
{ACAD_REACTORS
330
1A053
102
}
330
1A053
100
AcDbXrecord
 10
0.0
 20
0.0
 30
0.0
  0
XRECORD
  5
1A069
102
{ACAD_REACTORS
330
1A053
102
}
330
1A053
100
AcDbXrecord
 10
0.0
 20
0.0
 30
0.0
  0
XRECORD
  5
1A06A
102
{ACAD_REACTORS
330
1A053
102
}
330
1A053
100
AcDbXrecord
340
0
  0
XRECORD
  5
1A06B
102
{ACAD_REACTORS
330
1A053
102
}
330
1A053
100
AcDbXrecord
 70
     0
  0
XRECORD
  5
1A06C
102
{ACAD_REACTORS
330
1A053
102
}
330
1A053
100
AcDbXrecord
340
0
  0
XRECORD
  5
1A06D
102
{ACAD_REACTORS
330
1A053
102
}
330
1A053
100
AcDbXrecord
 10
0.0
 20
0.0
 30
0.0
  0
XRECORD
  5
1A06E
102
{ACAD_REACTORS
330
1A053
102
}
330
1A053
100
AcDbXrecord
 10
0.0
 20
0.0
 30
0.0
  0
XRECORD
  5
1A06F
102
{ACAD_REACTORS
330
1A053
102
}
330
1A053
100
AcDbXrecord
 10
0.0
 20
0.0
 30
0.0
  0
XRECORD
  5
1A070
102
{ACAD_REACTORS
330
1A053
102
}
330
1A053
100
AcDbXrecord
 10
0.0
 20
0.0
 30
0.0
  0
XRECORD
  5
1A071
102
{ACAD_REACTORS
330
1A053
102
}
330
1A053
100
AcDbXrecord
 10
0.0
 20
0.0
 30
0.0
  0
XRECORD
  5
1A072
102
{ACAD_REACTORS
330
1A053
102
}
330
1A053
100
AcDbXrecord
 10
0.0
 20
0.0
 30
0.0
  0
XRECORD
  5
14055
102
{ACAD_REACTORS
330
14054
102
}
330
14054
100
AcDbXrecord
  1
BASE
  1
BASE*
  1
*
  1
*
 70
     0
  1
*
  1
*
  0
XRECORD
  5
14056
102
{ACAD_REACTORS
330
14054
102
}
330
14054
100
AcDbXrecord
  1
CASE
  1
CASE*
  1
*
  1
*
 70
     0
  1
*
  1
*
  0
XRECORD
  5
14057
102
{ACAD_REACTORS
330
14054
102
}
330
14054
100
AcDbXrecord
  1
KIKOU
  1
KIKOU*
  1
*
  1
*
 70
     0
  1
*
  1
*
  0
ENDSEC
  0
EOF
