  0
SECTION
  2
HEADER
  9
$ACADVER
  1
AC1014
  9
$ACADMAINTVER
 70
     9
  9
$DWGCODEPAGE
  3
ANSI_932
  9
$INSBASE
 10
0.0
 20
0.0
 30
0.0
  9
$EXTMIN
 10
-1309.855559625799
 20
1521.092903975192
 30
-0.00000001
  9
$EXTMAX
 10
-1143.618320601223
 20
1689.682402445169
 30
0.00000001
  9
$LIMMIN
 10
0.0
 20
0.0
  9
$LIMMAX
 10
420.0
 20
297.0
  9
$ORTHOMODE
 70
     1
  9
$REGENMODE
 70
     1
  9
$FILLMODE
 70
     1
  9
$QTEXTMODE
 70
     0
  9
$MIRRTEXT
 70
     1
  9
$DRAGMODE
 70
     2
  9
$LTSCALE
 40
1.0
  9
$OSMODE
 70
    37
  9
$ATTMODE
 70
     1
  9
$TEXTSIZE
 40
2.5
  9
$TRACEWID
 40
1.0
  9
$TEXTSTYLE
  7
ゴシック体
  9
$CLAYER
  8
ZISSEN1
  9
$CELTYPE
  6
DASHEDX2
  9
$CECOLOR
 62
   256
  9
$CELTSCALE
 40
1.0
  9
$DELOBJ
 70
     1
  9
$DISPSILH
 70
     0
  9
$DIMSCALE
 40
0.0
  9
$DIMASZ
 40
3.0
  9
$DIMEXO
 40
0.5
  9
$DIMDLI
 40
0.5
  9
$DIMRND
 40
0.0
  9
$DIMDLE
 40
0.0
  9
$DIMEXE
 40
0.5
  9
$DIMTP
 40
0.0
  9
$DIMTM
 40
0.0
  9
$DIMTXT
 40
3.5
  9
$DIMCEN
 40
0.0
  9
$DIMTSZ
 40
0.0
  9
$DIMTOL
 70
     0
  9
$DIMLIM
 70
     0
  9
$DIMTIH
 70
     0
  9
$DIMTOH
 70
     0
  9
$DIMSE1
 70
     0
  9
$DIMSE2
 70
     0
  9
$DIMTAD
 70
     1
  9
$DIMZIN
 70
     8
  9
$DIMBLK
  1

  9
$DIMASO
 70
     1
  9
$DIMSHO
 70
     1
  9
$DIMPOST
  1

  9
$DIMAPOST
  1

  9
$DIMALT
 70
     0
  9
$DIMALTD
 70
     2
  9
$DIMALTF
 40
25.4
  9
$DIMLFAC
 40
1.0
  9
$DIMTOFL
 70
     1
  9
$DIMTVP
 40
0.0
  9
$DIMTIX
 70
     0
  9
$DIMSOXD
 70
     0
  9
$DIMSAH
 70
     0
  9
$DIMBLK1
  1

  9
$DIMBLK2
  1

  9
$DIMSTYLE
  2
標準スタイル
  9
$DIMCLRD
 70
     1
  9
$DIMCLRE
 70
     1
  9
$DIMCLRT
 70
     1
  9
$DIMTFAC
 40
1.0
  9
$DIMGAP
 40
1.0
  9
$DIMJUST
 70
     0
  9
$DIMSD1
 70
     0
  9
$DIMSD2
 70
     0
  9
$DIMTOLJ
 70
     1
  9
$DIMTZIN
 70
     8
  9
$DIMALTZ
 70
     0
  9
$DIMALTTZ
 70
     0
  9
$DIMFIT
 70
     3
  9
$DIMUPT
 70
     0
  9
$DIMUNIT
 70
     2
  9
$DIMDEC
 70
     2
  9
$DIMTDEC
 70
     2
  9
$DIMALTU
 70
     2
  9
$DIMALTTD
 70
     2
  9
$DIMTXSTY
  7
ゴシック体
  9
$DIMAUNIT
 70
     0
  9
$LUNITS
 70
     2
  9
$LUPREC
 70
     4
  9
$SKETCHINC
 40
1.0
  9
$FILLETRAD
 40
0.0
  9
$AUNITS
 70
     0
  9
$AUPREC
 70
     0
  9
$MENU
  1
.
  9
$ELEVATION
 40
0.0
  9
$PELEVATION
 40
0.0
  9
$THICKNESS
 40
0.0
  9
$LIMCHECK
 70
     0
  9
$BLIPMODE
 70
     0
  9
$CHAMFERA
 40
10.0
  9
$CHAMFERB
 40
10.0
  9
$CHAMFERC
 40
2.0
  9
$CHAMFERD
 40
0.7853981633974483
  9
$SKPOLY
 70
     0
  9
$TDCREATE
 40
2450495.493631365
  9
$TDUPDATE
 40
2455482.781520903
  9
$TDINDWG
 40
2.0060181250
  9
$TDUSRTIMER
 40
2.0060181250
  9
$USRTIMER
 70
     1
  9
$ANGBASE
 50
0.0
  9
$ANGDIR
 70
     0
  9
$PDMODE
 70
    99
  9
$PDSIZE
 40
0.0
  9
$PLINEWID
 40
0.0
  9
$COORDS
 70
     1
  9
$SPLFRAME
 70
     0
  9
$SPLINETYPE
 70
     6
  9
$SPLINESEGS
 70
     8
  9
$ATTDIA
 70
     0
  9
$ATTREQ
 70
     1
  9
$HANDLING
 70
 10241
  9
$HANDSEED
  5
13605
  9
$SURFTAB1
 70
     6
  9
$SURFTAB2
 70
     6
  9
$SURFTYPE
 70
     6
  9
$SURFU
 70
     6
  9
$SURFV
 70
     6
  9
$UCSNAME
  2

  9
$UCSORG
 10
0.0
 20
0.0
 30
0.0
  9
$UCSXDIR
 10
1.0
 20
0.0
 30
0.0
  9
$UCSYDIR
 10
0.0
 20
1.0
 30
0.0
  9
$PUCSNAME
  2

  9
$PUCSORG
 10
0.0
 20
0.0
 30
0.0
  9
$PUCSXDIR
 10
1.0
 20
0.0
 30
0.0
  9
$PUCSYDIR
 10
0.0
 20
1.0
 30
0.0
  9
$USERI1
 70
     0
  9
$USERI2
 70
     0
  9
$USERI3
 70
     0
  9
$USERI4
 70
     0
  9
$USERI5
 70
     0
  9
$USERR1
 40
0.0
  9
$USERR2
 40
0.0
  9
$USERR3
 40
0.0
  9
$USERR4
 40
0.0
  9
$USERR5
 40
0.0
  9
$WORLDVIEW
 70
     1
  9
$SHADEDGE
 70
     3
  9
$SHADEDIF
 70
    70
  9
$TILEMODE
 70
     0
  9
$MAXACTVP
 70
    16
  9
$PINSBASE
 10
0.0
 20
0.0
 30
0.0
  9
$PLIMCHECK
 70
     0
  9
$PEXTMIN
 10
29.03619555254135
 20
27.69602733303884
 30
0.0
  9
$PEXTMAX
 10
414.5361955525411
 20
287.6960273330388
 30
0.0
  9
$PLIMMIN
 10
15.15433780389673
 20
13.80781516542163
  9
$PLIMMAX
 10
435.1009930773342
 20
310.8184658001872
  9
$UNITMODE
 70
     0
  9
$VISRETAIN
 70
     0
  9
$PLINEGEN
 70
     0
  9
$PSLTSCALE
 70
     1
  9
$TREEDEPTH
 70
  3020
  9
$PICKSTYLE
 70
     1
  9
$CMLSTYLE
  2
STANDARD
  9
$CMLJUST
 70
     0
  9
$CMLSCALE
 40
1.0
  9
$PROXYGRAPHICS
 70
     1
  9
$MEASUREMENT
 70
     1
  0
ENDSEC
  0
SECTION
  2
CLASSES
  0
CLASS
  1
LWPOLYLINE
  2
AcDbPolyline
  3
AutoCAD 2000
 90
        0
280
     0
281
     1
  0
CLASS
  1
HATCH
  2
AcDbHatch
  3
AutoCAD 2000
 90
        0
280
     0
281
     1
  0
CLASS
  1
ACDBDICTIONARYWDFLT
  2
AcDbDictionaryWithDefault
  3
AutoCAD 2000
 90
        0
280
     0
281
     0
  0
CLASS
  1
ACDBPLACEHOLDER
  2
AcDbPlaceHolder
  3
AutoCAD 2000
 90
        0
280
     0
281
     0
  0
CLASS
  1
LAYOUT
  2
AcDbLayout
  3
AutoCAD 2000
 90
        0
280
     0
281
     0
  0
CLASS
  1
DICTIONARYVAR
  2
AcDbDictionaryVar
  3
AutoCAD 2000
 90
        0
280
     0
281
     0
  0
CLASS
  1
LONG_TRANSACTION
  2
AcDbLongTransaction
  3
AutoCAD 2000
 90
        0
280
     0
281
     0
  0
CLASS
  1
LWPOLYLINE
  2
AcDbPolyline
  3
AutoCAD 2000
 90
        0
280
     0
281
     1
  0
CLASS
  1
HATCH
  2
AcDbHatch
  3
AutoCAD 2000
 90
        0
280
     0
281
     1
  0
CLASS
  1
XRECORD
  2
AcDbXrecord
  3
AutoCAD 2000
 90
        0
280
     0
281
     0
  0
ENDSEC
  0
SECTION
  2
TABLES
  0
TABLE
  2
VPORT
  5
8
330
0
100
AcDbSymbolTable
 70
     1
  0
VPORT
  5
135DA
330
8
100
AcDbSymbolTableRecord
100
AcDbViewportTableRecord
  2
*ACTIVE
 70
     0
 10
0.0
 20
0.0
 11
1.0
 21
1.0
 12
-1226.762519067819
 22
1605.360716938747
 13
0.0
 23
0.0
 14
5.0
 24
5.0
 15
0.0
 25
0.0
 16
0.0
 26
0.0
 36
1.0
 17
0.0
 27
0.0
 37
0.0
 40
170.6284402367459
 41
1.741154562383612
 42
50.0
 43
0.0
 44
0.0
 50
0.0
 51
0.0
 71
     0
 72
   100
 73
     1
 74
     0
 75
     0
 76
     0
 77
     0
 78
     0
  0
ENDTAB
  0
TABLE
  2
LTYPE
  5
5
330
0
100
AcDbSymbolTable
 70
     4
  0
LTYPE
  5
14
330
5
100
AcDbSymbolTableRecord
100
AcDbLinetypeTableRecord
  2
BYBLOCK
 70
     0
  3

 72
    65
 73
     0
 40
0.0
  0
LTYPE
  5
15
330
5
100
AcDbSymbolTableRecord
100
AcDbLinetypeTableRecord
  2
BYLAYER
 70
     0
  3

 72
    65
 73
     0
 40
0.0
  0
LTYPE
  5
16
330
5
100
AcDbSymbolTableRecord
100
AcDbLinetypeTableRecord
  2
CONTINUOUS
 70
     0
  3
Solid line
 72
    65
 73
     0
 40
0.0
  0
LTYPE
  5
329
330
5
100
AcDbSymbolTableRecord
100
AcDbLinetypeTableRecord
  2
DASHEDX2
 70
     0
  3
____  ____  ____  ____  ____  ____  ____  ____ 
 72
    65
 73
     2
 40
1.5
 49
1.0
 74
     0
 49
-0.5
 74
     0
  0
LTYPE
  5
1956
330
5
100
AcDbSymbolTableRecord
100
AcDbLinetypeTableRecord
  2
CENTERX2
 70
     0
  3
________  __  ________  __  ________  __  _____
 72
    65
 73
     4
 40
4.0
 49
2.5
 74
     0
 49
-0.5
 74
     0
 49
0.5
 74
     0
 49
-0.5
 74
     0
  0
LTYPE
  5
1958
330
5
100
AcDbSymbolTableRecord
100
AcDbLinetypeTableRecord
  2
PHANTOMX2
 70
     0
  3
____________    ____    ____    ____________   
 72
    65
 73
     6
 40
5.0
 49
2.5
 74
     0
 49
-0.5
 74
     0
 49
0.5
 74
     0
 49
-0.5
 74
     0
 49
0.5
 74
     0
 49
-0.5
 74
     0
  0
ENDTAB
  0
TABLE
  2
LAYER
  5
2
102
{ACAD_XDICTIONARY
360
12867
102
}
330
0
100
AcDbSymbolTable
 70
     7
  0
LAYER
  5
F
330
2
100
AcDbSymbolTableRecord
100
AcDbLayerTableRecord
  2
0
 70
     0
 62
     7
  6
CONTINUOUS
  0
LAYER
  5
18F
330
2
100
AcDbSymbolTableRecord
100
AcDbLayerTableRecord
  2
ZISSEN1
 70
     0
 62
     7
  6
CONTINUOUS
  0
LAYER
  5
529
330
2
100
AcDbSymbolTableRecord
100
AcDbLayerTableRecord
  2
SUNPOU
 70
     0
 62
     1
  6
CONTINUOUS
  0
LAYER
  5
1959
330
2
100
AcDbSymbolTableRecord
100
AcDbLayerTableRecord
  2
KAKURESEN1
 70
     0
 62
     3
  6
DASHEDX2
  0
LAYER
  5
195A
330
2
100
AcDbSymbolTableRecord
100
AcDbLayerTableRecord
  2
CL1
 70
     0
 62
   210
  6
CENTERX2
  0
LAYER
  5
195C
330
2
100
AcDbSymbolTableRecord
100
AcDbLayerTableRecord
  2
SOUZOUSEN
 70
     0
 62
     5
  6
PHANTOMX2
  0
LAYER
  5
3A9B
330
2
100
AcDbSymbolTableRecord
100
AcDbLayerTableRecord
  2
DEFPOINTS
 70
     0
 62
     7
  6
CONTINUOUS
  0
ENDTAB
  0
TABLE
  2
STYLE
  5
3
330
0
100
AcDbSymbolTable
 70
     2
  0
STYLE
  5
10
330
3
100
AcDbSymbolTableRecord
100
AcDbTextStyleTableRecord
  2
STANDARD
 70
     0
 40
0.0
 41
1.0
 50
0.0
 71
     0
 42
3.0
  3
txt
  4
BigFont
  0
STYLE
  5
1960
330
3
100
AcDbSymbolTableRecord
100
AcDbTextStyleTableRecord
  2
ゴシック体
 70
     0
 40
0.0
 41
1.0
 50
0.0
 71
     0
 42
2.5
  3
MS Gothic.ttf
  4

1001
ACAD
1000
MS Gothic
1071
    32817
  0
ENDTAB
  0
TABLE
  2
VIEW
  5
6
330
0
100
AcDbSymbolTable
 70
     0
  0
ENDTAB
  0
TABLE
  2
UCS
  5
7
330
0
100
AcDbSymbolTable
 70
     0
  0
ENDTAB
  0
TABLE
  2
APPID
  5
9
330
0
100
AcDbSymbolTable
 70
     5
  0
APPID
  5
11
330
9
100
AcDbSymbolTableRecord
100
AcDbRegAppTableRecord
  2
ACAD
 70
     0
  0
APPID
  5
4005
330
9
100
AcDbSymbolTableRecord
100
AcDbRegAppTableRecord
  2
CONTENTTABDATA
 70
     0
  0
APPID
  5
4006
330
9
100
AcDbSymbolTableRecord
100
AcDbRegAppTableRecord
  2
CONTENTCURRENTTAB
 70
     0
  0
APPID
  5
477B
330
9
100
AcDbSymbolTableRecord
100
AcDbRegAppTableRecord
  2
CONTENTBLOCKDESCRIPTION
 70
     0
  0
APPID
  5
477C
330
9
100
AcDbSymbolTableRecord
100
AcDbRegAppTableRecord
  2
CONTENTBLOCKICON
 70
     0
  0
ENDTAB
  0
TABLE
  2
DIMSTYLE
  5
A
330
0
100
AcDbSymbolTable
 70
     2
  0
DIMSTYLE
105
1D
330
A
100
AcDbSymbolTableRecord
100
AcDbDimStyleTableRecord
  2
STANDARD
 70
     0
  3

  4

  5

  6

  7

 40
1.0
 41
0.18
 42
0.0625
 43
0.38
 44
0.18
 45
0.0
 46
0.0
 47
0.0
 48
0.0
140
0.18
141
0.09
142
0.0
143
25.4
144
1.0
145
0.0
146
1.0
147
0.09
 71
     0
 72
     0
 73
     1
 74
     1
 75
     0
 76
     0
 77
     0
 78
     0
170
     0
171
     2
172
     0
173
     0
174
     0
175
     0
176
     0
177
     0
178
     0
270
     2
271
     4
272
     4
273
     2
274
     2
340
10
275
     0
280
     0
281
     0
282
     0
283
     1
284
     0
285
     0
286
     0
287
     3
288
     0
  0
DIMSTYLE
105
52E
102
{ACAD_REACTORS
330
12BA2
330
12BA4
330
12BB4
330
12E40
330
12F77
102
}
330
A
100
AcDbSymbolTableRecord
100
AcDbDimStyleTableRecord
  2
標準スタイル
 70
     0
  3

  4

  5

  6

  7

 40
0.0
 41
3.0
 42
0.5
 43
0.5
 44
0.5
 45
0.0
 46
0.0
 47
0.0
 48
0.0
140
3.5
141
0.0
142
0.0
143
25.4
144
1.0
145
0.0
146
1.0
147
1.0
 71
     0
 72
     0
 73
     0
 74
     0
 75
     0
 76
     0
 77
     1
 78
     8
170
     0
171
     2
172
     1
173
     0
174
     0
175
     0
176
     1
177
     1
178
     1
270
     2
271
     2
272
     2
273
     2
274
     2
340
1960
275
     0
280
     0
281
     0
282
     0
283
     1
284
     8
285
     0
286
     0
287
     3
288
     0
  0
ENDTAB
  0
TABLE
  2
BLOCK_RECORD
  5
1
330
0
100
AcDbSymbolTable
 70
     5
  0
BLOCK_RECORD
  5
1A
102
{ACAD_XDICTIONARY
360
13601
102
}
330
1
100
AcDbSymbolTableRecord
100
AcDbBlockTableRecord
  2
*MODEL_SPACE
  0
BLOCK_RECORD
  5
5D8E
102
{ACAD_XDICTIONARY
360
13603
102
}
330
1
100
AcDbSymbolTableRecord
100
AcDbBlockTableRecord
  2
*PAPER_SPACE
  0
BLOCK_RECORD
  5
12E41
330
1
100
AcDbSymbolTableRecord
100
AcDbBlockTableRecord
  2
*D0
  0
BLOCK_RECORD
  5
12E4D
330
1
100
AcDbSymbolTableRecord
100
AcDbBlockTableRecord
  2
*D1
  0
BLOCK_RECORD
  5
12E59
330
1
100
AcDbSymbolTableRecord
100
AcDbBlockTableRecord
  2
*D2
  0
BLOCK_RECORD
  5
12E71
330
1
100
AcDbSymbolTableRecord
100
AcDbBlockTableRecord
  2
*D3
  0
BLOCK_RECORD
  5
12F78
330
1
100
AcDbSymbolTableRecord
100
AcDbBlockTableRecord
  2
*D4
  0
ENDTAB
  0
ENDSEC
  0
SECTION
  2
BLOCKS
  0
BLOCK
  5
1B
330
1A
100
AcDbEntity
  8
0
100
AcDbBlockBegin
  2
*MODEL_SPACE
 70
     0
 10
0.0
 20
0.0
 30
0.0
  3
*MODEL_SPACE
  1

  0
ENDBLK
  5
1C
330
1A
100
AcDbEntity
  8
0
100
AcDbBlockEnd
  0
BLOCK
  5
5E60
330
5D8E
100
AcDbEntity
 67
     1
  8
0
100
AcDbBlockBegin
  2
*PAPER_SPACE
 70
     0
 10
0.0
 20
0.0
 30
0.0
  3
*PAPER_SPACE
  1

  0
ENDBLK
  5
5E61
330
5D8E
100
AcDbEntity
 67
     1
  8
0
100
AcDbBlockEnd
  0
BLOCK
  5
12E4B
330
12E41
100
AcDbEntity
  8
0
100
AcDbBlockBegin
  2
*D0
 70
     1
 10
0.0
 20
0.0
 30
0.0
  3
*D0
  1

  0
LINE
  5
13591
330
12E41
100
AcDbEntity
  8
SUNPOU
 62
     0
100
AcDbLine
 10
-1241.094269027476
 20
1578.043993988808
 30
0.0
 11
-1224.005920180514
 21
1578.043993988808
 31
0.0
  0
LINE
  5
13592
330
12E41
100
AcDbEntity
  8
SUNPOU
 62
     0
100
AcDbLine
 10
-1241.094269027477
 20
1646.043993759161
 30
0.0
 11
-1224.005920180514
 21
1646.043993759161
 31
0.0
  0
LINE
  5
13593
330
12E41
100
AcDbEntity
  8
SUNPOU
 62
     0
100
AcDbLine
 10
-1224.505920180514
 20
1581.043993988808
 30
0.0
 11
-1224.505920180514
 21
1643.043993759162
 31
0.0
  0
SOLID
  5
13594
330
12E41
100
AcDbEntity
  8
SUNPOU
 62
     0
100
AcDbTrace
 10
-1225.005920180514
 20
1581.043993988808
 30
0.0
 11
-1224.005920180514
 21
1581.043993988808
 31
0.0
 12
-1224.505920180514
 22
1578.043993988808
 32
0.0
 13
-1224.505920180514
 23
1578.043993988808
 33
0.0
  0
SOLID
  5
13595
330
12E41
100
AcDbEntity
  8
SUNPOU
 62
     0
100
AcDbTrace
 10
-1225.005920180514
 20
1643.043993759162
 30
0.0
 11
-1224.005920180514
 21
1643.043993759162
 31
0.0
 12
-1224.505920180514
 22
1646.043993759161
 32
0.0
 13
-1224.505920180514
 23
1646.043993759161
 33
0.0
  0
MTEXT
  5
13596
330
12E41
100
AcDbEntity
  8
SUNPOU
 62
     0
100
AcDbMText
 10
-1227.255920180514
 20
1612.044182373984
 30
0.0
 40
3.5
 41
0.0
 71
     5
 72
     1
  1
\A1;68
 11
0.0000000000000001
 21
1.0
 31
0.0
1001
ACAD
1000
MTEXTBEGIN
1070
    73
1070
     1
1070
    44
1040
1.0
1070
    74
1070
     0
1000
MTEXTEND
  0
POINT
  5
13597
330
12E41
100
AcDbEntity
  8
DEFPOINTS
 62
     0
100
AcDbPoint
 10
-1241.594269027476
 20
1578.043993988808
 30
0.0
  0
POINT
  5
13598
330
12E41
100
AcDbEntity
  8
DEFPOINTS
 62
     0
100
AcDbPoint
 10
-1241.594269027477
 20
1646.043993759161
 30
0.0
  0
POINT
  5
13599
330
12E41
100
AcDbEntity
  8
DEFPOINTS
 62
     0
100
AcDbPoint
 10
-1224.505920180514
 20
1646.043993759161
 30
0.0
  0
ENDBLK
  5
12E4C
330
12E41
100
AcDbEntity
  8
0
100
AcDbBlockEnd
  0
BLOCK
  5
12E57
330
12E4D
100
AcDbEntity
  8
0
100
AcDbBlockBegin
  2
*D1
 70
     1
 10
0.0
 20
0.0
 30
0.0
  3
*D1
  1

  0
LINE
  5
1357F
330
12E4D
100
AcDbEntity
  8
SUNPOU
 62
     0
100
AcDbLine
 10
-1242.098684178631
 20
1643.043993759162
 30
0.0
 11
-1234.729869598653
 21
1643.043993759162
 31
0.0
  0
LINE
  5
13580
330
12E4D
100
AcDbEntity
  8
SUNPOU
 62
     0
100
AcDbLine
 10
-1241.39455497392
 20
1581.043993988808
 30
0.0
 11
-1234.729869598653
 21
1581.043993988808
 31
0.0
  0
LINE
  5
13581
330
12E4D
100
AcDbEntity
  8
SUNPOU
 62
     0
100
AcDbLine
 10
-1235.229869598653
 20
1640.043993759162
 30
0.0
 11
-1235.229869598653
 21
1584.043993988808
 31
0.0
  0
SOLID
  5
13582
330
12E4D
100
AcDbEntity
  8
SUNPOU
 62
     0
100
AcDbTrace
 10
-1235.729869598653
 20
1640.043993759162
 30
0.0
 11
-1234.729869598653
 21
1640.043993759162
 31
0.0
 12
-1235.229869598653
 22
1643.043993759162
 32
0.0
 13
-1235.229869598653
 23
1643.043993759162
 33
0.0
  0
SOLID
  5
13583
330
12E4D
100
AcDbEntity
  8
SUNPOU
 62
     0
100
AcDbTrace
 10
-1235.729869598653
 20
1584.043993988808
 30
0.0
 11
-1234.729869598653
 21
1584.043993988808
 31
0.0
 12
-1235.229869598653
 22
1581.043993988808
 32
0.0
 13
-1235.229869598653
 23
1581.043993988808
 33
0.0
  0
MTEXT
  5
13584
330
12E4D
100
AcDbEntity
  8
SUNPOU
 62
     0
100
AcDbMText
 10
-1237.979869598654
 20
1612.044182373984
 30
0.0
 40
3.5
 41
0.0
 71
     5
 72
     1
  1
\A1;62
 11
0.0000000000000001
 21
1.0
 31
0.0
1001
ACAD
1000
MTEXTBEGIN
1070
    73
1070
     1
1070
    44
1040
1.0
1070
    74
1070
     0
1000
MTEXTEND
  0
POINT
  5
13585
330
12E4D
100
AcDbEntity
  8
DEFPOINTS
 62
     0
100
AcDbPoint
 10
-1242.598684178631
 20
1643.043993759162
 30
0.0
  0
POINT
  5
13586
330
12E4D
100
AcDbEntity
  8
DEFPOINTS
 62
     0
100
AcDbPoint
 10
-1241.89455497392
 20
1581.043993988808
 30
0.0
  0
POINT
  5
13587
330
12E4D
100
AcDbEntity
  8
DEFPOINTS
 62
     0
100
AcDbPoint
 10
-1235.229869598653
 20
1581.043993988808
 30
0.0
  0
ENDBLK
  5
12E58
330
12E4D
100
AcDbEntity
  8
0
100
AcDbBlockEnd
  0
BLOCK
  5
12E63
330
12E59
100
AcDbEntity
  8
0
100
AcDbBlockBegin
  2
*D2
 70
     1
 10
0.0
 20
0.0
 30
0.0
  3
*D2
  1

  0
LINE
  5
135AC
330
12E59
100
AcDbEntity
  8
SUNPOU
 62
     0
100
AcDbLine
 10
-1268.781306319865
 20
1578.361892255801
 30
0.0
 11
-1268.781306319865
 21
1557.802045879392
 31
0.0
  0
LINE
  5
135AD
330
12E59
100
AcDbEntity
  8
SUNPOU
 62
     0
100
AcDbLine
 10
-1241.781306319865
 20
1578.361892255801
 30
0.0
 11
-1241.781306319865
 21
1557.802045879392
 31
0.0
  0
LINE
  5
135AE
330
12E59
100
AcDbEntity
  8
SUNPOU
 62
     0
100
AcDbLine
 10
-1265.781306319865
 20
1558.302045879392
 30
0.0
 11
-1244.781306319864
 21
1558.302045879392
 31
0.0
  0
SOLID
  5
135AF
330
12E59
100
AcDbEntity
  8
SUNPOU
 62
     0
100
AcDbTrace
 10
-1265.781306319865
 20
1558.802045879392
 30
0.0
 11
-1265.781306319865
 21
1557.802045879392
 31
0.0
 12
-1268.781306319865
 22
1558.302045879392
 32
0.0
 13
-1268.781306319865
 23
1558.302045879392
 33
0.0
  0
SOLID
  5
135B0
330
12E59
100
AcDbEntity
  8
SUNPOU
 62
     0
100
AcDbTrace
 10
-1244.781306319864
 20
1558.802045879392
 30
0.0
 11
-1244.781306319864
 21
1557.802045879392
 31
0.0
 12
-1241.781306319865
 22
1558.302045879392
 32
0.0
 13
-1241.781306319865
 23
1558.302045879392
 33
0.0
  0
MTEXT
  5
135B1
330
12E59
100
AcDbEntity
  8
SUNPOU
 62
     0
100
AcDbMText
 10
-1255.281306319864
 20
1561.052045879392
 30
0.0
 40
3.5
 41
0.0
 71
     5
 72
     1
  1
\A1;27
1001
ACAD
1000
MTEXTBEGIN
1070
    73
1070
     1
1070
    44
1040
1.0
1070
    74
1070
     0
1000
MTEXTEND
  0
POINT
  5
135B2
330
12E59
100
AcDbEntity
  8
DEFPOINTS
 62
     0
100
AcDbPoint
 10
-1268.781306319865
 20
1578.861892255801
 30
0.0
  0
POINT
  5
135B3
330
12E59
100
AcDbEntity
  8
DEFPOINTS
 62
     0
100
AcDbPoint
 10
-1241.781306319865
 20
1578.861892255801
 30
0.0
  0
POINT
  5
135B4
330
12E59
100
AcDbEntity
  8
DEFPOINTS
 62
     0
100
AcDbPoint
 10
-1241.781306319865
 20
1558.302045879392
 30
0.0
  0
ENDBLK
  5
12E64
330
12E59
100
AcDbEntity
  8
0
100
AcDbBlockEnd
  0
BLOCK
  5
12E7B
330
12E71
100
AcDbEntity
  8
0
100
AcDbBlockBegin
  2
*D3
 70
     1
 10
0.0
 20
0.0
 30
0.0
  3
*D3
  1

  0
LINE
  5
135BE
330
12E71
100
AcDbEntity
  8
SUNPOU
 62
     0
100
AcDbLine
 10
-1183.781306319865
 20
1646.543993988808
 30
0.0
 11
-1183.781306319865
 21
1651.516210800044
 31
0.0
  0
LINE
  5
135BF
330
12E71
100
AcDbEntity
  8
SUNPOU
 62
     0
100
AcDbLine
 10
-1207.281306319864
 20
1620.246564596159
 30
0.0
 11
-1207.281306319864
 21
1651.516210800044
 31
0.0
  0
LINE
  5
135C0
330
12E71
100
AcDbEntity
  8
SUNPOU
 62
     0
100
AcDbLine
 10
-1186.781306319864
 20
1651.016210800044
 30
0.0
 11
-1204.281306319864
 21
1651.016210800044
 31
0.0
  0
SOLID
  5
135C1
330
12E71
100
AcDbEntity
  8
SUNPOU
 62
     0
100
AcDbTrace
 10
-1186.781306319864
 20
1651.516210800044
 30
0.0
 11
-1186.781306319864
 21
1650.516210800044
 31
0.0
 12
-1183.781306319865
 22
1651.016210800044
 32
0.0
 13
-1183.781306319865
 23
1651.016210800044
 33
0.0
  0
SOLID
  5
135C2
330
12E71
100
AcDbEntity
  8
SUNPOU
 62
     0
100
AcDbTrace
 10
-1204.281306319864
 20
1651.516210800044
 30
0.0
 11
-1204.281306319864
 21
1650.516210800044
 31
0.0
 12
-1207.281306319864
 22
1651.016210800044
 32
0.0
 13
-1207.281306319864
 23
1651.016210800044
 33
0.0
  0
MTEXT
  5
135C3
330
12E71
100
AcDbEntity
  8
SUNPOU
 62
     0
100
AcDbMText
 10
-1195.531306319864
 20
1653.766210800044
 30
0.0
 40
3.5
 41
0.0
 71
     5
 72
     1
  1
\A1;23.5
1001
ACAD
1000
MTEXTBEGIN
1070
    73
1070
     1
1070
    44
1040
1.0
1070
    74
1070
     0
1000
MTEXTEND
  0
POINT
  5
135C4
330
12E71
100
AcDbEntity
  8
DEFPOINTS
 62
     0
100
AcDbPoint
 10
-1183.781306319865
 20
1646.043993988808
 30
0.0
  0
POINT
  5
135C5
330
12E71
100
AcDbEntity
  8
DEFPOINTS
 62
     0
100
AcDbPoint
 10
-1207.281306319864
 20
1619.74656459616
 30
0.0
  0
POINT
  5
135C6
330
12E71
100
AcDbEntity
  8
DEFPOINTS
 62
     0
100
AcDbPoint
 10
-1207.281306319864
 20
1651.016210800044
 30
0.0
  0
ENDBLK
  5
12E7C
330
12E71
100
AcDbEntity
  8
0
100
AcDbBlockEnd
  0
BLOCK
  5
12F82
330
12F78
100
AcDbEntity
  8
0
100
AcDbBlockBegin
  2
*D4
 70
     1
 10
0.0
 20
0.0
 30
0.0
  3
*D4
  1

  0
LINE
  5
1359A
330
12F78
100
AcDbEntity
  8
SUNPOU
 62
     1
100
AcDbLine
 10
-1265.781306319865
 20
1580.543616988808
 30
0.0
 11
-1265.781306319865
 21
1570.151123959848
 31
0.0
  0
LINE
  5
1359B
330
12F78
100
AcDbEntity
  8
SUNPOU
 62
     1
100
AcDbLine
 10
-1244.781306319865
 20
1642.543993759161
 30
0.0
 11
-1244.781306319865
 21
1570.151123959848
 31
0.0
  0
LINE
  5
1359C
330
12F78
100
AcDbEntity
  8
SUNPOU
 62
     1
100
AcDbLine
 10
-1262.781306319865
 20
1570.651123959848
 30
0.0
 11
-1247.781306319865
 21
1570.651123959848
 31
0.0
  0
SOLID
  5
1359D
330
12F78
100
AcDbEntity
  8
SUNPOU
 62
     1
100
AcDbTrace
 10
-1262.781306319865
 20
1571.151123959849
 30
0.0
 11
-1262.781306319865
 21
1570.151123959848
 31
0.0
 12
-1265.781306319865
 22
1570.651123959848
 32
0.0
 13
-1265.781306319865
 23
1570.651123959848
 33
0.0
  0
SOLID
  5
1359E
330
12F78
100
AcDbEntity
  8
SUNPOU
 62
     1
100
AcDbTrace
 10
-1247.781306319865
 20
1571.151123959849
 30
0.0
 11
-1247.781306319865
 21
1570.151123959848
 31
0.0
 12
-1244.781306319865
 22
1570.651123959848
 32
0.0
 13
-1244.781306319865
 23
1570.651123959848
 33
0.0
  0
MTEXT
  5
1359F
330
12F78
100
AcDbEntity
  8
SUNPOU
 62
     1
100
AcDbMText
 10
-1255.281306319865
 20
1573.401123959848
 30
0.0
 40
3.5
 41
0.0
 71
     5
 72
     1
  1
\A1;21
1001
ACAD
1000
MTEXTBEGIN
1070
    73
1070
     1
1070
    44
1040
1.0
1070
    74
1070
     0
1000
MTEXTEND
  0
POINT
  5
135A0
330
12F78
100
AcDbEntity
  8
DEFPOINTS
 62
     0
100
AcDbPoint
 10
-1265.781306319865
 20
1581.043616988808
 30
0.0
  0
POINT
  5
135A1
330
12F78
100
AcDbEntity
  8
DEFPOINTS
 62
     0
100
AcDbPoint
 10
-1244.781306319865
 20
1643.043993759162
 30
0.0
  0
POINT
  5
135A2
330
12F78
100
AcDbEntity
  8
DEFPOINTS
 62
     0
100
AcDbPoint
 10
-1244.781306319865
 20
1570.651123959848
 30
0.0
  0
ENDBLK
  5
12F83
330
12F78
100
AcDbEntity
  8
0
100
AcDbBlockEnd
  0
ENDSEC
  0
SECTION
  2
ENTITIES
  0
MTEXT
  5
5084
330
1A
100
AcDbEntity
  8
0
100
AcDbMText
 10
1985.239088685435
 20
-948.5420423450428
 30
0.0
 40
8.0
 41
0.0
 71
     7
 72
     5
  1

1001
ACAD
1000
MTEXTBEGIN
1070
    73
1070
     1
1070
    44
1040
1.0
1070
    74
1070
     0
1000
MTEXTEND
  0
MTEXT
  5
5085
330
1A
100
AcDbEntity
  8
0
100
AcDbMText
 10
4270.596778580329
 20
22.24825240601649
 30
0.0
 40
8.0
 41
0.0
 71
     7
 72
     5
  1

1001
ACAD
1000
MTEXTBEGIN
1070
    73
1070
     1
1070
    44
1040
1.0
1070
    74
1070
     0
1000
MTEXTEND
  0
MTEXT
  5
5343
330
1A
100
AcDbEntity
  8
SUNPOU
100
AcDbMText
 10
6936.493799262471
 20
9534.359644781135
 30
0.0
 40
10.5
 41
0.0
 71
     1
 72
     5
  1

1001
ACAD
1000
MTEXTBEGIN
1070
    73
1070
     1
1070
    44
1040
1.0
1070
    74
1070
     0
1000
MTEXTEND
  0
MTEXT
  5
544F
330
1A
100
AcDbEntity
  8
0
100
AcDbMText
 10
16317.2832773148
 20
12833.35428897674
 30
0.0
 40
8.0
 41
0.0
 71
     7
 72
     5
  1

1001
ACAD
1000
MTEXTBEGIN
1070
    73
1070
     1
1070
    44
1040
1.0
1070
    74
1070
     0
1000
MTEXTEND
  0
MTEXT
  5
5450
330
1A
100
AcDbEntity
  8
0
100
AcDbMText
 10
18602.64096720969
 20
13804.1445837278
 30
0.0
 40
8.0
 41
0.0
 71
     7
 72
     5
  1

1001
ACAD
1000
MTEXTBEGIN
1070
    73
1070
     1
1070
    44
1040
1.0
1070
    74
1070
     0
1000
MTEXTEND
  0
MTEXT
  5
5451
330
1A
100
AcDbEntity
  8
SUNPOU
100
AcDbMText
 10
21268.53798789184
 20
23316.25597610292
 30
0.0
 40
10.5
 41
0.0
 71
     1
 72
     5
  1

1001
ACAD
1000
MTEXTBEGIN
1070
    73
1070
     1
1070
    44
1040
1.0
1070
    74
1070
     0
1000
MTEXTEND
  0
MTEXT
  5
5452
330
1A
100
AcDbEntity
  8
SUNPOU
100
AcDbMText
 10
13337.6147919559
 20
22369.46284218996
 30
0.0
 40
10.5
 41
0.0
 71
     7
 72
     5
  1

1001
ACAD
1000
MTEXTBEGIN
1070
    73
1070
     1
1070
    44
1040
1.0
1070
    74
1070
     0
1000
MTEXTEND
  0
MTEXT
  5
5453
330
1A
100
AcDbEntity
  8
SUNPOU
100
AcDbMText
 10
16286.59845646867
 20
27270.13891403281
 30
0.0
 40
10.5
 41
0.0
 71
     7
 72
     5
  1

1001
ACAD
1000
MTEXTBEGIN
1070
    73
1070
     1
1070
    44
1040
1.0
1070
    74
1070
     0
1000
MTEXTEND
  0
MTEXT
  5
5454
330
1A
100
AcDbEntity
  8
SUNPOU
100
AcDbMText
 10
20795.67658441924
 20
29706.43966165288
 30
0.0
 40
10.5
 41
0.0
 71
     7
 72
     5
  1

1001
ACAD
1000
MTEXTBEGIN
1070
    73
1070
     1
1070
    44
1040
1.0
1070
    74
1070
     0
1000
MTEXTEND
  0
MTEXT
  5
5455
330
1A
100
AcDbEntity
  8
0
100
AcDbMText
 10
16611.93789220314
 20
14707.52144344448
 30
0.0
 40
8.0
 41
0.0
 71
     7
 72
     5
  1

1001
ACAD
1000
MTEXTBEGIN
1070
    73
1070
     1
1070
    44
1040
1.0
1070
    74
1070
     0
1000
MTEXTEND
  0
MTEXT
  5
5456
330
1A
100
AcDbEntity
  8
0
100
AcDbMText
 10
18897.29558209804
 20
15678.31173819554
 30
0.0
 40
8.0
 41
0.0
 71
     7
 72
     5
  1

1001
ACAD
1000
MTEXTBEGIN
1070
    73
1070
     1
1070
    44
1040
1.0
1070
    74
1070
     0
1000
MTEXTEND
  0
MTEXT
  5
5457
330
1A
100
AcDbEntity
  8
SUNPOU
100
AcDbMText
 10
21563.19260278019
 20
25190.42313057066
 30
0.0
 40
10.5
 41
0.0
 71
     1
 72
     5
  1

1001
ACAD
1000
MTEXTBEGIN
1070
    73
1070
     1
1070
    44
1040
1.0
1070
    74
1070
     0
1000
MTEXTEND
  0
MTEXT
  5
5458
330
1A
100
AcDbEntity
  8
SUNPOU
100
AcDbMText
 10
13632.26940684426
 20
24243.6299966577
 30
0.0
 40
10.5
 41
0.0
 71
     7
 72
     5
  1

1001
ACAD
1000
MTEXTBEGIN
1070
    73
1070
     1
1070
    44
1040
1.0
1070
    74
1070
     0
1000
MTEXTEND
  0
MTEXT
  5
5459
330
1A
100
AcDbEntity
  8
SUNPOU
100
AcDbMText
 10
16581.25307135702
 20
29144.30606850055
 30
0.0
 40
10.5
 41
0.0
 71
     7
 72
     5
  1

1001
ACAD
1000
MTEXTBEGIN
1070
    73
1070
     1
1070
    44
1040
1.0
1070
    74
1070
     0
1000
MTEXTEND
  0
MTEXT
  5
545A
330
1A
100
AcDbEntity
  8
SUNPOU
100
AcDbMText
 10
21090.33119930759
 20
31580.60681612062
 30
0.0
 40
10.5
 41
0.0
 71
     7
 72
     5
  1

1001
ACAD
1000
MTEXTBEGIN
1070
    73
1070
     1
1070
    44
1040
1.0
1070
    74
1070
     0
1000
MTEXTEND
  0
MTEXT
  5
545B
330
1A
100
AcDbEntity
  8
0
100
AcDbMText
 10
22871.60517627167
 20
23974.88367124799
 30
0.0
 40
8.0
 41
0.0
 71
     7
 72
     5
  1

1001
ACAD
1000
MTEXTBEGIN
1070
    73
1070
     1
1070
    44
1040
1.0
1070
    74
1070
     0
1000
MTEXTEND
  0
MTEXT
  5
545C
330
1A
100
AcDbEntity
  8
0
100
AcDbMText
 10
25156.96286616657
 20
24945.67396599906
 30
0.0
 40
8.0
 41
0.0
 71
     7
 72
     5
  1

1001
ACAD
1000
MTEXTBEGIN
1070
    73
1070
     1
1070
    44
1040
1.0
1070
    74
1070
     0
1000
MTEXTEND
  0
MTEXT
  5
545D
330
1A
100
AcDbEntity
  8
SUNPOU
100
AcDbMText
 10
27822.85988684871
 20
34457.78535837418
 30
0.0
 40
10.5
 41
0.0
 71
     1
 72
     5
  1

1001
ACAD
1000
MTEXTBEGIN
1070
    73
1070
     1
1070
    44
1040
1.0
1070
    74
1070
     0
1000
MTEXTEND
  0
MTEXT
  5
545E
330
1A
100
AcDbEntity
  8
SUNPOU
100
AcDbMText
 10
19891.93669091278
 20
33510.99222446122
 30
0.0
 40
10.5
 41
0.0
 71
     7
 72
     5
  1

1001
ACAD
1000
MTEXTBEGIN
1070
    73
1070
     1
1070
    44
1040
1.0
1070
    74
1070
     0
1000
MTEXTEND
  0
MTEXT
  5
545F
330
1A
100
AcDbEntity
  8
SUNPOU
100
AcDbMText
 10
22840.92035542555
 20
38411.66829630407
 30
0.0
 40
10.5
 41
0.0
 71
     7
 72
     5
  1

1001
ACAD
1000
MTEXTBEGIN
1070
    73
1070
     1
1070
    44
1040
1.0
1070
    74
1070
     0
1000
MTEXTEND
  0
MTEXT
  5
5460
330
1A
100
AcDbEntity
  8
SUNPOU
100
AcDbMText
 10
27349.99848337611
 20
40847.96904392415
 30
0.0
 40
10.5
 41
0.0
 71
     7
 72
     5
  1

1001
ACAD
1000
MTEXTBEGIN
1070
    73
1070
     1
1070
    44
1040
1.0
1070
    74
1070
     0
1000
MTEXTEND
  0
MTEXT
  5
55B7
330
1A
100
AcDbEntity
  8
SUNPOU
100
AcDbMText
 10
67424.23923338197
 20
64463.86602884816
 30
0.0
 40
10.5
 41
0.0
 71
     9
 72
     5
  1

1001
ACAD
1000
MTEXTBEGIN
1070
    73
1070
     1
1070
    44
1040
1.0
1070
    74
1070
     0
1000
MTEXTEND
  0
MTEXT
  5
55B8
330
1A
100
AcDbEntity
  8
SUNPOU
100
AcDbMText
 10
76146.40679929998
 20
71879.70056038563
 30
0.0
 40
10.5
 41
0.0
 71
     9
 72
     5
  1

1001
ACAD
1000
MTEXTBEGIN
1070
    73
1070
     1
1070
    44
1040
1.0
1070
    74
1070
     0
1000
MTEXTEND
  0
MTEXT
  5
55B9
330
1A
100
AcDbEntity
  8
SUNPOU
100
AcDbMText
 10
95100.16551662994
 20
89346.27661287766
 30
0.0
 40
10.5
 41
0.0
 71
     9
 72
     5
  1

1001
ACAD
1000
MTEXTBEGIN
1070
    73
1070
     1
1070
    44
1040
1.0
1070
    74
1070
     0
1000
MTEXTEND
  0
MTEXT
  5
55BA
330
1A
100
AcDbEntity
  8
SUNPOU
100
AcDbMText
 10
97043.57276333936
 20
87545.22753299966
 30
0.0
 40
3.5
 41
0.0
 71
     9
 72
     5
  1

1001
ACAD
1000
MTEXTBEGIN
1070
    73
1070
     1
1070
    44
1040
1.0
1070
    74
1070
     0
1000
MTEXTEND
  0
MTEXT
  5
55BB
330
1A
100
AcDbEntity
  8
SUNPOU
100
AcDbMText
 10
128169.752595959
 20
130040.1732006569
 30
0.0
 40
10.5
 41
0.0
 71
     9
 72
     5
  1

1001
ACAD
1000
MTEXTBEGIN
1070
    73
1070
     1
1070
    44
1040
1.0
1070
    74
1070
     0
1000
MTEXTEND
  0
MTEXT
  5
55BC
330
1A
100
AcDbEntity
  8
SUNPOU
100
AcDbMText
 10
130113.1598426684
 20
128239.1241207789
 30
0.0
 40
3.5
 41
0.0
 71
     9
 72
     5
  1

1001
ACAD
1000
MTEXTBEGIN
1070
    73
1070
     1
1070
    44
1040
1.0
1070
    74
1070
     0
1000
MTEXTEND
  0
MTEXT
  5
55BD
330
1A
100
AcDbEntity
  8
SUNPOU
100
AcDbMText
 10
78610.02030175463
 20
75873.33835563206
 30
0.0
 40
10.5
 41
0.0
 71
     9
 72
     5
  1

1001
ACAD
1000
MTEXTBEGIN
1070
    73
1070
     1
1070
    44
1040
1.0
1070
    74
1070
     0
1000
MTEXTEND
  0
MTEXT
  5
55BE
330
1A
100
AcDbEntity
  8
SUNPOU
100
AcDbMText
 10
64662.02020137863
 20
56700.93921651987
 30
0.0
 40
3.5
 41
0.0
 71
     7
 72
     5
  1

1001
ACAD
1000
MTEXTBEGIN
1070
    73
1070
     1
1070
    44
1040
1.0
1070
    74
1070
     0
1000
MTEXTEND
  0
MTEXT
  5
55BF
330
1A
100
AcDbEntity
  8
SUNPOU
100
AcDbMText
 10
45647.18959837178
 20
44463.08794733807
 30
0.0
 40
10.5
 41
0.0
 71
     7
 72
     5
  1

1001
ACAD
1000
MTEXTBEGIN
1070
    73
1070
     1
1070
    44
1040
1.0
1070
    74
1070
     0
1000
MTEXTEND
  0
MTEXT
  5
55C0
330
1A
100
AcDbEntity
  8
SUNPOU
100
AcDbMText
 10
33189.96133342368
 20
28618.15636923965
 30
0.0
 40
35.0
 41
0.0
 71
     9
 72
     5
  1

1001
ACAD
1000
MTEXTBEGIN
1070
    73
1070
     1
1070
    44
1040
1.0
1070
    74
1070
     0
1000
MTEXTEND
  0
MTEXT
  5
55C1
330
1A
100
AcDbEntity
  8
SUNPOU
100
AcDbMText
 10
32098.44639099864
 20
29226.93177928835
 30
0.0
 40
350.0000004171781
 41
0.0
 71
     7
 72
     5
  1

1001
ACAD
1000
MTEXTBEGIN
1070
    73
1070
     1
1070
    44
1040
1.0
1070
    74
1070
     0
1000
MTEXTEND
  0
MTEXT
  5
55C2
330
1A
100
AcDbEntity
  8
0
100
AcDbMText
 10
38142.39714894154
 20
27206.85414142458
 30
0.0
 40
8.0
 41
0.0
 71
     7
 72
     5
  1

1001
ACAD
1000
MTEXTBEGIN
1070
    73
1070
     1
1070
    44
1040
1.0
1070
    74
1070
     0
1000
MTEXTEND
  0
MTEXT
  5
55C3
330
1A
100
AcDbEntity
  8
0
100
AcDbMText
 10
40427.75483883644
 20
28177.64443617564
 30
0.0
 40
8.0
 41
0.0
 71
     7
 72
     5
  1

1001
ACAD
1000
MTEXTBEGIN
1070
    73
1070
     1
1070
    44
1040
1.0
1070
    74
1070
     0
1000
MTEXTEND
  0
MTEXT
  5
55C4
330
1A
100
AcDbEntity
  8
SUNPOU
100
AcDbMText
 10
43093.65185951858
 20
37689.75582855077
 30
0.0
 40
10.5
 41
0.0
 71
     1
 72
     5
  1

1001
ACAD
1000
MTEXTBEGIN
1070
    73
1070
     1
1070
    44
1040
1.0
1070
    74
1070
     0
1000
MTEXTEND
  0
MTEXT
  5
55C5
330
1A
100
AcDbEntity
  8
SUNPOU
100
AcDbMText
 10
35162.72866358265
 20
36742.96269463781
 30
0.0
 40
10.5
 41
0.0
 71
     7
 72
     5
  1

1001
ACAD
1000
MTEXTBEGIN
1070
    73
1070
     1
1070
    44
1040
1.0
1070
    74
1070
     0
1000
MTEXTEND
  0
MTEXT
  5
55C6
330
1A
100
AcDbEntity
  8
SUNPOU
100
AcDbMText
 10
38111.71232809542
 20
41643.63876648066
 30
0.0
 40
10.5
 41
0.0
 71
     7
 72
     5
  1

1001
ACAD
1000
MTEXTBEGIN
1070
    73
1070
     1
1070
    44
1040
1.0
1070
    74
1070
     0
1000
MTEXTEND
  0
MTEXT
  5
55C7
330
1A
100
AcDbEntity
  8
SUNPOU
100
AcDbMText
 10
42620.79045604597
 20
44079.93951410074
 30
0.0
 40
10.5
 41
0.0
 71
     7
 72
     5
  1

1001
ACAD
1000
MTEXTBEGIN
1070
    73
1070
     1
1070
    44
1040
1.0
1070
    74
1070
     0
1000
MTEXTEND
  0
MTEXT
  5
55C8
330
1A
100
AcDbEntity
  8
SUNPOU
100
AcDbMText
 10
26221.62834281429
 20
23077.53566448964
 30
0.0
 40
10.5
 41
0.0
 71
     7
 72
     5
  1

1001
ACAD
1000
MTEXTBEGIN
1070
    73
1070
     1
1070
    44
1040
1.0
1070
    74
1070
     0
1000
MTEXTEND
  0
MTEXT
  5
55C9
330
1A
100
AcDbEntity
  8
SUNPOU
100
AcDbMText
 10
77413.14677671455
 20
68750.51622813789
 30
0.0
 40
10.5
 41
0.0
 71
     9
 72
     5
  1

1001
ACAD
1000
MTEXTBEGIN
1070
    73
1070
     1
1070
    44
1040
1.0
1070
    74
1070
     0
1000
MTEXTEND
  0
MTEXT
  5
55CA
330
1A
100
AcDbEntity
  8
SUNPOU
100
AcDbMText
 10
86135.31434263256
 20
76166.35075967536
 30
0.0
 40
10.5
 41
0.0
 71
     9
 72
     5
  1

1001
ACAD
1000
MTEXTBEGIN
1070
    73
1070
     1
1070
    44
1040
1.0
1070
    74
1070
     0
1000
MTEXTEND
  0
MTEXT
  5
55CB
330
1A
100
AcDbEntity
  8
SUNPOU
100
AcDbMText
 10
105089.0730599625
 20
93632.92681216739
 30
0.0
 40
10.5
 41
0.0
 71
     9
 72
     5
  1

1001
ACAD
1000
MTEXTBEGIN
1070
    73
1070
     1
1070
    44
1040
1.0
1070
    74
1070
     0
1000
MTEXTEND
  0
MTEXT
  5
55CC
330
1A
100
AcDbEntity
  8
SUNPOU
100
AcDbMText
 10
107032.4803066719
 20
91831.8777322894
 30
0.0
 40
3.5
 41
0.0
 71
     9
 72
     5
  1

1001
ACAD
1000
MTEXTBEGIN
1070
    73
1070
     1
1070
    44
1040
1.0
1070
    74
1070
     0
1000
MTEXTEND
  0
MTEXT
  5
55CD
330
1A
100
AcDbEntity
  8
SUNPOU
100
AcDbMText
 10
138158.6601392916
 20
134326.8233999467
 30
0.0
 40
10.5
 41
0.0
 71
     9
 72
     5
  1

1001
ACAD
1000
MTEXTBEGIN
1070
    73
1070
     1
1070
    44
1040
1.0
1070
    74
1070
     0
1000
MTEXTEND
  0
MTEXT
  5
55CE
330
1A
100
AcDbEntity
  8
SUNPOU
100
AcDbMText
 10
140102.067386001
 20
132525.7743200686
 30
0.0
 40
3.5
 41
0.0
 71
     9
 72
     5
  1

1001
ACAD
1000
MTEXTBEGIN
1070
    73
1070
     1
1070
    44
1040
1.0
1070
    74
1070
     0
1000
MTEXTEND
  0
MTEXT
  5
55CF
330
1A
100
AcDbEntity
  8
SUNPOU
100
AcDbMText
 10
88598.92784508721
 20
80159.98855492179
 30
0.0
 40
10.5
 41
0.0
 71
     9
 72
     5
  1

1001
ACAD
1000
MTEXTBEGIN
1070
    73
1070
     1
1070
    44
1040
1.0
1070
    74
1070
     0
1000
MTEXTEND
  0
MTEXT
  5
55D0
330
1A
100
AcDbEntity
  8
SUNPOU
100
AcDbMText
 10
74650.92774471121
 20
60987.5894158096
 30
0.0
 40
3.5
 41
0.0
 71
     7
 72
     5
  1

1001
ACAD
1000
MTEXTBEGIN
1070
    73
1070
     1
1070
    44
1040
1.0
1070
    74
1070
     0
1000
MTEXTEND
  0
MTEXT
  5
55D1
330
1A
100
AcDbEntity
  8
SUNPOU
100
AcDbMText
 10
55636.09714170436
 20
48749.73814662781
 30
0.0
 40
10.5
 41
0.0
 71
     7
 72
     5
  1

1001
ACAD
1000
MTEXTBEGIN
1070
    73
1070
     1
1070
    44
1040
1.0
1070
    74
1070
     0
1000
MTEXTEND
  0
MTEXT
  5
55D2
330
1A
100
AcDbEntity
  8
SUNPOU
100
AcDbMText
 10
43178.86887675626
 20
32904.80656852938
 30
0.0
 40
35.0
 41
0.0
 71
     9
 72
     5
  1

1001
ACAD
1000
MTEXTBEGIN
1070
    73
1070
     1
1070
    44
1040
1.0
1070
    74
1070
     0
1000
MTEXTEND
  0
MTEXT
  5
55D3
330
1A
100
AcDbEntity
  8
SUNPOU
100
AcDbMText
 10
42087.35393433121
 20
33513.58197857809
 30
0.0
 40
350.0000004171781
 41
0.0
 71
     7
 72
     5
  1

1001
ACAD
1000
MTEXTBEGIN
1070
    73
1070
     1
1070
    44
1040
1.0
1070
    74
1070
     0
1000
MTEXTEND
  0
MTEXT
  5
55D4
330
1A
100
AcDbEntity
  8
0
100
AcDbMText
 10
48131.30469227412
 20
31493.50434071431
 30
0.0
 40
8.0
 41
0.0
 71
     7
 72
     5
  1

1001
ACAD
1000
MTEXTBEGIN
1070
    73
1070
     1
1070
    44
1040
1.0
1070
    74
1070
     0
1000
MTEXTEND
  0
MTEXT
  5
55D5
330
1A
100
AcDbEntity
  8
0
100
AcDbMText
 10
50416.66238216901
 20
32464.29463546537
 30
0.0
 40
8.0
 41
0.0
 71
     7
 72
     5
  1

1001
ACAD
1000
MTEXTBEGIN
1070
    73
1070
     1
1070
    44
1040
1.0
1070
    74
1070
     0
1000
MTEXTEND
  0
MTEXT
  5
55D6
330
1A
100
AcDbEntity
  8
SUNPOU
100
AcDbMText
 10
53082.55940285115
 20
41976.4060278405
 30
0.0
 40
10.5
 41
0.0
 71
     1
 72
     5
  1

1001
ACAD
1000
MTEXTBEGIN
1070
    73
1070
     1
1070
    44
1040
1.0
1070
    74
1070
     0
1000
MTEXTEND
  0
MTEXT
  5
55D7
330
1A
100
AcDbEntity
  8
SUNPOU
100
AcDbMText
 10
45151.63620691522
 20
41029.61289392755
 30
0.0
 40
10.5
 41
0.0
 71
     7
 72
     5
  1

1001
ACAD
1000
MTEXTBEGIN
1070
    73
1070
     1
1070
    44
1040
1.0
1070
    74
1070
     0
1000
MTEXTEND
  0
MTEXT
  5
55D8
330
1A
100
AcDbEntity
  8
SUNPOU
100
AcDbMText
 10
48100.61987142798
 20
45930.28896577039
 30
0.0
 40
10.5
 41
0.0
 71
     7
 72
     5
  1

1001
ACAD
1000
MTEXTBEGIN
1070
    73
1070
     1
1070
    44
1040
1.0
1070
    74
1070
     0
1000
MTEXTEND
  0
MTEXT
  5
55D9
330
1A
100
AcDbEntity
  8
SUNPOU
100
AcDbMText
 10
52609.69799937854
 20
48366.58971339046
 30
0.0
 40
10.5
 41
0.0
 71
     7
 72
     5
  1

1001
ACAD
1000
MTEXTBEGIN
1070
    73
1070
     1
1070
    44
1040
1.0
1070
    74
1070
     0
1000
MTEXTEND
  0
MTEXT
  5
55DA
330
1A
100
AcDbEntity
  8
SUNPOU
100
AcDbMText
 10
36210.53588614687
 20
27364.18586377937
 30
0.0
 40
10.5
 41
0.0
 71
     7
 72
     5
  1

1001
ACAD
1000
MTEXTBEGIN
1070
    73
1070
     1
1070
    44
1040
1.0
1070
    74
1070
     0
1000
MTEXTEND
  0
MTEXT
  5
55DB
330
1A
100
AcDbEntity
  8
SUNPOU
100
AcDbMText
 10
38021.29879752181
 20
33691.59985125794
 30
0.0
 40
10.5
 41
0.0
 71
     9
 72
     5
  1

1001
ACAD
1000
MTEXTBEGIN
1070
    73
1070
     1
1070
    44
1040
1.0
1070
    74
1070
     0
1000
MTEXTEND
  0
MTEXT
  5
55DC
330
1A
100
AcDbEntity
  8
SUNPOU
100
AcDbMText
 10
46743.46636343979
 20
41107.43438279541
 30
0.0
 40
10.5
 41
0.0
 71
     9
 72
     5
  1

1001
ACAD
1000
MTEXTBEGIN
1070
    73
1070
     1
1070
    44
1040
1.0
1070
    74
1070
     0
1000
MTEXTEND
  0
MTEXT
  5
55DD
330
1A
100
AcDbEntity
  8
SUNPOU
100
AcDbMText
 10
65697.22508076975
 20
58574.01043528746
 30
0.0
 40
10.5
 41
0.0
 71
     9
 72
     5
  1

1001
ACAD
1000
MTEXTBEGIN
1070
    73
1070
     1
1070
    44
1040
1.0
1070
    74
1070
     0
1000
MTEXTEND
  0
MTEXT
  5
55DE
330
1A
100
AcDbEntity
  8
SUNPOU
100
AcDbMText
 10
67640.63232747917
 20
56772.96135540945
 30
0.0
 40
3.5
 41
0.0
 71
     9
 72
     5
  1

1001
ACAD
1000
MTEXTBEGIN
1070
    73
1070
     1
1070
    44
1040
1.0
1070
    74
1070
     0
1000
MTEXTEND
  0
MTEXT
  5
55DF
330
1A
100
AcDbEntity
  8
SUNPOU
100
AcDbMText
 10
98766.81216009888
 20
99267.9070230668
 30
0.0
 40
10.5
 41
0.0
 71
     9
 72
     5
  1

1001
ACAD
1000
MTEXTBEGIN
1070
    73
1070
     1
1070
    44
1040
1.0
1070
    74
1070
     0
1000
MTEXTEND
  0
MTEXT
  5
55E0
330
1A
100
AcDbEntity
  8
SUNPOU
100
AcDbMText
 10
100710.2194068083
 20
97466.85794318878
 30
0.0
 40
3.5
 41
0.0
 71
     9
 72
     5
  1

1001
ACAD
1000
MTEXTBEGIN
1070
    73
1070
     1
1070
    44
1040
1.0
1070
    74
1070
     0
1000
MTEXTEND
  0
MTEXT
  5
55E1
330
1A
100
AcDbEntity
  8
SUNPOU
100
AcDbMText
 10
49207.07986589444
 20
45101.07217804185
 30
0.0
 40
10.5
 41
0.0
 71
     9
 72
     5
  1

1001
ACAD
1000
MTEXTBEGIN
1070
    73
1070
     1
1070
    44
1040
1.0
1070
    74
1070
     0
1000
MTEXTEND
  0
MTEXT
  5
55E2
330
1A
100
AcDbEntity
  8
SUNPOU
100
AcDbMText
 10
35259.07976551845
 20
25928.67303892964
 30
0.0
 40
3.5
 41
0.0
 71
     7
 72
     5
  1

1001
ACAD
1000
MTEXTBEGIN
1070
    73
1070
     1
1070
    44
1040
1.0
1070
    74
1070
     0
1000
MTEXTEND
  0
MTEXT
  5
55E3
330
1A
100
AcDbEntity
  8
SUNPOU
100
AcDbMText
 10
48951.43044828905
 20
35287.73625995099
 30
0.0
 40
10.5
 41
0.0
 71
     9
 72
     5
  1

1001
ACAD
1000
MTEXTBEGIN
1070
    73
1070
     1
1070
    44
1040
1.0
1070
    74
1070
     0
1000
MTEXTEND
  0
MTEXT
  5
55E4
330
1A
100
AcDbEntity
  8
SUNPOU
100
AcDbMText
 10
57673.59801420702
 20
42703.57079148847
 30
0.0
 40
10.5
 41
0.0
 71
     9
 72
     5
  1

1001
ACAD
1000
MTEXTBEGIN
1070
    73
1070
     1
1070
    44
1040
1.0
1070
    74
1070
     0
1000
MTEXTEND
  0
MTEXT
  5
55E5
330
1A
100
AcDbEntity
  8
SUNPOU
100
AcDbMText
 10
76627.35673153699
 20
60170.14684398051
 30
0.0
 40
10.5
 41
0.0
 71
     9
 72
     5
  1

1001
ACAD
1000
MTEXTBEGIN
1070
    73
1070
     1
1070
    44
1040
1.0
1070
    74
1070
     0
1000
MTEXTEND
  0
MTEXT
  5
55E6
330
1A
100
AcDbEntity
  8
SUNPOU
100
AcDbMText
 10
78570.76397824641
 20
58369.09776410251
 30
0.0
 40
3.5
 41
0.0
 71
     9
 72
     5
  1

1001
ACAD
1000
MTEXTBEGIN
1070
    73
1070
     1
1070
    44
1040
1.0
1070
    74
1070
     0
1000
MTEXTEND
  0
MTEXT
  5
55E7
330
1A
100
AcDbEntity
  8
SUNPOU
100
AcDbMText
 10
109696.9438108661
 20
100864.0434317598
 30
0.0
 40
10.5
 41
0.0
 71
     9
 72
     5
  1

1001
ACAD
1000
MTEXTBEGIN
1070
    73
1070
     1
1070
    44
1040
1.0
1070
    74
1070
     0
1000
MTEXTEND
  0
MTEXT
  5
55E8
330
1A
100
AcDbEntity
  8
SUNPOU
100
AcDbMText
 10
111640.3510575755
 20
99062.99435188183
 30
0.0
 40
3.5
 41
0.0
 71
     9
 72
     5
  1

1001
ACAD
1000
MTEXTBEGIN
1070
    73
1070
     1
1070
    44
1040
1.0
1070
    74
1070
     0
1000
MTEXTEND
  0
MTEXT
  5
55E9
330
1A
100
AcDbEntity
  8
SUNPOU
100
AcDbMText
 10
60137.21151666167
 20
46697.20858673491
 30
0.0
 40
10.5
 41
0.0
 71
     9
 72
     5
  1

1001
ACAD
1000
MTEXTBEGIN
1070
    73
1070
     1
1070
    44
1040
1.0
1070
    74
1070
     0
1000
MTEXTEND
  0
MTEXT
  5
55EA
330
1A
100
AcDbEntity
  8
SUNPOU
100
AcDbMText
 10
46189.21141628568
 20
27524.80944762269
 30
0.0
 40
3.5
 41
0.0
 71
     7
 72
     5
  1

1001
ACAD
1000
MTEXTBEGIN
1070
    73
1070
     1
1070
    44
1040
1.0
1070
    74
1070
     0
1000
MTEXTEND
  0
MTEXT
  5
55EB
330
1A
100
AcDbEntity
  8
SUNPOU
100
AcDbMText
 10
45007.68847015541
 20
38269.57947701874
 30
0.0
 40
10.5
 41
0.0
 71
     9
 72
     5
  1

1001
ACAD
1000
MTEXTBEGIN
1070
    73
1070
     1
1070
    44
1040
1.0
1070
    74
1070
     0
1000
MTEXTEND
  0
MTEXT
  5
55EC
330
1A
100
AcDbEntity
  8
SUNPOU
100
AcDbMText
 10
63961.44718748539
 20
55736.15552951081
 30
0.0
 40
10.5
 41
0.0
 71
     9
 72
     5
  1

1001
ACAD
1000
MTEXTBEGIN
1070
    73
1070
     1
1070
    44
1040
1.0
1070
    74
1070
     0
1000
MTEXTEND
  0
MTEXT
  5
55ED
330
1A
100
AcDbEntity
  8
SUNPOU
100
AcDbMText
 10
65904.85443419479
 20
53935.10644963279
 30
0.0
 40
3.5
 41
0.0
 71
     9
 72
     5
  1

1001
ACAD
1000
MTEXTBEGIN
1070
    73
1070
     1
1070
    44
1040
1.0
1070
    74
1070
     0
1000
MTEXTEND
  0
MTEXT
  5
55EE
330
1A
100
AcDbEntity
  8
SUNPOU
100
AcDbMText
 10
97031.03426681451
 20
96430.05211729015
 30
0.0
 40
10.5
 41
0.0
 71
     9
 72
     5
  1

1001
ACAD
1000
MTEXTBEGIN
1070
    73
1070
     1
1070
    44
1040
1.0
1070
    74
1070
     0
1000
MTEXTEND
  0
MTEXT
  5
55EF
330
1A
100
AcDbEntity
  8
SUNPOU
100
AcDbMText
 10
98974.44151352393
 20
94629.00303741212
 30
0.0
 40
3.5
 41
0.0
 71
     9
 72
     5
  1

1001
ACAD
1000
MTEXTBEGIN
1070
    73
1070
     1
1070
    44
1040
1.0
1070
    74
1070
     0
1000
MTEXTEND
  0
MTEXT
  5
55F0
330
1A
100
AcDbEntity
  8
SUNPOU
100
AcDbMText
 10
47471.30197261006
 20
42263.21727226519
 30
0.0
 40
10.5
 41
0.0
 71
     9
 72
     5
  1

1001
ACAD
1000
MTEXTBEGIN
1070
    73
1070
     1
1070
    44
1040
1.0
1070
    74
1070
     0
1000
MTEXTEND
  0
MTEXT
  5
55F1
330
1A
100
AcDbEntity
  8
SUNPOU
100
AcDbMText
 10
33523.30187223408
 20
23090.81813315298
 30
0.0
 40
3.5
 41
0.0
 71
     7
 72
     5
  1

1001
ACAD
1000
MTEXTBEGIN
1070
    73
1070
     1
1070
    44
1040
1.0
1070
    74
1070
     0
1000
MTEXTEND
  0
MTEXT
  5
55F2
330
1A
100
AcDbEntity
  8
SUNPOU
100
AcDbMText
 10
57959.46254102503
 20
50038.08111611015
 30
0.0
 40
10.5
 41
0.0
 71
     9
 72
     5
  1

1001
ACAD
1000
MTEXTBEGIN
1070
    73
1070
     1
1070
    44
1040
1.0
1070
    74
1070
     0
1000
MTEXTEND
  0
MTEXT
  5
55F3
330
1A
100
AcDbEntity
  8
SUNPOU
100
AcDbMText
 10
76913.22125835503
 20
67504.65716860222
 30
0.0
 40
10.5
 41
0.0
 71
     9
 72
     5
  1

1001
ACAD
1000
MTEXTBEGIN
1070
    73
1070
     1
1070
    44
1040
1.0
1070
    74
1070
     0
1000
MTEXTEND
  0
MTEXT
  5
55F4
330
1A
100
AcDbEntity
  8
SUNPOU
100
AcDbMText
 10
78856.62850506443
 20
65703.6080887242
 30
0.0
 40
3.5
 41
0.0
 71
     9
 72
     5
  1

1001
ACAD
1000
MTEXTBEGIN
1070
    73
1070
     1
1070
    44
1040
1.0
1070
    74
1070
     0
1000
MTEXTEND
  0
MTEXT
  5
55F5
330
1A
100
AcDbEntity
  8
SUNPOU
100
AcDbMText
 10
109982.8083376841
 20
108198.5537563815
 30
0.0
 40
10.5
 41
0.0
 71
     9
 72
     5
  1

1001
ACAD
1000
MTEXTBEGIN
1070
    73
1070
     1
1070
    44
1040
1.0
1070
    74
1070
     0
1000
MTEXTEND
  0
MTEXT
  5
55F6
330
1A
100
AcDbEntity
  8
SUNPOU
100
AcDbMText
 10
111926.2155843935
 20
106397.5046765035
 30
0.0
 40
3.5
 41
0.0
 71
     9
 72
     5
  1

1001
ACAD
1000
MTEXTBEGIN
1070
    73
1070
     1
1070
    44
1040
1.0
1070
    74
1070
     0
1000
MTEXTEND
  0
MTEXT
  5
55F7
330
1A
100
AcDbEntity
  8
SUNPOU
100
AcDbMText
 10
60423.07604347968
 20
54031.71891135659
 30
0.0
 40
10.5
 41
0.0
 71
     9
 72
     5
  1

1001
ACAD
1000
MTEXTBEGIN
1070
    73
1070
     1
1070
    44
1040
1.0
1070
    74
1070
     0
1000
MTEXTEND
  0
MTEXT
  5
55F8
330
1A
100
AcDbEntity
  8
SUNPOU
100
AcDbMText
 10
46475.07594310369
 20
34859.3197722444
 30
0.0
 40
3.5
 41
0.0
 71
     7
 72
     5
  1

1001
ACAD
1000
MTEXTBEGIN
1070
    73
1070
     1
1070
    44
1040
1.0
1070
    74
1070
     0
1000
MTEXTEND
  0
MTEXT
  5
55F9
330
1A
100
AcDbEntity
  8
SUNPOU
100
AcDbMText
 10
74027.35402123588
 20
68370.58278833383
 30
0.0
 40
10.5
 41
0.0
 71
     9
 72
     5
  1

1001
ACAD
1000
MTEXTBEGIN
1070
    73
1070
     1
1070
    44
1040
1.0
1070
    74
1070
     0
1000
MTEXTEND
  0
MTEXT
  5
55FA
330
1A
100
AcDbEntity
  8
SUNPOU
100
AcDbMText
 10
75970.7612679453
 20
66569.53370845583
 30
0.0
 40
3.5
 41
0.0
 71
     9
 72
     5
  1

1001
ACAD
1000
MTEXTBEGIN
1070
    73
1070
     1
1070
    44
1040
1.0
1070
    74
1070
     0
1000
MTEXTEND
  0
MTEXT
  5
55FB
330
1A
100
AcDbEntity
  8
SUNPOU
100
AcDbMText
 10
107096.941100565
 20
109064.4793761132
 30
0.0
 40
10.5
 41
0.0
 71
     9
 72
     5
  1

1001
ACAD
1000
MTEXTBEGIN
1070
    73
1070
     1
1070
    44
1040
1.0
1070
    74
1070
     0
1000
MTEXTEND
  0
MTEXT
  5
55FC
330
1A
100
AcDbEntity
  8
SUNPOU
100
AcDbMText
 10
109040.3483472744
 20
107263.4302962351
 30
0.0
 40
3.5
 41
0.0
 71
     9
 72
     5
  1

1001
ACAD
1000
MTEXTBEGIN
1070
    73
1070
     1
1070
    44
1040
1.0
1070
    74
1070
     0
1000
MTEXTEND
  0
MTEXT
  5
55FD
330
1A
100
AcDbEntity
  8
SUNPOU
100
AcDbMText
 10
105709.1709283621
 20
108141.3777665285
 30
0.0
 40
10.5
 41
0.0
 71
     9
 72
     5
  1

1001
ACAD
1000
MTEXTBEGIN
1070
    73
1070
     1
1070
    44
1040
1.0
1070
    74
1070
     0
1000
MTEXTEND
  0
MTEXT
  5
55FE
330
1A
100
AcDbEntity
  8
SUNPOU
100
AcDbMText
 10
107652.5781750715
 20
106340.3286866505
 30
0.0
 40
3.5
 41
0.0
 71
     9
 72
     5
  1

1001
ACAD
1000
MTEXTBEGIN
1070
    73
1070
     1
1070
    44
1040
1.0
1070
    74
1070
     0
1000
MTEXTEND
  0
MTEXT
  5
55FF
330
1A
100
AcDbEntity
  8
SUNPOU
100
AcDbMText
 10
73193.09268743351
 20
66158.78082845056
 30
0.0
 40
10.5
 41
0.0
 71
     9
 72
     5
  1

1001
ACAD
1000
MTEXTBEGIN
1070
    73
1070
     1
1070
    44
1040
1.0
1070
    74
1070
     0
1000
MTEXTEND
  0
MTEXT
  5
5600
330
1A
100
AcDbEntity
  8
SUNPOU
100
AcDbMText
 10
75916.39889159806
 20
66563.46252003162
 30
0.0
 40
3.5
 41
0.0
 71
     9
 72
     5
  1

1001
ACAD
1000
MTEXTBEGIN
1070
    73
1070
     1
1070
    44
1040
1.0
1070
    74
1070
     0
1000
MTEXTEND
  0
MTEXT
  5
5601
330
1A
100
AcDbEntity
  8
SUNPOU
100
AcDbMText
 10
75124.04436649058
 20
63402.1566819768
 30
0.0
 40
10.5
 41
0.0
 71
     9
 72
     5
  1

1001
ACAD
1000
MTEXTBEGIN
1070
    73
1070
     1
1070
    44
1040
1.0
1070
    74
1070
     0
1000
MTEXTEND
  0
MTEXT
  5
5602
330
1A
100
AcDbEntity
  8
SUNPOU
100
AcDbMText
 10
77067.4516132
 20
61601.1076020988
 30
0.0
 40
3.5
 41
0.0
 71
     9
 72
     5
  1

1001
ACAD
1000
MTEXTBEGIN
1070
    73
1070
     1
1070
    44
1040
1.0
1070
    74
1070
     0
1000
MTEXTEND
  0
MTEXT
  5
5603
330
1A
100
AcDbEntity
  8
SUNPOU
100
AcDbMText
 10
77012.54710378659
 20
61488.33571981449
 30
0.0
 40
3.5
 41
0.0
 71
     9
 72
     5
  1

1001
ACAD
1000
MTEXTBEGIN
1070
    73
1070
     1
1070
    44
1040
1.0
1070
    74
1070
     0
1000
MTEXTEND
  0
MTEXT
  5
5604
330
1A
100
AcDbEntity
  8
SUNPOU
100
AcDbMText
 10
76376.61896736668
 20
60677.01447874797
 30
0.0
 40
3.5
 41
0.0
 71
     9
 72
     5
  1

1001
ACAD
1000
MTEXTBEGIN
1070
    73
1070
     1
1070
    44
1040
1.0
1070
    74
1070
     0
1000
MTEXTEND
  0
MTEXT
  5
5605
330
1A
100
AcDbEntity
  8
SUNPOU
100
AcDbMText
 10
76375.37854794595
 20
60676.76650181047
 30
0.0
 40
10.5
 41
0.0
 71
     9
 72
     5
  1

1001
ACAD
1000
MTEXTBEGIN
1070
    73
1070
     1
1070
    44
1040
1.0
1070
    74
1070
     0
1000
MTEXTEND
  0
MTEXT
  5
5606
330
1A
100
AcDbEntity
  8
SUNPOU
100
AcDbMText
 10
84709.93991079748
 20
78034.0328293557
 30
0.0
 40
10.5
 41
0.0
 71
     9
 72
     5
  1

1001
ACAD
1000
MTEXTBEGIN
1070
    73
1070
     1
1070
    44
1040
1.0
1070
    74
1070
     0
1000
MTEXTEND
  0
MTEXT
  5
5607
330
1A
100
AcDbEntity
  8
SUNPOU
100
AcDbMText
 10
93432.10747671548
 20
85449.86736089315
 30
0.0
 40
10.5
 41
0.0
 71
     9
 72
     5
  1

1001
ACAD
1000
MTEXTBEGIN
1070
    73
1070
     1
1070
    44
1040
1.0
1070
    74
1070
     0
1000
MTEXTEND
  0
MTEXT
  5
5608
330
1A
100
AcDbEntity
  8
SUNPOU
100
AcDbMText
 10
112385.8661940454
 20
102916.4434133851
 30
0.0
 40
10.5
 41
0.0
 71
     9
 72
     5
  1

1001
ACAD
1000
MTEXTBEGIN
1070
    73
1070
     1
1070
    44
1040
1.0
1070
    74
1070
     0
1000
MTEXTEND
  0
MTEXT
  5
5609
330
1A
100
AcDbEntity
  8
SUNPOU
100
AcDbMText
 10
114329.2734407548
 20
101115.3943335072
 30
0.0
 40
3.5
 41
0.0
 71
     9
 72
     5
  1

1001
ACAD
1000
MTEXTBEGIN
1070
    73
1070
     1
1070
    44
1040
1.0
1070
    74
1070
     0
1000
MTEXTEND
  0
MTEXT
  5
560A
330
1A
100
AcDbEntity
  8
SUNPOU
100
AcDbMText
 10
145455.4532733745
 20
143610.3400011645
 30
0.0
 40
10.5
 41
0.0
 71
     9
 72
     5
  1

1001
ACAD
1000
MTEXTBEGIN
1070
    73
1070
     1
1070
    44
1040
1.0
1070
    74
1070
     0
1000
MTEXTEND
  0
MTEXT
  5
560B
330
1A
100
AcDbEntity
  8
SUNPOU
100
AcDbMText
 10
147398.8605200839
 20
141809.2909212864
 30
0.0
 40
3.5
 41
0.0
 71
     9
 72
     5
  1

1001
ACAD
1000
MTEXTBEGIN
1070
    73
1070
     1
1070
    44
1040
1.0
1070
    74
1070
     0
1000
MTEXTEND
  0
MTEXT
  5
560C
330
1A
100
AcDbEntity
  8
SUNPOU
100
AcDbMText
 10
95895.72097917013
 20
89443.5051561396
 30
0.0
 40
10.5
 41
0.0
 71
     9
 72
     5
  1

1001
ACAD
1000
MTEXTBEGIN
1070
    73
1070
     1
1070
    44
1040
1.0
1070
    74
1070
     0
1000
MTEXTEND
  0
MTEXT
  5
560D
330
1A
100
AcDbEntity
  8
SUNPOU
100
AcDbMText
 10
81947.72087879414
 20
70271.1060170274
 30
0.0
 40
3.5
 41
0.0
 71
     7
 72
     5
  1

1001
ACAD
1000
MTEXTBEGIN
1070
    73
1070
     1
1070
    44
1040
1.0
1070
    74
1070
     0
1000
MTEXTEND
  0
MTEXT
  5
560E
330
1A
100
AcDbEntity
  8
SUNPOU
100
AcDbMText
 10
62932.89027578729
 20
58033.25474784561
 30
0.0
 40
10.5
 41
0.0
 71
     7
 72
     5
  1

1001
ACAD
1000
MTEXTBEGIN
1070
    73
1070
     1
1070
    44
1040
1.0
1070
    74
1070
     0
1000
MTEXTEND
  0
MTEXT
  5
560F
330
1A
100
AcDbEntity
  8
SUNPOU
100
AcDbMText
 10
50475.66201083918
 20
42188.32316974719
 30
0.0
 40
35.0
 41
0.0
 71
     9
 72
     5
  1

1001
ACAD
1000
MTEXTBEGIN
1070
    73
1070
     1
1070
    44
1040
1.0
1070
    74
1070
     0
1000
MTEXTEND
  0
MTEXT
  5
5610
330
1A
100
AcDbEntity
  8
SUNPOU
100
AcDbMText
 10
49384.14706841413
 20
42797.0985797959
 30
0.0
 40
350.0000004171781
 41
0.0
 71
     7
 72
     5
  1

1001
ACAD
1000
MTEXTBEGIN
1070
    73
1070
     1
1070
    44
1040
1.0
1070
    74
1070
     0
1000
MTEXTEND
  0
MTEXT
  5
5611
330
1A
100
AcDbEntity
  8
0
100
AcDbMText
 10
55428.09782635704
 20
40777.02094193211
 30
0.0
 40
8.0
 41
0.0
 71
     7
 72
     5
  1

1001
ACAD
1000
MTEXTBEGIN
1070
    73
1070
     1
1070
    44
1040
1.0
1070
    74
1070
     0
1000
MTEXTEND
  0
MTEXT
  5
5612
330
1A
100
AcDbEntity
  8
0
100
AcDbMText
 10
57713.45551625194
 20
41747.81123668317
 30
0.0
 40
8.0
 41
0.0
 71
     7
 72
     5
  1

1001
ACAD
1000
MTEXTBEGIN
1070
    73
1070
     1
1070
    44
1040
1.0
1070
    74
1070
     0
1000
MTEXTEND
  0
MTEXT
  5
5613
330
1A
100
AcDbEntity
  8
SUNPOU
100
AcDbMText
 10
60379.35253693408
 20
51259.9226290583
 30
0.0
 40
10.5
 41
0.0
 71
     1
 72
     5
  1

1001
ACAD
1000
MTEXTBEGIN
1070
    73
1070
     1
1070
    44
1040
1.0
1070
    74
1070
     0
1000
MTEXTEND
  0
MTEXT
  5
5614
330
1A
100
AcDbEntity
  8
SUNPOU
100
AcDbMText
 10
52448.42934099814
 20
50313.12949514535
 30
0.0
 40
10.5
 41
0.0
 71
     7
 72
     5
  1

1001
ACAD
1000
MTEXTBEGIN
1070
    73
1070
     1
1070
    44
1040
1.0
1070
    74
1070
     0
1000
MTEXTEND
  0
MTEXT
  5
5615
330
1A
100
AcDbEntity
  8
SUNPOU
100
AcDbMText
 10
55397.41300551091
 20
55213.80556698819
 30
0.0
 40
10.5
 41
0.0
 71
     7
 72
     5
  1

1001
ACAD
1000
MTEXTBEGIN
1070
    73
1070
     1
1070
    44
1040
1.0
1070
    74
1070
     0
1000
MTEXTEND
  0
MTEXT
  5
5616
330
1A
100
AcDbEntity
  8
SUNPOU
100
AcDbMText
 10
59906.49113346147
 20
57650.10631460826
 30
0.0
 40
10.5
 41
0.0
 71
     7
 72
     5
  1

1001
ACAD
1000
MTEXTBEGIN
1070
    73
1070
     1
1070
    44
1040
1.0
1070
    74
1070
     0
1000
MTEXTEND
  0
MTEXT
  5
5617
330
1A
100
AcDbEntity
  8
SUNPOU
100
AcDbMText
 10
43507.32902022979
 20
36647.70246499718
 30
0.0
 40
10.5
 41
0.0
 71
     7
 72
     5
  1

1001
ACAD
1000
MTEXTBEGIN
1070
    73
1070
     1
1070
    44
1040
1.0
1070
    74
1070
     0
1000
MTEXTEND
  0
MTEXT
  5
5618
330
1A
100
AcDbEntity
  8
SUNPOU
100
AcDbMText
 10
94698.84745413006
 20
82320.68302864542
 30
0.0
 40
10.5
 41
0.0
 71
     9
 72
     5
  1

1001
ACAD
1000
MTEXTBEGIN
1070
    73
1070
     1
1070
    44
1040
1.0
1070
    74
1070
     0
1000
MTEXTEND
  0
MTEXT
  5
5619
330
1A
100
AcDbEntity
  8
SUNPOU
100
AcDbMText
 10
103421.015020048
 20
89736.5175601829
 30
0.0
 40
10.5
 41
0.0
 71
     9
 72
     5
  1

1001
ACAD
1000
MTEXTBEGIN
1070
    73
1070
     1
1070
    44
1040
1.0
1070
    74
1070
     0
1000
MTEXTEND
  0
MTEXT
  5
561A
330
1A
100
AcDbEntity
  8
SUNPOU
100
AcDbMText
 10
122374.773737378
 20
107203.0936126749
 30
0.0
 40
10.5
 41
0.0
 71
     9
 72
     5
  1

1001
ACAD
1000
MTEXTBEGIN
1070
    73
1070
     1
1070
    44
1040
1.0
1070
    74
1070
     0
1000
MTEXTEND
  0
MTEXT
  5
561B
330
1A
100
AcDbEntity
  8
SUNPOU
100
AcDbMText
 10
124318.1809840874
 20
105402.0445327969
 30
0.0
 40
3.5
 41
0.0
 71
     9
 72
     5
  1

1001
ACAD
1000
MTEXTBEGIN
1070
    73
1070
     1
1070
    44
1040
1.0
1070
    74
1070
     0
1000
MTEXTEND
  0
MTEXT
  5
561C
330
1A
100
AcDbEntity
  8
SUNPOU
100
AcDbMText
 10
155444.3608167071
 20
147896.9902004542
 30
0.0
 40
10.5
 41
0.0
 71
     9
 72
     5
  1

1001
ACAD
1000
MTEXTBEGIN
1070
    73
1070
     1
1070
    44
1040
1.0
1070
    74
1070
     0
1000
MTEXTEND
  0
MTEXT
  5
561D
330
1A
100
AcDbEntity
  8
SUNPOU
100
AcDbMText
 10
157387.7680634165
 20
146095.9411205762
 30
0.0
 40
3.5
 41
0.0
 71
     9
 72
     5
  1

1001
ACAD
1000
MTEXTBEGIN
1070
    73
1070
     1
1070
    44
1040
1.0
1070
    74
1070
     0
1000
MTEXTEND
  0
MTEXT
  5
561E
330
1A
100
AcDbEntity
  8
SUNPOU
100
AcDbMText
 10
105884.6285225027
 20
93730.15535542933
 30
0.0
 40
10.5
 41
0.0
 71
     9
 72
     5
  1

1001
ACAD
1000
MTEXTBEGIN
1070
    73
1070
     1
1070
    44
1040
1.0
1070
    74
1070
     0
1000
MTEXTEND
  0
MTEXT
  5
561F
330
1A
100
AcDbEntity
  8
SUNPOU
100
AcDbMText
 10
91936.6284221267
 20
74557.75621631714
 30
0.0
 40
3.5
 41
0.0
 71
     7
 72
     5
  1

1001
ACAD
1000
MTEXTBEGIN
1070
    73
1070
     1
1070
    44
1040
1.0
1070
    74
1070
     0
1000
MTEXTEND
  0
MTEXT
  5
5620
330
1A
100
AcDbEntity
  8
SUNPOU
100
AcDbMText
 10
72921.79781911986
 20
62319.90494713533
 30
0.0
 40
10.5
 41
0.0
 71
     7
 72
     5
  1

1001
ACAD
1000
MTEXTBEGIN
1070
    73
1070
     1
1070
    44
1040
1.0
1070
    74
1070
     0
1000
MTEXTEND
  0
MTEXT
  5
5621
330
1A
100
AcDbEntity
  8
SUNPOU
100
AcDbMText
 10
60464.56955417175
 20
46474.97336903692
 30
0.0
 40
35.0
 41
0.0
 71
     9
 72
     5
  1

1001
ACAD
1000
MTEXTBEGIN
1070
    73
1070
     1
1070
    44
1040
1.0
1070
    74
1070
     0
1000
MTEXTEND
  0
MTEXT
  5
5622
330
1A
100
AcDbEntity
  8
SUNPOU
100
AcDbMText
 10
59373.05461174672
 20
47083.74877908562
 30
0.0
 40
350.0000004171781
 41
0.0
 71
     7
 72
     5
  1

1001
ACAD
1000
MTEXTBEGIN
1070
    73
1070
     1
1070
    44
1040
1.0
1070
    74
1070
     0
1000
MTEXTEND
  0
MTEXT
  5
5623
330
1A
100
AcDbEntity
  8
0
100
AcDbMText
 10
65417.00536968962
 20
45063.67114122186
 30
0.0
 40
8.0
 41
0.0
 71
     7
 72
     5
  1

1001
ACAD
1000
MTEXTBEGIN
1070
    73
1070
     1
1070
    44
1040
1.0
1070
    74
1070
     0
1000
MTEXTEND
  0
MTEXT
  5
5624
330
1A
100
AcDbEntity
  8
0
100
AcDbMText
 10
67702.36305958452
 20
46034.46143597292
 30
0.0
 40
8.0
 41
0.0
 71
     7
 72
     5
  1

1001
ACAD
1000
MTEXTBEGIN
1070
    73
1070
     1
1070
    44
1040
1.0
1070
    74
1070
     0
1000
MTEXTEND
  0
MTEXT
  5
5625
330
1A
100
AcDbEntity
  8
SUNPOU
100
AcDbMText
 10
70368.26008026666
 20
55546.57282834803
 30
0.0
 40
10.5
 41
0.0
 71
     1
 72
     5
  1

1001
ACAD
1000
MTEXTBEGIN
1070
    73
1070
     1
1070
    44
1040
1.0
1070
    74
1070
     0
1000
MTEXTEND
  0
MTEXT
  5
5626
330
1A
100
AcDbEntity
  8
SUNPOU
100
AcDbMText
 10
62437.33688433072
 20
54599.77969443508
 30
0.0
 40
10.5
 41
0.0
 71
     7
 72
     5
  1

1001
ACAD
1000
MTEXTBEGIN
1070
    73
1070
     1
1070
    44
1040
1.0
1070
    74
1070
     0
1000
MTEXTEND
  0
MTEXT
  5
5627
330
1A
100
AcDbEntity
  8
SUNPOU
100
AcDbMText
 10
65386.32054884349
 20
59500.45576627792
 30
0.0
 40
10.5
 41
0.0
 71
     7
 72
     5
  1

1001
ACAD
1000
MTEXTBEGIN
1070
    73
1070
     1
1070
    44
1040
1.0
1070
    74
1070
     0
1000
MTEXTEND
  0
MTEXT
  5
5628
330
1A
100
AcDbEntity
  8
SUNPOU
100
AcDbMText
 10
69895.39867679405
 20
61936.756513898
 30
0.0
 40
10.5
 41
0.0
 71
     7
 72
     5
  1

1001
ACAD
1000
MTEXTBEGIN
1070
    73
1070
     1
1070
    44
1040
1.0
1070
    74
1070
     0
1000
MTEXTEND
  0
MTEXT
  5
5629
330
1A
100
AcDbEntity
  8
SUNPOU
100
AcDbMText
 10
53496.23656356237
 20
40934.35266428691
 30
0.0
 40
10.5
 41
0.0
 71
     7
 72
     5
  1

1001
ACAD
1000
MTEXTBEGIN
1070
    73
1070
     1
1070
    44
1040
1.0
1070
    74
1070
     0
1000
MTEXTEND
  0
MTEXT
  5
562A
330
1A
100
AcDbEntity
  8
SUNPOU
100
AcDbMText
 10
55306.99947493731
 20
47261.76665176547
 30
0.0
 40
10.5
 41
0.0
 71
     9
 72
     5
  1

1001
ACAD
1000
MTEXTBEGIN
1070
    73
1070
     1
1070
    44
1040
1.0
1070
    74
1070
     0
1000
MTEXTEND
  0
MTEXT
  5
562B
330
1A
100
AcDbEntity
  8
SUNPOU
100
AcDbMText
 10
64029.16704085528
 20
54677.60118330295
 30
0.0
 40
10.5
 41
0.0
 71
     9
 72
     5
  1

1001
ACAD
1000
MTEXTBEGIN
1070
    73
1070
     1
1070
    44
1040
1.0
1070
    74
1070
     0
1000
MTEXTEND
  0
MTEXT
  5
562C
330
1A
100
AcDbEntity
  8
SUNPOU
100
AcDbMText
 10
82982.92575818527
 20
72144.17723579499
 30
0.0
 40
10.5
 41
0.0
 71
     9
 72
     5
  1

1001
ACAD
1000
MTEXTBEGIN
1070
    73
1070
     1
1070
    44
1040
1.0
1070
    74
1070
     0
1000
MTEXTEND
  0
MTEXT
  5
562D
330
1A
100
AcDbEntity
  8
SUNPOU
100
AcDbMText
 10
84926.33300489467
 20
70343.12815591698
 30
0.0
 40
3.5
 41
0.0
 71
     9
 72
     5
  1

1001
ACAD
1000
MTEXTBEGIN
1070
    73
1070
     1
1070
    44
1040
1.0
1070
    74
1070
     0
1000
MTEXTEND
  0
MTEXT
  5
562E
330
1A
100
AcDbEntity
  8
SUNPOU
100
AcDbMText
 10
116052.5128375143
 20
112838.0738235743
 30
0.0
 40
10.5
 41
0.0
 71
     9
 72
     5
  1

1001
ACAD
1000
MTEXTBEGIN
1070
    73
1070
     1
1070
    44
1040
1.0
1070
    74
1070
     0
1000
MTEXTEND
  0
MTEXT
  5
562F
330
1A
100
AcDbEntity
  8
SUNPOU
100
AcDbMText
 10
117995.9200842238
 20
111037.0247436963
 30
0.0
 40
3.5
 41
0.0
 71
     9
 72
     5
  1

1001
ACAD
1000
MTEXTBEGIN
1070
    73
1070
     1
1070
    44
1040
1.0
1070
    74
1070
     0
1000
MTEXTEND
  0
MTEXT
  5
5630
330
1A
100
AcDbEntity
  8
SUNPOU
100
AcDbMText
 10
66492.78054330994
 20
58671.23897854939
 30
0.0
 40
10.5
 41
0.0
 71
     9
 72
     5
  1

1001
ACAD
1000
MTEXTBEGIN
1070
    73
1070
     1
1070
    44
1040
1.0
1070
    74
1070
     0
1000
MTEXTEND
  0
MTEXT
  5
5631
330
1A
100
AcDbEntity
  8
SUNPOU
100
AcDbMText
 10
52544.78044293396
 20
39498.83983943717
 30
0.0
 40
3.5
 41
0.0
 71
     7
 72
     5
  1

1001
ACAD
1000
MTEXTBEGIN
1070
    73
1070
     1
1070
    44
1040
1.0
1070
    74
1070
     0
1000
MTEXTEND
  0
MTEXT
  5
5632
330
1A
100
AcDbEntity
  8
SUNPOU
100
AcDbMText
 10
66237.13112570454
 20
48857.90306045851
 30
0.0
 40
10.5
 41
0.0
 71
     9
 72
     5
  1

1001
ACAD
1000
MTEXTBEGIN
1070
    73
1070
     1
1070
    44
1040
1.0
1070
    74
1070
     0
1000
MTEXTEND
  0
MTEXT
  5
5633
330
1A
100
AcDbEntity
  8
SUNPOU
100
AcDbMText
 10
74959.29869162252
 20
56273.737591996
 30
0.0
 40
10.5
 41
0.0
 71
     9
 72
     5
  1

1001
ACAD
1000
MTEXTBEGIN
1070
    73
1070
     1
1070
    44
1040
1.0
1070
    74
1070
     0
1000
MTEXTEND
  0
MTEXT
  5
5634
330
1A
100
AcDbEntity
  8
SUNPOU
100
AcDbMText
 10
93913.0574089525
 20
73740.31364448805
 30
0.0
 40
10.5
 41
0.0
 71
     9
 72
     5
  1

1001
ACAD
1000
MTEXTBEGIN
1070
    73
1070
     1
1070
    44
1040
1.0
1070
    74
1070
     0
1000
MTEXTEND
  0
MTEXT
  5
5635
330
1A
100
AcDbEntity
  8
SUNPOU
100
AcDbMText
 10
95856.46465566192
 20
71939.26456461004
 30
0.0
 40
3.5
 41
0.0
 71
     9
 72
     5
  1

1001
ACAD
1000
MTEXTBEGIN
1070
    73
1070
     1
1070
    44
1040
1.0
1070
    74
1070
     0
1000
MTEXTEND
  0
MTEXT
  5
5636
330
1A
100
AcDbEntity
  8
SUNPOU
100
AcDbMText
 10
126982.6444882816
 20
114434.2102322673
 30
0.0
 40
10.5
 41
0.0
 71
     9
 72
     5
  1

1001
ACAD
1000
MTEXTBEGIN
1070
    73
1070
     1
1070
    44
1040
1.0
1070
    74
1070
     0
1000
MTEXTEND
  0
MTEXT
  5
5637
330
1A
100
AcDbEntity
  8
SUNPOU
100
AcDbMText
 10
128926.051734991
 20
112633.1611523893
 30
0.0
 40
3.5
 41
0.0
 71
     9
 72
     5
  1

1001
ACAD
1000
MTEXTBEGIN
1070
    73
1070
     1
1070
    44
1040
1.0
1070
    74
1070
     0
1000
MTEXTEND
  0
MTEXT
  5
5638
330
1A
100
AcDbEntity
  8
SUNPOU
100
AcDbMText
 10
77422.91219407717
 20
60267.37538724244
 30
0.0
 40
10.5
 41
0.0
 71
     9
 72
     5
  1

1001
ACAD
1000
MTEXTBEGIN
1070
    73
1070
     1
1070
    44
1040
1.0
1070
    74
1070
     0
1000
MTEXTEND
  0
MTEXT
  5
5639
330
1A
100
AcDbEntity
  8
SUNPOU
100
AcDbMText
 10
63474.91209370119
 20
41094.97624813023
 30
0.0
 40
3.5
 41
0.0
 71
     7
 72
     5
  1

1001
ACAD
1000
MTEXTBEGIN
1070
    73
1070
     1
1070
    44
1040
1.0
1070
    74
1070
     0
1000
MTEXTEND
  0
MTEXT
  5
563A
330
1A
100
AcDbEntity
  8
SUNPOU
100
AcDbMText
 10
48117.65086229006
 20
40806.11043916631
 30
0.0
 40
10.5
 41
0.0
 71
     9
 72
     5
  1

1001
ACAD
1000
MTEXTBEGIN
1070
    73
1070
     1
1070
    44
1040
1.0
1070
    74
1070
     0
1000
MTEXTEND
  0
MTEXT
  5
563B
330
1A
100
AcDbEntity
  8
SUNPOU
100
AcDbMText
 10
67071.40957962004
 20
58272.68649165837
 30
0.0
 40
10.5
 41
0.0
 71
     9
 72
     5
  1

1001
ACAD
1000
MTEXTBEGIN
1070
    73
1070
     1
1070
    44
1040
1.0
1070
    74
1070
     0
1000
MTEXTEND
  0
MTEXT
  5
563C
330
1A
100
AcDbEntity
  8
SUNPOU
100
AcDbMText
 10
69014.81682632945
 20
56471.63741178035
 30
0.0
 40
3.5
 41
0.0
 71
     9
 72
     5
  1

1001
ACAD
1000
MTEXTBEGIN
1070
    73
1070
     1
1070
    44
1040
1.0
1070
    74
1070
     0
1000
MTEXTEND
  0
MTEXT
  5
563D
330
1A
100
AcDbEntity
  8
SUNPOU
100
AcDbMText
 10
100140.9966589491
 20
98966.58307943772
 30
0.0
 40
10.5
 41
0.0
 71
     9
 72
     5
  1

1001
ACAD
1000
MTEXTBEGIN
1070
    73
1070
     1
1070
    44
1040
1.0
1070
    74
1070
     0
1000
MTEXTEND
  0
MTEXT
  5
563E
330
1A
100
AcDbEntity
  8
SUNPOU
100
AcDbMText
 10
102084.4039056586
 20
97165.53399955969
 30
0.0
 40
3.5
 41
0.0
 71
     9
 72
     5
  1

1001
ACAD
1000
MTEXTBEGIN
1070
    73
1070
     1
1070
    44
1040
1.0
1070
    74
1070
     0
1000
MTEXTEND
  0
MTEXT
  5
563F
330
1A
100
AcDbEntity
  8
SUNPOU
100
AcDbMText
 10
50581.26436474472
 20
44799.74823441275
 30
0.0
 40
10.5
 41
0.0
 71
     9
 72
     5
  1

1001
ACAD
1000
MTEXTBEGIN
1070
    73
1070
     1
1070
    44
1040
1.0
1070
    74
1070
     0
1000
MTEXTEND
  0
MTEXT
  5
5640
330
1A
100
AcDbEntity
  8
SUNPOU
100
AcDbMText
 10
36633.26426436873
 20
25627.34909530054
 30
0.0
 40
3.5
 41
0.0
 71
     7
 72
     5
  1

1001
ACAD
1000
MTEXTBEGIN
1070
    73
1070
     1
1070
    44
1040
1.0
1070
    74
1070
     0
1000
MTEXTEND
  0
MTEXT
  5
5641
330
1A
100
AcDbEntity
  8
SUNPOU
100
AcDbMText
 10
61069.42493315968
 20
52574.61207825771
 30
0.0
 40
10.5
 41
0.0
 71
     9
 72
     5
  1

1001
ACAD
1000
MTEXTBEGIN
1070
    73
1070
     1
1070
    44
1040
1.0
1070
    74
1070
     0
1000
MTEXTEND
  0
MTEXT
  5
5642
330
1A
100
AcDbEntity
  8
SUNPOU
100
AcDbMText
 10
80023.18365048967
 20
70041.18813074978
 30
0.0
 40
10.5
 41
0.0
 71
     9
 72
     5
  1

1001
ACAD
1000
MTEXTBEGIN
1070
    73
1070
     1
1070
    44
1040
1.0
1070
    74
1070
     0
1000
MTEXTEND
  0
MTEXT
  5
5643
330
1A
100
AcDbEntity
  8
SUNPOU
100
AcDbMText
 10
81966.59089719908
 20
68240.13905087176
 30
0.0
 40
3.5
 41
0.0
 71
     9
 72
     5
  1

1001
ACAD
1000
MTEXTBEGIN
1070
    73
1070
     1
1070
    44
1040
1.0
1070
    74
1070
     0
1000
MTEXTEND
  0
MTEXT
  5
5644
330
1A
100
AcDbEntity
  8
SUNPOU
100
AcDbMText
 10
113092.7707298187
 20
110735.0847185291
 30
0.0
 40
10.5
 41
0.0
 71
     9
 72
     5
  1

1001
ACAD
1000
MTEXTBEGIN
1070
    73
1070
     1
1070
    44
1040
1.0
1070
    74
1070
     0
1000
MTEXTEND
  0
MTEXT
  5
5645
330
1A
100
AcDbEntity
  8
SUNPOU
100
AcDbMText
 10
115036.1779765282
 20
108934.0356386511
 30
0.0
 40
3.5
 41
0.0
 71
     9
 72
     5
  1

1001
ACAD
1000
MTEXTBEGIN
1070
    73
1070
     1
1070
    44
1040
1.0
1070
    74
1070
     0
1000
MTEXTEND
  0
MTEXT
  5
5646
330
1A
100
AcDbEntity
  8
SUNPOU
100
AcDbMText
 10
63533.03843561433
 20
56568.24987350415
 30
0.0
 40
10.5
 41
0.0
 71
     9
 72
     5
  1

1001
ACAD
1000
MTEXTBEGIN
1070
    73
1070
     1
1070
    44
1040
1.0
1070
    74
1070
     0
1000
MTEXTEND
  0
MTEXT
  5
5647
330
1A
100
AcDbEntity
  8
SUNPOU
100
AcDbMText
 10
49585.03833523835
 20
37395.85073439196
 30
0.0
 40
3.5
 41
0.0
 71
     7
 72
     5
  1

1001
ACAD
1000
MTEXTBEGIN
1070
    73
1070
     1
1070
    44
1040
1.0
1070
    74
1070
     0
1000
MTEXTEND
  0
MTEXT
  5
5648
330
1A
100
AcDbEntity
  8
SUNPOU
100
AcDbMText
 10
77137.31641337052
 20
70907.11375048141
 30
0.0
 40
10.5
 41
0.0
 71
     9
 72
     5
  1

1001
ACAD
1000
MTEXTBEGIN
1070
    73
1070
     1
1070
    44
1040
1.0
1070
    74
1070
     0
1000
MTEXTEND
  0
MTEXT
  5
5649
330
1A
100
AcDbEntity
  8
SUNPOU
100
AcDbMText
 10
79080.72366007995
 20
69106.06467060339
 30
0.0
 40
3.5
 41
0.0
 71
     9
 72
     5
  1

1001
ACAD
1000
MTEXTBEGIN
1070
    73
1070
     1
1070
    44
1040
1.0
1070
    74
1070
     0
1000
MTEXTEND
  0
MTEXT
  5
564A
330
1A
100
AcDbEntity
  8
SUNPOU
100
AcDbMText
 10
110206.9034926996
 20
111601.0103382607
 30
0.0
 40
10.5
 41
0.0
 71
     9
 72
     5
  1

1001
ACAD
1000
MTEXTBEGIN
1070
    73
1070
     1
1070
    44
1040
1.0
1070
    74
1070
     0
1000
MTEXTEND
  0
MTEXT
  5
564B
330
1A
100
AcDbEntity
  8
SUNPOU
100
AcDbMText
 10
112150.310739409
 20
109799.9612583827
 30
0.0
 40
3.5
 41
0.0
 71
     9
 72
     5
  1

1001
ACAD
1000
MTEXTBEGIN
1070
    73
1070
     1
1070
    44
1040
1.0
1070
    74
1070
     0
1000
MTEXTEND
  0
MTEXT
  5
564C
330
1A
100
AcDbEntity
  8
SUNPOU
100
AcDbMText
 10
108819.1333204968
 20
110677.9087286761
 30
0.0
 40
10.5
 41
0.0
 71
     9
 72
     5
  1

1001
ACAD
1000
MTEXTBEGIN
1070
    73
1070
     1
1070
    44
1040
1.0
1070
    74
1070
     0
1000
MTEXTEND
  0
MTEXT
  5
564D
330
1A
100
AcDbEntity
  8
SUNPOU
100
AcDbMText
 10
110762.5405672062
 20
108876.8596487981
 30
0.0
 40
3.5
 41
0.0
 71
     9
 72
     5
  1

1001
ACAD
1000
MTEXTBEGIN
1070
    73
1070
     1
1070
    44
1040
1.0
1070
    74
1070
     0
1000
MTEXTEND
  0
MTEXT
  5
564E
330
1A
100
AcDbEntity
  8
SUNPOU
100
AcDbMText
 10
76303.05507956816
 20
68695.31179059812
 30
0.0
 40
10.5
 41
0.0
 71
     9
 72
     5
  1

1001
ACAD
1000
MTEXTBEGIN
1070
    73
1070
     1
1070
    44
1040
1.0
1070
    74
1070
     0
1000
MTEXTEND
  0
MTEXT
  5
564F
330
1A
100
AcDbEntity
  8
SUNPOU
100
AcDbMText
 10
79026.36128373271
 20
69099.99348217918
 30
0.0
 40
3.5
 41
0.0
 71
     9
 72
     5
  1

1001
ACAD
1000
MTEXTBEGIN
1070
    73
1070
     1
1070
    44
1040
1.0
1070
    74
1070
     0
1000
MTEXTEND
  0
MTEXT
  5
5650
330
1A
100
AcDbEntity
  8
SUNPOU
100
AcDbMText
 10
78234.00675862522
 20
65938.68764412436
 30
0.0
 40
10.5
 41
0.0
 71
     9
 72
     5
  1

1001
ACAD
1000
MTEXTBEGIN
1070
    73
1070
     1
1070
    44
1040
1.0
1070
    74
1070
     0
1000
MTEXTEND
  0
MTEXT
  5
5651
330
1A
100
AcDbEntity
  8
SUNPOU
100
AcDbMText
 10
80177.41400533465
 20
64137.63856424636
 30
0.0
 40
3.5
 41
0.0
 71
     9
 72
     5
  1

1001
ACAD
1000
MTEXTBEGIN
1070
    73
1070
     1
1070
    44
1040
1.0
1070
    74
1070
     0
1000
MTEXTEND
  0
MTEXT
  5
5652
330
1A
100
AcDbEntity
  8
SUNPOU
100
AcDbMText
 10
80122.50949592123
 20
64024.86668196205
 30
0.0
 40
3.5
 41
0.0
 71
     9
 72
     5
  1

1001
ACAD
1000
MTEXTBEGIN
1070
    73
1070
     1
1070
    44
1040
1.0
1070
    74
1070
     0
1000
MTEXTEND
  0
MTEXT
  5
5653
330
1A
100
AcDbEntity
  8
SUNPOU
100
AcDbMText
 10
79486.58135950133
 20
63213.54544089553
 30
0.0
 40
3.5
 41
0.0
 71
     9
 72
     5
  1

1001
ACAD
1000
MTEXTBEGIN
1070
    73
1070
     1
1070
    44
1040
1.0
1070
    74
1070
     0
1000
MTEXTEND
  0
MTEXT
  5
5654
330
1A
100
AcDbEntity
  8
SUNPOU
100
AcDbMText
 10
79485.3409400806
 20
63213.29746395804
 30
0.0
 40
10.5
 41
0.0
 71
     9
 72
     5
  1

1001
ACAD
1000
MTEXTBEGIN
1070
    73
1070
     1
1070
    44
1040
1.0
1070
    74
1070
     0
1000
MTEXTEND
  0
MTEXT
  5
5655
330
1A
100
AcDbEntity
  8
SUNPOU
100
AcDbMText
 10
85473.63363627567
 20
80747.76348077064
 30
0.0
 40
10.5
 41
0.0
 71
     9
 72
     5
  1

1001
ACAD
1000
MTEXTBEGIN
1070
    73
1070
     1
1070
    44
1040
1.0
1070
    74
1070
     0
1000
MTEXTEND
  0
MTEXT
  5
5656
330
1A
100
AcDbEntity
  8
SUNPOU
100
AcDbMText
 10
94195.80120219368
 20
88163.59801230809
 30
0.0
 40
10.5
 41
0.0
 71
     9
 72
     5
  1

1001
ACAD
1000
MTEXTBEGIN
1070
    73
1070
     1
1070
    44
1040
1.0
1070
    74
1070
     0
1000
MTEXTEND
  0
MTEXT
  5
5657
330
1A
100
AcDbEntity
  8
SUNPOU
100
AcDbMText
 10
113149.5599195236
 20
105630.1740648001
 30
0.0
 40
10.5
 41
0.0
 71
     9
 72
     5
  1

1001
ACAD
1000
MTEXTBEGIN
1070
    73
1070
     1
1070
    44
1040
1.0
1070
    74
1070
     0
1000
MTEXTEND
  0
MTEXT
  5
5658
330
1A
100
AcDbEntity
  8
SUNPOU
100
AcDbMText
 10
115092.967166233
 20
103829.1249849221
 30
0.0
 40
3.5
 41
0.0
 71
     9
 72
     5
  1

1001
ACAD
1000
MTEXTBEGIN
1070
    73
1070
     1
1070
    44
1040
1.0
1070
    74
1070
     0
1000
MTEXTEND
  0
MTEXT
  5
5659
330
1A
100
AcDbEntity
  8
SUNPOU
100
AcDbMText
 10
146219.1469988527
 20
146324.0706525794
 30
0.0
 40
10.5
 41
0.0
 71
     9
 72
     5
  1

1001
ACAD
1000
MTEXTBEGIN
1070
    73
1070
     1
1070
    44
1040
1.0
1070
    74
1070
     0
1000
MTEXTEND
  0
MTEXT
  5
565A
330
1A
100
AcDbEntity
  8
SUNPOU
100
AcDbMText
 10
148162.5542455621
 20
144523.0215727014
 30
0.0
 40
3.5
 41
0.0
 71
     9
 72
     5
  1

1001
ACAD
1000
MTEXTBEGIN
1070
    73
1070
     1
1070
    44
1040
1.0
1070
    74
1070
     0
1000
MTEXTEND
  0
MTEXT
  5
565B
330
1A
100
AcDbEntity
  8
SUNPOU
100
AcDbMText
 10
96659.41470464833
 20
92157.23580755453
 30
0.0
 40
10.5
 41
0.0
 71
     9
 72
     5
  1

1001
ACAD
1000
MTEXTBEGIN
1070
    73
1070
     1
1070
    44
1040
1.0
1070
    74
1070
     0
1000
MTEXTEND
  0
MTEXT
  5
565C
330
1A
100
AcDbEntity
  8
SUNPOU
100
AcDbMText
 10
82711.41460427234
 20
72984.83666844234
 30
0.0
 40
3.5
 41
0.0
 71
     7
 72
     5
  1

1001
ACAD
1000
MTEXTBEGIN
1070
    73
1070
     1
1070
    44
1040
1.0
1070
    74
1070
     0
1000
MTEXTEND
  0
MTEXT
  5
565D
330
1A
100
AcDbEntity
  8
SUNPOU
100
AcDbMText
 10
63696.58400126548
 20
60746.98539926055
 30
0.0
 40
10.5
 41
0.0
 71
     7
 72
     5
  1

1001
ACAD
1000
MTEXTBEGIN
1070
    73
1070
     1
1070
    44
1040
1.0
1070
    74
1070
     0
1000
MTEXTEND
  0
MTEXT
  5
565E
330
1A
100
AcDbEntity
  8
SUNPOU
100
AcDbMText
 10
51239.35573631738
 20
44902.05382116213
 30
0.0
 40
35.0
 41
0.0
 71
     9
 72
     5
  1

1001
ACAD
1000
MTEXTBEGIN
1070
    73
1070
     1
1070
    44
1040
1.0
1070
    74
1070
     0
1000
MTEXTEND
  0
MTEXT
  5
565F
330
1A
100
AcDbEntity
  8
SUNPOU
100
AcDbMText
 10
50147.84079389233
 20
45510.82923121084
 30
0.0
 40
350.0000004171781
 41
0.0
 71
     7
 72
     5
  1

1001
ACAD
1000
MTEXTBEGIN
1070
    73
1070
     1
1070
    44
1040
1.0
1070
    74
1070
     0
1000
MTEXTEND
  0
MTEXT
  5
5660
330
1A
100
AcDbEntity
  8
0
100
AcDbMText
 10
56191.79155183523
 20
43490.75159334705
 30
0.0
 40
8.0
 41
0.0
 71
     7
 72
     5
  1

1001
ACAD
1000
MTEXTBEGIN
1070
    73
1070
     1
1070
    44
1040
1.0
1070
    74
1070
     0
1000
MTEXTEND
  0
MTEXT
  5
5661
330
1A
100
AcDbEntity
  8
0
100
AcDbMText
 10
58477.14924173013
 20
44461.54188809812
 30
0.0
 40
8.0
 41
0.0
 71
     7
 72
     5
  1

1001
ACAD
1000
MTEXTBEGIN
1070
    73
1070
     1
1070
    44
1040
1.0
1070
    74
1070
     0
1000
MTEXTEND
  0
MTEXT
  5
5662
330
1A
100
AcDbEntity
  8
SUNPOU
100
AcDbMText
 10
61143.04626241227
 20
53973.65328047324
 30
0.0
 40
10.5
 41
0.0
 71
     1
 72
     5
  1

1001
ACAD
1000
MTEXTBEGIN
1070
    73
1070
     1
1070
    44
1040
1.0
1070
    74
1070
     0
1000
MTEXTEND
  0
MTEXT
  5
5663
330
1A
100
AcDbEntity
  8
SUNPOU
100
AcDbMText
 10
53212.12306647634
 20
53026.86014656028
 30
0.0
 40
10.5
 41
0.0
 71
     7
 72
     5
  1

1001
ACAD
1000
MTEXTBEGIN
1070
    73
1070
     1
1070
    44
1040
1.0
1070
    74
1070
     0
1000
MTEXTEND
  0
MTEXT
  5
5664
330
1A
100
AcDbEntity
  8
SUNPOU
100
AcDbMText
 10
56161.1067309891
 20
57927.53621840312
 30
0.0
 40
10.5
 41
0.0
 71
     7
 72
     5
  1

1001
ACAD
1000
MTEXTBEGIN
1070
    73
1070
     1
1070
    44
1040
1.0
1070
    74
1070
     0
1000
MTEXTEND
  0
MTEXT
  5
5665
330
1A
100
AcDbEntity
  8
SUNPOU
100
AcDbMText
 10
60670.18485893966
 20
60363.8369660232
 30
0.0
 40
10.5
 41
0.0
 71
     7
 72
     5
  1

1001
ACAD
1000
MTEXTBEGIN
1070
    73
1070
     1
1070
    44
1040
1.0
1070
    74
1070
     0
1000
MTEXTEND
  0
MTEXT
  5
5666
330
1A
100
AcDbEntity
  8
SUNPOU
100
AcDbMText
 10
44271.02274570799
 20
39361.43311641212
 30
0.0
 40
10.5
 41
0.0
 71
     7
 72
     5
  1

1001
ACAD
1000
MTEXTBEGIN
1070
    73
1070
     1
1070
    44
1040
1.0
1070
    74
1070
     0
1000
MTEXTEND
  0
MTEXT
  5
5667
330
1A
100
AcDbEntity
  8
SUNPOU
100
AcDbMText
 10
95462.54117960824
 20
85034.41368006038
 30
0.0
 40
10.5
 41
0.0
 71
     9
 72
     5
  1

1001
ACAD
1000
MTEXTBEGIN
1070
    73
1070
     1
1070
    44
1040
1.0
1070
    74
1070
     0
1000
MTEXTEND
  0
MTEXT
  5
5668
330
1A
100
AcDbEntity
  8
SUNPOU
100
AcDbMText
 10
104184.7087455262
 20
92450.24821159784
 30
0.0
 40
10.5
 41
0.0
 71
     9
 72
     5
  1

1001
ACAD
1000
MTEXTBEGIN
1070
    73
1070
     1
1070
    44
1040
1.0
1070
    74
1070
     0
1000
MTEXTEND
  0
MTEXT
  5
5669
330
1A
100
AcDbEntity
  8
SUNPOU
100
AcDbMText
 10
123138.4674628562
 20
109916.8242640898
 30
0.0
 40
10.5
 41
0.0
 71
     9
 72
     5
  1

1001
ACAD
1000
MTEXTBEGIN
1070
    73
1070
     1
1070
    44
1040
1.0
1070
    74
1070
     0
1000
MTEXTEND
  0
MTEXT
  5
566A
330
1A
100
AcDbEntity
  8
SUNPOU
100
AcDbMText
 10
125081.8747095656
 20
108115.7751842118
 30
0.0
 40
3.5
 41
0.0
 71
     9
 72
     5
  1

1001
ACAD
1000
MTEXTBEGIN
1070
    73
1070
     1
1070
    44
1040
1.0
1070
    74
1070
     0
1000
MTEXTEND
  0
MTEXT
  5
566B
330
1A
100
AcDbEntity
  8
SUNPOU
100
AcDbMText
 10
156208.0545421853
 20
150610.7208518691
 30
0.0
 40
10.5
 41
0.0
 71
     9
 72
     5
  1

1001
ACAD
1000
MTEXTBEGIN
1070
    73
1070
     1
1070
    44
1040
1.0
1070
    74
1070
     0
1000
MTEXTEND
  0
MTEXT
  5
566C
330
1A
100
AcDbEntity
  8
SUNPOU
100
AcDbMText
 10
158151.4617888947
 20
148809.6717719911
 30
0.0
 40
3.5
 41
0.0
 71
     9
 72
     5
  1

1001
ACAD
1000
MTEXTBEGIN
1070
    73
1070
     1
1070
    44
1040
1.0
1070
    74
1070
     0
1000
MTEXTEND
  0
MTEXT
  5
566D
330
1A
100
AcDbEntity
  8
SUNPOU
100
AcDbMText
 10
106648.3222479809
 20
96443.88600684427
 30
0.0
 40
10.5
 41
0.0
 71
     9
 72
     5
  1

1001
ACAD
1000
MTEXTBEGIN
1070
    73
1070
     1
1070
    44
1040
1.0
1070
    74
1070
     0
1000
MTEXTEND
  0
MTEXT
  5
566E
330
1A
100
AcDbEntity
  8
SUNPOU
100
AcDbMText
 10
92700.3221476049
 20
77271.48686773207
 30
0.0
 40
3.5
 41
0.0
 71
     7
 72
     5
  1

1001
ACAD
1000
MTEXTBEGIN
1070
    73
1070
     1
1070
    44
1040
1.0
1070
    74
1070
     0
1000
MTEXTEND
  0
MTEXT
  5
566F
330
1A
100
AcDbEntity
  8
SUNPOU
100
AcDbMText
 10
73685.49154459806
 20
65033.63559855027
 30
0.0
 40
10.5
 41
0.0
 71
     7
 72
     5
  1

1001
ACAD
1000
MTEXTBEGIN
1070
    73
1070
     1
1070
    44
1040
1.0
1070
    74
1070
     0
1000
MTEXTEND
  0
MTEXT
  5
5670
330
1A
100
AcDbEntity
  8
SUNPOU
100
AcDbMText
 10
61228.26327964995
 20
49188.70402045185
 30
0.0
 40
35.0
 41
0.0
 71
     9
 72
     5
  1

1001
ACAD
1000
MTEXTBEGIN
1070
    73
1070
     1
1070
    44
1040
1.0
1070
    74
1070
     0
1000
MTEXTEND
  0
MTEXT
  5
5671
330
1A
100
AcDbEntity
  8
SUNPOU
100
AcDbMText
 10
60136.74833722491
 20
49797.47943050056
 30
0.0
 40
350.0000004171781
 41
0.0
 71
     7
 72
     5
  1

1001
ACAD
1000
MTEXTBEGIN
1070
    73
1070
     1
1070
    44
1040
1.0
1070
    74
1070
     0
1000
MTEXTEND
  0
MTEXT
  5
5672
330
1A
100
AcDbEntity
  8
0
100
AcDbMText
 10
66180.69909516782
 20
47777.40179263678
 30
0.0
 40
8.0
 41
0.0
 71
     7
 72
     5
  1

1001
ACAD
1000
MTEXTBEGIN
1070
    73
1070
     1
1070
    44
1040
1.0
1070
    74
1070
     0
1000
MTEXTEND
  0
MTEXT
  5
5673
330
1A
100
AcDbEntity
  8
0
100
AcDbMText
 10
68466.05678506271
 20
48748.19208738784
 30
0.0
 40
8.0
 41
0.0
 71
     7
 72
     5
  1

1001
ACAD
1000
MTEXTBEGIN
1070
    73
1070
     1
1070
    44
1040
1.0
1070
    74
1070
     0
1000
MTEXTEND
  0
MTEXT
  5
5674
330
1A
100
AcDbEntity
  8
SUNPOU
100
AcDbMText
 10
71131.95380574485
 20
58260.30347976296
 30
0.0
 40
10.5
 41
0.0
 71
     1
 72
     5
  1

1001
ACAD
1000
MTEXTBEGIN
1070
    73
1070
     1
1070
    44
1040
1.0
1070
    74
1070
     0
1000
MTEXTEND
  0
MTEXT
  5
5675
330
1A
100
AcDbEntity
  8
SUNPOU
100
AcDbMText
 10
63201.03060980891
 20
57313.51034585002
 30
0.0
 40
10.5
 41
0.0
 71
     7
 72
     5
  1

1001
ACAD
1000
MTEXTBEGIN
1070
    73
1070
     1
1070
    44
1040
1.0
1070
    74
1070
     0
1000
MTEXTEND
  0
MTEXT
  5
5676
330
1A
100
AcDbEntity
  8
SUNPOU
100
AcDbMText
 10
66150.01427432169
 20
62214.18641769286
 30
0.0
 40
10.5
 41
0.0
 71
     7
 72
     5
  1

1001
ACAD
1000
MTEXTBEGIN
1070
    73
1070
     1
1070
    44
1040
1.0
1070
    74
1070
     0
1000
MTEXTEND
  0
MTEXT
  5
5677
330
1A
100
AcDbEntity
  8
SUNPOU
100
AcDbMText
 10
70659.09240227225
 20
64650.48716531294
 30
0.0
 40
10.5
 41
0.0
 71
     7
 72
     5
  1

1001
ACAD
1000
MTEXTBEGIN
1070
    73
1070
     1
1070
    44
1040
1.0
1070
    74
1070
     0
1000
MTEXTEND
  0
MTEXT
  5
5678
330
1A
100
AcDbEntity
  8
SUNPOU
100
AcDbMText
 10
54259.93028904056
 20
43648.08331570185
 30
0.0
 40
10.5
 41
0.0
 71
     7
 72
     5
  1

1001
ACAD
1000
MTEXTBEGIN
1070
    73
1070
     1
1070
    44
1040
1.0
1070
    74
1070
     0
1000
MTEXTEND
  0
MTEXT
  5
5679
330
1A
100
AcDbEntity
  8
SUNPOU
100
AcDbMText
 10
56070.69320041551
 20
49975.4973031804
 30
0.0
 40
10.5
 41
0.0
 71
     9
 72
     5
  1

1001
ACAD
1000
MTEXTBEGIN
1070
    73
1070
     1
1070
    44
1040
1.0
1070
    74
1070
     0
1000
MTEXTEND
  0
MTEXT
  5
567A
330
1A
100
AcDbEntity
  8
SUNPOU
100
AcDbMText
 10
64792.86076633348
 20
57391.33183471788
 30
0.0
 40
10.5
 41
0.0
 71
     9
 72
     5
  1

1001
ACAD
1000
MTEXTBEGIN
1070
    73
1070
     1
1070
    44
1040
1.0
1070
    74
1070
     0
1000
MTEXTEND
  0
MTEXT
  5
567B
330
1A
100
AcDbEntity
  8
SUNPOU
100
AcDbMText
 10
83746.61948366345
 20
74857.90788720994
 30
0.0
 40
10.5
 41
0.0
 71
     9
 72
     5
  1

1001
ACAD
1000
MTEXTBEGIN
1070
    73
1070
     1
1070
    44
1040
1.0
1070
    74
1070
     0
1000
MTEXTEND
  0
MTEXT
  5
567C
330
1A
100
AcDbEntity
  8
SUNPOU
100
AcDbMText
 10
85690.02673037287
 20
73056.85880733192
 30
0.0
 40
3.5
 41
0.0
 71
     9
 72
     5
  1

1001
ACAD
1000
MTEXTBEGIN
1070
    73
1070
     1
1070
    44
1040
1.0
1070
    74
1070
     0
1000
MTEXTEND
  0
MTEXT
  5
567D
330
1A
100
AcDbEntity
  8
SUNPOU
100
AcDbMText
 10
116816.2065629925
 20
115551.8044749892
 30
0.0
 40
10.5
 41
0.0
 71
     9
 72
     5
  1

1001
ACAD
1000
MTEXTBEGIN
1070
    73
1070
     1
1070
    44
1040
1.0
1070
    74
1070
     0
1000
MTEXTEND
  0
MTEXT
  5
567E
330
1A
100
AcDbEntity
  8
SUNPOU
100
AcDbMText
 10
118759.613809702
 20
113750.7553951112
 30
0.0
 40
3.5
 41
0.0
 71
     9
 72
     5
  1

1001
ACAD
1000
MTEXTBEGIN
1070
    73
1070
     1
1070
    44
1040
1.0
1070
    74
1070
     0
1000
MTEXTEND
  0
MTEXT
  5
567F
330
1A
100
AcDbEntity
  8
SUNPOU
100
AcDbMText
 10
67256.47426878814
 20
61384.96962996432
 30
0.0
 40
10.5
 41
0.0
 71
     9
 72
     5
  1

1001
ACAD
1000
MTEXTBEGIN
1070
    73
1070
     1
1070
    44
1040
1.0
1070
    74
1070
     0
1000
MTEXTEND
  0
MTEXT
  5
5680
330
1A
100
AcDbEntity
  8
SUNPOU
100
AcDbMText
 10
53308.47416841216
 20
42212.57049085211
 30
0.0
 40
3.5
 41
0.0
 71
     7
 72
     5
  1

1001
ACAD
1000
MTEXTBEGIN
1070
    73
1070
     1
1070
    44
1040
1.0
1070
    74
1070
     0
1000
MTEXTEND
  0
MTEXT
  5
5681
330
1A
100
AcDbEntity
  8
SUNPOU
100
AcDbMText
 10
67000.82485118274
 20
51571.63371187345
 30
0.0
 40
10.5
 41
0.0
 71
     9
 72
     5
  1

1001
ACAD
1000
MTEXTBEGIN
1070
    73
1070
     1
1070
    44
1040
1.0
1070
    74
1070
     0
1000
MTEXTEND
  0
MTEXT
  5
5682
330
1A
100
AcDbEntity
  8
SUNPOU
100
AcDbMText
 10
75722.99241710071
 20
58987.46824341094
 30
0.0
 40
10.5
 41
0.0
 71
     9
 72
     5
  1

1001
ACAD
1000
MTEXTBEGIN
1070
    73
1070
     1
1070
    44
1040
1.0
1070
    74
1070
     0
1000
MTEXTEND
  0
MTEXT
  5
5683
330
1A
100
AcDbEntity
  8
SUNPOU
100
AcDbMText
 10
94676.75113443068
 20
76454.04429590299
 30
0.0
 40
10.5
 41
0.0
 71
     9
 72
     5
  1

1001
ACAD
1000
MTEXTBEGIN
1070
    73
1070
     1
1070
    44
1040
1.0
1070
    74
1070
     0
1000
MTEXTEND
  0
MTEXT
  5
5684
330
1A
100
AcDbEntity
  8
SUNPOU
100
AcDbMText
 10
96620.1583811401
 20
74652.99521602498
 30
0.0
 40
3.5
 41
0.0
 71
     9
 72
     5
  1

1001
ACAD
1000
MTEXTBEGIN
1070
    73
1070
     1
1070
    44
1040
1.0
1070
    74
1070
     0
1000
MTEXTEND
  0
MTEXT
  5
5685
330
1A
100
AcDbEntity
  8
SUNPOU
100
AcDbMText
 10
127746.3382137598
 20
117147.9408836823
 30
0.0
 40
10.5
 41
0.0
 71
     9
 72
     5
  1

1001
ACAD
1000
MTEXTBEGIN
1070
    73
1070
     1
1070
    44
1040
1.0
1070
    74
1070
     0
1000
MTEXTEND
  0
MTEXT
  5
5686
330
1A
100
AcDbEntity
  8
SUNPOU
100
AcDbMText
 10
129689.7454604692
 20
115346.8918038043
 30
0.0
 40
3.5
 41
0.0
 71
     9
 72
     5
  1

1001
ACAD
1000
MTEXTBEGIN
1070
    73
1070
     1
1070
    44
1040
1.0
1070
    74
1070
     0
1000
MTEXTEND
  0
MTEXT
  5
5687
330
1A
100
AcDbEntity
  8
SUNPOU
100
AcDbMText
 10
78186.60591955537
 20
62981.10603865738
 30
0.0
 40
10.5
 41
0.0
 71
     9
 72
     5
  1

1001
ACAD
1000
MTEXTBEGIN
1070
    73
1070
     1
1070
    44
1040
1.0
1070
    74
1070
     0
1000
MTEXTEND
  0
MTEXT
  5
5688
330
1A
100
AcDbEntity
  8
SUNPOU
100
AcDbMText
 10
64238.60581917939
 20
43808.70689954517
 30
0.0
 40
3.5
 41
0.0
 71
     7
 72
     5
  1

1001
ACAD
1000
MTEXTBEGIN
1070
    73
1070
     1
1070
    44
1040
1.0
1070
    74
1070
     0
1000
MTEXTEND
  0
MTEXT
  5
5689
330
1A
100
AcDbEntity
  8
SUNPOU
100
AcDbMText
 10
33428.13481137435
 20
32770.04710035564
 30
0.0
 40
10.5
 41
0.0
 71
     9
 72
     5
  1

1001
ACAD
1000
MTEXTBEGIN
1070
    73
1070
     1
1070
    44
1040
1.0
1070
    74
1070
     0
1000
MTEXTEND
  0
MTEXT
  5
568A
330
1A
100
AcDbEntity
  8
SUNPOU
100
AcDbMText
 10
52381.89352870432
 20
50236.62315284769
 30
0.0
 40
10.5
 41
0.0
 71
     9
 72
     5
  1

1001
ACAD
1000
MTEXTBEGIN
1070
    73
1070
     1
1070
    44
1040
1.0
1070
    74
1070
     0
1000
MTEXTEND
  0
MTEXT
  5
568B
330
1A
100
AcDbEntity
  8
SUNPOU
100
AcDbMText
 10
54325.30077541374
 20
48435.57407296968
 30
0.0
 40
3.5
 41
0.0
 71
     9
 72
     5
  1

1001
ACAD
1000
MTEXTBEGIN
1070
    73
1070
     1
1070
    44
1040
1.0
1070
    74
1070
     0
1000
MTEXTEND
  0
MTEXT
  5
568C
330
1A
100
AcDbEntity
  8
SUNPOU
100
AcDbMText
 10
85451.48060803343
 20
90930.51974062703
 30
0.0
 40
10.5
 41
0.0
 71
     9
 72
     5
  1

1001
ACAD
1000
MTEXTBEGIN
1070
    73
1070
     1
1070
    44
1040
1.0
1070
    74
1070
     0
1000
MTEXTEND
  0
MTEXT
  5
568D
330
1A
100
AcDbEntity
  8
SUNPOU
100
AcDbMText
 10
87394.88785474286
 20
89129.47066074901
 30
0.0
 40
3.5
 41
0.0
 71
     9
 72
     5
  1

1001
ACAD
1000
MTEXTBEGIN
1070
    73
1070
     1
1070
    44
1040
1.0
1070
    74
1070
     0
1000
MTEXTEND
  0
MTEXT
  5
568E
330
1A
100
AcDbEntity
  8
SUNPOU
100
AcDbMText
 10
35891.74831382901
 20
36763.68489560208
 30
0.0
 40
10.5
 41
0.0
 71
     9
 72
     5
  1

1001
ACAD
1000
MTEXTBEGIN
1070
    73
1070
     1
1070
    44
1040
1.0
1070
    74
1070
     0
1000
MTEXTEND
  0
MTEXT
  5
568F
330
1A
100
AcDbEntity
  8
SUNPOU
100
AcDbMText
 10
21943.74821345303
 20
17591.28575648986
 30
0.0
 40
3.5
 41
0.0
 71
     7
 72
     5
  1

1001
ACAD
1000
MTEXTBEGIN
1070
    73
1070
     1
1070
    44
1040
1.0
1070
    74
1070
     0
1000
MTEXTEND
  0
MTEXT
  5
11084
330
1A
100
AcDbEntity
  8
ZISSEN1
100
AcDbMText
 10
-1290.801949536872
 20
1689.682402445169
 30
0.0
 40
5.0
 41
173.7918983833909
 71
     1
 72
     5
  1
CB-55-01/PS-T35  No.SS0001f94
1001
ACAD
1000
MTEXTBEGIN
1070
    73
1070
     1
1070
    44
1040
1.0
1070
    74
1070
     0
1000
MTEXTEND
1000
MTEXTBEGIN
1070
    73
1070
     1
1070
    44
1040
1.0
1070
    74
1070
     0
1000
MTEXTEND
1000
MTEXTBEGIN
1070
    73
1070
     1
1070
    44
1040
1.0
1070
    74
1070
     0
1000
MTEXTEND
  0
XLINE
  5
126D7
330
1A
100
AcDbEntity
  8
SOUZOUSEN
100
AcDbXline
 10
-2343.442450720007
 20
3248.111410528631
 30
0.0
 11
0.0
 21
1.0
 31
0.0
  0
XLINE
  5
126D8
330
1A
100
AcDbEntity
  8
SOUZOUSEN
100
AcDbXline
 10
-2343.419932224668
 20
3244.179140051123
 30
0.0
 11
0.0
 21
-1.0
 31
0.0
  0
LINE
  5
12B77
330
1A
100
AcDbEntity
  8
ZISSEN1
  6
DASHEDX2
100
AcDbLine
 10
-1207.281306319864
 20
1619.74656459616
 30
0.0
 11
-1207.281306319864
 21
1594.746564596159
 31
0.0
  0
LINE
  5
12B78
330
1A
100
AcDbEntity
  8
ZISSEN1
100
AcDbLine
 10
-1203.381306319864
 20
1621.203993988808
 30
0.0
 11
-1203.381306319864
 21
1600.883993988808
 31
0.0
  0
LINE
  5
12B79
330
1A
100
AcDbEntity
  8
ZISSEN1
  6
DASHEDX2
100
AcDbLine
 10
-1203.981306319865
 20
1617.24656459616
 30
0.0
 11
-1203.981306319865
 21
1612.24656459616
 31
0.0
  0
LINE
  5
12B7A
330
1A
100
AcDbEntity
  8
ZISSEN1
  6
DASHEDX2
100
AcDbLine
 10
-1198.981306319865
 20
1612.24656459616
 30
0.0
 11
-1198.981306319865
 21
1617.24656459616
 31
0.0
  0
LINE
  5
12B7B
330
1A
100
AcDbEntity
  8
ZISSEN1
100
AcDbLine
 10
-1202.981306319865
 20
1616.99656459616
 30
0.0
 11
-1202.981306319865
 21
1612.74656459616
 31
0.0
  0
LINE
  5
12B7C
330
1A
100
AcDbEntity
  8
ZISSEN1
100
AcDbLine
 10
-1199.981306319865
 20
1616.99656459616
 30
0.0
 11
-1199.981306319865
 21
1612.74656459616
 31
0.0
  0
LINE
  5
12B7D
330
1A
100
AcDbEntity
  8
ZISSEN1
100
AcDbLine
 10
-1204.081306319865
 20
1617.24656459616
 30
0.0
 11
-1204.081306319865
 21
1612.74656459616
 31
0.0
  0
LINE
  5
12B7E
330
1A
100
AcDbEntity
  8
ZISSEN1
  6
DASHEDX2
100
AcDbLine
 10
-1243.936150583528
 20
1612.24618759616
 30
0.0
 11
-1243.936150583528
 21
1617.24618759616
 31
0.0
  0
LINE
  5
12B7F
330
1A
100
AcDbEntity
  8
ZISSEN1
100
AcDbLine
 10
-1243.486150583529
 20
1612.74618759616
 30
0.0
 11
-1243.486150583529
 21
1617.24618759616
 31
0.0
  0
LINE
  5
12B80
330
1A
100
AcDbEntity
  8
ZISSEN1
100
AcDbLine
 10
-1244.436150583528
 20
1612.74618759616
 30
0.0
 11
-1244.436150583528
 21
1617.24618759616
 31
0.0
  0
LINE
  5
12B81
330
1A
100
AcDbEntity
  8
ZISSEN1
100
AcDbLine
 10
-1193.381306319865
 20
1607.246564596159
 30
0.0
 11
-1193.381306319865
 21
1619.74656459616
 31
0.0
  0
LINE
  5
12B82
330
1A
100
AcDbEntity
  8
ZISSEN1
100
AcDbLine
 10
-1193.381306319865
 20
1602.043993988808
 30
0.0
 11
-1193.381306319865
 21
1622.043993988808
 31
0.0
  0
LINE
  5
12B85
330
1A
100
AcDbEntity
  8
ZISSEN1
100
AcDbLine
 10
-1195.881306319865
 20
1612.74656459616
 30
0.0
 11
-1195.881306319865
 21
1617.24656459616
 31
0.0
  0
LINE
  5
12B86
330
1A
100
AcDbEntity
  8
ZISSEN1
  6
DASHEDX2
100
AcDbLine
 10
-1196.081306319865
 20
1617.24656459616
 30
0.0
 11
-1196.081306319865
 21
1612.74656459616
 31
0.0
  0
MTEXT
  5
12B88
330
1A
100
AcDbEntity
  8
ZISSEN1
100
AcDbMText
 10
-1211.758478995868
 20
1593.385032151212
 30
0.0
 40
3.0
 41
77.06669999999999
 71
     1
 72
     5
  1
ヒューズカバー
 11
0.0000000000000001
 21
1.0
 31
0.0
1001
ACAD
1000
MTEXTBEGIN
1070
    73
1070
     1
1070
    44
1040
1.0
1070
    74
1070
     0
1000
MTEXTEND
  0
MTEXT
  5
12B89
330
1A
100
AcDbEntity
  8
ZISSEN1
100
AcDbMText
 10
-1233.801448873403
 20
1597.321212018827
 30
0.0
 40
2.5
 41
77.06669999999999
 71
     1
 72
     5
  1
(ﾕｰｻﾞｰ取付寸法)
 11
0.0000000000000001
 21
1.0
 31
0.0
1001
ACAD
1000
MTEXTBEGIN
1070
    73
1070
     1
1070
    44
1040
1.0
1070
    74
1070
     0
1000
MTEXTEND
  0
LINE
  5
12B8A
330
1A
100
AcDbEntity
  8
ZISSEN1
  6
DASHEDX2
100
AcDbLine
 10
-1251.086783515535
 20
1621.203616988808
 30
0.0
 11
-1251.086783515535
 21
1580.563616988808
 31
0.0
  0
LINE
  5
12B8C
330
1A
100
AcDbEntity
  8
ZISSEN1
100
AcDbLine
 10
-1265.286783515535
 20
1601.883616988808
 30
0.0
 11
-1265.286783515535
 21
1621.203616988808
 31
0.0
  0
LINE
  5
12B8D
330
1A
100
AcDbEntity
  8
ZISSEN1
100
AcDbLine
 10
-1262.286783515535
 20
1601.043993988808
 30
0.0
 11
-1262.286783515535
 21
1621.203616988808
 31
0.0
  0
LINE
  5
12B8E
330
1A
100
AcDbEntity
  8
ZISSEN1
100
AcDbLine
 10
-1252.936783515534
 20
1621.203616988808
 30
0.0
 11
-1252.936783515534
 21
1600.883616988808
 31
0.0
  0
LINE
  5
12B8F
330
1A
100
AcDbEntity
  8
ZISSEN1
100
AcDbLine
 10
-1261.036783515535
 20
1600.883616988808
 30
0.0
 11
-1261.036783515535
 21
1621.203616988808
 31
0.0
  0
LINE
  5
12B90
330
1A
100
AcDbEntity
  8
ZISSEN1
100
AcDbLine
 10
-1260.036783515535
 20
1600.883616988808
 30
0.0
 11
-1260.036783515535
 21
1621.203616988808
 31
0.0
  0
LINE
  5
12B91
330
1A
100
AcDbEntity
  8
ZISSEN1
  6
DASHEDX2
100
AcDbLine
 10
-1248.936150583528
 20
1612.24618759616
 30
0.0
 11
-1248.936150583528
 21
1617.24618759616
 31
0.0
  0
LINE
  5
12B92
330
1A
100
AcDbEntity
  8
ZISSEN1
100
AcDbLine
 10
-1249.386150583528
 20
1612.74618759616
 30
0.0
 11
-1249.386150583528
 21
1617.24618759616
 31
0.0
  0
LINE
  5
12B93
330
1A
100
AcDbEntity
  8
ZISSEN1
100
AcDbLine
 10
-1248.436150583528
 20
1612.74618759616
 30
0.0
 11
-1248.436150583528
 21
1617.24618759616
 31
0.0
  0
CIRCLE
  5
12B94
330
1A
100
AcDbEntity
  8
KAKURESEN1
  6
DASHEDX2
100
AcDbCircle
 10
-1255.281306319865
 20
1617.043616988808
 30
0.0
 40
1.5
  0
LINE
  5
12B95
330
1A
100
AcDbEntity
  8
KAKURESEN1
  6
DASHEDX2
100
AcDbLine
 10
-1255.281306319864
 20
1615.043616988808
 30
0.0
 11
-1255.281306319864
 21
1619.043616988808
 31
0.0
  0
CIRCLE
  5
12B96
330
1A
100
AcDbEntity
  8
KAKURESEN1
  6
DASHEDX2
100
AcDbCircle
 10
-1255.281306319865
 20
1617.043616988808
 30
0.0
 40
1.3
  0
CIRCLE
  5
12B97
330
1A
100
AcDbEntity
  8
ZISSEN1
100
AcDbCircle
 10
-1256.986783515535
 20
1618.543616988808
 30
0.0
 40
2.0
  0
LINE
  5
12B98
330
1A
100
AcDbEntity
  8
ZISSEN1
100
AcDbLine
 10
-1268.781306319865
 20
1585.043993988808
 30
0.0
 11
-1268.781306319864
 21
1645.043993759162
 31
0.0
  0
LINE
  5
12B99
330
1A
100
AcDbEntity
  8
ZISSEN1
100
AcDbLine
 10
-1268.781306319865
 20
1585.043616988808
 30
0.0
 11
-1268.781306319864
 21
1645.043993759162
 31
0.0
  0
LINE
  5
12B9A
330
1A
100
AcDbEntity
  8
ZISSEN1
100
AcDbLine
 10
-1241.781306319865
 20
1579.043616988808
 30
0.0
 11
-1241.781306319865
 21
1639.043993759162
 31
0.0
  0
LINE
  5
12B9B
330
1A
100
AcDbEntity
  8
ZISSEN1
100
AcDbLine
 10
-1241.781306319865
 20
1579.043993988808
 30
0.0
 11
-1241.781306319865
 21
1639.044370759162
 31
0.0
  0
LINE
  5
12B9C
330
1A
100
AcDbEntity
  8
ZISSEN1
100
AcDbLine
 10
-1191.781306319865
 20
1578.043993988808
 30
0.0
 11
-1191.781306319865
 21
1646.044370759161
 31
0.0
  0
LINE
  5
12B9D
330
1A
100
AcDbEntity
  8
ZISSEN1
100
AcDbLine
 10
-1193.381306319865
 20
1578.043993988808
 30
0.0
 11
-1193.381306319865
 21
1646.044370759161
 31
0.0
  0
LINE
  5
12B9E
330
1A
100
AcDbEntity
  8
ZISSEN1
100
AcDbLine
 10
-1183.781306319865
 20
1646.043993988808
 30
0.0
 11
-1183.781306319865
 21
1578.043993988808
 31
0.0
  0
LINE
  5
12B9F
330
1A
100
AcDbEntity
  8
ZISSEN1
100
AcDbLine
 10
-1185.781306319864
 20
1646.043993988808
 30
0.0
 11
-1185.781306319864
 21
1578.043993988808
 31
0.0
  0
LINE
  5
12BA0
330
1A
100
AcDbEntity
  8
ZISSEN1
100
AcDbLine
 10
-1183.781306319865
 20
1646.043993988808
 30
0.0
 11
-1183.781306319865
 21
1578.043993988808
 31
0.0
  0
LEADER
  5
12BA1
330
1A
100
AcDbEntity
  8
SUNPOU
 62
     0
100
AcDbLeader
  3
標準スタイル
 76
     2
 10
-1261.565462218485
 20
1612.81919952803
 30
0.0
 10
-1289.78701724751
 20
1636.587678735341
 30
0.0
1001
ACAD
1000
DSTYLE
1002
{
1070
     5
1000

1070
    77
1070
     0
1070
   147
1040
1.0
1070
   176
1070
     0
1070
   342
1005
0
1002
}
  0
DIMENSION
  5
12BA2
330
1A
100
AcDbEntity
  8
SUNPOU
100
AcDbDimension
  2
*D0
 10
-1224.505920180514
 20
1646.043993759161
 30
0.0
 11
-1224.505920180514
 21
1612.044182373984
 31
0.0
 70
   160
  3
標準スタイル
100
AcDbAlignedDimension
 13
-1241.594269027476
 23
1578.043993988808
 33
0.0
 14
-1241.594269027477
 24
1646.043993759161
 34
0.0
 50
90.0
100
AcDbRotatedDimension
1001
ACAD
1000
DSTYLE
1002
{
1070
   271
1070
     2
1070
   340
1005
10
1070
   178
1070
     0
1070
   177
1070
     0
1070
   176
1070
     0
1070
   372
1070
    13
1070
   371
1070
    13
1070
    40
1040
1.0
1002
}
  0
DIMENSION
  5
12BA4
330
1A
100
AcDbEntity
  8
SUNPOU
100
AcDbDimension
  2
*D1
 10
-1235.229869598653
 20
1581.043993988808
 30
0.0
 11
-1235.229869598654
 21
1612.044182373984
 31
0.0
 70
   160
  3
標準スタイル
100
AcDbAlignedDimension
 13
-1242.598684178631
 23
1643.043993759162
 33
0.0
 14
-1241.89455497392
 24
1581.043993988808
 34
0.0
 50
90.0
100
AcDbRotatedDimension
1001
ACAD
1000
DSTYLE
1002
{
1070
   271
1070
     2
1070
   340
1005
10
1070
   178
1070
     0
1070
   177
1070
     0
1070
   176
1070
     0
1070
   372
1070
    13
1070
   371
1070
    13
1070
    40
1040
1.0
1002
}
  0
LINE
  5
12BA5
330
1A
100
AcDbEntity
  8
ZISSEN1
  6
DASHEDX2
100
AcDbLine
 10
-1248.936150583528
 20
1602.246187596159
 30
0.0
 11
-1243.936150583528
 21
1602.246187596159
 31
0.0
  0
LINE
  5
12BA6
330
1A
100
AcDbEntity
  8
ZISSEN1
100
AcDbLine
 10
-1248.436150583527
 20
1602.14618759616
 30
0.0
 11
-1244.436150583528
 21
1602.14618759616
 31
0.0
  0
LINE
  5
12BA7
330
1A
100
AcDbEntity
  8
ZISSEN1
100
AcDbLine
 10
-1246.436150583527
 20
1601.74618759616
 30
0.0
 11
-1248.436150583527
 21
1601.74618759616
 31
0.0
  0
LINE
  5
12BA8
330
1A
100
AcDbEntity
  8
ZISSEN1
100
AcDbLine
 10
-1249.386150583528
 20
1601.74618759616
 30
0.0
 11
-1243.486150583529
 21
1601.74618759616
 31
0.0
  0
LINE
  5
12BA9
330
1A
100
AcDbEntity
  8
ZISSEN1
  6
DASHEDX2
100
AcDbLine
 10
-1248.936150583528
 20
1597.24618759616
 30
0.0
 11
-1243.936150583528
 21
1597.24618759616
 31
0.0
  0
LINE
  5
12BAA
330
1A
100
AcDbEntity
  8
ZISSEN1
100
AcDbLine
 10
-1248.436150583527
 20
1596.846187596159
 30
0.0
 11
-1244.436150583528
 21
1596.846187596159
 31
0.0
  0
LINE
  5
12BAB
330
1A
100
AcDbEntity
  8
ZISSEN1
100
AcDbLine
 10
-1246.436150583527
 20
1597.24618759616
 30
0.0
 11
-1248.436150583527
 21
1597.24618759616
 31
0.0
  0
LINE
  5
12BAC
330
1A
100
AcDbEntity
  8
ZISSEN1
100
AcDbLine
 10
-1249.386150583528
 20
1597.24618759616
 30
0.0
 11
-1243.486150583529
 21
1597.24618759616
 31
0.0
  0
LINE
  5
12BAD
330
1A
100
AcDbEntity
  8
ZISSEN1
100
AcDbLine
 10
-1261.781306319863
 20
1578.043616988808
 30
0.0
 11
-1242.781306319864
 21
1578.043616988808
 31
0.0
  0
LINE
  5
12BAE
330
1A
100
AcDbEntity
  8
KAKURESEN1
  6
DASHEDX2
100
AcDbLine
 10
-1248.281306319865
 20
1612.043616988808
 30
0.0
 11
-1252.281306319865
 21
1612.043616988808
 31
0.0
  0
LINE
  5
12BAF
330
1A
100
AcDbEntity
  8
ZISSEN1
  6
DASHEDX2
100
AcDbLine
 10
-1243.936150583528
 20
1612.24618759616
 30
0.0
 11
-1248.936150583528
 21
1612.24618759616
 31
0.0
  0
LINE
  5
12BB0
330
1A
100
AcDbEntity
  8
ZISSEN1
100
AcDbLine
 10
-1249.386150583528
 20
1612.74618759616
 30
0.0
 11
-1243.486150583529
 21
1612.74618759616
 31
0.0
  0
LINE
  5
12BB1
330
1A
100
AcDbEntity
  8
ZISSEN1
100
AcDbLine
 10
-1246.436150583527
 20
1612.74618759616
 30
0.0
 11
-1248.436150583527
 21
1612.74618759616
 31
0.0
  0
LINE
  5
12BB2
330
1A
100
AcDbEntity
  8
ZISSEN1
100
AcDbLine
 10
-1248.436150583527
 20
1612.346187596159
 30
0.0
 11
-1244.436150583528
 21
1612.346187596159
 31
0.0
  0
MTEXT
  5
12BB3
330
1A
100
AcDbEntity
  8
ZISSEN1
100
AcDbMText
 10
-1266.944902211422
 20
1568.408852092665
 30
0.0
 40
2.5
 41
27.43959999999999
 71
     1
 72
     5
  1
(ﾕｰｻﾞｰ取付寸法)
  7
ゴシック体
1001
ACAD
1000
MTEXTBEGIN
1070
    73
1070
     1
1070
    44
1040
1.0
1070
    74
1070
     0
1000
MTEXTEND
  0
DIMENSION
  5
12BB4
330
1A
100
AcDbEntity
  8
SUNPOU
100
AcDbDimension
  2
*D2
 10
-1241.781306319865
 20
1558.302045879392
 30
0.0
 11
-1255.281306319864
 21
1558.302045879392
 31
0.0
 70
   160
  3
標準スタイル
100
AcDbAlignedDimension
 13
-1268.781306319865
 23
1578.861892255801
 33
0.0
 14
-1241.781306319865
 24
1578.861892255801
 34
0.0
100
AcDbRotatedDimension
1001
ACAD
1000
DSTYLE
1002
{
1070
   271
1070
     2
1070
   340
1005
10
1070
   178
1070
     0
1070
   177
1070
     0
1070
   176
1070
     0
1070
   372
1070
    13
1070
   371
1070
    13
1070
    40
1040
1.0
1002
}
  0
LINE
  5
12BB6
330
1A
100
AcDbEntity
  8
ZISSEN1
100
AcDbLine
 10
-1241.781306319865
 20
1533.092903975192
 30
0.0
 11
-1268.781306319864
 21
1533.092903975192
 31
0.0
  0
LINE
  5
12BB7
330
1A
100
AcDbEntity
  8
ZISSEN1
100
AcDbLine
 10
-1248.531306319864
 20
1533.092903975192
 30
0.0
 11
-1243.031306319864
 21
1533.092903975192
 31
0.0
  0
LINE
  5
12BB8
330
1A
100
AcDbEntity
  8
ZISSEN1
100
AcDbLine
 10
-1241.781306319865
 20
1533.092903975192
 30
0.0
 11
-1268.781306319864
 21
1533.092903975192
 31
0.0
  0
LINE
  5
12BB9
330
1A
100
AcDbEntity
  8
ZISSEN1
100
AcDbLine
 10
-1268.781306319864
 20
1531.092903975192
 30
0.0
 11
-1241.781306319865
 21
1531.092903975192
 31
0.0
  0
LINE
  5
12BBA
330
1A
100
AcDbEntity
  8
ZISSEN1
100
AcDbLine
 10
-1248.531306319864
 20
1533.092903975192
 30
0.0
 11
-1243.031306319864
 21
1533.092903975192
 31
0.0
  0
LINE
  5
12BBB
330
1A
100
AcDbEntity
  8
ZISSEN1
100
AcDbLine
 10
-1268.781306319864
 20
1539.092903975192
 30
0.0
 11
-1241.781306319865
 21
1539.092903975192
 31
0.0
  0
LINE
  5
12BBC
330
1A
100
AcDbEntity
  8
ZISSEN1
100
AcDbLine
 10
-1268.781306319864
 20
1540.692903975192
 30
0.0
 11
-1241.781306319865
 21
1540.692903975192
 31
0.0
  0
CIRCLE
  5
12BBD
330
1A
100
AcDbEntity
  8
ZISSEN1
100
AcDbCircle
 10
-1246.436150583529
 20
1548.792903975192
 30
0.0
 40
2.5
  0
LINE
  5
12BBE
330
1A
100
AcDbEntity
  8
ZISSEN1
100
AcDbLine
 10
-1247.936150583528
 20
1543.392903975192
 30
0.0
 11
-1248.836150583528
 21
1543.392903975192
 31
0.0
  0
LINE
  5
12BBF
330
1A
100
AcDbEntity
  8
ZISSEN1
100
AcDbLine
 10
-1247.036150583529
 20
1540.692903975192
 30
0.0
 11
-1248.436150583528
 21
1540.692903975192
 31
0.0
  0
LINE
  5
12BC0
330
1A
100
AcDbEntity
  8
ZISSEN1
100
AcDbLine
 10
-1248.436150583528
 20
1542.692903975192
 30
0.0
 11
-1247.936150583528
 21
1542.692903975192
 31
0.0
  0
ARC
  5
12BC1
330
1A
100
AcDbEntity
  8
ZISSEN1
100
AcDbCircle
 10
-1250.29865058353
 20
1550.238358520646
 30
0.0
 40
1.863298541999997
100
AcDbArc
 50
1.677493324747447
 51
38.28871971911867
  0
LINE
  5
12BC2
330
1A
100
AcDbEntity
  8
ZISSEN1
100
AcDbLine
 10
-1248.436150583528
 20
1543.792903975192
 30
0.0
 11
-1244.436150583529
 21
1543.792903975192
 31
0.0
  0
LINE
  5
12BC3
330
1A
100
AcDbEntity
  8
ZISSEN1
100
AcDbLine
 10
-1245.781306319864
 20
1539.092903975192
 30
0.0
 11
-1248.531306319864
 21
1539.092903975192
 31
0.0
  0
LINE
  5
12BC4
330
1A
100
AcDbEntity
  8
ZISSEN1
100
AcDbLine
 10
-1253.281306319864
 20
1531.092903975192
 30
0.0
 11
-1247.281306319864
 21
1531.092903975192
 31
0.0
  0
LINE
  5
12BC5
330
1A
100
AcDbEntity
  8
ZISSEN1
100
AcDbLine
 10
-1253.281306319864
 20
1526.092903975192
 30
0.0
 11
-1247.281306319864
 21
1526.092903975192
 31
0.0
  0
LINE
  5
12BC6
330
1A
100
AcDbEntity
  8
ZISSEN1
100
AcDbLine
 10
-1253.281306319864
 20
1521.092903975192
 30
0.0
 11
-1247.281306319864
 21
1521.092903975192
 31
0.0
  0
LINE
  5
12BC7
330
1A
100
AcDbEntity
  8
ZISSEN1
100
AcDbLine
 10
-1241.936150583529
 20
1540.692903975192
 30
0.0
 11
-1250.936150583529
 21
1540.692903975192
 31
0.0
  0
ARC
  5
12BC8
330
1A
100
AcDbEntity
  8
ZISSEN1
  6
DASHEDX2
100
AcDbCircle
 10
-1246.436150583529
 20
1550.092903975192
 30
0.0
 40
4.5
100
AcDbArc
 50
0.0
 51
181.6455043691906
  0
LINE
  5
12BC9
330
1A
100
AcDbEntity
  8
ZISSEN1
100
AcDbLine
 10
-1267.781306319864
 20
1533.092903975192
 30
0.0
 11
-1267.781306319864
 21
1531.092903975192
 31
0.0
  0
LINE
  5
12BCA
330
1A
100
AcDbEntity
  8
ZISSEN1
100
AcDbLine
 10
-1268.781306319864
 20
1533.092903975192
 30
0.0
 11
-1268.781306319864
 21
1531.092903975192
 31
0.0
  0
LINE
  5
12BCB
330
1A
100
AcDbEntity
  8
ZISSEN1
100
AcDbLine
 10
-1267.781306319864
 20
1533.092903975192
 30
0.0
 11
-1267.781306319864
 21
1531.092903975192
 31
0.0
  0
LINE
  5
12BCC
330
1A
100
AcDbEntity
  8
ZISSEN1
100
AcDbLine
 10
-1268.781306319864
 20
1533.092903975192
 30
0.0
 11
-1268.781306319864
 21
1531.092903975192
 31
0.0
  0
LINE
  5
12BCD
330
1A
100
AcDbEntity
  8
ZISSEN1
100
AcDbLine
 10
-1253.281306319864
 20
1531.092903975192
 30
0.0
 11
-1253.281306319864
 21
1521.092903975192
 31
0.0
  0
LINE
  5
12BCE
330
1A
100
AcDbEntity
  8
ZISSEN1
100
AcDbLine
 10
-1263.281306319864
 20
1531.092903975192
 30
0.0
 11
-1263.281306319864
 21
1521.092903975192
 31
0.0
  0
LINE
  5
12BCF
330
1A
100
AcDbEntity
  8
ZISSEN1
100
AcDbLine
 10
-1263.281306319864
 20
1521.092903975192
 30
0.0
 11
-1257.281306319864
 21
1521.092903975192
 31
0.0
  0
LINE
  5
12BD0
330
1A
100
AcDbEntity
  8
ZISSEN1
100
AcDbLine
 10
-1257.281306319864
 20
1521.092903975192
 30
0.0
 11
-1257.281306319864
 21
1531.092903975192
 31
0.0
  0
LINE
  5
12BD1
330
1A
100
AcDbEntity
  8
ZISSEN1
100
AcDbLine
 10
-1263.281306319864
 20
1526.092903975192
 30
0.0
 11
-1257.281306319864
 21
1526.092903975192
 31
0.0
  0
LINE
  5
12BD2
330
1A
100
AcDbEntity
  8
ZISSEN1
100
AcDbLine
 10
-1263.281306319864
 20
1531.092903975192
 30
0.0
 11
-1257.281306319864
 21
1531.092903975192
 31
0.0
  0
CIRCLE
  5
12BD4
330
1A
100
AcDbEntity
  8
ZISSEN1
100
AcDbCircle
 10
-1256.986783515535
 20
1608.543616988808
 30
0.0
 40
2.0
  0
LINE
  5
12BD5
330
1A
100
AcDbEntity
  8
ZISSEN1
  6
DASHEDX2
100
AcDbLine
 10
-1248.686150583528
 20
1602.246187596159
 30
0.0
 11
-1248.686150583528
 21
1612.24618759616
 31
0.0
  0
LINE
  5
12BDE
330
1A
100
AcDbEntity
  8
ZISSEN1
  6
DASHEDX2
100
AcDbLine
 10
-1261.036783515536
 20
1580.563616988808
 30
0.0
 11
-1262.281306319864
 21
1580.563616988808
 31
0.0
  0
LINE
  5
12BDF
330
1A
100
AcDbEntity
  8
ZISSEN1
  6
DASHEDX2
100
AcDbLine
 10
-1261.036783515536
 20
1600.883616988808
 30
0.0
 11
-1262.286783515535
 21
1600.883616988808
 31
0.0
  0
LINE
  5
12BE0
330
1A
100
AcDbEntity
  8
ZISSEN1
  6
DASHEDX2
100
AcDbLine
 10
-1252.936783515534
 20
1600.883616988808
 30
0.0
 11
-1251.086783515535
 21
1600.883616988808
 31
0.0
  0
LINE
  5
12BE1
330
1A
100
AcDbEntity
  8
ZISSEN1
  6
DASHEDX2
100
AcDbLine
 10
-1252.936783515535
 20
1580.563616988808
 30
0.0
 11
-1251.086783515535
 21
1580.563616988808
 31
0.0
  0
LINE
  5
12BE2
330
1A
100
AcDbEntity
  8
ZISSEN1
100
AcDbLine
 10
-1262.286783515535
 20
1601.043993988808
 30
0.0
 11
-1262.286783515535
 21
1584.543993988808
 31
0.0
  0
LINE
  5
12BE5
330
1A
100
AcDbEntity
  8
ZISSEN1
100
AcDbLine
 10
-1262.286783515535
 20
1600.883616988808
 30
0.0
 11
-1265.286783515535
 21
1601.883616988808
 31
0.0
  0
LINE
  5
12BE7
330
1A
100
AcDbEntity
  8
ZISSEN1
100
AcDbLine
 10
-1262.286783515535
 20
1600.883616988808
 30
0.0
 11
-1265.286783515535
 21
1599.883616988808
 31
0.0
  0
LINE
  5
12BE8
330
1A
100
AcDbEntity
  8
ZISSEN1
100
AcDbLine
 10
-1265.286783515535
 20
1599.883616988808
 30
0.0
 11
-1265.286783515535
 21
1584.543993988808
 31
0.0
  0
LINE
  5
12BE9
330
1A
100
AcDbEntity
  8
ZISSEN1
100
AcDbLine
 10
-1254.578735712513
 20
1605.198461252471
 30
0.0
 11
-1254.978735712513
 21
1605.198461252471
 31
0.0
  0
LINE
  5
12BEA
330
1A
100
AcDbEntity
  8
KAKURESEN1
  6
DASHEDX2
100
AcDbLine
 10
-1255.281306319864
 20
1605.043616988808
 30
0.0
 11
-1255.281306319864
 21
1609.043616988808
 31
0.0
  0
CIRCLE
  5
12BEB
330
1A
100
AcDbEntity
  8
KAKURESEN1
  6
DASHEDX2
100
AcDbCircle
 10
-1255.281306319865
 20
1607.043616988808
 30
0.0
 40
1.5
  0
CIRCLE
  5
12BEC
330
1A
100
AcDbEntity
  8
KAKURESEN1
  6
DASHEDX2
100
AcDbCircle
 10
-1255.281306319865
 20
1607.043616988808
 30
0.0
 40
1.3
  0
LINE
  5
12BEF
330
1A
100
AcDbEntity
  8
ZISSEN1
100
AcDbLine
 10
-1261.036783515536
 20
1600.883616988808
 30
0.0
 11
-1252.936783515535
 21
1600.883616988808
 31
0.0
  0
LINE
  5
12BF0
330
1A
100
AcDbEntity
  8
ZISSEN1
100
AcDbLine
 10
-1252.936783515535
 20
1600.883616988808
 30
0.0
 11
-1252.936783515535
 21
1580.563616988808
 31
0.0
  0
LINE
  5
12BF1
330
1A
100
AcDbEntity
  8
ZISSEN1
100
AcDbLine
 10
-1252.936783515535
 20
1580.563616988808
 30
0.0
 11
-1261.036783515536
 21
1580.563616988808
 31
0.0
  0
LINE
  5
12BF2
330
1A
100
AcDbEntity
  8
ZISSEN1
100
AcDbLine
 10
-1261.036783515536
 20
1580.563616988808
 30
0.0
 11
-1261.036783515536
 21
1600.883616988808
 31
0.0
  0
CIRCLE
  5
12BF3
330
1A
100
AcDbEntity
  8
ZISSEN1
100
AcDbCircle
 10
-1256.986783515535
 20
1593.223616988808
 30
0.0
 40
2.0
  0
CIRCLE
  5
12BF4
330
1A
100
AcDbEntity
  8
ZISSEN1
100
AcDbCircle
 10
-1256.986783515535
 20
1583.223616988808
 30
0.0
 40
2.0
  0
CIRCLE
  5
12BF5
330
1A
100
AcDbEntity
  8
ZISSEN1
100
AcDbCircle
 10
-1256.986783515535
 20
1588.223616988808
 30
0.0
 40
2.0
  0
CIRCLE
  5
12BF6
330
1A
100
AcDbEntity
  8
ZISSEN1
100
AcDbCircle
 10
-1256.986783515535
 20
1598.223616988808
 30
0.0
 40
2.0
  0
LINE
  5
12BF7
330
1A
100
AcDbEntity
  8
ZISSEN1
100
AcDbLine
 10
-1260.036783515536
 20
1580.563616988808
 30
0.0
 11
-1260.036783515536
 21
1600.883616988808
 31
0.0
  0
LINE
  5
12BF8
330
1A
100
AcDbEntity
  8
ZISSEN1
100
AcDbLine
 10
-1252.936783515534
 20
1600.883616988808
 30
0.0
 11
-1261.036783515535
 21
1600.883616988808
 31
0.0
  0
CIRCLE
  5
12BF9
330
1A
100
AcDbEntity
  8
ZISSEN1
100
AcDbCircle
 10
-1256.986783515535
 20
1603.543616988808
 30
0.0
 40
2.0
  0
LINE
  5
12BFA
330
1A
100
AcDbEntity
  8
ZISSEN1
100
AcDbLine
 10
-1248.436150583528
 20
1601.74618759616
 30
0.0
 11
-1248.436150583527
 21
1602.14618759616
 31
0.0
  0
LINE
  5
12BFB
330
1A
100
AcDbEntity
  8
ZISSEN1
100
AcDbLine
 10
-1248.436150583527
 20
1597.24618759616
 30
0.0
 11
-1248.436150583527
 21
1596.846187596159
 31
0.0
  0
LINE
  5
12BFC
330
1A
100
AcDbEntity
  8
ZISSEN1
  6
DASHEDX2
100
AcDbLine
 10
-1248.936150583528
 20
1602.246187596159
 30
0.0
 11
-1248.936150583528
 21
1597.24618759616
 31
0.0
  0
LINE
  5
12BFD
330
1A
100
AcDbEntity
  8
ZISSEN1
100
AcDbLine
 10
-1248.436150583528
 20
1597.24618759616
 30
0.0
 11
-1248.436150583528
 21
1601.74618759616
 31
0.0
  0
LINE
  5
12BFE
330
1A
100
AcDbEntity
  8
ZISSEN1
100
AcDbLine
 10
-1249.386150583528
 20
1597.24618759616
 30
0.0
 11
-1249.386150583528
 21
1601.74618759616
 31
0.0
  0
LINE
  5
12BFF
330
1A
100
AcDbEntity
  8
ZISSEN1
100
AcDbLine
 10
-1268.781306319865
 20
1585.043616988808
 30
0.0
 11
-1267.781306319865
 21
1584.043616988808
 31
0.0
  0
LINE
  5
12C00
330
1A
100
AcDbEntity
  8
ZISSEN1
100
AcDbLine
 10
-1267.781306319865
 20
1584.043616988808
 30
0.0
 11
-1262.781306319864
 21
1584.043616988808
 31
0.0
  0
LINE
  5
12C01
330
1A
100
AcDbEntity
  8
ZISSEN1
100
AcDbLine
 10
-1262.781306319864
 20
1579.043616988808
 30
0.0
 11
-1261.781306319863
 21
1578.043616988808
 31
0.0
  0
LINE
  5
12C02
330
1A
100
AcDbEntity
  8
ZISSEN1
100
AcDbLine
 10
-1268.781306319865
 20
1579.043616988808
 30
0.0
 11
-1267.781306319865
 21
1578.043616988808
 31
0.0
  0
LINE
  5
12C03
330
1A
100
AcDbEntity
  8
ZISSEN1
100
AcDbLine
 10
-1261.781306319863
 20
1578.043616988808
 30
0.0
 11
-1267.781306319865
 21
1578.043616988808
 31
0.0
  0
LINE
  5
12C04
330
1A
100
AcDbEntity
  8
ZISSEN1
100
AcDbLine
 10
-1268.781306319865
 20
1585.043616988808
 30
0.0
 11
-1268.781306319865
 21
1579.043616988808
 31
0.0
  0
LINE
  5
12C05
330
1A
100
AcDbEntity
  8
ZISSEN1
100
AcDbLine
 10
-1262.781306319864
 20
1584.043616988808
 30
0.0
 11
-1262.781306319864
 21
1579.043616988808
 31
0.0
  0
CIRCLE
  5
12C06
330
1A
100
AcDbEntity
  8
ZISSEN1
100
AcDbCircle
 10
-1265.781306319865
 20
1581.043616988808
 30
0.0
 40
1.75
  0
CIRCLE
  5
12C07
330
1A
100
AcDbEntity
  8
ZISSEN1
100
AcDbCircle
 10
-1256.986783515535
 20
1613.543616988808
 30
0.0
 40
2.0
  0
CIRCLE
  5
12C08
330
1A
100
AcDbEntity
  8
KAKURESEN1
  6
DASHEDX2
100
AcDbCircle
 10
-1250.281306319864
 20
1612.043616988808
 30
0.0
 40
1.3
  0
CIRCLE
  5
12C09
330
1A
100
AcDbEntity
  8
KAKURESEN1
  6
DASHEDX2
100
AcDbCircle
 10
-1250.281306319864
 20
1612.043616988808
 30
0.0
 40
1.5
  0
LINE
  5
12C0A
330
1A
100
AcDbEntity
  8
KAKURESEN1
  6
DASHEDX2
100
AcDbLine
 10
-1250.281306319864
 20
1610.043616988808
 30
0.0
 11
-1250.281306319864
 21
1614.043616988808
 31
0.0
  0
LINE
  5
12C0B
330
1A
100
AcDbEntity
  8
ZISSEN1
100
AcDbLine
 10
-1248.436150583527
 20
1612.74618759616
 30
0.0
 11
-1248.436150583527
 21
1612.346187596159
 31
0.0
  0
CIRCLE
  5
12C0C
330
1A
100
AcDbEntity
  8
KAKURESEN1
  6
DASHEDX2
100
AcDbCircle
 10
-1260.281306319865
 20
1612.043616988808
 30
0.0
 40
1.3
  0
LINE
  5
12C0D
330
1A
100
AcDbEntity
  8
KAKURESEN1
  6
DASHEDX2
100
AcDbLine
 10
-1258.281306319864
 20
1612.043616988808
 30
0.0
 11
-1262.281306319865
 21
1612.043616988808
 31
0.0
  0
LINE
  5
12C0E
330
1A
100
AcDbEntity
  8
KAKURESEN1
  6
DASHEDX2
100
AcDbLine
 10
-1260.281306319865
 20
1610.043616988808
 30
0.0
 11
-1260.281306319865
 21
1614.043616988808
 31
0.0
  0
CIRCLE
  5
12C0F
330
1A
100
AcDbEntity
  8
KAKURESEN1
  6
DASHEDX2
100
AcDbCircle
 10
-1260.281306319865
 20
1612.043616988808
 30
0.0
 40
1.5
  0
LINE
  5
12C11
330
1A
100
AcDbEntity
  8
ZISSEN1
100
AcDbLine
 10
-1248.42099858707
 20
1549.542903975192
 30
0.0
 11
-1248.42099858707
 21
1548.042903975191
 31
0.0
  0
LINE
  5
12C12
330
1A
100
AcDbEntity
  8
ZISSEN1
100
AcDbLine
 10
-1248.836150583528
 20
1551.392903975192
 30
0.0
 11
-1249.386150583528
 21
1551.392903975192
 31
0.0
  0
ARC
  5
12C13
330
1A
100
AcDbEntity
  8
ZISSEN1
100
AcDbCircle
 10
-1250.853682614192
 20
1550.21980804225
 30
0.0
 40
1.878777349477
100
AcDbArc
 50
2.229719106327333
 51
38.63766893268894
  0
LINE
  5
12C14
330
1A
100
AcDbEntity
  8
ZISSEN1
100
AcDbLine
 10
-1249.289219107066
 20
1549.542903975192
 30
0.0
 11
-1248.42099858707
 21
1549.542903975192
 31
0.0
  0
LINE
  5
12C15
330
1A
100
AcDbEntity
  8
ZISSEN1
100
AcDbLine
 10
-1248.42099858707
 20
1548.042903975191
 30
0.0
 11
-1249.289219107066
 21
1548.042903975191
 31
0.0
  0
ARC
  5
12C16
330
1A
100
AcDbEntity
  8
ZISSEN1
100
AcDbCircle
 10
-1246.436150583531
 20
1548.79290397519
 30
0.0
 40
2.499999999998181
100
AcDbArc
 50
143.1301023541116
 51
163.9272704500725
  0
LINE
  5
12C17
330
1A
100
AcDbEntity
  8
ZISSEN1
100
AcDbLine
 10
-1260.036783515535
 20
1550.692903975192
 30
0.0
 11
-1254.936783515534
 21
1550.692903975192
 31
0.0
  0
LINE
  5
12C18
330
1A
100
AcDbEntity
  8
ZISSEN1
100
AcDbLine
 10
-1256.236783515535
 20
1550.692903975192
 30
0.0
 11
-1251.136783515534
 21
1550.692903975192
 31
0.0
  0
LINE
  5
12C19
330
1A
100
AcDbEntity
  8
ZISSEN1
100
AcDbLine
 10
-1268.281306319865
 20
1539.092903975192
 30
0.0
 11
-1268.281306319865
 21
1533.092903975192
 31
0.0
  0
LINE
  5
12C1A
330
1A
100
AcDbEntity
  8
ZISSEN1
100
AcDbLine
 10
-1262.281306319865
 20
1533.092903975192
 30
0.0
 11
-1262.281306319865
 21
1539.092903975192
 31
0.0
  0
LINE
  5
12C1B
330
1A
100
AcDbEntity
  8
ZISSEN1
100
AcDbLine
 10
-1267.531306319864
 20
1533.092903975192
 30
0.0
 11
-1262.031306319864
 21
1533.092903975192
 31
0.0
  0
LINE
  5
12C1C
330
1A
100
AcDbEntity
  8
ZISSEN1
100
AcDbLine
 10
-1268.281306319865
 20
1539.092903975192
 30
0.0
 11
-1268.281306319865
 21
1533.092903975192
 31
0.0
  0
LINE
  5
12C1D
330
1A
100
AcDbEntity
  8
ZISSEN1
100
AcDbLine
 10
-1262.281306319865
 20
1533.092903975192
 30
0.0
 11
-1262.281306319865
 21
1539.092903975192
 31
0.0
  0
LINE
  5
12C1E
330
1A
100
AcDbEntity
  8
ZISSEN1
100
AcDbLine
 10
-1267.531306319864
 20
1533.092903975192
 30
0.0
 11
-1262.031306319864
 21
1533.092903975192
 31
0.0
  0
LINE
  5
12C1F
330
1A
100
AcDbEntity
  8
ZISSEN1
100
AcDbLine
 10
-1267.781306319864
 20
1539.092903975192
 30
0.0
 11
-1267.781306319864
 21
1540.692903975192
 31
0.0
  0
LINE
  5
12C20
330
1A
100
AcDbEntity
  8
ZISSEN1
100
AcDbLine
 10
-1264.781306319864
 20
1539.092903975192
 30
0.0
 11
-1267.531306319864
 21
1539.092903975192
 31
0.0
  0
LINE
  5
12C21
330
1A
100
AcDbEntity
  8
ZISSEN1
100
AcDbLine
 10
-1268.781306319864
 20
1539.092903975192
 30
0.0
 11
-1268.781306319864
 21
1540.692903975192
 31
0.0
  0
LINE
  5
12C22
330
1A
100
AcDbEntity
  8
ZISSEN1
100
AcDbLine
 10
-1261.781306319863
 20
1539.092903975192
 30
0.0
 11
-1261.781306319863
 21
1540.692903975192
 31
0.0
  0
LINE
  5
12C23
330
1A
100
AcDbEntity
  8
ZISSEN1
100
AcDbLine
 10
-1262.781306319864
 20
1539.092903975192
 30
0.0
 11
-1262.781306319864
 21
1540.692903975192
 31
0.0
  0
LINE
  5
12C24
330
1A
100
AcDbEntity
  8
ZISSEN1
100
AcDbLine
 10
-1262.286783515535
 20
1540.692903975192
 30
0.0
 11
-1251.086783515535
 21
1540.692903975192
 31
0.0
  0
LINE
  5
12C25
330
1A
100
AcDbEntity
  8
ZISSEN1
100
AcDbLine
 10
-1248.436150583528
 20
1540.692903975192
 30
0.0
 11
-1248.436150583528
 21
1542.692903975192
 31
0.0
  0
LINE
  5
12C26
330
1A
100
AcDbEntity
  8
ZISSEN1
100
AcDbLine
 10
-1248.836150583528
 20
1543.392903975192
 30
0.0
 11
-1248.836150583528
 21
1547.077532295351
 31
0.0
  0
LINE
  5
12C27
330
1A
100
AcDbEntity
  8
ZISSEN1
100
AcDbLine
 10
-1248.436150583528
 20
1543.792903975192
 30
0.0
 11
-1248.436150583529
 21
1547.292903975192
 31
0.0
  0
LINE
  5
12C28
330
1A
100
AcDbEntity
  8
ZISSEN1
100
AcDbLine
 10
-1262.286783515535
 20
1540.692903975192
 30
0.0
 11
-1256.986783515535
 21
1540.692903975192
 31
0.0
  0
LINE
  5
12C2C
330
1A
100
AcDbEntity
  8
ZISSEN1
100
AcDbLine
 10
-1256.986783515535
 20
1540.692903975192
 30
0.0
 11
-1261.036783515535
 21
1540.692903975192
 31
0.0
  0
LINE
  5
12C2D
330
1A
100
AcDbEntity
  8
ZISSEN1
100
AcDbLine
 10
-1261.036783515535
 20
1540.692903975192
 30
0.0
 11
-1261.036783515535
 21
1546.692903975192
 31
0.0
  0
LINE
  5
12C2E
330
1A
100
AcDbEntity
  8
ZISSEN1
100
AcDbLine
 10
-1252.936783515535
 20
1544.192903975192
 30
0.0
 11
-1252.936783515535
 21
1540.692903975192
 31
0.0
  0
LINE
  5
12C2F
330
1A
100
AcDbEntity
  8
ZISSEN1
100
AcDbLine
 10
-1261.036783515535
 20
1540.692903975192
 30
0.0
 11
-1261.036783515535
 21
1546.692903975192
 31
0.0
  0
LINE
  5
12C30
330
1A
100
AcDbEntity
  8
ZISSEN1
100
AcDbLine
 10
-1261.036783515535
 20
1546.692903975192
 30
0.0
 11
-1260.536783515535
 21
1546.692903975192
 31
0.0
  0
LINE
  5
12C31
330
1A
100
AcDbEntity
  8
ZISSEN1
100
AcDbLine
 10
-1252.936783515535
 20
1540.692903975192
 30
0.0
 11
-1252.936783515535
 21
1544.192903975192
 31
0.0
  0
LINE
  5
12C32
330
1A
100
AcDbEntity
  8
ZISSEN1
100
AcDbLine
 10
-1249.136783515535
 20
1544.192903975192
 30
0.0
 11
-1249.136783515535
 21
1540.692903975192
 31
0.0
  0
LINE
  5
12C33
330
1A
100
AcDbEntity
  8
ZISSEN1
100
AcDbLine
 10
-1249.136783515535
 20
1540.692903975192
 30
0.0
 11
-1249.136783515535
 21
1544.192903975192
 31
0.0
  0
LINE
  5
12C37
330
1A
100
AcDbEntity
  8
ZISSEN1
100
AcDbLine
 10
-1267.531306319864
 20
1542.192903975192
 30
0.0
 11
-1267.531306319864
 21
1540.692903975192
 31
0.0
  0
LINE
  5
12C38
330
1A
100
AcDbEntity
  8
ZISSEN1
100
AcDbLine
 10
-1263.031306319865
 20
1542.192903975192
 30
0.0
 11
-1263.031306319865
 21
1540.692903975192
 31
0.0
  0
ARC
  5
12C39
330
1A
100
AcDbEntity
  8
ZISSEN1
100
AcDbCircle
 10
-1265.281306319865
 20
1537.380403975193
 30
0.0
 40
5.312499999999175
100
AcDbArc
 50
64.94238458171905
 51
115.0576154182809
  0
LINE
  5
12C3A
330
1A
100
AcDbEntity
  8
ZISSEN1
100
AcDbLine
 10
-1267.531306319864
 20
1540.692903975192
 30
0.0
 11
-1263.031306319865
 21
1540.692903975192
 31
0.0
  0
ARC
  5
12C3B
330
1A
100
AcDbEntity
  8
ZISSEN1
100
AcDbCircle
 10
-1246.436150583529
 20
1548.792903975192
 30
0.0
 40
2.949999999999234
100
AcDbArc
 50
149.4377246482319
 51
215.5548410152705
  0
ARC
  5
12C3C
330
1A
100
AcDbEntity
  8
ZISSEN1
100
AcDbCircle
 10
-1246.436150583531
 20
1548.79290397519
 30
0.0
 40
2.499999999998181
100
AcDbArc
 50
197.4576031236665
 51
216.8698976458049
  0
LINE
  5
12C3D
330
1A
100
AcDbEntity
  8
ZISSEN1
100
AcDbLine
 10
-1260.036783515535
 20
1550.692903975192
 30
0.0
 11
-1260.536783515535
 21
1546.692903975192
 31
0.0
  0
LINE
  5
12C3E
330
1A
100
AcDbEntity
  8
ZISSEN1
100
AcDbLine
 10
-1254.936783515534
 20
1550.692903975192
 30
0.0
 11
-1252.936783515535
 21
1544.192903975192
 31
0.0
  0
LINE
  5
12C3F
330
1A
100
AcDbEntity
  8
ZISSEN1
100
AcDbLine
 10
-1251.136783515534
 20
1550.692903975192
 30
0.0
 11
-1249.136783515535
 21
1544.192903975192
 31
0.0
  0
LINE
  5
12C40
330
1A
100
AcDbEntity
  8
ZISSEN1
  6
DASHEDX2
100
AcDbLine
 10
-1250.936150583529
 20
1550.092903975192
 30
0.0
 11
-1250.936150583529
 21
1540.692903975192
 31
0.0
  0
LINE
  5
12C41
330
1A
100
AcDbEntity
  8
ZISSEN1
100
AcDbLine
 10
-1242.781306319864
 20
1531.092903975192
 30
0.0
 11
-1242.781306319864
 21
1533.092903975192
 31
0.0
  0
LINE
  5
12C42
330
1A
100
AcDbEntity
  8
ZISSEN1
100
AcDbLine
 10
-1241.781306319865
 20
1531.092903975192
 30
0.0
 11
-1241.781306319865
 21
1533.092903975192
 31
0.0
  0
LINE
  5
12C43
330
1A
100
AcDbEntity
  8
ZISSEN1
100
AcDbLine
 10
-1242.781306319864
 20
1531.092903975192
 30
0.0
 11
-1242.781306319864
 21
1533.092903975192
 31
0.0
  0
LINE
  5
12C44
330
1A
100
AcDbEntity
  8
ZISSEN1
100
AcDbLine
 10
-1241.781306319865
 20
1531.092903975192
 30
0.0
 11
-1241.781306319865
 21
1533.092903975192
 31
0.0
  0
LINE
  5
12C45
330
1A
100
AcDbEntity
  8
ZISSEN1
100
AcDbLine
 10
-1247.281306319864
 20
1521.092903975192
 30
0.0
 11
-1247.281306319864
 21
1531.092903975192
 31
0.0
  0
MTEXT
  5
12C46
330
1A
100
AcDbEntity
  8
SUNPOU
 62
     0
100
AcDbMText
 10
-1189.100554103761
 20
1562.215229501583
 30
0.0
 40
3.5
 41
60.714
 71
     1
 72
     5
  1
マウンティングフット\P×2個\P(Y方向取付例)
  7
ゴシック体
1001
ACAD
1000
MTEXTBEGIN
1070
    73
1070
     1
1070
    44
1040
1.0
1070
    74
1070
     0
1000
MTEXTEND
1000
MTEXTBEGIN
1070
    73
1070
     1
1070
    44
1040
1.0
1070
    74
1070
     0
1000
MTEXTEND
  0
LINE
  5
12C47
330
1A
100
AcDbEntity
  8
ZISSEN1
  6
DASHEDX2
100
AcDbLine
 10
-1207.281306319864
 20
1594.746564596159
 30
0.0
 11
-1193.381306319865
 21
1594.746564596159
 31
0.0
  0
LINE
  5
12C48
330
1A
100
AcDbEntity
  8
ZISSEN1
100
AcDbLine
 10
-1203.381306319864
 20
1580.563993988808
 30
0.0
 11
-1195.29013337819
 21
1580.563993988808
 31
0.0
  0
LINE
  5
12C49
330
1A
100
AcDbEntity
  8
ZISSEN1
100
AcDbLine
 10
-1193.381306319864
 20
1600.883993988808
 30
0.0
 11
-1203.381306319864
 21
1600.883993988808
 31
0.0
  0
LINE
  5
12C4A
330
1A
100
AcDbEntity
  8
ZISSEN1
100
AcDbLine
 10
-1203.381306319864
 20
1600.883993988808
 30
0.0
 11
-1193.381306319863
 21
1600.883993988808
 31
0.0
  0
LINE
  5
12C4B
330
1A
100
AcDbEntity
  8
ZISSEN1
100
AcDbLine
 10
-1195.881306319865
 20
1597.24656459616
 30
0.0
 11
-1200.731306319865
 21
1597.24656459616
 31
0.0
  0
LINE
  5
12C4C
330
1A
100
AcDbEntity
  8
ZISSEN1
100
AcDbLine
 10
-1204.081306319865
 20
1601.74656459616
 30
0.0
 11
-1195.881306319865
 21
1601.74656459616
 31
0.0
  0
LINE
  5
12C4D
330
1A
100
AcDbEntity
  8
ZISSEN1
100
AcDbLine
 10
-1204.081306319865
 20
1612.74656459616
 30
0.0
 11
-1195.881306319865
 21
1612.74656459616
 31
0.0
  0
LINE
  5
12C4E
330
1A
100
AcDbEntity
  8
ZISSEN1
  6
DASHEDX2
100
AcDbLine
 10
-1199.231306319865
 20
1612.24656459616
 30
0.0
 11
-1199.231306319865
 21
1602.24656459616
 31
0.0
  0
LINE
  5
12C4F
330
1A
100
AcDbEntity
  8
ZISSEN1
  6
DASHEDX2
100
AcDbLine
 10
-1203.731306319865
 20
1612.24656459616
 30
0.0
 11
-1203.731306319865
 21
1602.24656459616
 31
0.0
  0
LINE
  5
12C50
330
1A
100
AcDbEntity
  8
ZISSEN1
  6
DASHEDX2
100
AcDbLine
 10
-1244.186150583527
 20
1602.246187596159
 30
0.0
 11
-1244.186150583527
 21
1612.24618759616
 31
0.0
  0
LINE
  5
12C51
330
1A
100
AcDbEntity
  8
ZISSEN1
100
AcDbLine
 10
-1203.381306319864
 20
1600.883993988808
 30
0.0
 11
-1203.381306319864
 21
1580.563993988808
 31
0.0
  0
LINE
  5
12C52
330
1A
100
AcDbEntity
  8
ZISSEN1
  6
DASHEDX2
100
AcDbLine
 10
-1198.981306319865
 20
1602.24656459616
 30
0.0
 11
-1198.981306319865
 21
1597.24656459616
 31
0.0
  0
LINE
  5
12C53
330
1A
100
AcDbEntity
  8
ZISSEN1
  6
DASHEDX2
100
AcDbLine
 10
-1203.981306319865
 20
1602.24656459616
 30
0.0
 11
-1203.981306319865
 21
1597.24656459616
 31
0.0
  0
LINE
  5
12C54
330
1A
100
AcDbEntity
  8
ZISSEN1
100
AcDbLine
 10
-1204.081306319865
 20
1597.24656459616
 30
0.0
 11
-1204.081306319865
 21
1601.74656459616
 31
0.0
  0
LINE
  5
12C55
330
1A
100
AcDbEntity
  8
ZISSEN1
  6
DASHEDX2
100
AcDbLine
 10
-1203.981306319865
 20
1597.24656459616
 30
0.0
 11
-1198.981306319865
 21
1597.24656459616
 31
0.0
  0
LINE
  5
12C56
330
1A
100
AcDbEntity
  8
ZISSEN1
100
AcDbLine
 10
-1200.731306319865
 20
1596.74656459616
 30
0.0
 11
-1200.731306319865
 21
1597.24656459616
 31
0.0
  0
LINE
  5
12C57
330
1A
100
AcDbEntity
  8
ZISSEN1
100
AcDbLine
 10
-1202.231306319865
 20
1597.24656459616
 30
0.0
 11
-1202.231306319865
 21
1596.74656459616
 31
0.0
  0
LINE
  5
12C58
330
1A
100
AcDbEntity
  8
ZISSEN1
100
AcDbLine
 10
-1202.231306319865
 20
1596.74656459616
 30
0.0
 11
-1200.731306319865
 21
1596.74656459616
 31
0.0
  0
LINE
  5
12C59
330
1A
100
AcDbEntity
  8
ZISSEN1
100
AcDbLine
 10
-1202.231306319865
 20
1597.24656459616
 30
0.0
 11
-1204.081306319865
 21
1597.24656459616
 31
0.0
  0
LINE
  5
12C5A
330
1A
100
AcDbEntity
  8
ZISSEN1
100
AcDbLine
 10
-1202.981306319865
 20
1597.49656459616
 30
0.0
 11
-1202.981306319865
 21
1601.74656459616
 31
0.0
  0
LINE
  5
12C5B
330
1A
100
AcDbEntity
  8
ZISSEN1
100
AcDbLine
 10
-1199.981306319865
 20
1597.49656459616
 30
0.0
 11
-1199.981306319865
 21
1601.74656459616
 31
0.0
  0
LINE
  5
12C5C
330
1A
100
AcDbEntity
  8
ZISSEN1
  6
DASHEDX2
100
AcDbLine
 10
-1203.981306319865
 20
1602.24656459616
 30
0.0
 11
-1198.981306319865
 21
1602.24656459616
 31
0.0
  0
LINE
  5
12C5D
330
1A
100
AcDbEntity
  8
ZISSEN1
100
AcDbLine
 10
-1202.981306319865
 20
1597.49656459616
 30
0.0
 11
-1199.981306319865
 21
1597.49656459616
 31
0.0
  0
LINE
  5
12C5E
330
1A
100
AcDbEntity
  8
ZISSEN1
  6
DASHEDX2
100
AcDbLine
 10
-1243.936150583528
 20
1602.246187596159
 30
0.0
 11
-1244.186150583527
 21
1602.246187596159
 31
0.0
  0
LINE
  5
12C5F
330
1A
100
AcDbEntity
  8
ZISSEN1
100
AcDbLine
 10
-1244.436150583528
 20
1602.14618759616
 30
0.0
 11
-1244.436150583528
 21
1601.74618759616
 31
0.0
  0
LINE
  5
12C60
330
1A
100
AcDbEntity
  8
ZISSEN1
100
AcDbLine
 10
-1244.436150583528
 20
1596.846187596159
 30
0.0
 11
-1244.436150583528
 21
1597.24618759616
 31
0.0
  0
LINE
  5
12C61
330
1A
100
AcDbEntity
  8
ZISSEN1
  6
DASHEDX2
100
AcDbLine
 10
-1243.936150583528
 20
1597.24618759616
 30
0.0
 11
-1243.936150583528
 21
1602.246187596159
 31
0.0
  0
LINE
  5
12C62
330
1A
100
AcDbEntity
  8
ZISSEN1
100
AcDbLine
 10
-1244.436150583528
 20
1597.24618759616
 30
0.0
 11
-1244.436150583528
 21
1601.74618759616
 31
0.0
  0
LINE
  5
12C63
330
1A
100
AcDbEntity
  8
ZISSEN1
100
AcDbLine
 10
-1243.486150583529
 20
1597.24618759616
 30
0.0
 11
-1243.486150583529
 21
1601.74618759616
 31
0.0
  0
LINE
  5
12C64
330
1A
100
AcDbEntity
  8
ZISSEN1
100
AcDbLine
 10
-1244.781306319864
 20
1582.543616988808
 30
0.0
 11
-1244.781306319864
 21
1582.043616988808
 31
0.0
  0
LINE
  5
12C65
330
1A
100
AcDbEntity
  8
ZISSEN1
100
AcDbLine
 10
-1244.781306319864
 20
1582.043616988808
 30
0.0
 11
-1244.281306319864
 21
1582.043616988808
 31
0.0
  0
LINE
  5
12C66
330
1A
100
AcDbEntity
  8
ZISSEN1
100
AcDbLine
 10
-1245.781306319864
 20
1583.043616988808
 30
0.0
 11
-1244.781306319864
 21
1583.043616988808
 31
0.0
  0
LINE
  5
12C67
330
1A
100
AcDbEntity
  8
ZISSEN1
100
AcDbLine
 10
-1244.781306319864
 20
1583.043616988808
 30
0.0
 11
-1244.781306319864
 21
1582.043616988808
 31
0.0
  0
LINE
  5
12C68
330
1A
100
AcDbEntity
  8
ZISSEN1
100
AcDbLine
 10
-1244.781306319864
 20
1582.043616988808
 30
0.0
 11
-1243.781306319864
 21
1582.043616988808
 31
0.0
  0
LINE
  5
12C69
330
1A
100
AcDbEntity
  8
ZISSEN1
100
AcDbLine
 10
-1243.781306319864
 20
1582.043616988808
 30
0.0
 11
-1243.781306319864
 21
1581.043616988808
 31
0.0
  0
LINE
  5
12C6A
330
1A
100
AcDbEntity
  8
ZISSEN1
100
AcDbLine
 10
-1243.781306319864
 20
1581.043616988808
 30
0.0
 11
-1244.781306319864
 21
1581.043616988808
 31
0.0
  0
LINE
  5
12C6B
330
1A
100
AcDbEntity
  8
ZISSEN1
100
AcDbLine
 10
-1245.781306319864
 20
1581.043616988808
 30
0.0
 11
-1246.781306319864
 21
1581.043616988808
 31
0.0
  0
LINE
  5
12C6C
330
1A
100
AcDbEntity
  8
ZISSEN1
100
AcDbLine
 10
-1246.781306319864
 20
1581.043616988808
 30
0.0
 11
-1246.781306319864
 21
1582.043616988808
 31
0.0
  0
LINE
  5
12C6D
330
1A
100
AcDbEntity
  8
ZISSEN1
100
AcDbLine
 10
-1246.781306319864
 20
1582.043616988808
 30
0.0
 11
-1245.781306319864
 21
1582.043616988808
 31
0.0
  0
LINE
  5
12C6E
330
1A
100
AcDbEntity
  8
ZISSEN1
100
AcDbLine
 10
-1245.781306319864
 20
1582.043616988808
 30
0.0
 11
-1245.781306319864
 21
1583.043616988808
 31
0.0
  0
LINE
  5
12C6F
330
1A
100
AcDbEntity
  8
ZISSEN1
100
AcDbLine
 10
-1242.781306319864
 20
1578.043616988808
 30
0.0
 11
-1241.781306319865
 21
1579.043616988808
 31
0.0
  0
LINE
  5
12C70
330
1A
100
AcDbEntity
  8
ZISSEN1
100
AcDbLine
 10
-1242.781306319864
 20
1578.043616988808
 30
0.0
 11
-1244.781306319864
 21
1578.043616988808
 31
0.0
  0
LINE
  5
12C71
330
1A
100
AcDbEntity
  8
ZISSEN1
100
AcDbLine
 10
-1244.781306319864
 20
1580.043616988808
 30
0.0
 11
-1245.781306319864
 21
1580.043616988808
 31
0.0
  0
CIRCLE
  5
12C72
330
1A
100
AcDbEntity
  8
ZISSEN1
100
AcDbCircle
 10
-1245.281306319864
 20
1581.543616988808
 30
0.0
 40
2.25
  0
LINE
  5
12C73
330
1A
100
AcDbEntity
  8
ZISSEN1
100
AcDbLine
 10
-1244.781306319864
 20
1581.043616988808
 30
0.0
 11
-1244.781306319864
 21
1580.043616988808
 31
0.0
  0
LINE
  5
12C74
330
1A
100
AcDbEntity
  8
ZISSEN1
100
AcDbLine
 10
-1245.781306319864
 20
1580.043616988808
 30
0.0
 11
-1245.781306319864
 21
1581.043616988808
 31
0.0
  0
LINE
  5
12C75
330
1A
100
AcDbEntity
  8
ZISSEN1
  6
DASHEDX2
100
AcDbLine
 10
-1198.981306319865
 20
1612.24656459616
 30
0.0
 11
-1203.981306319865
 21
1612.24656459616
 31
0.0
  0
LINE
  5
12C76
330
1A
100
AcDbEntity
  8
ZISSEN1
  6
DASHEDX2
100
AcDbLine
 10
-1198.981306319865
 20
1612.24656459616
 30
0.0
 11
-1199.231306319865
 21
1612.24656459616
 31
0.0
  0
LINE
  5
12C77
330
1A
100
AcDbEntity
  8
ZISSEN1
  6
DASHEDX2
100
AcDbLine
 10
-1203.981306319865
 20
1612.24656459616
 30
0.0
 11
-1203.731306319865
 21
1612.24656459616
 31
0.0
  0
LINE
  5
12C78
330
1A
100
AcDbEntity
  8
ZISSEN1
100
AcDbLine
 10
-1244.436150583528
 20
1612.346187596159
 30
0.0
 11
-1244.436150583528
 21
1612.74618759616
 31
0.0
  0
LINE
  5
12C79
330
1A
100
AcDbEntity
  8
ZISSEN1
100
AcDbLine
 10
-1191.781306319865
 20
1602.14656459616
 30
0.0
 11
-1191.781306319865
 21
1612.346564596159
 31
0.0
  0
LINE
  5
12C7B
330
1A
100
AcDbEntity
  8
ZISSEN1
100
AcDbLine
 10
-1195.881306319865
 20
1601.74656459616
 30
0.0
 11
-1195.881306319865
 21
1597.24656459616
 31
0.0
  0
LINE
  5
12C7C
330
1A
100
AcDbEntity
  8
ZISSEN1
  6
DASHEDX2
100
AcDbLine
 10
-1196.081306319865
 20
1601.74656459616
 30
0.0
 11
-1196.081306319865
 21
1597.24656459616
 31
0.0
  0
LINE
  5
12C7D
330
1A
100
AcDbEntity
  8
ZISSEN1
100
AcDbLine
 10
-1193.381306319865
 20
1596.846564596159
 30
0.0
 11
-1193.381306319865
 21
1597.24656459616
 31
0.0
  0
LINE
  5
12C7E
330
1A
100
AcDbEntity
  8
ZISSEN1
100
AcDbLine
 10
-1189.881306319865
 20
1596.846564596159
 30
0.0
 11
-1189.881306319865
 21
1597.24656459616
 31
0.0
  0
LINE
  5
12C7F
330
1A
100
AcDbEntity
  8
ZISSEN1
100
AcDbLine
 10
-1196.081306319865
 20
1597.24656459616
 30
0.0
 11
-1196.081306319865
 21
1596.846564596159
 31
0.0
  0
LINE
  5
12C80
330
1A
100
AcDbEntity
  8
ZISSEN1
100
AcDbLine
 10
-1196.081306319865
 20
1596.846564596159
 30
0.0
 11
-1189.881306319865
 21
1596.846564596159
 31
0.0
  0
LINE
  5
12C81
330
1A
100
AcDbEntity
  8
ZISSEN1
100
AcDbLine
 10
-1189.881306319865
 20
1597.24656459616
 30
0.0
 11
-1195.881306319865
 21
1597.24656459616
 31
0.0
  0
LINE
  5
12C82
330
1A
100
AcDbEntity
  8
ZISSEN1
100
AcDbLine
 10
-1193.381306319865
 20
1601.74656459616
 30
0.0
 11
-1193.381306319865
 21
1602.14656459616
 31
0.0
  0
LINE
  5
12C83
330
1A
100
AcDbEntity
  8
ZISSEN1
100
AcDbLine
 10
-1189.881306319865
 20
1601.74656459616
 30
0.0
 11
-1189.881306319865
 21
1602.14656459616
 31
0.0
  0
LINE
  5
12C84
330
1A
100
AcDbEntity
  8
ZISSEN1
100
AcDbLine
 10
-1196.081306319865
 20
1602.14656459616
 30
0.0
 11
-1196.081306319865
 21
1601.74656459616
 31
0.0
  0
LINE
  5
12C85
330
1A
100
AcDbEntity
  8
ZISSEN1
100
AcDbLine
 10
-1189.881306319865
 20
1602.14656459616
 30
0.0
 11
-1196.081306319865
 21
1602.14656459616
 31
0.0
  0
LINE
  5
12C86
330
1A
100
AcDbEntity
  8
ZISSEN1
100
AcDbLine
 10
-1195.881306319865
 20
1601.74656459616
 30
0.0
 11
-1189.881306319865
 21
1601.74656459616
 31
0.0
  0
LINE
  5
12C89
330
1A
100
AcDbEntity
  8
ZISSEN1
100
AcDbLine
 10
-1193.381306319865
 20
1583.543993988808
 30
0.0
 11
-1193.381306319865
 21
1586.543993988808
 31
0.0
  0
LINE
  5
12C8A
330
1A
100
AcDbEntity
  8
ZISSEN1
100
AcDbLine
 10
-1191.781306319865
 20
1581.543993988808
 30
0.0
 11
-1191.781306319865
 21
1584.043993988808
 31
0.0
  0
LINE
  5
12C8B
330
1A
100
AcDbEntity
  8
ZISSEN1
100
AcDbLine
 10
-1191.781306319865
 20
1584.543993988808
 30
0.0
 11
-1185.781306319864
 21
1584.543993988808
 31
0.0
  0
LINE
  5
12C8C
330
1A
100
AcDbEntity
  8
ZISSEN1
100
AcDbLine
 10
-1194.881306319865
 20
1583.793993988808
 30
0.0
 11
-1193.381306319865
 21
1583.793993988808
 31
0.0
  0
LINE
  5
12C8D
330
1A
100
AcDbEntity
  8
ZISSEN1
100
AcDbLine
 10
-1193.381306319865
 20
1582.043993988808
 30
0.0
 11
-1193.381306319865
 21
1602.043993988808
 31
0.0
  0
LINE
  5
12C8E
330
1A
100
AcDbEntity
  8
ZISSEN1
100
AcDbLine
 10
-1193.381306319865
 20
1579.043993988808
 30
0.0
 11
-1191.781306319865
 21
1579.043993988808
 31
0.0
  0
LINE
  5
12C8F
330
1A
100
AcDbEntity
  8
ZISSEN1
100
AcDbLine
 10
-1193.381306319865
 20
1578.043993988808
 30
0.0
 11
-1191.781306319865
 21
1578.043993988808
 31
0.0
  0
LINE
  5
12C90
330
1A
100
AcDbEntity
  8
ZISSEN1
100
AcDbLine
 10
-1185.781306319864
 20
1579.043993988808
 30
0.0
 11
-1183.781306319865
 21
1579.043993988808
 31
0.0
  0
LINE
  5
12C91
330
1A
100
AcDbEntity
  8
ZISSEN1
100
AcDbLine
 10
-1185.781306319864
 20
1578.043993988808
 30
0.0
 11
-1183.781306319865
 21
1578.043993988808
 31
0.0
  0
LINE
  5
12C92
330
1A
100
AcDbEntity
  8
ZISSEN1
100
AcDbLine
 10
-1185.781306319864
 20
1578.543993988808
 30
0.0
 11
-1191.781306319865
 21
1578.543993988808
 31
0.0
  0
LINE
  5
12C93
330
1A
100
AcDbEntity
  8
ZISSEN1
100
AcDbLine
 10
-1194.881306319865
 20
1579.293993988808
 30
0.0
 11
-1193.381306319865
 21
1579.293993988808
 31
0.0
  0
LINE
  5
12C94
330
1A
100
AcDbEntity
  8
ZISSEN1
100
AcDbLine
 10
-1185.781306319864
 20
1584.293993988808
 30
0.0
 11
-1185.781306319864
 21
1578.793993988808
 31
0.0
  0
LINE
  5
12C95
330
1A
100
AcDbEntity
  8
ZISSEN1
100
AcDbLine
 10
-1191.781306319865
 20
1581.543993988808
 30
0.0
 11
-1191.781306319865
 21
1579.043993988808
 31
0.0
  0
LINE
  5
12C96
330
1A
100
AcDbEntity
  8
ZISSEN1
100
AcDbLine
 10
-1191.781306319865
 20
1578.793993988808
 30
0.0
 11
-1191.781306319865
 21
1584.293993988808
 31
0.0
  0
ARC
  5
12C97
330
1A
100
AcDbEntity
  8
ZISSEN1
100
AcDbCircle
 10
-1190.068806319866
 20
1581.543993988808
 30
0.0
 40
5.312499999999175
100
AcDbArc
 50
154.9423845816954
 51
205.0576154183045
  0
LINE
  5
12C98
330
1A
100
AcDbEntity
  8
ZISSEN1
100
AcDbLine
 10
-1193.381306319865
 20
1579.293993988808
 30
0.0
 11
-1193.381306319865
 21
1583.793993988808
 31
0.0
  0
LINE
  5
12C9D
330
1A
100
AcDbEntity
  8
ZISSEN1
100
AcDbLine
 10
-1185.781306319864
 20
1579.043993988808
 30
0.0
 11
-1183.781306319865
 21
1579.043993988808
 31
0.0
  0
LINE
  5
12C9E
330
1A
100
AcDbEntity
  8
ZISSEN1
100
AcDbLine
 10
-1185.781306319864
 20
1578.043993988808
 30
0.0
 11
-1183.781306319865
 21
1578.043993988808
 31
0.0
  0
LINE
  5
12CB8
330
1A
100
AcDbEntity
  8
ZISSEN1
100
AcDbLine
 10
-1193.381306319865
 20
1612.74656459616
 30
0.0
 11
-1193.381306319865
 21
1612.346564596159
 31
0.0
  0
LINE
  5
12CB9
330
1A
100
AcDbEntity
  8
ZISSEN1
100
AcDbLine
 10
-1189.881306319865
 20
1612.74656459616
 30
0.0
 11
-1189.881306319865
 21
1612.346564596159
 31
0.0
  0
LINE
  5
12CBA
330
1A
100
AcDbEntity
  8
ZISSEN1
100
AcDbLine
 10
-1196.081306319865
 20
1612.346564596159
 30
0.0
 11
-1196.081306319865
 21
1612.74656459616
 31
0.0
  0
LINE
  5
12CBB
330
1A
100
AcDbEntity
  8
ZISSEN1
100
AcDbLine
 10
-1189.881306319865
 20
1612.346564596159
 30
0.0
 11
-1196.081306319865
 21
1612.346564596159
 31
0.0
  0
LINE
  5
12CBC
330
1A
100
AcDbEntity
  8
ZISSEN1
100
AcDbLine
 10
-1195.881306319865
 20
1612.74656459616
 30
0.0
 11
-1189.881306319865
 21
1612.74656459616
 31
0.0
  0
LINE
  5
12CBD
330
1A
100
AcDbEntity
  8
CL1
100
AcDbLine
 10
-1183.43132609729
 20
1612.046732833831
 30
0.0
 11
-1187.43132609729
 21
1612.046732833831
 31
0.0
  0
LINE
  5
12CBE
330
1A
100
AcDbEntity
  8
CL1
100
AcDbLine
 10
-1183.43132609729
 20
1612.046732833831
 30
0.0
 11
-1187.43132609729
 21
1612.046732833831
 31
0.0
  0
LINE
  5
12CC4
330
1A
100
AcDbEntity
  8
KAKURESEN1
100
AcDbLine
 10
-1186.266982073444
 20
1610.543616988808
 30
0.0
 11
-1183.281296319865
 21
1610.543616988808
 31
0.0
  0
LINE
  5
12CC6
330
1A
100
AcDbEntity
  8
CL1
100
AcDbLine
 10
-1183.43132609729
 20
1612.046732833831
 30
0.0
 11
-1177.696143551393
 21
1612.046732833831
 31
0.0
  0
LEADER
  5
12CC7
330
1A
100
AcDbEntity
  8
ZISSEN1
100
AcDbLeader
  3
標準スタイル
 76
     2
 10
-1177.417691634268
 20
1590.125835274265
 30
0.0
 10
-1177.376091944957
 20
1565.663303173488
 30
0.0
1001
ACAD
1000
DSTYLE
1002
{
1070
     5
1000

1070
    77
1070
     0
1070
   147
1040
1.0
1070
   176
1070
     0
1002
}
  0
LINE
  5
12CC8
330
1A
100
AcDbEntity
  8
ZISSEN1
100
AcDbLine
 10
-1244.451302579987
 20
1549.542903975192
 30
0.0
 11
-1244.451302579987
 21
1548.042903975191
 31
0.0
  0
LINE
  5
12CC9
330
1A
100
AcDbEntity
  8
ZISSEN1
100
AcDbLine
 10
-1244.036150583529
 20
1551.392903975192
 30
0.0
 11
-1243.486150583529
 21
1551.392903975192
 31
0.0
  0
ARC
  5
12CCA
330
1A
100
AcDbEntity
  8
ZISSEN1
100
AcDbCircle
 10
-1242.018618552863
 20
1550.219808042249
 30
0.0
 40
1.878777349479273
100
AcDbArc
 50
141.362331067311
 51
177.7702808936205
  0
ARC
  5
12CCB
330
1A
100
AcDbEntity
  8
ZISSEN1
100
AcDbCircle
 10
-1242.57365058353
 20
1550.238358520648
 30
0.0
 40
1.863298541996907
100
AcDbArc
 50
141.7112802808813
 51
178.3225066753046
  0
LINE
  5
12CCC
330
1A
100
AcDbEntity
  8
ZISSEN1
100
AcDbLine
 10
-1243.58308205999
 20
1549.542903975192
 30
0.0
 11
-1244.451302579987
 21
1549.542903975192
 31
0.0
  0
LINE
  5
12CCD
330
1A
100
AcDbEntity
  8
ZISSEN1
100
AcDbLine
 10
-1244.451302579987
 20
1548.042903975191
 30
0.0
 11
-1243.58308205999
 21
1548.042903975192
 31
0.0
  0
ARC
  5
12CCE
330
1A
100
AcDbEntity
  8
ZISSEN1
100
AcDbCircle
 10
-1246.436150583527
 20
1548.792903975192
 30
0.0
 40
2.499999999998272
100
AcDbArc
 50
16.3599206375713
 51
36.86989764585183
  0
LINE
  5
12CCF
330
1A
100
AcDbEntity
  8
ZISSEN1
100
AcDbLine
 10
-1248.281306319865
 20
1539.092903975192
 30
0.0
 11
-1248.281306319865
 21
1533.092903975192
 31
0.0
  0
LINE
  5
12CD0
330
1A
100
AcDbEntity
  8
ZISSEN1
100
AcDbLine
 10
-1242.281306319864
 20
1533.092903975192
 30
0.0
 11
-1242.281306319864
 21
1539.092903975192
 31
0.0
  0
LINE
  5
12CD1
330
1A
100
AcDbEntity
  8
ZISSEN1
100
AcDbLine
 10
-1248.281306319865
 20
1539.092903975192
 30
0.0
 11
-1248.281306319865
 21
1533.092903975192
 31
0.0
  0
LINE
  5
12CD2
330
1A
100
AcDbEntity
  8
ZISSEN1
100
AcDbLine
 10
-1242.281306319864
 20
1533.092903975192
 30
0.0
 11
-1242.281306319864
 21
1539.092903975192
 31
0.0
  0
LINE
  5
12CD3
330
1A
100
AcDbEntity
  8
ZISSEN1
100
AcDbLine
 10
-1242.781306319864
 20
1539.092903975192
 30
0.0
 11
-1242.781306319864
 21
1540.692903975192
 31
0.0
  0
LINE
  5
12CD6
330
1A
100
AcDbEntity
  8
ZISSEN1
100
AcDbLine
 10
-1241.781306319865
 20
1539.092903975192
 30
0.0
 11
-1241.781306319865
 21
1540.692903975192
 31
0.0
  0
LINE
  5
12CD7
330
1A
100
AcDbEntity
  8
ZISSEN1
100
AcDbLine
 10
-1245.836150583528
 20
1540.692903975192
 30
0.0
 11
-1247.036150583529
 21
1540.692903975192
 31
0.0
  0
LINE
  5
12CD8
330
1A
100
AcDbEntity
  8
ZISSEN1
  6
DASHEDX2
100
AcDbLine
 10
-1244.936150583528
 20
1543.392903975192
 30
0.0
 11
-1247.936150583528
 21
1543.392903975192
 31
0.0
  0
LINE
  5
12CDD
330
1A
100
AcDbEntity
  8
ZISSEN1
100
AcDbLine
 10
-1244.936150583528
 20
1543.392903975192
 30
0.0
 11
-1244.036150583529
 21
1543.392903975192
 31
0.0
  0
LINE
  5
12CDE
330
1A
100
AcDbEntity
  8
ZISSEN1
100
AcDbLine
 10
-1245.836150583528
 20
1540.692903975192
 30
0.0
 11
-1244.436150583529
 21
1540.692903975192
 31
0.0
  0
LINE
  5
12CDF
330
1A
100
AcDbEntity
  8
ZISSEN1
100
AcDbLine
 10
-1244.936150583528
 20
1542.692903975192
 30
0.0
 11
-1244.936150583528
 21
1543.792903975192
 31
0.0
  0
LINE
  5
12CE0
330
1A
100
AcDbEntity
  8
ZISSEN1
100
AcDbLine
 10
-1244.436150583529
 20
1542.692903975192
 30
0.0
 11
-1244.936150583528
 21
1542.692903975192
 31
0.0
  0
LINE
  5
12CE1
330
1A
100
AcDbEntity
  8
ZISSEN1
100
AcDbLine
 10
-1244.036150583529
 20
1543.392903975192
 30
0.0
 11
-1244.036150583528
 21
1547.07753229535
 31
0.0
  0
LINE
  5
12CE2
330
1A
100
AcDbEntity
  8
ZISSEN1
100
AcDbLine
 10
-1244.436150583529
 20
1543.792903975192
 30
0.0
 11
-1244.436150583529
 21
1547.292903975193
 31
0.0
  0
LINE
  5
12CE4
330
1A
100
AcDbEntity
  8
ZISSEN1
100
AcDbLine
 10
-1247.936150583528
 20
1542.692903975192
 30
0.0
 11
-1247.936150583528
 21
1543.792903975192
 31
0.0
  0
LINE
  5
12CE6
330
1A
100
AcDbEntity
  8
ZISSEN1
100
AcDbLine
 10
-1247.531306319865
 20
1542.192903975192
 30
0.0
 11
-1247.531306319865
 21
1540.692903975192
 31
0.0
  0
LINE
  5
12CE7
330
1A
100
AcDbEntity
  8
ZISSEN1
100
AcDbLine
 10
-1243.031306319865
 20
1542.192903975192
 30
0.0
 11
-1243.031306319865
 21
1540.692903975192
 31
0.0
  0
ARC
  5
12CE8
330
1A
100
AcDbEntity
  8
ZISSEN1
100
AcDbCircle
 10
-1245.281306319866
 20
1537.380403975193
 30
0.0
 40
5.312499999999175
100
AcDbArc
 50
64.94238458171905
 51
115.0576154182809
  0
LINE
  5
12CE9
330
1A
100
AcDbEntity
  8
ZISSEN1
100
AcDbLine
 10
-1247.531306319865
 20
1540.692903975192
 30
0.0
 11
-1243.031306319865
 21
1540.692903975192
 31
0.0
  0
ARC
  5
12CEA
330
1A
100
AcDbEntity
  8
ZISSEN1
100
AcDbCircle
 10
-1246.436150583528
 20
1548.792903975191
 30
0.0
 40
2.949999999999963
100
AcDbArc
 50
324.4451589847294
 51
30.56227535176811
  0
ARC
  5
12CEB
330
1A
100
AcDbEntity
  8
ZISSEN1
100
AcDbCircle
 10
-1246.436150583527
 20
1548.792903975192
 30
0.0
 40
2.499999999998272
100
AcDbArc
 50
323.1301023541117
 51
342.5423968762138
  0
LINE
  5
12CEC
330
1A
100
AcDbEntity
  8
ZISSEN1
  6
DASHEDX2
100
AcDbLine
 10
-1241.936150583529
 20
1540.692903975192
 30
0.0
 11
-1241.936150583529
 21
1550.092903975192
 31
0.0
  0
LINE
  5
12CED
330
1A
100
AcDbEntity
  8
ZISSEN1
  6
DASHEDX2
100
AcDbLine
 10
-1249.431306319864
 20
1642.003616988809
 30
0.0
 11
-1248.281306319864
 21
1642.003616988808
 31
0.0
  0
LINE
  5
12CEE
330
1A
100
AcDbEntity
  8
ZISSEN1
100
AcDbLine
 10
-1248.781306319864
 20
1646.043993759161
 30
0.0
 11
-1247.781306319863
 21
1645.043993759162
 31
0.0
  0
LINE
  5
12CEF
330
1A
100
AcDbEntity
  8
ZISSEN1
100
AcDbLine
 10
-1248.781306319864
 20
1646.043993759161
 30
0.0
 11
-1242.781306319865
 21
1646.043993759161
 31
0.0
  0
LINE
  5
12CF0
330
1A
100
AcDbEntity
  8
ZISSEN1
100
AcDbLine
 10
-1248.781306319864
 20
1646.043993759161
 30
0.0
 11
-1242.781306319865
 21
1646.043993759161
 31
0.0
  0
LINE
  5
12CF1
330
1A
100
AcDbEntity
  8
ZISSEN1
  6
DASHEDX2
100
AcDbLine
 10
-1247.589140878894
 20
1621.683616988808
 30
0.0
 11
-1249.431306319864
 21
1621.683616988808
 31
0.0
  0
LINE
  5
12CF2
330
1A
100
AcDbEntity
  8
ZISSEN1
100
AcDbLine
 10
-1248.436150583527
 20
1617.64618759616
 30
0.0
 11
-1244.436150583528
 21
1617.64618759616
 31
0.0
  0
LINE
  5
12CF3
330
1A
100
AcDbEntity
  8
ZISSEN1
  6
DASHEDX2
100
AcDbLine
 10
-1243.936150583528
 20
1617.24618759616
 30
0.0
 11
-1248.936150583528
 21
1617.24618759616
 31
0.0
  0
LINE
  5
12CF4
330
1A
100
AcDbEntity
  8
ZISSEN1
100
AcDbLine
 10
-1249.386150583528
 20
1617.24618759616
 30
0.0
 11
-1243.486150583529
 21
1617.24618759616
 31
0.0
  0
LINE
  5
12CF5
330
1A
100
AcDbEntity
  8
ZISSEN1
100
AcDbLine
 10
-1246.436150583527
 20
1617.24618759616
 30
0.0
 11
-1248.436150583527
 21
1617.24618759616
 31
0.0
  0
LINE
  5
12CF6
330
1A
100
AcDbEntity
  8
ZISSEN1
  6
DASHEDX2
100
AcDbLine
 10
-1257.531306319864
 20
1642.003616988809
 30
0.0
 11
-1258.789140878893
 21
1642.003616988809
 31
0.0
  0
LINE
  5
12CF7
330
1A
100
AcDbEntity
  8
ZISSEN1
 62
     0
100
AcDbLine
 10
-1254.070690896197
 20
1644.059530290697
 30
0.0
 11
-1253.831195191354
 21
1644.299025995541
 31
0.0
  0
LINE
  5
12CF8
330
1A
100
AcDbEntity
  8
ZISSEN1
 62
     0
100
AcDbLine
 10
-1254.041573757948
 20
1644.011601436392
 30
0.0
 11
-1253.797993042637
 21
1644.255182151703
 31
0.0
  0
LINE
  5
12CF9
330
1A
100
AcDbEntity
  8
ZISSEN1
 62
     0
100
AcDbLine
 10
-1254.013397463675
 20
1643.731593760445
 30
0.0
 11
-1254.007821288032
 21
1643.737169936088
 31
0.0
  0
LINE
  5
12CFA
330
1A
100
AcDbEntity
  8
ZISSEN1
 62
     0
100
AcDbLine
 10
-1253.945843013245
 20
1643.25982626299
 30
0.0
 11
-1253.821851808794
 21
1643.383817467442
 31
0.0
  0
LINE
  5
12CFB
330
1A
100
AcDbEntity
  8
ZISSEN1
 62
     0
100
AcDbLine
 10
-1258.735407501592
 20
1644.942125149251
 30
0.0
 11
-1258.573791778506
 21
1645.103740872335
 31
0.0
  0
LINE
  5
12CFC
330
1A
100
AcDbEntity
  8
ZISSEN1
 62
     0
100
AcDbLine
 10
-1258.870575499915
 20
1644.729911158371
 30
0.0
 11
-1258.496745785952
 21
1645.103740872335
 31
0.0
  0
LINE
  5
12CFD
330
1A
100
AcDbEntity
  8
ZISSEN1
 62
     0
100
AcDbLine
 10
-1259.005743498241
 20
1644.517697167492
 30
0.0
 11
-1258.419699793398
 21
1645.103740872335
 31
0.0
  0
LINE
  5
12CFE
330
1A
100
AcDbEntity
  8
ZISSEN1
 62
     0
100
AcDbLine
 10
-1259.140911496565
 20
1644.305483176612
 30
0.0
 11
-1258.342653800842
 21
1645.103740872335
 31
0.0
  0
LINE
  5
12CFF
330
1A
100
AcDbEntity
  8
ZISSEN1
 62
     0
100
AcDbLine
 10
-1259.27607949489
 20
1644.093269185732
 30
0.0
 11
-1258.265607808287
 21
1645.103740872335
 31
0.0
  0
LINE
  5
12D00
330
1A
100
AcDbEntity
  8
ZISSEN1
 62
     0
100
AcDbLine
 10
-1258.673466633065
 20
1644.310652084784
 30
0.0
 11
-1258.242978413686
 21
1644.741140304163
 31
0.0
  0
LINE
  5
12D01
330
1A
100
AcDbEntity
  8
ZISSEN1
 62
     0
100
AcDbLine
 10
-1258.673466633065
 20
1644.233606092229
 30
0.0
 11
-1258.242978413686
 21
1644.664094311608
 31
0.0
  0
LINE
  5
12D02
330
1A
100
AcDbEntity
  8
ZISSEN1
 62
     0
100
AcDbLine
 10
-1258.673466633065
 20
1644.156560099674
 30
0.0
 11
-1258.242978413686
 21
1644.587048319053
 31
0.0
  0
LINE
  5
12D03
330
1A
100
AcDbEntity
  8
ZISSEN1
 62
     0
100
AcDbLine
 10
-1259.574437593509
 20
1643.178543146675
 30
0.0
 11
-1259.098341607745
 21
1643.654639132438
 31
0.0
  0
LINE
  5
12D04
330
1A
100
AcDbEntity
  8
ZISSEN1
 62
     0
100
AcDbLine
 10
-1258.673466633065
 20
1644.079514107119
 30
0.0
 11
-1258.242978413686
 21
1644.510002326498
 31
0.0
  0
LINE
  5
12D05
330
1A
100
AcDbEntity
  8
ZISSEN1
 62
     0
100
AcDbLine
 10
-1259.497391600955
 20
1643.178543146675
 30
0.0
 11
-1259.221203713558
 21
1643.454731034071
 31
0.0
  0
LINE
  5
12D06
330
1A
100
AcDbEntity
  8
ZISSEN1
 62
     0
100
AcDbLine
 10
-1258.673466633065
 20
1644.002468114565
 30
0.0
 11
-1258.242978413686
 21
1644.432956333944
 31
0.0
  0
LINE
  5
12D07
330
1A
100
AcDbEntity
  8
ZISSEN1
 62
     0
100
AcDbLine
 10
-1259.4203456084
 20
1643.178543146675
 30
0.0
 11
-1259.34406581937
 21
1643.254822935704
 31
0.0
  0
LINE
  5
12D08
330
1A
100
AcDbEntity
  8
ZISSEN1
 62
     0
100
AcDbLine
 10
-1258.673466633065
 20
1643.92542212201
 30
0.0
 11
-1258.242978413686
 21
1644.355910341389
 31
0.0
  0
LINE
  5
12D09
330
1A
100
AcDbEntity
  8
ZISSEN1
 62
     0
100
AcDbLine
 10
-1258.673466633065
 20
1643.848376129455
 30
0.0
 11
-1258.242978413686
 21
1644.278864348834
 31
0.0
  0
LINE
  5
12D0A
330
1A
100
AcDbEntity
  8
ZISSEN1
 62
     0
100
AcDbLine
 10
-1258.673466633065
 20
1643.7713301369
 30
0.0
 11
-1258.242978413686
 21
1644.201818356279
 31
0.0
  0
LINE
  5
12D0B
330
1A
100
AcDbEntity
  8
ZISSEN1
 62
     0
100
AcDbLine
 10
-1258.673466633064
 20
1643.694284144346
 30
0.0
 11
-1258.242978413686
 21
1644.124772363724
 31
0.0
  0
LINE
  5
12D0C
330
1A
100
AcDbEntity
  8
ZISSEN1
 62
     0
100
AcDbLine
 10
-1258.111929945192
 20
1644.255820832217
 30
0.0
 11
-1257.932982849006
 21
1644.434767928403
 31
0.0
  0
LINE
  5
12D0D
330
1A
100
AcDbEntity
  8
ZISSEN1
 62
     0
100
AcDbLine
 10
-1258.673466633064
 20
1643.617238151791
 30
0.0
 11
-1258.242978413686
 21
1644.047726371169
 31
0.0
  0
LINE
  5
12D0E
330
1A
100
AcDbEntity
  8
ZISSEN1
 62
     0
100
AcDbLine
 10
-1258.197924205637
 20
1644.092780579218
 30
0.0
 11
-1257.769942596007
 21
1644.520762188848
 31
0.0
  0
LINE
  5
12D0F
330
1A
100
AcDbEntity
  8
ZISSEN1
 62
     0
100
AcDbLine
 10
-1258.673466633065
 20
1643.540192159236
 30
0.0
 11
-1258.242978413686
 21
1643.970680378615
 31
0.0
  0
LINE
  5
12D10
330
1A
100
AcDbEntity
  8
ZISSEN1
 62
     0
100
AcDbLine
 10
-1258.22933041229
 20
1643.98432838001
 30
0.0
 11
-1257.661490396798
 21
1644.552168395502
 31
0.0
  0
LINE
  5
12D11
330
1A
100
AcDbEntity
  8
ZISSEN1
 62
     0
100
AcDbLine
 10
-1258.673466633065
 20
1643.463146166681
 30
0.0
 11
-1258.242978413686
 21
1643.89363438606
 31
0.0
  0
LINE
  5
12D12
330
1A
100
AcDbEntity
  8
ZISSEN1
 62
     0
100
AcDbLine
 10
-1258.242239513624
 20
1643.894373286123
 30
0.0
 11
-1257.571535302912
 21
1644.565077496834
 31
0.0
  0
LINE
  5
12D13
330
1A
100
AcDbEntity
  8
ZISSEN1
 62
     0
100
AcDbLine
 10
-1258.673466633065
 20
1643.386100174126
 30
0.0
 11
-1258.244321132704
 21
1643.815245674486
 31
0.0
  0
LINE
  5
12D14
330
1A
100
AcDbEntity
  8
ZISSEN1
 62
     0
100
AcDbLine
 10
-1258.242978413686
 20
1643.816588393505
 30
0.0
 11
-1257.492407691275
 21
1644.567159115916
 31
0.0
  0
LINE
  5
12D15
330
1A
100
AcDbEntity
  8
ZISSEN1
 62
     0
100
AcDbLine
 10
-1258.673466633064
 20
1643.309054181572
 30
0.0
 11
-1258.242978413686
 21
1643.73954240095
 31
0.0
  0
LINE
  5
12D16
330
1A
100
AcDbEntity
  8
ZISSEN1
 62
     0
100
AcDbLine
 10
-1258.238813095233
 20
1643.743707719402
 30
0.0
 11
-1257.420869736191
 21
1644.561651078445
 31
0.0
  0
LINE
  5
12D17
330
1A
100
AcDbEntity
  8
ZISSEN1
 62
     0
100
AcDbLine
 10
-1258.673466633064
 20
1643.232008189017
 30
0.0
 11
-1258.242978413686
 21
1643.662496408396
 31
0.0
  0
LINE
  5
12D18
330
1A
100
AcDbEntity
  8
ZISSEN1
 62
     0
100
AcDbLine
 10
-1256.835550043077
 20
1645.069924779004
 30
0.0
 11
-1256.827420303796
 21
1645.078054518284
 31
0.0
  0
LINE
  5
12D19
330
1A
100
AcDbEntity
  8
ZISSEN1
 62
     0
100
AcDbLine
 10
-1258.227442451066
 20
1643.678032371015
 30
0.0
 11
-1257.355194387804
 21
1644.550280434277
 31
0.0
  0
LINE
  5
12D1A
330
1A
100
AcDbEntity
  8
ZISSEN1
 62
     0
100
AcDbLine
 10
-1258.629404851836
 20
1643.199023977689
 30
0.0
 11
-1258.242978413686
 21
1643.58545041584
 31
0.0
  0
LINE
  5
12D1B
330
1A
100
AcDbEntity
  8
ZISSEN1
 62
     0
100
AcDbLine
 10
-1256.835550043077
 20
1644.99287878645
 30
0.0
 11
-1256.750374311241
 21
1645.078054518284
 31
0.0
  0
LINE
  5
12D1C
330
1A
100
AcDbEntity
  8
ZISSEN1
 62
     0
100
AcDbLine
 10
-1258.211252034842
 20
1643.617176794685
 30
0.0
 11
-1257.864755509039
 21
1643.963673320486
 31
0.0
  0
LINE
  5
12D1D
330
1A
100
AcDbEntity
  8
ZISSEN1
 62
     0
100
AcDbLine
 10
-1257.62852265842
 20
1644.199906171106
 30
0.0
 11
-1257.294338811473
 21
1644.534090018052
 31
0.0
  0
LINE
  5
12D1E
330
1A
100
AcDbEntity
  8
ZISSEN1
 62
     0
100
AcDbLine
 10
-1258.552358859282
 20
1643.199023977689
 30
0.0
 11
-1258.242978413686
 21
1643.508404423285
 31
0.0
  0
LINE
  5
12D1F
330
1A
100
AcDbEntity
  8
ZISSEN1
 62
     0
100
AcDbLine
 10
-1256.835550043077
 20
1644.915832793895
 30
0.0
 11
-1256.673328318687
 21
1645.078054518284
 31
0.0
  0
LINE
  5
12D20
330
1A
100
AcDbEntity
  8
ZISSEN1
 62
     0
100
AcDbLine
 10
-1258.190919797735
 20
1643.560463039236
 30
0.0
 11
-1257.885418266109
 21
1643.865964570863
 31
0.0
  0
LINE
  5
12D21
330
1A
100
AcDbEntity
  8
ZISSEN1
 62
     0
100
AcDbLine
 10
-1257.530813908796
 20
1644.220568928175
 30
0.0
 11
-1257.237625056024
 21
1644.513757780947
 31
0.0
  0
LINE
  5
12D22
330
1A
100
AcDbEntity
  8
ZISSEN1
 62
     0
100
AcDbLine
 10
-1258.475312866727
 20
1643.199023977689
 30
0.0
 11
-1258.242978413686
 21
1643.431358430731
 31
0.0
  0
LINE
  5
12D23
330
1A
100
AcDbEntity
  8
ZISSEN1
 62
     0
100
AcDbLine
 10
-1256.835550043077
 20
1644.838786801339
 30
0.0
 11
-1256.596282326131
 21
1645.078054518285
 31
0.0
  0
LINE
  5
12D24
330
1A
100
AcDbEntity
  8
ZISSEN1
 62
     0
100
AcDbLine
 10
-1258.166906152032
 20
1643.507430692384
 30
0.0
 11
-1257.883958649742
 21
1643.790378194674
 31
0.0
  0
LINE
  5
12D25
330
1A
100
AcDbEntity
  8
ZISSEN1
 62
     0
100
AcDbLine
 10
-1257.455227532608
 20
1644.219109311809
 30
0.0
 11
-1257.184592709173
 21
1644.489744135243
 31
0.0
  0
LINE
  5
12D26
330
1A
100
AcDbEntity
  8
ZISSEN1
 62
     0
100
AcDbLine
 10
-1258.398266874173
 20
1643.199023977689
 30
0.0
 11
-1258.242978413686
 21
1643.354312438176
 31
0.0
  0
LINE
  5
12D27
330
1A
100
AcDbEntity
  8
ZISSEN1
 62
     0
100
AcDbLine
 10
-1256.835550043077
 20
1644.761740808785
 30
0.0
 11
-1256.519236333577
 21
1645.078054518285
 31
0.0
  0
LINE
  5
12D28
330
1A
100
AcDbEntity
  8
ZISSEN1
 62
     0
100
AcDbLine
 10
-1258.139530218288
 20
1643.457760633574
 30
0.0
 11
-1257.870863923757
 21
1643.726426928104
 31
0.0
  0
LINE
  5
12D29
330
1A
100
AcDbEntity
  8
ZISSEN1
 62
     0
100
AcDbLine
 10
-1257.391276266037
 20
1644.206014585824
 30
0.0
 11
-1257.134922650362
 21
1644.462368201499
 31
0.0
  0
LINE
  5
12D2A
330
1A
100
AcDbEntity
  8
ZISSEN1
 62
     0
100
AcDbLine
 10
-1258.321220881617
 20
1643.199023977689
 30
0.0
 11
-1258.242978413686
 21
1643.277266445621
 31
0.0
  0
LINE
  5
12D2B
330
1A
100
AcDbEntity
  8
ZISSEN1
 62
     0
100
AcDbLine
 10
-1256.835550043077
 20
1644.68469481623
 30
0.0
 11
-1256.453853488268
 21
1645.066391371039
 31
0.0
  0
LINE
  5
12D2C
330
1A
100
AcDbEntity
  8
ZISSEN1
 62
     0
100
AcDbLine
 10
-1258.10901237906
 20
1643.411232480247
 30
0.0
 11
-1257.088394497036
 21
1644.431850362271
 31
0.0
  0
LINE
  5
12D2D
330
1A
100
AcDbEntity
  8
ZISSEN1
 62
     0
100
AcDbLine
 10
-1258.244174889062
 20
1643.199023977689
 30
0.0
 11
-1258.242978413686
 21
1643.200220453066
 31
0.0
  0
LINE
  5
12D2E
330
1A
100
AcDbEntity
  8
ZISSEN1
 62
     0
100
AcDbLine
 10
-1256.835550043077
 20
1644.607648823675
 30
0.0
 11
-1256.453853488268
 21
1644.989345378484
 31
0.0
  0
LINE
  5
12D2F
330
1A
100
AcDbEntity
  8
ZISSEN1
 62
     0
100
AcDbLine
 10
-1258.075499077845
 20
1643.367699788907
 30
0.0
 11
-1257.044861805696
 21
1644.398337061056
 31
0.0
  0
LINE
  5
12D30
330
1A
100
AcDbEntity
  8
ZISSEN1
 62
     0
100
AcDbLine
 10
-1258.03907732877
 20
1643.327075545428
 30
0.0
 11
-1257.004237562216
 21
1644.361915311981
 31
0.0
  0
LINE
  5
12D31
330
1A
100
AcDbEntity
  8
ZISSEN1
 62
     0
100
AcDbLine
 10
-1256.835550043077
 20
1644.53060283112
 30
0.0
 11
-1256.453853488268
 21
1644.912299385929
 31
0.0
  0
LINE
  5
12D32
330
1A
100
AcDbEntity
  8
ZISSEN1
 62
     0
100
AcDbLine
 10
-1257.999782619686
 20
1643.289324261956
 30
0.0
 11
-1256.966486278745
 21
1644.322620602897
 31
0.0
  0
LINE
  5
12D33
330
1A
100
AcDbEntity
  8
ZISSEN1
 62
     0
100
AcDbLine
 10
-1256.835550043077
 20
1644.453556838566
 30
0.0
 11
-1256.453853488268
 21
1644.835253393375
 31
0.0
  0
LINE
  5
12D34
330
1A
100
AcDbEntity
  8
ZISSEN1
 62
     0
100
AcDbLine
 10
-1257.957601985021
 20
1643.254458904067
 30
0.0
 11
-1256.931620920855
 21
1644.280439968232
 31
0.0
  0
LINE
  5
12D35
330
1A
100
AcDbEntity
  8
ZISSEN1
 62
     0
100
AcDbLine
 10
-1256.835550043077
 20
1644.376510846011
 30
0.0
 11
-1256.453853488268
 21
1644.75820740082
 31
0.0
  0
LINE
  5
12D36
330
1A
100
AcDbEntity
  8
ZISSEN1
 62
     0
100
AcDbLine
 10
-1257.91247289311
 20
1643.222542003423
 30
0.0
 11
-1256.899704020212
 21
1644.235310876321
 31
0.0
  0
LINE
  5
12D37
330
1A
100
AcDbEntity
  8
ZISSEN1
 62
     0
100
AcDbLine
 10
-1256.835550043077
 20
1644.299464853456
 30
0.0
 11
-1256.453853488268
 21
1644.681161408265
 31
0.0
  0
LINE
  5
12D38
330
1A
100
AcDbEntity
  8
ZISSEN1
 62
     0
100
AcDbLine
 10
-1257.864277717595
 20
1643.193691186382
 30
0.0
 11
-1257.596431044216
 21
1643.461537859762
 31
0.0
  0
LINE
  5
12D39
330
1A
100
AcDbEntity
  8
ZISSEN1
 62
     0
100
AcDbLine
 10
-1256.835550043077
 20
1644.222418860901
 30
0.0
 11
-1256.453853488268
 21
1644.60411541571
 31
0.0
  0
LINE
  5
12D3A
330
1A
100
AcDbEntity
  8
ZISSEN1
 62
     0
100
AcDbLine
 10
-1257.812832597292
 20
1643.168090314132
 30
0.0
 11
-1257.530345644097
 21
1643.450577267326
 31
0.0
  0
LINE
  5
12D3B
330
1A
100
AcDbEntity
  8
ZISSEN1
 62
     0
100
AcDbLine
 10
-1256.835550043077
 20
1644.145372868346
 30
0.0
 11
-1256.453853488268
 21
1644.527069423156
 31
0.0
  0
LINE
  5
12D3C
330
1A
100
AcDbEntity
  8
ZISSEN1
 62
     0
100
AcDbLine
 10
-1257.757868028312
 20
1643.146008890556
 30
0.0
 11
-1257.451322876535
 21
1643.452554042332
 31
0.0
  0
LINE
  5
12D3D
330
1A
100
AcDbEntity
  8
ZISSEN1
 62
     0
100
AcDbLine
 10
-1256.835550043077
 20
1644.068326875792
 30
0.0
 11
-1256.453853488268
 21
1644.450023430601
 31
0.0
  0
LINE
  5
12D3E
330
1A
100
AcDbEntity
  8
ZISSEN1
 62
     0
100
AcDbLine
 10
-1257.698995821126
 20
1643.127835105188
 30
0.0
 11
-1257.344549910327
 21
1643.482281015987
 31
0.0
  0
LINE
  5
12D3F
330
1A
100
AcDbEntity
  8
ZISSEN1
 62
     0
100
AcDbLine
 10
-1256.835550043077
 20
1643.991280883237
 30
0.0
 11
-1256.453853488268
 21
1644.372977438046
 31
0.0
  0
LINE
  5
12D40
330
1A
100
AcDbEntity
  8
ZISSEN1
 62
     0
100
AcDbLine
 10
-1257.14713035392
 20
1643.679700572393
 30
0.0
 11
-1257.106791477086
 21
1643.720039449227
 31
0.0
  0
LINE
  5
12D41
330
1A
100
AcDbEntity
  8
ZISSEN1
 62
     0
100
AcDbLine
 10
-1257.635651302225
 20
1643.114133631534
 30
0.0
 11
-1257.069384026378
 21
1643.68040090738
 31
0.0
  0
LINE
  5
12D42
330
1A
100
AcDbEntity
  8
ZISSEN1
 62
     0
100
AcDbLine
 10
-1256.835550043077
 20
1643.914234890682
 30
0.0
 11
-1256.453853488268
 21
1644.295931445491
 31
0.0
  0
LINE
  5
12D43
330
1A
100
AcDbEntity
  8
ZISSEN1
 62
     0
100
AcDbLine
 10
-1257.566985903588
 20
1643.105753037616
 30
0.0
 11
-1257.03197657567
 21
1643.640762365533
 31
0.0
  0
LINE
  5
12D44
330
1A
100
AcDbEntity
  8
ZISSEN1
 62
     0
100
AcDbLine
 10
-1256.835550043077
 20
1643.837188898127
 30
0.0
 11
-1256.453853488268
 21
1644.218885452936
 31
0.0
  0
LINE
  5
12D45
330
1A
100
AcDbEntity
  8
ZISSEN1
 62
     0
100
AcDbLine
 10
-1257.491647679521
 20
1643.104045269129
 30
0.0
 11
-1256.994569124962
 21
1643.601123823686
 31
0.0
  0
LINE
  5
12D46
330
1A
100
AcDbEntity
  8
ZISSEN1
 62
     0
100
AcDbLine
 10
-1256.835550043077
 20
1643.760142905572
 30
0.0
 11
-1256.453853488268
 21
1644.141839460381
 31
0.0
  0
LINE
  5
12D47
330
1A
100
AcDbEntity
  8
ZISSEN1
 62
     0
100
AcDbLine
 10
-1257.407263436226
 20
1643.111383519868
 30
0.0
 11
-1256.957161674255
 21
1643.561485281839
 31
0.0
  0
LINE
  5
12D48
330
1A
100
AcDbEntity
  8
ZISSEN1
 62
     0
100
AcDbLine
 10
-1256.34864532927
 20
1644.170001626824
 30
0.0
 11
-1256.032075459409
 21
1644.486571496685
 31
0.0
  0
LINE
  5
12D49
330
1A
100
AcDbEntity
  8
ZISSEN1
 62
     0
100
AcDbLine
 10
-1256.835550043077
 20
1643.683096913017
 30
0.0
 11
-1256.453853488268
 21
1644.064793467827
 31
0.0
  0
LINE
  5
12D4A
330
1A
100
AcDbEntity
  8
ZISSEN1
 62
     0
100
AcDbLine
 10
-1257.308893992705
 20
1643.132706970835
 30
0.0
 11
-1256.919754223547
 21
1643.521846739993
 31
0.0
  0
LINE
  5
12D4B
330
1A
100
AcDbEntity
  8
ZISSEN1
 62
     0
100
AcDbLine
 10
-1256.399890386558
 20
1644.041710576982
 30
0.0
 11
-1255.903784409567
 21
1644.537816553972
 31
0.0
  0
LINE
  5
12D4C
330
1A
100
AcDbEntity
  8
ZISSEN1
 62
     0
100
AcDbLine
 10
-1256.835550043077
 20
1643.606050920463
 30
0.0
 11
-1256.453853488268
 21
1643.987747475272
 31
0.0
  0
LINE
  5
12D4D
330
1A
100
AcDbEntity
  8
ZISSEN1
 62
     0
100
AcDbLine
 10
-1257.181612889011
 20
1643.182942081973
 30
0.0
 11
-1256.882346772839
 21
1643.482208198146
 31
0.0
  0
LINE
  5
12D4E
330
1A
100
AcDbEntity
  8
ZISSEN1
 62
     0
100
AcDbLine
 10
-1256.421597400168
 20
1643.942957570816
 30
0.0
 11
-1255.805031403402
 21
1644.559523567583
 31
0.0
  0
LINE
  5
12D4F
330
1A
100
AcDbEntity
  8
ZISSEN1
 62
     0
100
AcDbLine
 10
-1256.835550043077
 20
1643.529004927908
 30
0.0
 11
-1256.453853488268
 21
1643.910701482717
 31
0.0
  0
LINE
  5
12D50
330
1A
100
AcDbEntity
  8
ZISSEN1
 62
     0
100
AcDbLine
 10
-1256.835550043077
 20
1643.451958935353
 30
0.0
 11
-1256.453853488268
 21
1643.833655490162
 31
0.0
  0
LINE
  5
12D51
330
1A
100
AcDbEntity
  8
ZISSEN1
 62
     0
100
AcDbLine
 10
-1256.429161955355
 20
1643.858347023075
 30
0.0
 11
-1255.72042085566
 21
1644.567088122769
 31
0.0
  0
LINE
  5
12D52
330
1A
100
AcDbEntity
  8
ZISSEN1
 62
     0
100
AcDbLine
 10
-1256.835550043077
 20
1643.374912942798
 30
0.0
 11
-1256.453853488268
 21
1643.756609497608
 31
0.0
  0
LINE
  5
12D53
330
1A
100
AcDbEntity
  8
ZISSEN1
 62
     0
100
AcDbLine
 10
-1256.42761291682
 20
1643.782850069055
 30
0.0
 11
-1255.64492390164
 21
1644.565539084235
 31
0.0
  0
LINE
  5
12D54
330
1A
100
AcDbEntity
  8
ZISSEN1
 62
     0
100
AcDbLine
 10
-1256.835550043077
 20
1643.297866950244
 30
0.0
 11
-1256.453853488268
 21
1643.679563505053
 31
0.0
  0
LINE
  5
12D55
330
1A
100
AcDbEntity
  8
ZISSEN1
 62
     0
100
AcDbLine
 10
-1256.419354850891
 20
1643.714062142429
 30
0.0
 11
-1255.576135975014
 21
1644.557281018306
 31
0.0
  0
LINE
  5
12D56
330
1A
100
AcDbEntity
  8
ZISSEN1
 62
     0
100
AcDbLine
 10
-1256.835550043077
 20
1643.220820957688
 30
0.0
 11
-1256.453853488268
 21
1643.602517512498
 31
0.0
  0
LINE
  5
12D57
330
1A
100
AcDbEntity
  8
ZISSEN1
 62
     0
100
AcDbLine
 10
-1255.899264721599
 20
1644.157106279165
 30
0.0
 11
-1255.512690816212
 21
1644.543680184553
 31
0.0
  0
LINE
  5
12D58
330
1A
100
AcDbEntity
  8
ZISSEN1
 62
     0
100
AcDbLine
 10
-1256.405754017139
 20
1643.650616983626
 30
0.0
 11
-1256.006867432897
 21
1644.049503567869
 31
0.0
  0
LINE
  5
12D59
330
1A
100
AcDbEntity
  8
ZISSEN1
 62
     0
100
AcDbLine
 10
-1256.820322397825
 20
1643.159002610386
 30
0.0
 11
-1256.453853488268
 21
1643.525471519943
 31
0.0
  0
LINE
  5
12D5A
330
1A
100
AcDbEntity
  8
ZISSEN1
 62
     0
100
AcDbLine
 10
-1255.76609505397
 20
1644.213229954241
 30
0.0
 11
-1255.453732205509
 21
1644.525592802702
 31
0.0
  0
LINE
  5
12D5B
330
1A
100
AcDbEntity
  8
ZISSEN1
 62
     0
100
AcDbLine
 10
-1256.387666635287
 20
1643.591658372923
 30
0.0
 11
-1256.062991107971
 21
1643.916333900239
 31
0.0
  0
LINE
  5
12D5C
330
1A
100
AcDbEntity
  8
ZISSEN1
 62
     0
100
AcDbLine
 10
-1256.74327640527
 20
1643.159002610386
 30
0.0
 11
-1256.453853488268
 21
1643.448425527388
 31
0.0
  0
LINE
  5
12D5D
330
1A
100
AcDbEntity
  8
ZISSEN1
 62
     0
100
AcDbLine
 10
-1255.680543730403
 20
1644.221735285253
 30
0.0
 11
-1255.398690905344
 21
1644.50358811031
 31
0.0
  0
LINE
  5
12D5E
330
1A
100
AcDbEntity
  8
ZISSEN1
 62
     0
100
AcDbLine
 10
-1256.365661942896
 20
1643.536617072759
 30
0.0
 11
-1256.071496438983
 21
1643.830782576672
 31
0.0
  0
LINE
  5
12D5F
330
1A
100
AcDbEntity
  8
ZISSEN1
 62
     0
100
AcDbLine
 10
-1256.666230412715
 20
1643.159002610386
 30
0.0
 11
-1256.453853488268
 21
1643.371379534833
 31
0.0
  0
LINE
  5
12D60
330
1A
100
AcDbEntity
  8
ZISSEN1
 62
     0
100
AcDbLine
 10
-1255.610743585755
 20
1644.214489437345
 30
0.0
 11
-1255.347175763223
 21
1644.478057259877
 31
0.0
  0
LINE
  5
12D61
330
1A
100
AcDbEntity
  8
ZISSEN1
 62
     0
100
AcDbLine
 10
-1256.340131092463
 20
1643.485101930638
 30
0.0
 11
-1256.064250591076
 21
1643.760982432025
 31
0.0
  0
LINE
  5
12D62
330
1A
100
AcDbEntity
  8
ZISSEN1
 62
     0
100
AcDbLine
 10
-1256.589184420159
 20
1643.159002610386
 30
0.0
 11
-1256.453853488268
 21
1643.294333542279
 31
0.0
  0
LINE
  5
12D63
330
1A
100
AcDbEntity
  8
ZISSEN1
 62
     0
100
AcDbLine
 10
-1256.311345656131
 20
1643.436841374414
 30
0.0
 11
-1255.298915207
 21
1644.449271823546
 31
0.0
  0
LINE
  5
12D64
330
1A
100
AcDbEntity
  8
ZISSEN1
 62
     0
100
AcDbLine
 10
-1256.512138427605
 20
1643.159002610386
 30
0.0
 11
-1256.453853488268
 21
1643.217287549724
 31
0.0
  0
LINE
  5
12D65
330
1A
100
AcDbEntity
  8
ZISSEN1
 62
     0
100
AcDbLine
 10
-1256.2794910412
 20
1643.391649996791
 30
0.0
 11
-1255.253723829375
 21
1644.417417208615
 31
0.0
  0
LINE
  5
12D66
330
1A
100
AcDbEntity
  8
ZISSEN1
 62
     0
100
AcDbLine
 10
-1256.244686113767
 20
1643.34940893167
 30
0.0
 11
-1255.211482764254
 21
1644.382612281182
 31
0.0
  0
LINE
  5
12D67
330
1A
100
AcDbEntity
  8
ZISSEN1
 62
     0
100
AcDbLine
 10
-1256.206994477071
 20
1643.310054575811
 30
0.0
 11
-1255.172128408396
 21
1644.344920644486
 31
0.0
  0
LINE
  5
12D68
330
1A
100
AcDbEntity
  8
ZISSEN1
 62
     0
100
AcDbLine
 10
-1256.166430100639
 20
1643.273572959687
 30
0.0
 11
-1255.135646792272
 21
1644.304356268054
 31
0.0
  0
LINE
  5
12D69
330
1A
100
AcDbEntity
  8
ZISSEN1
 62
     0
100
AcDbLine
 10
-1256.12295851938
 20
1643.239998548391
 30
0.0
 11
-1255.102072380977
 21
1644.260884686795
 31
0.0
  0
LINE
  5
12D6A
330
1A
100
AcDbEntity
  8
ZISSEN1
 62
     0
100
AcDbLine
 10
-1256.076493851019
 20
1643.209417224198
 30
0.0
 11
-1255.814321372815
 21
1643.471589702402
 31
0.0
  0
LINE
  5
12D6B
330
1A
100
AcDbEntity
  8
ZISSEN1
 62
     0
100
AcDbLine
 10
-1256.026891006633
 20
1643.181974076028
 30
0.0
 11
-1255.753404145654
 21
1643.455460937009
 31
0.0
  0
LINE
  5
12D6C
330
1A
100
AcDbEntity
  8
ZISSEN1
 62
     0
100
AcDbLine
 10
-1255.058147733842
 20
1644.15071734882
 30
0.0
 11
-1254.712742894624
 21
1644.496122188039
 31
0.0
  0
LINE
  5
12D6D
330
1A
100
AcDbEntity
  8
ZISSEN1
 62
     0
100
AcDbLine
 10
-1255.973931346926
 20
1643.157887743181
 30
0.0
 11
-1255.682390101328
 21
1643.44942898878
 31
0.0
  0
LINE
  5
12D6E
330
1A
100
AcDbEntity
  8
ZISSEN1
 62
     0
100
AcDbLine
 10
-1255.103685483716
 20
1644.028133606391
 30
0.0
 11
-1254.590159152194
 21
1644.541659937914
 31
0.0
  0
LINE
  5
12D6F
330
1A
100
AcDbEntity
  8
ZISSEN1
 62
     0
100
AcDbLine
 10
-1255.917298154749
 20
1643.137474942804
 30
0.0
 11
-1255.59452138093
 21
1643.460251716623
 31
0.0
  0
LINE
  5
12D70
330
1A
100
AcDbEntity
  8
ZISSEN1
 62
     0
100
AcDbLine
 10
-1255.12313806788
 20
1643.931635029673
 30
0.0
 11
-1254.493660575476
 21
1644.561112522076
 31
0.0
  0
LINE
  5
12D71
330
1A
100
AcDbEntity
  8
ZISSEN1
 62
     0
100
AcDbLine
 10
-1255.856534569728
 20
1643.12119253527
 30
0.0
 11
-1255.441921277932
 21
1643.535805827066
 31
0.0
  0
LINE
  5
12D72
330
1A
100
AcDbEntity
  8
ZISSEN1
 62
     0
100
AcDbLine
 10
-1255.129355936707
 20
1643.848371168291
 30
0.0
 11
-1254.410396714094
 21
1644.567330390903
 31
0.0
  0
LINE
  5
12D73
330
1A
100
AcDbEntity
  8
ZISSEN1
 62
     0
100
AcDbLine
 10
-1255.385566980796
 20
1643.592160124201
 30
0.0
 11
-1255.275187985255
 21
1643.702539119743
 31
0.0
  0
LINE
  5
12D74
330
1A
100
AcDbEntity
  8
ZISSEN1
 62
     0
100
AcDbLine
 10
-1255.790968308457
 20
1643.109712803986
 30
0.0
 11
-1255.237780534547
 21
1643.662900577896
 31
0.0
  0
LINE
  5
12D75
330
1A
100
AcDbEntity
  8
ZISSEN1
 62
     0
100
AcDbLine
 10
-1255.126856377208
 20
1643.773824735235
 30
0.0
 11
-1254.335850281038
 21
1644.564830831405
 31
0.0
  0
LINE
  5
12D76
330
1A
100
AcDbEntity
  8
ZISSEN1
 62
     0
100
AcDbLine
 10
-1255.719566468602
 20
1643.104068651286
 30
0.0
 11
-1255.200373083839
 21
1643.623262036049
 31
0.0
  0
LINE
  5
12D77
330
1A
100
AcDbEntity
  8
ZISSEN1
 62
     0
100
AcDbLine
 10
-1255.11786173011
 20
1643.705773389778
 30
0.0
 11
-1254.267798935581
 21
1644.555836184307
 31
0.0
  0
LINE
  5
12D78
330
1A
100
AcDbEntity
  8
ZISSEN1
 62
     0
100
AcDbLine
 10
-1255.640621763808
 20
1643.105967363526
 30
0.0
 11
-1255.162965633131
 21
1643.583623494202
 31
0.0
  0
LINE
  5
12D79
330
1A
100
AcDbEntity
  8
ZISSEN1
 62
     0
100
AcDbLine
 10
-1254.574146181671
 20
1644.172442945662
 30
0.0
 11
-1254.204960395117
 21
1644.541628732216
 31
0.0
  0
LINE
  5
12D7A
330
1A
100
AcDbEntity
  8
ZISSEN1
 62
     0
100
AcDbLine
 10
-1255.103654278019
 20
1643.642934849314
 30
0.0
 11
-1254.722155812607
 21
1644.024433314726
 31
0.0
  0
LINE
  5
12D7B
330
1A
100
AcDbEntity
  8
ZISSEN1
 62
     0
100
AcDbLine
 10
-1255.550944139722
 20
1643.118598995057
 30
0.0
 11
-1255.125558182422
 21
1643.543984952356
 31
0.0
  0
LINE
  5
12D7C
330
1A
100
AcDbEntity
  8
ZISSEN1
 62
     0
100
AcDbLine
 10
-1254.45392322688
 20
1644.215619907898
 30
0.0
 11
-1254.146523627639
 21
1644.523019507139
 31
0.0
  0
LINE
  5
12D7D
330
1A
100
AcDbEntity
  8
ZISSEN1
 62
     0
100
AcDbLine
 10
-1255.085045052943
 20
1643.584498081836
 30
0.0
 11
-1254.765332774845
 21
1643.904210359934
 31
0.0
  0
LINE
  5
12D7E
330
1A
100
AcDbEntity
  8
ZISSEN1
 62
     0
100
AcDbLine
 10
-1255.443029519061
 20
1643.149467623163
 30
0.0
 11
-1255.088150731714
 21
1643.504346410509
 31
0.0
  0
LINE
  5
12D7F
330
1A
100
AcDbEntity
  8
ZISSEN1
 62
     0
100
AcDbLine
 10
-1255.062576207376
 20
1643.529920934847
 30
0.0
 11
-1254.771212970656
 21
1643.821284171568
 31
0.0
  0
LINE
  5
12D80
330
1A
100
AcDbEntity
  8
ZISSEN1
 62
     0
100
AcDbLine
 10
-1255.282680484937
 20
1643.232770664731
 30
0.0
 11
-1255.094844497316
 21
1643.420606652352
 31
0.0
  0
LINE
  5
12D81
330
1A
100
AcDbEntity
  8
ZISSEN1
 62
     0
100
AcDbLine
 10
-1255.036621239869
 20
1643.4788299098
 30
0.0
 11
-1254.762526299484
 21
1643.752924850185
 31
0.0
  0
LINE
  5
12D82
330
1A
100
AcDbEntity
  8
ZISSEN1
 62
     0
100
AcDbLine
 10
-1255.007439354708
 20
1643.430965802405
 30
0.0
 11
-1254.744533588624
 21
1643.69387156849
 31
0.0
  0
LINE
  5
12D83
330
1A
100
AcDbEntity
  8
ZISSEN1
 62
     0
100
AcDbLine
 10
-1254.975206680377
 20
1643.386152484182
 30
0.0
 11
-1254.719415926907
 21
1643.641943237653
 31
0.0
  0
LINE
  5
12D84
330
1A
100
AcDbEntity
  8
ZISSEN1
 62
     0
100
AcDbLine
 10
-1254.940034614466
 20
1643.344278557539
 30
0.0
 11
-1254.688231859192
 21
1643.596081312812
 31
0.0
  0
LINE
  5
12D85
330
1A
100
AcDbEntity
  8
ZISSEN1
 62
     0
100
AcDbLine
 10
-1254.901980278146
 20
1643.305286901304
 30
0.0
 11
-1254.651471099538
 21
1643.555796079912
 31
0.0
  0
LINE
  5
12D86
330
1A
100
AcDbEntity
  8
ZISSEN1
 62
     0
100
AcDbLine
 10
-1254.861051541344
 20
1643.269169645551
 30
0.0
 11
-1254.609243157644
 21
1643.520978029251
 31
0.0
  0
LINE
  5
12D87
330
1A
100
AcDbEntity
  8
ZISSEN1
 62
     0
100
AcDbLine
 10
-1254.817207697506
 20
1643.235967496834
 30
0.0
 11
-1254.561314303339
 21
1643.491860891001
 31
0.0
  0
LINE
  5
12D88
330
1A
100
AcDbEntity
  8
ZISSEN1
 62
     0
100
AcDbLine
 10
-1254.770355927557
 20
1643.205773274229
 30
0.0
 11
-1254.507026421852
 21
1643.469102779933
 31
0.0
  0
LINE
  5
12D89
330
1A
100
AcDbEntity
  8
ZISSEN1
 62
     0
100
AcDbLine
 10
-1254.720342807623
 20
1643.178740401608
 30
0.0
 11
-1254.445020519455
 21
1643.454062689775
 31
0.0
  0
LINE
  5
12D8A
330
1A
100
AcDbEntity
  8
ZISSEN1
 62
     0
100
AcDbLine
 10
-1254.666938931805
 20
1643.155098284871
 30
0.0
 11
-1254.372404063372
 21
1643.449633153303
 31
0.0
  0
LINE
  5
12D8B
330
1A
100
AcDbEntity
  8
ZISSEN1
 62
     0
100
AcDbLine
 10
-1254.609812685203
 20
1643.135178538918
 30
0.0
 11
-1254.281306627391
 21
1643.463684596729
 31
0.0
  0
LINE
  5
12D8C
330
1A
100
AcDbEntity
  8
ZISSEN1
 62
     0
100
AcDbLine
 10
-1259.869077132055
 20
1644.964145407109
 30
0.0
 11
-1259.729481666829
 21
1645.103740872335
 31
0.0
  0
LINE
  5
12D8D
330
1A
100
AcDbEntity
  8
ZISSEN1
 62
     0
100
AcDbLine
 10
-1260.003107443619
 20
1644.75306910299
 30
0.0
 11
-1259.652435674275
 21
1645.103740872335
 31
0.0
  0
LINE
  5
12D8E
330
1A
100
AcDbEntity
  8
ZISSEN1
 62
     0
100
AcDbLine
 10
-1260.940784628482
 20
1643.199023977689
 30
0.0
 11
-1259.861089375993
 21
1644.278719230177
 31
0.0
  0
LINE
  5
12D8F
330
1A
100
AcDbEntity
  8
ZISSEN1
 62
     0
100
AcDbLine
 10
-1260.863738635927
 20
1643.199023977689
 30
0.0
 11
-1259.971878494096
 21
1644.09088411952
 31
0.0
  0
LINE
  5
12D90
330
1A
100
AcDbEntity
  8
ZISSEN1
 62
     0
100
AcDbLine
 10
-1260.786692643373
 20
1643.199023977689
 30
0.0
 11
-1260.082667612198
 21
1643.903049008864
 31
0.0
  0
LINE
  5
12D91
330
1A
100
AcDbEntity
  8
ZISSEN1
 62
     0
100
AcDbLine
 10
-1260.709646650817
 20
1643.199023977689
 30
0.0
 11
-1260.193456730299
 21
1643.715213898206
 31
0.0
  0
LINE
  5
12D92
330
1A
100
AcDbEntity
  8
ZISSEN1
 62
     0
100
AcDbLine
 10
-1260.632600658262
 20
1643.199023977689
 30
0.0
 11
-1260.304245848402
 21
1643.527378787549
 31
0.0
  0
LINE
  5
12D93
330
1A
100
AcDbEntity
  8
ZISSEN1
 62
     0
100
AcDbLine
 10
-1260.555554665708
 20
1643.199023977689
 30
0.0
 11
-1260.415034966505
 21
1643.339543676892
 31
0.0
  0
LINE
  5
12D94
330
1A
100
AcDbEntity
  8
ZISSEN1
 62
     0
100
AcDbLine
 10
-1260.137137755182
 20
1644.541992798872
 30
0.0
 11
-1259.575389681719
 21
1645.103740872335
 31
0.0
  0
LINE
  5
12D95
330
1A
100
AcDbEntity
  8
ZISSEN1
 62
     0
100
AcDbLine
 10
-1260.271168066746
 20
1644.330916494754
 30
0.0
 11
-1259.498343689165
 21
1645.103740872335
 31
0.0
  0
LINE
  5
12D96
330
1A
100
AcDbEntity
  8
ZISSEN1
 62
     0
100
AcDbLine
 10
-1260.405198378309
 20
1644.119840190636
 30
0.0
 11
-1259.42129769661
 21
1645.103740872335
 31
0.0
  0
LINE
  5
12D97
330
1A
100
AcDbEntity
  8
ZISSEN1
 62
     0
100
AcDbLine
 10
-1260.539228689873
 20
1643.908763886517
 30
0.0
 11
-1259.349948029483
 21
1645.098044546907
 31
0.0
  0
LINE
  5
12D98
330
1A
100
AcDbEntity
  8
ZISSEN1
 62
     0
100
AcDbLine
 10
-1260.673259001436
 20
1643.697687582399
 30
0.0
 11
-1259.349948029483
 21
1645.020998554352
 31
0.0
  0
LINE
  5
12D99
330
1A
100
AcDbEntity
  8
ZISSEN1
 62
     0
100
AcDbLine
 10
-1260.807289313
 20
1643.486611278281
 30
0.0
 11
-1259.349948029483
 21
1644.943952561797
 31
0.0
  0
LINE
  5
12D9A
330
1A
100
AcDbEntity
  8
ZISSEN1
 62
     0
100
AcDbLine
 10
-1260.941319624564
 20
1643.275534974162
 30
0.0
 11
-1259.349948029483
 21
1644.866906569242
 31
0.0
  0
LINE
  5
12D9B
330
1A
100
AcDbEntity
  8
ZISSEN1
 62
     0
100
AcDbLine
 10
-1259.821435058517
 20
1644.318373547655
 30
0.0
 11
-1259.349948029483
 21
1644.789860576688
 31
0.0
  0
LINE
  5
12D9C
330
1A
100
AcDbEntity
  8
ZISSEN1
 62
     0
100
AcDbLine
 10
-1259.821435058517
 20
1644.2413275551
 30
0.0
 11
-1259.349948029483
 21
1644.712814584133
 31
0.0
  0
LINE
  5
12D9D
330
1A
100
AcDbEntity
  8
ZISSEN1
 62
     0
100
AcDbLine
 10
-1259.821435058517
 20
1644.164281562545
 30
0.0
 11
-1259.349948029483
 21
1644.635768591578
 31
0.0
  0
LINE
  5
12D9E
330
1A
100
AcDbEntity
  8
ZISSEN1
 62
     0
100
AcDbLine
 10
-1259.821435058517
 20
1644.08723556999
 30
0.0
 11
-1259.349948029483
 21
1644.558722599023
 31
0.0
  0
LINE
  5
12D9F
330
1A
100
AcDbEntity
  8
ZISSEN1
 62
     0
100
AcDbLine
 10
-1259.821435058517
 20
1644.010189577435
 30
0.0
 11
-1259.349948029483
 21
1644.481676606468
 31
0.0
  0
LINE
  5
12DA0
330
1A
100
AcDbEntity
  8
ZISSEN1
 62
     0
100
AcDbLine
 10
-1259.821435058517
 20
1643.933143584881
 30
0.0
 11
-1259.349948029483
 21
1644.404630613914
 31
0.0
  0
LINE
  5
12DA1
330
1A
100
AcDbEntity
  8
ZISSEN1
 62
     0
100
AcDbLine
 10
-1259.821435058517
 20
1643.856097592325
 30
0.0
 11
-1259.349948029483
 21
1644.327584621359
 31
0.0
  0
LINE
  5
12DA2
330
1A
100
AcDbEntity
  8
ZISSEN1
 62
     0
100
AcDbLine
 10
-1259.821435058517
 20
1643.779051599771
 30
0.0
 11
-1259.349948029483
 21
1644.250538628804
 31
0.0
  0
LINE
  5
12DA3
330
1A
100
AcDbEntity
  8
ZISSEN1
 62
     0
100
AcDbLine
 10
-1259.821435058517
 20
1643.702005607216
 30
0.0
 11
-1259.349948029483
 21
1644.173492636249
 31
0.0
  0
LINE
  5
12DA4
330
1A
100
AcDbEntity
  8
ZISSEN1
 62
     0
100
AcDbLine
 10
-1259.821435058517
 20
1643.624959614661
 30
0.0
 11
-1259.349948029483
 21
1644.096446643694
 31
0.0
  0
LINE
  5
12DA5
330
1A
100
AcDbEntity
  8
ZISSEN1
 62
     0
100
AcDbLine
 10
-1259.821435058517
 20
1643.547913622106
 30
0.0
 11
-1259.349948029483
 21
1644.019400651139
 31
0.0
  0
LINE
  5
12DA6
330
1A
100
AcDbEntity
  8
ZISSEN1
 62
     0
100
AcDbLine
 10
-1259.821435058517
 20
1643.470867629551
 30
0.0
 11
-1258.242978413686
 21
1645.049324274382
 31
0.0
  0
LINE
  5
12DA7
330
1A
100
AcDbEntity
  8
ZISSEN1
 62
     0
100
AcDbLine
 10
-1259.821435058517
 20
1643.393821636997
 30
0.0
 11
-1258.242978413686
 21
1644.972278281827
 31
0.0
  0
LINE
  5
12DA8
330
1A
100
AcDbEntity
  8
ZISSEN1
 62
     0
100
AcDbLine
 10
-1259.821435058517
 20
1643.316775644442
 30
0.0
 11
-1258.242978413686
 21
1644.895232289272
 31
0.0
  0
LINE
  5
12DA9
330
1A
100
AcDbEntity
  8
ZISSEN1
 62
     0
100
AcDbLine
 10
-1259.821435058517
 20
1643.239729651887
 30
0.0
 11
-1258.242978413686
 21
1644.818186296717
 31
0.0
  0
LINE
  5
12DAA
330
1A
100
AcDbEntity
  8
ZISSEN1
 62
     0
100
AcDbLine
 10
-1259.805575571174
 20
1643.178543146675
 30
0.0
 11
-1258.729755290307
 21
1644.254363427542
 31
0.0
  0
LINE
  5
12DAB
330
1A
100
AcDbEntity
  8
ZISSEN1
 62
     0
100
AcDbLine
 10
-1259.728529578619
 20
1643.178543146675
 30
0.0
 11
-1258.85261739612
 21
1644.054455329174
 31
0.0
  0
LINE
  5
12DAC
330
1A
100
AcDbEntity
  8
ZISSEN1
 62
     0
100
AcDbLine
 10
-1259.651483586063
 20
1643.178543146675
 30
0.0
 11
-1258.975479501932
 21
1643.854547230806
 31
0.0
  0
LINE
  5
12DAD
330
1A
100
AcDbEntity
  8
ZISSEN1
 62
     0
100
AcDbLine
 10
-1254.370997038514
 20
1644.221500103709
 30
0.0
 11
-1254.09194648065
 21
1644.500550661573
 31
0.0
  0
LINE
  5
12DAE
330
1A
100
AcDbEntity
  8
ZISSEN1
 62
     0
100
AcDbLine
 10
-1254.302637717131
 20
1644.212813432538
 30
0.0
 11
-1254.040855455603
 21
1644.474595694066
 31
0.0
  0
LINE
  5
12DAF
330
1A
100
AcDbEntity
  8
ZISSEN1
 62
     0
100
AcDbLine
 10
-1254.243584435436
 20
1644.194820721678
 30
0.0
 11
-1253.992991348209
 21
1644.445413808905
 31
0.0
  0
LINE
  5
12DB0
330
1A
100
AcDbEntity
  8
ZISSEN1
 62
     0
100
AcDbLine
 10
-1254.191656104598
 20
1644.169703059961
 30
0.0
 11
-1253.948178029985
 21
1644.413181134574
 31
0.0
  0
LINE
  5
12DB1
330
1A
100
AcDbEntity
  8
ZISSEN1
 62
     0
100
AcDbLine
 10
-1254.145794179758
 20
1644.138518992246
 30
0.0
 11
-1253.906304103342
 21
1644.378009068662
 31
0.0
  0
LINE
  5
12DB2
330
1A
100
AcDbEntity
  8
ZISSEN1
 62
     0
100
AcDbLine
 10
-1254.105508946858
 20
1644.101758232591
 30
0.0
 11
-1253.867312447106
 21
1644.339954732343
 31
0.0
  0
LINE
  5
12DB3
330
1A
100
AcDbEntity
  8
ZISSEN1
 62
     0
100
AcDbLine
 10
-1254.548485105833
 20
1643.119460125732
 30
0.0
 11
-1253.970413837324
 21
1643.697531394241
 31
0.0
  0
LINE
  5
12DB4
330
1A
100
AcDbEntity
  8
ZISSEN1
 62
     0
100
AcDbLine
 10
-1254.482248484621
 20
1643.108650754391
 30
0.0
 11
-1253.933006386616
 21
1643.657892852394
 31
0.0
  0
LINE
  5
12DB5
330
1A
100
AcDbEntity
  8
ZISSEN1
 62
     0
100
AcDbLine
 10
-1254.410007478629
 20
1643.103845767827
 30
0.0
 11
-1253.895598935909
 21
1643.618254310547
 31
0.0
  0
LINE
  5
12DB6
330
1A
100
AcDbEntity
  8
ZISSEN1
 62
     0
100
AcDbLine
 10
-1254.329929517461
 20
1643.10687773644
 30
0.0
 11
-1253.858191485201
 21
1643.5786157687
 31
0.0
  0
LINE
  5
12DB7
330
1A
100
AcDbEntity
  8
ZISSEN1
 62
     0
100
AcDbLine
 10
-1254.238517504336
 20
1643.121243757009
 30
0.0
 11
-1253.820784034493
 21
1643.538977226854
 31
0.0
  0
LINE
  5
12DB8
330
1A
100
AcDbEntity
  8
ZISSEN1
 62
     0
100
AcDbLine
 10
-1254.127171089063
 20
1643.155544179728
 30
0.0
 11
-1253.783376583785
 21
1643.499338685007
 31
0.0
  0
MTEXT
  5
12DB9
330
1A
100
AcDbEntity
  8
ZISSEN1
100
AcDbMText
 10
-1260.527675465586
 20
1643.010471276681
 30
0.0
 40
0.55
 41
7.25605
 71
     1
 72
     5
  1
{\fＭＳ Ｐゴシック|b0|i0|c128|p50;MADE  IN  JAPAN}
  7
ゴシック体
1001
ACAD
1000
MTEXTBEGIN
1070
    73
1070
     1
1070
    44
1040
1.0
1070
    74
1070
     0
1000
MTEXTEND
  0
LINE
  5
12DBA
330
1A
100
AcDbEntity
  8
ZISSEN1
100
AcDbLine
 10
-1258.789140878894
 20
1632.003616988808
 30
0.0
 11
-1263.786783515535
 21
1633.003616988808
 31
0.0
  0
LINE
  5
12DBC
330
1A
100
AcDbEntity
  8
ZISSEN1
100
AcDbLine
 10
-1258.789140878894
 20
1642.003616988809
 30
0.0
 11
-1263.786783515535
 21
1642.003616988809
 31
0.0
  0
LINE
  5
12DBD
330
1A
100
AcDbEntity
  8
ZISSEN1
100
AcDbLine
 10
-1263.786783515535
 20
1633.003616988808
 30
0.0
 11
-1263.786783515535
 21
1642.003616988809
 31
0.0
  0
CIRCLE
  5
12DBF
330
1A
100
AcDbEntity
  8
ZISSEN1
100
AcDbCircle
 10
-1253.481306319864
 20
1634.343616988808
 30
0.0
 40
2.0
  0
LINE
  5
12DC0
330
1A
100
AcDbEntity
  8
ZISSEN1
100
AcDbLine
 10
-1257.531306319864
 20
1642.003616988809
 30
0.0
 11
-1249.431306319864
 21
1642.003616988809
 31
0.0
  0
CIRCLE
  5
12DC1
330
1A
100
AcDbEntity
  8
ZISSEN1
100
AcDbCircle
 10
-1253.481306319864
 20
1639.343616988808
 30
0.0
 40
2.0
  0
LINE
  5
12DC2
330
1A
100
AcDbEntity
  8
ZISSEN1
100
AcDbLine
 10
-1268.781306319864
 20
1645.043993759162
 30
0.0
 11
-1267.781306319863
 21
1646.043993759161
 31
0.0
  0
LINE
  5
12DC3
330
1A
100
AcDbEntity
  8
ZISSEN1
100
AcDbLine
 10
-1248.781306319864
 20
1646.043993759161
 30
0.0
 11
-1267.781306319863
 21
1646.043993759161
 31
0.0
  0
LINE
  5
12DC4
330
1A
100
AcDbEntity
  8
ZISSEN1
100
AcDbLine
 10
-1265.781306319865
 20
1643.043993759162
 30
0.0
 11
-1265.781306319865
 21
1644.043993759161
 31
0.0
  0
LINE
  5
12DC5
330
1A
100
AcDbEntity
  8
ZISSEN1
100
AcDbLine
 10
-1266.781306319864
 20
1643.043993759162
 30
0.0
 11
-1265.781306319865
 21
1643.043993759162
 31
0.0
  0
LINE
  5
12DC6
330
1A
100
AcDbEntity
  8
ZISSEN1
100
AcDbLine
 10
-1266.781306319864
 20
1642.043993759162
 30
0.0
 11
-1266.781306319864
 21
1643.043993759162
 31
0.0
  0
LINE
  5
12DC7
330
1A
100
AcDbEntity
  8
ZISSEN1
100
AcDbLine
 10
-1265.781306319865
 20
1642.043993759162
 30
0.0
 11
-1266.781306319864
 21
1642.043993759162
 31
0.0
  0
LINE
  5
12DC8
330
1A
100
AcDbEntity
  8
ZISSEN1
100
AcDbLine
 10
-1265.781306319865
 20
1641.043993759162
 30
0.0
 11
-1265.781306319865
 21
1642.043993759162
 31
0.0
  0
LINE
  5
12DC9
330
1A
100
AcDbEntity
  8
ZISSEN1
100
AcDbLine
 10
-1264.781306319864
 20
1641.043993759162
 30
0.0
 11
-1265.781306319865
 21
1641.043993759162
 31
0.0
  0
LINE
  5
12DCA
330
1A
100
AcDbEntity
  8
ZISSEN1
100
AcDbLine
 10
-1264.781306319864
 20
1642.043993759162
 30
0.0
 11
-1264.781306319864
 21
1641.043993759162
 31
0.0
  0
LINE
  5
12DCB
330
1A
100
AcDbEntity
  8
ZISSEN1
100
AcDbLine
 10
-1263.781306319865
 20
1642.043993759162
 30
0.0
 11
-1264.781306319864
 21
1642.043993759162
 31
0.0
  0
LINE
  5
12DCC
330
1A
100
AcDbEntity
  8
ZISSEN1
100
AcDbLine
 10
-1263.781306319865
 20
1643.043993759162
 30
0.0
 11
-1263.781306319865
 21
1642.043993759162
 31
0.0
  0
LINE
  5
12DCD
330
1A
100
AcDbEntity
  8
ZISSEN1
100
AcDbLine
 10
-1264.781306319864
 20
1643.043993759162
 30
0.0
 11
-1263.781306319865
 21
1643.043993759162
 31
0.0
  0
LINE
  5
12DCE
330
1A
100
AcDbEntity
  8
ZISSEN1
100
AcDbLine
 10
-1264.781306319864
 20
1644.043993759161
 30
0.0
 11
-1264.781306319864
 21
1643.043993759162
 31
0.0
  0
LINE
  5
12DCF
330
1A
100
AcDbEntity
  8
ZISSEN1
100
AcDbLine
 10
-1265.781306319865
 20
1644.043993759161
 30
0.0
 11
-1264.781306319864
 21
1644.043993759161
 31
0.0
  0
LINE
  5
12DD0
330
1A
100
AcDbEntity
  8
ZISSEN1
100
AcDbLine
 10
-1264.781306319864
 20
1643.043993759162
 30
0.0
 11
-1264.281306319865
 21
1643.043993759162
 31
0.0
  0
LINE
  5
12DD1
330
1A
100
AcDbEntity
  8
ZISSEN1
100
AcDbLine
 10
-1264.781306319864
 20
1643.543993759162
 30
0.0
 11
-1264.781306319864
 21
1643.043993759162
 31
0.0
  0
CIRCLE
  5
12DD2
330
1A
100
AcDbEntity
  8
ZISSEN1
100
AcDbCircle
 10
-1265.281306319864
 20
1642.543993759161
 30
0.0
 40
2.25
  0
LINE
  5
12DD3
330
1A
100
AcDbEntity
  8
ZISSEN1
100
AcDbLine
 10
-1268.781306319864
 20
1645.043993759162
 30
0.0
 11
-1267.781306319863
 21
1646.043993759161
 31
0.0
  0
LINE
  5
12DD4
330
1A
100
AcDbEntity
  8
ZISSEN1
100
AcDbLine
 10
-1248.781306319864
 20
1646.043993759161
 30
0.0
 11
-1267.781306319863
 21
1646.043993759161
 31
0.0
  0
MTEXT
  5
12DD5
330
1A
100
AcDbEntity
  8
SUNPOU
 62
     0
100
AcDbMText
 10
-1308.807336275545
 20
1656.464082864279
 30
0.0
 40
3.5
 41
45.123
 71
     1
 72
     5
  1
マウンティングフット\P取り付け穴(裏面)\P(M3タップ×4)
  7
ゴシック体
1001
ACAD
1000
MTEXTBEGIN
1070
    73
1070
     1
1070
    44
1040
1.0
1070
    74
1070
     0
1000
MTEXTEND
1000
MTEXTBEGIN
1070
    73
1070
     1
1070
    44
1040
1.0
1070
    74
1070
     0
1000
MTEXTEND
  0
LINE
  5
12DD6
330
1A
100
AcDbEntity
  8
ZISSEN1
  6
DASHEDX2
100
AcDbLine
 10
-1258.789140878894
 20
1621.683616988808
 30
0.0
 11
-1257.531306319864
 21
1621.683616988808
 31
0.0
  0
LINE
  5
12DD7
330
1A
100
AcDbEntity
  8
ZISSEN1
  6
DASHEDX2
100
AcDbLine
 10
-1262.286783515535
 20
1621.203616988808
 30
0.0
 11
-1261.036783515535
 21
1621.203616988808
 31
0.0
  0
LINE
  5
12DD8
330
1A
100
AcDbEntity
  8
ZISSEN1
  6
DASHEDX2
100
AcDbLine
 10
-1252.936783515534
 20
1621.203616988808
 30
0.0
 11
-1251.086783515535
 21
1621.203616988808
 31
0.0
  0
LINE
  5
12DD9
330
1A
100
AcDbEntity
  8
ZISSEN1
100
AcDbLine
 10
-1263.786783515535
 20
1621.683616988808
 30
0.0
 11
-1258.789140878894
 21
1621.683616988808
 31
0.0
  0
LINE
  5
12DDB
330
1A
100
AcDbEntity
  8
ZISSEN1
100
AcDbLine
 10
-1262.286783515535
 20
1621.203616988808
 30
0.0
 11
-1265.286783515535
 21
1621.203616988808
 31
0.0
  0
LINE
  5
12DDD
330
1A
100
AcDbEntity
  8
ZISSEN1
100
AcDbLine
 10
-1263.786783515535
 20
1621.683616988808
 30
0.0
 11
-1263.786783515535
 21
1631.003616988808
 31
0.0
  0
LINE
  5
12DDE
330
1A
100
AcDbEntity
  8
ZISSEN1
100
AcDbLine
 10
-1261.036783515535
 20
1621.203616988808
 30
0.0
 11
-1252.936783515534
 21
1621.203616988808
 31
0.0
  0
LINE
  5
12DDF
330
1A
100
AcDbEntity
  8
ZISSEN1
100
AcDbLine
 10
-1249.431306319864
 20
1621.683616988808
 30
0.0
 11
-1257.531306319864
 21
1621.683616988808
 31
0.0
  0
CIRCLE
  5
12DE0
330
1A
100
AcDbEntity
  8
ZISSEN1
100
AcDbCircle
 10
-1253.481306319864
 20
1624.343616988808
 30
0.0
 40
2.0
  0
CIRCLE
  5
12DE1
330
1A
100
AcDbEntity
  8
ZISSEN1
100
AcDbCircle
 10
-1253.481306319864
 20
1629.343616988808
 30
0.0
 40
2.0
  0
LINE
  5
12DE2
330
1A
100
AcDbEntity
  8
ZISSEN1
100
AcDbLine
 10
-1248.436150583527
 20
1617.24618759616
 30
0.0
 11
-1248.436150583527
 21
1617.64618759616
 31
0.0
  0
LINE
  5
12DE4
330
1A
100
AcDbEntity
  8
ZISSEN1
100
AcDbLine
 10
-1258.789140878894
 20
1632.003616988808
 30
0.0
 11
-1263.786783515535
 21
1631.003616988808
 31
0.0
  0
LINE
  5
12DE5
330
1A
100
AcDbEntity
  8
ZISSEN1
100
AcDbLine
 10
-1258.789140878894
 20
1621.683616988808
 30
0.0
 11
-1258.789140878894
 21
1642.003616988809
 31
0.0
  0
LINE
  5
12DE6
330
1A
100
AcDbEntity
  8
ZISSEN1
100
AcDbLine
 10
-1249.431306319864
 20
1642.003616988809
 30
0.0
 11
-1249.431306319864
 21
1621.683616988808
 31
0.0
  0
LINE
  5
12DE7
330
1A
100
AcDbEntity
  8
ZISSEN1
100
AcDbLine
 10
-1257.531306319864
 20
1621.683616988808
 30
0.0
 11
-1257.531306319864
 21
1642.003616988809
 31
0.0
  0
LINE
  5
12DE8
330
1A
100
AcDbEntity
  8
ZISSEN1
100
AcDbLine
 10
-1256.531306319864
 20
1621.683616988808
 30
0.0
 11
-1256.531306319864
 21
1642.003616988809
 31
0.0
  0
LINE
  5
12DE9
330
1A
100
AcDbEntity
  8
ZISSEN1
100
AcDbLine
 10
-1193.381306319865
 20
1642.003993988808
 30
0.0
 11
-1203.381306319865
 21
1642.003993988808
 31
0.0
  0
LINE
  5
12DEB
330
1A
100
AcDbEntity
  8
ZISSEN1
100
AcDbLine
 10
-1245.881306319864
 20
1637.741632176365
 30
0.0
 11
-1242.281306319864
 21
1637.741632176365
 31
0.0
  0
LINE
  5
12DEC
330
1A
100
AcDbEntity
  8
ZISSEN1
100
AcDbLine
 10
-1247.781306319863
 20
1645.043993759162
 30
0.0
 11
-1247.781306319865
 21
1640.043993759162
 31
0.0
  0
LINE
  5
12DED
330
1A
100
AcDbEntity
  8
ZISSEN1
100
AcDbLine
 10
-1247.781306319865
 20
1640.043993759162
 30
0.0
 11
-1242.781306319864
 21
1640.043993759162
 31
0.0
  0
LINE
  5
12DEE
330
1A
100
AcDbEntity
  8
ZISSEN1
100
AcDbLine
 10
-1242.781306319864
 20
1640.043993759162
 30
0.0
 11
-1241.781306319865
 21
1639.043993759162
 31
0.0
  0
CIRCLE
  5
12DEF
330
1A
100
AcDbEntity
  8
ZISSEN1
100
AcDbCircle
 10
-1244.781306319865
 20
1643.043993759162
 30
0.0
 40
1.75
  0
LINE
  5
12DF0
330
1A
100
AcDbEntity
  8
ZISSEN1
100
AcDbLine
 10
-1241.781306319865
 20
1639.043993759162
 30
0.0
 11
-1241.781306319865
 21
1645.043993759162
 31
0.0
  0
LINE
  5
12DF1
330
1A
100
AcDbEntity
  8
ZISSEN1
100
AcDbLine
 10
-1242.781306319865
 20
1646.043993759161
 30
0.0
 11
-1241.781306319865
 21
1645.043993759162
 31
0.0
  0
LINE
  5
12DF2
330
1A
100
AcDbEntity
  8
ZISSEN1
100
AcDbLine
 10
-1242.781306319865
 20
1646.043993759161
 30
0.0
 11
-1241.781306319865
 21
1645.043993759162
 31
0.0
  0
LINE
  5
12DF3
330
1A
100
AcDbEntity
  8
ZISSEN1
100
AcDbLine
 10
-1193.381306319865
 20
1640.294370759161
 30
0.0
 11
-1191.781306319865
 21
1640.294370759161
 31
0.0
  0
LINE
  5
12DF4
330
1A
100
AcDbEntity
  8
ZISSEN1
100
AcDbLine
 10
-1193.381306319865
 20
1639.294370759162
 30
0.0
 11
-1191.781306319865
 21
1639.294370759162
 31
0.0
  0
LINE
  5
12DF5
330
1A
100
AcDbEntity
  8
ZISSEN1
100
AcDbLine
 10
-1194.881306319864
 20
1644.794370759162
 30
0.0
 11
-1193.381306319864
 21
1644.794370759162
 31
0.0
  0
LINE
  5
12DF6
330
1A
100
AcDbEntity
  8
ZISSEN1
100
AcDbLine
 10
-1194.881306319864
 20
1644.794370759162
 30
0.0
 11
-1193.381306319864
 21
1644.794370759162
 31
0.0
  0
ARC
  5
12DF7
330
1A
100
AcDbEntity
  8
ZISSEN1
100
AcDbCircle
 10
-1190.068806319865
 20
1642.544370759162
 30
0.0
 40
5.312499999999175
100
AcDbArc
 50
154.9423845816954
 51
186.3274888242949
  0
LINE
  5
12DF8
330
1A
100
AcDbEntity
  8
ZISSEN1
100
AcDbLine
 10
-1193.381306319865
 20
1645.044370759162
 30
0.0
 11
-1191.781306319865
 21
1645.044370759162
 31
0.0
  0
LINE
  5
12DF9
330
1A
100
AcDbEntity
  8
ZISSEN1
100
AcDbLine
 10
-1193.381306319865
 20
1646.044370759161
 30
0.0
 11
-1191.781306319865
 21
1646.044370759161
 31
0.0
  0
LINE
  5
12DFA
330
1A
100
AcDbEntity
  8
ZISSEN1
100
AcDbLine
 10
-1185.781306319864
 20
1645.043993988808
 30
0.0
 11
-1183.781306319865
 21
1645.043993988808
 31
0.0
  0
LINE
  5
12DFB
330
1A
100
AcDbEntity
  8
ZISSEN1
100
AcDbLine
 10
-1185.781306319864
 20
1646.043993988808
 30
0.0
 11
-1183.781306319865
 21
1646.043993988808
 31
0.0
  0
LINE
  5
12DFC
330
1A
100
AcDbEntity
  8
ZISSEN1
100
AcDbLine
 10
-1185.781306319864
 20
1645.294370759161
 30
0.0
 11
-1185.781306319864
 21
1639.794370759162
 31
0.0
  0
LINE
  5
12DFD
330
1A
100
AcDbEntity
  8
ZISSEN1
100
AcDbLine
 10
-1191.781306319865
 20
1639.794370759162
 30
0.0
 11
-1191.781306319865
 21
1645.294370759161
 31
0.0
  0
LINE
  5
12DFE
330
1A
100
AcDbEntity
  8
ZISSEN1
100
AcDbLine
 10
-1185.781306319864
 20
1639.544370759161
 30
0.0
 11
-1191.781306319865
 21
1639.544370759161
 31
0.0
  0
LINE
  5
12DFF
330
1A
100
AcDbEntity
  8
ZISSEN1
100
AcDbLine
 10
-1191.781306319865
 20
1645.544370759162
 30
0.0
 11
-1185.781306319864
 21
1645.544370759162
 31
0.0
  0
LINE
  5
12E00
330
1A
100
AcDbEntity
  8
ZISSEN1
100
AcDbLine
 10
-1193.381306319865
 20
1646.044370759161
 30
0.0
 11
-1193.381306319865
 21
1642.544370759162
 31
0.0
  0
LINE
  5
12E09
330
1A
100
AcDbEntity
  8
ZISSEN1
100
AcDbLine
 10
-1185.781306319864
 20
1645.043993988808
 30
0.0
 11
-1183.781306319865
 21
1645.043993988808
 31
0.0
  0
LINE
  5
12E0B
330
1A
100
AcDbEntity
  8
ZISSEN1
100
AcDbLine
 10
-1185.781306319864
 20
1646.043993988808
 30
0.0
 11
-1183.781306319865
 21
1646.043993988808
 31
0.0
  0
LEADER
  5
12E0C
330
1A
100
AcDbEntity
  8
SUNPOU
100
AcDbLeader
  3
標準スタイル
 76
     3
 10
-1243.624446543464
 20
1644.357072377427
 30
0.0
 10
-1235.585141675741
 20
1653.481980635858
 30
0.0
 10
-1217.686064303779
 20
1653.481980635858
 30
0.0
1001
ACAD
1000
DSTYLE
1002
{
1070
     5
1000

1070
    77
1070
     0
1070
   147
1040
1.0
1070
   176
1070
     0
1070
   371
1070
    13
1002
}
  0
MTEXT
  5
12E0D
330
1A
100
AcDbEntity
  8
SUNPOU
100
AcDbMText
 10
-1234.296811317685
 20
1657.393269554749
 30
0.0
 40
3.0
 41
30.2350592957687
 71
     1
 72
     5
  1
2-φ3.5
1001
ACAD
1000
MTEXTBEGIN
1070
    73
1070
     1
1070
    44
1040
1.0
1070
    74
1070
     0
1000
MTEXTEND
  0
LINE
  5
12E0E
330
1A
100
AcDbEntity
  8
CL1
100
AcDbLine
 10
-1244.781306319865
 20
1641.043993759162
 30
0.0
 11
-1244.781306319865
 21
1645.043993759162
 31
0.0
  0
LINE
  5
12E0F
330
1A
100
AcDbEntity
  8
ZISSEN1
  6
DASHEDX2
100
AcDbLine
 10
-1193.381306319865
 20
1619.74656459616
 30
0.0
 11
-1207.281306319864
 21
1619.74656459616
 31
0.0
  0
LINE
  5
12E10
330
1A
100
AcDbEntity
  8
ZISSEN1
100
AcDbLine
 10
-1193.381306319864
 20
1621.203993988808
 30
0.0
 11
-1203.381306319864
 21
1621.203993988808
 31
0.0
  0
LINE
  5
12E11
330
1A
100
AcDbEntity
  8
ZISSEN1
100
AcDbLine
 10
-1203.381306319865
 20
1621.683993988808
 30
0.0
 11
-1193.381306319864
 21
1621.683993988808
 31
0.0
  0
LINE
  5
12E12
330
1A
100
AcDbEntity
  8
ZISSEN1
100
AcDbLine
 10
-1195.881306319865
 20
1617.24656459616
 30
0.0
 11
-1200.731306319865
 21
1617.24656459616
 31
0.0
  0
LINE
  5
12E14
330
1A
100
AcDbEntity
  8
ZISSEN1
100
AcDbLine
 10
-1202.231306319865
 20
1617.74656459616
 30
0.0
 11
-1200.731306319865
 21
1617.74656459616
 31
0.0
  0
LINE
  5
12E15
330
1A
100
AcDbEntity
  8
ZISSEN1
  6
DASHEDX2
100
AcDbLine
 10
-1198.981306319865
 20
1617.24656459616
 30
0.0
 11
-1203.981306319865
 21
1617.24656459616
 31
0.0
  0
LINE
  5
12E16
330
1A
100
AcDbEntity
  8
ZISSEN1
100
AcDbLine
 10
-1202.231306319865
 20
1617.24656459616
 30
0.0
 11
-1204.081306319865
 21
1617.24656459616
 31
0.0
  0
LINE
  5
12E17
330
1A
100
AcDbEntity
  8
ZISSEN1
100
AcDbLine
 10
-1202.981306319865
 20
1616.99656459616
 30
0.0
 11
-1199.981306319865
 21
1616.99656459616
 31
0.0
  0
LINE
  5
12E18
330
1A
100
AcDbEntity
  8
ZISSEN1
100
AcDbLine
 10
-1200.731306319865
 20
1617.74656459616
 30
0.0
 11
-1200.731306319865
 21
1617.24656459616
 31
0.0
  0
LINE
  5
12E19
330
1A
100
AcDbEntity
  8
ZISSEN1
100
AcDbLine
 10
-1202.231306319865
 20
1617.24656459616
 30
0.0
 11
-1202.231306319865
 21
1617.74656459616
 31
0.0
  0
LINE
  5
12E1A
330
1A
100
AcDbEntity
  8
ZISSEN1
100
AcDbLine
 10
-1242.281306319864
 20
1622.741632176365
 30
0.0
 11
-1245.881306319864
 21
1622.741632176365
 31
0.0
  0
LINE
  5
12E1B
330
1A
100
AcDbEntity
  8
ZISSEN1
100
AcDbLine
 10
-1244.436150583528
 20
1617.64618759616
 30
0.0
 11
-1244.436150583528
 21
1617.24618759616
 31
0.0
  0
LINE
  5
12E1C
330
1A
100
AcDbEntity
  8
ZISSEN1
100
AcDbLine
 10
-1196.081306319865
 20
1617.64656459616
 30
0.0
 11
-1189.881306319865
 21
1617.64656459616
 31
0.0
  0
LINE
  5
12E1F
330
1A
100
AcDbEntity
  8
ZISSEN1
100
AcDbLine
 10
-1189.881306319865
 20
1617.24656459616
 30
0.0
 11
-1195.881306319865
 21
1617.24656459616
 31
0.0
  0
LINE
  5
12E20
330
1A
100
AcDbEntity
  8
ZISSEN1
100
AcDbLine
 10
-1193.381306319865
 20
1617.64656459616
 30
0.0
 11
-1193.381306319865
 21
1617.24656459616
 31
0.0
  0
LINE
  5
12E21
330
1A
100
AcDbEntity
  8
ZISSEN1
100
AcDbLine
 10
-1189.881306319865
 20
1617.64656459616
 30
0.0
 11
-1189.881306319865
 21
1617.24656459616
 31
0.0
  0
LINE
  5
12E22
330
1A
100
AcDbEntity
  8
ZISSEN1
100
AcDbLine
 10
-1196.081306319865
 20
1617.24656459616
 30
0.0
 11
-1196.081306319865
 21
1617.64656459616
 31
0.0
  0
LINE
  5
12E38
330
1A
100
AcDbEntity
  8
ZISSEN1
  6
DASHEDX2
100
AcDbLine
 10
-1247.589140878894
 20
1621.683616988808
 30
0.0
 11
-1247.589140878894
 21
1639.543993759162
 31
0.0
  0
LINE
  5
12E39
330
1A
100
AcDbEntity
  8
ZISSEN1
100
AcDbLine
 10
-1203.381306319865
 20
1642.003993988808
 30
0.0
 11
-1203.381306319865
 21
1621.683993988808
 31
0.0
  0
LINE
  5
12E3A
330
1A
100
AcDbEntity
  8
ZISSEN1
100
AcDbLine
 10
-1245.881306319864
 20
1622.741632176365
 30
0.0
 11
-1245.881306319864
 21
1637.741632176365
 31
0.0
  0
LINE
  5
12E3B
330
1A
100
AcDbEntity
  8
ZISSEN1
100
AcDbLine
 10
-1242.281306319864
 20
1637.741632176365
 30
0.0
 11
-1242.281306319864
 21
1622.741632176365
 31
0.0
  0
LINE
  5
12E3D
330
1A
100
AcDbEntity
  8
ZISSEN1
100
AcDbLine
 10
-1193.381306319865
 20
1622.043993988808
 30
0.0
 11
-1193.381306319865
 21
1642.043993988808
 31
0.0
  0
DIMENSION
  5
12E40
330
1A
100
AcDbEntity
  8
SUNPOU
100
AcDbDimension
  2
*D3
 10
-1207.281306319864
 20
1651.016210800044
 30
0.0
 11
-1195.531306319864
 21
1653.766210800044
 31
0.0
 70
    32
  3
標準スタイル
100
AcDbAlignedDimension
 13
-1183.781306319865
 23
1646.043993988808
 33
0.0
 14
-1207.281306319864
 24
1619.74656459616
 34
0.0
100
AcDbRotatedDimension
1001
ACAD
1000
DSTYLE
1002
{
1070
   271
1070
     2
1070
   340
1005
10
1070
   178
1070
     0
1070
   177
1070
     0
1070
   176
1070
     0
1070
   372
1070
    13
1070
   371
1070
    13
1070
    40
1040
1.0
1002
}
  0
LINE
  5
12F62
330
1A
100
AcDbEntity
  8
CL1
100
AcDbLine
 10
-1246.955483026269
 20
1643.043993759162
 30
0.0
 11
-1242.598684178631
 21
1643.043993759162
 31
0.0
  0
LINE
  5
12F74
330
1A
100
AcDbEntity
  8
CL1
100
AcDbLine
 10
-1267.955483026269
 20
1581.043616988808
 30
0.0
 11
-1263.598684178631
 21
1581.043616988808
 31
0.0
  0
LINE
  5
12F76
330
1A
100
AcDbEntity
  8
CL1
100
AcDbLine
 10
-1265.781306319865
 20
1579.043616988808
 30
0.0
 11
-1265.781306319865
 21
1583.043616988808
 31
0.0
  0
DIMENSION
  5
12F77
330
1A
100
AcDbEntity
  8
SUNPOU
100
AcDbDimension
  2
*D4
 10
-1244.781306319865
 20
1570.651123959848
 30
0.0
 11
-1255.281306319865
 21
1573.401123959848
 31
0.0
 70
    32
  3
標準スタイル
100
AcDbAlignedDimension
 13
-1265.781306319865
 23
1581.043616988808
 33
0.0
 14
-1244.781306319865
 24
1643.043993759162
 34
0.0
100
AcDbRotatedDimension
1001
ACAD
1000
DSTYLE
1002
{
1070
   271
1070
     2
1070
   340
1005
10
1070
    40
1040
1.0
1002
}
  0
LINE
  5
1352D
330
1A
100
AcDbEntity
  8
KAKURESEN1
100
AcDbLine
 10
-1186.266982073444
 20
1610.743616988808
 30
0.0
 11
-1183.281296319865
 21
1610.743616988808
 31
0.0
  0
LINE
  5
1352E
330
1A
100
AcDbEntity
  8
KAKURESEN1
100
AcDbLine
 10
-1186.266982073444
 20
1613.543616988808
 30
0.0
 11
-1183.281296319865
 21
1613.543616988808
 31
0.0
  0
LINE
  5
1352F
330
1A
100
AcDbEntity
  8
KAKURESEN1
100
AcDbLine
 10
-1186.266982073444
 20
1613.343616988808
 30
0.0
 11
-1183.281296319865
 21
1613.343616988808
 31
0.0
  0
LINE
  5
13541
330
1A
100
AcDbEntity
  8
KAKURESEN1
100
AcDbLine
 10
-1186.266982073444
 20
1610.543616988808
 30
0.0
 11
-1183.281296319865
 21
1610.543616988808
 31
0.0
  0
LINE
  5
13542
330
1A
100
AcDbEntity
  8
KAKURESEN1
100
AcDbLine
 10
-1186.266982073444
 20
1610.743616988808
 30
0.0
 11
-1183.281296319865
 21
1610.743616988808
 31
0.0
  0
LINE
  5
13549
330
1A
100
AcDbEntity
  8
KAKURESEN1
100
AcDbLine
 10
-1183.781306319865
 20
1613.956428523916
 30
0.0
 11
-1179.432110716813
 21
1613.956781762913
 31
0.0
  0
LINE
  5
1354A
330
1A
100
AcDbEntity
  8
KAKURESEN1
100
AcDbLine
 10
-1183.781306319865
 20
1610.136428523916
 30
0.0
 11
-1179.43600776585
 21
1610.136781446397
 31
0.0
  0
LINE
  5
1354D
102
{ACAD_REACTORS
330
13577
102
}
330
1A
100
AcDbEntity
  8
ZISSEN1
  6
CONTINUOUS
 62
     7
100
AcDbLine
 10
-1179.181306319865
 20
1614.04959367203
 30
0.0
 11
-1179.181306319865
 21
1627.662704805199
 31
0.0
  0
LINE
  5
1354E
102
{ACAD_REACTORS
330
13577
102
}
330
1A
100
AcDbEntity
  8
ZISSEN1
  6
CONTINUOUS
 62
     7
100
AcDbLine
 10
-1179.181306319865
 20
1596.436482538861
 30
0.0
 11
-1179.181306319865
 21
1610.04959367203
 31
0.0
  0
LINE
  5
1354F
102
{ACAD_REACTORS
330
13577
102
}
330
1A
100
AcDbEntity
  8
ZISSEN1
  6
CONTINUOUS
 62
     7
100
AcDbLine
 10
-1183.781306319865
 20
1625.94959367203
 30
0.0
 11
-1183.781306319865
 21
1598.14959367203
 31
0.0
  0
ELLIPSE
  5
13550
102
{ACAD_REACTORS
330
13577
102
}
330
1A
100
AcDbEntity
  8
ZISSEN1
  6
CONTINUOUS
 62
     7
100
AcDbEllipse
 10
-1177.681306319865
 20
1592.821924909823
 30
0.0
 11
4.499999999999978
 21
-0.000000000000021
 31
0.0
210
0.0
220
0.0
230
1.0
 40
0.5617041693757391
 41
0.0
 42
1.601814260048789
  0
LINE
  5
13551
102
{ACAD_REACTORS
330
13577
102
}
330
1A
100
AcDbEntity
  8
ZISSEN1
  6
CONTINUOUS
 62
     7
100
AcDbLine
 10
-1177.881306329714
 20
1591.95305229421
 30
0.0
 11
-1174.74940713055
 21
1592.505290623882
 31
0.0
  0
LINE
  5
13552
102
{ACAD_REACTORS
330
13577
102
}
330
1A
100
AcDbEntity
  8
ZISSEN1
  6
CONTINUOUS
 62
     7
100
AcDbLine
 10
-1174.420834395504
 20
1591.344715220676
 30
0.0
 11
-1177.177117718317
 21
1590.858708104387
 31
0.0
  0
LINE
  5
13553
102
{ACAD_REACTORS
330
13577
102
}
330
1A
100
AcDbEntity
  8
ZISSEN1
  6
CONTINUOUS
 62
     7
100
AcDbLine
 10
-1179.378785066246
 20
1593.249593781577
 30
0.0
 11
-1174.814525176609
 21
1593.249593531262
 31
0.0
  0
LINE
  5
13554
102
{ACAD_REACTORS
330
13577
102
}
330
1A
100
AcDbEntity
  8
ZISSEN1
  6
CONTINUOUS
 62
     7
100
AcDbLine
 10
-1177.981306319864
 20
1594.74959367203
 30
0.0
 11
-1177.820862588392
 21
1595.348377829641
 31
0.0
  0
ARC
  5
13555
102
{ACAD_REACTORS
330
13577
102
}
330
1A
100
AcDbEntity
  8
ZISSEN1
  6
CONTINUOUS
 62
     7
100
AcDbCircle
 10
-1181.181306319864
 20
1595.803130147098
 30
0.0
 40
2.0
100
AcDbArc
 50
180.0
 51
255.0000000000055
  0
LINE
  5
13556
102
{ACAD_REACTORS
330
13577
102
}
330
1A
100
AcDbEntity
  8
ZISSEN1
  6
CONTINUOUS
 62
     7
100
AcDbLine
 10
-1179.181306319865
 20
1594.74959367203
 30
0.0
 11
-1181.210716177675
 21
1595.293372404542
 31
0.0
  0
ARC
  5
13557
102
{ACAD_REACTORS
330
13577
102
}
330
1A
100
AcDbEntity
  8
ZISSEN1
  6
CONTINUOUS
 62
     7
100
AcDbCircle
 10
-1177.281306359246
 20
1591.44959367203
 30
0.0
 40
0.6
100
AcDbArc
 50
179.999992109329
 51
279.9999598291372
  0
LINE
  5
13558
102
{ACAD_REACTORS
330
13577
102
}
330
1A
100
AcDbEntity
  8
ZISSEN1
  6
CONTINUOUS
 62
     7
100
AcDbLine
 10
-1179.378785066246
 20
1593.24959367203
 30
0.0
 11
-1181.69894441007
 21
1593.871278494519
 31
0.0
  0
LINE
  5
13559
102
{ACAD_REACTORS
330
13577
102
}
330
1A
100
AcDbEntity
  8
ZISSEN1
  6
CONTINUOUS
 62
     7
100
AcDbLine
 10
-1177.881306359246
 20
1591.449595197909
 30
0.0
 11
-1177.881306359246
 21
1593.249593698515
 31
0.0
  0
LINE
  5
1355A
102
{ACAD_REACTORS
330
13577
102
}
330
1A
100
AcDbEntity
  8
ZISSEN1
  6
CONTINUOUS
 62
     7
100
AcDbLine
 10
-1179.181305768522
 20
1594.74959367203
 30
0.0
 11
-1177.981306319864
 21
1594.74959367203
 31
0.0
  0
LINE
  5
1355B
102
{ACAD_REACTORS
330
13577
102
}
330
1A
100
AcDbEntity
  8
ZISSEN1
  6
CONTINUOUS
 62
     7
100
AcDbLine
 10
-1179.810715842416
 20
1595.953519625716
 30
0.0
 11
-1180.951897132572
 21
1596.259298230831
 31
0.0
  0
ARC
  5
1355C
102
{ACAD_REACTORS
330
13577
102
}
330
1A
100
AcDbEntity
  8
ZISSEN1
  6
CONTINUOUS
 62
     7
100
AcDbCircle
 10
-1179.681306319865
 20
1596.436482538861
 30
0.0
 40
0.5
100
AcDbArc
 50
255.0000000000055
 51
0.0
  0
ARC
  5
1355D
102
{ACAD_REACTORS
330
13577
102
}
330
1A
100
AcDbEntity
  8
ZISSEN1
  6
CONTINUOUS
 62
     7
100
AcDbCircle
 10
-1181.081306586193
 20
1595.77633557494
 30
0.0
 40
0.4999997336718372
100
AcDbArc
 50
75.00000000000555
 51
255.0000000000055
  0
LINE
  5
1355E
102
{ACAD_REACTORS
330
13577
102
}
330
1A
100
AcDbEntity
  8
ZISSEN1
  6
CONTINUOUS
 62
     7
100
AcDbLine
 10
-1183.181306319865
 20
1596.949592271057
 30
0.0
 11
-1183.181306319865
 21
1595.803130147098
 31
0.0
  0
ARC
  5
1355F
102
{ACAD_REACTORS
330
13577
102
}
330
1A
100
AcDbEntity
  8
ZISSEN1
  6
CONTINUOUS
 62
     7
100
AcDbCircle
 10
-1184.681304451898
 20
1596.949592271057
 30
0.0
 40
1.5
100
AcDbArc
 50
0.0
 51
53.1301915429472
  0
ARC
  5
13560
102
{ACAD_REACTORS
330
13577
102
}
330
1A
100
AcDbEntity
  8
ZISSEN1
  6
CONTINUOUS
 62
     7
100
AcDbCircle
 10
-1174.681306319864
 20
1592.821924909823
 30
0.0
 40
1.5
100
AcDbArc
 50
280.0000000000038
 51
0.0
  0
ARC
  5
13561
102
{ACAD_REACTORS
330
13577
102
}
330
1A
100
AcDbEntity
  8
ZISSEN1
  6
CONTINUOUS
 62
     7
100
AcDbCircle
 10
-1174.814525197175
 20
1592.874593531262
 30
0.0
 40
0.375
100
AcDbArc
 50
280.0000000000038
 51
89.99999685775449
  0
LINE
  5
13562
102
{ACAD_REACTORS
330
13577
102
}
330
1A
100
AcDbEntity
  8
ZISSEN1
  6
CONTINUOUS
 62
     7
100
AcDbLine
 10
-1177.881306329714
 20
1632.14613504985
 30
0.0
 11
-1174.74940713055
 21
1631.593896720178
 31
0.0
  0
LINE
  5
13563
102
{ACAD_REACTORS
330
13577
102
}
330
1A
100
AcDbEntity
  8
ZISSEN1
  6
CONTINUOUS
 62
     7
100
AcDbLine
 10
-1174.420834395504
 20
1632.754472123384
 30
0.0
 11
-1177.177117718317
 21
1633.240479239673
 31
0.0
  0
LINE
  5
13564
102
{ACAD_REACTORS
330
13577
102
}
330
1A
100
AcDbEntity
  8
ZISSEN1
  6
CONTINUOUS
 62
     7
100
AcDbLine
 10
-1179.378785066246
 20
1630.849593562484
 30
0.0
 11
-1174.814525176609
 21
1630.849593812799
 31
0.0
  0
ELLIPSE
  5
13565
102
{ACAD_REACTORS
330
13577
102
}
330
1A
100
AcDbEntity
  8
ZISSEN1
  6
CONTINUOUS
 62
     7
100
AcDbEllipse
 10
-1177.681306319865
 20
1631.277262434237
 30
0.0
 11
4.499999999999978
 21
0.0000000000000067
 31
0.0
210
0.0
220
0.0
230
1.0
 40
0.5617041693757391
 41
-1.601814260048789
 42
0.0
  0
ARC
  5
13566
102
{ACAD_REACTORS
330
13577
102
}
330
1A
100
AcDbEntity
  8
ZISSEN1
  6
CONTINUOUS
 62
     7
100
AcDbCircle
 10
-1177.281306359246
 20
1632.64959367203
 30
0.0
 40
0.6
100
AcDbArc
 50
80.00004017086283
 51
180.000007890671
  0
LINE
  5
13567
102
{ACAD_REACTORS
330
13577
102
}
330
1A
100
AcDbEntity
  8
ZISSEN1
  6
CONTINUOUS
 62
     7
100
AcDbLine
 10
-1179.181306319865
 20
1614.04959367203
 30
0.0
 11
-1179.481306359246
 21
1614.04959367203
 31
0.0
  0
LINE
  5
13568
102
{ACAD_REACTORS
330
13577
102
}
330
1A
100
AcDbEntity
  8
ZISSEN1
  6
CONTINUOUS
 62
     7
100
AcDbLine
 10
-1183.181306319865
 20
1627.149595073003
 30
0.0
 11
-1183.181306319865
 21
1628.296057196963
 31
0.0
  0
ARC
  5
13569
102
{ACAD_REACTORS
330
13577
102
}
330
1A
100
AcDbEntity
  8
ZISSEN1
  6
CONTINUOUS
 62
     7
100
AcDbCircle
 10
-1179.681306319865
 20
1627.662704805199
 30
0.0
 40
0.5
100
AcDbArc
 50
0.0
 51
104.9999999999944
  0
ARC
  5
1356A
102
{ACAD_REACTORS
330
13577
102
}
330
1A
100
AcDbEntity
  8
ZISSEN1
  6
CONTINUOUS
 62
     7
100
AcDbCircle
 10
-1181.081306586193
 20
1628.32285176912
 30
0.0
 40
0.4999997336718372
100
AcDbArc
 50
105.000000000007
 51
284.9999999999944
  0
ARC
  5
1356B
102
{ACAD_REACTORS
330
13577
102
}
330
1A
100
AcDbEntity
  8
ZISSEN1
  6
CONTINUOUS
 62
     7
100
AcDbCircle
 10
-1184.681304451898
 20
1627.149595073003
 30
0.0
 40
1.5
100
AcDbArc
 50
306.8698084570527
 51
0.0
  0
LINE
  5
1356C
102
{ACAD_REACTORS
330
13577
102
}
330
1A
100
AcDbEntity
  8
ZISSEN1
  6
CONTINUOUS
 62
     7
100
AcDbLine
 10
-1179.378785066246
 20
1630.84959367203
 30
0.0
 11
-1181.69894441007
 21
1630.227908849541
 31
0.0
  0
LINE
  5
1356D
102
{ACAD_REACTORS
330
13577
102
}
330
1A
100
AcDbEntity
  8
ZISSEN1
  6
CONTINUOUS
 62
     7
100
AcDbLine
 10
-1179.810715842416
 20
1628.145667718344
 30
0.0
 11
-1180.951897132572
 21
1627.839889113229
 31
0.0
  0
LINE
  5
1356E
102
{ACAD_REACTORS
330
13577
102
}
330
1A
100
AcDbEntity
  8
ZISSEN1
  6
CONTINUOUS
 62
     7
100
AcDbLine
 10
-1179.181306319865
 20
1629.34959367203
 30
0.0
 11
-1181.210716177675
 21
1628.805814939518
 31
0.0
  0
LINE
  5
1356F
102
{ACAD_REACTORS
330
13577
102
}
330
1A
100
AcDbEntity
  8
ZISSEN1
  6
CONTINUOUS
 62
     7
100
AcDbLine
 10
-1177.981306319864
 20
1629.34959367203
 30
0.0
 11
-1177.820862588392
 21
1628.750809514419
 31
0.0
  0
LINE
  5
13570
102
{ACAD_REACTORS
330
13577
102
}
330
1A
100
AcDbEntity
  8
ZISSEN1
  6
CONTINUOUS
 62
     7
100
AcDbLine
 10
-1179.181305768522
 20
1629.34959367203
 30
0.0
 11
-1177.981306319864
 21
1629.34959367203
 31
0.0
  0
ARC
  5
13571
102
{ACAD_REACTORS
330
13577
102
}
330
1A
100
AcDbEntity
  8
ZISSEN1
  6
CONTINUOUS
 62
     7
100
AcDbCircle
 10
-1181.181306319864
 20
1628.296057196963
 30
0.0
 40
2.0
100
AcDbArc
 50
104.9999999999944
 51
180.0
  0
LINE
  5
13572
102
{ACAD_REACTORS
330
13577
102
}
330
1A
100
AcDbEntity
  8
ZISSEN1
  6
CONTINUOUS
 62
     7
100
AcDbLine
 10
-1177.881306359246
 20
1632.649592146151
 30
0.0
 11
-1177.881306359246
 21
1630.849593645545
 31
0.0
  0
LINE
  5
13573
102
{ACAD_REACTORS
330
13577
102
}
330
1A
100
AcDbEntity
  8
ZISSEN1
  6
CONTINUOUS
 62
     7
100
AcDbLine
 10
-1179.181306319865
 20
1610.04959367203
 30
0.0
 11
-1179.481306359246
 21
1610.04959367203
 31
0.0
  0
ARC
  5
13574
102
{ACAD_REACTORS
330
13577
102
}
330
1A
100
AcDbEntity
  8
ZISSEN1
  6
CONTINUOUS
 62
     7
100
AcDbCircle
 10
-1176.97416350211
 20
1612.049593672035
 30
0.0
 40
3.207142857140693
100
AcDbArc
 50
141.4199075616191
 51
218.5800924385294
  0
ARC
  5
13575
102
{ACAD_REACTORS
330
13577
102
}
330
1A
100
AcDbEntity
  8
ZISSEN1
  6
CONTINUOUS
 62
     7
100
AcDbCircle
 10
-1174.681306319864
 20
1631.277262434237
 30
0.0
 40
1.5
100
AcDbArc
 50
0.0
 51
79.99999999999612
  0
ARC
  5
13576
102
{ACAD_REACTORS
330
13577
102
}
330
1A
100
AcDbEntity
  8
ZISSEN1
  6
CONTINUOUS
 62
     7
100
AcDbCircle
 10
-1174.814525197175
 20
1631.224593812799
 30
0.0
 40
0.375
100
AcDbArc
 50
270.0000031422455
 51
79.99999999999612
  0
LINE
  5
1357B
330
1A
100
AcDbEntity
  8
SUNPOU
100
AcDbLine
 10
-1180.181305083287
 20
1612.046732833831
 30
0.0
 11
-1168.312775786606
 21
1626.510647548981
 31
0.0
  0
LEADER
  5
1357D
330
1A
100
AcDbEntity
  8
SUNPOU
100
AcDbLeader
  3
標準スタイル
 76
     3
 10
-1180.181305083287
 20
1612.046732833831
 30
0.0
 10
-1168.312775786606
 20
1626.510647548981
 30
0.0
 10
-1156.39719091376
 20
1626.510647548981
 30
0.0
1001
ACAD
1000
DSTYLE
1002
{
1070
     5
1000

1070
    77
1070
     1
1070
   147
1040
1.0
1002
}
  0
MTEXT
  5
1357E
330
1A
100
AcDbEntity
  8
SUNPOU
100
AcDbMText
 10
-1167.626386630812
 20
1630.778956300987
 30
0.0
 40
3.0
 41
13.4009
 71
     1
 72
     5
  1
\U+25A12.7
1001
ACAD
1000
MTEXTBEGIN
1070
    73
1070
     1
1070
    44
1040
1.0
1070
    74
1070
     0
1000
MTEXTEND
  0
VIEWPORT
  5
5D8F
330
5D8E
100
AcDbEntity
 67
     1
  8
0
100
AcDbViewport
 10
265.6804797182658
 20
173.286719957775
 30
0.0
 40
513.2451391622217
 41
294.7728767166985
 68
     1
 69
     1
1001
ACAD
1000
MVIEW
1002
{
1070
    16
1010
0.0
1020
0.0
1030
0.0
1010
0.0
1020
0.0
1030
1.0
1040
0.0
1040
294.7728767166985
1040
265.6804797182658
1040
173.286719957775
1040
50.0
1040
0.0
1040
0.0
1070
     0
1070
   100
1070
     1
1070
     0
1070
     0
1070
     0
1070
     0
1070
     0
1040
0.0
1040
0.0
1040
0.0
1040
1.0
1040
1.0
1040
10.0
1040
10.0
1070
     0
1002
{
1002
}
1002
}
  0
VIEWPORT
  5
6001
330
5D8E
100
AcDbEntity
 67
     1
  8
ZISSEN1
100
AcDbViewport
 10
221.7861955525412
 20
157.6960273330388
 30
0.0
 40
385.4999999999997
 41
259.9999999999999
 68
     2
 69
     2
1001
ACAD
1000
MVIEW
1002
{
1070
    16
1010
0.0
1020
0.0
1030
0.0
1010
0.0
1020
0.0
1030
1.0
1040
0.0
1040
259.9999999999999
1040
-1230.145931972352
1040
1598.195958562364
1040
50.0
1040
0.0
1040
0.0
1070
     0
1070
   100
1070
     1
1070
     0
1070
     0
1070
     0
1070
     0
1070
     0
1040
0.0
1040
0.0
1040
0.0
1040
1.0
1040
1.0
1040
10.0
1040
10.0
1070
     0
1002
{
1002
}
1002
}
  0
TEXT
  5
716F
330
5D8E
100
AcDbEntity
 67
     1
  8
SUNPOU
 62
     0
100
AcDbText
 10
374.1863124306944
 20
60.86794705907585
 30
0.0
 40
3.5
  1
縮尺 1/1
  7
ゴシック体
100
AcDbText
  0
ENDSEC
  0
SECTION
  2
OBJECTS
  0
DICTIONARY
  5
C
330
0
100
AcDbDictionary
  3
ACAD_GROUP
350
D
  3
ACAD_LAYOUT
350
5C7D
  3
ACAD_MLINESTYLE
350
E
  3
ACAD_PLOTSETTINGS
350
5C7E
  3
ACAD_PLOTSTYLENAME
350
5C7B
  3
ACADDIM
350
13579
  3
DWGPROPS
350
12861
  3
ACDBHEADERROUNDTRIPXREC
350
135E1
  0
DICTIONARY
  5
12867
330
2
100
AcDbDictionary
280
     1
  3
ACAD_LAYERFILTERS
360
12868
  0
DICTIONARY
  5
13601
330
1A
100
AcDbDictionary
280
     1
  3
ACAD_LAYOUTSELFREF
360
13602
  0
DICTIONARY
  5
13603
330
5D8E
100
AcDbDictionary
280
     1
  3
ACAD_LAYOUTSELFREF
360
13604
  0
DICTIONARY
  5
D
102
{ACAD_REACTORS
330
C
102
}
330
C
100
AcDbDictionary
  3
*A1
350
477D
  3
*A2
350
4C10
  3
*A3
350
4C11
  3
*A4
350
4C12
  3
*A5
350
4C13
  3
*A6
350
4C14
  3
*A7
350
4C15
  3
*A8
350
4C16
  3
*A9
350
4C17
  3
*A10
350
134DE
  3
*A11
350
1354B
  3
*A12
350
13577
  3
*A13
350
477E
  3
*A14
350
477F
  3
*A15
350
4780
  3
*A16
350
4781
  3
*A17
350
4C0E
  3
*A18
350
4C0F
  0
DICTIONARY
  5
5C7D
102
{ACAD_REACTORS
330
C
102
}
330
C
100
AcDbDictionary
  0
DICTIONARY
  5
E
102
{ACAD_REACTORS
330
C
102
}
330
C
100
AcDbDictionary
  3
STANDARD
350
13
  0
DICTIONARY
  5
5C7E
102
{ACAD_REACTORS
330
C
102
}
330
C
100
AcDbDictionary
  0
ACDBDICTIONARYWDFLT
  5
5C7B
102
{ACAD_REACTORS
330
C
102
}
330
C
100
AcDbDictionary
281
     1
  3
Normal
350
5C7C
100
AcDbDictionaryWithDefault
340
5C7C
  0
XRECORD
  5
13579
102
{ACAD_REACTORS
330
C
102
}
330
C
100
AcDbXrecord
 90
   990106
  3

 60
     0
 61
     0
 62
     1
 63
     3
 64
     0
 65
     0
 66
     0
 67
     3
 68
     1
 69
     0
 70
     0
 71
     0
 72
     0
 40
0.0
170
     0
  0
XRECORD
  5
12861
102
{ACAD_REACTORS
330
C
102
}
330
C
100
AcDbXrecord
  1
DWGPROPS COOKIE
  2

  3

  4

  6

  7

  8

  9

300
=
301
=
302
=
303
=
304
=
305
=
306
=
307
=
308
=
309
=
 40
1.583646701388888
 41
2450495.493631365
 42
2455325.72058449
  1

 90
        0
  0
DICTIONARY
  5
135E1
102
{ACAD_REACTORS
330
C
102
}
330
C
100
AcDbDictionary
  3
TSTACKALIGN
350
135E2
  3
TSTACKSIZE
350
135E3
  3
HYPERLINKBASE
350
135E4
  3
STYLESHEET
350
135E5
  3
LAYOUTDICT
350
135E6
  3
PLOTSETDICT
350
135E7
  3
PLOTSTYLNAMDICT
350
135E8
  3
LWETCUNION
350
135E9
  3
INSUNITS
350
135EA
  3
CEPSNTYPE
350
135EB
  3
FINGERPRINTGUID
350
135EC
  3
VERSIONGUID
350
135ED
  3
PSVPSCALE
350
135EE
  3
PUCSORTHOREF
350
135EF
  3
PUCSORTHOVIEW
350
135F0
  3
PUCSBASE
350
135F1
  3
PUCSORGTOP
350
135F2
  3
PUCSORGBOTTOM
350
135F3
  3
PUCSORGLEFT
350
135F4
  3
PUCSORGRIGHT
350
135F5
  3
PUCSORGFRONT
350
135F6
  3
PUCSORGBACK
350
135F7
  3
UCSORTHOREF
350
135F8
  3
UCSORTHOVIEW
350
135F9
  3
UCSBASE
350
135FA
  3
UCSORGTOP
350
135FB
  3
UCSORGBOTTOM
350
135FC
  3
UCSORGLEFT
350
135FD
  3
UCSORGRIGHT
350
135FE
  3
UCSORGFRONT
350
135FF
  3
UCSORGBACK
350
13600
  0
DICTIONARY
  5
12868
102
{ACAD_REACTORS
330
12867
102
}
330
12867
100
AcDbDictionary
280
     1
  3
BASE
360
12869
  3
CASE
360
1286A
  3
KIKOU
360
1286B
  0
XRECORD
  5
13602
102
{ACAD_REACTORS
330
13601
102
}
330
13601
100
AcDbXrecord
340
1A
  0
XRECORD
  5
13604
102
{ACAD_REACTORS
330
13603
102
}
330
13603
100
AcDbXrecord
340
5D8E
  0
GROUP
  5
477D
102
{ACAD_REACTORS
330
D
102
}
330
D
100
AcDbGroup
300

 70
     1
 71
     1
  0
GROUP
  5
4C10
102
{ACAD_REACTORS
330
D
102
}
330
D
100
AcDbGroup
300

 70
     1
 71
     1
  0
GROUP
  5
4C11
102
{ACAD_REACTORS
330
D
102
}
330
D
100
AcDbGroup
300

 70
     1
 71
     1
  0
GROUP
  5
4C12
102
{ACAD_REACTORS
330
D
102
}
330
D
100
AcDbGroup
300

 70
     1
 71
     1
  0
GROUP
  5
4C13
102
{ACAD_REACTORS
330
D
102
}
330
D
100
AcDbGroup
300

 70
     1
 71
     1
  0
GROUP
  5
4C14
102
{ACAD_REACTORS
330
D
102
}
330
D
100
AcDbGroup
300

 70
     1
 71
     1
  0
GROUP
  5
4C15
102
{ACAD_REACTORS
330
D
102
}
330
D
100
AcDbGroup
300

 70
     1
 71
     1
  0
GROUP
  5
4C16
102
{ACAD_REACTORS
330
D
102
}
330
D
100
AcDbGroup
300

 70
     1
 71
     1
  0
GROUP
  5
4C17
102
{ACAD_REACTORS
330
D
102
}
330
D
100
AcDbGroup
300

 70
     1
 71
     1
  0
GROUP
  5
134DE
102
{ACAD_REACTORS
330
D
102
}
330
D
100
AcDbGroup
300

 70
     1
 71
     1
  0
GROUP
  5
1354B
102
{ACAD_REACTORS
330
D
102
}
330
D
100
AcDbGroup
300

 70
     1
 71
     1
  0
GROUP
  5
13577
102
{ACAD_REACTORS
330
D
102
}
330
D
100
AcDbGroup
300

 70
     1
 71
     1
340
1354E
340
1354F
340
13550
340
13551
340
13552
340
13553
340
13554
340
13555
340
13556
340
13557
340
13558
340
13559
340
1355A
340
1355B
340
1355C
340
1355D
340
1355E
340
1355F
340
13560
340
13561
340
13562
340
13563
340
13564
340
13565
340
13566
340
1354D
340
13567
340
13568
340
13569
340
1356A
340
1356B
340
1356C
340
1356D
340
1356E
340
1356F
340
13570
340
13571
340
13572
340
13573
340
13574
340
13575
340
13576
  0
GROUP
  5
477E
102
{ACAD_REACTORS
330
D
102
}
330
D
100
AcDbGroup
300

 70
     1
 71
     1
  0
GROUP
  5
477F
102
{ACAD_REACTORS
330
D
102
}
330
D
100
AcDbGroup
300

 70
     1
 71
     1
  0
GROUP
  5
4780
102
{ACAD_REACTORS
330
D
102
}
330
D
100
AcDbGroup
300

 70
     1
 71
     1
  0
GROUP
  5
4781
102
{ACAD_REACTORS
330
D
102
}
330
D
100
AcDbGroup
300

 70
     1
 71
     1
  0
GROUP
  5
4C0E
102
{ACAD_REACTORS
330
D
102
}
330
D
100
AcDbGroup
300

 70
     1
 71
     1
  0
GROUP
  5
4C0F
102
{ACAD_REACTORS
330
D
102
}
330
D
100
AcDbGroup
300

 70
     1
 71
     1
  0
MLINESTYLE
  5
13
102
{ACAD_REACTORS
330
E
102
}
330
E
100
AcDbMlineStyle
  2
STANDARD
 70
     0
  3

 62
     0
 51
90.0
 52
90.0
 71
     2
 49
0.5
 62
   256
  6
BYLAYER
 49
-0.5
 62
   256
  6
BYLAYER
  0
ACDBPLACEHOLDER
  5
5C7C
102
{ACAD_REACTORS
330
5C7B
102
}
330
5C7B
100
AcDbPlaceHolder
280
     0
  0
XRECORD
  5
135E2
102
{ACAD_REACTORS
330
135E1
102
}
330
135E1
100
AcDbXrecord
 90
        1
  0
XRECORD
  5
135E3
102
{ACAD_REACTORS
330
135E1
102
}
330
135E1
100
AcDbXrecord
 90
       70
  0
XRECORD
  5
135E4
102
{ACAD_REACTORS
330
135E1
102
}
330
135E1
100
AcDbXrecord
  1

  0
XRECORD
  5
135E5
102
{ACAD_REACTORS
330
135E1
102
}
330
135E1
100
AcDbXrecord
  1

  0
XRECORD
  5
135E6
102
{ACAD_REACTORS
330
135E1
102
}
330
135E1
100
AcDbXrecord
340
5C7D
  0
XRECORD
  5
135E7
102
{ACAD_REACTORS
330
135E1
102
}
330
135E1
100
AcDbXrecord
340
5C7E
  0
XRECORD
  5
135E8
102
{ACAD_REACTORS
330
135E1
102
}
330
135E1
100
AcDbXrecord
340
5C7B
  0
XRECORD
  5
135E9
102
{ACAD_REACTORS
330
135E1
102
}
330
135E1
100
AcDbXrecord
 90
    10781
  0
XRECORD
  5
135EA
102
{ACAD_REACTORS
330
135E1
102
}
330
135E1
100
AcDbXrecord
 90
        0
  0
XRECORD
  5
135EB
102
{ACAD_REACTORS
330
135E1
102
}
330
135E1
100
AcDbXrecord
 90
        0
  0
XRECORD
  5
135EC
102
{ACAD_REACTORS
330
135E1
102
}
330
135E1
100
AcDbXrecord
  1
{225A7F0D-DA29-11D8-946A-0000E2416295}
  0
XRECORD
  5
135ED
102
{ACAD_REACTORS
330
135E1
102
}
330
135E1
100
AcDbXrecord
  1
{02E4AC7F-85E5-4B3D-9112-974984104B70}
  0
XRECORD
  5
135EE
102
{ACAD_REACTORS
330
135E1
102
}
330
135E1
100
AcDbXrecord
 40
0.0
  0
XRECORD
  5
135EF
102
{ACAD_REACTORS
330
135E1
102
}
330
135E1
100
AcDbXrecord
340
0
  0
XRECORD
  5
135F0
102
{ACAD_REACTORS
330
135E1
102
}
330
135E1
100
AcDbXrecord
 70
     0
  0
XRECORD
  5
135F1
102
{ACAD_REACTORS
330
135E1
102
}
330
135E1
100
AcDbXrecord
340
0
  0
XRECORD
  5
135F2
102
{ACAD_REACTORS
330
135E1
102
}
330
135E1
100
AcDbXrecord
 10
0.0
 20
0.0
 30
0.0
  0
XRECORD
  5
135F3
102
{ACAD_REACTORS
330
135E1
102
}
330
135E1
100
AcDbXrecord
 10
0.0
 20
0.0
 30
0.0
  0
XRECORD
  5
135F4
102
{ACAD_REACTORS
330
135E1
102
}
330
135E1
100
AcDbXrecord
 10
0.0
 20
0.0
 30
0.0
  0
XRECORD
  5
135F5
102
{ACAD_REACTORS
330
135E1
102
}
330
135E1
100
AcDbXrecord
 10
0.0
 20
0.0
 30
0.0
  0
XRECORD
  5
135F6
102
{ACAD_REACTORS
330
135E1
102
}
330
135E1
100
AcDbXrecord
 10
0.0
 20
0.0
 30
0.0
  0
XRECORD
  5
135F7
102
{ACAD_REACTORS
330
135E1
102
}
330
135E1
100
AcDbXrecord
 10
0.0
 20
0.0
 30
0.0
  0
XRECORD
  5
135F8
102
{ACAD_REACTORS
330
135E1
102
}
330
135E1
100
AcDbXrecord
340
0
  0
XRECORD
  5
135F9
102
{ACAD_REACTORS
330
135E1
102
}
330
135E1
100
AcDbXrecord
 70
     0
  0
XRECORD
  5
135FA
102
{ACAD_REACTORS
330
135E1
102
}
330
135E1
100
AcDbXrecord
340
0
  0
XRECORD
  5
135FB
102
{ACAD_REACTORS
330
135E1
102
}
330
135E1
100
AcDbXrecord
 10
0.0
 20
0.0
 30
0.0
  0
XRECORD
  5
135FC
102
{ACAD_REACTORS
330
135E1
102
}
330
135E1
100
AcDbXrecord
 10
0.0
 20
0.0
 30
0.0
  0
XRECORD
  5
135FD
102
{ACAD_REACTORS
330
135E1
102
}
330
135E1
100
AcDbXrecord
 10
0.0
 20
0.0
 30
0.0
  0
XRECORD
  5
135FE
102
{ACAD_REACTORS
330
135E1
102
}
330
135E1
100
AcDbXrecord
 10
0.0
 20
0.0
 30
0.0
  0
XRECORD
  5
135FF
102
{ACAD_REACTORS
330
135E1
102
}
330
135E1
100
AcDbXrecord
 10
0.0
 20
0.0
 30
0.0
  0
XRECORD
  5
13600
102
{ACAD_REACTORS
330
135E1
102
}
330
135E1
100
AcDbXrecord
 10
0.0
 20
0.0
 30
0.0
  0
XRECORD
  5
12869
102
{ACAD_REACTORS
330
12868
102
}
330
12868
100
AcDbXrecord
  1
BASE
  1
BASE*
  1
*
  1
*
 70
     0
  1
*
  1
*
  0
XRECORD
  5
1286A
102
{ACAD_REACTORS
330
12868
102
}
330
12868
100
AcDbXrecord
  1
CASE
  1
CASE*
  1
*
  1
*
 70
     0
  1
*
  1
*
  0
XRECORD
  5
1286B
102
{ACAD_REACTORS
330
12868
102
}
330
12868
100
AcDbXrecord
  1
KIKOU
  1
KIKOU*
  1
*
  1
*
 70
     0
  1
*
  1
*
  0
ENDSEC
  0
EOF
