  0
SECTION
  2
HEADER
  9
$ACADVER
  1
AC1014
  9
$ACADMAINTVER
 70
     9
  9
$DWGCODEPAGE
  3
ANSI_932
  9
$INSBASE
 10
0.0
 20
0.0
 30
0.0
  9
$EXTMIN
 10
-1747.45262083167
 20
1671.099769731514
 30
0.0
  9
$EXTMAX
 10
-1426.787434462659
 20
1888.844646224482
 30
0.0
  9
$LIMMIN
 10
0.0
 20
0.0
  9
$LIMMAX
 10
420.0
 20
297.0
  9
$ORTHOMODE
 70
     1
  9
$REGENMODE
 70
     1
  9
$FILLMODE
 70
     1
  9
$QTEXTMODE
 70
     0
  9
$MIRRTEXT
 70
     1
  9
$DRAGMODE
 70
     2
  9
$LTSCALE
 40
1.0
  9
$OSMODE
 70
    37
  9
$ATTMODE
 70
     1
  9
$TEXTSIZE
 40
2.5
  9
$TRACEWID
 40
1.0
  9
$TEXTSTYLE
  7
ゴシック体
  9
$CLAYER
  8
SOUZOUSEN
  9
$CELTYPE
  6
BYLAYER
  9
$CECOLOR
 62
   256
  9
$CELTSCALE
 40
1.0
  9
$DELOBJ
 70
     1
  9
$DISPSILH
 70
     0
  9
$DIMSCALE
 40
0.0
  9
$DIMASZ
 40
3.0
  9
$DIMEXO
 40
0.5
  9
$DIMDLI
 40
0.5
  9
$DIMRND
 40
0.0
  9
$DIMDLE
 40
0.0
  9
$DIMEXE
 40
0.5
  9
$DIMTP
 40
0.0
  9
$DIMTM
 40
0.0
  9
$DIMTXT
 40
3.5
  9
$DIMCEN
 40
0.0
  9
$DIMTSZ
 40
0.0
  9
$DIMTOL
 70
     0
  9
$DIMLIM
 70
     0
  9
$DIMTIH
 70
     0
  9
$DIMTOH
 70
     0
  9
$DIMSE1
 70
     0
  9
$DIMSE2
 70
     0
  9
$DIMTAD
 70
     1
  9
$DIMZIN
 70
     8
  9
$DIMBLK
  1

  9
$DIMASO
 70
     1
  9
$DIMSHO
 70
     1
  9
$DIMPOST
  1

  9
$DIMAPOST
  1

  9
$DIMALT
 70
     0
  9
$DIMALTD
 70
     2
  9
$DIMALTF
 40
25.4
  9
$DIMLFAC
 40
1.0
  9
$DIMTOFL
 70
     1
  9
$DIMTVP
 40
0.0
  9
$DIMTIX
 70
     0
  9
$DIMSOXD
 70
     0
  9
$DIMSAH
 70
     0
  9
$DIMBLK1
  1

  9
$DIMBLK2
  1

  9
$DIMSTYLE
  2
標準スタイル
  9
$DIMCLRD
 70
     1
  9
$DIMCLRE
 70
     1
  9
$DIMCLRT
 70
     1
  9
$DIMTFAC
 40
1.0
  9
$DIMGAP
 40
1.0
  9
$DIMJUST
 70
     0
  9
$DIMSD1
 70
     0
  9
$DIMSD2
 70
     0
  9
$DIMTOLJ
 70
     1
  9
$DIMTZIN
 70
     8
  9
$DIMALTZ
 70
     0
  9
$DIMALTTZ
 70
     0
  9
$DIMFIT
 70
     3
  9
$DIMUPT
 70
     0
  9
$DIMUNIT
 70
     2
  9
$DIMDEC
 70
     2
  9
$DIMTDEC
 70
     2
  9
$DIMALTU
 70
     2
  9
$DIMALTTD
 70
     2
  9
$DIMTXSTY
  7
ゴシック体
  9
$DIMAUNIT
 70
     0
  9
$LUNITS
 70
     2
  9
$LUPREC
 70
     4
  9
$SKETCHINC
 40
1.0
  9
$FILLETRAD
 40
0.0
  9
$AUNITS
 70
     0
  9
$AUPREC
 70
     0
  9
$MENU
  1
.
  9
$ELEVATION
 40
0.0
  9
$PELEVATION
 40
0.0
  9
$THICKNESS
 40
0.0
  9
$LIMCHECK
 70
     0
  9
$BLIPMODE
 70
     0
  9
$CHAMFERA
 40
10.0
  9
$CHAMFERB
 40
10.0
  9
$CHAMFERC
 40
2.0
  9
$CHAMFERD
 40
0.7853981633974483
  9
$SKPOLY
 70
     0
  9
$TDCREATE
 40
2450495.493631365
  9
$TDUPDATE
 40
2455482.780550301
  9
$TDINDWG
 40
1.5408647222
  9
$TDUSRTIMER
 40
1.5408647222
  9
$USRTIMER
 70
     1
  9
$ANGBASE
 50
0.0
  9
$ANGDIR
 70
     0
  9
$PDMODE
 70
    99
  9
$PDSIZE
 40
0.0
  9
$PLINEWID
 40
0.0
  9
$COORDS
 70
     1
  9
$SPLFRAME
 70
     0
  9
$SPLINETYPE
 70
     6
  9
$SPLINESEGS
 70
     8
  9
$ATTDIA
 70
     0
  9
$ATTREQ
 70
     1
  9
$HANDLING
 70
 10241
  9
$HANDSEED
  5
1370C
  9
$SURFTAB1
 70
     6
  9
$SURFTAB2
 70
     6
  9
$SURFTYPE
 70
     6
  9
$SURFU
 70
     6
  9
$SURFV
 70
     6
  9
$UCSNAME
  2

  9
$UCSORG
 10
0.0
 20
0.0
 30
0.0
  9
$UCSXDIR
 10
1.0
 20
0.0
 30
0.0
  9
$UCSYDIR
 10
0.0
 20
1.0
 30
0.0
  9
$PUCSNAME
  2

  9
$PUCSORG
 10
0.0
 20
0.0
 30
0.0
  9
$PUCSXDIR
 10
1.0
 20
0.0
 30
0.0
  9
$PUCSYDIR
 10
0.0
 20
1.0
 30
0.0
  9
$USERI1
 70
     0
  9
$USERI2
 70
     0
  9
$USERI3
 70
     0
  9
$USERI4
 70
     0
  9
$USERI5
 70
     0
  9
$USERR1
 40
0.0
  9
$USERR2
 40
0.0
  9
$USERR3
 40
0.0
  9
$USERR4
 40
0.0
  9
$USERR5
 40
0.0
  9
$WORLDVIEW
 70
     1
  9
$SHADEDGE
 70
     3
  9
$SHADEDIF
 70
    70
  9
$TILEMODE
 70
     0
  9
$MAXACTVP
 70
    16
  9
$PINSBASE
 10
0.0
 20
0.0
 30
0.0
  9
$PLIMCHECK
 70
     0
  9
$PEXTMIN
 10
29.03619555254135
 20
27.69602733303884
 30
0.0
  9
$PEXTMAX
 10
414.5361955525411
 20
287.6960273330388
 30
0.0
  9
$PLIMMIN
 10
11.82506459548919
 20
9.187006683953091
  9
$PLIMMAX
 10
431.7717198689266
 20
306.1976573187187
  9
$UNITMODE
 70
     0
  9
$VISRETAIN
 70
     0
  9
$PLINEGEN
 70
     0
  9
$PSLTSCALE
 70
     1
  9
$TREEDEPTH
 70
  3020
  9
$PICKSTYLE
 70
     1
  9
$CMLSTYLE
  2
STANDARD
  9
$CMLJUST
 70
     0
  9
$CMLSCALE
 40
1.0
  9
$PROXYGRAPHICS
 70
     1
  9
$MEASUREMENT
 70
     1
  0
ENDSEC
  0
SECTION
  2
CLASSES
  0
CLASS
  1
LWPOLYLINE
  2
AcDbPolyline
  3
AutoCAD 2000
 90
        0
280
     0
281
     1
  0
CLASS
  1
HATCH
  2
AcDbHatch
  3
AutoCAD 2000
 90
        0
280
     0
281
     1
  0
CLASS
  1
ACDBDICTIONARYWDFLT
  2
AcDbDictionaryWithDefault
  3
AutoCAD 2000
 90
        0
280
     0
281
     0
  0
CLASS
  1
ACDBPLACEHOLDER
  2
AcDbPlaceHolder
  3
AutoCAD 2000
 90
        0
280
     0
281
     0
  0
CLASS
  1
LAYOUT
  2
AcDbLayout
  3
AutoCAD 2000
 90
        0
280
     0
281
     0
  0
CLASS
  1
DICTIONARYVAR
  2
AcDbDictionaryVar
  3
AutoCAD 2000
 90
        0
280
     0
281
     0
  0
CLASS
  1
LONG_TRANSACTION
  2
AcDbLongTransaction
  3
AutoCAD 2000
 90
        0
280
     0
281
     0
  0
CLASS
  1
LWPOLYLINE
  2
AcDbPolyline
  3
AutoCAD 2000
 90
        0
280
     0
281
     1
  0
CLASS
  1
HATCH
  2
AcDbHatch
  3
AutoCAD 2000
 90
        0
280
     0
281
     1
  0
CLASS
  1
XRECORD
  2
AcDbXrecord
  3
AutoCAD 2000
 90
        0
280
     0
281
     0
  0
ENDSEC
  0
SECTION
  2
TABLES
  0
TABLE
  2
VPORT
  5
8
330
0
100
AcDbSymbolTable
 70
     1
  0
VPORT
  5
136E2
330
8
100
AcDbSymbolTableRecord
100
AcDbViewportTableRecord
  2
*ACTIVE
 70
     0
 10
0.0
 20
0.0
 11
1.0
 21
1.0
 12
-1587.116155895301
 22
1779.957092491038
 13
0.0
 23
0.0
 14
5.0
 24
5.0
 15
0.0
 25
0.0
 16
0.0
 26
0.0
 36
1.0
 17
0.0
 27
0.0
 37
0.0
 40
220.3204066761554
 41
1.741154562383612
 42
50.0
 43
0.0
 44
0.0
 50
0.0
 51
0.0
 71
     0
 72
   100
 73
     1
 74
     0
 75
     0
 76
     0
 77
     0
 78
     0
  0
ENDTAB
  0
TABLE
  2
LTYPE
  5
5
330
0
100
AcDbSymbolTable
 70
     3
  0
LTYPE
  5
14
330
5
100
AcDbSymbolTableRecord
100
AcDbLinetypeTableRecord
  2
BYBLOCK
 70
     0
  3

 72
    65
 73
     0
 40
0.0
  0
LTYPE
  5
15
330
5
100
AcDbSymbolTableRecord
100
AcDbLinetypeTableRecord
  2
BYLAYER
 70
     0
  3

 72
    65
 73
     0
 40
0.0
  0
LTYPE
  5
16
330
5
100
AcDbSymbolTableRecord
100
AcDbLinetypeTableRecord
  2
CONTINUOUS
 70
     0
  3
Solid line
 72
    65
 73
     0
 40
0.0
  0
LTYPE
  5
1956
330
5
100
AcDbSymbolTableRecord
100
AcDbLinetypeTableRecord
  2
CENTERX2
 70
     0
  3
________  __  ________  __  ________  __  _____
 72
    65
 73
     4
 40
4.0
 49
2.5
 74
     0
 49
-0.5
 74
     0
 49
0.5
 74
     0
 49
-0.5
 74
     0
  0
LTYPE
  5
1958
330
5
100
AcDbSymbolTableRecord
100
AcDbLinetypeTableRecord
  2
PHANTOMX2
 70
     0
  3
____________    ____    ____    ____________   
 72
    65
 73
     6
 40
5.0
 49
2.5
 74
     0
 49
-0.5
 74
     0
 49
0.5
 74
     0
 49
-0.5
 74
     0
 49
0.5
 74
     0
 49
-0.5
 74
     0
  0
ENDTAB
  0
TABLE
  2
LAYER
  5
2
102
{ACAD_XDICTIONARY
360
12CB3
102
}
330
0
100
AcDbSymbolTable
 70
     6
  0
LAYER
  5
F
330
2
100
AcDbSymbolTableRecord
100
AcDbLayerTableRecord
  2
0
 70
     0
 62
     7
  6
CONTINUOUS
  0
LAYER
  5
18F
330
2
100
AcDbSymbolTableRecord
100
AcDbLayerTableRecord
  2
ZISSEN1
 70
     0
 62
     7
  6
CONTINUOUS
  0
LAYER
  5
529
330
2
100
AcDbSymbolTableRecord
100
AcDbLayerTableRecord
  2
SUNPOU
 70
     0
 62
     1
  6
CONTINUOUS
  0
LAYER
  5
195A
330
2
100
AcDbSymbolTableRecord
100
AcDbLayerTableRecord
  2
CL1
 70
     0
 62
   210
  6
CENTERX2
  0
LAYER
  5
195C
330
2
100
AcDbSymbolTableRecord
100
AcDbLayerTableRecord
  2
SOUZOUSEN
 70
     0
 62
     5
  6
PHANTOMX2
  0
LAYER
  5
3A9B
330
2
100
AcDbSymbolTableRecord
100
AcDbLayerTableRecord
  2
DEFPOINTS
 70
     0
 62
     7
  6
CONTINUOUS
  0
ENDTAB
  0
TABLE
  2
STYLE
  5
3
330
0
100
AcDbSymbolTable
 70
     2
  0
STYLE
  5
10
330
3
100
AcDbSymbolTableRecord
100
AcDbTextStyleTableRecord
  2
STANDARD
 70
     0
 40
0.0
 41
1.0
 50
0.0
 71
     0
 42
3.0
  3
txt
  4
BigFont
  0
STYLE
  5
1960
330
3
100
AcDbSymbolTableRecord
100
AcDbTextStyleTableRecord
  2
ゴシック体
 70
     0
 40
0.0
 41
1.0
 50
0.0
 71
     0
 42
2.5
  3
MS Gothic.ttf
  4

1001
ACAD
1000
MS Gothic
1071
    32817
  0
ENDTAB
  0
TABLE
  2
VIEW
  5
6
330
0
100
AcDbSymbolTable
 70
     0
  0
ENDTAB
  0
TABLE
  2
UCS
  5
7
330
0
100
AcDbSymbolTable
 70
     0
  0
ENDTAB
  0
TABLE
  2
APPID
  5
9
330
0
100
AcDbSymbolTable
 70
     5
  0
APPID
  5
11
330
9
100
AcDbSymbolTableRecord
100
AcDbRegAppTableRecord
  2
ACAD
 70
     0
  0
APPID
  5
4005
330
9
100
AcDbSymbolTableRecord
100
AcDbRegAppTableRecord
  2
CONTENTTABDATA
 70
     0
  0
APPID
  5
4006
330
9
100
AcDbSymbolTableRecord
100
AcDbRegAppTableRecord
  2
CONTENTCURRENTTAB
 70
     0
  0
APPID
  5
477B
330
9
100
AcDbSymbolTableRecord
100
AcDbRegAppTableRecord
  2
CONTENTBLOCKDESCRIPTION
 70
     0
  0
APPID
  5
477C
330
9
100
AcDbSymbolTableRecord
100
AcDbRegAppTableRecord
  2
CONTENTBLOCKICON
 70
     0
  0
ENDTAB
  0
TABLE
  2
DIMSTYLE
  5
A
330
0
100
AcDbSymbolTable
 70
     3
  0
DIMSTYLE
105
1D
330
A
100
AcDbSymbolTableRecord
100
AcDbDimStyleTableRecord
  2
STANDARD
 70
     0
  3

  4

  5

  6

  7

 40
1.0
 41
0.18
 42
0.0625
 43
0.38
 44
0.18
 45
0.0
 46
0.0
 47
0.0
 48
0.0
140
0.18
141
0.09
142
0.0
143
25.4
144
1.0
145
0.0
146
1.0
147
0.09
 71
     0
 72
     0
 73
     1
 74
     1
 75
     0
 76
     0
 77
     0
 78
     0
170
     0
171
     2
172
     0
173
     0
174
     0
175
     0
176
     0
177
     0
178
     0
270
     2
271
     4
272
     4
273
     2
274
     2
340
10
275
     0
280
     0
281
     0
282
     0
283
     1
284
     0
285
     0
286
     0
287
     3
288
     0
  0
DIMSTYLE
105
52E
102
{ACAD_REACTORS
330
136A2
102
}
330
A
100
AcDbSymbolTableRecord
100
AcDbDimStyleTableRecord
  2
標準スタイル
 70
     0
  3

  4

  5

  6

  7

 40
0.0
 41
3.0
 42
0.5
 43
0.5
 44
0.5
 45
0.0
 46
0.0
 47
0.0
 48
0.0
140
3.5
141
0.0
142
0.0
143
25.4
144
1.0
145
0.0
146
1.0
147
1.0
 71
     0
 72
     0
 73
     0
 74
     0
 75
     0
 76
     0
 77
     1
 78
     8
170
     0
171
     2
172
     1
173
     0
174
     0
175
     0
176
     1
177
     1
178
     1
270
     2
271
     2
272
     2
273
     2
274
     2
340
1960
275
     0
280
     0
281
     0
282
     0
283
     1
284
     8
285
     0
286
     0
287
     3
288
     0
  0
DIMSTYLE
105
12D34
102
{ACAD_REACTORS
330
13047
330
1306F
330
130DE
330
130E3
330
131D8
330
130E0
330
13101
330
130DF
330
13102
102
}
330
A
100
AcDbSymbolTableRecord
100
AcDbDimStyleTableRecord
  2
ATSUSHI
 70
     0
  3

  4

  5

  6

  7

 40
0.0
 41
2.0
 42
0.5
 43
0.5
 44
0.5
 45
0.0
 46
0.0
 47
0.0
 48
0.0
140
2.5
141
0.0
142
0.0
143
25.4
144
1.0
145
0.0
146
1.0
147
0.5
 71
     0
 72
     0
 73
     0
 74
     0
 75
     0
 76
     0
 77
     1
 78
     8
170
     0
171
     2
172
     1
173
     0
174
     0
175
     0
176
   256
177
   256
178
   256
270
     2
271
     2
272
     2
273
     2
274
     2
340
1960
275
     0
280
     0
281
     0
282
     0
283
     1
284
     8
285
     0
286
     0
287
     3
288
     0
  0
ENDTAB
  0
TABLE
  2
BLOCK_RECORD
  5
1
330
0
100
AcDbSymbolTable
 70
    10
  0
BLOCK_RECORD
  5
1A
102
{ACAD_XDICTIONARY
360
13708
102
}
330
1
100
AcDbSymbolTableRecord
100
AcDbBlockTableRecord
  2
*MODEL_SPACE
  0
BLOCK_RECORD
  5
5D8E
102
{ACAD_XDICTIONARY
360
1370A
102
}
330
1
100
AcDbSymbolTableRecord
100
AcDbBlockTableRecord
  2
*PAPER_SPACE
  0
BLOCK_RECORD
  5
1332D
330
1
100
AcDbSymbolTableRecord
100
AcDbBlockTableRecord
  2
*D0
  0
BLOCK_RECORD
  5
13345
330
1
100
AcDbSymbolTableRecord
100
AcDbBlockTableRecord
  2
*D1
  0
BLOCK_RECORD
  5
13351
330
1
100
AcDbSymbolTableRecord
100
AcDbBlockTableRecord
  2
*D2
  0
BLOCK_RECORD
  5
1335D
330
1
100
AcDbSymbolTableRecord
100
AcDbBlockTableRecord
  2
*D3
  0
BLOCK_RECORD
  5
13369
330
1
100
AcDbSymbolTableRecord
100
AcDbBlockTableRecord
  2
*D4
  0
BLOCK_RECORD
  5
13377
330
1
100
AcDbSymbolTableRecord
100
AcDbBlockTableRecord
  2
*D5
  0
BLOCK_RECORD
  5
13383
330
1
100
AcDbSymbolTableRecord
100
AcDbBlockTableRecord
  2
*D6
  0
BLOCK_RECORD
  5
1338F
330
1
100
AcDbSymbolTableRecord
100
AcDbBlockTableRecord
  2
*D7
  0
BLOCK_RECORD
  5
1339B
330
1
100
AcDbSymbolTableRecord
100
AcDbBlockTableRecord
  2
*D8
  0
BLOCK_RECORD
  5
136A3
330
1
100
AcDbSymbolTableRecord
100
AcDbBlockTableRecord
  2
*D9
  0
ENDTAB
  0
ENDSEC
  0
SECTION
  2
BLOCKS
  0
BLOCK
  5
1B
330
1A
100
AcDbEntity
  8
0
100
AcDbBlockBegin
  2
*MODEL_SPACE
 70
     0
 10
0.0
 20
0.0
 30
0.0
  3
*MODEL_SPACE
  1

  0
ENDBLK
  5
1C
330
1A
100
AcDbEntity
  8
0
100
AcDbBlockEnd
  0
BLOCK
  5
5E60
330
5D8E
100
AcDbEntity
 67
     1
  8
0
100
AcDbBlockBegin
  2
*PAPER_SPACE
 70
     0
 10
0.0
 20
0.0
 30
0.0
  3
*PAPER_SPACE
  1

  0
ENDBLK
  5
5E61
330
5D8E
100
AcDbEntity
 67
     1
  8
0
100
AcDbBlockEnd
  0
BLOCK
  5
13337
330
1332D
100
AcDbEntity
  8
0
100
AcDbBlockBegin
  2
*D0
 70
     1
 10
0.0
 20
0.0
 30
0.0
  3
*D0
  1

  0
LINE
  5
134BB
330
1332D
100
AcDbEntity
  8
SUNPOU
100
AcDbLine
 10
-1721.187434462659
 20
1676.502455969889
 30
0.0
 11
-1743.952620831669
 21
1676.502455969889
 31
0.0
  0
LINE
  5
134BC
330
1332D
100
AcDbEntity
  8
SUNPOU
100
AcDbLine
 10
-1717.887434462656
 20
1759.802454885985
 30
0.0
 11
-1743.952620831669
 21
1759.802454885985
 31
0.0
  0
LINE
  5
134BD
330
1332D
100
AcDbEntity
  8
SUNPOU
100
AcDbLine
 10
-1743.452620831669
 20
1678.502455969889
 30
0.0
 11
-1743.452620831669
 21
1757.802454885985
 31
0.0
  0
SOLID
  5
134BE
330
1332D
100
AcDbEntity
  8
SUNPOU
100
AcDbTrace
 10
-1743.785954165002
 20
1678.502455969889
 30
0.0
 11
-1743.119287498336
 21
1678.502455969889
 31
0.0
 12
-1743.452620831669
 22
1676.502455969889
 32
0.0
 13
-1743.452620831669
 23
1676.502455969889
 33
0.0
  0
SOLID
  5
134BF
330
1332D
100
AcDbEntity
  8
SUNPOU
100
AcDbTrace
 10
-1743.785954165002
 20
1757.802454885985
 30
0.0
 11
-1743.119287498336
 21
1757.802454885985
 31
0.0
 12
-1743.452620831669
 22
1759.802454885985
 32
0.0
 13
-1743.452620831669
 23
1759.802454885985
 33
0.0
  0
MTEXT
  5
134C0
330
1332D
100
AcDbEntity
  8
SUNPOU
100
AcDbMText
 10
-1745.702620831669
 20
1718.152455427937
 30
0.0
 40
3.5
 41
0.0
 71
     5
 72
     1
  1
\A1;83.3
 11
0.0000000000000001
 21
1.0
 31
0.0
1001
ACAD
1000
MTEXTBEGIN
1070
    73
1070
     1
1070
    44
1040
1.0
1070
    74
1070
     0
1000
MTEXTEND
  0
POINT
  5
134C1
330
1332D
100
AcDbEntity
  8
DEFPOINTS
 62
     0
100
AcDbPoint
 10
-1720.687434462659
 20
1676.502455969889
 30
0.0
  0
POINT
  5
134C2
330
1332D
100
AcDbEntity
  8
DEFPOINTS
 62
     0
100
AcDbPoint
 10
-1717.387434462656
 20
1759.802454885985
 30
0.0
  0
POINT
  5
134C3
330
1332D
100
AcDbEntity
  8
DEFPOINTS
 62
     0
100
AcDbPoint
 10
-1743.452620831669
 20
1759.802454885985
 30
0.0
  0
ENDBLK
  5
13338
330
1332D
100
AcDbEntity
  8
0
100
AcDbBlockEnd
  0
BLOCK
  5
1334F
330
13345
100
AcDbEntity
  8
0
100
AcDbBlockBegin
  2
*D1
 70
     1
 10
0.0
 20
0.0
 30
0.0
  3
*D1
  1

  0
LINE
  5
1367D
330
13345
100
AcDbEntity
  8
SUNPOU
100
AcDbLine
 10
-1708.671534163605
 20
1794.805821349532
 30
0.0
 11
-1743.952620831669
 21
1794.805821349532
 31
0.0
  0
LINE
  5
1367E
330
13345
100
AcDbEntity
  8
SUNPOU
100
AcDbLine
 10
-1727.487434462655
 20
1759.802454885985
 30
0.0
 11
-1743.952620831669
 21
1759.802454885985
 31
0.0
  0
LINE
  5
1367F
330
13345
100
AcDbEntity
  8
SUNPOU
100
AcDbLine
 10
-1743.452620831669
 20
1792.805821349532
 30
0.0
 11
-1743.452620831669
 21
1761.802454885985
 31
0.0
  0
SOLID
  5
13680
330
13345
100
AcDbEntity
  8
SUNPOU
100
AcDbTrace
 10
-1743.785954165002
 20
1792.805821349532
 30
0.0
 11
-1743.119287498336
 21
1792.805821349532
 31
0.0
 12
-1743.452620831669
 22
1794.805821349532
 32
0.0
 13
-1743.452620831669
 23
1794.805821349532
 33
0.0
  0
SOLID
  5
13681
330
13345
100
AcDbEntity
  8
SUNPOU
100
AcDbTrace
 10
-1743.785954165002
 20
1761.802454885985
 30
0.0
 11
-1743.119287498336
 21
1761.802454885985
 31
0.0
 12
-1743.452620831669
 22
1759.802454885985
 32
0.0
 13
-1743.452620831669
 23
1759.802454885985
 33
0.0
  0
MTEXT
  5
13682
330
13345
100
AcDbEntity
  8
SUNPOU
100
AcDbMText
 10
-1745.702620831669
 20
1777.384138117759
 30
0.0
 40
3.5
 41
0.0
 71
     5
 72
     1
  1
\A1;(35)
 11
0.0000000000000001
 21
1.0
 31
0.0
1001
ACAD
1000
MTEXTBEGIN
1070
    73
1070
     1
1070
    44
1040
1.0
1070
    74
1070
     0
1000
MTEXTEND
  0
POINT
  5
13683
330
13345
100
AcDbEntity
  8
DEFPOINTS
 62
     0
100
AcDbPoint
 10
-1708.171534163605
 20
1794.805821349532
 30
0.0
  0
POINT
  5
13684
330
13345
100
AcDbEntity
  8
DEFPOINTS
 62
     0
100
AcDbPoint
 10
-1726.987434462655
 20
1759.802454885985
 30
0.0
  0
POINT
  5
13685
330
13345
100
AcDbEntity
  8
DEFPOINTS
 62
     0
100
AcDbPoint
 10
-1743.452620831669
 20
1759.802454885985
 30
0.0
  0
ENDBLK
  5
13350
330
13345
100
AcDbEntity
  8
0
100
AcDbBlockEnd
  0
BLOCK
  5
1335B
330
13351
100
AcDbEntity
  8
0
100
AcDbBlockBegin
  2
*D2
 70
     1
 10
0.0
 20
0.0
 30
0.0
  3
*D2
  1

  0
LINE
  5
134E8
330
13351
100
AcDbEntity
  8
SUNPOU
100
AcDbLine
 10
-1502.687434462659
 20
1871.237258119738
 30
0.0
 11
-1453.001383896383
 21
1871.237258119738
 31
0.0
  0
LINE
  5
134E9
330
13351
100
AcDbEntity
  8
SUNPOU
100
AcDbLine
 10
-1574.187434462658
 20
1825.537258119739
 30
0.0
 11
-1453.001383896383
 21
1825.537258119739
 31
0.0
  0
LINE
  5
134EA
330
13351
100
AcDbEntity
  8
SUNPOU
100
AcDbLine
 10
-1453.501383896383
 20
1869.237258119738
 30
0.0
 11
-1453.501383896383
 21
1827.537258119739
 31
0.0
  0
SOLID
  5
134EB
330
13351
100
AcDbEntity
  8
SUNPOU
100
AcDbTrace
 10
-1453.834717229716
 20
1869.237258119738
 30
0.0
 11
-1453.168050563049
 21
1869.237258119738
 31
0.0
 12
-1453.501383896383
 22
1871.237258119738
 32
0.0
 13
-1453.501383896383
 23
1871.237258119738
 33
0.0
  0
SOLID
  5
134EC
330
13351
100
AcDbEntity
  8
SUNPOU
100
AcDbTrace
 10
-1453.834717229716
 20
1827.537258119739
 30
0.0
 11
-1453.168050563049
 21
1827.537258119739
 31
0.0
 12
-1453.501383896383
 22
1825.537258119739
 32
0.0
 13
-1453.501383896383
 23
1825.537258119739
 33
0.0
  0
MTEXT
  5
134ED
330
13351
100
AcDbEntity
  8
SUNPOU
100
AcDbMText
 10
-1455.751383896383
 20
1848.387258119738
 30
0.0
 40
3.5
 41
0.0
 71
     5
 72
     1
  1
\A1;45.7
 11
0.0000000000000001
 21
1.0
 31
0.0
1001
ACAD
1000
MTEXTBEGIN
1070
    73
1070
     1
1070
    44
1040
1.0
1070
    74
1070
     0
1000
MTEXTEND
  0
POINT
  5
134EE
330
13351
100
AcDbEntity
  8
DEFPOINTS
 62
     0
100
AcDbPoint
 10
-1503.187434462659
 20
1871.237258119738
 30
0.0
  0
POINT
  5
134EF
330
13351
100
AcDbEntity
  8
DEFPOINTS
 62
     0
100
AcDbPoint
 10
-1574.687434462657
 20
1825.537258119739
 30
0.0
  0
POINT
  5
134F0
330
13351
100
AcDbEntity
  8
DEFPOINTS
 62
     0
100
AcDbPoint
 10
-1453.501383896383
 20
1825.537258119739
 30
0.0
  0
ENDBLK
  5
1335C
330
13351
100
AcDbEntity
  8
0
100
AcDbBlockEnd
  0
BLOCK
  5
13367
330
1335D
100
AcDbEntity
  8
0
100
AcDbBlockBegin
  2
*D3
 70
     1
 10
0.0
 20
0.0
 30
0.0
  3
*D3
  1

  0
LINE
  5
134CD
330
1335D
100
AcDbEntity
  8
SUNPOU
100
AcDbLine
 10
-1658.687434462659
 20
1846.487258119737
 30
0.0
 11
-1658.687434462659
 21
1807.738862692293
 31
0.0
  0
LINE
  5
134CE
330
1335D
100
AcDbEntity
  8
SUNPOU
100
AcDbLine
 10
-1498.687434462659
 20
1846.487258119738
 30
0.0
 11
-1498.687434462659
 21
1807.738862692293
 31
0.0
  0
LINE
  5
134CF
330
1335D
100
AcDbEntity
  8
SUNPOU
100
AcDbLine
 10
-1656.687434462659
 20
1808.238862692293
 30
0.0
 11
-1500.687434462659
 21
1808.238862692293
 31
0.0
  0
SOLID
  5
134D0
330
1335D
100
AcDbEntity
  8
SUNPOU
100
AcDbTrace
 10
-1656.687434462659
 20
1808.572196025626
 30
0.0
 11
-1656.687434462659
 21
1807.90552935896
 31
0.0
 12
-1658.687434462659
 22
1808.238862692293
 32
0.0
 13
-1658.687434462659
 23
1808.238862692293
 33
0.0
  0
SOLID
  5
134D1
330
1335D
100
AcDbEntity
  8
SUNPOU
100
AcDbTrace
 10
-1500.687434462659
 20
1808.572196025626
 30
0.0
 11
-1500.687434462659
 21
1807.90552935896
 31
0.0
 12
-1498.687434462659
 22
1808.238862692293
 32
0.0
 13
-1498.687434462659
 23
1808.238862692293
 33
0.0
  0
MTEXT
  5
134D2
330
1335D
100
AcDbEntity
  8
SUNPOU
100
AcDbMText
 10
-1578.687434462659
 20
1810.488862692293
 30
0.0
 40
3.5
 41
0.0
 71
     5
 72
     1
  1
\A1;160
1001
ACAD
1000
MTEXTBEGIN
1070
    73
1070
     1
1070
    44
1040
1.0
1070
    74
1070
     0
1000
MTEXTEND
  0
POINT
  5
134D3
330
1335D
100
AcDbEntity
  8
DEFPOINTS
 62
     0
100
AcDbPoint
 10
-1658.687434462659
 20
1846.987258119738
 30
0.0
  0
POINT
  5
134D4
330
1335D
100
AcDbEntity
  8
DEFPOINTS
 62
     0
100
AcDbPoint
 10
-1498.687434462659
 20
1846.987258119738
 30
0.0
  0
POINT
  5
134D5
330
1335D
100
AcDbEntity
  8
DEFPOINTS
 62
     0
100
AcDbPoint
 10
-1498.687434462659
 20
1808.238862692293
 30
0.0
  0
ENDBLK
  5
13368
330
1335D
100
AcDbEntity
  8
0
100
AcDbBlockEnd
  0
BLOCK
  5
13375
330
13369
100
AcDbEntity
  8
0
100
AcDbBlockBegin
  2
*D4
 70
     1
 10
0.0
 20
0.0
 30
0.0
  3
*D4
  1

  0
LINE
  5
1349E
330
13369
100
AcDbEntity
  8
SUNPOU
100
AcDbLine
 10
-1664.187434462659
 20
1851.487258119738
 30
0.0
 11
-1673.162670341144
 21
1851.487258119738
 31
0.0
  0
LINE
  5
1349F
330
13369
100
AcDbEntity
  8
SUNPOU
100
AcDbLine
 10
-1664.187434462659
 20
1846.987258119738
 30
0.0
 11
-1673.162670341144
 21
1846.987258119738
 31
0.0
  0
LINE
  5
134A0
330
13369
100
AcDbEntity
  8
SUNPOU
100
AcDbLine
 10
-1672.662670341144
 20
1853.487258119738
 30
0.0
 11
-1672.662670341144
 21
1855.487258119738
 31
0.0
  0
LINE
  5
134A1
330
13369
100
AcDbEntity
  8
SUNPOU
100
AcDbLine
 10
-1672.662670341144
 20
1844.987258119737
 30
0.0
 11
-1672.662670341144
 21
1834.987258119738
 31
0.0
  0
LINE
  5
134A2
330
13369
100
AcDbEntity
  8
SUNPOU
100
AcDbLine
 10
-1672.662670341144
 20
1851.487258119738
 30
0.0
 11
-1672.662670341144
 21
1846.987258119738
 31
0.0
  0
SOLID
  5
134A3
330
13369
100
AcDbEntity
  8
SUNPOU
100
AcDbTrace
 10
-1672.996003674477
 20
1853.487258119738
 30
0.0
 11
-1672.329337007811
 21
1853.487258119738
 31
0.0
 12
-1672.662670341144
 22
1851.487258119738
 32
0.0
 13
-1672.662670341144
 23
1851.487258119738
 33
0.0
  0
SOLID
  5
134A4
330
13369
100
AcDbEntity
  8
SUNPOU
100
AcDbTrace
 10
-1672.996003674477
 20
1844.987258119737
 30
0.0
 11
-1672.329337007811
 21
1844.987258119737
 31
0.0
 12
-1672.662670341144
 22
1846.987258119738
 32
0.0
 13
-1672.662670341144
 23
1846.987258119738
 33
0.0
  0
MTEXT
  5
134A5
330
13369
100
AcDbEntity
  8
SUNPOU
100
AcDbMText
 10
-1674.912670341145
 20
1838.987258119737
 30
0.0
 40
3.5
 41
0.0
 71
     5
 72
     1
  1
\A1;4.5
 11
0.0000000000000001
 21
1.0
 31
0.0
1001
ACAD
1000
MTEXTBEGIN
1070
    73
1070
     1
1070
    44
1040
1.0
1070
    74
1070
     0
1000
MTEXTEND
  0
POINT
  5
134A6
330
13369
100
AcDbEntity
  8
DEFPOINTS
 62
     0
100
AcDbPoint
 10
-1663.687434462659
 20
1851.487258119738
 30
0.0
  0
POINT
  5
134A7
330
13369
100
AcDbEntity
  8
DEFPOINTS
 62
     0
100
AcDbPoint
 10
-1663.687434462659
 20
1846.987258119738
 30
0.0
  0
POINT
  5
134A8
330
13369
100
AcDbEntity
  8
DEFPOINTS
 62
     0
100
AcDbPoint
 10
-1672.662670341144
 20
1846.987258119738
 30
0.0
  0
ENDBLK
  5
13376
330
13369
100
AcDbEntity
  8
0
100
AcDbBlockEnd
  0
BLOCK
  5
13381
330
13377
100
AcDbEntity
  8
0
100
AcDbBlockBegin
  2
*D5
 70
     1
 10
0.0
 20
0.0
 30
0.0
  3
*D5
  1

  0
LINE
  5
134DF
330
13377
100
AcDbEntity
  8
SUNPOU
100
AcDbLine
 10
-1498.687434462659
 20
1849.237258119738
 30
0.0
 11
-1483.187434462656
 21
1849.237258119738
 31
0.0
  0
LINE
  5
134E0
330
13377
100
AcDbEntity
  8
SUNPOU
100
AcDbLine
 10
-1495.187434462656
 20
1826.337258119738
 30
0.0
 11
-1483.187434462656
 21
1826.337258119738
 31
0.0
  0
LINE
  5
134E1
330
13377
100
AcDbEntity
  8
SUNPOU
100
AcDbLine
 10
-1483.687434462656
 20
1847.237258119738
 30
0.0
 11
-1483.687434462656
 21
1828.337258119738
 31
0.0
  0
SOLID
  5
134E2
330
13377
100
AcDbEntity
  8
SUNPOU
100
AcDbTrace
 10
-1484.020767795989
 20
1847.237258119738
 30
0.0
 11
-1483.354101129322
 21
1847.237258119738
 31
0.0
 12
-1483.687434462656
 22
1849.237258119738
 32
0.0
 13
-1483.687434462656
 23
1849.237258119738
 33
0.0
  0
SOLID
  5
134E3
330
13377
100
AcDbEntity
  8
SUNPOU
100
AcDbTrace
 10
-1484.020767795989
 20
1828.337258119738
 30
0.0
 11
-1483.354101129322
 21
1828.337258119738
 31
0.0
 12
-1483.687434462656
 22
1826.337258119738
 32
0.0
 13
-1483.687434462656
 23
1826.337258119738
 33
0.0
  0
MTEXT
  5
134E4
330
13377
100
AcDbEntity
  8
SUNPOU
100
AcDbMText
 10
-1485.937434462656
 20
1837.787258119738
 30
0.0
 40
3.5
 41
0.0
 71
     5
 72
     1
  1
\A1;22.9
 11
0.0000000000000001
 21
1.0
 31
0.0
1001
ACAD
1000
MTEXTBEGIN
1070
    73
1070
     1
1070
    44
1040
1.0
1070
    74
1070
     0
1000
MTEXTEND
  0
POINT
  5
134E5
330
13377
100
AcDbEntity
  8
DEFPOINTS
 62
     0
100
AcDbPoint
 10
-1499.187434462659
 20
1849.237258119738
 30
0.0
  0
POINT
  5
134E6
330
13377
100
AcDbEntity
  8
DEFPOINTS
 62
     0
100
AcDbPoint
 10
-1495.687434462656
 20
1826.337258119738
 30
0.0
  0
POINT
  5
134E7
330
13377
100
AcDbEntity
  8
DEFPOINTS
 62
     0
100
AcDbPoint
 10
-1483.687434462656
 20
1826.337258119738
 30
0.0
  0
ENDBLK
  5
13382
330
13377
100
AcDbEntity
  8
0
100
AcDbBlockEnd
  0
BLOCK
  5
1338D
330
13383
100
AcDbEntity
  8
0
100
AcDbBlockBegin
  2
*D6
 70
     1
 10
0.0
 20
0.0
 30
0.0
  3
*D6
  1

  0
LINE
  5
134C4
330
13383
100
AcDbEntity
  8
SUNPOU
100
AcDbLine
 10
-1663.687434462659
 20
1827.837258119738
 30
0.0
 11
-1663.687434462659
 21
1799.510616344872
 31
0.0
  0
LINE
  5
134C5
330
13383
100
AcDbEntity
  8
SUNPOU
100
AcDbLine
 10
-1493.687434462656
 20
1827.837258119738
 30
0.0
 11
-1493.687434462656
 21
1799.510616344872
 31
0.0
  0
LINE
  5
134C6
330
13383
100
AcDbEntity
  8
SUNPOU
100
AcDbLine
 10
-1661.68743446266
 20
1800.010616344873
 30
0.0
 11
-1495.687434462656
 21
1800.010616344873
 31
0.0
  0
SOLID
  5
134C7
330
13383
100
AcDbEntity
  8
SUNPOU
100
AcDbTrace
 10
-1661.68743446266
 20
1800.343949678206
 30
0.0
 11
-1661.68743446266
 21
1799.677283011539
 31
0.0
 12
-1663.687434462659
 22
1800.010616344873
 32
0.0
 13
-1663.687434462659
 23
1800.010616344873
 33
0.0
  0
SOLID
  5
134C8
330
13383
100
AcDbEntity
  8
SUNPOU
100
AcDbTrace
 10
-1495.687434462656
 20
1800.343949678206
 30
0.0
 11
-1495.687434462656
 21
1799.677283011539
 31
0.0
 12
-1493.687434462656
 22
1800.010616344873
 32
0.0
 13
-1493.687434462656
 23
1800.010616344873
 33
0.0
  0
MTEXT
  5
134C9
330
13383
100
AcDbEntity
  8
SUNPOU
100
AcDbMText
 10
-1578.687434462658
 20
1802.260616344872
 30
0.0
 40
3.5
 41
0.0
 71
     5
 72
     1
  1
\A1;170
1001
ACAD
1000
MTEXTBEGIN
1070
    73
1070
     1
1070
    44
1040
1.0
1070
    74
1070
     0
1000
MTEXTEND
  0
POINT
  5
134CA
330
13383
100
AcDbEntity
  8
DEFPOINTS
 62
     0
100
AcDbPoint
 10
-1663.687434462659
 20
1828.337258119739
 30
0.0
  0
POINT
  5
134CB
330
13383
100
AcDbEntity
  8
DEFPOINTS
 62
     0
100
AcDbPoint
 10
-1493.687434462656
 20
1828.337258119738
 30
0.0
  0
POINT
  5
134CC
330
13383
100
AcDbEntity
  8
DEFPOINTS
 62
     0
100
AcDbPoint
 10
-1493.687434462656
 20
1800.010616344873
 30
0.0
  0
ENDBLK
  5
1338E
330
13383
100
AcDbEntity
  8
0
100
AcDbBlockEnd
  0
BLOCK
  5
13399
330
1338F
100
AcDbEntity
  8
0
100
AcDbBlockBegin
  2
*D7
 70
     1
 10
0.0
 20
0.0
 30
0.0
  3
*D7
  1

  0
LINE
  5
134D6
330
1338F
100
AcDbEntity
  8
SUNPOU
100
AcDbLine
 10
-1654.487434462659
 20
1826.837258119736
 30
0.0
 11
-1654.487434462659
 21
1815.837258119739
 31
0.0
  0
LINE
  5
134D7
330
1338F
100
AcDbEntity
  8
SUNPOU
100
AcDbLine
 10
-1502.887434462658
 20
1826.837258119738
 30
0.0
 11
-1502.887434462658
 21
1815.837258119739
 31
0.0
  0
LINE
  5
134D8
330
1338F
100
AcDbEntity
  8
SUNPOU
100
AcDbLine
 10
-1652.487434462658
 20
1816.337258119738
 30
0.0
 11
-1504.887434462658
 21
1816.337258119738
 31
0.0
  0
SOLID
  5
134D9
330
1338F
100
AcDbEntity
  8
SUNPOU
100
AcDbTrace
 10
-1652.487434462658
 20
1816.670591453071
 30
0.0
 11
-1652.487434462658
 21
1816.003924786405
 31
0.0
 12
-1654.487434462659
 22
1816.337258119738
 32
0.0
 13
-1654.487434462659
 23
1816.337258119738
 33
0.0
  0
SOLID
  5
134DA
330
1338F
100
AcDbEntity
  8
SUNPOU
100
AcDbTrace
 10
-1504.887434462658
 20
1816.670591453071
 30
0.0
 11
-1504.887434462658
 21
1816.003924786405
 31
0.0
 12
-1502.887434462658
 22
1816.337258119738
 32
0.0
 13
-1502.887434462658
 23
1816.337258119738
 33
0.0
  0
MTEXT
  5
134DB
330
1338F
100
AcDbEntity
  8
SUNPOU
100
AcDbMText
 10
-1578.687434462658
 20
1818.587258119739
 30
0.0
 40
3.5
 41
0.0
 71
     5
 72
     1
  1
\A1;151.6
1001
ACAD
1000
MTEXTBEGIN
1070
    73
1070
     1
1070
    44
1040
1.0
1070
    74
1070
     0
1000
MTEXTEND
  0
POINT
  5
134DC
330
1338F
100
AcDbEntity
  8
DEFPOINTS
 62
     0
100
AcDbPoint
 10
-1654.487434462659
 20
1827.337258119736
 30
0.0
  0
POINT
  5
134DD
330
1338F
100
AcDbEntity
  8
DEFPOINTS
 62
     0
100
AcDbPoint
 10
-1502.887434462658
 20
1827.337258119738
 30
0.0
  0
POINT
  5
134DE
330
1338F
100
AcDbEntity
  8
DEFPOINTS
 62
     0
100
AcDbPoint
 10
-1502.887434462658
 20
1816.337258119738
 30
0.0
  0
ENDBLK
  5
1339A
330
1338F
100
AcDbEntity
  8
0
100
AcDbBlockEnd
  0
BLOCK
  5
133A5
330
1339B
100
AcDbEntity
  8
0
100
AcDbBlockBegin
  2
*D8
 70
     1
 10
0.0
 20
0.0
 30
0.0
  3
*D8
  1

  0
LINE
  5
134F1
330
1339B
100
AcDbEntity
  8
SUNPOU
100
AcDbLine
 10
-1472.187434462655
 20
1676.502455969889
 30
0.0
 11
-1486.111252287179
 21
1676.502455969889
 31
0.0
  0
LINE
  5
134F2
330
1339B
100
AcDbEntity
  8
SUNPOU
100
AcDbLine
 10
-1467.787434462658
 20
1764.002454788814
 30
0.0
 11
-1486.111252287179
 21
1764.002454788814
 31
0.0
  0
LINE
  5
134F3
330
1339B
100
AcDbEntity
  8
SUNPOU
100
AcDbLine
 10
-1485.611252287179
 20
1678.502455969889
 30
0.0
 11
-1485.611252287179
 21
1762.002454788814
 31
0.0
  0
SOLID
  5
134F4
330
1339B
100
AcDbEntity
  8
SUNPOU
100
AcDbTrace
 10
-1485.944585620512
 20
1678.502455969889
 30
0.0
 11
-1485.277918953845
 21
1678.502455969889
 31
0.0
 12
-1485.611252287179
 22
1676.502455969889
 32
0.0
 13
-1485.611252287179
 23
1676.502455969889
 33
0.0
  0
SOLID
  5
134F5
330
1339B
100
AcDbEntity
  8
SUNPOU
100
AcDbTrace
 10
-1485.944585620512
 20
1762.002454788814
 30
0.0
 11
-1485.277918953845
 21
1762.002454788814
 31
0.0
 12
-1485.611252287179
 22
1764.002454788814
 32
0.0
 13
-1485.611252287179
 23
1764.002454788814
 33
0.0
  0
MTEXT
  5
134F6
330
1339B
100
AcDbEntity
  8
SUNPOU
100
AcDbMText
 10
-1487.861252287179
 20
1720.252455379351
 30
0.0
 40
3.5
 41
0.0
 71
     5
 72
     1
  1
\A1;87.5
 11
0.0000000000000001
 21
1.0
 31
0.0
1001
ACAD
1000
MTEXTBEGIN
1070
    73
1070
     1
1070
    44
1040
1.0
1070
    74
1070
     0
1000
MTEXTEND
  0
POINT
  5
134F7
330
1339B
100
AcDbEntity
  8
DEFPOINTS
 62
     0
100
AcDbPoint
 10
-1471.687434462656
 20
1676.502455969889
 30
0.0
  0
POINT
  5
134F8
330
1339B
100
AcDbEntity
  8
DEFPOINTS
 62
     0
100
AcDbPoint
 10
-1467.287434462658
 20
1764.002454788814
 30
0.0
  0
POINT
  5
134F9
330
1339B
100
AcDbEntity
  8
DEFPOINTS
 62
     0
100
AcDbPoint
 10
-1485.611252287179
 20
1764.002454788814
 30
0.0
  0
ENDBLK
  5
133A6
330
1339B
100
AcDbEntity
  8
0
100
AcDbBlockEnd
  0
BLOCK
  5
136AD
330
136A3
100
AcDbEntity
  8
0
100
AcDbBlockBegin
  2
*D9
 70
     1
 10
0.0
 20
0.0
 30
0.0
  3
*D9
  1

  0
LINE
  5
136CB
330
136A3
100
AcDbEntity
  8
SUNPOU
 62
     1
100
AcDbLine
 10
-1725.787434462656
 20
1759.802454885985
 30
0.0
 11
-1737.000027674572
 21
1759.802454885985
 31
0.0
  0
LINE
  5
136CC
330
136A3
100
AcDbEntity
  8
SUNPOU
 62
     1
100
AcDbLine
 10
-1725.277168261513
 20
1775.802518638362
 30
0.0
 11
-1737.000027674572
 21
1775.802518638362
 31
0.0
  0
LINE
  5
136CD
330
136A3
100
AcDbEntity
  8
SUNPOU
 62
     1
100
AcDbLine
 10
-1736.500027674572
 20
1761.802454885985
 30
0.0
 11
-1736.500027674572
 21
1773.802518638362
 31
0.0
  0
SOLID
  5
136CE
330
136A3
100
AcDbEntity
  8
SUNPOU
 62
     1
100
AcDbTrace
 10
-1736.833361007906
 20
1761.802454885985
 30
0.0
 11
-1736.166694341239
 21
1761.802454885985
 31
0.0
 12
-1736.500027674572
 22
1759.802454885985
 32
0.0
 13
-1736.500027674572
 23
1759.802454885985
 33
0.0
  0
SOLID
  5
136CF
330
136A3
100
AcDbEntity
  8
SUNPOU
 62
     1
100
AcDbTrace
 10
-1736.833361007906
 20
1773.802518638362
 30
0.0
 11
-1736.166694341239
 21
1773.802518638362
 31
0.0
 12
-1736.500027674572
 22
1775.802518638362
 32
0.0
 13
-1736.500027674572
 23
1775.802518638362
 33
0.0
  0
MTEXT
  5
136D0
330
136A3
100
AcDbEntity
  8
SUNPOU
 62
     1
100
AcDbMText
 10
-1739.250027674573
 20
1767.802486762173
 30
0.0
 40
3.5
 41
0.0
 71
     5
 72
     1
  1
\A1;(16)
 11
0.0000000000000001
 21
1.0
 31
0.0
1001
ACAD
1000
MTEXTBEGIN
1070
    73
1070
     1
1070
    44
1040
1.0
1070
    74
1070
     0
1000
MTEXTEND
  0
POINT
  5
136D1
330
136A3
100
AcDbEntity
  8
DEFPOINTS
 62
     0
100
AcDbPoint
 10
-1725.287434462656
 20
1759.802454885985
 30
0.0
  0
POINT
  5
136D2
330
136A3
100
AcDbEntity
  8
DEFPOINTS
 62
     0
100
AcDbPoint
 10
-1724.777168261512
 20
1775.802518638362
 30
0.0
  0
POINT
  5
136D3
330
136A3
100
AcDbEntity
  8
DEFPOINTS
 62
     0
100
AcDbPoint
 10
-1736.500027674572
 20
1775.802518638362
 30
0.0
  0
ENDBLK
  5
136AE
330
136A3
100
AcDbEntity
  8
0
100
AcDbBlockEnd
  0
ENDSEC
  0
SECTION
  2
ENTITIES
  0
MTEXT
  5
5084
330
1A
100
AcDbEntity
  8
0
100
AcDbMText
 10
1985.239088685435
 20
-948.5420423450428
 30
0.0
 40
8.0
 41
0.0
 71
     7
 72
     5
  1

1001
ACAD
1000
MTEXTBEGIN
1070
    73
1070
     1
1070
    44
1040
1.0
1070
    74
1070
     0
1000
MTEXTEND
  0
MTEXT
  5
5085
330
1A
100
AcDbEntity
  8
0
100
AcDbMText
 10
4270.596778580329
 20
22.24825240601649
 30
0.0
 40
8.0
 41
0.0
 71
     7
 72
     5
  1

1001
ACAD
1000
MTEXTBEGIN
1070
    73
1070
     1
1070
    44
1040
1.0
1070
    74
1070
     0
1000
MTEXTEND
  0
MTEXT
  5
5343
330
1A
100
AcDbEntity
  8
SUNPOU
100
AcDbMText
 10
6936.493799262471
 20
9534.359644781135
 30
0.0
 40
10.5
 41
0.0
 71
     1
 72
     5
  1

1001
ACAD
1000
MTEXTBEGIN
1070
    73
1070
     1
1070
    44
1040
1.0
1070
    74
1070
     0
1000
MTEXTEND
  0
MTEXT
  5
544F
330
1A
100
AcDbEntity
  8
0
100
AcDbMText
 10
16317.2832773148
 20
12833.35428897674
 30
0.0
 40
8.0
 41
0.0
 71
     7
 72
     5
  1

1001
ACAD
1000
MTEXTBEGIN
1070
    73
1070
     1
1070
    44
1040
1.0
1070
    74
1070
     0
1000
MTEXTEND
  0
MTEXT
  5
5450
330
1A
100
AcDbEntity
  8
0
100
AcDbMText
 10
18602.64096720969
 20
13804.1445837278
 30
0.0
 40
8.0
 41
0.0
 71
     7
 72
     5
  1

1001
ACAD
1000
MTEXTBEGIN
1070
    73
1070
     1
1070
    44
1040
1.0
1070
    74
1070
     0
1000
MTEXTEND
  0
MTEXT
  5
5451
330
1A
100
AcDbEntity
  8
SUNPOU
100
AcDbMText
 10
21268.53798789184
 20
23316.25597610292
 30
0.0
 40
10.5
 41
0.0
 71
     1
 72
     5
  1

1001
ACAD
1000
MTEXTBEGIN
1070
    73
1070
     1
1070
    44
1040
1.0
1070
    74
1070
     0
1000
MTEXTEND
  0
MTEXT
  5
5452
330
1A
100
AcDbEntity
  8
SUNPOU
100
AcDbMText
 10
13337.6147919559
 20
22369.46284218996
 30
0.0
 40
10.5
 41
0.0
 71
     7
 72
     5
  1

1001
ACAD
1000
MTEXTBEGIN
1070
    73
1070
     1
1070
    44
1040
1.0
1070
    74
1070
     0
1000
MTEXTEND
  0
MTEXT
  5
5453
330
1A
100
AcDbEntity
  8
SUNPOU
100
AcDbMText
 10
16286.59845646867
 20
27270.13891403281
 30
0.0
 40
10.5
 41
0.0
 71
     7
 72
     5
  1

1001
ACAD
1000
MTEXTBEGIN
1070
    73
1070
     1
1070
    44
1040
1.0
1070
    74
1070
     0
1000
MTEXTEND
  0
MTEXT
  5
5454
330
1A
100
AcDbEntity
  8
SUNPOU
100
AcDbMText
 10
20795.67658441924
 20
29706.43966165288
 30
0.0
 40
10.5
 41
0.0
 71
     7
 72
     5
  1

1001
ACAD
1000
MTEXTBEGIN
1070
    73
1070
     1
1070
    44
1040
1.0
1070
    74
1070
     0
1000
MTEXTEND
  0
MTEXT
  5
5455
330
1A
100
AcDbEntity
  8
0
100
AcDbMText
 10
16611.93789220314
 20
14707.52144344448
 30
0.0
 40
8.0
 41
0.0
 71
     7
 72
     5
  1

1001
ACAD
1000
MTEXTBEGIN
1070
    73
1070
     1
1070
    44
1040
1.0
1070
    74
1070
     0
1000
MTEXTEND
  0
MTEXT
  5
5456
330
1A
100
AcDbEntity
  8
0
100
AcDbMText
 10
18897.29558209804
 20
15678.31173819554
 30
0.0
 40
8.0
 41
0.0
 71
     7
 72
     5
  1

1001
ACAD
1000
MTEXTBEGIN
1070
    73
1070
     1
1070
    44
1040
1.0
1070
    74
1070
     0
1000
MTEXTEND
  0
MTEXT
  5
5457
330
1A
100
AcDbEntity
  8
SUNPOU
100
AcDbMText
 10
21563.19260278019
 20
25190.42313057066
 30
0.0
 40
10.5
 41
0.0
 71
     1
 72
     5
  1

1001
ACAD
1000
MTEXTBEGIN
1070
    73
1070
     1
1070
    44
1040
1.0
1070
    74
1070
     0
1000
MTEXTEND
  0
MTEXT
  5
5458
330
1A
100
AcDbEntity
  8
SUNPOU
100
AcDbMText
 10
13632.26940684426
 20
24243.6299966577
 30
0.0
 40
10.5
 41
0.0
 71
     7
 72
     5
  1

1001
ACAD
1000
MTEXTBEGIN
1070
    73
1070
     1
1070
    44
1040
1.0
1070
    74
1070
     0
1000
MTEXTEND
  0
MTEXT
  5
5459
330
1A
100
AcDbEntity
  8
SUNPOU
100
AcDbMText
 10
16581.25307135702
 20
29144.30606850055
 30
0.0
 40
10.5
 41
0.0
 71
     7
 72
     5
  1

1001
ACAD
1000
MTEXTBEGIN
1070
    73
1070
     1
1070
    44
1040
1.0
1070
    74
1070
     0
1000
MTEXTEND
  0
MTEXT
  5
545A
330
1A
100
AcDbEntity
  8
SUNPOU
100
AcDbMText
 10
21090.33119930759
 20
31580.60681612062
 30
0.0
 40
10.5
 41
0.0
 71
     7
 72
     5
  1

1001
ACAD
1000
MTEXTBEGIN
1070
    73
1070
     1
1070
    44
1040
1.0
1070
    74
1070
     0
1000
MTEXTEND
  0
MTEXT
  5
545B
330
1A
100
AcDbEntity
  8
0
100
AcDbMText
 10
22871.60517627167
 20
23974.88367124799
 30
0.0
 40
8.0
 41
0.0
 71
     7
 72
     5
  1

1001
ACAD
1000
MTEXTBEGIN
1070
    73
1070
     1
1070
    44
1040
1.0
1070
    74
1070
     0
1000
MTEXTEND
  0
MTEXT
  5
545C
330
1A
100
AcDbEntity
  8
0
100
AcDbMText
 10
25156.96286616657
 20
24945.67396599906
 30
0.0
 40
8.0
 41
0.0
 71
     7
 72
     5
  1

1001
ACAD
1000
MTEXTBEGIN
1070
    73
1070
     1
1070
    44
1040
1.0
1070
    74
1070
     0
1000
MTEXTEND
  0
MTEXT
  5
545D
330
1A
100
AcDbEntity
  8
SUNPOU
100
AcDbMText
 10
27822.85988684871
 20
34457.78535837418
 30
0.0
 40
10.5
 41
0.0
 71
     1
 72
     5
  1

1001
ACAD
1000
MTEXTBEGIN
1070
    73
1070
     1
1070
    44
1040
1.0
1070
    74
1070
     0
1000
MTEXTEND
  0
MTEXT
  5
545E
330
1A
100
AcDbEntity
  8
SUNPOU
100
AcDbMText
 10
19891.93669091278
 20
33510.99222446122
 30
0.0
 40
10.5
 41
0.0
 71
     7
 72
     5
  1

1001
ACAD
1000
MTEXTBEGIN
1070
    73
1070
     1
1070
    44
1040
1.0
1070
    74
1070
     0
1000
MTEXTEND
  0
MTEXT
  5
545F
330
1A
100
AcDbEntity
  8
SUNPOU
100
AcDbMText
 10
22840.92035542555
 20
38411.66829630407
 30
0.0
 40
10.5
 41
0.0
 71
     7
 72
     5
  1

1001
ACAD
1000
MTEXTBEGIN
1070
    73
1070
     1
1070
    44
1040
1.0
1070
    74
1070
     0
1000
MTEXTEND
  0
MTEXT
  5
5460
330
1A
100
AcDbEntity
  8
SUNPOU
100
AcDbMText
 10
27349.99848337611
 20
40847.96904392415
 30
0.0
 40
10.5
 41
0.0
 71
     7
 72
     5
  1

1001
ACAD
1000
MTEXTBEGIN
1070
    73
1070
     1
1070
    44
1040
1.0
1070
    74
1070
     0
1000
MTEXTEND
  0
MTEXT
  5
55B7
330
1A
100
AcDbEntity
  8
SUNPOU
100
AcDbMText
 10
67424.23923338197
 20
64463.86602884816
 30
0.0
 40
10.5
 41
0.0
 71
     9
 72
     5
  1

1001
ACAD
1000
MTEXTBEGIN
1070
    73
1070
     1
1070
    44
1040
1.0
1070
    74
1070
     0
1000
MTEXTEND
  0
MTEXT
  5
55B8
330
1A
100
AcDbEntity
  8
SUNPOU
100
AcDbMText
 10
76146.40679929998
 20
71879.70056038563
 30
0.0
 40
10.5
 41
0.0
 71
     9
 72
     5
  1

1001
ACAD
1000
MTEXTBEGIN
1070
    73
1070
     1
1070
    44
1040
1.0
1070
    74
1070
     0
1000
MTEXTEND
  0
MTEXT
  5
55B9
330
1A
100
AcDbEntity
  8
SUNPOU
100
AcDbMText
 10
95100.16551662994
 20
89346.27661287766
 30
0.0
 40
10.5
 41
0.0
 71
     9
 72
     5
  1

1001
ACAD
1000
MTEXTBEGIN
1070
    73
1070
     1
1070
    44
1040
1.0
1070
    74
1070
     0
1000
MTEXTEND
  0
MTEXT
  5
55BA
330
1A
100
AcDbEntity
  8
SUNPOU
100
AcDbMText
 10
97043.57276333936
 20
87545.22753299966
 30
0.0
 40
3.5
 41
0.0
 71
     9
 72
     5
  1

1001
ACAD
1000
MTEXTBEGIN
1070
    73
1070
     1
1070
    44
1040
1.0
1070
    74
1070
     0
1000
MTEXTEND
  0
MTEXT
  5
55BB
330
1A
100
AcDbEntity
  8
SUNPOU
100
AcDbMText
 10
128169.752595959
 20
130040.1732006569
 30
0.0
 40
10.5
 41
0.0
 71
     9
 72
     5
  1

1001
ACAD
1000
MTEXTBEGIN
1070
    73
1070
     1
1070
    44
1040
1.0
1070
    74
1070
     0
1000
MTEXTEND
  0
MTEXT
  5
55BC
330
1A
100
AcDbEntity
  8
SUNPOU
100
AcDbMText
 10
130113.1598426684
 20
128239.1241207789
 30
0.0
 40
3.5
 41
0.0
 71
     9
 72
     5
  1

1001
ACAD
1000
MTEXTBEGIN
1070
    73
1070
     1
1070
    44
1040
1.0
1070
    74
1070
     0
1000
MTEXTEND
  0
MTEXT
  5
55BD
330
1A
100
AcDbEntity
  8
SUNPOU
100
AcDbMText
 10
78610.02030175463
 20
75873.33835563206
 30
0.0
 40
10.5
 41
0.0
 71
     9
 72
     5
  1

1001
ACAD
1000
MTEXTBEGIN
1070
    73
1070
     1
1070
    44
1040
1.0
1070
    74
1070
     0
1000
MTEXTEND
  0
MTEXT
  5
55BE
330
1A
100
AcDbEntity
  8
SUNPOU
100
AcDbMText
 10
64662.02020137863
 20
56700.93921651987
 30
0.0
 40
3.5
 41
0.0
 71
     7
 72
     5
  1

1001
ACAD
1000
MTEXTBEGIN
1070
    73
1070
     1
1070
    44
1040
1.0
1070
    74
1070
     0
1000
MTEXTEND
  0
MTEXT
  5
55BF
330
1A
100
AcDbEntity
  8
SUNPOU
100
AcDbMText
 10
45647.18959837178
 20
44463.08794733807
 30
0.0
 40
10.5
 41
0.0
 71
     7
 72
     5
  1

1001
ACAD
1000
MTEXTBEGIN
1070
    73
1070
     1
1070
    44
1040
1.0
1070
    74
1070
     0
1000
MTEXTEND
  0
MTEXT
  5
55C0
330
1A
100
AcDbEntity
  8
SUNPOU
100
AcDbMText
 10
33189.96133342368
 20
28618.15636923965
 30
0.0
 40
35.0
 41
0.0
 71
     9
 72
     5
  1

1001
ACAD
1000
MTEXTBEGIN
1070
    73
1070
     1
1070
    44
1040
1.0
1070
    74
1070
     0
1000
MTEXTEND
  0
MTEXT
  5
55C1
330
1A
100
AcDbEntity
  8
SUNPOU
100
AcDbMText
 10
32098.44639099864
 20
29226.93177928835
 30
0.0
 40
350.0000004171781
 41
0.0
 71
     7
 72
     5
  1

1001
ACAD
1000
MTEXTBEGIN
1070
    73
1070
     1
1070
    44
1040
1.0
1070
    74
1070
     0
1000
MTEXTEND
  0
MTEXT
  5
55C2
330
1A
100
AcDbEntity
  8
0
100
AcDbMText
 10
38142.39714894154
 20
27206.85414142458
 30
0.0
 40
8.0
 41
0.0
 71
     7
 72
     5
  1

1001
ACAD
1000
MTEXTBEGIN
1070
    73
1070
     1
1070
    44
1040
1.0
1070
    74
1070
     0
1000
MTEXTEND
  0
MTEXT
  5
55C3
330
1A
100
AcDbEntity
  8
0
100
AcDbMText
 10
40427.75483883644
 20
28177.64443617564
 30
0.0
 40
8.0
 41
0.0
 71
     7
 72
     5
  1

1001
ACAD
1000
MTEXTBEGIN
1070
    73
1070
     1
1070
    44
1040
1.0
1070
    74
1070
     0
1000
MTEXTEND
  0
MTEXT
  5
55C4
330
1A
100
AcDbEntity
  8
SUNPOU
100
AcDbMText
 10
43093.65185951858
 20
37689.75582855077
 30
0.0
 40
10.5
 41
0.0
 71
     1
 72
     5
  1

1001
ACAD
1000
MTEXTBEGIN
1070
    73
1070
     1
1070
    44
1040
1.0
1070
    74
1070
     0
1000
MTEXTEND
  0
MTEXT
  5
55C5
330
1A
100
AcDbEntity
  8
SUNPOU
100
AcDbMText
 10
35162.72866358265
 20
36742.96269463781
 30
0.0
 40
10.5
 41
0.0
 71
     7
 72
     5
  1

1001
ACAD
1000
MTEXTBEGIN
1070
    73
1070
     1
1070
    44
1040
1.0
1070
    74
1070
     0
1000
MTEXTEND
  0
MTEXT
  5
55C6
330
1A
100
AcDbEntity
  8
SUNPOU
100
AcDbMText
 10
38111.71232809542
 20
41643.63876648066
 30
0.0
 40
10.5
 41
0.0
 71
     7
 72
     5
  1

1001
ACAD
1000
MTEXTBEGIN
1070
    73
1070
     1
1070
    44
1040
1.0
1070
    74
1070
     0
1000
MTEXTEND
  0
MTEXT
  5
55C7
330
1A
100
AcDbEntity
  8
SUNPOU
100
AcDbMText
 10
42620.79045604597
 20
44079.93951410074
 30
0.0
 40
10.5
 41
0.0
 71
     7
 72
     5
  1

1001
ACAD
1000
MTEXTBEGIN
1070
    73
1070
     1
1070
    44
1040
1.0
1070
    74
1070
     0
1000
MTEXTEND
  0
MTEXT
  5
55C8
330
1A
100
AcDbEntity
  8
SUNPOU
100
AcDbMText
 10
26221.62834281429
 20
23077.53566448964
 30
0.0
 40
10.5
 41
0.0
 71
     7
 72
     5
  1

1001
ACAD
1000
MTEXTBEGIN
1070
    73
1070
     1
1070
    44
1040
1.0
1070
    74
1070
     0
1000
MTEXTEND
  0
MTEXT
  5
55C9
330
1A
100
AcDbEntity
  8
SUNPOU
100
AcDbMText
 10
77413.14677671455
 20
68750.51622813789
 30
0.0
 40
10.5
 41
0.0
 71
     9
 72
     5
  1

1001
ACAD
1000
MTEXTBEGIN
1070
    73
1070
     1
1070
    44
1040
1.0
1070
    74
1070
     0
1000
MTEXTEND
  0
MTEXT
  5
55CA
330
1A
100
AcDbEntity
  8
SUNPOU
100
AcDbMText
 10
86135.31434263256
 20
76166.35075967536
 30
0.0
 40
10.5
 41
0.0
 71
     9
 72
     5
  1

1001
ACAD
1000
MTEXTBEGIN
1070
    73
1070
     1
1070
    44
1040
1.0
1070
    74
1070
     0
1000
MTEXTEND
  0
MTEXT
  5
55CB
330
1A
100
AcDbEntity
  8
SUNPOU
100
AcDbMText
 10
105089.0730599625
 20
93632.92681216739
 30
0.0
 40
10.5
 41
0.0
 71
     9
 72
     5
  1

1001
ACAD
1000
MTEXTBEGIN
1070
    73
1070
     1
1070
    44
1040
1.0
1070
    74
1070
     0
1000
MTEXTEND
  0
MTEXT
  5
55CC
330
1A
100
AcDbEntity
  8
SUNPOU
100
AcDbMText
 10
107032.4803066719
 20
91831.8777322894
 30
0.0
 40
3.5
 41
0.0
 71
     9
 72
     5
  1

1001
ACAD
1000
MTEXTBEGIN
1070
    73
1070
     1
1070
    44
1040
1.0
1070
    74
1070
     0
1000
MTEXTEND
  0
MTEXT
  5
55CD
330
1A
100
AcDbEntity
  8
SUNPOU
100
AcDbMText
 10
138158.6601392916
 20
134326.8233999467
 30
0.0
 40
10.5
 41
0.0
 71
     9
 72
     5
  1

1001
ACAD
1000
MTEXTBEGIN
1070
    73
1070
     1
1070
    44
1040
1.0
1070
    74
1070
     0
1000
MTEXTEND
  0
MTEXT
  5
55CE
330
1A
100
AcDbEntity
  8
SUNPOU
100
AcDbMText
 10
140102.067386001
 20
132525.7743200686
 30
0.0
 40
3.5
 41
0.0
 71
     9
 72
     5
  1

1001
ACAD
1000
MTEXTBEGIN
1070
    73
1070
     1
1070
    44
1040
1.0
1070
    74
1070
     0
1000
MTEXTEND
  0
MTEXT
  5
55CF
330
1A
100
AcDbEntity
  8
SUNPOU
100
AcDbMText
 10
88598.92784508721
 20
80159.98855492179
 30
0.0
 40
10.5
 41
0.0
 71
     9
 72
     5
  1

1001
ACAD
1000
MTEXTBEGIN
1070
    73
1070
     1
1070
    44
1040
1.0
1070
    74
1070
     0
1000
MTEXTEND
  0
MTEXT
  5
55D0
330
1A
100
AcDbEntity
  8
SUNPOU
100
AcDbMText
 10
74650.92774471121
 20
60987.5894158096
 30
0.0
 40
3.5
 41
0.0
 71
     7
 72
     5
  1

1001
ACAD
1000
MTEXTBEGIN
1070
    73
1070
     1
1070
    44
1040
1.0
1070
    74
1070
     0
1000
MTEXTEND
  0
MTEXT
  5
55D1
330
1A
100
AcDbEntity
  8
SUNPOU
100
AcDbMText
 10
55636.09714170436
 20
48749.73814662781
 30
0.0
 40
10.5
 41
0.0
 71
     7
 72
     5
  1

1001
ACAD
1000
MTEXTBEGIN
1070
    73
1070
     1
1070
    44
1040
1.0
1070
    74
1070
     0
1000
MTEXTEND
  0
MTEXT
  5
55D2
330
1A
100
AcDbEntity
  8
SUNPOU
100
AcDbMText
 10
43178.86887675626
 20
32904.80656852938
 30
0.0
 40
35.0
 41
0.0
 71
     9
 72
     5
  1

1001
ACAD
1000
MTEXTBEGIN
1070
    73
1070
     1
1070
    44
1040
1.0
1070
    74
1070
     0
1000
MTEXTEND
  0
MTEXT
  5
55D3
330
1A
100
AcDbEntity
  8
SUNPOU
100
AcDbMText
 10
42087.35393433121
 20
33513.58197857809
 30
0.0
 40
350.0000004171781
 41
0.0
 71
     7
 72
     5
  1

1001
ACAD
1000
MTEXTBEGIN
1070
    73
1070
     1
1070
    44
1040
1.0
1070
    74
1070
     0
1000
MTEXTEND
  0
MTEXT
  5
55D4
330
1A
100
AcDbEntity
  8
0
100
AcDbMText
 10
48131.30469227412
 20
31493.50434071431
 30
0.0
 40
8.0
 41
0.0
 71
     7
 72
     5
  1

1001
ACAD
1000
MTEXTBEGIN
1070
    73
1070
     1
1070
    44
1040
1.0
1070
    74
1070
     0
1000
MTEXTEND
  0
MTEXT
  5
55D5
330
1A
100
AcDbEntity
  8
0
100
AcDbMText
 10
50416.66238216901
 20
32464.29463546537
 30
0.0
 40
8.0
 41
0.0
 71
     7
 72
     5
  1

1001
ACAD
1000
MTEXTBEGIN
1070
    73
1070
     1
1070
    44
1040
1.0
1070
    74
1070
     0
1000
MTEXTEND
  0
MTEXT
  5
55D6
330
1A
100
AcDbEntity
  8
SUNPOU
100
AcDbMText
 10
53082.55940285115
 20
41976.4060278405
 30
0.0
 40
10.5
 41
0.0
 71
     1
 72
     5
  1

1001
ACAD
1000
MTEXTBEGIN
1070
    73
1070
     1
1070
    44
1040
1.0
1070
    74
1070
     0
1000
MTEXTEND
  0
MTEXT
  5
55D7
330
1A
100
AcDbEntity
  8
SUNPOU
100
AcDbMText
 10
45151.63620691522
 20
41029.61289392755
 30
0.0
 40
10.5
 41
0.0
 71
     7
 72
     5
  1

1001
ACAD
1000
MTEXTBEGIN
1070
    73
1070
     1
1070
    44
1040
1.0
1070
    74
1070
     0
1000
MTEXTEND
  0
MTEXT
  5
55D8
330
1A
100
AcDbEntity
  8
SUNPOU
100
AcDbMText
 10
48100.61987142798
 20
45930.28896577039
 30
0.0
 40
10.5
 41
0.0
 71
     7
 72
     5
  1

1001
ACAD
1000
MTEXTBEGIN
1070
    73
1070
     1
1070
    44
1040
1.0
1070
    74
1070
     0
1000
MTEXTEND
  0
MTEXT
  5
55D9
330
1A
100
AcDbEntity
  8
SUNPOU
100
AcDbMText
 10
52609.69799937854
 20
48366.58971339046
 30
0.0
 40
10.5
 41
0.0
 71
     7
 72
     5
  1

1001
ACAD
1000
MTEXTBEGIN
1070
    73
1070
     1
1070
    44
1040
1.0
1070
    74
1070
     0
1000
MTEXTEND
  0
MTEXT
  5
55DA
330
1A
100
AcDbEntity
  8
SUNPOU
100
AcDbMText
 10
36210.53588614687
 20
27364.18586377937
 30
0.0
 40
10.5
 41
0.0
 71
     7
 72
     5
  1

1001
ACAD
1000
MTEXTBEGIN
1070
    73
1070
     1
1070
    44
1040
1.0
1070
    74
1070
     0
1000
MTEXTEND
  0
MTEXT
  5
55DB
330
1A
100
AcDbEntity
  8
SUNPOU
100
AcDbMText
 10
38021.29879752181
 20
33691.59985125794
 30
0.0
 40
10.5
 41
0.0
 71
     9
 72
     5
  1

1001
ACAD
1000
MTEXTBEGIN
1070
    73
1070
     1
1070
    44
1040
1.0
1070
    74
1070
     0
1000
MTEXTEND
  0
MTEXT
  5
55DC
330
1A
100
AcDbEntity
  8
SUNPOU
100
AcDbMText
 10
46743.46636343979
 20
41107.43438279541
 30
0.0
 40
10.5
 41
0.0
 71
     9
 72
     5
  1

1001
ACAD
1000
MTEXTBEGIN
1070
    73
1070
     1
1070
    44
1040
1.0
1070
    74
1070
     0
1000
MTEXTEND
  0
MTEXT
  5
55DD
330
1A
100
AcDbEntity
  8
SUNPOU
100
AcDbMText
 10
65697.22508076975
 20
58574.01043528746
 30
0.0
 40
10.5
 41
0.0
 71
     9
 72
     5
  1

1001
ACAD
1000
MTEXTBEGIN
1070
    73
1070
     1
1070
    44
1040
1.0
1070
    74
1070
     0
1000
MTEXTEND
  0
MTEXT
  5
55DE
330
1A
100
AcDbEntity
  8
SUNPOU
100
AcDbMText
 10
67640.63232747917
 20
56772.96135540945
 30
0.0
 40
3.5
 41
0.0
 71
     9
 72
     5
  1

1001
ACAD
1000
MTEXTBEGIN
1070
    73
1070
     1
1070
    44
1040
1.0
1070
    74
1070
     0
1000
MTEXTEND
  0
MTEXT
  5
55DF
330
1A
100
AcDbEntity
  8
SUNPOU
100
AcDbMText
 10
98766.81216009888
 20
99267.9070230668
 30
0.0
 40
10.5
 41
0.0
 71
     9
 72
     5
  1

1001
ACAD
1000
MTEXTBEGIN
1070
    73
1070
     1
1070
    44
1040
1.0
1070
    74
1070
     0
1000
MTEXTEND
  0
MTEXT
  5
55E0
330
1A
100
AcDbEntity
  8
SUNPOU
100
AcDbMText
 10
100710.2194068083
 20
97466.85794318878
 30
0.0
 40
3.5
 41
0.0
 71
     9
 72
     5
  1

1001
ACAD
1000
MTEXTBEGIN
1070
    73
1070
     1
1070
    44
1040
1.0
1070
    74
1070
     0
1000
MTEXTEND
  0
MTEXT
  5
55E1
330
1A
100
AcDbEntity
  8
SUNPOU
100
AcDbMText
 10
49207.07986589444
 20
45101.07217804185
 30
0.0
 40
10.5
 41
0.0
 71
     9
 72
     5
  1

1001
ACAD
1000
MTEXTBEGIN
1070
    73
1070
     1
1070
    44
1040
1.0
1070
    74
1070
     0
1000
MTEXTEND
  0
MTEXT
  5
55E2
330
1A
100
AcDbEntity
  8
SUNPOU
100
AcDbMText
 10
35259.07976551845
 20
25928.67303892964
 30
0.0
 40
3.5
 41
0.0
 71
     7
 72
     5
  1

1001
ACAD
1000
MTEXTBEGIN
1070
    73
1070
     1
1070
    44
1040
1.0
1070
    74
1070
     0
1000
MTEXTEND
  0
MTEXT
  5
55E3
330
1A
100
AcDbEntity
  8
SUNPOU
100
AcDbMText
 10
48951.43044828905
 20
35287.73625995099
 30
0.0
 40
10.5
 41
0.0
 71
     9
 72
     5
  1

1001
ACAD
1000
MTEXTBEGIN
1070
    73
1070
     1
1070
    44
1040
1.0
1070
    74
1070
     0
1000
MTEXTEND
  0
MTEXT
  5
55E4
330
1A
100
AcDbEntity
  8
SUNPOU
100
AcDbMText
 10
57673.59801420702
 20
42703.57079148847
 30
0.0
 40
10.5
 41
0.0
 71
     9
 72
     5
  1

1001
ACAD
1000
MTEXTBEGIN
1070
    73
1070
     1
1070
    44
1040
1.0
1070
    74
1070
     0
1000
MTEXTEND
  0
MTEXT
  5
55E5
330
1A
100
AcDbEntity
  8
SUNPOU
100
AcDbMText
 10
76627.35673153699
 20
60170.14684398051
 30
0.0
 40
10.5
 41
0.0
 71
     9
 72
     5
  1

1001
ACAD
1000
MTEXTBEGIN
1070
    73
1070
     1
1070
    44
1040
1.0
1070
    74
1070
     0
1000
MTEXTEND
  0
MTEXT
  5
55E6
330
1A
100
AcDbEntity
  8
SUNPOU
100
AcDbMText
 10
78570.76397824641
 20
58369.09776410251
 30
0.0
 40
3.5
 41
0.0
 71
     9
 72
     5
  1

1001
ACAD
1000
MTEXTBEGIN
1070
    73
1070
     1
1070
    44
1040
1.0
1070
    74
1070
     0
1000
MTEXTEND
  0
MTEXT
  5
55E7
330
1A
100
AcDbEntity
  8
SUNPOU
100
AcDbMText
 10
109696.9438108661
 20
100864.0434317598
 30
0.0
 40
10.5
 41
0.0
 71
     9
 72
     5
  1

1001
ACAD
1000
MTEXTBEGIN
1070
    73
1070
     1
1070
    44
1040
1.0
1070
    74
1070
     0
1000
MTEXTEND
  0
MTEXT
  5
55E8
330
1A
100
AcDbEntity
  8
SUNPOU
100
AcDbMText
 10
111640.3510575755
 20
99062.99435188183
 30
0.0
 40
3.5
 41
0.0
 71
     9
 72
     5
  1

1001
ACAD
1000
MTEXTBEGIN
1070
    73
1070
     1
1070
    44
1040
1.0
1070
    74
1070
     0
1000
MTEXTEND
  0
MTEXT
  5
55E9
330
1A
100
AcDbEntity
  8
SUNPOU
100
AcDbMText
 10
60137.21151666167
 20
46697.20858673491
 30
0.0
 40
10.5
 41
0.0
 71
     9
 72
     5
  1

1001
ACAD
1000
MTEXTBEGIN
1070
    73
1070
     1
1070
    44
1040
1.0
1070
    74
1070
     0
1000
MTEXTEND
  0
MTEXT
  5
55EA
330
1A
100
AcDbEntity
  8
SUNPOU
100
AcDbMText
 10
46189.21141628568
 20
27524.80944762269
 30
0.0
 40
3.5
 41
0.0
 71
     7
 72
     5
  1

1001
ACAD
1000
MTEXTBEGIN
1070
    73
1070
     1
1070
    44
1040
1.0
1070
    74
1070
     0
1000
MTEXTEND
  0
MTEXT
  5
55EB
330
1A
100
AcDbEntity
  8
SUNPOU
100
AcDbMText
 10
45007.68847015541
 20
38269.57947701874
 30
0.0
 40
10.5
 41
0.0
 71
     9
 72
     5
  1

1001
ACAD
1000
MTEXTBEGIN
1070
    73
1070
     1
1070
    44
1040
1.0
1070
    74
1070
     0
1000
MTEXTEND
  0
MTEXT
  5
55EC
330
1A
100
AcDbEntity
  8
SUNPOU
100
AcDbMText
 10
63961.44718748539
 20
55736.15552951081
 30
0.0
 40
10.5
 41
0.0
 71
     9
 72
     5
  1

1001
ACAD
1000
MTEXTBEGIN
1070
    73
1070
     1
1070
    44
1040
1.0
1070
    74
1070
     0
1000
MTEXTEND
  0
MTEXT
  5
55ED
330
1A
100
AcDbEntity
  8
SUNPOU
100
AcDbMText
 10
65904.85443419479
 20
53935.10644963279
 30
0.0
 40
3.5
 41
0.0
 71
     9
 72
     5
  1

1001
ACAD
1000
MTEXTBEGIN
1070
    73
1070
     1
1070
    44
1040
1.0
1070
    74
1070
     0
1000
MTEXTEND
  0
MTEXT
  5
55EE
330
1A
100
AcDbEntity
  8
SUNPOU
100
AcDbMText
 10
97031.03426681451
 20
96430.05211729015
 30
0.0
 40
10.5
 41
0.0
 71
     9
 72
     5
  1

1001
ACAD
1000
MTEXTBEGIN
1070
    73
1070
     1
1070
    44
1040
1.0
1070
    74
1070
     0
1000
MTEXTEND
  0
MTEXT
  5
55EF
330
1A
100
AcDbEntity
  8
SUNPOU
100
AcDbMText
 10
98974.44151352393
 20
94629.00303741212
 30
0.0
 40
3.5
 41
0.0
 71
     9
 72
     5
  1

1001
ACAD
1000
MTEXTBEGIN
1070
    73
1070
     1
1070
    44
1040
1.0
1070
    74
1070
     0
1000
MTEXTEND
  0
MTEXT
  5
55F0
330
1A
100
AcDbEntity
  8
SUNPOU
100
AcDbMText
 10
47471.30197261006
 20
42263.21727226519
 30
0.0
 40
10.5
 41
0.0
 71
     9
 72
     5
  1

1001
ACAD
1000
MTEXTBEGIN
1070
    73
1070
     1
1070
    44
1040
1.0
1070
    74
1070
     0
1000
MTEXTEND
  0
MTEXT
  5
55F1
330
1A
100
AcDbEntity
  8
SUNPOU
100
AcDbMText
 10
33523.30187223408
 20
23090.81813315298
 30
0.0
 40
3.5
 41
0.0
 71
     7
 72
     5
  1

1001
ACAD
1000
MTEXTBEGIN
1070
    73
1070
     1
1070
    44
1040
1.0
1070
    74
1070
     0
1000
MTEXTEND
  0
MTEXT
  5
55F2
330
1A
100
AcDbEntity
  8
SUNPOU
100
AcDbMText
 10
57959.46254102503
 20
50038.08111611015
 30
0.0
 40
10.5
 41
0.0
 71
     9
 72
     5
  1

1001
ACAD
1000
MTEXTBEGIN
1070
    73
1070
     1
1070
    44
1040
1.0
1070
    74
1070
     0
1000
MTEXTEND
  0
MTEXT
  5
55F3
330
1A
100
AcDbEntity
  8
SUNPOU
100
AcDbMText
 10
76913.22125835503
 20
67504.65716860222
 30
0.0
 40
10.5
 41
0.0
 71
     9
 72
     5
  1

1001
ACAD
1000
MTEXTBEGIN
1070
    73
1070
     1
1070
    44
1040
1.0
1070
    74
1070
     0
1000
MTEXTEND
  0
MTEXT
  5
55F4
330
1A
100
AcDbEntity
  8
SUNPOU
100
AcDbMText
 10
78856.62850506443
 20
65703.6080887242
 30
0.0
 40
3.5
 41
0.0
 71
     9
 72
     5
  1

1001
ACAD
1000
MTEXTBEGIN
1070
    73
1070
     1
1070
    44
1040
1.0
1070
    74
1070
     0
1000
MTEXTEND
  0
MTEXT
  5
55F5
330
1A
100
AcDbEntity
  8
SUNPOU
100
AcDbMText
 10
109982.8083376841
 20
108198.5537563815
 30
0.0
 40
10.5
 41
0.0
 71
     9
 72
     5
  1

1001
ACAD
1000
MTEXTBEGIN
1070
    73
1070
     1
1070
    44
1040
1.0
1070
    74
1070
     0
1000
MTEXTEND
  0
MTEXT
  5
55F6
330
1A
100
AcDbEntity
  8
SUNPOU
100
AcDbMText
 10
111926.2155843935
 20
106397.5046765035
 30
0.0
 40
3.5
 41
0.0
 71
     9
 72
     5
  1

1001
ACAD
1000
MTEXTBEGIN
1070
    73
1070
     1
1070
    44
1040
1.0
1070
    74
1070
     0
1000
MTEXTEND
  0
MTEXT
  5
55F7
330
1A
100
AcDbEntity
  8
SUNPOU
100
AcDbMText
 10
60423.07604347968
 20
54031.71891135659
 30
0.0
 40
10.5
 41
0.0
 71
     9
 72
     5
  1

1001
ACAD
1000
MTEXTBEGIN
1070
    73
1070
     1
1070
    44
1040
1.0
1070
    74
1070
     0
1000
MTEXTEND
  0
MTEXT
  5
55F8
330
1A
100
AcDbEntity
  8
SUNPOU
100
AcDbMText
 10
46475.07594310369
 20
34859.3197722444
 30
0.0
 40
3.5
 41
0.0
 71
     7
 72
     5
  1

1001
ACAD
1000
MTEXTBEGIN
1070
    73
1070
     1
1070
    44
1040
1.0
1070
    74
1070
     0
1000
MTEXTEND
  0
MTEXT
  5
55F9
330
1A
100
AcDbEntity
  8
SUNPOU
100
AcDbMText
 10
74027.35402123588
 20
68370.58278833383
 30
0.0
 40
10.5
 41
0.0
 71
     9
 72
     5
  1

1001
ACAD
1000
MTEXTBEGIN
1070
    73
1070
     1
1070
    44
1040
1.0
1070
    74
1070
     0
1000
MTEXTEND
  0
MTEXT
  5
55FA
330
1A
100
AcDbEntity
  8
SUNPOU
100
AcDbMText
 10
75970.7612679453
 20
66569.53370845583
 30
0.0
 40
3.5
 41
0.0
 71
     9
 72
     5
  1

1001
ACAD
1000
MTEXTBEGIN
1070
    73
1070
     1
1070
    44
1040
1.0
1070
    74
1070
     0
1000
MTEXTEND
  0
MTEXT
  5
55FB
330
1A
100
AcDbEntity
  8
SUNPOU
100
AcDbMText
 10
107096.941100565
 20
109064.4793761132
 30
0.0
 40
10.5
 41
0.0
 71
     9
 72
     5
  1

1001
ACAD
1000
MTEXTBEGIN
1070
    73
1070
     1
1070
    44
1040
1.0
1070
    74
1070
     0
1000
MTEXTEND
  0
MTEXT
  5
55FC
330
1A
100
AcDbEntity
  8
SUNPOU
100
AcDbMText
 10
109040.3483472744
 20
107263.4302962351
 30
0.0
 40
3.5
 41
0.0
 71
     9
 72
     5
  1

1001
ACAD
1000
MTEXTBEGIN
1070
    73
1070
     1
1070
    44
1040
1.0
1070
    74
1070
     0
1000
MTEXTEND
  0
MTEXT
  5
55FD
330
1A
100
AcDbEntity
  8
SUNPOU
100
AcDbMText
 10
105709.1709283621
 20
108141.3777665285
 30
0.0
 40
10.5
 41
0.0
 71
     9
 72
     5
  1

1001
ACAD
1000
MTEXTBEGIN
1070
    73
1070
     1
1070
    44
1040
1.0
1070
    74
1070
     0
1000
MTEXTEND
  0
MTEXT
  5
55FE
330
1A
100
AcDbEntity
  8
SUNPOU
100
AcDbMText
 10
107652.5781750715
 20
106340.3286866505
 30
0.0
 40
3.5
 41
0.0
 71
     9
 72
     5
  1

1001
ACAD
1000
MTEXTBEGIN
1070
    73
1070
     1
1070
    44
1040
1.0
1070
    74
1070
     0
1000
MTEXTEND
  0
MTEXT
  5
55FF
330
1A
100
AcDbEntity
  8
SUNPOU
100
AcDbMText
 10
73193.09268743351
 20
66158.78082845056
 30
0.0
 40
10.5
 41
0.0
 71
     9
 72
     5
  1

1001
ACAD
1000
MTEXTBEGIN
1070
    73
1070
     1
1070
    44
1040
1.0
1070
    74
1070
     0
1000
MTEXTEND
  0
MTEXT
  5
5600
330
1A
100
AcDbEntity
  8
SUNPOU
100
AcDbMText
 10
75916.39889159806
 20
66563.46252003162
 30
0.0
 40
3.5
 41
0.0
 71
     9
 72
     5
  1

1001
ACAD
1000
MTEXTBEGIN
1070
    73
1070
     1
1070
    44
1040
1.0
1070
    74
1070
     0
1000
MTEXTEND
  0
MTEXT
  5
5601
330
1A
100
AcDbEntity
  8
SUNPOU
100
AcDbMText
 10
75124.04436649058
 20
63402.1566819768
 30
0.0
 40
10.5
 41
0.0
 71
     9
 72
     5
  1

1001
ACAD
1000
MTEXTBEGIN
1070
    73
1070
     1
1070
    44
1040
1.0
1070
    74
1070
     0
1000
MTEXTEND
  0
MTEXT
  5
5602
330
1A
100
AcDbEntity
  8
SUNPOU
100
AcDbMText
 10
77067.4516132
 20
61601.1076020988
 30
0.0
 40
3.5
 41
0.0
 71
     9
 72
     5
  1

1001
ACAD
1000
MTEXTBEGIN
1070
    73
1070
     1
1070
    44
1040
1.0
1070
    74
1070
     0
1000
MTEXTEND
  0
MTEXT
  5
5603
330
1A
100
AcDbEntity
  8
SUNPOU
100
AcDbMText
 10
77012.54710378659
 20
61488.33571981449
 30
0.0
 40
3.5
 41
0.0
 71
     9
 72
     5
  1

1001
ACAD
1000
MTEXTBEGIN
1070
    73
1070
     1
1070
    44
1040
1.0
1070
    74
1070
     0
1000
MTEXTEND
  0
MTEXT
  5
5604
330
1A
100
AcDbEntity
  8
SUNPOU
100
AcDbMText
 10
76376.61896736668
 20
60677.01447874797
 30
0.0
 40
3.5
 41
0.0
 71
     9
 72
     5
  1

1001
ACAD
1000
MTEXTBEGIN
1070
    73
1070
     1
1070
    44
1040
1.0
1070
    74
1070
     0
1000
MTEXTEND
  0
MTEXT
  5
5605
330
1A
100
AcDbEntity
  8
SUNPOU
100
AcDbMText
 10
76375.37854794595
 20
60676.76650181047
 30
0.0
 40
10.5
 41
0.0
 71
     9
 72
     5
  1

1001
ACAD
1000
MTEXTBEGIN
1070
    73
1070
     1
1070
    44
1040
1.0
1070
    74
1070
     0
1000
MTEXTEND
  0
MTEXT
  5
5606
330
1A
100
AcDbEntity
  8
SUNPOU
100
AcDbMText
 10
84709.93991079748
 20
78034.0328293557
 30
0.0
 40
10.5
 41
0.0
 71
     9
 72
     5
  1

1001
ACAD
1000
MTEXTBEGIN
1070
    73
1070
     1
1070
    44
1040
1.0
1070
    74
1070
     0
1000
MTEXTEND
  0
MTEXT
  5
5607
330
1A
100
AcDbEntity
  8
SUNPOU
100
AcDbMText
 10
93432.10747671548
 20
85449.86736089315
 30
0.0
 40
10.5
 41
0.0
 71
     9
 72
     5
  1

1001
ACAD
1000
MTEXTBEGIN
1070
    73
1070
     1
1070
    44
1040
1.0
1070
    74
1070
     0
1000
MTEXTEND
  0
MTEXT
  5
5608
330
1A
100
AcDbEntity
  8
SUNPOU
100
AcDbMText
 10
112385.8661940454
 20
102916.4434133851
 30
0.0
 40
10.5
 41
0.0
 71
     9
 72
     5
  1

1001
ACAD
1000
MTEXTBEGIN
1070
    73
1070
     1
1070
    44
1040
1.0
1070
    74
1070
     0
1000
MTEXTEND
  0
MTEXT
  5
5609
330
1A
100
AcDbEntity
  8
SUNPOU
100
AcDbMText
 10
114329.2734407548
 20
101115.3943335072
 30
0.0
 40
3.5
 41
0.0
 71
     9
 72
     5
  1

1001
ACAD
1000
MTEXTBEGIN
1070
    73
1070
     1
1070
    44
1040
1.0
1070
    74
1070
     0
1000
MTEXTEND
  0
MTEXT
  5
560A
330
1A
100
AcDbEntity
  8
SUNPOU
100
AcDbMText
 10
145455.4532733745
 20
143610.3400011645
 30
0.0
 40
10.5
 41
0.0
 71
     9
 72
     5
  1

1001
ACAD
1000
MTEXTBEGIN
1070
    73
1070
     1
1070
    44
1040
1.0
1070
    74
1070
     0
1000
MTEXTEND
  0
MTEXT
  5
560B
330
1A
100
AcDbEntity
  8
SUNPOU
100
AcDbMText
 10
147398.8605200839
 20
141809.2909212864
 30
0.0
 40
3.5
 41
0.0
 71
     9
 72
     5
  1

1001
ACAD
1000
MTEXTBEGIN
1070
    73
1070
     1
1070
    44
1040
1.0
1070
    74
1070
     0
1000
MTEXTEND
  0
MTEXT
  5
560C
330
1A
100
AcDbEntity
  8
SUNPOU
100
AcDbMText
 10
95895.72097917013
 20
89443.5051561396
 30
0.0
 40
10.5
 41
0.0
 71
     9
 72
     5
  1

1001
ACAD
1000
MTEXTBEGIN
1070
    73
1070
     1
1070
    44
1040
1.0
1070
    74
1070
     0
1000
MTEXTEND
  0
MTEXT
  5
560D
330
1A
100
AcDbEntity
  8
SUNPOU
100
AcDbMText
 10
81947.72087879414
 20
70271.1060170274
 30
0.0
 40
3.5
 41
0.0
 71
     7
 72
     5
  1

1001
ACAD
1000
MTEXTBEGIN
1070
    73
1070
     1
1070
    44
1040
1.0
1070
    74
1070
     0
1000
MTEXTEND
  0
MTEXT
  5
560E
330
1A
100
AcDbEntity
  8
SUNPOU
100
AcDbMText
 10
62932.89027578729
 20
58033.25474784561
 30
0.0
 40
10.5
 41
0.0
 71
     7
 72
     5
  1

1001
ACAD
1000
MTEXTBEGIN
1070
    73
1070
     1
1070
    44
1040
1.0
1070
    74
1070
     0
1000
MTEXTEND
  0
MTEXT
  5
560F
330
1A
100
AcDbEntity
  8
SUNPOU
100
AcDbMText
 10
50475.66201083918
 20
42188.32316974719
 30
0.0
 40
35.0
 41
0.0
 71
     9
 72
     5
  1

1001
ACAD
1000
MTEXTBEGIN
1070
    73
1070
     1
1070
    44
1040
1.0
1070
    74
1070
     0
1000
MTEXTEND
  0
MTEXT
  5
5610
330
1A
100
AcDbEntity
  8
SUNPOU
100
AcDbMText
 10
49384.14706841413
 20
42797.0985797959
 30
0.0
 40
350.0000004171781
 41
0.0
 71
     7
 72
     5
  1

1001
ACAD
1000
MTEXTBEGIN
1070
    73
1070
     1
1070
    44
1040
1.0
1070
    74
1070
     0
1000
MTEXTEND
  0
MTEXT
  5
5611
330
1A
100
AcDbEntity
  8
0
100
AcDbMText
 10
55428.09782635704
 20
40777.02094193211
 30
0.0
 40
8.0
 41
0.0
 71
     7
 72
     5
  1

1001
ACAD
1000
MTEXTBEGIN
1070
    73
1070
     1
1070
    44
1040
1.0
1070
    74
1070
     0
1000
MTEXTEND
  0
MTEXT
  5
5612
330
1A
100
AcDbEntity
  8
0
100
AcDbMText
 10
57713.45551625194
 20
41747.81123668317
 30
0.0
 40
8.0
 41
0.0
 71
     7
 72
     5
  1

1001
ACAD
1000
MTEXTBEGIN
1070
    73
1070
     1
1070
    44
1040
1.0
1070
    74
1070
     0
1000
MTEXTEND
  0
MTEXT
  5
5613
330
1A
100
AcDbEntity
  8
SUNPOU
100
AcDbMText
 10
60379.35253693408
 20
51259.9226290583
 30
0.0
 40
10.5
 41
0.0
 71
     1
 72
     5
  1

1001
ACAD
1000
MTEXTBEGIN
1070
    73
1070
     1
1070
    44
1040
1.0
1070
    74
1070
     0
1000
MTEXTEND
  0
MTEXT
  5
5614
330
1A
100
AcDbEntity
  8
SUNPOU
100
AcDbMText
 10
52448.42934099814
 20
50313.12949514535
 30
0.0
 40
10.5
 41
0.0
 71
     7
 72
     5
  1

1001
ACAD
1000
MTEXTBEGIN
1070
    73
1070
     1
1070
    44
1040
1.0
1070
    74
1070
     0
1000
MTEXTEND
  0
MTEXT
  5
5615
330
1A
100
AcDbEntity
  8
SUNPOU
100
AcDbMText
 10
55397.41300551091
 20
55213.80556698819
 30
0.0
 40
10.5
 41
0.0
 71
     7
 72
     5
  1

1001
ACAD
1000
MTEXTBEGIN
1070
    73
1070
     1
1070
    44
1040
1.0
1070
    74
1070
     0
1000
MTEXTEND
  0
MTEXT
  5
5616
330
1A
100
AcDbEntity
  8
SUNPOU
100
AcDbMText
 10
59906.49113346147
 20
57650.10631460826
 30
0.0
 40
10.5
 41
0.0
 71
     7
 72
     5
  1

1001
ACAD
1000
MTEXTBEGIN
1070
    73
1070
     1
1070
    44
1040
1.0
1070
    74
1070
     0
1000
MTEXTEND
  0
MTEXT
  5
5617
330
1A
100
AcDbEntity
  8
SUNPOU
100
AcDbMText
 10
43507.32902022979
 20
36647.70246499718
 30
0.0
 40
10.5
 41
0.0
 71
     7
 72
     5
  1

1001
ACAD
1000
MTEXTBEGIN
1070
    73
1070
     1
1070
    44
1040
1.0
1070
    74
1070
     0
1000
MTEXTEND
  0
MTEXT
  5
5618
330
1A
100
AcDbEntity
  8
SUNPOU
100
AcDbMText
 10
94698.84745413006
 20
82320.68302864542
 30
0.0
 40
10.5
 41
0.0
 71
     9
 72
     5
  1

1001
ACAD
1000
MTEXTBEGIN
1070
    73
1070
     1
1070
    44
1040
1.0
1070
    74
1070
     0
1000
MTEXTEND
  0
MTEXT
  5
5619
330
1A
100
AcDbEntity
  8
SUNPOU
100
AcDbMText
 10
103421.015020048
 20
89736.5175601829
 30
0.0
 40
10.5
 41
0.0
 71
     9
 72
     5
  1

1001
ACAD
1000
MTEXTBEGIN
1070
    73
1070
     1
1070
    44
1040
1.0
1070
    74
1070
     0
1000
MTEXTEND
  0
MTEXT
  5
561A
330
1A
100
AcDbEntity
  8
SUNPOU
100
AcDbMText
 10
122374.773737378
 20
107203.0936126749
 30
0.0
 40
10.5
 41
0.0
 71
     9
 72
     5
  1

1001
ACAD
1000
MTEXTBEGIN
1070
    73
1070
     1
1070
    44
1040
1.0
1070
    74
1070
     0
1000
MTEXTEND
  0
MTEXT
  5
561B
330
1A
100
AcDbEntity
  8
SUNPOU
100
AcDbMText
 10
124318.1809840874
 20
105402.0445327969
 30
0.0
 40
3.5
 41
0.0
 71
     9
 72
     5
  1

1001
ACAD
1000
MTEXTBEGIN
1070
    73
1070
     1
1070
    44
1040
1.0
1070
    74
1070
     0
1000
MTEXTEND
  0
MTEXT
  5
561C
330
1A
100
AcDbEntity
  8
SUNPOU
100
AcDbMText
 10
155444.3608167071
 20
147896.9902004542
 30
0.0
 40
10.5
 41
0.0
 71
     9
 72
     5
  1

1001
ACAD
1000
MTEXTBEGIN
1070
    73
1070
     1
1070
    44
1040
1.0
1070
    74
1070
     0
1000
MTEXTEND
  0
MTEXT
  5
561D
330
1A
100
AcDbEntity
  8
SUNPOU
100
AcDbMText
 10
157387.7680634165
 20
146095.9411205762
 30
0.0
 40
3.5
 41
0.0
 71
     9
 72
     5
  1

1001
ACAD
1000
MTEXTBEGIN
1070
    73
1070
     1
1070
    44
1040
1.0
1070
    74
1070
     0
1000
MTEXTEND
  0
MTEXT
  5
561E
330
1A
100
AcDbEntity
  8
SUNPOU
100
AcDbMText
 10
105884.6285225027
 20
93730.15535542933
 30
0.0
 40
10.5
 41
0.0
 71
     9
 72
     5
  1

1001
ACAD
1000
MTEXTBEGIN
1070
    73
1070
     1
1070
    44
1040
1.0
1070
    74
1070
     0
1000
MTEXTEND
  0
MTEXT
  5
561F
330
1A
100
AcDbEntity
  8
SUNPOU
100
AcDbMText
 10
91936.6284221267
 20
74557.75621631714
 30
0.0
 40
3.5
 41
0.0
 71
     7
 72
     5
  1

1001
ACAD
1000
MTEXTBEGIN
1070
    73
1070
     1
1070
    44
1040
1.0
1070
    74
1070
     0
1000
MTEXTEND
  0
MTEXT
  5
5620
330
1A
100
AcDbEntity
  8
SUNPOU
100
AcDbMText
 10
72921.79781911986
 20
62319.90494713533
 30
0.0
 40
10.5
 41
0.0
 71
     7
 72
     5
  1

1001
ACAD
1000
MTEXTBEGIN
1070
    73
1070
     1
1070
    44
1040
1.0
1070
    74
1070
     0
1000
MTEXTEND
  0
MTEXT
  5
5621
330
1A
100
AcDbEntity
  8
SUNPOU
100
AcDbMText
 10
60464.56955417175
 20
46474.97336903692
 30
0.0
 40
35.0
 41
0.0
 71
     9
 72
     5
  1

1001
ACAD
1000
MTEXTBEGIN
1070
    73
1070
     1
1070
    44
1040
1.0
1070
    74
1070
     0
1000
MTEXTEND
  0
MTEXT
  5
5622
330
1A
100
AcDbEntity
  8
SUNPOU
100
AcDbMText
 10
59373.05461174672
 20
47083.74877908562
 30
0.0
 40
350.0000004171781
 41
0.0
 71
     7
 72
     5
  1

1001
ACAD
1000
MTEXTBEGIN
1070
    73
1070
     1
1070
    44
1040
1.0
1070
    74
1070
     0
1000
MTEXTEND
  0
MTEXT
  5
5623
330
1A
100
AcDbEntity
  8
0
100
AcDbMText
 10
65417.00536968962
 20
45063.67114122186
 30
0.0
 40
8.0
 41
0.0
 71
     7
 72
     5
  1

1001
ACAD
1000
MTEXTBEGIN
1070
    73
1070
     1
1070
    44
1040
1.0
1070
    74
1070
     0
1000
MTEXTEND
  0
MTEXT
  5
5624
330
1A
100
AcDbEntity
  8
0
100
AcDbMText
 10
67702.36305958452
 20
46034.46143597292
 30
0.0
 40
8.0
 41
0.0
 71
     7
 72
     5
  1

1001
ACAD
1000
MTEXTBEGIN
1070
    73
1070
     1
1070
    44
1040
1.0
1070
    74
1070
     0
1000
MTEXTEND
  0
MTEXT
  5
5625
330
1A
100
AcDbEntity
  8
SUNPOU
100
AcDbMText
 10
70368.26008026666
 20
55546.57282834803
 30
0.0
 40
10.5
 41
0.0
 71
     1
 72
     5
  1

1001
ACAD
1000
MTEXTBEGIN
1070
    73
1070
     1
1070
    44
1040
1.0
1070
    74
1070
     0
1000
MTEXTEND
  0
MTEXT
  5
5626
330
1A
100
AcDbEntity
  8
SUNPOU
100
AcDbMText
 10
62437.33688433072
 20
54599.77969443508
 30
0.0
 40
10.5
 41
0.0
 71
     7
 72
     5
  1

1001
ACAD
1000
MTEXTBEGIN
1070
    73
1070
     1
1070
    44
1040
1.0
1070
    74
1070
     0
1000
MTEXTEND
  0
MTEXT
  5
5627
330
1A
100
AcDbEntity
  8
SUNPOU
100
AcDbMText
 10
65386.32054884349
 20
59500.45576627792
 30
0.0
 40
10.5
 41
0.0
 71
     7
 72
     5
  1

1001
ACAD
1000
MTEXTBEGIN
1070
    73
1070
     1
1070
    44
1040
1.0
1070
    74
1070
     0
1000
MTEXTEND
  0
MTEXT
  5
5628
330
1A
100
AcDbEntity
  8
SUNPOU
100
AcDbMText
 10
69895.39867679405
 20
61936.756513898
 30
0.0
 40
10.5
 41
0.0
 71
     7
 72
     5
  1

1001
ACAD
1000
MTEXTBEGIN
1070
    73
1070
     1
1070
    44
1040
1.0
1070
    74
1070
     0
1000
MTEXTEND
  0
MTEXT
  5
5629
330
1A
100
AcDbEntity
  8
SUNPOU
100
AcDbMText
 10
53496.23656356237
 20
40934.35266428691
 30
0.0
 40
10.5
 41
0.0
 71
     7
 72
     5
  1

1001
ACAD
1000
MTEXTBEGIN
1070
    73
1070
     1
1070
    44
1040
1.0
1070
    74
1070
     0
1000
MTEXTEND
  0
MTEXT
  5
562A
330
1A
100
AcDbEntity
  8
SUNPOU
100
AcDbMText
 10
55306.99947493731
 20
47261.76665176547
 30
0.0
 40
10.5
 41
0.0
 71
     9
 72
     5
  1

1001
ACAD
1000
MTEXTBEGIN
1070
    73
1070
     1
1070
    44
1040
1.0
1070
    74
1070
     0
1000
MTEXTEND
  0
MTEXT
  5
562B
330
1A
100
AcDbEntity
  8
SUNPOU
100
AcDbMText
 10
64029.16704085528
 20
54677.60118330295
 30
0.0
 40
10.5
 41
0.0
 71
     9
 72
     5
  1

1001
ACAD
1000
MTEXTBEGIN
1070
    73
1070
     1
1070
    44
1040
1.0
1070
    74
1070
     0
1000
MTEXTEND
  0
MTEXT
  5
562C
330
1A
100
AcDbEntity
  8
SUNPOU
100
AcDbMText
 10
82982.92575818527
 20
72144.17723579499
 30
0.0
 40
10.5
 41
0.0
 71
     9
 72
     5
  1

1001
ACAD
1000
MTEXTBEGIN
1070
    73
1070
     1
1070
    44
1040
1.0
1070
    74
1070
     0
1000
MTEXTEND
  0
MTEXT
  5
562D
330
1A
100
AcDbEntity
  8
SUNPOU
100
AcDbMText
 10
84926.33300489467
 20
70343.12815591698
 30
0.0
 40
3.5
 41
0.0
 71
     9
 72
     5
  1

1001
ACAD
1000
MTEXTBEGIN
1070
    73
1070
     1
1070
    44
1040
1.0
1070
    74
1070
     0
1000
MTEXTEND
  0
MTEXT
  5
562E
330
1A
100
AcDbEntity
  8
SUNPOU
100
AcDbMText
 10
116052.5128375143
 20
112838.0738235743
 30
0.0
 40
10.5
 41
0.0
 71
     9
 72
     5
  1

1001
ACAD
1000
MTEXTBEGIN
1070
    73
1070
     1
1070
    44
1040
1.0
1070
    74
1070
     0
1000
MTEXTEND
  0
MTEXT
  5
562F
330
1A
100
AcDbEntity
  8
SUNPOU
100
AcDbMText
 10
117995.9200842238
 20
111037.0247436963
 30
0.0
 40
3.5
 41
0.0
 71
     9
 72
     5
  1

1001
ACAD
1000
MTEXTBEGIN
1070
    73
1070
     1
1070
    44
1040
1.0
1070
    74
1070
     0
1000
MTEXTEND
  0
MTEXT
  5
5630
330
1A
100
AcDbEntity
  8
SUNPOU
100
AcDbMText
 10
66492.78054330994
 20
58671.23897854939
 30
0.0
 40
10.5
 41
0.0
 71
     9
 72
     5
  1

1001
ACAD
1000
MTEXTBEGIN
1070
    73
1070
     1
1070
    44
1040
1.0
1070
    74
1070
     0
1000
MTEXTEND
  0
MTEXT
  5
5631
330
1A
100
AcDbEntity
  8
SUNPOU
100
AcDbMText
 10
52544.78044293396
 20
39498.83983943717
 30
0.0
 40
3.5
 41
0.0
 71
     7
 72
     5
  1

1001
ACAD
1000
MTEXTBEGIN
1070
    73
1070
     1
1070
    44
1040
1.0
1070
    74
1070
     0
1000
MTEXTEND
  0
MTEXT
  5
5632
330
1A
100
AcDbEntity
  8
SUNPOU
100
AcDbMText
 10
66237.13112570454
 20
48857.90306045851
 30
0.0
 40
10.5
 41
0.0
 71
     9
 72
     5
  1

1001
ACAD
1000
MTEXTBEGIN
1070
    73
1070
     1
1070
    44
1040
1.0
1070
    74
1070
     0
1000
MTEXTEND
  0
MTEXT
  5
5633
330
1A
100
AcDbEntity
  8
SUNPOU
100
AcDbMText
 10
74959.29869162252
 20
56273.737591996
 30
0.0
 40
10.5
 41
0.0
 71
     9
 72
     5
  1

1001
ACAD
1000
MTEXTBEGIN
1070
    73
1070
     1
1070
    44
1040
1.0
1070
    74
1070
     0
1000
MTEXTEND
  0
MTEXT
  5
5634
330
1A
100
AcDbEntity
  8
SUNPOU
100
AcDbMText
 10
93913.0574089525
 20
73740.31364448805
 30
0.0
 40
10.5
 41
0.0
 71
     9
 72
     5
  1

1001
ACAD
1000
MTEXTBEGIN
1070
    73
1070
     1
1070
    44
1040
1.0
1070
    74
1070
     0
1000
MTEXTEND
  0
MTEXT
  5
5635
330
1A
100
AcDbEntity
  8
SUNPOU
100
AcDbMText
 10
95856.46465566192
 20
71939.26456461004
 30
0.0
 40
3.5
 41
0.0
 71
     9
 72
     5
  1

1001
ACAD
1000
MTEXTBEGIN
1070
    73
1070
     1
1070
    44
1040
1.0
1070
    74
1070
     0
1000
MTEXTEND
  0
MTEXT
  5
5636
330
1A
100
AcDbEntity
  8
SUNPOU
100
AcDbMText
 10
126982.6444882816
 20
114434.2102322673
 30
0.0
 40
10.5
 41
0.0
 71
     9
 72
     5
  1

1001
ACAD
1000
MTEXTBEGIN
1070
    73
1070
     1
1070
    44
1040
1.0
1070
    74
1070
     0
1000
MTEXTEND
  0
MTEXT
  5
5637
330
1A
100
AcDbEntity
  8
SUNPOU
100
AcDbMText
 10
128926.051734991
 20
112633.1611523893
 30
0.0
 40
3.5
 41
0.0
 71
     9
 72
     5
  1

1001
ACAD
1000
MTEXTBEGIN
1070
    73
1070
     1
1070
    44
1040
1.0
1070
    74
1070
     0
1000
MTEXTEND
  0
MTEXT
  5
5638
330
1A
100
AcDbEntity
  8
SUNPOU
100
AcDbMText
 10
77422.91219407717
 20
60267.37538724244
 30
0.0
 40
10.5
 41
0.0
 71
     9
 72
     5
  1

1001
ACAD
1000
MTEXTBEGIN
1070
    73
1070
     1
1070
    44
1040
1.0
1070
    74
1070
     0
1000
MTEXTEND
  0
MTEXT
  5
5639
330
1A
100
AcDbEntity
  8
SUNPOU
100
AcDbMText
 10
63474.91209370119
 20
41094.97624813023
 30
0.0
 40
3.5
 41
0.0
 71
     7
 72
     5
  1

1001
ACAD
1000
MTEXTBEGIN
1070
    73
1070
     1
1070
    44
1040
1.0
1070
    74
1070
     0
1000
MTEXTEND
  0
MTEXT
  5
563A
330
1A
100
AcDbEntity
  8
SUNPOU
100
AcDbMText
 10
48117.65086229006
 20
40806.11043916631
 30
0.0
 40
10.5
 41
0.0
 71
     9
 72
     5
  1

1001
ACAD
1000
MTEXTBEGIN
1070
    73
1070
     1
1070
    44
1040
1.0
1070
    74
1070
     0
1000
MTEXTEND
  0
MTEXT
  5
563B
330
1A
100
AcDbEntity
  8
SUNPOU
100
AcDbMText
 10
67071.40957962004
 20
58272.68649165837
 30
0.0
 40
10.5
 41
0.0
 71
     9
 72
     5
  1

1001
ACAD
1000
MTEXTBEGIN
1070
    73
1070
     1
1070
    44
1040
1.0
1070
    74
1070
     0
1000
MTEXTEND
  0
MTEXT
  5
563C
330
1A
100
AcDbEntity
  8
SUNPOU
100
AcDbMText
 10
69014.81682632945
 20
56471.63741178035
 30
0.0
 40
3.5
 41
0.0
 71
     9
 72
     5
  1

1001
ACAD
1000
MTEXTBEGIN
1070
    73
1070
     1
1070
    44
1040
1.0
1070
    74
1070
     0
1000
MTEXTEND
  0
MTEXT
  5
563D
330
1A
100
AcDbEntity
  8
SUNPOU
100
AcDbMText
 10
100140.9966589491
 20
98966.58307943772
 30
0.0
 40
10.5
 41
0.0
 71
     9
 72
     5
  1

1001
ACAD
1000
MTEXTBEGIN
1070
    73
1070
     1
1070
    44
1040
1.0
1070
    74
1070
     0
1000
MTEXTEND
  0
MTEXT
  5
563E
330
1A
100
AcDbEntity
  8
SUNPOU
100
AcDbMText
 10
102084.4039056586
 20
97165.53399955969
 30
0.0
 40
3.5
 41
0.0
 71
     9
 72
     5
  1

1001
ACAD
1000
MTEXTBEGIN
1070
    73
1070
     1
1070
    44
1040
1.0
1070
    74
1070
     0
1000
MTEXTEND
  0
MTEXT
  5
563F
330
1A
100
AcDbEntity
  8
SUNPOU
100
AcDbMText
 10
50581.26436474472
 20
44799.74823441275
 30
0.0
 40
10.5
 41
0.0
 71
     9
 72
     5
  1

1001
ACAD
1000
MTEXTBEGIN
1070
    73
1070
     1
1070
    44
1040
1.0
1070
    74
1070
     0
1000
MTEXTEND
  0
MTEXT
  5
5640
330
1A
100
AcDbEntity
  8
SUNPOU
100
AcDbMText
 10
36633.26426436873
 20
25627.34909530054
 30
0.0
 40
3.5
 41
0.0
 71
     7
 72
     5
  1

1001
ACAD
1000
MTEXTBEGIN
1070
    73
1070
     1
1070
    44
1040
1.0
1070
    74
1070
     0
1000
MTEXTEND
  0
MTEXT
  5
5641
330
1A
100
AcDbEntity
  8
SUNPOU
100
AcDbMText
 10
61069.42493315968
 20
52574.61207825771
 30
0.0
 40
10.5
 41
0.0
 71
     9
 72
     5
  1

1001
ACAD
1000
MTEXTBEGIN
1070
    73
1070
     1
1070
    44
1040
1.0
1070
    74
1070
     0
1000
MTEXTEND
  0
MTEXT
  5
5642
330
1A
100
AcDbEntity
  8
SUNPOU
100
AcDbMText
 10
80023.18365048967
 20
70041.18813074978
 30
0.0
 40
10.5
 41
0.0
 71
     9
 72
     5
  1

1001
ACAD
1000
MTEXTBEGIN
1070
    73
1070
     1
1070
    44
1040
1.0
1070
    74
1070
     0
1000
MTEXTEND
  0
MTEXT
  5
5643
330
1A
100
AcDbEntity
  8
SUNPOU
100
AcDbMText
 10
81966.59089719908
 20
68240.13905087176
 30
0.0
 40
3.5
 41
0.0
 71
     9
 72
     5
  1

1001
ACAD
1000
MTEXTBEGIN
1070
    73
1070
     1
1070
    44
1040
1.0
1070
    74
1070
     0
1000
MTEXTEND
  0
MTEXT
  5
5644
330
1A
100
AcDbEntity
  8
SUNPOU
100
AcDbMText
 10
113092.7707298187
 20
110735.0847185291
 30
0.0
 40
10.5
 41
0.0
 71
     9
 72
     5
  1

1001
ACAD
1000
MTEXTBEGIN
1070
    73
1070
     1
1070
    44
1040
1.0
1070
    74
1070
     0
1000
MTEXTEND
  0
MTEXT
  5
5645
330
1A
100
AcDbEntity
  8
SUNPOU
100
AcDbMText
 10
115036.1779765282
 20
108934.0356386511
 30
0.0
 40
3.5
 41
0.0
 71
     9
 72
     5
  1

1001
ACAD
1000
MTEXTBEGIN
1070
    73
1070
     1
1070
    44
1040
1.0
1070
    74
1070
     0
1000
MTEXTEND
  0
MTEXT
  5
5646
330
1A
100
AcDbEntity
  8
SUNPOU
100
AcDbMText
 10
63533.03843561433
 20
56568.24987350415
 30
0.0
 40
10.5
 41
0.0
 71
     9
 72
     5
  1

1001
ACAD
1000
MTEXTBEGIN
1070
    73
1070
     1
1070
    44
1040
1.0
1070
    74
1070
     0
1000
MTEXTEND
  0
MTEXT
  5
5647
330
1A
100
AcDbEntity
  8
SUNPOU
100
AcDbMText
 10
49585.03833523835
 20
37395.85073439196
 30
0.0
 40
3.5
 41
0.0
 71
     7
 72
     5
  1

1001
ACAD
1000
MTEXTBEGIN
1070
    73
1070
     1
1070
    44
1040
1.0
1070
    74
1070
     0
1000
MTEXTEND
  0
MTEXT
  5
5648
330
1A
100
AcDbEntity
  8
SUNPOU
100
AcDbMText
 10
77137.31641337052
 20
70907.11375048141
 30
0.0
 40
10.5
 41
0.0
 71
     9
 72
     5
  1

1001
ACAD
1000
MTEXTBEGIN
1070
    73
1070
     1
1070
    44
1040
1.0
1070
    74
1070
     0
1000
MTEXTEND
  0
MTEXT
  5
5649
330
1A
100
AcDbEntity
  8
SUNPOU
100
AcDbMText
 10
79080.72366007995
 20
69106.06467060339
 30
0.0
 40
3.5
 41
0.0
 71
     9
 72
     5
  1

1001
ACAD
1000
MTEXTBEGIN
1070
    73
1070
     1
1070
    44
1040
1.0
1070
    74
1070
     0
1000
MTEXTEND
  0
MTEXT
  5
564A
330
1A
100
AcDbEntity
  8
SUNPOU
100
AcDbMText
 10
110206.9034926996
 20
111601.0103382607
 30
0.0
 40
10.5
 41
0.0
 71
     9
 72
     5
  1

1001
ACAD
1000
MTEXTBEGIN
1070
    73
1070
     1
1070
    44
1040
1.0
1070
    74
1070
     0
1000
MTEXTEND
  0
MTEXT
  5
564B
330
1A
100
AcDbEntity
  8
SUNPOU
100
AcDbMText
 10
112150.310739409
 20
109799.9612583827
 30
0.0
 40
3.5
 41
0.0
 71
     9
 72
     5
  1

1001
ACAD
1000
MTEXTBEGIN
1070
    73
1070
     1
1070
    44
1040
1.0
1070
    74
1070
     0
1000
MTEXTEND
  0
MTEXT
  5
564C
330
1A
100
AcDbEntity
  8
SUNPOU
100
AcDbMText
 10
108819.1333204968
 20
110677.9087286761
 30
0.0
 40
10.5
 41
0.0
 71
     9
 72
     5
  1

1001
ACAD
1000
MTEXTBEGIN
1070
    73
1070
     1
1070
    44
1040
1.0
1070
    74
1070
     0
1000
MTEXTEND
  0
MTEXT
  5
564D
330
1A
100
AcDbEntity
  8
SUNPOU
100
AcDbMText
 10
110762.5405672062
 20
108876.8596487981
 30
0.0
 40
3.5
 41
0.0
 71
     9
 72
     5
  1

1001
ACAD
1000
MTEXTBEGIN
1070
    73
1070
     1
1070
    44
1040
1.0
1070
    74
1070
     0
1000
MTEXTEND
  0
MTEXT
  5
564E
330
1A
100
AcDbEntity
  8
SUNPOU
100
AcDbMText
 10
76303.05507956816
 20
68695.31179059812
 30
0.0
 40
10.5
 41
0.0
 71
     9
 72
     5
  1

1001
ACAD
1000
MTEXTBEGIN
1070
    73
1070
     1
1070
    44
1040
1.0
1070
    74
1070
     0
1000
MTEXTEND
  0
MTEXT
  5
564F
330
1A
100
AcDbEntity
  8
SUNPOU
100
AcDbMText
 10
79026.36128373271
 20
69099.99348217918
 30
0.0
 40
3.5
 41
0.0
 71
     9
 72
     5
  1

1001
ACAD
1000
MTEXTBEGIN
1070
    73
1070
     1
1070
    44
1040
1.0
1070
    74
1070
     0
1000
MTEXTEND
  0
MTEXT
  5
5650
330
1A
100
AcDbEntity
  8
SUNPOU
100
AcDbMText
 10
78234.00675862522
 20
65938.68764412436
 30
0.0
 40
10.5
 41
0.0
 71
     9
 72
     5
  1

1001
ACAD
1000
MTEXTBEGIN
1070
    73
1070
     1
1070
    44
1040
1.0
1070
    74
1070
     0
1000
MTEXTEND
  0
MTEXT
  5
5651
330
1A
100
AcDbEntity
  8
SUNPOU
100
AcDbMText
 10
80177.41400533465
 20
64137.63856424636
 30
0.0
 40
3.5
 41
0.0
 71
     9
 72
     5
  1

1001
ACAD
1000
MTEXTBEGIN
1070
    73
1070
     1
1070
    44
1040
1.0
1070
    74
1070
     0
1000
MTEXTEND
  0
MTEXT
  5
5652
330
1A
100
AcDbEntity
  8
SUNPOU
100
AcDbMText
 10
80122.50949592123
 20
64024.86668196205
 30
0.0
 40
3.5
 41
0.0
 71
     9
 72
     5
  1

1001
ACAD
1000
MTEXTBEGIN
1070
    73
1070
     1
1070
    44
1040
1.0
1070
    74
1070
     0
1000
MTEXTEND
  0
MTEXT
  5
5653
330
1A
100
AcDbEntity
  8
SUNPOU
100
AcDbMText
 10
79486.58135950133
 20
63213.54544089553
 30
0.0
 40
3.5
 41
0.0
 71
     9
 72
     5
  1

1001
ACAD
1000
MTEXTBEGIN
1070
    73
1070
     1
1070
    44
1040
1.0
1070
    74
1070
     0
1000
MTEXTEND
  0
MTEXT
  5
5654
330
1A
100
AcDbEntity
  8
SUNPOU
100
AcDbMText
 10
79485.3409400806
 20
63213.29746395804
 30
0.0
 40
10.5
 41
0.0
 71
     9
 72
     5
  1

1001
ACAD
1000
MTEXTBEGIN
1070
    73
1070
     1
1070
    44
1040
1.0
1070
    74
1070
     0
1000
MTEXTEND
  0
MTEXT
  5
5655
330
1A
100
AcDbEntity
  8
SUNPOU
100
AcDbMText
 10
85473.63363627567
 20
80747.76348077064
 30
0.0
 40
10.5
 41
0.0
 71
     9
 72
     5
  1

1001
ACAD
1000
MTEXTBEGIN
1070
    73
1070
     1
1070
    44
1040
1.0
1070
    74
1070
     0
1000
MTEXTEND
  0
MTEXT
  5
5656
330
1A
100
AcDbEntity
  8
SUNPOU
100
AcDbMText
 10
94195.80120219368
 20
88163.59801230809
 30
0.0
 40
10.5
 41
0.0
 71
     9
 72
     5
  1

1001
ACAD
1000
MTEXTBEGIN
1070
    73
1070
     1
1070
    44
1040
1.0
1070
    74
1070
     0
1000
MTEXTEND
  0
MTEXT
  5
5657
330
1A
100
AcDbEntity
  8
SUNPOU
100
AcDbMText
 10
113149.5599195236
 20
105630.1740648001
 30
0.0
 40
10.5
 41
0.0
 71
     9
 72
     5
  1

1001
ACAD
1000
MTEXTBEGIN
1070
    73
1070
     1
1070
    44
1040
1.0
1070
    74
1070
     0
1000
MTEXTEND
  0
MTEXT
  5
5658
330
1A
100
AcDbEntity
  8
SUNPOU
100
AcDbMText
 10
115092.967166233
 20
103829.1249849221
 30
0.0
 40
3.5
 41
0.0
 71
     9
 72
     5
  1

1001
ACAD
1000
MTEXTBEGIN
1070
    73
1070
     1
1070
    44
1040
1.0
1070
    74
1070
     0
1000
MTEXTEND
  0
MTEXT
  5
5659
330
1A
100
AcDbEntity
  8
SUNPOU
100
AcDbMText
 10
146219.1469988527
 20
146324.0706525794
 30
0.0
 40
10.5
 41
0.0
 71
     9
 72
     5
  1

1001
ACAD
1000
MTEXTBEGIN
1070
    73
1070
     1
1070
    44
1040
1.0
1070
    74
1070
     0
1000
MTEXTEND
  0
MTEXT
  5
565A
330
1A
100
AcDbEntity
  8
SUNPOU
100
AcDbMText
 10
148162.5542455621
 20
144523.0215727014
 30
0.0
 40
3.5
 41
0.0
 71
     9
 72
     5
  1

1001
ACAD
1000
MTEXTBEGIN
1070
    73
1070
     1
1070
    44
1040
1.0
1070
    74
1070
     0
1000
MTEXTEND
  0
MTEXT
  5
565B
330
1A
100
AcDbEntity
  8
SUNPOU
100
AcDbMText
 10
96659.41470464833
 20
92157.23580755453
 30
0.0
 40
10.5
 41
0.0
 71
     9
 72
     5
  1

1001
ACAD
1000
MTEXTBEGIN
1070
    73
1070
     1
1070
    44
1040
1.0
1070
    74
1070
     0
1000
MTEXTEND
  0
MTEXT
  5
565C
330
1A
100
AcDbEntity
  8
SUNPOU
100
AcDbMText
 10
82711.41460427234
 20
72984.83666844234
 30
0.0
 40
3.5
 41
0.0
 71
     7
 72
     5
  1

1001
ACAD
1000
MTEXTBEGIN
1070
    73
1070
     1
1070
    44
1040
1.0
1070
    74
1070
     0
1000
MTEXTEND
  0
MTEXT
  5
565D
330
1A
100
AcDbEntity
  8
SUNPOU
100
AcDbMText
 10
63696.58400126548
 20
60746.98539926055
 30
0.0
 40
10.5
 41
0.0
 71
     7
 72
     5
  1

1001
ACAD
1000
MTEXTBEGIN
1070
    73
1070
     1
1070
    44
1040
1.0
1070
    74
1070
     0
1000
MTEXTEND
  0
MTEXT
  5
565E
330
1A
100
AcDbEntity
  8
SUNPOU
100
AcDbMText
 10
51239.35573631738
 20
44902.05382116213
 30
0.0
 40
35.0
 41
0.0
 71
     9
 72
     5
  1

1001
ACAD
1000
MTEXTBEGIN
1070
    73
1070
     1
1070
    44
1040
1.0
1070
    74
1070
     0
1000
MTEXTEND
  0
MTEXT
  5
565F
330
1A
100
AcDbEntity
  8
SUNPOU
100
AcDbMText
 10
50147.84079389233
 20
45510.82923121084
 30
0.0
 40
350.0000004171781
 41
0.0
 71
     7
 72
     5
  1

1001
ACAD
1000
MTEXTBEGIN
1070
    73
1070
     1
1070
    44
1040
1.0
1070
    74
1070
     0
1000
MTEXTEND
  0
MTEXT
  5
5660
330
1A
100
AcDbEntity
  8
0
100
AcDbMText
 10
56191.79155183523
 20
43490.75159334705
 30
0.0
 40
8.0
 41
0.0
 71
     7
 72
     5
  1

1001
ACAD
1000
MTEXTBEGIN
1070
    73
1070
     1
1070
    44
1040
1.0
1070
    74
1070
     0
1000
MTEXTEND
  0
MTEXT
  5
5661
330
1A
100
AcDbEntity
  8
0
100
AcDbMText
 10
58477.14924173013
 20
44461.54188809812
 30
0.0
 40
8.0
 41
0.0
 71
     7
 72
     5
  1

1001
ACAD
1000
MTEXTBEGIN
1070
    73
1070
     1
1070
    44
1040
1.0
1070
    74
1070
     0
1000
MTEXTEND
  0
MTEXT
  5
5662
330
1A
100
AcDbEntity
  8
SUNPOU
100
AcDbMText
 10
61143.04626241227
 20
53973.65328047324
 30
0.0
 40
10.5
 41
0.0
 71
     1
 72
     5
  1

1001
ACAD
1000
MTEXTBEGIN
1070
    73
1070
     1
1070
    44
1040
1.0
1070
    74
1070
     0
1000
MTEXTEND
  0
MTEXT
  5
5663
330
1A
100
AcDbEntity
  8
SUNPOU
100
AcDbMText
 10
53212.12306647634
 20
53026.86014656028
 30
0.0
 40
10.5
 41
0.0
 71
     7
 72
     5
  1

1001
ACAD
1000
MTEXTBEGIN
1070
    73
1070
     1
1070
    44
1040
1.0
1070
    74
1070
     0
1000
MTEXTEND
  0
MTEXT
  5
5664
330
1A
100
AcDbEntity
  8
SUNPOU
100
AcDbMText
 10
56161.1067309891
 20
57927.53621840312
 30
0.0
 40
10.5
 41
0.0
 71
     7
 72
     5
  1

1001
ACAD
1000
MTEXTBEGIN
1070
    73
1070
     1
1070
    44
1040
1.0
1070
    74
1070
     0
1000
MTEXTEND
  0
MTEXT
  5
5665
330
1A
100
AcDbEntity
  8
SUNPOU
100
AcDbMText
 10
60670.18485893966
 20
60363.8369660232
 30
0.0
 40
10.5
 41
0.0
 71
     7
 72
     5
  1

1001
ACAD
1000
MTEXTBEGIN
1070
    73
1070
     1
1070
    44
1040
1.0
1070
    74
1070
     0
1000
MTEXTEND
  0
MTEXT
  5
5666
330
1A
100
AcDbEntity
  8
SUNPOU
100
AcDbMText
 10
44271.02274570799
 20
39361.43311641212
 30
0.0
 40
10.5
 41
0.0
 71
     7
 72
     5
  1

1001
ACAD
1000
MTEXTBEGIN
1070
    73
1070
     1
1070
    44
1040
1.0
1070
    74
1070
     0
1000
MTEXTEND
  0
MTEXT
  5
5667
330
1A
100
AcDbEntity
  8
SUNPOU
100
AcDbMText
 10
95462.54117960824
 20
85034.41368006038
 30
0.0
 40
10.5
 41
0.0
 71
     9
 72
     5
  1

1001
ACAD
1000
MTEXTBEGIN
1070
    73
1070
     1
1070
    44
1040
1.0
1070
    74
1070
     0
1000
MTEXTEND
  0
MTEXT
  5
5668
330
1A
100
AcDbEntity
  8
SUNPOU
100
AcDbMText
 10
104184.7087455262
 20
92450.24821159784
 30
0.0
 40
10.5
 41
0.0
 71
     9
 72
     5
  1

1001
ACAD
1000
MTEXTBEGIN
1070
    73
1070
     1
1070
    44
1040
1.0
1070
    74
1070
     0
1000
MTEXTEND
  0
MTEXT
  5
5669
330
1A
100
AcDbEntity
  8
SUNPOU
100
AcDbMText
 10
123138.4674628562
 20
109916.8242640898
 30
0.0
 40
10.5
 41
0.0
 71
     9
 72
     5
  1

1001
ACAD
1000
MTEXTBEGIN
1070
    73
1070
     1
1070
    44
1040
1.0
1070
    74
1070
     0
1000
MTEXTEND
  0
MTEXT
  5
566A
330
1A
100
AcDbEntity
  8
SUNPOU
100
AcDbMText
 10
125081.8747095656
 20
108115.7751842118
 30
0.0
 40
3.5
 41
0.0
 71
     9
 72
     5
  1

1001
ACAD
1000
MTEXTBEGIN
1070
    73
1070
     1
1070
    44
1040
1.0
1070
    74
1070
     0
1000
MTEXTEND
  0
MTEXT
  5
566B
330
1A
100
AcDbEntity
  8
SUNPOU
100
AcDbMText
 10
156208.0545421853
 20
150610.7208518691
 30
0.0
 40
10.5
 41
0.0
 71
     9
 72
     5
  1

1001
ACAD
1000
MTEXTBEGIN
1070
    73
1070
     1
1070
    44
1040
1.0
1070
    74
1070
     0
1000
MTEXTEND
  0
MTEXT
  5
566C
330
1A
100
AcDbEntity
  8
SUNPOU
100
AcDbMText
 10
158151.4617888947
 20
148809.6717719911
 30
0.0
 40
3.5
 41
0.0
 71
     9
 72
     5
  1

1001
ACAD
1000
MTEXTBEGIN
1070
    73
1070
     1
1070
    44
1040
1.0
1070
    74
1070
     0
1000
MTEXTEND
  0
MTEXT
  5
566D
330
1A
100
AcDbEntity
  8
SUNPOU
100
AcDbMText
 10
106648.3222479809
 20
96443.88600684427
 30
0.0
 40
10.5
 41
0.0
 71
     9
 72
     5
  1

1001
ACAD
1000
MTEXTBEGIN
1070
    73
1070
     1
1070
    44
1040
1.0
1070
    74
1070
     0
1000
MTEXTEND
  0
MTEXT
  5
566E
330
1A
100
AcDbEntity
  8
SUNPOU
100
AcDbMText
 10
92700.3221476049
 20
77271.48686773207
 30
0.0
 40
3.5
 41
0.0
 71
     7
 72
     5
  1

1001
ACAD
1000
MTEXTBEGIN
1070
    73
1070
     1
1070
    44
1040
1.0
1070
    74
1070
     0
1000
MTEXTEND
  0
MTEXT
  5
566F
330
1A
100
AcDbEntity
  8
SUNPOU
100
AcDbMText
 10
73685.49154459806
 20
65033.63559855027
 30
0.0
 40
10.5
 41
0.0
 71
     7
 72
     5
  1

1001
ACAD
1000
MTEXTBEGIN
1070
    73
1070
     1
1070
    44
1040
1.0
1070
    74
1070
     0
1000
MTEXTEND
  0
MTEXT
  5
5670
330
1A
100
AcDbEntity
  8
SUNPOU
100
AcDbMText
 10
61228.26327964995
 20
49188.70402045185
 30
0.0
 40
35.0
 41
0.0
 71
     9
 72
     5
  1

1001
ACAD
1000
MTEXTBEGIN
1070
    73
1070
     1
1070
    44
1040
1.0
1070
    74
1070
     0
1000
MTEXTEND
  0
MTEXT
  5
5671
330
1A
100
AcDbEntity
  8
SUNPOU
100
AcDbMText
 10
60136.74833722491
 20
49797.47943050056
 30
0.0
 40
350.0000004171781
 41
0.0
 71
     7
 72
     5
  1

1001
ACAD
1000
MTEXTBEGIN
1070
    73
1070
     1
1070
    44
1040
1.0
1070
    74
1070
     0
1000
MTEXTEND
  0
MTEXT
  5
5672
330
1A
100
AcDbEntity
  8
0
100
AcDbMText
 10
66180.69909516782
 20
47777.40179263678
 30
0.0
 40
8.0
 41
0.0
 71
     7
 72
     5
  1

1001
ACAD
1000
MTEXTBEGIN
1070
    73
1070
     1
1070
    44
1040
1.0
1070
    74
1070
     0
1000
MTEXTEND
  0
MTEXT
  5
5673
330
1A
100
AcDbEntity
  8
0
100
AcDbMText
 10
68466.05678506271
 20
48748.19208738784
 30
0.0
 40
8.0
 41
0.0
 71
     7
 72
     5
  1

1001
ACAD
1000
MTEXTBEGIN
1070
    73
1070
     1
1070
    44
1040
1.0
1070
    74
1070
     0
1000
MTEXTEND
  0
MTEXT
  5
5674
330
1A
100
AcDbEntity
  8
SUNPOU
100
AcDbMText
 10
71131.95380574485
 20
58260.30347976296
 30
0.0
 40
10.5
 41
0.0
 71
     1
 72
     5
  1

1001
ACAD
1000
MTEXTBEGIN
1070
    73
1070
     1
1070
    44
1040
1.0
1070
    74
1070
     0
1000
MTEXTEND
  0
MTEXT
  5
5675
330
1A
100
AcDbEntity
  8
SUNPOU
100
AcDbMText
 10
63201.03060980891
 20
57313.51034585002
 30
0.0
 40
10.5
 41
0.0
 71
     7
 72
     5
  1

1001
ACAD
1000
MTEXTBEGIN
1070
    73
1070
     1
1070
    44
1040
1.0
1070
    74
1070
     0
1000
MTEXTEND
  0
MTEXT
  5
5676
330
1A
100
AcDbEntity
  8
SUNPOU
100
AcDbMText
 10
66150.01427432169
 20
62214.18641769286
 30
0.0
 40
10.5
 41
0.0
 71
     7
 72
     5
  1

1001
ACAD
1000
MTEXTBEGIN
1070
    73
1070
     1
1070
    44
1040
1.0
1070
    74
1070
     0
1000
MTEXTEND
  0
MTEXT
  5
5677
330
1A
100
AcDbEntity
  8
SUNPOU
100
AcDbMText
 10
70659.09240227225
 20
64650.48716531294
 30
0.0
 40
10.5
 41
0.0
 71
     7
 72
     5
  1

1001
ACAD
1000
MTEXTBEGIN
1070
    73
1070
     1
1070
    44
1040
1.0
1070
    74
1070
     0
1000
MTEXTEND
  0
MTEXT
  5
5678
330
1A
100
AcDbEntity
  8
SUNPOU
100
AcDbMText
 10
54259.93028904056
 20
43648.08331570185
 30
0.0
 40
10.5
 41
0.0
 71
     7
 72
     5
  1

1001
ACAD
1000
MTEXTBEGIN
1070
    73
1070
     1
1070
    44
1040
1.0
1070
    74
1070
     0
1000
MTEXTEND
  0
MTEXT
  5
5679
330
1A
100
AcDbEntity
  8
SUNPOU
100
AcDbMText
 10
56070.69320041551
 20
49975.4973031804
 30
0.0
 40
10.5
 41
0.0
 71
     9
 72
     5
  1

1001
ACAD
1000
MTEXTBEGIN
1070
    73
1070
     1
1070
    44
1040
1.0
1070
    74
1070
     0
1000
MTEXTEND
  0
MTEXT
  5
567A
330
1A
100
AcDbEntity
  8
SUNPOU
100
AcDbMText
 10
64792.86076633348
 20
57391.33183471788
 30
0.0
 40
10.5
 41
0.0
 71
     9
 72
     5
  1

1001
ACAD
1000
MTEXTBEGIN
1070
    73
1070
     1
1070
    44
1040
1.0
1070
    74
1070
     0
1000
MTEXTEND
  0
MTEXT
  5
567B
330
1A
100
AcDbEntity
  8
SUNPOU
100
AcDbMText
 10
83746.61948366345
 20
74857.90788720994
 30
0.0
 40
10.5
 41
0.0
 71
     9
 72
     5
  1

1001
ACAD
1000
MTEXTBEGIN
1070
    73
1070
     1
1070
    44
1040
1.0
1070
    74
1070
     0
1000
MTEXTEND
  0
MTEXT
  5
567C
330
1A
100
AcDbEntity
  8
SUNPOU
100
AcDbMText
 10
85690.02673037287
 20
73056.85880733192
 30
0.0
 40
3.5
 41
0.0
 71
     9
 72
     5
  1

1001
ACAD
1000
MTEXTBEGIN
1070
    73
1070
     1
1070
    44
1040
1.0
1070
    74
1070
     0
1000
MTEXTEND
  0
MTEXT
  5
567D
330
1A
100
AcDbEntity
  8
SUNPOU
100
AcDbMText
 10
116816.2065629925
 20
115551.8044749892
 30
0.0
 40
10.5
 41
0.0
 71
     9
 72
     5
  1

1001
ACAD
1000
MTEXTBEGIN
1070
    73
1070
     1
1070
    44
1040
1.0
1070
    74
1070
     0
1000
MTEXTEND
  0
MTEXT
  5
567E
330
1A
100
AcDbEntity
  8
SUNPOU
100
AcDbMText
 10
118759.613809702
 20
113750.7553951112
 30
0.0
 40
3.5
 41
0.0
 71
     9
 72
     5
  1

1001
ACAD
1000
MTEXTBEGIN
1070
    73
1070
     1
1070
    44
1040
1.0
1070
    74
1070
     0
1000
MTEXTEND
  0
MTEXT
  5
567F
330
1A
100
AcDbEntity
  8
SUNPOU
100
AcDbMText
 10
67256.47426878814
 20
61384.96962996432
 30
0.0
 40
10.5
 41
0.0
 71
     9
 72
     5
  1

1001
ACAD
1000
MTEXTBEGIN
1070
    73
1070
     1
1070
    44
1040
1.0
1070
    74
1070
     0
1000
MTEXTEND
  0
MTEXT
  5
5680
330
1A
100
AcDbEntity
  8
SUNPOU
100
AcDbMText
 10
53308.47416841216
 20
42212.57049085211
 30
0.0
 40
3.5
 41
0.0
 71
     7
 72
     5
  1

1001
ACAD
1000
MTEXTBEGIN
1070
    73
1070
     1
1070
    44
1040
1.0
1070
    74
1070
     0
1000
MTEXTEND
  0
MTEXT
  5
5681
330
1A
100
AcDbEntity
  8
SUNPOU
100
AcDbMText
 10
67000.82485118274
 20
51571.63371187345
 30
0.0
 40
10.5
 41
0.0
 71
     9
 72
     5
  1

1001
ACAD
1000
MTEXTBEGIN
1070
    73
1070
     1
1070
    44
1040
1.0
1070
    74
1070
     0
1000
MTEXTEND
  0
MTEXT
  5
5682
330
1A
100
AcDbEntity
  8
SUNPOU
100
AcDbMText
 10
75722.99241710071
 20
58987.46824341094
 30
0.0
 40
10.5
 41
0.0
 71
     9
 72
     5
  1

1001
ACAD
1000
MTEXTBEGIN
1070
    73
1070
     1
1070
    44
1040
1.0
1070
    74
1070
     0
1000
MTEXTEND
  0
MTEXT
  5
5683
330
1A
100
AcDbEntity
  8
SUNPOU
100
AcDbMText
 10
94676.75113443068
 20
76454.04429590299
 30
0.0
 40
10.5
 41
0.0
 71
     9
 72
     5
  1

1001
ACAD
1000
MTEXTBEGIN
1070
    73
1070
     1
1070
    44
1040
1.0
1070
    74
1070
     0
1000
MTEXTEND
  0
MTEXT
  5
5684
330
1A
100
AcDbEntity
  8
SUNPOU
100
AcDbMText
 10
96620.1583811401
 20
74652.99521602498
 30
0.0
 40
3.5
 41
0.0
 71
     9
 72
     5
  1

1001
ACAD
1000
MTEXTBEGIN
1070
    73
1070
     1
1070
    44
1040
1.0
1070
    74
1070
     0
1000
MTEXTEND
  0
MTEXT
  5
5685
330
1A
100
AcDbEntity
  8
SUNPOU
100
AcDbMText
 10
127746.3382137598
 20
117147.9408836823
 30
0.0
 40
10.5
 41
0.0
 71
     9
 72
     5
  1

1001
ACAD
1000
MTEXTBEGIN
1070
    73
1070
     1
1070
    44
1040
1.0
1070
    74
1070
     0
1000
MTEXTEND
  0
MTEXT
  5
5686
330
1A
100
AcDbEntity
  8
SUNPOU
100
AcDbMText
 10
129689.7454604692
 20
115346.8918038043
 30
0.0
 40
3.5
 41
0.0
 71
     9
 72
     5
  1

1001
ACAD
1000
MTEXTBEGIN
1070
    73
1070
     1
1070
    44
1040
1.0
1070
    74
1070
     0
1000
MTEXTEND
  0
MTEXT
  5
5687
330
1A
100
AcDbEntity
  8
SUNPOU
100
AcDbMText
 10
78186.60591955537
 20
62981.10603865738
 30
0.0
 40
10.5
 41
0.0
 71
     9
 72
     5
  1

1001
ACAD
1000
MTEXTBEGIN
1070
    73
1070
     1
1070
    44
1040
1.0
1070
    74
1070
     0
1000
MTEXTEND
  0
MTEXT
  5
5688
330
1A
100
AcDbEntity
  8
SUNPOU
100
AcDbMText
 10
64238.60581917939
 20
43808.70689954517
 30
0.0
 40
3.5
 41
0.0
 71
     7
 72
     5
  1

1001
ACAD
1000
MTEXTBEGIN
1070
    73
1070
     1
1070
    44
1040
1.0
1070
    74
1070
     0
1000
MTEXTEND
  0
MTEXT
  5
5689
330
1A
100
AcDbEntity
  8
SUNPOU
100
AcDbMText
 10
33428.13481137435
 20
32770.04710035564
 30
0.0
 40
10.5
 41
0.0
 71
     9
 72
     5
  1

1001
ACAD
1000
MTEXTBEGIN
1070
    73
1070
     1
1070
    44
1040
1.0
1070
    74
1070
     0
1000
MTEXTEND
  0
MTEXT
  5
568A
330
1A
100
AcDbEntity
  8
SUNPOU
100
AcDbMText
 10
52381.89352870432
 20
50236.62315284769
 30
0.0
 40
10.5
 41
0.0
 71
     9
 72
     5
  1

1001
ACAD
1000
MTEXTBEGIN
1070
    73
1070
     1
1070
    44
1040
1.0
1070
    74
1070
     0
1000
MTEXTEND
  0
MTEXT
  5
568B
330
1A
100
AcDbEntity
  8
SUNPOU
100
AcDbMText
 10
54325.30077541374
 20
48435.57407296968
 30
0.0
 40
3.5
 41
0.0
 71
     9
 72
     5
  1

1001
ACAD
1000
MTEXTBEGIN
1070
    73
1070
     1
1070
    44
1040
1.0
1070
    74
1070
     0
1000
MTEXTEND
  0
MTEXT
  5
568C
330
1A
100
AcDbEntity
  8
SUNPOU
100
AcDbMText
 10
85451.48060803343
 20
90930.51974062703
 30
0.0
 40
10.5
 41
0.0
 71
     9
 72
     5
  1

1001
ACAD
1000
MTEXTBEGIN
1070
    73
1070
     1
1070
    44
1040
1.0
1070
    74
1070
     0
1000
MTEXTEND
  0
MTEXT
  5
568D
330
1A
100
AcDbEntity
  8
SUNPOU
100
AcDbMText
 10
87394.88785474286
 20
89129.47066074901
 30
0.0
 40
3.5
 41
0.0
 71
     9
 72
     5
  1

1001
ACAD
1000
MTEXTBEGIN
1070
    73
1070
     1
1070
    44
1040
1.0
1070
    74
1070
     0
1000
MTEXTEND
  0
MTEXT
  5
568E
330
1A
100
AcDbEntity
  8
SUNPOU
100
AcDbMText
 10
35891.74831382901
 20
36763.68489560208
 30
0.0
 40
10.5
 41
0.0
 71
     9
 72
     5
  1

1001
ACAD
1000
MTEXTBEGIN
1070
    73
1070
     1
1070
    44
1040
1.0
1070
    74
1070
     0
1000
MTEXTEND
  0
MTEXT
  5
568F
330
1A
100
AcDbEntity
  8
SUNPOU
100
AcDbMText
 10
21943.74821345303
 20
17591.28575648986
 30
0.0
 40
3.5
 41
0.0
 71
     7
 72
     5
  1

1001
ACAD
1000
MTEXTBEGIN
1070
    73
1070
     1
1070
    44
1040
1.0
1070
    74
1070
     0
1000
MTEXTEND
  0
ARC
  5
13033
330
1A
100
AcDbEntity
  8
SOUZOUSEN
  6
PHANTOMX2
100
AcDbCircle
 10
-1686.028315809623
 20
1758.767973186484
 30
0.0
 40
3.920418401578042
100
AcDbArc
 50
340.6009107108703
 51
109.3990892891874
  0
LINE
  5
13034
330
1A
100
AcDbEntity
  8
ZISSEN1
  6
CENTERX2
100
AcDbLine
 10
-1687.330467646574
 20
1757.465821349532
 30
0.0
 11
-1682.330467646574
 21
1757.465821349532
 31
0.0
  0
LINE
  5
13035
330
1A
100
AcDbEntity
  8
SOUZOUSEN
  6
PHANTOMX2
100
AcDbLine
 10
-1687.080467646574
 20
1751.465821349531
 30
0.0
 11
-1684.591848540847
 21
1762.415745414732
 31
0.0
  0
LINE
  5
13036
330
1A
100
AcDbEntity
  8
ZISSEN1
100
AcDbLine
 10
-1678.787434462658
 20
1679.502455969889
 30
0.0
 11
-1720.487434462657
 21
1679.502455969889
 31
0.0
  0
LINE
  5
13037
330
1A
100
AcDbEntity
  8
ZISSEN1
100
AcDbLine
 10
-1685.187434462656
 20
1763.002454604149
 30
0.0
 11
-1683.587434462655
 21
1763.002454604149
 31
0.0
  0
LINE
  5
13038
330
1A
100
AcDbEntity
  8
ZISSEN1
100
AcDbLine
 10
-1685.187434462656
 20
1764.002454604149
 30
0.0
 11
-1683.587434462655
 21
1764.002454604149
 31
0.0
  0
LINE
  5
13039
330
1A
100
AcDbEntity
  8
ZISSEN1
100
AcDbLine
 10
-1683.587434462655
 20
1758.002455969888
 30
0.0
 11
-1685.187434462656
 21
1758.002455969888
 31
0.0
  0
LINE
  5
1303A
330
1A
100
AcDbEntity
  8
ZISSEN1
100
AcDbLine
 10
-1685.187434462656
 20
1685.502455969888
 30
0.0
 11
-1683.587434462655
 21
1685.502455969888
 31
0.0
  0
LINE
  5
1303B
330
1A
100
AcDbEntity
  8
ZISSEN1
100
AcDbLine
 10
-1685.187434462656
 20
1684.502455969888
 30
0.0
 11
-1683.587434462655
 21
1684.502455969888
 31
0.0
  0
LINE
  5
1303C
330
1A
100
AcDbEntity
  8
ZISSEN1
100
AcDbLine
 10
-1679.587434462655
 20
1759.002454885986
 30
0.0
 11
-1708.187434462655
 21
1759.002454885986
 31
0.0
  0
LINE
  5
1303D
330
1A
100
AcDbEntity
  8
ZISSEN1
100
AcDbLine
 10
-1708.187434462655
 20
1759.802454885985
 30
0.0
 11
-1679.787434462652
 21
1759.802454885985
 31
0.0
  0
LINE
  5
1303E
330
1A
100
AcDbEntity
  8
ZISSEN1
100
AcDbLine
 10
-1712.787434462656
 20
1756.002454885986
 30
0.0
 11
-1678.787434462654
 21
1756.002454885986
 31
0.0
  0
LINE
  5
1303F
330
1A
100
AcDbEntity
  8
ZISSEN1
100
AcDbLine
 10
-1678.787434462658
 20
1676.502455969889
 30
0.0
 11
-1720.687434462654
 21
1676.502455969889
 31
0.0
  0
LINE
  5
13040
330
1A
100
AcDbEntity
  8
ZISSEN1
100
AcDbLine
 10
-1694.987434462655
 20
1680.302454886004
 30
0.0
 11
-1678.787434462654
 21
1680.302454885993
 31
0.0
  0
LINE
  5
13041
330
1A
100
AcDbEntity
  8
ZISSEN1
100
AcDbLine
 10
-1678.787434462654
 20
1689.502455070057
 30
0.0
 11
-1708.287434462654
 21
1689.502455070057
 31
0.0
  0
LINE
  5
13042
330
1A
100
AcDbEntity
  8
ZISSEN1
100
AcDbLine
 10
-1679.587434462657
 20
1759.002454885986
 30
0.0
 11
-1707.187434462657
 21
1759.002454885986
 31
0.0
  0
LINE
  5
13043
330
1A
100
AcDbEntity
  8
ZISSEN1
100
AcDbLine
 10
-1707.187434462657
 20
1759.802454885985
 30
0.0
 11
-1679.787434462654
 21
1759.802454885985
 31
0.0
  0
LINE
  5
13044
330
1A
100
AcDbEntity
  8
ZISSEN1
100
AcDbLine
 10
-1712.787434462658
 20
1756.002454885986
 30
0.0
 11
-1678.787434462654
 21
1756.002454885986
 31
0.0
  0
LINE
  5
13045
330
1A
100
AcDbEntity
  8
ZISSEN1
100
AcDbLine
 10
-1685.187434462656
 20
1759.002455969888
 30
0.0
 11
-1683.587434462655
 21
1759.002455969888
 31
0.0
  0
MTEXT
  5
13046
330
1A
100
AcDbEntity
  8
ZISSEN1
100
AcDbMText
 10
-1731.796397722849
 20
1888.844646224482
 30
0.0
 40
5.0
 41
147.3727
 71
     1
 72
     5
  1
2CD-7713v1/GDB5F40  No.SS0001f90
1001
ACAD
1000
MTEXTBEGIN
1070
    73
1070
     1
1070
    44
1040
1.0
1070
    74
1070
     0
1000
MTEXTEND
1000
MTEXTBEGIN
1070
    73
1070
     1
1070
    44
1040
1.0
1070
    74
1070
     0
1000
MTEXTEND
1000
MTEXTBEGIN
1070
    73
1070
     1
1070
    44
1040
1.0
1070
    74
1070
     0
1000
MTEXTEND
1000
MTEXTBEGIN
1070
    73
1070
     1
1070
    44
1040
1.0
1070
    74
1070
     0
1000
MTEXTEND
  0
DIMENSION
  5
13047
330
1A
100
AcDbEntity
  8
SUNPOU
100
AcDbDimension
  2
*D0
 10
-1743.452620831669
 20
1759.802454885985
 30
0.0
 11
-1743.452620831669
 21
1718.152455427937
 31
0.0
 70
   160
  3
ATSUSHI
100
AcDbAlignedDimension
 13
-1720.687434462659
 23
1676.502455969889
 33
0.0
 14
-1717.387434462656
 24
1759.802454885985
 34
0.0
 50
90.0
100
AcDbRotatedDimension
1001
ACAD
1000
DSTYLE
1002
{
1070
   140
1040
3.5
1070
    40
1040
1.0
1070
   340
1005
10
1002
}
  0
LINE
  5
13048
330
1A
100
AcDbEntity
  8
ZISSEN1
100
AcDbLine
 10
-1715.787434462658
 20
1759.002455969888
 30
0.0
 11
-1715.787434462658
 21
1688.502455969882
 31
0.0
  0
LINE
  5
13049
330
1A
100
AcDbEntity
  8
ZISSEN1
100
AcDbLine
 10
-1717.387434462656
 20
1688.502455971031
 30
0.0
 11
-1717.387434462656
 21
1759.002455969888
 31
0.0
  0
LINE
  5
1304A
330
1A
100
AcDbEntity
  8
ZISSEN1
100
AcDbLine
 10
-1717.687434462657
 20
1683.502455969888
 30
0.0
 11
-1717.687434462657
 21
1759.002455969888
 31
0.0
  0
LINE
  5
1304B
330
1A
100
AcDbEntity
  8
ZISSEN1
100
AcDbLine
 10
-1720.687434462657
 20
1679.702455969889
 30
0.0
 11
-1720.687434462657
 21
1759.002455969888
 31
0.0
  0
LINE
  5
1304C
330
1A
100
AcDbEntity
  8
ZISSEN1
100
AcDbLine
 10
-1713.787434462656
 20
1755.002454885986
 30
0.0
 11
-1713.787434462656
 21
1679.502455969889
 31
0.0
  0
LINE
  5
1304D
330
1A
100
AcDbEntity
  8
ZISSEN1
100
AcDbLine
 10
-1715.787434462658
 20
1759.002455969888
 30
0.0
 11
-1715.787434462658
 21
1688.502455969882
 31
0.0
  0
LINE
  5
1304E
330
1A
100
AcDbEntity
  8
ZISSEN1
100
AcDbLine
 10
-1723.687434462655
 20
1679.502455969889
 30
0.0
 11
-1723.687434462657
 21
1759.002455969888
 31
0.0
  0
ARC
  5
1304F
330
1A
100
AcDbEntity
  8
ZISSEN1
100
AcDbCircle
 10
-1720.687434462654
 20
1679.502455969891
 30
0.0
 40
3.000000000002046
100
AcDbArc
 50
180.0000000000521
 51
269.9999999998957
  0
ARC
  5
13050
330
1A
100
AcDbEntity
  8
ZISSEN1
100
AcDbCircle
 10
-1720.512805474058
 20
1695.002455969869
 30
0.0
 40
5.174628988598421
100
AcDbArc
 50
143.708301872686
 51
216.2916981273139
  0
LINE
  5
13051
330
1A
100
AcDbEntity
  8
ZISSEN1
100
AcDbLine
 10
-1723.687434462655
 20
1698.152455969869
 30
0.0
 11
-1724.683629160748
 21
1698.065300227122
 31
0.0
  0
LINE
  5
13052
330
1A
100
AcDbEntity
  8
ZISSEN1
100
AcDbLine
 10
-1723.687434462655
 20
1691.85245596987
 30
0.0
 11
-1724.683629160748
 21
1691.939611712617
 31
0.0
  0
LINE
  5
13053
330
1A
100
AcDbEntity
  8
ZISSEN1
100
AcDbLine
 10
-1723.687434462655
 20
1691.85245596987
 30
0.0
 11
-1723.687434462655
 21
1698.152455969869
 31
0.0
  0
ARC
  5
13054
330
1A
100
AcDbEntity
  8
ZISSEN1
100
AcDbCircle
 10
-1720.512805474058
 20
1687.002455969888
 30
0.0
 40
5.174628988598421
100
AcDbArc
 50
143.708301872686
 51
216.2916981273139
  0
LINE
  5
13055
330
1A
100
AcDbEntity
  8
ZISSEN1
100
AcDbLine
 10
-1723.687434462655
 20
1690.152455969887
 30
0.0
 11
-1724.683629160748
 21
1690.06530022714
 31
0.0
  0
LINE
  5
13056
330
1A
100
AcDbEntity
  8
ZISSEN1
100
AcDbLine
 10
-1723.687434462655
 20
1683.852455969888
 30
0.0
 11
-1724.683629160748
 21
1683.939611712635
 31
0.0
  0
LINE
  5
13057
330
1A
100
AcDbEntity
  8
ZISSEN1
100
AcDbLine
 10
-1723.687434462655
 20
1683.852455969888
 30
0.0
 11
-1723.687434462655
 21
1690.152455969887
 31
0.0
  0
LINE
  5
13058
330
1A
100
AcDbEntity
  8
ZISSEN1
100
AcDbLine
 10
-1708.287434462654
 20
1689.502455070057
 30
0.0
 11
-1708.287434462656
 21
1679.502455969889
 31
0.0
  0
LINE
  5
13059
330
1A
100
AcDbEntity
  8
ZISSEN1
100
AcDbLine
 10
-1720.628855818895
 20
1679.561034613652
 30
0.0
 11
-1720.687434462657
 21
1679.702455969889
 31
0.0
  0
LINE
  5
1305A
330
1A
100
AcDbEntity
  8
ZISSEN1
100
AcDbLine
 10
-1718.687434462657
 20
1676.502455969889
 30
0.0
 11
-1718.687434462657
 21
1679.502455969889
 31
0.0
  0
LINE
  5
1305B
330
1A
100
AcDbEntity
  8
ZISSEN1
100
AcDbLine
 10
-1716.687434462657
 20
1676.502455969889
 30
0.0
 11
-1716.687434462657
 21
1679.502455969889
 31
0.0
  0
LINE
  5
1305C
330
1A
100
AcDbEntity
  8
ZISSEN1
100
AcDbLine
 10
-1720.487434462657
 20
1679.502455969889
 30
0.0
 11
-1720.628855818895
 21
1679.561034613652
 31
0.0
  0
LINE
  5
1305D
330
1A
100
AcDbEntity
  8
ZISSEN1
100
AcDbLine
 10
-1694.987434462658
 20
1679.5024559699
 30
0.0
 11
-1694.987434462658
 21
1680.3024559699
 31
0.0
  0
LINE
  5
1305E
330
1A
100
AcDbEntity
  8
ZISSEN1
100
AcDbLine
 10
-1703.937434462657
 20
1676.502455969889
 30
0.0
 11
-1703.937434462657
 21
1679.502455969889
 31
0.0
  0
LINE
  5
1305F
330
1A
100
AcDbEntity
  8
ZISSEN1
100
AcDbLine
 10
-1699.437434462657
 20
1676.502455969889
 30
0.0
 11
-1699.437434462657
 21
1679.502455969889
 31
0.0
  0
LINE
  5
13060
330
1A
100
AcDbEntity
  8
ZISSEN1
  6
BYBLOCK
100
AcDbLine
 10
-1685.187434462656
 20
1688.982455969888
 30
0.0
 11
-1708.187434462655
 21
1688.982455969888
 31
0.0
  0
LINE
  5
13061
330
1A
100
AcDbEntity
  8
ZISSEN1
100
AcDbLine
 10
-1708.287434462654
 20
1689.002455969888
 30
0.0
 11
-1708.187434462655
 21
1689.002455969888
 31
0.0
  0
LINE
  5
13062
330
1A
100
AcDbEntity
  8
ZISSEN1
100
AcDbLine
 10
-1708.187434462655
 20
1688.002455969888
 30
0.0
 11
-1708.187434462655
 21
1689.502455070057
 31
0.0
  0
LINE
  5
13063
330
1A
100
AcDbEntity
  8
ZISSEN1
100
AcDbLine
 10
-1708.287434462654
 20
1688.002455969888
 30
0.0
 11
-1708.187434462655
 21
1688.002455969888
 31
0.0
  0
LINE
  5
13064
330
1A
100
AcDbEntity
  8
ZISSEN1
100
AcDbLine
 10
-1714.787434462658
 20
1691.002455969888
 30
0.0
 11
-1713.787434462658
 21
1691.002455969888
 31
0.0
  0
LINE
  5
13065
330
1A
100
AcDbEntity
  8
ZISSEN1
100
AcDbLine
 10
-1714.787434462658
 20
1688.502455969888
 30
0.0
 11
-1714.787434462658
 21
1693.502455969888
 31
0.0
  0
LINE
  5
13066
330
1A
100
AcDbEntity
  8
ZISSEN1
100
AcDbLine
 10
-1715.787434462658
 20
1693.502455969888
 30
0.0
 11
-1713.787434462658
 21
1693.502455969888
 31
0.0
  0
LINE
  5
13067
330
1A
100
AcDbEntity
  8
ZISSEN1
100
AcDbLine
 10
-1715.787434462658
 20
1688.502455969888
 30
0.0
 11
-1713.787434462658
 21
1688.502455969888
 31
0.0
  0
LINE
  5
13068
330
1A
100
AcDbEntity
  8
ZISSEN1
100
AcDbLine
 10
-1717.387434462656
 20
1689.502455969888
 30
0.0
 11
-1715.787434462658
 21
1689.502455969888
 31
0.0
  0
LINE
  5
13069
330
1A
100
AcDbEntity
  8
ZISSEN1
100
AcDbLine
 10
-1717.387434462656
 20
1688.502455969882
 30
0.0
 11
-1715.787434462658
 21
1688.502455969882
 31
0.0
  0
LINE
  5
1306A
330
1A
100
AcDbEntity
  8
ZISSEN1
100
AcDbLine
 10
-1720.687434462657
 20
1684.502455969888
 30
0.0
 11
-1717.687434462657
 21
1684.502455969888
 31
0.0
  0
LINE
  5
1306B
330
1A
100
AcDbEntity
  8
ZISSEN1
100
AcDbLine
 10
-1720.687434462657
 20
1683.502455969888
 30
0.0
 11
-1717.687434462657
 21
1683.502455969888
 31
0.0
  0
LINE
  5
1306C
330
1A
100
AcDbEntity
  8
ZISSEN1
100
AcDbLine
 10
-1685.187434462656
 20
1689.502455070057
 30
0.0
 11
-1685.187434462656
 21
1684.502455969888
 31
0.0
  0
ARC
  5
1306E
330
1A
100
AcDbEntity
  8
SOUZOUSEN
  6
PHANTOMX2
100
AcDbCircle
 10
-1721.394792492729
 20
1774.819504950154
 30
0.0
 40
0.9831583739580647
100
AcDbArc
 50
359.5928534411129
 51
90.98297867462425
  0
DIMENSION
  5
1306F
330
1A
100
AcDbEntity
  8
SUNPOU
100
AcDbDimension
  2
*D1
 10
-1743.452620831669
 20
1759.802454885985
 30
0.0
 11
-1743.452620831669
 21
1777.384138117759
 31
0.0
 70
   160
  1
(35)
  3
ATSUSHI
100
AcDbAlignedDimension
 13
-1708.171534163605
 23
1794.805821349532
 33
0.0
 14
-1726.987434462655
 24
1759.802454885985
 34
0.0
 50
90.0
100
AcDbRotatedDimension
1001
ACAD
1000
DSTYLE
1002
{
1070
   140
1040
3.5
1070
    40
1040
1.0
1070
   340
1005
10
1002
}
  0
LINE
  5
13070
330
1A
100
AcDbEntity
  8
SOUZOUSEN
  6
PHANTOMX2
100
AcDbLine
 10
-1689.830467646574
 20
1786.965821349532
 30
0.0
 11
-1687.330467646574
 21
1774.965821349532
 31
0.0
  0
LINE
  5
13071
330
1A
100
AcDbEntity
  8
SOUZOUSEN
  6
PHANTOMX2
100
AcDbLine
 10
-1694.830467646574
 20
1786.965821349532
 30
0.0
 11
-1697.330467646574
 21
1774.965821349532
 31
0.0
  0
LINE
  5
13072
330
1A
100
AcDbEntity
  8
ZISSEN1
100
AcDbLine
 10
-1717.387434462656
 20
1763.802455969889
 30
0.0
 11
-1725.287434462656
 21
1763.802455969889
 31
0.0
  0
LINE
  5
13073
330
1A
100
AcDbEntity
  8
SOUZOUSEN
  6
PHANTOMX2
100
AcDbLine
 10
-1722.211658941407
 20
1774.212518638361
 30
0.0
 11
-1724.777168261512
 21
1774.212518638361
 31
0.0
  0
LINE
  5
13074
330
1A
100
AcDbEntity
  8
SOUZOUSEN
  6
PHANTOMX2
100
AcDbLine
 10
-1724.487773514456
 20
1769.221424341414
 30
0.0
 11
-1717.537846411627
 21
1769.221414175431
 31
0.0
  0
LINE
  5
13075
330
1A
100
AcDbEntity
  8
ZISSEN1
100
AcDbLine
 10
-1722.593092166391
 20
1759.788806366368
 30
0.0
 11
-1723.993092166391
 21
1759.788806366368
 31
0.0
  0
LINE
  5
13076
330
1A
100
AcDbEntity
  8
ZISSEN1
100
AcDbLine
 10
-1720.687434462657
 20
1759.002455969888
 30
0.0
 11
-1723.687434462657
 21
1759.002455969888
 31
0.0
  0
LINE
  5
13077
330
1A
100
AcDbEntity
  8
ZISSEN1
100
AcDbLine
 10
-1720.687434462657
 20
1759.002455969888
 30
0.0
 11
-1723.687434462657
 21
1759.002455969888
 31
0.0
  0
LINE
  5
13078
330
1A
100
AcDbEntity
  8
ZISSEN1
100
AcDbLine
 10
-1720.687434462657
 20
1758.002455969888
 30
0.0
 11
-1723.687434462657
 21
1758.002455969888
 31
0.0
  0
LINE
  5
13079
330
1A
100
AcDbEntity
  8
ZISSEN1
100
AcDbLine
 10
-1720.687434462657
 20
1759.002455969888
 30
0.0
 11
-1723.687434462657
 21
1759.002455969888
 31
0.0
  0
LINE
  5
1307A
330
1A
100
AcDbEntity
  8
ZISSEN1
  6
PHANTOMX2
100
AcDbLine
 10
-1725.287434462656
 20
1753.602455969889
 30
0.0
 11
-1723.666986382431
 21
1753.602455969889
 31
0.0
  0
LINE
  5
1307B
330
1A
100
AcDbEntity
  8
ZISSEN1
100
AcDbLine
 10
-1725.287434462656
 20
1763.802455969889
 30
0.0
 11
-1725.287434462656
 21
1753.602455969889
 31
0.0
  0
LINE
  5
1307C
330
1A
100
AcDbEntity
  8
SOUZOUSEN
  6
PHANTOMX2
100
AcDbLine
 10
-1724.487778495787
 20
1769.221414175431
 30
0.0
 11
-1724.487778495787
 21
1763.221414175431
 31
0.0
  0
LINE
  5
1307D
330
1A
100
AcDbEntity
  8
SOUZOUSEN
  6
PHANTOMX2
100
AcDbLine
 10
-1726.937778495786
 20
1768.721414175431
 30
0.0
 11
-1724.977778495785
 21
1768.721414175431
 31
0.0
  0
LINE
  5
1307E
330
1A
100
AcDbEntity
  8
SOUZOUSEN
  6
PHANTOMX2
100
AcDbLine
 10
-1726.937778495786
 20
1767.221414175431
 30
0.0
 11
-1726.937778495786
 21
1768.721414175431
 31
0.0
  0
LINE
  5
1307F
330
1A
100
AcDbEntity
  8
SOUZOUSEN
  6
PHANTOMX2
100
AcDbLine
 10
-1726.437778495786
 20
1767.221414175431
 30
0.0
 11
-1726.937778495786
 21
1767.221414175431
 31
0.0
  0
LINE
  5
13080
330
1A
100
AcDbEntity
  8
SOUZOUSEN
  6
PHANTOMX2
100
AcDbLine
 10
-1726.437778495784
 20
1755.92141417543
 30
0.0
 11
-1726.437778495786
 21
1767.221414175431
 31
0.0
  0
LINE
  5
13081
330
1A
100
AcDbEntity
  8
SOUZOUSEN
  6
PHANTOMX2
100
AcDbLine
 10
-1725.43429424186
 20
1755.92141417543
 30
0.0
 11
-1726.437778495784
 21
1755.92141417543
 31
0.0
  0
LINE
  5
13082
330
1A
100
AcDbEntity
  8
SOUZOUSEN
  6
PHANTOMX2
100
AcDbLine
 10
-1724.487778495787
 20
1769.221414175431
 30
0.0
 11
-1726.437778495786
 21
1765.241822338697
 31
0.0
  0
LINE
  5
13083
330
1A
100
AcDbEntity
  8
ZISSEN1
100
AcDbLine
 10
-1725.593092166391
 20
1759.788806366368
 30
0.0
 11
-1723.993092166391
 21
1759.788806366368
 31
0.0
  0
ARC
  5
13084
330
1A
100
AcDbEntity
  8
ZISSEN1
100
AcDbCircle
 10
-1720.512805474059
 20
1751.502455969888
 30
0.0
 40
5.174628988598421
100
AcDbArc
 50
143.708301872686
 51
216.2916981273139
  0
LINE
  5
13085
330
1A
100
AcDbEntity
  8
ZISSEN1
100
AcDbLine
 10
-1723.687434462657
 20
1754.652455969888
 30
0.0
 11
-1724.68362916075
 21
1754.565300227141
 31
0.0
  0
LINE
  5
13086
330
1A
100
AcDbEntity
  8
ZISSEN1
100
AcDbLine
 10
-1723.687434462657
 20
1748.352455969889
 30
0.0
 11
-1724.68362916075
 21
1748.439611712636
 31
0.0
  0
LINE
  5
13087
330
1A
100
AcDbEntity
  8
ZISSEN1
100
AcDbLine
 10
-1723.687434462657
 20
1748.352455969889
 30
0.0
 11
-1723.687434462657
 21
1754.652455969888
 31
0.0
  0
LINE
  5
13088
330
1A
100
AcDbEntity
  8
SOUZOUSEN
  6
PHANTOMX2
100
AcDbLine
 10
-1685.430467646575
 20
1754.965821349532
 30
0.0
 11
-1685.430467646575
 21
1737.365821349532
 31
0.0
  0
LINE
  5
13089
330
1A
100
AcDbEntity
  8
SOUZOUSEN
  6
PHANTOMX2
100
AcDbLine
 10
-1697.330467646574
 20
1754.965821349532
 30
0.0
 11
-1697.330467646574
 21
1737.365821349532
 31
0.0
  0
LINE
  5
1308A
330
1A
100
AcDbEntity
  8
SOUZOUSEN
  6
PHANTOMX2
100
AcDbLine
 10
-1685.430467646575
 20
1737.365821349532
 30
0.0
 11
-1697.330467646574
 21
1737.365821349532
 31
0.0
  0
LINE
  5
1308B
330
1A
100
AcDbEntity
  8
SOUZOUSEN
  6
PHANTOMX2
100
AcDbLine
 10
-1708.102676242247
 20
1768.571458384426
 30
0.0
 11
-1701.152744158088
 21
1768.571458384426
 31
0.0
  0
LINE
  5
1308C
330
1A
100
AcDbEntity
  8
ZISSEN1
100
AcDbLine
 10
-1700.287434462656
 20
1763.2024561342
 30
0.0
 11
-1708.187434462655
 21
1763.202456134201
 31
0.0
  0
LINE
  5
1308D
330
1A
100
AcDbEntity
  8
ZISSEN1
  6
BYBLOCK
100
AcDbLine
 10
-1685.187434462656
 20
1756.002455969888
 30
0.0
 11
-1708.187434462655
 21
1756.002455969888
 31
0.0
  0
LINE
  5
1308E
330
1A
100
AcDbEntity
  8
SOUZOUSEN
  6
PHANTOMX2
100
AcDbLine
 10
-1708.102676242247
 20
1768.571458384426
 30
0.0
 11
-1708.102676242247
 21
1766.771458384425
 31
0.0
  0
LINE
  5
1308F
330
1A
100
AcDbEntity
  8
SOUZOUSEN
  6
PHANTOMX2
100
AcDbLine
 10
-1708.102676242247
 20
1766.771458384425
 30
0.0
 11
-1707.452744158089
 21
1766.771458384425
 31
0.0
  0
LINE
  5
13090
330
1A
100
AcDbEntity
  8
SOUZOUSEN
  6
PHANTOMX2
100
AcDbLine
 10
-1707.452744158089
 20
1766.771458384425
 30
0.0
 11
-1707.452744158089
 21
1762.571458384426
 31
0.0
  0
LINE
  5
13091
330
1A
100
AcDbEntity
  8
SOUZOUSEN
  6
PHANTOMX2
100
AcDbLine
 10
-1717.537846411627
 20
1767.42141417543
 30
0.0
 11
-1718.187778495786
 21
1767.42141417543
 31
0.0
  0
LINE
  5
13092
330
1A
100
AcDbEntity
  8
SOUZOUSEN
  6
PHANTOMX2
100
AcDbLine
 10
-1717.537846411627
 20
1769.221414175431
 30
0.0
 11
-1717.537846411627
 21
1767.42141417543
 31
0.0
  0
LINE
  5
13093
330
1A
100
AcDbEntity
  8
SOUZOUSEN
  6
PHANTOMX2
100
AcDbLine
 10
-1718.187778495786
 20
1767.42141417543
 30
0.0
 11
-1718.187778495786
 21
1763.221414175431
 31
0.0
  0
LINE
  5
13094
330
1A
100
AcDbEntity
  8
SOUZOUSEN
  6
PHANTOMX2
100
AcDbLine
 10
-1720.411658941407
 20
1769.212518638361
 30
0.0
 11
-1720.411658941407
 21
1774.812518638361
 31
0.0
  0
LINE
  5
13095
330
1A
100
AcDbEntity
  8
SOUZOUSEN
  6
PHANTOMX2
100
AcDbLine
 10
-1722.011658941408
 20
1769.212518638361
 30
0.0
 11
-1722.011658941406
 21
1774.01251863836
 31
0.0
  0
LINE
  5
13096
330
1A
100
AcDbEntity
  8
ZISSEN1
100
AcDbLine
 10
-1717.387434462656
 20
1763.802455969889
 30
0.0
 11
-1717.387434462656
 21
1759.802454885985
 31
0.0
  0
LINE
  5
13097
330
1A
100
AcDbEntity
  8
ZISSEN1
100
AcDbLine
 10
-1709.787434462658
 20
1759.502455969888
 30
0.0
 11
-1708.187434462655
 21
1759.502455969888
 31
0.0
  0
LINE
  5
13098
330
1A
100
AcDbEntity
  8
ZISSEN1
100
AcDbLine
 10
-1709.787434462658
 20
1760.502455969888
 30
0.0
 11
-1708.187434462655
 21
1760.502455969888
 31
0.0
  0
LINE
  5
13099
330
1A
100
AcDbEntity
  8
ZISSEN1
100
AcDbLine
 10
-1709.787434462658
 20
1761.502455969888
 30
0.0
 11
-1708.187434462655
 21
1761.502455969888
 31
0.0
  0
LINE
  5
1309A
330
1A
100
AcDbEntity
  8
ZISSEN1
100
AcDbLine
 10
-1709.787434462658
 20
1762.502455969888
 30
0.0
 11
-1708.187434462655
 21
1762.502455969888
 31
0.0
  0
LINE
  5
1309B
330
1A
100
AcDbEntity
  8
ZISSEN1
100
AcDbLine
 10
-1709.787434462658
 20
1756.002455969887
 30
0.0
 11
-1709.787434462658
 21
1762.502455969888
 31
0.0
  0
LINE
  5
1309C
330
1A
100
AcDbEntity
  8
ZISSEN1
100
AcDbLine
 10
-1708.187434462655
 20
1763.202456134201
 30
0.0
 11
-1708.187434462655
 21
1756.002455969889
 31
0.0
  0
LINE
  5
1309D
330
1A
100
AcDbEntity
  8
ZISSEN1
100
AcDbLine
 10
-1717.387434462656
 20
1758.002455969887
 30
0.0
 11
-1715.787434462658
 21
1758.002455969887
 31
0.0
  0
LINE
  5
1309E
330
1A
100
AcDbEntity
  8
ZISSEN1
100
AcDbLine
 10
-1717.387434462656
 20
1759.002455969888
 30
0.0
 11
-1715.787434462658
 21
1759.002455969888
 31
0.0
  0
LINE
  5
1309F
330
1A
100
AcDbEntity
  8
ZISSEN1
100
AcDbLine
 10
-1717.687434462657
 20
1759.002455969888
 30
0.0
 11
-1717.387434462656
 21
1759.002455969888
 31
0.0
  0
LINE
  5
130A0
330
1A
100
AcDbEntity
  8
ZISSEN1
100
AcDbLine
 10
-1717.687434462657
 20
1758.002455969887
 30
0.0
 11
-1720.687434462657
 21
1758.002455969887
 31
0.0
  0
LINE
  5
130A1
330
1A
100
AcDbEntity
  8
ZISSEN1
100
AcDbLine
 10
-1717.687434462657
 20
1759.002455969888
 30
0.0
 11
-1720.687434462657
 21
1759.002455969888
 31
0.0
  0
LINE
  5
130A2
330
1A
100
AcDbEntity
  8
ZISSEN1
100
AcDbLine
 10
-1711.237434462658
 20
1759.002454885986
 30
0.0
 11
-1711.237434462658
 21
1759.802454885985
 31
0.0
  0
LINE
  5
130A3
330
1A
100
AcDbEntity
  8
ZISSEN1
100
AcDbLine
 10
-1710.237434462658
 20
1759.002454885986
 30
0.0
 11
-1710.237434462658
 21
1759.802454885985
 31
0.0
  0
LINE
  5
130A4
330
1A
100
AcDbEntity
  8
ZISSEN1
100
AcDbLine
 10
-1723.187434462655
 20
1759.002454885986
 30
0.0
 11
-1723.187434462655
 21
1759.802454885985
 31
0.0
  0
LINE
  5
130A5
330
1A
100
AcDbEntity
  8
ZISSEN1
100
AcDbLine
 10
-1722.187434462655
 20
1759.002454885986
 30
0.0
 11
-1722.187434462655
 21
1759.802454885985
 31
0.0
  0
LINE
  5
130A6
330
1A
100
AcDbEntity
  8
ZISSEN1
100
AcDbLine
 10
-1707.737434462655
 20
1759.002454885986
 30
0.0
 11
-1707.737434462655
 21
1759.802454885987
 31
0.0
  0
LINE
  5
130A7
330
1A
100
AcDbEntity
  8
ZISSEN1
100
AcDbLine
 10
-1709.787434462658
 20
1759.802454885985
 30
0.0
 11
-1723.187434462655
 21
1759.802454885985
 31
0.0
  0
LINE
  5
130A8
330
1A
100
AcDbEntity
  8
ZISSEN1
100
AcDbLine
 10
-1709.787434462658
 20
1759.002454885986
 30
0.0
 11
-1723.187434462655
 21
1759.002454885986
 31
0.0
  0
LINE
  5
130A9
330
1A
100
AcDbEntity
  8
ZISSEN1
100
AcDbLine
 10
-1706.737434462655
 20
1759.002454885986
 30
0.0
 11
-1706.737434462655
 21
1759.802454885987
 31
0.0
  0
LINE
  5
130AA
330
1A
100
AcDbEntity
  8
ZISSEN1
100
AcDbLine
 10
-1713.787434462656
 20
1755.002454885986
 30
0.0
 11
-1712.787434462656
 21
1756.002454885986
 31
0.0
  0
LINE
  5
130AB
330
1A
100
AcDbEntity
  8
ZISSEN1
  6
BYBLOCK
100
AcDbLine
 10
-1715.787434462658
 20
1757.302455969887
 30
0.0
 11
-1715.787434462658
 21
1758.502455969887
 31
0.0
  0
LINE
  5
130AC
330
1A
100
AcDbEntity
  8
ZISSEN1
  6
BYBLOCK
100
AcDbLine
 10
-1715.787434462658
 20
1753.502455969887
 30
0.0
 11
-1715.787434462658
 21
1754.702455969887
 31
0.0
  0
LINE
  5
130AD
330
1A
100
AcDbEntity
  8
ZISSEN1
100
AcDbLine
 10
-1717.387434462656
 20
1759.002455969888
 30
0.0
 11
-1715.787434462658
 21
1759.002455969888
 31
0.0
  0
LINE
  5
130AE
330
1A
100
AcDbEntity
  8
ZISSEN1
100
AcDbLine
 10
-1717.687434462657
 20
1759.002455969888
 30
0.0
 11
-1717.387434462656
 21
1759.002455969888
 31
0.0
  0
LINE
  5
130AF
330
1A
100
AcDbEntity
  8
ZISSEN1
100
AcDbLine
 10
-1717.687434462657
 20
1759.002455969888
 30
0.0
 11
-1720.687434462657
 21
1759.002455969888
 31
0.0
  0
LINE
  5
130B0
330
1A
100
AcDbEntity
  8
ZISSEN1
  6
PHANTOMX2
100
AcDbLine
 10
-1699.202744158089
 20
1755.971458384425
 30
0.0
 11
-1700.206228412015
 21
1755.971458384425
 31
0.0
  0
LINE
  5
130B1
330
1A
100
AcDbEntity
  8
SOUZOUSEN
  6
PHANTOMX2
100
AcDbLine
 10
-1698.702744158089
 20
1766.571458384426
 30
0.0
 11
-1699.202744158089
 21
1766.571458384426
 31
0.0
  0
LINE
  5
130B2
330
1A
100
AcDbEntity
  8
SOUZOUSEN
  6
PHANTOMX2
100
AcDbLine
 10
-1699.202744158089
 20
1766.571458384426
 30
0.0
 11
-1699.202744158089
 21
1755.271458384425
 31
0.0
  0
LINE
  5
130B3
330
1A
100
AcDbEntity
  8
SOUZOUSEN
  6
PHANTOMX2
100
AcDbLine
 10
-1698.702744158089
 20
1768.071458384426
 30
0.0
 11
-1698.702744158089
 21
1766.571458384426
 31
0.0
  0
LINE
  5
130B4
330
1A
100
AcDbEntity
  8
SOUZOUSEN
  6
PHANTOMX2
100
AcDbLine
 10
-1700.662744158088
 20
1768.071458384426
 30
0.0
 11
-1698.702744158089
 21
1768.071458384426
 31
0.0
  0
LINE
  5
130B5
330
1A
100
AcDbEntity
  8
SOUZOUSEN
  6
PHANTOMX2
100
AcDbLine
 10
-1701.152744158088
 20
1768.571458384426
 30
0.0
 11
-1699.202744158089
 21
1764.591866547691
 31
0.0
  0
LINE
  5
130B6
330
1A
100
AcDbEntity
  8
SOUZOUSEN
  6
PHANTOMX2
100
AcDbLine
 10
-1701.152744158088
 20
1762.571458384426
 30
0.0
 11
-1701.152744158088
 21
1768.571468550416
 31
0.0
  0
LINE
  5
130B7
330
1A
100
AcDbEntity
  8
ZISSEN1
100
AcDbLine
 10
-1700.471394842144
 20
1759.785187616607
 30
0.0
 11
-1702.071394842144
 21
1759.785187616607
 31
0.0
  0
LINE
  5
130B8
330
1A
100
AcDbEntity
  8
ZISSEN1
100
AcDbLine
 10
-1703.471394842144
 20
1759.785187616607
 30
0.0
 11
-1702.071394842144
 21
1759.785187616607
 31
0.0
  0
LINE
  5
130B9
330
1A
100
AcDbEntity
  8
SOUZOUSEN
  6
PHANTOMX2
100
AcDbLine
 10
-1696.080467646574
 20
1766.965821349532
 30
0.0
 11
-1688.580467646574
 21
1766.965821349532
 31
0.0
  0
LINE
  5
130BA
330
1A
100
AcDbEntity
  8
SOUZOUSEN
  6
PHANTOMX2
100
AcDbLine
 10
-1687.330467646574
 20
1774.965821349532
 30
0.0
 11
-1697.330467646574
 21
1774.965821349532
 31
0.0
  0
LINE
  5
130BB
330
1A
100
AcDbEntity
  8
SOUZOUSEN
  6
PHANTOMX2
100
AcDbLine
 10
-1687.330467646574
 20
1774.965821349532
 30
0.0
 11
-1687.330467646574
 21
1763.765821349532
 31
0.0
  0
LINE
  5
130BC
330
1A
100
AcDbEntity
  8
SOUZOUSEN
  6
PHANTOMX2
100
AcDbLine
 10
-1697.330467646574
 20
1774.965821349532
 30
0.0
 11
-1697.330467646574
 21
1763.765821349532
 31
0.0
  0
LINE
  5
130BD
330
1A
100
AcDbEntity
  8
SOUZOUSEN
  6
PHANTOMX2
100
AcDbLine
 10
-1696.080467646574
 20
1758.965821349532
 30
0.0
 11
-1696.080467646574
 21
1766.965821349532
 31
0.0
  0
LINE
  5
130BE
330
1A
100
AcDbEntity
  8
SOUZOUSEN
  6
PHANTOMX2
100
AcDbLine
 10
-1697.330467646574
 20
1757.465821349532
 30
0.0
 11
-1697.330467646574
 21
1763.765821349532
 31
0.0
  0
LINE
  5
130BF
330
1A
100
AcDbEntity
  8
ZISSEN1
100
AcDbLine
 10
-1695.180467646574
 20
1758.965821349532
 30
0.0
 11
-1696.080467646574
 21
1758.965821349532
 31
0.0
  0
LINE
  5
130C0
330
1A
100
AcDbEntity
  8
SOUZOUSEN
  6
PHANTOMX2
100
AcDbLine
 10
-1695.180467646574
 20
1745.465821349532
 30
0.0
 11
-1695.180467646574
 21
1758.965821349532
 31
0.0
  0
LINE
  5
130C1
330
1A
100
AcDbEntity
  8
SOUZOUSEN
  6
PHANTOMX2
100
AcDbLine
 10
-1688.580467646574
 20
1745.465821349532
 30
0.0
 11
-1688.580467646574
 21
1766.965821349532
 31
0.0
  0
LINE
  5
130C2
330
1A
100
AcDbEntity
  8
SOUZOUSEN
  6
PHANTOMX2
100
AcDbLine
 10
-1687.330467646574
 20
1757.465821349532
 30
0.0
 11
-1687.330467646574
 21
1763.765821349532
 31
0.0
  0
LINE
  5
130C3
330
1A
100
AcDbEntity
  8
SOUZOUSEN
  6
PHANTOMX2
100
AcDbLine
 10
-1687.330467646574
 20
1757.465821349532
 30
0.0
 11
-1697.330467646574
 21
1757.465821349532
 31
0.0
  0
LINE
  5
130C4
330
1A
100
AcDbEntity
  8
SOUZOUSEN
  6
PHANTOMX2
100
AcDbLine
 10
-1688.080467646574
 20
1752.465821349531
 30
0.0
 11
-1685.759257061293
 21
1762.679147924768
 31
0.0
  0
LINE
  5
130C5
330
1A
100
AcDbEntity
  8
SOUZOUSEN
  6
PHANTOMX2
100
AcDbLine
 10
-1688.080467646574
 20
1752.465821349531
 30
0.0
 11
-1688.080467646574
 21
1750.465821349531
 31
0.0
  0
LINE
  5
130C6
330
1A
100
AcDbEntity
  8
SOUZOUSEN
  6
PHANTOMX2
100
AcDbLine
 10
-1687.080467646574
 20
1750.465821349531
 30
0.0
 11
-1688.580467646574
 21
1750.465821349531
 31
0.0
  0
LINE
  5
130C7
330
1A
100
AcDbEntity
  8
SOUZOUSEN
  6
PHANTOMX2
100
AcDbLine
 10
-1687.080467646574
 20
1744.465821349532
 30
0.0
 11
-1687.080467646574
 21
1751.465821349532
 31
0.0
  0
LINE
  5
130C8
330
1A
100
AcDbEntity
  8
SOUZOUSEN
100
AcDbLine
 10
-1688.580467646574
 20
1757.465821349532
 30
0.0
 11
-1688.580467646574
 21
1745.465821349532
 31
0.0
  0
LINE
  5
130C9
330
1A
100
AcDbEntity
  8
SOUZOUSEN
100
AcDbLine
 10
-1690.080467646574
 20
1744.465821349532
 30
0.0
 11
-1690.080467646574
 21
1745.465821349532
 31
0.0
  0
LINE
  5
130CA
330
1A
100
AcDbEntity
  8
SOUZOUSEN
  6
PHANTOMX2
100
AcDbLine
 10
-1690.080467646574
 20
1744.465821349532
 30
0.0
 11
-1690.080467646574
 21
1745.465821349532
 31
0.0
  0
LINE
  5
130CB
330
1A
100
AcDbEntity
  8
SOUZOUSEN
  6
PHANTOMX2
100
AcDbLine
 10
-1687.080467646574
 20
1744.465821349532
 30
0.0
 11
-1690.080467646574
 21
1744.465821349532
 31
0.0
  0
LINE
  5
130CC
330
1A
100
AcDbEntity
  8
SOUZOUSEN
  6
PHANTOMX2
100
AcDbLine
 10
-1688.580467646574
 20
1745.465821349532
 30
0.0
 11
-1695.180467646574
 21
1745.465821349532
 31
0.0
  0
LINE
  5
130CD
330
1A
100
AcDbEntity
  8
SOUZOUSEN
  6
PHANTOMX2
100
AcDbLine
 10
-1697.330467646574
 20
1754.965821349532
 30
0.0
 11
-1685.430467646575
 21
1754.965821349532
 31
0.0
  0
LINE
  5
130CE
330
1A
100
AcDbEntity
  8
ZISSEN1
100
AcDbLine
 10
-1692.887434462655
 20
1759.002454885986
 30
0.0
 11
-1692.887434462655
 21
1756.002454885986
 31
0.0
  0
LINE
  5
130CF
330
1A
100
AcDbEntity
  8
ZISSEN1
100
AcDbLine
 10
-1685.187434462656
 20
1764.002454604149
 30
0.0
 11
-1692.887434462655
 21
1764.002455969889
 31
0.0
  0
LINE
  5
130D0
330
1A
100
AcDbEntity
  8
ZISSEN1
100
AcDbLine
 10
-1692.887434462655
 20
1764.002455969889
 30
0.0
 11
-1692.887434462655
 21
1759.802454885986
 31
0.0
  0
LINE
  5
130D1
330
1A
100
AcDbEntity
  8
ZISSEN1
100
AcDbLine
 10
-1700.287434462656
 20
1759.802454885985
 30
0.0
 11
-1700.287434462656
 21
1763.2024561342
 31
0.0
  0
LINE
  5
130D2
330
1A
100
AcDbEntity
  8
ZISSEN1
100
AcDbLine
 10
-1700.287434462656
 20
1756.002454885986
 30
0.0
 11
-1700.287434462656
 21
1759.002454885986
 31
0.0
  0
LINE
  5
130D3
330
1A
100
AcDbEntity
  8
ZISSEN1
100
AcDbLine
 10
-1685.187434462656
 20
1759.802454885985
 30
0.0
 11
-1685.187434462656
 21
1764.002454604149
 31
0.0
  0
LINE
  5
130D4
330
1A
100
AcDbEntity
  8
ZISSEN1
100
AcDbLine
 10
-1685.187434462656
 20
1756.002455969889
 30
0.0
 11
-1685.187434462656
 21
1758.002455969888
 31
0.0
  0
LINE
  5
130D5
330
1A
100
AcDbEntity
  8
ZISSEN1
100
AcDbLine
 10
-1685.187434462656
 20
1758.002455969888
 30
0.0
 11
-1685.187434462656
 21
1759.002455969888
 31
0.0
  0
LINE
  5
130D6
330
1A
100
AcDbEntity
  8
SOUZOUSEN
  6
PHANTOMX2
100
AcDbLine
 10
-1721.411658941104
 20
1775.802518638362
 30
0.0
 11
-1724.777168261512
 21
1775.802518638362
 31
0.0
  0
LINE
  5
130D7
330
1A
100
AcDbEntity
  8
SOUZOUSEN
  6
PHANTOMX2
100
AcDbLine
 10
-1691.830467646574
 20
1794.805821349532
 30
0.0
 11
-1708.171534163605
 21
1794.805821349532
 31
0.0
  0
LINE
  5
130D8
330
1A
100
AcDbEntity
  8
SOUZOUSEN
  6
PHANTOMX2
100
AcDbLine
 10
-1695.830467646574
 20
1789.805821349532
 30
0.0
 11
-1708.171534163605
 21
1789.805821349532
 31
0.0
  0
LINE
  5
130D9
330
1A
100
AcDbEntity
  8
SOUZOUSEN
  6
PHANTOMX2
100
AcDbLine
 10
-1689.830467646574
 20
1786.965821349532
 30
0.0
 11
-1689.830467646573
 21
1792.805821349533
 31
0.0
  0
ARC
  5
130DA
330
1A
100
AcDbEntity
  8
SOUZOUSEN
  6
PHANTOMX2
100
AcDbCircle
 10
-1691.830467646576
 20
1792.805821349529
 30
0.0
 40
2.000000000002739
100
AcDbArc
 50
0.0000000001042204
 51
89.99999999989578
  0
ARC
  5
130DB
330
1A
100
AcDbEntity
  8
SOUZOUSEN
  6
PHANTOMX2
100
AcDbCircle
 10
-1695.830467646572
 20
1788.805821349533
 30
0.0
 40
0.9999999999991082
100
AcDbArc
 50
359.9999999999478
 51
90.00000000010421
  0
LINE
  5
130DC
330
1A
100
AcDbEntity
  8
SOUZOUSEN
  6
PHANTOMX2
100
AcDbLine
 10
-1694.830467646574
 20
1786.965821349532
 30
0.0
 11
-1694.830467646574
 21
1788.805821349533
 31
0.0
  0
LINE
  5
130DD
330
1A
100
AcDbEntity
  8
SOUZOUSEN
  6
PHANTOMX2
100
AcDbLine
 10
-1694.830467646574
 20
1786.965821349532
 30
0.0
 11
-1689.830467646574
 21
1786.965821349532
 31
0.0
  0
DIMENSION
  5
130DE
330
1A
100
AcDbEntity
  8
SUNPOU
100
AcDbDimension
  2
*D2
 10
-1453.501383896383
 20
1825.537258119739
 30
0.0
 11
-1455.751383896383
 21
1848.387258119738
 31
0.0
 70
    32
  3
ATSUSHI
100
AcDbAlignedDimension
 13
-1503.187434462659
 23
1871.237258119738
 33
0.0
 14
-1574.687434462657
 24
1825.537258119739
 34
0.0
 50
90.0
100
AcDbRotatedDimension
1001
ACAD
1000
DSTYLE
1002
{
1070
   140
1040
3.5
1070
    40
1040
1.0
1070
   340
1005
10
1002
}
  0
DIMENSION
  5
130DF
330
1A
100
AcDbEntity
  8
SUNPOU
100
AcDbDimension
  2
*D3
 10
-1498.687434462659
 20
1808.238862692293
 30
0.0
 11
-1578.687434462659
 21
1810.488862692293
 31
0.0
 70
    32
  3
ATSUSHI
100
AcDbAlignedDimension
 13
-1658.687434462659
 23
1846.987258119738
 33
0.0
 14
-1498.687434462659
 24
1846.987258119738
 34
0.0
100
AcDbRotatedDimension
1001
ACAD
1000
DSTYLE
1002
{
1070
   140
1040
3.5
1070
    40
1040
1.0
1070
   340
1005
10
1002
}
  0
DIMENSION
  5
130E0
330
1A
100
AcDbEntity
  8
SUNPOU
100
AcDbDimension
  2
*D4
 10
-1672.662670341144
 20
1846.987258119738
 30
0.0
 11
-1674.912670341145
 21
1838.987258119737
 31
0.0
 70
    32
  3
ATSUSHI
100
AcDbAlignedDimension
 13
-1663.687434462659
 23
1851.487258119738
 33
0.0
 14
-1663.687434462659
 24
1846.987258119738
 34
0.0
 50
90.0
100
AcDbRotatedDimension
1001
ACAD
1000
DSTYLE
1002
{
1070
   140
1040
3.5
1070
    40
1040
1.0
1070
   340
1005
10
1002
}
  0
MTEXT
  5
130E1
330
1A
100
AcDbEntity
  8
ZISSEN1
100
AcDbMText
 10
-1682.631712396428
 20
1831.414251466661
 30
0.0
 40
3.0
 41
29.494
 71
     1
 72
     5
  1
{\fＭＳ ゴシック|b0|i0|c128|p49;\C7;2-M3(M4可)}
 11
0.0000000000000001
 21
1.0
 31
0.0
1001
ACAD
1000
MTEXTBEGIN
1070
    73
1070
     1
1070
    44
1040
1.0
1070
    74
1070
     0
1000
MTEXTEND
  0
MTEXT
  5
130E2
330
1A
100
AcDbEntity
  8
ZISSEN1
100
AcDbMText
 10
-1481.940511856934
 20
1831.996008693258
 30
0.0
 40
3.0
 41
29.494
 71
     1
 72
     5
  1
{\fＭＳ ゴシック|b0|i0|c128|p49;\C7;(USER取付寸法)}
 11
0.0000000000000005
 21
1.0
 31
0.0
1001
ACAD
1000
MTEXTBEGIN
1070
    73
1070
     1
1070
    44
1040
1.0
1070
    74
1070
     0
1000
MTEXTEND
  0
DIMENSION
  5
130E3
330
1A
100
AcDbEntity
  8
SUNPOU
100
AcDbDimension
  2
*D5
 10
-1483.687434462656
 20
1826.337258119738
 30
0.0
 11
-1485.937434462656
 21
1837.787258119738
 31
0.0
 70
    32
  3
ATSUSHI
100
AcDbAlignedDimension
 13
-1499.187434462659
 23
1849.237258119738
 33
0.0
 14
-1495.687434462656
 24
1826.337258119738
 34
0.0
 50
90.0
100
AcDbRotatedDimension
1001
ACAD
1000
DSTYLE
1002
{
1070
   140
1040
3.5
1070
    40
1040
1.0
1070
   340
1005
10
1002
}
  0
LINE
  5
130E4
330
1A
100
AcDbEntity
  8
ZISSEN1
100
AcDbLine
 10
-1529.587403217811
 20
1839.437258119738
 30
0.0
 11
-1529.587403217811
 21
1832.737258119737
 31
0.0
  0
LINE
  5
130E5
330
1A
100
AcDbEntity
  8
ZISSEN1
100
AcDbLine
 10
-1519.687403217811
 20
1832.737258119737
 30
0.0
 11
-1519.687403217811
 21
1839.437258119738
 31
0.0
  0
LINE
  5
130E6
330
1A
100
AcDbEntity
  8
ZISSEN1
100
AcDbLine
 10
-1547.487405895423
 20
1839.437258119738
 30
0.0
 11
-1547.487405895423
 21
1832.737258119737
 31
0.0
  0
LINE
  5
130E7
330
1A
100
AcDbEntity
  8
ZISSEN1
100
AcDbLine
 10
-1530.087405895425
 20
1832.737258119737
 30
0.0
 11
-1530.087405895425
 21
1839.437258119738
 31
0.0
  0
LINE
  5
130E8
330
1A
100
AcDbEntity
  8
ZISSEN1
100
AcDbLine
 10
-1565.387405895424
 20
1839.437258119738
 30
0.0
 11
-1565.387405895424
 21
1832.737258119737
 31
0.0
  0
LINE
  5
130E9
330
1A
100
AcDbEntity
  8
ZISSEN1
100
AcDbLine
 10
-1547.987405895423
 20
1832.737258119737
 30
0.0
 11
-1547.987405895423
 21
1839.437258119738
 31
0.0
  0
LINE
  5
130EA
330
1A
100
AcDbEntity
  8
ZISSEN1
100
AcDbLine
 10
-1565.887405895424
 20
1832.737258119737
 30
0.0
 11
-1565.887405895424
 21
1839.437258119738
 31
0.0
  0
LINE
  5
130EB
330
1A
100
AcDbEntity
  8
ZISSEN1
100
AcDbLine
 10
-1585.787405895422
 20
1839.437258119738
 30
0.0
 11
-1585.787405895422
 21
1832.737258119737
 31
0.0
  0
LINE
  5
130EC
330
1A
100
AcDbEntity
  8
ZISSEN1
100
AcDbLine
 10
-1604.087405895423
 20
1832.737258119737
 30
0.0
 11
-1604.087405895423
 21
1840.437258119736
 31
0.0
  0
LINE
  5
130ED
330
1A
100
AcDbEntity
  8
ZISSEN1
100
AcDbLine
 10
-1642.187434462932
 20
1844.637258119737
 30
0.0
 11
-1642.187434462932
 21
1832.737258119737
 31
0.0
  0
LINE
  5
130EE
330
1A
100
AcDbEntity
  8
ZISSEN1
100
AcDbLine
 10
-1627.587434462934
 20
1832.737258119737
 30
0.0
 11
-1627.587434462934
 21
1844.637258119737
 31
0.0
  0
LINE
  5
130EF
330
1A
100
AcDbEntity
  8
ZISSEN1
100
AcDbLine
 10
-1624.387434462933
 20
1844.637258119737
 30
0.0
 11
-1624.387434462933
 21
1832.737258119737
 31
0.0
  0
LINE
  5
130F0
330
1A
100
AcDbEntity
  8
ZISSEN1
100
AcDbLine
 10
-1609.787434462934
 20
1832.737258119737
 30
0.0
 11
-1609.787434462934
 21
1844.637258119737
 31
0.0
  0
LINE
  5
130F1
330
1A
100
AcDbEntity
  8
ZISSEN1
100
AcDbLine
 10
-1493.687434462656
 20
1846.987258119738
 30
0.0
 11
-1493.687434462656
 21
1828.337258119738
 31
0.0
  0
LINE
  5
130F2
330
1A
100
AcDbEntity
  8
ZISSEN1
100
AcDbLine
 10
-1663.687434462659
 20
1828.337258119739
 30
0.0
 11
-1663.687434462659
 21
1846.987258119738
 31
0.0
  0
LINE
  5
130F3
330
1A
100
AcDbEntity
  8
ZISSEN1
100
AcDbLine
 10
-1502.887434462658
 20
1827.337258119738
 30
0.0
 11
-1502.887434462658
 21
1861.337258119738
 31
0.0
  0
LINE
  5
130F4
330
1A
100
AcDbEntity
  8
ZISSEN1
100
AcDbLine
 10
-1517.187434462659
 20
1842.437258119737
 30
0.0
 11
-1517.187434462659
 21
1832.237258119736
 31
0.0
  0
LINE
  5
130F5
330
1A
100
AcDbEntity
  8
ZISSEN1
100
AcDbLine
 10
-1503.887434462658
 20
1843.837258119737
 30
0.0
 11
-1503.887434462658
 21
1826.337258119738
 31
0.0
  0
LINE
  5
130F6
330
1A
100
AcDbEntity
  8
ZISSEN1
100
AcDbLine
 10
-1503.687434462659
 20
1861.337258119736
 30
0.0
 11
-1503.687434462659
 21
1827.137258119737
 31
0.0
  0
LINE
  5
130F7
330
1A
100
AcDbEntity
  8
ZISSEN1
100
AcDbLine
 10
-1609.287434462658
 20
1835.837258119737
 30
0.0
 11
-1609.287434462658
 21
1845.737258119737
 31
0.0
  0
LINE
  5
130F8
330
1A
100
AcDbEntity
  8
ZISSEN1
100
AcDbLine
 10
-1586.287434462658
 20
1832.237258119737
 30
0.0
 11
-1586.287434462658
 21
1842.437258119737
 31
0.0
  0
LINE
  5
130F9
330
1A
100
AcDbEntity
  8
ZISSEN1
100
AcDbLine
 10
-1605.087434462661
 20
1826.337258119738
 30
0.0
 11
-1605.087434462661
 21
1842.437258119738
 31
0.0
  0
LINE
  5
130FA
330
1A
100
AcDbEntity
  8
ZISSEN1
100
AcDbLine
 10
-1587.78743446266
 20
1826.337258119738
 30
0.0
 11
-1587.78743446266
 21
1842.437258119738
 31
0.0
  0
LINE
  5
130FB
330
1A
100
AcDbEntity
  8
ZISSEN1
100
AcDbLine
 10
-1653.487434462659
 20
1826.337258119736
 30
0.0
 11
-1653.487434462659
 21
1854.287258119737
 31
0.0
  0
LINE
  5
130FC
330
1A
100
AcDbEntity
  8
ZISSEN1
100
AcDbLine
 10
-1653.687434462659
 20
1861.337258119737
 30
0.0
 11
-1653.687434462659
 21
1827.137258119737
 31
0.0
  0
LINE
  5
130FD
330
1A
100
AcDbEntity
  8
ZISSEN1
100
AcDbLine
 10
-1643.187434462659
 20
1859.837258119737
 30
0.0
 11
-1643.187434462659
 21
1832.237258119737
 31
0.0
  0
LINE
  5
130FE
330
1A
100
AcDbEntity
  8
ZISSEN1
100
AcDbLine
 10
-1654.487434462659
 20
1827.337258119736
 30
0.0
 11
-1654.487434462659
 21
1861.337258119737
 31
0.0
  0
LINE
  5
130FF
330
1A
100
AcDbEntity
  8
ZISSEN1
100
AcDbLine
 10
-1588.287405895422
 20
1840.437258119736
 30
0.0
 11
-1588.287405895422
 21
1832.737258119737
 31
0.0
  0
LINE
  5
13100
330
1A
100
AcDbEntity
  8
ZISSEN1
100
AcDbLine
 10
-1586.287434462658
 20
1832.737258119737
 30
0.0
 11
-1517.187434462659
 21
1832.737258119737
 31
0.0
  0
DIMENSION
  5
13101
330
1A
100
AcDbEntity
  8
SUNPOU
100
AcDbDimension
  2
*D6
 10
-1493.687434462656
 20
1800.010616344873
 30
0.0
 11
-1578.687434462658
 21
1800.010616344873
 31
0.0
 70
   160
  3
ATSUSHI
100
AcDbAlignedDimension
 13
-1663.687434462659
 23
1828.337258119739
 33
0.0
 14
-1493.687434462656
 24
1828.337258119738
 34
0.0
100
AcDbRotatedDimension
1001
ACAD
1000
DSTYLE
1002
{
1070
   140
1040
3.5
1070
    40
1040
1.0
1070
   340
1005
10
1002
}
  0
DIMENSION
  5
13102
330
1A
100
AcDbEntity
  8
SUNPOU
100
AcDbDimension
  2
*D7
 10
-1502.887434462658
 20
1816.337258119738
 30
0.0
 11
-1578.687434462658
 21
1818.587258119739
 31
0.0
 70
    32
  3
ATSUSHI
100
AcDbAlignedDimension
 13
-1654.487434462659
 23
1827.337258119736
 33
0.0
 14
-1502.887434462658
 24
1827.337258119738
 34
0.0
100
AcDbRotatedDimension
1001
ACAD
1000
DSTYLE
1002
{
1070
   140
1040
3.5
1070
    40
1040
1.0
1070
   340
1005
10
1002
}
  0
LINE
  5
13103
330
1A
100
AcDbEntity
  8
ZISSEN1
100
AcDbLine
 10
-1653.487434462659
 20
1826.337258119737
 30
0.0
 11
-1495.687434462656
 21
1826.337258119738
 31
0.0
  0
LINE
  5
13104
330
1A
100
AcDbEntity
  8
ZISSEN1
100
AcDbLine
 10
-1517.187434462659
 20
1832.237258119736
 30
0.0
 11
-1586.287434462658
 21
1832.237258119736
 31
0.0
  0
LINE
  5
13105
330
1A
100
AcDbEntity
  8
ZISSEN1
100
AcDbLine
 10
-1547.487405895423
 20
1763.202455969887
 30
0.0
 11
-1530.087405895425
 21
1763.202455969887
 31
0.0
  0
LINE
  5
13106
330
1A
100
AcDbEntity
  8
ZISSEN1
100
AcDbLine
 10
-1504.887434462658
 20
1682.502455969888
 30
0.0
 11
-1574.687434462656
 21
1682.502456647852
 31
0.0
  0
LINE
  5
13107
330
1A
100
AcDbEntity
  8
ZISSEN1
100
AcDbLine
 10
-1542.737434462661
 20
1759.802455969888
 30
0.0
 11
-1503.887434462658
 21
1759.802455969888
 31
0.0
  0
LINE
  5
13109
330
1A
100
AcDbEntity
  8
ZISSEN1
100
AcDbLine
 10
-1663.687434462655
 20
1676.502455969889
 30
0.0
 11
-1493.687434462656
 21
1676.502455969889
 31
0.0
  0
LINE
  5
1310A
330
1A
100
AcDbEntity
  8
ZISSEN1
100
AcDbLine
 10
-1540.437434462656
 20
1759.802456049706
 30
0.0
 11
-1503.887434462654
 21
1759.802455969882
 31
0.0
  0
LINE
  5
1310B
330
1A
100
AcDbEntity
  8
ZISSEN1
100
AcDbLine
 10
-1678.787434462654
 20
1682.502454885986
 30
0.0
 11
-1678.787434462654
 21
1758.802454885987
 31
0.0
  0
LINE
  5
1310C
330
1A
100
AcDbEntity
  8
ZISSEN1
100
AcDbLine
 10
-1654.487434462655
 20
1679.502455969883
 30
0.0
 11
-1654.487434462655
 21
1756.002456153952
 31
0.0
  0
LINE
  5
1310D
330
1A
100
AcDbEntity
  8
ZISSEN1
100
AcDbLine
 10
-1619.137434462382
 20
1687.952452737881
 30
0.0
 11
-1605.23743446238
 21
1687.952452737881
 31
0.0
  0
LINE
  5
1310E
330
1A
100
AcDbEntity
  8
ZISSEN1
100
AcDbLine
 10
-1636.087434462384
 20
1684.002455969887
 30
0.0
 11
-1604.187434462379
 21
1684.002455969887
 31
0.0
  0
LINE
  5
1310F
330
1A
100
AcDbEntity
  8
ZISSEN1
100
AcDbLine
 10
-1636.087434462384
 20
1684.502454575534
 30
0.0
 11
-1604.187434462379
 21
1684.502450379317
 31
0.0
  0
LINE
  5
13110
330
1A
100
AcDbEntity
  8
ZISSEN1
100
AcDbLine
 10
-1604.187434462379
 20
1689.502455969888
 30
0.0
 11
-1636.087434462384
 21
1689.502455969888
 31
0.0
  0
LINE
  5
13111
330
1A
100
AcDbEntity
  8
ZISSEN1
100
AcDbLine
 10
-1652.487434462658
 20
1682.502455969888
 30
0.0
 11
-1637.087434462384
 21
1682.502456959065
 31
0.0
  0
LINE
  5
13112
330
1A
100
AcDbEntity
  8
ZISSEN1
100
AcDbLine
 10
-1653.687434462656
 20
1679.502455969888
 30
0.0
 11
-1653.687434462659
 21
1689.502456153959
 31
0.0
  0
LINE
  5
13113
330
1A
100
AcDbEntity
  8
ZISSEN1
100
AcDbLine
 10
-1678.787434462646
 20
1690.002454885981
 30
0.0
 11
-1678.787434462654
 21
1680.302454885993
 31
0.0
  0
LINE
  5
13114
330
1A
100
AcDbEntity
  8
ZISSEN1
100
AcDbLine
 10
-1677.987434462647
 20
1690.002454885992
 30
0.0
 11
-1677.987434462655
 21
1680.002454885992
 31
0.0
  0
LINE
  5
13115
330
1A
100
AcDbEntity
  8
ZISSEN1
100
AcDbLine
 10
-1678.487434462658
 20
1679.502455969889
 30
0.0
 11
-1678.787434462658
 21
1679.502455969889
 31
0.0
  0
LINE
  5
13116
330
1A
100
AcDbEntity
  8
ZISSEN1
100
AcDbLine
 10
-1678.787434462658
 20
1676.502455969889
 30
0.0
 11
-1678.787434462658
 21
1679.502455969889
 31
0.0
  0
LINE
  5
13117
330
1A
100
AcDbEntity
  8
ZISSEN1
100
AcDbLine
 10
-1680.787434462658
 20
1676.502455969889
 30
0.0
 11
-1680.787434462658
 21
1679.502455969889
 31
0.0
  0
ARC
  5
13118
330
1A
100
AcDbEntity
  8
ZISSEN1
100
AcDbCircle
 10
-1678.487434462655
 20
1680.002454885993
 30
0.0
 40
0.5
100
AcDbArc
 50
270.0
 51
359.9999999999478
  0
LINE
  5
13119
330
1A
100
AcDbEntity
  8
ZISSEN1
100
AcDbLine
 10
-1661.687434462657
 20
1676.502455969889
 30
0.0
 11
-1661.687434462657
 21
1679.502455969888
 31
0.0
  0
LINE
  5
1311A
330
1A
100
AcDbEntity
  8
ZISSEN1
100
AcDbLine
 10
-1663.687434462655
 20
1676.502455969889
 30
0.0
 11
-1663.687434462655
 21
1679.502455969888
 31
0.0
  0
LINE
  5
1311B
330
1A
100
AcDbEntity
  8
ZISSEN1
100
AcDbLine
 10
-1677.987434462651
 20
1689.002455969887
 30
0.0
 11
-1678.78743446265
 21
1689.002455969888
 31
0.0
  0
LINE
  5
1311C
330
1A
100
AcDbEntity
  8
ZISSEN1
100
AcDbLine
 10
-1677.987434462651
 20
1690.002455969888
 30
0.0
 11
-1678.78743446265
 21
1690.002455969888
 31
0.0
  0
ARC
  5
1311D
330
1A
100
AcDbEntity
  8
ZISSEN1
100
AcDbCircle
 10
-1681.162063451249
 20
1686.002454978022
 30
0.0
 40
5.174628988598421
100
AcDbArc
 50
323.708301872686
 51
36.29169812731397
  0
LINE
  5
1311E
330
1A
100
AcDbEntity
  8
ZISSEN1
100
AcDbLine
 10
-1677.987434462651
 20
1682.852454978022
 30
0.0
 11
-1676.991239764558
 21
1682.939610720769
 31
0.0
  0
LINE
  5
1311F
330
1A
100
AcDbEntity
  8
ZISSEN1
100
AcDbLine
 10
-1677.987434462651
 20
1689.152454978021
 30
0.0
 11
-1676.991239764558
 21
1689.065299235274
 31
0.0
  0
LINE
  5
13120
330
1A
100
AcDbEntity
  8
ZISSEN1
100
AcDbLine
 10
-1683.587434462655
 20
1684.502455969888
 30
0.0
 11
-1683.587434462655
 21
1689.502455070057
 31
0.0
  0
LINE
  5
13121
330
1A
100
AcDbEntity
  8
ZISSEN1
100
AcDbLine
 10
-1679.587434462653
 20
1689.502455070057
 30
0.0
 11
-1679.587434462653
 21
1682.502454885986
 31
0.0
  0
LINE
  5
13122
330
1A
100
AcDbEntity
  8
ZISSEN1
100
AcDbLine
 10
-1679.587434462653
 20
1682.502454885986
 30
0.0
 11
-1678.787434462654
 21
1682.502454885986
 31
0.0
  0
LINE
  5
13123
330
1A
100
AcDbEntity
  8
ZISSEN1
100
AcDbLine
 10
-1679.587434462655
 20
1683.002454885986
 30
0.0
 11
-1678.787434462654
 21
1683.002454885986
 31
0.0
  0
LINE
  5
13124
330
1A
100
AcDbEntity
  8
ZISSEN1
100
AcDbLine
 10
-1653.487434462659
 20
1683.502455969888
 30
0.0
 11
-1652.487434462658
 21
1682.502455969888
 31
0.0
  0
LINE
  5
13125
330
1A
100
AcDbEntity
  8
ZISSEN1
100
AcDbLine
 10
-1653.487434462659
 20
1689.502456153959
 30
0.0
 11
-1653.487434462659
 21
1683.502455969888
 31
0.0
  0
LINE
  5
13126
330
1A
100
AcDbEntity
  8
ZISSEN1
100
AcDbLine
 10
-1654.487434462659
 20
1689.502456153959
 30
0.0
 11
-1653.487434462659
 21
1689.502456153959
 31
0.0
  0
LINE
  5
13127
330
1A
100
AcDbEntity
  8
ZISSEN1
100
AcDbLine
 10
-1634.087434462384
 20
1676.502455969889
 30
0.0
 11
-1634.087434462384
 21
1679.502455969888
 31
0.0
  0
LINE
  5
13128
330
1A
100
AcDbEntity
  8
ZISSEN1
100
AcDbLine
 10
-1635.087434462384
 20
1676.502455969889
 30
0.0
 11
-1635.087434462384
 21
1679.502455969888
 31
0.0
  0
LINE
  5
13129
330
1A
100
AcDbEntity
  8
ZISSEN1
100
AcDbLine
 10
-1635.037434262774
 20
1687.952453113356
 30
0.0
 11
-1621.137434262773
 21
1687.952453113356
 31
0.0
  0
LINE
  5
1312A
330
1A
100
AcDbEntity
  8
ZISSEN1
100
AcDbLine
 10
-1635.037434462383
 20
1687.952452737881
 30
0.0
 11
-1635.037434462383
 21
1684.502454437414
 31
0.0
  0
LINE
  5
1312B
330
1A
100
AcDbEntity
  8
ZISSEN1
100
AcDbLine
 10
-1636.087434462384
 20
1683.502457023298
 30
0.0
 11
-1637.087434462384
 21
1682.502456959065
 31
0.0
  0
LINE
  5
1312C
330
1A
100
AcDbEntity
  8
ZISSEN1
100
AcDbLine
 10
-1636.087434462384
 20
1689.502455969888
 30
0.0
 11
-1636.087434462384
 21
1683.502457023298
 31
0.0
  0
LINE
  5
1312D
330
1A
100
AcDbEntity
  8
ZISSEN1
100
AcDbLine
 10
-1619.137434462382
 20
1687.952452737881
 30
0.0
 11
-1619.137434462382
 21
1684.50245273788
 31
0.0
  0
LINE
  5
1312E
330
1A
100
AcDbEntity
  8
ZISSEN1
100
AcDbLine
 10
-1621.137434462382
 20
1687.952452737881
 30
0.0
 11
-1621.137434462382
 21
1684.502454437414
 31
0.0
  0
LINE
  5
1312F
330
1A
100
AcDbEntity
  8
ZISSEN1
100
AcDbLine
 10
-1582.687434462656
 20
1690.002455969889
 30
0.0
 11
-1582.687434462656
 21
1679.502455969888
 31
0.0
  0
LINE
  5
13130
330
1A
100
AcDbEntity
  8
ZISSEN1
100
AcDbLine
 10
-1574.687434462656
 20
1679.502455969888
 30
0.0
 11
-1574.687434462656
 21
1690.002455969889
 31
0.0
  0
LINE
  5
13131
330
1A
100
AcDbEntity
  8
ZISSEN1
100
AcDbLine
 10
-1606.187434462379
 20
1676.502455969889
 30
0.0
 11
-1606.187434462379
 21
1679.502455969888
 31
0.0
  0
LINE
  5
13132
330
1A
100
AcDbEntity
  8
ZISSEN1
100
AcDbLine
 10
-1605.187434462379
 20
1676.502455969889
 30
0.0
 11
-1605.187434462379
 21
1679.502455969888
 31
0.0
  0
LINE
  5
13133
330
1A
100
AcDbEntity
  8
ZISSEN1
100
AcDbLine
 10
-1582.687434462656
 20
1679.502455969888
 30
0.0
 11
-1578.687434462656
 21
1679.502455969888
 31
0.0
  0
LINE
  5
13134
330
1A
100
AcDbEntity
  8
ZISSEN1
100
AcDbLine
 10
-1578.687434462656
 20
1679.502455969888
 30
0.0
 11
-1574.687434462656
 21
1679.502455969888
 31
0.0
  0
LINE
  5
13135
330
1A
100
AcDbEntity
  8
ZISSEN1
100
AcDbLine
 10
-1582.687434462656
 20
1682.502456725556
 30
0.0
 11
-1603.187434462379
 21
1682.502456924671
 31
0.0
  0
LINE
  5
13136
330
1A
100
AcDbEntity
  8
ZISSEN1
100
AcDbLine
 10
-1605.23743446238
 20
1687.952452737881
 30
0.0
 11
-1605.23743446238
 21
1684.50245273788
 31
0.0
  0
LINE
  5
13137
330
1A
100
AcDbEntity
  8
ZISSEN1
100
AcDbLine
 10
-1604.187434462379
 20
1683.502456934384
 30
0.0
 11
-1604.187434462379
 21
1689.502455969888
 31
0.0
  0
LINE
  5
13138
330
1A
100
AcDbEntity
  8
ZISSEN1
100
AcDbLine
 10
-1603.187434462379
 20
1682.502456924671
 30
0.0
 11
-1604.187434462379
 21
1683.502456934384
 31
0.0
  0
CIRCLE
  5
13139
330
1A
100
AcDbEntity
  8
ZISSEN1
100
AcDbCircle
 10
-1578.687434462656
 20
1686.002455969888
 30
0.0
 40
3.149999999999999
  0
LINE
  5
1313A
330
1A
100
AcDbEntity
  8
ZISSEN1
100
AcDbLine
 10
-1574.687434462656
 20
1690.002455969889
 30
0.0
 11
-1582.687434462656
 21
1690.002455969889
 31
0.0
  0
LINE
  5
1313B
330
1A
100
AcDbEntity
  8
ZISSEN1
100
AcDbLine
 10
-1607.337434462661
 20
1832.737258119737
 30
0.0
 11
-1608.087434462661
 21
1832.737258119737
 31
0.0
  0
LINE
  5
1313C
330
1A
100
AcDbEntity
  8
ZISSEN1
100
AcDbLine
 10
-1611.587434462661
 20
1759.802455969882
 30
0.0
 11
-1605.087434462661
 21
1759.802455969882
 31
0.0
  0
LINE
  5
1313D
330
1A
100
AcDbEntity
  8
ZISSEN1
100
AcDbLine
 10
-1641.187451760537
 20
1762.502455969881
 30
0.0
 11
-1606.787434462656
 21
1762.502455969881
 31
0.0
  0
LINE
  5
1313E
330
1A
100
AcDbEntity
  8
ZISSEN1
100
AcDbLine
 10
-1623.487473154537
 20
1763.202455969881
 30
0.0
 11
-1604.087405895425
 21
1763.202455969881
 31
0.0
  0
LINE
  5
1313F
330
1A
100
AcDbEntity
  8
ZISSEN1
100
AcDbLine
 10
-1643.187434462659
 20
1832.737258119737
 30
0.0
 11
-1606.082434463209
 21
1832.737258119737
 31
0.0
  0
LINE
  5
13140
330
1A
100
AcDbEntity
  8
ZISSEN1
100
AcDbLine
 10
-1606.087434462661
 20
1835.837258119737
 30
0.0
 11
-1609.287434462658
 21
1835.837258119737
 31
0.0
  0
LINE
  5
13141
330
1A
100
AcDbEntity
  8
ZISSEN1
100
AcDbLine
 10
-1610.587434462661
 20
1832.237258119737
 30
0.0
 11
-1606.087434462661
 21
1832.237258119737
 31
0.0
  0
LINE
  5
13142
330
1A
100
AcDbEntity
  8
ZISSEN1
100
AcDbLine
 10
-1606.087434462661
 20
1835.837258119737
 30
0.0
 11
-1609.287434462658
 21
1835.837258119737
 31
0.0
  0
LINE
  5
13143
330
1A
100
AcDbEntity
  8
ZISSEN1
100
AcDbLine
 10
-1653.487434462659
 20
1759.802455969888
 30
0.0
 11
-1640.38743446266
 21
1759.802455969888
 31
0.0
  0
LINE
  5
13144
330
1A
100
AcDbEntity
  8
ZISSEN1
100
AcDbLine
 10
-1683.587434462655
 20
1764.002454604149
 30
0.0
 11
-1683.587434462655
 21
1759.802454885985
 31
0.0
  0
LINE
  5
13145
330
1A
100
AcDbEntity
  8
ZISSEN1
100
AcDbLine
 10
-1683.587434462655
 20
1756.002454885986
 30
0.0
 11
-1683.587434462655
 21
1759.002454885986
 31
0.0
  0
ARC
  5
13146
330
1A
100
AcDbEntity
  8
ZISSEN1
100
AcDbCircle
 10
-1679.78743446265
 20
1758.802454885988
 30
0.0
 40
0.999999999998181
100
AcDbArc
 50
359.9999999998958
 51
90.00000000010421
  0
LINE
  5
13147
330
1A
100
AcDbEntity
  8
ZISSEN1
100
AcDbLine
 10
-1679.587434462655
 20
1759.002454885986
 30
0.0
 11
-1679.587434462653
 21
1756.002454885986
 31
0.0
  0
ARC
  5
13148
330
1A
100
AcDbEntity
  8
ZISSEN1
100
AcDbCircle
 10
-1679.787434462652
 20
1758.802454885988
 30
0.0
 40
0.999999999998181
100
AcDbArc
 50
359.9999999998958
 51
90.00000000010421
  0
LINE
  5
13149
330
1A
100
AcDbEntity
  8
ZISSEN1
100
AcDbLine
 10
-1679.587434462657
 20
1759.002454885986
 30
0.0
 11
-1679.587434462655
 21
1756.002454885986
 31
0.0
  0
LINE
  5
1314A
330
1A
100
AcDbEntity
  8
ZISSEN1
100
AcDbLine
 10
-1650.187451760535
 20
1760.502455969887
 30
0.0
 11
-1650.187451760535
 21
1759.802455969888
 31
0.0
  0
LINE
  5
1314B
330
1A
100
AcDbEntity
  8
ZISSEN1
100
AcDbLine
 10
-1652.187451760537
 20
1760.502455969887
 30
0.0
 11
-1650.187451760535
 21
1760.502455969887
 31
0.0
  0
ARC
  5
1314C
330
1A
100
AcDbEntity
  8
ZISSEN1
100
AcDbCircle
 10
-1653.187451760537
 20
1760.502455969887
 30
0.0
 40
1.0
100
AcDbArc
 50
315.572995999246
 51
0.0000000000260551
  0
LINE
  5
1314D
330
1A
100
AcDbEntity
  8
ZISSEN1
100
AcDbLine
 10
-1653.68743542803
 20
1758.002455969888
 30
0.0
 11
-1653.487434462659
 21
1758.202456935259
 31
0.0
  0
LINE
  5
1314E
330
1A
100
AcDbEntity
  8
ZISSEN1
100
AcDbLine
 10
-1653.687435403435
 20
1756.002456006703
 30
0.0
 11
-1653.68743542803
 21
1758.002455969888
 31
0.0
  0
LINE
  5
1314F
330
1A
100
AcDbEntity
  8
ZISSEN1
100
AcDbLine
 10
-1653.487434462659
 20
1756.002455969889
 30
0.0
 11
-1653.487434462659
 21
1759.802455969888
 31
0.0
  0
LINE
  5
13150
330
1A
100
AcDbEntity
  8
ZISSEN1
100
AcDbLine
 10
-1654.487434462659
 20
1756.002456153958
 30
0.0
 11
-1653.487434462659
 21
1756.002455969889
 31
0.0
  0
LINE
  5
13151
330
1A
100
AcDbEntity
  8
ZISSEN1
100
AcDbLine
 10
-1620.037464332217
 20
1752.557455969881
 30
0.0
 11
-1627.537464332217
 21
1752.557455969881
 31
0.0
  0
LINE
  5
13152
330
1A
100
AcDbEntity
  8
ZISSEN1
100
AcDbLine
 10
-1627.537464332217
 20
1759.007455969881
 30
0.0
 11
-1620.037464332217
 21
1759.007455969881
 31
0.0
  0
LINE
  5
13153
330
1A
100
AcDbEntity
  8
ZISSEN1
100
AcDbLine
 10
-1640.38743446266
 20
1750.802455969882
 30
0.0
 11
-1611.587434462661
 21
1750.802455969882
 31
0.0
  0
LINE
  5
13154
330
1A
100
AcDbEntity
  8
ZISSEN1
100
AcDbLine
 10
-1640.38743446266
 20
1750.802455969888
 30
0.0
 11
-1611.587434462661
 21
1750.802455969888
 31
0.0
  0
LINE
  5
13155
330
1A
100
AcDbEntity
  8
ZISSEN1
100
AcDbLine
 10
-1638.037434462659
 20
1757.662455969881
 30
0.0
 11
-1639.287434462659
 21
1757.662455969881
 31
0.0
  0
LINE
  5
13156
330
1A
100
AcDbEntity
  8
ZISSEN1
100
AcDbLine
 10
-1638.037434462659
 20
1755.662455969881
 30
0.0
 11
-1638.037434462659
 21
1757.662455969881
 31
0.0
  0
LINE
  5
13157
330
1A
100
AcDbEntity
  8
ZISSEN1
100
AcDbLine
 10
-1639.287434462659
 20
1755.662455969881
 30
0.0
 11
-1638.037434462659
 21
1755.662455969881
 31
0.0
  0
LINE
  5
13158
330
1A
100
AcDbEntity
  8
ZISSEN1
100
AcDbLine
 10
-1639.287434462659
 20
1757.662455969881
 30
0.0
 11
-1639.287434462659
 21
1755.662455969881
 31
0.0
  0
LINE
  5
13159
330
1A
100
AcDbEntity
  8
ZISSEN1
100
AcDbLine
 10
-1636.037434462659
 20
1757.662455969881
 30
0.0
 11
-1637.287434462659
 21
1757.662455969881
 31
0.0
  0
LINE
  5
1315A
330
1A
100
AcDbEntity
  8
ZISSEN1
100
AcDbLine
 10
-1636.037434462659
 20
1755.662455969881
 30
0.0
 11
-1636.037434462659
 21
1757.662455969881
 31
0.0
  0
LINE
  5
1315B
330
1A
100
AcDbEntity
  8
ZISSEN1
100
AcDbLine
 10
-1637.287434462659
 20
1755.662455969881
 30
0.0
 11
-1636.037434462659
 21
1755.662455969881
 31
0.0
  0
LINE
  5
1315C
330
1A
100
AcDbEntity
  8
ZISSEN1
100
AcDbLine
 10
-1637.287434462659
 20
1757.662455969881
 30
0.0
 11
-1637.287434462659
 21
1755.662455969881
 31
0.0
  0
LINE
  5
1315D
330
1A
100
AcDbEntity
  8
ZISSEN1
100
AcDbLine
 10
-1639.287434462659
 20
1756.412455969881
 30
0.0
 11
-1639.287434462659
 21
1757.662455969881
 31
0.0
  0
LINE
  5
1315E
330
1A
100
AcDbEntity
  8
ZISSEN1
100
AcDbLine
 10
-1639.287434462659
 20
1757.662455969881
 30
0.0
 11
-1639.287434462659
 21
1755.662455969881
 31
0.0
  0
LINE
  5
1315F
330
1A
100
AcDbEntity
  8
ZISSEN1
100
AcDbLine
 10
-1640.38743446266
 20
1751.002455969882
 30
0.0
 11
-1627.587434462934
 21
1751.002455969882
 31
0.0
  0
LINE
  5
13160
330
1A
100
AcDbEntity
  8
ZISSEN1
100
AcDbLine
 10
-1634.637464332216
 20
1753.152455969881
 30
0.0
 11
-1628.037464332217
 21
1753.152455969881
 31
0.0
  0
LINE
  5
13161
330
1A
100
AcDbEntity
  8
ZISSEN1
100
AcDbLine
 10
-1642.187451760537
 20
1759.802455969882
 30
0.0
 11
-1642.187451760537
 21
1761.502455969881
 31
0.0
  0
ARC
  5
13162
330
1A
100
AcDbEntity
  8
ZISSEN1
100
AcDbCircle
 10
-1642.187451760537
 20
1762.502455969881
 30
0.0
 40
1.0
100
AcDbArc
 50
270.0
 51
0.0000000000260551
  0
LINE
  5
13163
330
1A
100
AcDbEntity
  8
ZISSEN1
100
AcDbLine
 10
-1628.037464332217
 20
1759.99245596988
 30
0.0
 11
-1634.637464332216
 21
1759.99245596988
 31
0.0
  0
LINE
  5
13164
330
1A
100
AcDbEntity
  8
ZISSEN1
100
AcDbLine
 10
-1640.387434462657
 20
1759.802455969876
 30
0.0
 11
-1640.387434462657
 21
1750.802455969876
 31
0.0
  0
LINE
  5
13165
330
1A
100
AcDbEntity
  8
ZISSEN1
100
AcDbLine
 10
-1640.38743446266
 20
1759.802455969882
 30
0.0
 11
-1640.38743446266
 21
1750.802455969882
 31
0.0
  0
LINE
  5
13166
330
1A
100
AcDbEntity
  8
ZISSEN1
100
AcDbLine
 10
-1627.537464332217
 20
1752.557455969881
 30
0.0
 11
-1627.537464332217
 21
1759.007455969881
 31
0.0
  0
LINE
  5
13167
330
1A
100
AcDbEntity
  8
ZISSEN1
100
AcDbLine
 10
-1628.037464332217
 20
1753.152455969881
 30
0.0
 11
-1628.037464332217
 21
1759.99245596988
 31
0.0
  0
LINE
  5
13168
330
1A
100
AcDbEntity
  8
ZISSEN1
100
AcDbLine
 10
-1634.637464332216
 20
1759.99245596988
 30
0.0
 11
-1634.637464332216
 21
1753.152455969881
 31
0.0
  0
LINE
  5
13169
330
1A
100
AcDbEntity
  8
ZISSEN1
100
AcDbLine
 10
-1627.587434462934
 20
1751.002455969888
 30
0.0
 11
-1627.587434462934
 21
1750.802455969888
 31
0.0
  0
LINE
  5
1316A
330
1A
100
AcDbEntity
  8
ZISSEN1
100
AcDbLine
 10
-1640.38743446266
 20
1759.802455969888
 30
0.0
 11
-1640.38743446266
 21
1750.802455969888
 31
0.0
  0
LINE
  5
1316B
330
1A
100
AcDbEntity
  8
ZISSEN1
100
AcDbLine
 10
-1640.387434462657
 20
1759.802455969882
 30
0.0
 11
-1640.387434462657
 21
1750.802455969882
 31
0.0
  0
LINE
  5
1316C
330
1A
100
AcDbEntity
  8
ZISSEN1
100
AcDbLine
 10
-1611.587434462661
 20
1750.802455969882
 30
0.0
 11
-1611.587434462661
 21
1759.802455969882
 31
0.0
  0
LINE
  5
1316D
330
1A
100
AcDbEntity
  8
ZISSEN1
100
AcDbLine
 10
-1612.037464332217
 20
1759.007455969881
 30
0.0
 11
-1612.037464332217
 21
1752.557455969881
 31
0.0
  0
LINE
  5
1316E
330
1A
100
AcDbEntity
  8
ZISSEN1
100
AcDbLine
 10
-1620.037464332217
 20
1759.007455969881
 30
0.0
 11
-1620.037464332217
 21
1752.557455969881
 31
0.0
  0
LINE
  5
1316F
330
1A
100
AcDbEntity
  8
ZISSEN1
100
AcDbLine
 10
-1619.537464332218
 20
1752.557455969881
 30
0.0
 11
-1619.537464332218
 21
1759.007455969881
 31
0.0
  0
LINE
  5
13170
330
1A
100
AcDbEntity
  8
ZISSEN1
100
AcDbLine
 10
-1624.387434462933
 20
1751.002455969882
 30
0.0
 11
-1611.587434462661
 21
1751.002455969882
 31
0.0
  0
LINE
  5
13171
330
1A
100
AcDbEntity
  8
ZISSEN1
100
AcDbLine
 10
-1619.537464332218
 20
1759.007455969881
 30
0.0
 11
-1612.037464332217
 21
1759.007455969881
 31
0.0
  0
LINE
  5
13172
330
1A
100
AcDbEntity
  8
ZISSEN1
100
AcDbLine
 10
-1619.537464332218
 20
1752.557455969881
 30
0.0
 11
-1612.037464332217
 21
1752.557455969881
 31
0.0
  0
LINE
  5
13173
330
1A
100
AcDbEntity
  8
ZISSEN1
100
AcDbLine
 10
-1624.387434462933
 20
1751.002455969888
 30
0.0
 11
-1624.387434776161
 21
1750.802456221579
 31
0.0
  0
LINE
  5
13174
330
1A
100
AcDbEntity
  8
ZISSEN1
100
AcDbLine
 10
-1623.487473154537
 20
1762.502455969881
 30
0.0
 11
-1623.487473154537
 21
1763.202455969881
 31
0.0
  0
LINE
  5
13175
330
1A
100
AcDbEntity
  8
ZISSEN1
100
AcDbLine
 10
-1635.087434462388
 20
1826.337258119738
 30
0.0
 11
-1661.68743446266
 21
1826.337258119738
 31
0.0
  0
ARC
  5
13176
330
1A
100
AcDbEntity
  8
ZISSEN1
100
AcDbCircle
 10
-1653.649795965919
 20
1827.174896616474
 30
0.0
 40
0.8532288725551467
100
AcDbArc
 50
169.0302515054687
 51
280.9697484944648
  0
LINE
  5
13177
330
1A
100
AcDbEntity
  8
ZISSEN1
100
AcDbLine
 10
-1661.68743446266
 20
1826.337258119738
 30
0.0
 11
-1663.687434462659
 21
1828.337258119739
 31
0.0
  0
LINE
  5
13178
330
1A
100
AcDbEntity
  8
ZISSEN1
100
AcDbLine
 10
-1653.487434462659
 20
1827.137258119737
 30
0.0
 11
-1653.687434462659
 21
1827.137258119737
 31
0.0
  0
LINE
  5
13179
330
1A
100
AcDbEntity
  8
ZISSEN1
100
AcDbLine
 10
-1640.38743446266
 20
1831.137258119737
 30
0.0
 11
-1611.587434462934
 21
1831.137258119738
 31
0.0
  0
LINE
  5
1317A
330
1A
100
AcDbEntity
  8
ZISSEN1
100
AcDbLine
 10
-1640.38743446266
 20
1827.137258119737
 30
0.0
 11
-1611.587434462661
 21
1827.137258119737
 31
0.0
  0
LINE
  5
1317B
330
1A
100
AcDbEntity
  8
ZISSEN1
100
AcDbLine
 10
-1640.38743446266
 20
1826.337258119738
 30
0.0
 11
-1640.38743446266
 21
1831.237258119737
 31
0.0
  0
LINE
  5
1317C
330
1A
100
AcDbEntity
  8
ZISSEN1
100
AcDbLine
 10
-1640.38743446266
 20
1831.237258119737
 30
0.0
 11
-1641.38743446266
 21
1832.237258119737
 31
0.0
  0
LINE
  5
1317D
330
1A
100
AcDbEntity
  8
ZISSEN1
100
AcDbLine
 10
-1641.38743446266
 20
1832.237258119737
 30
0.0
 11
-1643.187434462659
 21
1832.237258119737
 31
0.0
  0
LINE
  5
1317E
330
1A
100
AcDbEntity
  8
ZISSEN1
100
AcDbLine
 10
-1609.337434462661
 20
1833.837258119737
 30
0.0
 11
-1609.337434462661
 21
1832.737258119737
 31
0.0
  0
LINE
  5
1317F
330
1A
100
AcDbEntity
  8
ZISSEN1
100
AcDbLine
 10
-1608.087434462661
 20
1833.837258119737
 30
0.0
 11
-1609.337434462661
 21
1833.837258119737
 31
0.0
  0
LINE
  5
13180
330
1A
100
AcDbEntity
  8
ZISSEN1
100
AcDbLine
 10
-1608.087434462661
 20
1832.737258119737
 30
0.0
 11
-1608.087434462661
 21
1833.837258119737
 31
0.0
  0
LINE
  5
13181
330
1A
100
AcDbEntity
  8
ZISSEN1
100
AcDbLine
 10
-1611.587434462661
 20
1826.337258119738
 30
0.0
 11
-1611.587434462661
 21
1831.237258119737
 31
0.0
  0
LINE
  5
13182
330
1A
100
AcDbEntity
  8
ZISSEN1
100
AcDbLine
 10
-1611.587434462661
 20
1831.237258119737
 30
0.0
 11
-1610.587434462661
 21
1832.237258119737
 31
0.0
  0
LINE
  5
13183
330
1A
100
AcDbEntity
  8
ZISSEN1
100
AcDbLine
 10
-1588.287405895424
 20
1763.202455969886
 30
0.0
 11
-1565.887405895424
 21
1763.202455969887
 31
0.0
  0
LINE
  5
13184
330
1A
100
AcDbEntity
  8
ZISSEN1
100
AcDbLine
 10
-1570.63743446266
 20
1759.002455969888
 30
0.0
 11
-1560.63743446266
 21
1759.002455969888
 31
0.0
  0
LINE
  5
13185
330
1A
100
AcDbEntity
  8
ZISSEN1
100
AcDbLine
 10
-1560.63743446266
 20
1759.802455969888
 30
0.0
 11
-1570.63743446266
 21
1759.802455969888
 31
0.0
  0
LINE
  5
13186
330
1A
100
AcDbEntity
  8
ZISSEN1
100
AcDbLine
 10
-1570.63743446266
 20
1756.502455969888
 30
0.0
 11
-1560.63743446266
 21
1756.502455969888
 31
0.0
  0
LINE
  5
13187
330
1A
100
AcDbEntity
  8
ZISSEN1
100
AcDbLine
 10
-1588.287405895424
 20
1764.002454604149
 30
0.0
 11
-1604.087405895424
 21
1764.002454604149
 31
0.0
  0
LINE
  5
13188
330
1A
100
AcDbEntity
  8
ZISSEN1
100
AcDbLine
 10
-1605.087434462661
 20
1754.802455969888
 30
0.0
 11
-1587.78743446266
 21
1754.802455969888
 31
0.0
  0
ARC
  5
13189
330
1A
100
AcDbEntity
  8
ZISSEN1
100
AcDbCircle
 10
-1605.087405895423
 20
1759.502454708493
 30
0.0
 40
0.5
100
AcDbArc
 50
270.0
 51
0.0
  0
ARC
  5
1318A
330
1A
100
AcDbEntity
  8
ZISSEN1
100
AcDbCircle
 10
-1604.587405895423
 20
1764.002454604143
 30
0.0
 40
1.0
100
AcDbArc
 50
270.0
 51
299.9999999999569
  0
LINE
  5
1318B
330
1A
100
AcDbEntity
  8
ZISSEN1
100
AcDbLine
 10
-1604.587405895421
 20
1759.502454708492
 30
0.0
 11
-1604.587405895423
 21
1763.002454604142
 31
0.0
  0
LINE
  5
1318C
330
1A
100
AcDbEntity
  8
ZISSEN1
100
AcDbLine
 10
-1605.787434462656
 20
1759.802455969882
 30
0.0
 11
-1605.787434462656
 21
1761.502455969881
 31
0.0
  0
LINE
  5
1318D
330
1A
100
AcDbEntity
  8
ZISSEN1
100
AcDbLine
 10
-1605.087434462661
 20
1759.802455969882
 30
0.0
 11
-1605.087434462661
 21
1754.802455969882
 31
0.0
  0
LINE
  5
1318E
330
1A
100
AcDbEntity
  8
ZISSEN1
100
AcDbLine
 10
-1603.287405895424
 20
1754.79248834998
 30
0.0
 11
-1603.287405895424
 21
1760.992484560486
 31
0.0
  0
LINE
  5
1318F
330
1A
100
AcDbEntity
  8
ZISSEN1
100
AcDbLine
 10
-1604.087405895424
 20
1754.802455969888
 30
0.0
 11
-1604.087405895424
 21
1764.002454604149
 31
0.0
  0
ARC
  5
13190
330
1A
100
AcDbEntity
  8
ZISSEN1
100
AcDbCircle
 10
-1605.787434462656
 20
1762.502455969888
 30
0.0
 40
1.0
100
AcDbArc
 50
180.000000000026
 51
270.0
  0
LINE
  5
13191
330
1A
100
AcDbEntity
  8
ZISSEN1
100
AcDbLine
 10
-1589.587405895423
 20
1760.992488654721
 30
0.0
 11
-1589.587405895423
 21
1754.802454604148
 31
0.0
  0
LINE
  5
13192
330
1A
100
AcDbEntity
  8
ZISSEN1
100
AcDbLine
 10
-1596.187405895423
 20
1760.992486682319
 30
0.0
 11
-1589.587405895423
 21
1760.992488654721
 31
0.0
  0
LINE
  5
13193
330
1A
100
AcDbEntity
  8
ZISSEN1
100
AcDbLine
 10
-1596.187405895423
 20
1754.792486984247
 30
0.0
 11
-1596.187405895423
 21
1760.992486682319
 31
0.0
  0
LINE
  5
13194
330
1A
100
AcDbEntity
  8
ZISSEN1
100
AcDbLine
 10
-1596.687405895423
 20
1760.992486532894
 30
0.0
 11
-1596.687405895423
 21
1754.802455969888
 31
0.0
  0
LINE
  5
13195
330
1A
100
AcDbEntity
  8
ZISSEN1
100
AcDbLine
 10
-1603.287405895424
 20
1760.992484560492
 30
0.0
 11
-1596.687405895423
 21
1760.992486532894
 31
0.0
  0
LINE
  5
13196
330
1A
100
AcDbEntity
  8
ZISSEN1
100
AcDbLine
 10
-1604.587405895421
 20
1759.502454708498
 30
0.0
 11
-1604.587405895423
 21
1763.002454604149
 31
0.0
  0
ARC
  5
13197
330
1A
100
AcDbEntity
  8
ZISSEN1
100
AcDbCircle
 10
-1605.087405895423
 20
1759.502454708499
 30
0.0
 40
0.5
100
AcDbArc
 50
270.0
 51
0.0
  0
LINE
  5
13198
330
1A
100
AcDbEntity
  8
ZISSEN1
100
AcDbLine
 10
-1585.787405895424
 20
1763.202455969888
 30
0.0
 11
-1585.787405895424
 21
1759.802455969888
 31
0.0
  0
LINE
  5
13199
330
1A
100
AcDbEntity
  8
ZISSEN1
100
AcDbLine
 10
-1588.287405895424
 20
1754.802455969888
 30
0.0
 11
-1588.287405895424
 21
1764.002454604149
 31
0.0
  0
LINE
  5
1319A
330
1A
100
AcDbEntity
  8
ZISSEN1
100
AcDbLine
 10
-1570.63743446266
 20
1759.802455969888
 30
0.0
 11
-1570.63743446266
 21
1756.502455969888
 31
0.0
  0
LINE
  5
1319B
330
1A
100
AcDbEntity
  8
ZISSEN1
100
AcDbLine
 10
-1587.78743446266
 20
1759.802455969888
 30
0.0
 11
-1570.63743446266
 21
1759.802455969888
 31
0.0
  0
LINE
  5
1319C
330
1A
100
AcDbEntity
  8
ZISSEN1
100
AcDbLine
 10
-1587.78743446266
 20
1754.802455969888
 30
0.0
 11
-1587.78743446266
 21
1759.802455969888
 31
0.0
  0
LINE
  5
1319D
330
1A
100
AcDbEntity
  8
ZISSEN1
100
AcDbLine
 10
-1565.387405895424
 20
1763.202455969887
 30
0.0
 11
-1547.987405895423
 21
1763.202455969887
 31
0.0
  0
ARC
  5
1319E
330
1A
100
AcDbEntity
  8
ZISSEN1
100
AcDbCircle
 10
-1550.337434462661
 20
1758.502455969888
 30
0.0
 40
0.5
100
AcDbArc
 50
0.0
 51
90.0
  0
LINE
  5
1319F
330
1A
100
AcDbEntity
  8
ZISSEN1
100
AcDbLine
 10
-1542.737434462661
 20
1759.802455969888
 30
0.0
 11
-1552.73743446266
 21
1759.802455969888
 31
0.0
  0
LINE
  5
131A0
330
1A
100
AcDbEntity
  8
ZISSEN1
100
AcDbLine
 10
-1552.73743446266
 20
1756.502455969888
 30
0.0
 11
-1542.737434462661
 21
1756.502455969888
 31
0.0
  0
LINE
  5
131A1
330
1A
100
AcDbEntity
  8
ZISSEN1
100
AcDbLine
 10
-1552.737434462657
 20
1759.002455969882
 30
0.0
 11
-1542.737434462657
 21
1759.002455969882
 31
0.0
  0
LINE
  5
131A2
330
1A
100
AcDbEntity
  8
ZISSEN1
100
AcDbLine
 10
-1552.737434462657
 20
1759.802455969882
 30
0.0
 11
-1542.737434462657
 21
1759.802455969882
 31
0.0
  0
LINE
  5
131A3
330
1A
100
AcDbEntity
  8
ZISSEN1
100
AcDbLine
 10
-1565.887405895424
 20
1762.502455969887
 30
0.0
 11
-1565.387405895424
 21
1762.502455969887
 31
0.0
  0
LINE
  5
131A4
330
1A
100
AcDbEntity
  8
ZISSEN1
100
AcDbLine
 10
-1565.387405895424
 20
1759.802455969888
 30
0.0
 11
-1565.387405895424
 21
1763.202455969887
 31
0.0
  0
LINE
  5
131A5
330
1A
100
AcDbEntity
  8
ZISSEN1
100
AcDbLine
 10
-1565.887405895424
 20
1763.202455969888
 30
0.0
 11
-1565.887405895424
 21
1759.802455969888
 31
0.0
  0
ARC
  5
131A6
330
1A
100
AcDbEntity
  8
ZISSEN1
100
AcDbCircle
 10
-1563.03743446266
 20
1758.502455969888
 30
0.0
 40
0.5
100
AcDbArc
 50
90.0
 51
180.0
  0
ARC
  5
131A7
330
1A
100
AcDbEntity
  8
ZISSEN1
100
AcDbCircle
 10
-1568.23743446266
 20
1758.502455969888
 30
0.0
 40
0.5
100
AcDbArc
 50
0.0
 51
90.0
  0
LINE
  5
131A8
330
1A
100
AcDbEntity
  8
ZISSEN1
100
AcDbLine
 10
-1567.73743446266
 20
1757.502455969888
 30
0.0
 11
-1563.537434462659
 21
1757.502455969888
 31
0.0
  0
LINE
  5
131A9
330
1A
100
AcDbEntity
  8
ZISSEN1
100
AcDbLine
 10
-1567.73743446266
 20
1758.502455969888
 30
0.0
 11
-1567.73743446266
 21
1757.502455969888
 31
0.0
  0
LINE
  5
131AA
330
1A
100
AcDbEntity
  8
ZISSEN1
100
AcDbLine
 10
-1563.537434462659
 20
1758.502455969888
 30
0.0
 11
-1563.537434462659
 21
1757.502455969888
 31
0.0
  0
LINE
  5
131AB
330
1A
100
AcDbEntity
  8
ZISSEN1
100
AcDbLine
 10
-1552.73743446266
 20
1759.802455969888
 30
0.0
 11
-1552.73743446266
 21
1756.502455969888
 31
0.0
  0
LINE
  5
131AC
330
1A
100
AcDbEntity
  8
ZISSEN1
100
AcDbLine
 10
-1560.63743446266
 20
1759.802455969888
 30
0.0
 11
-1552.73743446266
 21
1759.802455969888
 31
0.0
  0
LINE
  5
131AD
330
1A
100
AcDbEntity
  8
ZISSEN1
100
AcDbLine
 10
-1560.63743446266
 20
1756.502455969888
 30
0.0
 11
-1560.63743446266
 21
1759.802455969888
 31
0.0
  0
LINE
  5
131AE
330
1A
100
AcDbEntity
  8
ZISSEN1
100
AcDbLine
 10
-1547.987406027768
 20
1763.202456059707
 30
0.0
 11
-1547.487406027768
 21
1763.202456059707
 31
0.0
  0
LINE
  5
131AF
330
1A
100
AcDbEntity
  8
ZISSEN1
100
AcDbLine
 10
-1547.987405895423
 20
1762.502455969887
 30
0.0
 11
-1547.487405895423
 21
1762.502455969887
 31
0.0
  0
LINE
  5
131B0
330
1A
100
AcDbEntity
  8
ZISSEN1
100
AcDbLine
 10
-1547.487405895423
 20
1759.802455969888
 30
0.0
 11
-1547.487405895423
 21
1763.202455969887
 31
0.0
  0
LINE
  5
131B1
330
1A
100
AcDbEntity
  8
ZISSEN1
100
AcDbLine
 10
-1547.987405895423
 20
1763.202455969888
 30
0.0
 11
-1547.987405895423
 21
1759.802455969888
 31
0.0
  0
ARC
  5
131B2
330
1A
100
AcDbEntity
  8
ZISSEN1
100
AcDbCircle
 10
-1545.13743446266
 20
1758.502455969888
 30
0.0
 40
0.5
100
AcDbArc
 50
90.0
 51
180.0
  0
LINE
  5
131B3
330
1A
100
AcDbEntity
  8
ZISSEN1
100
AcDbLine
 10
-1549.837434462661
 20
1757.502455969888
 30
0.0
 11
-1545.63743446266
 21
1757.502455969888
 31
0.0
  0
LINE
  5
131B4
330
1A
100
AcDbEntity
  8
ZISSEN1
100
AcDbLine
 10
-1549.837434462661
 20
1758.502455969888
 30
0.0
 11
-1549.837434462661
 21
1757.502455969888
 31
0.0
  0
LINE
  5
131B5
330
1A
100
AcDbEntity
  8
ZISSEN1
100
AcDbLine
 10
-1545.63743446266
 20
1758.502455969888
 30
0.0
 11
-1545.63743446266
 21
1757.502455969888
 31
0.0
  0
LINE
  5
131B6
330
1A
100
AcDbEntity
  8
ZISSEN1
100
AcDbLine
 10
-1542.737434462661
 20
1756.502455969888
 30
0.0
 11
-1542.737434462661
 21
1759.802455969888
 31
0.0
  0
MTEXT
  5
131B7
330
1A
100
AcDbEntity
  8
ZISSEN1
100
AcDbMText
 10
-1572.62568323742
 20
1812.582175875593
 30
0.0
 40
3.0
 41
44.4205
 71
     1
 72
     5
  1
{\fＭＳ ゴシック|b0|i0|c128|p49;(USER取付寸法)}
1001
ACAD
1000
MTEXTBEGIN
1070
    73
1070
     1
1070
    44
1040
1.0
1070
    74
1070
     0
1000
MTEXTEND
  0
LINE
  5
131B8
330
1A
100
AcDbEntity
  8
ZISSEN1
100
AcDbLine
 10
-1605.087434462661
 20
1832.737258119737
 30
0.0
 11
-1587.78743446266
 21
1832.737258119738
 31
0.0
  0
LINE
  5
131B9
330
1A
100
AcDbEntity
  8
ZISSEN1
100
AcDbLine
 10
-1605.087434462661
 20
1831.137258119738
 30
0.0
 11
-1587.78743446266
 21
1831.137258119738
 31
0.0
  0
LINE
  5
131BA
330
1A
100
AcDbEntity
  8
ZISSEN1
100
AcDbLine
 10
-1605.087434462661
 20
1827.137258119737
 30
0.0
 11
-1587.78743446266
 21
1827.137258119737
 31
0.0
  0
LINE
  5
131BB
330
1A
100
AcDbEntity
  8
ZISSEN1
100
AcDbLine
 10
-1607.337434462661
 20
1833.837258119737
 30
0.0
 11
-1607.337434462661
 21
1832.737258119737
 31
0.0
  0
LINE
  5
131BC
330
1A
100
AcDbEntity
  8
ZISSEN1
100
AcDbLine
 10
-1606.087434462661
 20
1833.837258119737
 30
0.0
 11
-1607.337434462661
 21
1833.837258119737
 31
0.0
  0
LINE
  5
131BD
330
1A
100
AcDbEntity
  8
ZISSEN1
100
AcDbLine
 10
-1603.287405895423
 20
1828.787258119738
 30
0.0
 11
-1603.287405895423
 21
1831.137258119738
 31
0.0
  0
LINE
  5
131BE
330
1A
100
AcDbEntity
  8
ZISSEN1
100
AcDbLine
 10
-1596.687406153487
 20
1828.787258119738
 30
0.0
 11
-1603.287405895423
 21
1828.787258119738
 31
0.0
  0
LINE
  5
131BF
330
1A
100
AcDbEntity
  8
ZISSEN1
100
AcDbLine
 10
-1596.687404895869
 20
1831.137258119738
 30
0.0
 11
-1596.687406153487
 21
1828.787258119738
 31
0.0
  0
LINE
  5
131C0
330
1A
100
AcDbEntity
  8
ZISSEN1
100
AcDbLine
 10
-1596.187405637357
 20
1828.787258119738
 30
0.0
 11
-1596.187405637357
 21
1831.137258119738
 31
0.0
  0
LINE
  5
131C1
330
1A
100
AcDbEntity
  8
ZISSEN1
100
AcDbLine
 10
-1589.587405637358
 20
1828.787258119738
 30
0.0
 11
-1596.187405637357
 21
1828.787258119738
 31
0.0
  0
LINE
  5
131C2
330
1A
100
AcDbEntity
  8
ZISSEN1
100
AcDbLine
 10
-1589.587405637358
 20
1831.137258119738
 30
0.0
 11
-1589.587405637358
 21
1828.787258119738
 31
0.0
  0
LINE
  5
131C3
330
1A
100
AcDbEntity
  8
ZISSEN1
100
AcDbLine
 10
-1589.287405895422
 20
1831.137258119738
 30
0.0
 11
-1589.287405895422
 21
1832.737258119737
 31
0.0
  0
LINE
  5
131C4
330
1A
100
AcDbEntity
  8
ZISSEN1
100
AcDbLine
 10
-1603.587405895423
 20
1831.137258119738
 30
0.0
 11
-1603.587405895423
 21
1832.737258119737
 31
0.0
  0
LINE
  5
131C5
330
1A
100
AcDbEntity
  8
ZISSEN1
100
AcDbLine
 10
-1604.587405895423
 20
1831.137258119738
 30
0.0
 11
-1604.587405895423
 21
1832.737258119737
 31
0.0
  0
LINE
  5
131C6
330
1A
100
AcDbEntity
  8
ZISSEN1
100
AcDbLine
 10
-1606.107434462659
 20
1835.837258119737
 30
0.0
 11
-1606.107434462659
 21
1835.837258119737
 31
0.0
  0
LINE
  5
131C7
330
1A
100
AcDbEntity
  8
ZISSEN1
100
AcDbLine
 10
-1606.087434462661
 20
1832.237258119737
 30
0.0
 11
-1606.087434462661
 21
1835.837258119737
 31
0.0
  0
LINE
  5
131C8
330
1A
100
AcDbEntity
  8
ZISSEN1
100
AcDbLine
 10
-1606.107434462659
 20
1835.837258119737
 30
0.0
 11
-1606.107434462659
 21
1835.837258119737
 31
0.0
  0
ARC
  5
131C9
330
1A
100
AcDbEntity
  8
ZISSEN1
100
AcDbCircle
 10
-1578.687434462658
 20
1829.963635814189
 30
0.0
 40
5.965971797949382
100
AcDbArc
 50
227.8967161663672
 51
312.1032838337063
  0
LINE
  5
131CA
330
1A
100
AcDbEntity
  8
ZISSEN1
100
AcDbLine
 10
-1575.687434462658
 20
1826.337258119739
 30
0.0
 11
-1575.687434462658
 21
1825.537258119739
 31
0.0
  0
LINE
  5
131CB
330
1A
100
AcDbEntity
  8
ZISSEN1
100
AcDbLine
 10
-1581.687434462656
 20
1826.337258119736
 30
0.0
 11
-1581.687434462656
 21
1825.537258119735
 31
0.0
  0
LINE
  5
131CC
330
1A
100
AcDbEntity
  8
ZISSEN1
100
AcDbLine
 10
-1574.687434462657
 20
1825.537258119739
 30
0.0
 11
-1574.687434462657
 21
1826.337258119739
 31
0.0
  0
LINE
  5
131CD
330
1A
100
AcDbEntity
  8
ZISSEN1
100
AcDbLine
 10
-1582.687434462654
 20
1825.537258119735
 30
0.0
 11
-1574.687434462657
 21
1825.537258119739
 31
0.0
  0
LINE
  5
131CE
330
1A
100
AcDbEntity
  8
ZISSEN1
100
AcDbLine
 10
-1582.687434462656
 20
1826.337258119735
 30
0.0
 11
-1582.687434462654
 21
1825.537258119735
 31
0.0
  0
LINE
  5
131CF
330
1A
100
AcDbEntity
  8
ZISSEN1
100
AcDbLine
 10
-1588.287405895422
 20
1831.137258119738
 30
0.0
 11
-1588.287405895422
 21
1832.737258119737
 31
0.0
  0
LINE
  5
131D0
330
1A
100
AcDbEntity
  8
CL1
100
AcDbLine
 10
-1551.703275217466
 20
1829.176311584124
 30
0.0
 11
-1543.558659374247
 21
1829.176311584124
 31
0.0
  0
CIRCLE
  5
131D1
330
1A
100
AcDbEntity
  8
ZISSEN1
100
AcDbCircle
 10
-1565.637434462658
 20
1829.176311584124
 30
0.0
 40
0.9
  0
CIRCLE
  5
131D2
330
1A
100
AcDbEntity
  8
ZISSEN1
100
AcDbCircle
 10
-1565.637434462658
 20
1829.176311584124
 30
0.0
 40
1.3
  0
LINE
  5
131D3
330
1A
100
AcDbEntity
  8
CL1
100
AcDbLine
 10
-1565.637434462658
 20
1832.237258119736
 30
0.0
 11
-1565.637434462658
 21
1826.337258119738
 31
0.0
  0
LINE
  5
131D4
330
1A
100
AcDbEntity
  8
CL1
100
AcDbLine
 10
-1568.652880460033
 20
1829.176311584124
 30
0.0
 11
-1560.728389590838
 21
1829.176311584124
 31
0.0
  0
CIRCLE
  5
131D5
330
1A
100
AcDbEntity
  8
ZISSEN1
100
AcDbCircle
 10
-1547.737434462658
 20
1829.176311584124
 30
0.0
 40
0.9
  0
CIRCLE
  5
131D6
330
1A
100
AcDbEntity
  8
ZISSEN1
100
AcDbCircle
 10
-1547.737434462658
 20
1829.176311584124
 30
0.0
 40
1.3
  0
LINE
  5
131D7
330
1A
100
AcDbEntity
  8
CL1
100
AcDbLine
 10
-1547.737434462658
 20
1832.237258119736
 30
0.0
 11
-1547.737434462658
 21
1826.337258119738
 31
0.0
  0
DIMENSION
  5
131D8
330
1A
100
AcDbEntity
  8
SUNPOU
100
AcDbDimension
  2
*D8
 10
-1485.611252287179
 20
1764.002454788814
 30
0.0
 11
-1487.861252287179
 21
1720.252455379351
 31
0.0
 70
    32
  3
ATSUSHI
100
AcDbAlignedDimension
 13
-1471.687434462656
 23
1676.502455969889
 33
0.0
 14
-1467.287434462658
 24
1764.002454788814
 34
0.0
 50
90.0
100
AcDbRotatedDimension
1001
ACAD
1000
DSTYLE
1002
{
1070
   140
1040
3.5
1070
    40
1040
1.0
1070
   340
1005
10
1002
}
  0
LINE
  5
131D9
330
1A
100
AcDbEntity
  8
ZISSEN1
100
AcDbLine
 10
-1436.687434462657
 20
1688.502455969887
 30
0.0
 11
-1436.687434462657
 21
1750.002455969887
 31
0.0
  0
LINE
  5
131DA
330
1A
100
AcDbEntity
  8
ZISSEN1
100
AcDbLine
 10
-1435.087434462657
 20
1691.002455991496
 30
0.0
 11
-1435.087434462657
 21
1739.002455991496
 31
0.0
  0
LINE
  5
131DB
330
1A
100
AcDbEntity
  8
ZISSEN1
100
AcDbLine
 10
-1473.687434462657
 20
1680.302455969889
 30
0.0
 11
-1473.687434462659
 21
1758.80245882634
 31
0.0
  0
LINE
  5
131DC
330
1A
100
AcDbEntity
  8
ZISSEN1
100
AcDbLine
 10
-1438.687434462656
 20
1679.502455969888
 30
0.0
 11
-1438.687434462652
 21
1755.002455969886
 31
0.0
  0
LINE
  5
131DD
330
1A
100
AcDbEntity
  8
ZISSEN1
100
AcDbLine
 10
-1502.887434462658
 20
1756.002455969888
 30
0.0
 11
-1502.887434462658
 21
1679.502455969888
 31
0.0
  0
LINE
  5
131DE
330
1A
100
AcDbEntity
  8
ZISSEN1
100
AcDbLine
 10
-1434.787434462658
 20
1683.50245608353
 30
0.0
 11
-1434.787434462658
 21
1759.002455969887
 31
0.0
  0
LINE
  5
131DF
330
1A
100
AcDbEntity
  8
ZISSEN1
100
AcDbLine
 10
-1428.787434462658
 20
1679.502455969888
 30
0.0
 11
-1428.787434462658
 21
1759.002455969887
 31
0.0
  0
LINE
  5
131E0
330
1A
100
AcDbEntity
  8
ZISSEN1
100
AcDbLine
 10
-1431.787434462658
 20
1759.002455969887
 30
0.0
 11
-1431.787434462658
 21
1679.702455969888
 31
0.0
  0
LINE
  5
131E1
330
1A
100
AcDbEntity
  8
ZISSEN1
100
AcDbLine
 10
-1473.687434462656
 20
1679.502455969888
 30
0.0
 11
-1431.987434462659
 21
1679.502455969888
 31
0.0
  0
LINE
  5
131E2
330
1A
100
AcDbEntity
  8
ZISSEN1
100
AcDbLine
 10
-1444.187434462656
 20
1689.502455969889
 30
0.0
 11
-1473.687434462659
 21
1689.502455969889
 31
0.0
  0
LINE
  5
131E3
330
1A
100
AcDbEntity
  8
ZISSEN1
100
AcDbLine
 10
-1473.687434462656
 20
1676.502455969889
 30
0.0
 11
-1431.787434462662
 21
1676.502455969889
 31
0.0
  0
LINE
  5
131E4
330
1A
100
AcDbEntity
  8
ZISSEN1
100
AcDbLine
 10
-1503.687434010426
 20
1679.502455969888
 30
0.0
 11
-1503.687432201499
 21
1689.502455969889
 31
0.0
  0
LINE
  5
131E5
330
1A
100
AcDbEntity
  8
ZISSEN1
100
AcDbLine
 10
-1495.687434462656
 20
1676.502455969889
 30
0.0
 11
-1495.687434462656
 21
1679.502455969888
 31
0.0
  0
LINE
  5
131E6
330
1A
100
AcDbEntity
  8
ZISSEN1
100
AcDbLine
 10
-1493.687434462656
 20
1676.502455969889
 30
0.0
 11
-1493.687434462656
 21
1679.502455969888
 31
0.0
  0
LINE
  5
131E7
330
1A
100
AcDbEntity
  8
ZISSEN1
100
AcDbLine
 10
-1503.887434462658
 20
1683.502455969888
 30
0.0
 11
-1504.887434462658
 21
1682.502455969888
 31
0.0
  0
LINE
  5
131E8
330
1A
100
AcDbEntity
  8
ZISSEN1
100
AcDbLine
 10
-1503.887434462656
 20
1689.502455969889
 30
0.0
 11
-1503.887434462658
 21
1683.502455969888
 31
0.0
  0
LINE
  5
131E9
330
1A
100
AcDbEntity
  8
ZISSEN1
100
AcDbLine
 10
-1503.887434462656
 20
1689.502455969889
 30
0.0
 11
-1502.887434462658
 21
1689.502455969889
 31
0.0
  0
LINE
  5
131EA
330
1A
100
AcDbEntity
  8
ZISSEN1
100
AcDbLine
 10
-1474.48743446266
 20
1690.002455969888
 30
0.0
 11
-1474.487434462657
 21
1680.002455969888
 31
0.0
  0
LINE
  5
131EB
330
1A
100
AcDbEntity
  8
ZISSEN1
100
AcDbLine
 10
-1457.487434462657
 20
1680.302455969892
 30
0.0
 11
-1473.687434462657
 21
1680.302455969889
 31
0.0
  0
ARC
  5
131EC
330
1A
100
AcDbEntity
  8
ZISSEN1
100
AcDbCircle
 10
-1473.987434462657
 20
1680.002455969889
 30
0.0
 40
0.5
100
AcDbArc
 50
180.0
 51
270.0
  0
LINE
  5
131ED
330
1A
100
AcDbEntity
  8
ZISSEN1
100
AcDbLine
 10
-1473.987434462658
 20
1679.502455969888
 30
0.0
 11
-1473.687434462659
 21
1679.502455969888
 31
0.0
  0
LINE
  5
131EE
330
1A
100
AcDbEntity
  8
ZISSEN1
100
AcDbLine
 10
-1473.687434462656
 20
1676.502455969889
 30
0.0
 11
-1473.687434462656
 21
1679.502455969888
 31
0.0
  0
LINE
  5
131EF
330
1A
100
AcDbEntity
  8
ZISSEN1
100
AcDbLine
 10
-1457.487434462659
 20
1679.502455969891
 30
0.0
 11
-1457.487434462657
 21
1680.302455969892
 31
0.0
  0
LINE
  5
131F0
330
1A
100
AcDbEntity
  8
ZISSEN1
100
AcDbLine
 10
-1471.687434462656
 20
1676.502455969889
 30
0.0
 11
-1471.687434462656
 21
1679.502455969888
 31
0.0
  0
LINE
  5
131F1
330
1A
100
AcDbEntity
  8
ZISSEN1
100
AcDbLine
 10
-1473.687434462659
 20
1683.502455969888
 30
0.0
 11
-1472.88743446266
 21
1683.502455969888
 31
0.0
  0
LINE
  5
131F2
330
1A
100
AcDbEntity
  8
ZISSEN1
100
AcDbLine
 10
-1473.687434462659
 20
1682.502455969888
 30
0.0
 11
-1472.88743446266
 21
1682.502455969888
 31
0.0
  0
LINE
  5
131F3
330
1A
100
AcDbEntity
  8
ZISSEN1
100
AcDbLine
 10
-1474.487434462659
 20
1689.002455969887
 30
0.0
 11
-1473.687434462659
 21
1689.002455969887
 31
0.0
  0
LINE
  5
131F4
330
1A
100
AcDbEntity
  8
ZISSEN1
100
AcDbLine
 10
-1474.48743446266
 20
1690.002455969888
 30
0.0
 11
-1473.687434462659
 21
1690.002455969888
 31
0.0
  0
LINE
  5
131F5
330
1A
100
AcDbEntity
  8
ZISSEN1
100
AcDbLine
 10
-1474.487434462662
 20
1689.00245488599
 30
0.0
 11
-1473.687434462663
 21
1689.002454885991
 31
0.0
  0
ARC
  5
131F6
330
1A
100
AcDbEntity
  8
ZISSEN1
100
AcDbCircle
 10
-1471.312805474063
 20
1686.002454885986
 30
0.0
 40
5.174628988598421
100
AcDbArc
 50
143.708301872686
 51
216.2916981273139
  0
LINE
  5
131F7
330
1A
100
AcDbEntity
  8
ZISSEN1
100
AcDbLine
 10
-1474.487434462662
 20
1689.152454885986
 30
0.0
 11
-1475.483629160753
 21
1689.065299143239
 31
0.0
  0
LINE
  5
131F8
330
1A
100
AcDbEntity
  8
ZISSEN1
100
AcDbLine
 10
-1474.487434462662
 20
1682.852454885987
 30
0.0
 11
-1475.483629160753
 21
1682.939610628734
 31
0.0
  0
LINE
  5
131F9
330
1A
100
AcDbEntity
  8
ZISSEN1
100
AcDbLine
 10
-1474.487434462662
 20
1689.00245488599
 30
0.0
 11
-1473.687434462663
 21
1689.002454885991
 31
0.0
  0
LINE
  5
131FA
330
1A
100
AcDbEntity
  8
ZISSEN1
100
AcDbLine
 10
-1468.88743446266
 20
1685.502438856671
 30
0.0
 11
-1467.287434462658
 21
1685.502438856671
 31
0.0
  0
LINE
  5
131FB
330
1A
100
AcDbEntity
  8
ZISSEN1
100
AcDbLine
 10
-1468.88743446266
 20
1684.502438856672
 30
0.0
 11
-1468.88743446266
 21
1689.502455969889
 31
0.0
  0
LINE
  5
131FC
330
1A
100
AcDbEntity
  8
ZISSEN1
100
AcDbLine
 10
-1467.287434462658
 20
1684.502438856672
 30
0.0
 11
-1468.88743446266
 21
1684.502438856672
 31
0.0
  0
LINE
  5
131FD
330
1A
100
AcDbEntity
  8
ZISSEN1
100
AcDbLine
 10
-1467.287434462658
 20
1684.502438856672
 30
0.0
 11
-1467.287434462658
 21
1689.502455969889
 31
0.0
  0
LINE
  5
131FE
330
1A
100
AcDbEntity
  8
ZISSEN1
100
AcDbLine
 10
-1472.88743446266
 20
1682.502455969888
 30
0.0
 11
-1472.88743446266
 21
1689.502455969889
 31
0.0
  0
LINE
  5
131FF
330
1A
100
AcDbEntity
  8
ZISSEN1
100
AcDbLine
 10
-1444.187434462656
 20
1679.502455969888
 30
0.0
 11
-1444.187434462656
 21
1689.502455969889
 31
0.0
  0
LINE
  5
13200
330
1A
100
AcDbEntity
  8
ZISSEN1
100
AcDbLine
 10
-1448.537434462658
 20
1676.502455969889
 30
0.0
 11
-1448.537434462658
 21
1679.502455969888
 31
0.0
  0
LINE
  5
13201
330
1A
100
AcDbEntity
  8
ZISSEN1
100
AcDbLine
 10
-1435.787434462658
 20
1676.502455969889
 30
0.0
 11
-1435.787434462658
 21
1679.502455969888
 31
0.0
  0
LINE
  5
13202
330
1A
100
AcDbEntity
  8
ZISSEN1
100
AcDbLine
 10
-1453.037434462658
 20
1676.502455969889
 30
0.0
 11
-1453.037434462658
 21
1679.502455969888
 31
0.0
  0
LINE
  5
13203
330
1A
100
AcDbEntity
  8
ZISSEN1
100
AcDbLine
 10
-1431.987434462659
 20
1679.502455969888
 30
0.0
 11
-1431.84601310642
 21
1679.561034613651
 31
0.0
  0
LINE
  5
13204
330
1A
100
AcDbEntity
  8
ZISSEN1
100
AcDbLine
 10
-1433.787434462658
 20
1676.502455969889
 30
0.0
 11
-1433.787434462658
 21
1679.502455969888
 31
0.0
  0
ARC
  5
13205
330
1A
100
AcDbEntity
  8
ZISSEN1
100
AcDbCircle
 10
-1431.787434462662
 20
1679.502455969891
 30
0.0
 40
3.000000000002046
100
AcDbArc
 50
270.0
 51
359.9999999999478
  0
LINE
  5
13206
330
1A
100
AcDbEntity
  8
ZISSEN1
100
AcDbLine
 10
-1431.84601310642
 20
1679.561034613651
 30
0.0
 11
-1431.787434462658
 21
1679.702455969888
 31
0.0
  0
LINE
  5
13207
330
1A
100
AcDbEntity
  8
ZISSEN1
100
AcDbLine
 10
-1435.087434462657
 20
1691.002455991496
 30
0.0
 11
-1434.787434462658
 21
1691.002455991496
 31
0.0
  0
LINE
  5
13208
330
1A
100
AcDbEntity
  8
ZISSEN1
100
AcDbLine
 10
-1434.787434462658
 20
1688.502455991495
 30
0.0
 11
-1435.087434462657
 21
1688.502455991495
 31
0.0
  0
LINE
  5
13209
330
1A
100
AcDbEntity
  8
ZISSEN1
100
AcDbLine
 10
-1435.087434462657
 20
1689.502455991501
 30
0.0
 11
-1434.787434462658
 21
1689.502455991501
 31
0.0
  0
LINE
  5
1320A
330
1A
100
AcDbEntity
  8
ZISSEN1
100
AcDbLine
 10
-1444.187434462656
 20
1688.002455969887
 30
0.0
 11
-1444.287434462658
 21
1688.002455969887
 31
0.0
  0
LINE
  5
1320B
330
1A
100
AcDbEntity
  8
ZISSEN1
100
AcDbLine
 10
-1444.287434462658
 20
1688.002455969887
 30
0.0
 11
-1444.287434462658
 21
1689.502455969889
 31
0.0
  0
LINE
  5
1320C
330
1A
100
AcDbEntity
  8
ZISSEN1
100
AcDbLine
 10
-1438.687434462656
 20
1691.002455969887
 30
0.0
 11
-1437.687434462658
 21
1691.002455969887
 31
0.0
  0
LINE
  5
1320D
330
1A
100
AcDbEntity
  8
ZISSEN1
100
AcDbLine
 10
-1437.687434462658
 20
1688.502455969888
 30
0.0
 11
-1437.687434462656
 21
1693.502455969888
 31
0.0
  0
LINE
  5
1320E
330
1A
100
AcDbEntity
  8
ZISSEN1
100
AcDbLine
 10
-1438.687434462656
 20
1693.502455969888
 30
0.0
 11
-1436.687434462657
 21
1693.502455969888
 31
0.0
  0
LINE
  5
1320F
330
1A
100
AcDbEntity
  8
ZISSEN1
100
AcDbLine
 10
-1438.687434462656
 20
1688.502455969888
 30
0.0
 11
-1436.687434462657
 21
1688.502455969888
 31
0.0
  0
LINE
  5
13210
330
1A
100
AcDbEntity
  8
ZISSEN1
100
AcDbLine
 10
-1436.687434462657
 20
1689.502455969893
 30
0.0
 11
-1435.087434462657
 21
1689.502455969893
 31
0.0
  0
LINE
  5
13211
330
1A
100
AcDbEntity
  8
ZISSEN1
100
AcDbLine
 10
-1435.087434462657
 20
1688.502455969887
 30
0.0
 11
-1436.687434462657
 21
1688.502455969887
 31
0.0
  0
LINE
  5
13212
330
1A
100
AcDbEntity
  8
ZISSEN1
100
AcDbLine
 10
-1435.087434462657
 20
1688.502455991495
 30
0.0
 11
-1435.087434462657
 21
1691.002455991496
 31
0.0
  0
ARC
  5
13213
330
1A
100
AcDbEntity
  8
ZISSEN1
100
AcDbCircle
 10
-1431.962063451257
 20
1695.00245596987
 30
0.0
 40
5.174628988598421
100
AcDbArc
 50
323.708301872686
 51
36.29169812731397
  0
LINE
  5
13214
330
1A
100
AcDbEntity
  8
ZISSEN1
100
AcDbLine
 10
-1428.787434462658
 20
1691.852455969869
 30
0.0
 11
-1427.791239764567
 21
1691.939611712617
 31
0.0
  0
LINE
  5
13215
330
1A
100
AcDbEntity
  8
ZISSEN1
100
AcDbLine
 10
-1428.787434462658
 20
1698.152455969869
 30
0.0
 11
-1427.791239764567
 21
1698.065300227121
 31
0.0
  0
LINE
  5
13216
330
1A
100
AcDbEntity
  8
ZISSEN1
100
AcDbLine
 10
-1428.787434462658
 20
1698.152455969869
 30
0.0
 11
-1428.787434462658
 21
1691.852455969869
 31
0.0
  0
ARC
  5
13217
330
1A
100
AcDbEntity
  8
ZISSEN1
100
AcDbCircle
 10
-1431.962063451257
 20
1687.002455969888
 30
0.0
 40
5.174628988598421
100
AcDbArc
 50
323.708301872686
 51
36.29169812731397
  0
LINE
  5
13218
330
1A
100
AcDbEntity
  8
ZISSEN1
100
AcDbLine
 10
-1428.787434462658
 20
1683.852455969887
 30
0.0
 11
-1427.791239764567
 21
1683.939611712635
 31
0.0
  0
LINE
  5
13219
330
1A
100
AcDbEntity
  8
ZISSEN1
100
AcDbLine
 10
-1428.787434462658
 20
1690.152455969887
 30
0.0
 11
-1427.791239764567
 21
1690.06530022714
 31
0.0
  0
LINE
  5
1321A
330
1A
100
AcDbEntity
  8
ZISSEN1
100
AcDbLine
 10
-1428.787434462658
 20
1690.152455969887
 30
0.0
 11
-1428.787434462658
 21
1683.852455969887
 31
0.0
  0
LINE
  5
1321B
330
1A
100
AcDbEntity
  8
ZISSEN1
100
AcDbLine
 10
-1431.787434462658
 20
1690.00245608353
 30
0.0
 11
-1434.787434462658
 21
1690.00245608353
 31
0.0
  0
LINE
  5
1321C
330
1A
100
AcDbEntity
  8
ZISSEN1
100
AcDbLine
 10
-1431.787434462658
 20
1684.50245608353
 30
0.0
 11
-1434.787434462658
 21
1684.50245608353
 31
0.0
  0
LINE
  5
1321D
330
1A
100
AcDbEntity
  8
ZISSEN1
100
AcDbLine
 10
-1431.787434462658
 20
1683.50245608353
 30
0.0
 11
-1434.787434462658
 21
1683.50245608353
 31
0.0
  0
LINE
  5
1321E
330
1A
100
AcDbEntity
  8
ZISSEN1
100
AcDbLine
 10
-1444.287434462658
 20
1759.802460116652
 30
0.0
 11
-1472.687434579999
 21
1759.802455999222
 31
0.0
  0
LINE
  5
1321F
330
1A
100
AcDbEntity
  8
ZISSEN1
100
AcDbLine
 10
-1439.687434462656
 20
1756.002455969889
 30
0.0
 11
-1472.88743446266
 21
1756.002455969889
 31
0.0
  0
LINE
  5
13220
330
1A
100
AcDbEntity
  8
ZISSEN1
100
AcDbLine
 10
-1472.88743446266
 20
1759.002455969888
 30
0.0
 11
-1444.287434462658
 21
1759.002460164641
 31
0.0
  0
LINE
  5
13221
330
1A
100
AcDbEntity
  8
ZISSEN1
100
AcDbLine
 10
-1513.287417164776
 20
1763.202455969887
 30
0.0
 11
-1504.187417164776
 21
1763.202455969887
 31
0.0
  0
LINE
  5
13222
330
1A
100
AcDbEntity
  8
ZISSEN1
100
AcDbLine
 10
-1516.187426234195
 20
1760.502455969887
 30
0.0
 11
-1505.187434462656
 21
1760.502455969888
 31
0.0
  0
LINE
  5
13223
330
1A
100
AcDbEntity
  8
ZISSEN1
100
AcDbLine
 10
-1530.08740602777
 20
1763.202456059707
 30
0.0
 11
-1529.58740602777
 21
1763.202456059707
 31
0.0
  0
LINE
  5
13224
330
1A
100
AcDbEntity
  8
ZISSEN1
100
AcDbLine
 10
-1513.287417164776
 20
1760.502455969888
 30
0.0
 11
-1513.287417164776
 21
1763.202455969887
 31
0.0
  0
LINE
  5
13225
330
1A
100
AcDbEntity
  8
ZISSEN1
100
AcDbLine
 10
-1516.187426234195
 20
1759.802455969888
 30
0.0
 11
-1516.187426234195
 21
1760.502455969887
 31
0.0
  0
LINE
  5
13226
330
1A
100
AcDbEntity
  8
ZISSEN1
100
AcDbLine
 10
-1519.687403769067
 20
1763.202456626171
 30
0.0
 11
-1519.687404426706
 21
1759.802455969888
 31
0.0
  0
LINE
  5
13227
330
1A
100
AcDbEntity
  8
ZISSEN1
100
AcDbLine
 10
-1529.587403217809
 20
1763.202456626171
 30
0.0
 11
-1519.687403217811
 21
1763.202456626171
 31
0.0
  0
LINE
  5
13228
330
1A
100
AcDbEntity
  8
ZISSEN1
100
AcDbLine
 10
-1529.587404270282
 20
1759.802456026015
 30
0.0
 11
-1529.587403217809
 21
1763.202456626171
 31
0.0
  0
LINE
  5
13229
330
1A
100
AcDbEntity
  8
ZISSEN1
100
AcDbLine
 10
-1530.087405895425
 20
1763.202455969888
 30
0.0
 11
-1530.087405895425
 21
1759.802456027107
 31
0.0
  0
LINE
  5
1322A
330
1A
100
AcDbEntity
  8
ZISSEN1
100
AcDbLine
 10
-1504.187417164776
 20
1763.202455969887
 30
0.0
 11
-1504.187417164776
 21
1759.802455969888
 31
0.0
  0
LINE
  5
1322B
330
1A
100
AcDbEntity
  8
ZISSEN1
100
AcDbLine
 10
-1503.687433497282
 20
1758.002455969888
 30
0.0
 11
-1503.887434462658
 21
1758.202456935263
 31
0.0
  0
LINE
  5
1322C
330
1A
100
AcDbEntity
  8
ZISSEN1
100
AcDbLine
 10
-1503.68741716478
 20
1756.002455969888
 30
0.0
 11
-1503.687433497282
 21
1758.002455969888
 31
0.0
  0
LINE
  5
1322D
330
1A
100
AcDbEntity
  8
ZISSEN1
100
AcDbLine
 10
-1503.887434462658
 20
1756.002455969888
 30
0.0
 11
-1502.887434462658
 21
1756.002455969888
 31
0.0
  0
LINE
  5
1322E
330
1A
100
AcDbEntity
  8
ZISSEN1
100
AcDbLine
 10
-1503.887434462658
 20
1759.802455969888
 30
0.0
 11
-1503.887434462658
 21
1756.002455969888
 31
0.0
  0
ARC
  5
1322F
330
1A
100
AcDbEntity
  8
ZISSEN1
100
AcDbCircle
 10
-1504.187434462656
 20
1760.502455969888
 30
0.0
 40
1.0
100
AcDbArc
 50
180.0
 51
224.4270040008092
  0
ARC
  5
13230
330
1A
100
AcDbEntity
  8
ZISSEN1
100
AcDbCircle
 10
-1472.687434462659
 20
1758.80245882634
 30
0.0
 40
1.0
100
AcDbArc
 50
90.0
 51
180.0
  0
LINE
  5
13231
330
1A
100
AcDbEntity
  8
ZISSEN1
100
AcDbLine
 10
-1473.687434462659
 20
1756.002455969889
 30
0.0
 11
-1472.88743446266
 21
1756.002455969889
 31
0.0
  0
ARC
  5
13232
330
1A
100
AcDbEntity
  8
ZISSEN1
100
AcDbCircle
 10
-1472.687434433328
 20
1758.802455999223
 30
0.0
 40
0.999999999998181
100
AcDbArc
 50
90.00000840350057
 51
180.0000084036568
  0
LINE
  5
13233
330
1A
100
AcDbEntity
  8
ZISSEN1
100
AcDbLine
 10
-1459.587434462658
 20
1764.002454788814
 30
0.0
 11
-1459.587434462658
 21
1759.802454788814
 31
0.0
  0
LINE
  5
13234
330
1A
100
AcDbEntity
  8
ZISSEN1
100
AcDbLine
 10
-1467.287434462658
 20
1764.002454788814
 30
0.0
 11
-1459.587434462658
 21
1764.002454788814
 31
0.0
  0
LINE
  5
13235
330
1A
100
AcDbEntity
  8
ZISSEN1
100
AcDbLine
 10
-1467.287434462658
 20
1764.002454788814
 30
0.0
 11
-1467.287434462658
 21
1763.002454761697
 31
0.0
  0
LINE
  5
13236
330
1A
100
AcDbEntity
  8
ZISSEN1
100
AcDbLine
 10
-1468.88743446266
 20
1764.002454788814
 30
0.0
 11
-1468.88743453384
 21
1759.80245507065
 31
0.0
  0
LINE
  5
13237
330
1A
100
AcDbEntity
  8
ZISSEN1
100
AcDbLine
 10
-1467.287434479607
 20
1763.002454761697
 30
0.0
 11
-1468.887434479608
 21
1763.002454788814
 31
0.0
  0
LINE
  5
13238
330
1A
100
AcDbEntity
  8
ZISSEN1
100
AcDbLine
 10
-1468.887434359401
 20
1756.002455969889
 30
0.0
 11
-1468.88743422382
 21
1764.002454788814
 31
0.0
  0
LINE
  5
13239
330
1A
100
AcDbEntity
  8
ZISSEN1
100
AcDbLine
 10
-1467.287434527595
 20
1756.002455969889
 30
0.0
 11
-1467.287434400535
 21
1759.802456782113
 31
0.0
  0
LINE
  5
1323A
330
1A
100
AcDbEntity
  8
ZISSEN1
100
AcDbLine
 10
-1468.88743446266
 20
1764.002454788814
 30
0.0
 11
-1467.287434462658
 21
1764.002454788814
 31
0.0
  0
LINE
  5
1323B
330
1A
100
AcDbEntity
  8
ZISSEN1
100
AcDbLine
 10
-1468.88743446266
 20
1759.802456550145
 30
0.0
 11
-1468.88743446266
 21
1764.002454788814
 31
0.0
  0
LINE
  5
1323C
330
1A
100
AcDbEntity
  8
ZISSEN1
100
AcDbLine
 10
-1468.88743446266
 20
1758.002438856672
 30
0.0
 11
-1467.287434462658
 21
1758.002438856672
 31
0.0
  0
LINE
  5
1323D
330
1A
100
AcDbEntity
  8
ZISSEN1
100
AcDbLine
 10
-1468.88743446266
 20
1756.002455969889
 30
0.0
 11
-1468.88743446266
 21
1759.002438856671
 31
0.0
  0
LINE
  5
1323E
330
1A
100
AcDbEntity
  8
ZISSEN1
100
AcDbLine
 10
-1467.287434462658
 20
1763.202456810837
 30
0.0
 11
-1467.287434462658
 21
1759.80245882634
 31
0.0
  0
LINE
  5
1323F
330
1A
100
AcDbEntity
  8
ZISSEN1
100
AcDbLine
 10
-1467.287434462658
 20
1758.022455969887
 30
0.0
 11
-1467.287434462658
 21
1758.877456810836
 31
0.0
  0
LINE
  5
13240
330
1A
100
AcDbEntity
  8
ZISSEN1
100
AcDbLine
 10
-1467.287434462658
 20
1756.002455969887
 30
0.0
 11
-1467.287434462658
 21
1758.022455969887
 31
0.0
  0
LINE
  5
13241
330
1A
100
AcDbEntity
  8
ZISSEN1
100
AcDbLine
 10
-1455.187434386396
 20
1759.00246192613
 30
0.0
 11
-1455.18743443333
 21
1759.802458391391
 31
0.0
  0
LINE
  5
13242
330
1A
100
AcDbEntity
  8
ZISSEN1
100
AcDbLine
 10
-1456.187434386396
 20
1759.00246192613
 30
0.0
 11
-1456.18743443333
 21
1759.802458391391
 31
0.0
  0
LINE
  5
13243
330
1A
100
AcDbEntity
  8
ZISSEN1
100
AcDbLine
 10
-1472.88743446266
 20
1756.002455969889
 30
0.0
 11
-1472.88743446266
 21
1759.002455969888
 31
0.0
  0
LINE
  5
13244
330
1A
100
AcDbEntity
  8
ZISSEN1
100
AcDbLine
 10
-1472.88743446266
 20
1759.002455969888
 30
0.0
 11
-1472.88743446266
 21
1756.002455969889
 31
0.0
  0
ARC
  5
13245
330
1A
100
AcDbEntity
  8
ZISSEN1
100
AcDbCircle
 10
-1503.725072959388
 20
1827.174896616476
 30
0.0
 40
0.8532288725551467
100
AcDbArc
 50
259.0302515055351
 51
10.96974849453129
  0
LINE
  5
13246
330
1A
100
AcDbEntity
  8
ZISSEN1
100
AcDbLine
 10
-1493.687434462656
 20
1828.337258119738
 30
0.0
 11
-1495.687434462656
 21
1826.337258119738
 31
0.0
  0
LINE
  5
13247
330
1A
100
AcDbEntity
  8
ZISSEN1
100
AcDbLine
 10
-1503.88743446266
 20
1827.137258119737
 30
0.0
 11
-1503.687434462659
 21
1827.137258119737
 31
0.0
  0
LINE
  5
13248
330
1A
100
AcDbEntity
  8
ZISSEN1
100
AcDbLine
 10
-1435.087434462657
 20
1739.002455991496
 30
0.0
 11
-1435.087434462657
 21
1759.002455969887
 31
0.0
  0
LINE
  5
13249
330
1A
100
AcDbEntity
  8
ZISSEN1
100
AcDbLine
 10
-1435.087434462657
 20
1739.002455991496
 30
0.0
 11
-1434.787434462658
 21
1739.002455991496
 31
0.0
  0
LINE
  5
1324A
330
1A
100
AcDbEntity
  8
ZISSEN1
100
AcDbLine
 10
-1434.787434462658
 20
1740.00245608353
 30
0.0
 11
-1431.787434462658
 21
1740.00245608353
 31
0.0
  0
LINE
  5
1324B
330
1A
100
AcDbEntity
  8
ZISSEN1
100
AcDbLine
 10
-1435.087434462657
 20
1763.802455969889
 30
0.0
 11
-1427.187434462657
 21
1763.802455969889
 31
0.0
  0
LINE
  5
1324C
330
1A
100
AcDbEntity
  8
ZISSEN1
100
AcDbLine
 10
-1434.787434462658
 20
1749.002455969888
 30
0.0
 11
-1435.087434462657
 21
1749.002455969888
 31
0.0
  0
LINE
  5
1324D
330
1A
100
AcDbEntity
  8
ZISSEN1
100
AcDbLine
 10
-1435.087434462657
 20
1758.002455940828
 30
0.0
 11
-1434.787434462658
 21
1758.002456083529
 31
0.0
  0
LINE
  5
1324E
330
1A
100
AcDbEntity
  8
ZISSEN1
100
AcDbLine
 10
-1435.087434462657
 20
1748.002455991495
 30
0.0
 11
-1434.787434462658
 21
1748.002455991495
 31
0.0
  0
LINE
  5
1324F
330
1A
100
AcDbEntity
  8
ZISSEN1
100
AcDbLine
 10
-1442.687434462658
 20
1759.802460348621
 30
0.0
 11
-1429.287434579993
 21
1759.802462291352
 31
0.0
  0
LINE
  5
13250
330
1A
100
AcDbEntity
  8
ZISSEN1
100
AcDbLine
 10
-1428.787434462658
 20
1759.002455805054
 30
0.0
 11
-1442.687434462658
 21
1759.002460387396
 31
0.0
  0
LINE
  5
13251
330
1A
100
AcDbEntity
  8
ZISSEN1
100
AcDbLine
 10
-1429.287434579993
 20
1759.802462291352
 30
0.0
 11
-1442.687434462657
 21
1759.802460348621
 31
0.0
  0
LINE
  5
13252
330
1A
100
AcDbEntity
  8
ZISSEN1
100
AcDbLine
 10
-1435.087434462657
 20
1758.002455940828
 30
0.0
 11
-1434.787434462658
 21
1758.002455940828
 31
0.0
  0
LINE
  5
13253
330
1A
100
AcDbEntity
  8
ZISSEN1
  6
PHANTOMX2
100
AcDbLine
 10
-1451.187434192654
 20
1763.202456134199
 30
0.0
 11
-1451.187434212745
 21
1759.802459116291
 31
0.0
  0
LINE
  5
13254
330
1A
100
AcDbEntity
  8
ZISSEN1
  6
PHANTOMX2
100
AcDbLine
 10
-1444.287434462658
 20
1763.2024561342
 30
0.0
 11
-1444.287434462658
 21
1756.002455969887
 31
0.0
  0
LINE
  5
13255
330
1A
100
AcDbEntity
  8
ZISSEN1
100
AcDbLine
 10
-1435.087434462657
 20
1763.802455969889
 30
0.0
 11
-1435.087434462657
 21
1759.802461450468
 31
0.0
  0
LINE
  5
13256
330
1A
100
AcDbEntity
  8
ZISSEN1
100
AcDbLine
 10
-1442.687434462656
 20
1762.502455969888
 30
0.0
 11
-1444.287434462658
 21
1762.502455969887
 31
0.0
  0
LINE
  5
13257
330
1A
100
AcDbEntity
  8
ZISSEN1
100
AcDbLine
 10
-1451.187434192654
 20
1763.202456134199
 30
0.0
 11
-1444.287434462658
 21
1763.2024561342
 31
0.0
  0
LINE
  5
13258
330
1A
100
AcDbEntity
  8
ZISSEN1
100
AcDbLine
 10
-1451.1874342352
 20
1756.002455969889
 30
0.0
 11
-1451.187434217472
 21
1759.00245915262
 31
0.0
  0
LINE
  5
13259
330
1A
100
AcDbEntity
  8
ZISSEN1
100
AcDbLine
 10
-1444.287434462658
 20
1761.502455969887
 30
0.0
 11
-1442.687434462658
 21
1761.502455969887
 31
0.0
  0
LINE
  5
1325A
330
1A
100
AcDbEntity
  8
ZISSEN1
100
AcDbLine
 10
-1444.287434462658
 20
1760.502455969888
 30
0.0
 11
-1442.687434462658
 21
1760.502455969888
 31
0.0
  0
LINE
  5
1325B
330
1A
100
AcDbEntity
  8
ZISSEN1
100
AcDbLine
 10
-1444.287434462658
 20
1759.502455969888
 30
0.0
 11
-1442.687434462658
 21
1759.502455969888
 31
0.0
  0
LINE
  5
1325C
330
1A
100
AcDbEntity
  8
ZISSEN1
100
AcDbLine
 10
-1444.287434462658
 20
1757.302455969887
 30
0.0
 11
-1442.687434462658
 21
1757.302455969887
 31
0.0
  0
LINE
  5
1325D
330
1A
100
AcDbEntity
  8
ZISSEN1
100
AcDbLine
 10
-1444.287434462658
 20
1762.502455969887
 30
0.0
 11
-1444.287434462658
 21
1756.002455969887
 31
0.0
  0
LINE
  5
1325E
330
1A
100
AcDbEntity
  8
ZISSEN1
100
AcDbLine
 10
-1442.687434462658
 20
1756.002455969887
 30
0.0
 11
-1442.687434462658
 21
1762.502455969887
 31
0.0
  0
LINE
  5
1325F
330
1A
100
AcDbEntity
  8
ZISSEN1
100
AcDbLine
 10
-1441.687434462657
 20
1756.002455969887
 30
0.0
 11
-1441.687434462657
 21
1758.502455969886
 31
0.0
  0
LINE
  5
13260
330
1A
100
AcDbEntity
  8
ZISSEN1
100
AcDbLine
 10
-1442.687434462658
 20
1758.502455969886
 30
0.0
 11
-1436.687434462657
 21
1758.502455969886
 31
0.0
  0
LINE
  5
13261
330
1A
100
AcDbEntity
  8
ZISSEN1
100
AcDbLine
 10
-1437.687434462656
 20
1753.502455969887
 30
0.0
 11
-1437.687434462658
 21
1758.502455969886
 31
0.0
  0
LINE
  5
13262
330
1A
100
AcDbEntity
  8
ZISSEN1
100
AcDbLine
 10
-1438.687434462652
 20
1753.502455969887
 30
0.0
 11
-1436.687434462657
 21
1753.502455969887
 31
0.0
  0
LINE
  5
13263
330
1A
100
AcDbEntity
  8
ZISSEN1
100
AcDbLine
 10
-1436.687434462657
 20
1750.002455969887
 30
0.0
 11
-1436.687434462657
 21
1759.002455969887
 31
0.0
  0
LINE
  5
13264
330
1A
100
AcDbEntity
  8
ZISSEN1
100
AcDbLine
 10
-1436.687434462657
 20
1750.002455969887
 30
0.0
 11
-1435.087434462657
 21
1750.002455969887
 31
0.0
  0
LINE
  5
13265
330
1A
100
AcDbEntity
  8
ZISSEN1
100
AcDbLine
 10
-1436.687434462657
 20
1749.002455969887
 30
0.0
 11
-1435.087434462657
 21
1749.002455969887
 31
0.0
  0
LINE
  5
13266
330
1A
100
AcDbEntity
  8
ZISSEN1
100
AcDbLine
 10
-1436.687434462657
 20
1748.002455969887
 30
0.0
 11
-1435.087434462657
 21
1748.002455969887
 31
0.0
  0
LINE
  5
13267
330
1A
100
AcDbEntity
  8
ZISSEN1
100
AcDbLine
 10
-1437.68743443333
 20
1759.002458739072
 30
0.0
 11
-1437.68743443333
 21
1759.80246107352
 31
0.0
  0
LINE
  5
13268
330
1A
100
AcDbEntity
  8
ZISSEN1
100
AcDbLine
 10
-1438.68743443333
 20
1759.002459068736
 30
0.0
 11
-1438.68743443333
 21
1759.80246092854
 31
0.0
  0
LINE
  5
13269
330
1A
100
AcDbEntity
  8
ZISSEN1
100
AcDbLine
 10
-1442.237434315994
 20
1759.002460471803
 30
0.0
 11
-1442.237434433329
 21
1759.802460471803
 31
0.0
  0
LINE
  5
1326A
330
1A
100
AcDbEntity
  8
ZISSEN1
100
AcDbLine
 10
-1438.687434462652
 20
1755.002455969886
 30
0.0
 11
-1439.687434462656
 21
1756.002455969889
 31
0.0
  0
LINE
  5
1326B
330
1A
100
AcDbEntity
  8
ZISSEN1
100
AcDbLine
 10
-1444.737434315993
 20
1759.002460090462
 30
0.0
 11
-1444.737434433329
 21
1759.802460090463
 31
0.0
  0
LINE
  5
1326C
330
1A
100
AcDbEntity
  8
ZISSEN1
  6
BYBLOCK
 48
0.3
100
AcDbLine
 10
-1437.687434462658
 20
1756.002455969887
 30
0.0
 11
-1441.687434462657
 21
1756.002455969887
 31
0.0
  0
LINE
  5
1326D
330
1A
100
AcDbEntity
  8
ZISSEN1
100
AcDbLine
 10
-1435.087434462657
 20
1758.002455969887
 30
0.0
 11
-1436.687434462657
 21
1758.002455969887
 31
0.0
  0
LINE
  5
1326E
330
1A
100
AcDbEntity
  8
ZISSEN1
100
AcDbLine
 10
-1428.787434462658
 20
1749.002455969889
 30
0.0
 11
-1427.187434462657
 21
1749.002455969889
 31
0.0
  0
LINE
  5
1326F
330
1A
100
AcDbEntity
  8
ZISSEN1
100
AcDbLine
 10
-1427.187434462657
 20
1763.802455969889
 30
0.0
 11
-1427.187434462657
 21
1749.00245596989
 31
0.0
  0
LINE
  5
13270
330
1A
100
AcDbEntity
  8
ZISSEN1
100
AcDbLine
 10
-1434.787434462658
 20
1748.002456135464
 30
0.0
 11
-1431.787434462658
 21
1748.002456135464
 31
0.0
  0
LINE
  5
13271
330
1A
100
AcDbEntity
  8
ZISSEN1
100
AcDbLine
 10
-1430.287434462658
 20
1759.002462144682
 30
0.0
 11
-1430.287434579994
 21
1759.802462144681
 31
0.0
  0
LINE
  5
13272
330
1A
100
AcDbEntity
  8
ZISSEN1
100
AcDbLine
 10
-1429.287434579993
 20
1759.802462291352
 30
0.0
 11
-1429.287434462658
 21
1759.002455969887
 31
0.0
  0
LINE
  5
13273
330
1A
100
AcDbEntity
  8
ZISSEN1
100
AcDbLine
 10
-1434.787434462658
 20
1758.002456083529
 30
0.0
 11
-1431.787434462658
 21
1758.002456083529
 31
0.0
  0
LINE
  5
13274
330
1A
100
AcDbEntity
  8
ZISSEN1
100
AcDbLine
 10
-1431.787434462658
 20
1758.002455969888
 30
0.0
 11
-1428.787434462658
 21
1758.002455969888
 31
0.0
  0
LINE
  5
13275
330
1A
100
AcDbEntity
  8
ZISSEN1
100
AcDbLine
 10
-1528.887456087312
 20
1874.637258119738
 30
0.0
 11
-1548.48745608731
 21
1874.637258119738
 31
0.0
  0
LINE
  5
13276
330
1A
100
AcDbEntity
  8
ZISSEN1
100
AcDbLine
 10
-1547.487405895423
 20
1839.437258119738
 30
0.0
 11
-1530.087405895423
 21
1839.437258119738
 31
0.0
  0
LINE
  5
13277
330
1A
100
AcDbEntity
  8
ZISSEN1
100
AcDbLine
 10
-1568.187434462643
 20
1857.337258119738
 30
0.0
 11
-1528.287434462658
 21
1857.337258119738
 31
0.0
  0
LINE
  5
13278
330
1A
100
AcDbEntity
  8
ZISSEN1
100
AcDbLine
 10
-1528.387455856658
 20
1864.437258119736
 30
0.0
 11
-1548.987455856659
 21
1864.437258119736
 31
0.0
  0
LINE
  5
13279
330
1A
100
AcDbEntity
  8
ZISSEN1
100
AcDbLine
 10
-1528.287434462669
 20
1859.837258119737
 30
0.0
 11
-1568.187434462668
 21
1859.837258119737
 31
0.0
  0
LINE
  5
1327A
330
1A
100
AcDbEntity
  8
ZISSEN1
100
AcDbLine
 10
-1528.287434462658
 20
1845.737258119737
 30
0.0
 11
-1568.187434462577
 21
1845.737258119737
 31
0.0
  0
LINE
  5
1327B
330
1A
100
AcDbEntity
  8
ZISSEN1
100
AcDbLine
 10
-1517.187434462659
 20
1842.437258119737
 30
0.0
 11
-1586.287434462658
 21
1842.437258119737
 31
0.0
  0
LINE
  5
1327C
330
1A
100
AcDbEntity
  8
ZISSEN1
100
AcDbLine
 10
-1568.187434462634
 20
1855.737258119738
 30
0.0
 11
-1528.287434462658
 21
1855.737258119738
 31
0.0
  0
LINE
  5
1327D
330
1A
100
AcDbEntity
  8
ZISSEN1
100
AcDbLine
 10
-1548.48745608731
 20
1864.937258119738
 30
0.0
 11
-1528.887456087312
 21
1864.937258119738
 31
0.0
  0
LINE
  5
1327E
330
1A
100
AcDbEntity
  8
ZISSEN1
100
AcDbLine
 10
-1643.187434462659
 20
1855.737258119738
 30
0.0
 11
-1603.241487571563
 21
1855.737258119738
 31
0.0
  0
LINE
  5
1327F
330
1A
100
AcDbEntity
  8
ZISSEN1
100
AcDbLine
 10
-1603.887473385191
 20
1874.637258119738
 30
0.0
 11
-1623.487473385192
 21
1874.637258119738
 31
0.0
  0
LINE
  5
13280
330
1A
100
AcDbEntity
  8
ZISSEN1
100
AcDbLine
 10
-1643.187434462659
 20
1857.337258119738
 30
0.0
 11
-1603.287434462658
 21
1857.337258119738
 31
0.0
  0
LINE
  5
13281
330
1A
100
AcDbEntity
  8
ZISSEN1
100
AcDbLine
 10
-1603.887473385191
 20
1864.937258119738
 30
0.0
 11
-1623.487473385192
 21
1864.937258119738
 31
0.0
  0
LINE
  5
13282
330
1A
100
AcDbEntity
  8
ZISSEN1
100
AcDbLine
 10
-1603.387455856658
 20
1864.437258119737
 30
0.0
 11
-1623.987455856659
 21
1864.437258119737
 31
0.0
  0
LINE
  5
13283
330
1A
100
AcDbEntity
  8
ZISSEN1
100
AcDbLine
 10
-1603.287434462658
 20
1845.737258119737
 30
0.0
 11
-1609.287434462658
 21
1845.737258119737
 31
0.0
  0
LINE
  5
13284
330
1A
100
AcDbEntity
  8
ZISSEN1
100
AcDbLine
 10
-1643.187434462659
 20
1859.837258119737
 30
0.0
 11
-1603.287434462658
 21
1859.837258119737
 31
0.0
  0
ARC
  5
13285
330
1A
100
AcDbEntity
  8
ZISSEN1
100
AcDbCircle
 10
-1649.187451760537
 20
1868.06262913114
 30
0.0
 40
5.174628988598421
100
AcDbArc
 50
53.70830187268603
 51
95.54487218361938
  0
LINE
  5
13286
330
1A
100
AcDbEntity
  8
ZISSEN1
100
AcDbLine
 10
-1652.337451760537
 20
1871.237258119738
 30
0.0
 11
-1646.037451760538
 21
1871.237258119738
 31
0.0
  0
LINE
  5
13287
330
1A
100
AcDbEntity
  8
ZISSEN1
100
AcDbLine
 10
-1623.487473385192
 20
1871.237258119738
 30
0.0
 11
-1653.687434462659
 21
1871.237258119738
 31
0.0
  0
LINE
  5
13288
330
1A
100
AcDbEntity
  8
ZISSEN1
100
AcDbLine
 10
-1652.487434462658
 20
1870.737258119737
 30
0.0
 11
-1624.987455856659
 21
1870.737258119737
 31
0.0
  0
LINE
  5
13289
330
1A
100
AcDbEntity
  8
ZISSEN1
100
AcDbLine
 10
-1653.687434462659
 20
1866.237258119738
 30
0.0
 11
-1653.687434462659
 21
1871.237258119738
 31
0.0
  0
LINE
  5
1328A
330
1A
100
AcDbEntity
  8
ZISSEN1
100
AcDbLine
 10
-1653.487434462659
 20
1869.737258119737
 30
0.0
 11
-1652.487434462658
 21
1870.737258119737
 31
0.0
  0
LINE
  5
1328B
330
1A
100
AcDbEntity
  8
CL1
100
AcDbLine
 10
-1658.687434462659
 20
1846.987258119738
 30
0.0
 11
-1658.687434462659
 21
1852.183875472915
 31
0.0
  0
LINE
  5
1328C
330
1A
100
AcDbEntity
  8
CL1
100
AcDbLine
 10
-1655.937434462656
 20
1849.237258119738
 30
0.0
 11
-1664.649964292335
 21
1849.237258119738
 31
0.0
  0
LINE
  5
1328D
330
1A
100
AcDbEntity
  8
ZISSEN1
100
AcDbLine
 10
-1653.487434462659
 20
1868.237258119738
 30
0.0
 11
-1653.687434462659
 21
1868.237258119738
 31
0.0
  0
LINE
  5
1328E
330
1A
100
AcDbEntity
  8
ZISSEN1
100
AcDbLine
 10
-1649.687434462659
 20
1855.737258119738
 30
0.0
 11
-1653.187469282573
 21
1855.737258119738
 31
0.0
  0
LINE
  5
1328F
330
1A
100
AcDbEntity
  8
ZISSEN1
100
AcDbLine
 10
-1650.187469282573
 20
1855.737258119738
 30
0.0
 11
-1650.187469282573
 21
1857.337258119738
 31
0.0
  0
LINE
  5
13290
330
1A
100
AcDbEntity
  8
ZISSEN1
100
AcDbLine
 10
-1652.187469282573
 20
1855.737258119738
 30
0.0
 11
-1652.187469282573
 21
1857.337258119738
 31
0.0
  0
LINE
  5
13291
330
1A
100
AcDbEntity
  8
ZISSEN1
100
AcDbLine
 10
-1653.187469282573
 20
1857.337258119738
 30
0.0
 11
-1649.687469282573
 21
1857.337258119738
 31
0.0
  0
LINE
  5
13292
330
1A
100
AcDbEntity
  8
ZISSEN1
100
AcDbLine
 10
-1653.187469282573
 20
1855.737258119738
 30
0.0
 11
-1653.187469282573
 21
1857.337258119738
 31
0.0
  0
ARC
  5
13293
330
1A
100
AcDbEntity
  8
ZISSEN1
100
AcDbCircle
 10
-1654.087434462661
 20
1855.237258119737
 30
0.0
 40
0.6000000000003638
100
AcDbArc
 50
311.8103148958534
 51
0.0000000001302755
  0
ARC
  5
13294
330
1A
100
AcDbEntity
  8
ZISSEN1
100
AcDbCircle
 10
-1658.187434462655
 20
1849.237258119738
 30
0.0
 40
2.25
100
AcDbArc
 50
270.0
 51
90.0
  0
LINE
  5
13295
330
1A
100
AcDbEntity
  8
ZISSEN1
100
AcDbLine
 10
-1661.68743446266
 20
1866.237258119738
 30
0.0
 11
-1653.687434462659
 21
1866.237258119738
 31
0.0
  0
LINE
  5
13296
330
1A
100
AcDbEntity
  8
ZISSEN1
100
AcDbLine
 10
-1663.687434462659
 20
1864.237258119738
 30
0.0
 11
-1661.68743446266
 21
1866.237258119738
 31
0.0
  0
LINE
  5
13297
330
1A
100
AcDbEntity
  8
ZISSEN1
100
AcDbLine
 10
-1663.687434462659
 20
1851.487258119738
 30
0.0
 11
-1663.687434462659
 21
1864.237258119738
 31
0.0
  0
LINE
  5
13298
330
1A
100
AcDbEntity
  8
ZISSEN1
100
AcDbLine
 10
-1663.687434462659
 20
1851.487258119738
 30
0.0
 11
-1658.187434462655
 21
1851.487258119738
 31
0.0
  0
LINE
  5
13299
330
1A
100
AcDbEntity
  8
ZISSEN1
100
AcDbLine
 10
-1663.687434462659
 20
1846.987258119738
 30
0.0
 11
-1658.187434462655
 21
1846.987258119738
 31
0.0
  0
LINE
  5
1329A
330
1A
100
AcDbEntity
  8
ZISSEN1
100
AcDbLine
 10
-1654.487434462659
 20
1860.33725891573
 30
0.0
 11
-1653.687434462659
 21
1860.33725891573
 31
0.0
  0
LINE
  5
1329B
330
1A
100
AcDbEntity
  8
ZISSEN1
100
AcDbLine
 10
-1649.687434462659
 20
1857.787258119737
 30
0.0
 11
-1652.487434462658
 21
1857.787258119737
 31
0.0
  0
LINE
  5
1329C
330
1A
100
AcDbEntity
  8
ZISSEN1
100
AcDbLine
 10
-1649.687434462659
 20
1857.787258119737
 30
0.0
 11
-1649.687434462659
 21
1855.287258119737
 31
0.0
  0
LINE
  5
1329D
330
1A
100
AcDbEntity
  8
ZISSEN1
100
AcDbLine
 10
-1649.687434462659
 20
1855.287258119737
 30
0.0
 11
-1652.487434462658
 21
1855.287258119737
 31
0.0
  0
LINE
  5
1329E
330
1A
100
AcDbEntity
  8
ZISSEN1
100
AcDbLine
 10
-1653.487434462659
 20
1858.787258119737
 30
0.0
 11
-1652.487434462658
 21
1857.787258119737
 31
0.0
  0
LINE
  5
1329F
330
1A
100
AcDbEntity
  8
ZISSEN1
100
AcDbLine
 10
-1653.487434462659
 20
1854.287258119737
 30
0.0
 11
-1652.487434462658
 21
1855.287258119737
 31
0.0
  0
LINE
  5
132A0
330
1A
100
AcDbEntity
  8
ZISSEN1
100
AcDbLine
 10
-1654.487434462659
 20
1861.337258119737
 30
0.0
 11
-1653.687434462659
 21
1861.337258119737
 31
0.0
  0
LINE
  5
132A1
330
1A
100
AcDbEntity
  8
ZISSEN1
100
AcDbLine
 10
-1653.487434462659
 20
1869.737258119737
 30
0.0
 11
-1653.48743446266
 21
1855.237258119738
 31
0.0
  0
ARC
  5
132A2
330
1A
100
AcDbEntity
  8
ZISSEN1
100
AcDbCircle
 10
-1650.187451760537
 20
1868.06262913114
 30
0.0
 40
5.174628988598421
100
AcDbArc
 50
53.70830187268603
 51
126.2916981273139
  0
LINE
  5
132A3
330
1A
100
AcDbEntity
  8
ZISSEN1
100
AcDbLine
 10
-1647.037451760538
 20
1871.237258119738
 30
0.0
 11
-1647.124607503285
 21
1872.233452817831
 31
0.0
  0
LINE
  5
132A4
330
1A
100
AcDbEntity
  8
ZISSEN1
100
AcDbLine
 10
-1653.337451760537
 20
1871.237258119738
 30
0.0
 11
-1653.25029601779
 21
1872.233452817831
 31
0.0
  0
LINE
  5
132A5
330
1A
100
AcDbEntity
  8
ZISSEN1
100
AcDbLine
 10
-1653.337451760537
 20
1871.237258119738
 30
0.0
 11
-1647.037451760538
 21
1871.237258119738
 31
0.0
  0
LINE
  5
132A6
330
1A
100
AcDbEntity
  8
ZISSEN1
100
AcDbLine
 10
-1652.687435428033
 20
1870.537257154362
 30
0.0
 11
-1652.687435428033
 21
1871.237258119738
 31
0.0
  0
LINE
  5
132A7
330
1A
100
AcDbEntity
  8
ZISSEN1
100
AcDbLine
 10
-1624.987455856659
 20
1870.737258119737
 30
0.0
 11
-1623.987455856659
 21
1869.737258119737
 31
0.0
  0
LINE
  5
132A8
330
1A
100
AcDbEntity
  8
ZISSEN1
100
AcDbLine
 10
-1624.987455856659
 20
1870.737258119737
 30
0.0
 11
-1623.987455856659
 21
1869.737258119737
 31
0.0
  0
LINE
  5
132A9
330
1A
100
AcDbEntity
  8
ZISSEN1
100
AcDbLine
 10
-1623.487473385192
 20
1864.937258119738
 30
0.0
 11
-1623.487473385192
 21
1874.637258119738
 31
0.0
  0
LINE
  5
132AA
330
1A
100
AcDbEntity
  8
ZISSEN1
100
AcDbLine
 10
-1627.537481860752
 20
1847.737258119738
 30
0.0
 11
-1620.037481860753
 21
1847.737258119738
 31
0.0
  0
LINE
  5
132AB
330
1A
100
AcDbEntity
  8
ZISSEN1
100
AcDbLine
 10
-1643.187434462659
 20
1857.337258119738
 30
0.0
 11
-1643.187434462659
 21
1855.737258119738
 31
0.0
  0
LINE
  5
132AC
330
1A
100
AcDbEntity
  8
ZISSEN1
100
AcDbLine
 10
-1636.037434462659
 20
1854.637258119738
 30
0.0
 11
-1636.037434462659
 21
1855.737258119738
 31
0.0
  0
LINE
  5
132AD
330
1A
100
AcDbEntity
  8
ZISSEN1
100
AcDbLine
 10
-1637.287434462659
 20
1854.637258119738
 30
0.0
 11
-1636.037434462659
 21
1854.637258119738
 31
0.0
  0
LINE
  5
132AE
330
1A
100
AcDbEntity
  8
ZISSEN1
100
AcDbLine
 10
-1637.287434462659
 20
1855.737258119738
 30
0.0
 11
-1637.287434462659
 21
1854.637258119738
 31
0.0
  0
LINE
  5
132AF
330
1A
100
AcDbEntity
  8
ZISSEN1
100
AcDbLine
 10
-1638.037434462659
 20
1854.637258119738
 30
0.0
 11
-1638.037434462659
 21
1855.737258119738
 31
0.0
  0
LINE
  5
132B0
330
1A
100
AcDbEntity
  8
ZISSEN1
100
AcDbLine
 10
-1639.287434462659
 20
1854.637258119738
 30
0.0
 11
-1638.037434462659
 21
1854.637258119738
 31
0.0
  0
LINE
  5
132B1
330
1A
100
AcDbEntity
  8
ZISSEN1
100
AcDbLine
 10
-1639.287434462659
 20
1855.737258119738
 30
0.0
 11
-1639.287434462659
 21
1854.637258119738
 31
0.0
  0
LINE
  5
132B2
330
1A
100
AcDbEntity
  8
ZISSEN1
100
AcDbLine
 10
-1634.637481860751
 20
1853.387254119738
 30
0.0
 11
-1634.637481860751
 21
1855.737258119738
 31
0.0
  0
LINE
  5
132B3
330
1A
100
AcDbEntity
  8
ZISSEN1
100
AcDbLine
 10
-1627.587434462934
 20
1844.637258119737
 30
0.0
 11
-1642.187434462932
 21
1844.637258119737
 31
0.0
  0
LINE
  5
132B4
330
1A
100
AcDbEntity
  8
ZISSEN1
100
AcDbLine
 10
-1635.537481860752
 20
1847.737258119738
 30
0.0
 11
-1628.037481860752
 21
1847.737258119738
 31
0.0
  0
LINE
  5
132B5
330
1A
100
AcDbEntity
  8
ZISSEN1
100
AcDbLine
 10
-1635.537481860752
 20
1847.737258119738
 30
0.0
 11
-1635.537481860752
 21
1855.737258119738
 31
0.0
  0
LINE
  5
132B6
330
1A
100
AcDbEntity
  8
ZISSEN1
100
AcDbLine
 10
-1627.537481860752
 20
1847.737258119738
 30
0.0
 11
-1627.537481860752
 21
1855.737258119738
 31
0.0
  0
LINE
  5
132B7
330
1A
100
AcDbEntity
  8
ZISSEN1
100
AcDbLine
 10
-1641.187469282573
 20
1855.737258119738
 30
0.0
 11
-1641.187469282573
 21
1857.337258119738
 31
0.0
  0
LINE
  5
132B8
330
1A
100
AcDbEntity
  8
ZISSEN1
100
AcDbLine
 10
-1642.187469282573
 20
1855.737258119738
 30
0.0
 11
-1642.187469282573
 21
1857.337258119738
 31
0.0
  0
LINE
  5
132B9
330
1A
100
AcDbEntity
  8
ZISSEN1
100
AcDbLine
 10
-1634.637481860751
 20
1853.387254119738
 30
0.0
 11
-1628.037481860752
 21
1853.387256119738
 31
0.0
  0
LINE
  5
132BA
330
1A
100
AcDbEntity
  8
ZISSEN1
100
AcDbLine
 10
-1628.037481860752
 20
1847.737258119738
 30
0.0
 11
-1628.037481860752
 21
1855.737258119738
 31
0.0
  0
LINE
  5
132BB
330
1A
100
AcDbEntity
  8
ZISSEN1
100
AcDbLine
 10
-1623.487473385192
 20
1868.237258119738
 30
0.0
 11
-1623.987455856659
 21
1868.237258119738
 31
0.0
  0
LINE
  5
132BC
330
1A
100
AcDbEntity
  8
ZISSEN1
100
AcDbLine
 10
-1609.787434462934
 20
1844.637258119737
 30
0.0
 11
-1624.387434462933
 21
1844.637258119737
 31
0.0
  0
LINE
  5
132BD
330
1A
100
AcDbEntity
  8
ZISSEN1
100
AcDbLine
 10
-1620.037481860753
 20
1847.737258119738
 30
0.0
 11
-1620.037481860753
 21
1855.737258119738
 31
0.0
  0
LINE
  5
132BE
330
1A
100
AcDbEntity
  8
ZISSEN1
100
AcDbLine
 10
-1619.537481860752
 20
1847.737258119738
 30
0.0
 11
-1612.037481860752
 21
1847.737258119738
 31
0.0
  0
LINE
  5
132BF
330
1A
100
AcDbEntity
  8
ZISSEN1
100
AcDbLine
 10
-1612.037481860752
 20
1847.737258119738
 30
0.0
 11
-1612.037481860752
 21
1855.737258119738
 31
0.0
  0
LINE
  5
132C0
330
1A
100
AcDbEntity
  8
ZISSEN1
100
AcDbLine
 10
-1619.537481860752
 20
1847.737258119738
 30
0.0
 11
-1619.537481860752
 21
1855.737258119738
 31
0.0
  0
LINE
  5
132C1
330
1A
100
AcDbEntity
  8
ZISSEN1
100
AcDbLine
 10
-1623.987455856659
 20
1864.437258119737
 30
0.0
 11
-1623.987455856659
 21
1869.737258119737
 31
0.0
  0
LINE
  5
132C2
330
1A
100
AcDbEntity
  8
ZISSEN1
100
AcDbLine
 10
-1646.037451760538
 20
1871.237258119738
 30
0.0
 11
-1646.124607503285
 21
1872.233452817831
 31
0.0
  0
LINE
  5
132C3
330
1A
100
AcDbEntity
  8
ZISSEN1
100
AcDbLine
 10
-1565.887405895424
 20
1839.437258119738
 30
0.0
 11
-1585.787405895422
 21
1839.437258119738
 31
0.0
  0
LINE
  5
132C4
330
1A
100
AcDbEntity
  8
ZISSEN1
100
AcDbLine
 10
-1603.887473385191
 20
1871.237258119738
 30
0.0
 11
-1548.48745608731
 21
1871.237258119738
 31
0.0
  0
LINE
  5
132C5
330
1A
100
AcDbEntity
  8
ZISSEN1
100
AcDbLine
 10
-1602.387455856659
 20
1870.737258119737
 30
0.0
 11
-1549.987455856659
 21
1870.737258119737
 31
0.0
  0
LINE
  5
132C6
330
1A
100
AcDbEntity
  8
ZISSEN1
100
AcDbLine
 10
-1602.387455856659
 20
1870.737258119737
 30
0.0
 11
-1603.387455856658
 21
1869.737258119737
 31
0.0
  0
LINE
  5
132C7
330
1A
100
AcDbEntity
  8
ZISSEN1
100
AcDbLine
 10
-1603.887473385191
 20
1874.637258119738
 30
0.0
 11
-1603.887473385191
 21
1864.937258119738
 31
0.0
  0
LINE
  5
132C8
330
1A
100
AcDbEntity
  8
ZISSEN1
100
AcDbLine
 10
-1604.087405895423
 20
1840.437258119736
 30
0.0
 11
-1588.287405895422
 21
1840.437258119736
 31
0.0
  0
LINE
  5
132C9
330
1A
100
AcDbEntity
  8
ZISSEN1
100
AcDbLine
 10
-1589.28743446266
 20
1855.737258119738
 30
0.0
 11
-1579.187451991193
 21
1855.737258119738
 31
0.0
  0
LINE
  5
132CA
330
1A
100
AcDbEntity
  8
ZISSEN1
100
AcDbLine
 10
-1589.28743446266
 20
1857.337258119738
 30
0.0
 11
-1579.187451991193
 21
1857.337258119738
 31
0.0
  0
LINE
  5
132CB
330
1A
100
AcDbEntity
  8
ZISSEN1
100
AcDbLine
 10
-1589.28743446266
 20
1844.837258119737
 30
0.0
 11
-1578.187434462659
 21
1844.837258119737
 31
0.0
  0
LINE
  5
132CC
330
1A
100
AcDbEntity
  8
ZISSEN1
100
AcDbLine
 10
-1578.187434462659
 20
1859.837258119737
 30
0.0
 11
-1589.28743446266
 21
1859.837258119737
 31
0.0
  0
LINE
  5
132CD
330
1A
100
AcDbEntity
  8
ZISSEN1
100
AcDbLine
 10
-1587.78743446266
 20
1842.437258119738
 30
0.0
 11
-1605.087434462661
 21
1842.437258119738
 31
0.0
  0
LINE
  5
132CE
330
1A
100
AcDbEntity
  8
ZISSEN1
100
AcDbLine
 10
-1603.387455856658
 20
1868.237258119738
 30
0.0
 11
-1603.887473385191
 21
1868.237258119738
 31
0.0
  0
LINE
  5
132CF
330
1A
100
AcDbEntity
  8
ZISSEN1
100
AcDbLine
 10
-1604.787451984692
 20
1855.737258119738
 30
0.0
 11
-1604.787451984692
 21
1857.337258119738
 31
0.0
  0
LINE
  5
132D0
330
1A
100
AcDbEntity
  8
ZISSEN1
100
AcDbLine
 10
-1605.787451984692
 20
1855.737258119738
 30
0.0
 11
-1605.787451984692
 21
1857.337258119738
 31
0.0
  0
LINE
  5
132D1
330
1A
100
AcDbEntity
  8
ZISSEN1
100
AcDbLine
 10
-1606.787451984692
 20
1855.737258119738
 30
0.0
 11
-1606.787451984692
 21
1857.337258119738
 31
0.0
  0
LINE
  5
132D2
330
1A
100
AcDbEntity
  8
ZISSEN1
100
AcDbLine
 10
-1589.28743446266
 20
1859.837258119737
 30
0.0
 11
-1589.28743446266
 21
1844.837258119737
 31
0.0
  0
LINE
  5
132D3
330
1A
100
AcDbEntity
  8
ZISSEN1
100
AcDbLine
 10
-1603.387455856658
 20
1864.437258119737
 30
0.0
 11
-1603.387455856658
 21
1869.737258119737
 31
0.0
  0
LINE
  5
132D4
330
1A
100
AcDbEntity
  8
ZISSEN1
100
AcDbLine
 10
-1603.287434462658
 20
1845.737258119737
 30
0.0
 11
-1603.287434462658
 21
1859.837258119737
 31
0.0
  0
LINE
  5
132D5
330
1A
100
AcDbEntity
  8
ZISSEN1
100
AcDbLine
 10
-1579.187451991193
 20
1846.037258119738
 30
0.0
 11
-1588.287451991193
 21
1846.037258119738
 31
0.0
  0
LINE
  5
132D6
330
1A
100
AcDbEntity
  8
ZISSEN1
100
AcDbLine
 10
-1580.837451984691
 20
1855.737258119738
 30
0.0
 11
-1580.837451984691
 21
1857.337258119738
 31
0.0
  0
LINE
  5
132D7
330
1A
100
AcDbEntity
  8
ZISSEN1
100
AcDbLine
 10
-1581.837451984691
 20
1855.737258119738
 30
0.0
 11
-1581.837451984691
 21
1857.337258119738
 31
0.0
  0
LINE
  5
132D8
330
1A
100
AcDbEntity
  8
ZISSEN1
100
AcDbLine
 10
-1579.187451991193
 20
1857.337258119738
 30
0.0
 11
-1579.187451991193
 21
1855.737258119738
 31
0.0
  0
LINE
  5
132D9
330
1A
100
AcDbEntity
  8
ZISSEN1
100
AcDbLine
 10
-1578.187434462659
 20
1844.837258119737
 30
0.0
 11
-1578.187434462659
 21
1859.837258119737
 31
0.0
  0
LINE
  5
132DA
330
1A
100
AcDbEntity
  8
ZISSEN1
100
AcDbLine
 10
-1588.287451991193
 20
1846.037258119738
 30
0.0
 11
-1588.287451991193
 21
1855.737258119738
 31
0.0
  0
LINE
  5
132DB
330
1A
100
AcDbEntity
  8
ZISSEN1
100
AcDbLine
 10
-1579.187451991193
 20
1855.737258119738
 30
0.0
 11
-1579.187451991193
 21
1846.037258119738
 31
0.0
  0
ARC
  5
132DC
330
1A
100
AcDbEntity
  8
ZISSEN1
100
AcDbCircle
 10
-1583.687451760537
 20
1868.06262913114
 30
0.0
 40
5.174628988598421
100
AcDbArc
 50
53.70830187268603
 51
126.2916981273139
  0
LINE
  5
132DD
330
1A
100
AcDbEntity
  8
ZISSEN1
100
AcDbLine
 10
-1580.537451760538
 20
1871.237258119738
 30
0.0
 11
-1580.624607503285
 21
1872.233452817831
 31
0.0
  0
LINE
  5
132DE
330
1A
100
AcDbEntity
  8
ZISSEN1
100
AcDbLine
 10
-1586.837451760537
 20
1871.237258119738
 30
0.0
 11
-1586.75029601779
 21
1872.233452817831
 31
0.0
  0
LINE
  5
132DF
330
1A
100
AcDbEntity
  8
ZISSEN1
100
AcDbLine
 10
-1586.837451760537
 20
1871.237258119738
 30
0.0
 11
-1580.537451760538
 21
1871.237258119738
 31
0.0
  0
ARC
  5
132E0
330
1A
100
AcDbEntity
  8
ZISSEN1
100
AcDbCircle
 10
-1574.187434462656
 20
1868.06262913114
 30
0.0
 40
5.174628988598421
100
AcDbArc
 50
53.70830187268603
 51
95.54487218361938
  0
LINE
  5
132E1
330
1A
100
AcDbEntity
  8
ZISSEN1
100
AcDbLine
 10
-1571.037434462658
 20
1871.237258119738
 30
0.0
 11
-1571.124590205403
 21
1872.233452817831
 31
0.0
  0
ARC
  5
132E2
330
1A
100
AcDbEntity
  8
ZISSEN1
100
AcDbCircle
 10
-1575.187434462656
 20
1868.06262913114
 30
0.0
 40
5.174628988598421
100
AcDbArc
 50
53.70830187268603
 51
126.2916981273139
  0
LINE
  5
132E3
330
1A
100
AcDbEntity
  8
ZISSEN1
100
AcDbLine
 10
-1572.037434462658
 20
1871.237258119738
 30
0.0
 11
-1572.124590205403
 21
1872.233452817831
 31
0.0
  0
LINE
  5
132E4
330
1A
100
AcDbEntity
  8
ZISSEN1
100
AcDbLine
 10
-1578.337434462657
 20
1871.237258119738
 30
0.0
 11
-1578.250278719908
 21
1872.233452817831
 31
0.0
  0
LINE
  5
132E5
330
1A
100
AcDbEntity
  8
ZISSEN1
100
AcDbLine
 10
-1578.337434462657
 20
1871.237258119738
 30
0.0
 11
-1572.037434462658
 21
1871.237258119738
 31
0.0
  0
LINE
  5
132E6
330
1A
100
AcDbEntity
  8
ZISSEN1
100
AcDbLine
 10
-1548.48745608731
 20
1864.937258119738
 30
0.0
 11
-1548.48745608731
 21
1874.637258119738
 31
0.0
  0
LINE
  5
132E7
330
1A
100
AcDbEntity
  8
ZISSEN1
100
AcDbLine
 10
-1549.987455856659
 20
1870.737258119737
 30
0.0
 11
-1548.987455856659
 21
1869.737258119737
 31
0.0
  0
LINE
  5
132E8
330
1A
100
AcDbEntity
  8
ZISSEN1
100
AcDbLine
 10
-1565.387405895424
 20
1839.437258119738
 30
0.0
 11
-1547.987405895423
 21
1839.437258119738
 31
0.0
  0
LINE
  5
132E9
330
1A
100
AcDbEntity
  8
ZISSEN1
100
AcDbLine
 10
-1552.537447264993
 20
1847.737258119738
 30
0.0
 11
-1545.037447264992
 21
1847.737258119738
 31
0.0
  0
LINE
  5
132EA
330
1A
100
AcDbEntity
  8
ZISSEN1
100
AcDbLine
 10
-1561.037434462634
 20
1854.637258119738
 30
0.0
 11
-1561.037434462634
 21
1855.737258119738
 31
0.0
  0
LINE
  5
132EB
330
1A
100
AcDbEntity
  8
ZISSEN1
100
AcDbLine
 10
-1562.287434462634
 20
1854.637258119738
 30
0.0
 11
-1561.037434462634
 21
1854.637258119738
 31
0.0
  0
LINE
  5
132EC
330
1A
100
AcDbEntity
  8
ZISSEN1
100
AcDbLine
 10
-1562.287434462634
 20
1855.737258119738
 30
0.0
 11
-1562.287434462634
 21
1854.637258119738
 31
0.0
  0
LINE
  5
132ED
330
1A
100
AcDbEntity
  8
ZISSEN1
100
AcDbLine
 10
-1564.037434462634
 20
1855.737258119738
 30
0.0
 11
-1563.287434462634
 21
1855.737258119738
 31
0.0
  0
LINE
  5
132EE
330
1A
100
AcDbEntity
  8
ZISSEN1
100
AcDbLine
 10
-1563.037434462634
 20
1854.637258119738
 30
0.0
 11
-1563.037434462634
 21
1855.737258119738
 31
0.0
  0
LINE
  5
132EF
330
1A
100
AcDbEntity
  8
ZISSEN1
100
AcDbLine
 10
-1564.287434462634
 20
1854.637258119738
 30
0.0
 11
-1563.037434462634
 21
1854.637258119738
 31
0.0
  0
LINE
  5
132F0
330
1A
100
AcDbEntity
  8
ZISSEN1
100
AcDbLine
 10
-1564.287434462634
 20
1855.737258119738
 30
0.0
 11
-1564.287434462634
 21
1854.637258119738
 31
0.0
  0
LINE
  5
132F1
330
1A
100
AcDbEntity
  8
ZISSEN1
100
AcDbLine
 10
-1568.187434462634
 20
1855.737258119738
 30
0.0
 11
-1565.287434462634
 21
1855.737258119738
 31
0.0
  0
LINE
  5
132F2
330
1A
100
AcDbEntity
  8
ZISSEN1
100
AcDbLine
 10
-1559.637447264991
 20
1853.387254119738
 30
0.0
 11
-1559.637447264991
 21
1855.737258119738
 31
0.0
  0
LINE
  5
132F3
330
1A
100
AcDbEntity
  8
ZISSEN1
100
AcDbLine
 10
-1559.637447264991
 20
1853.387254119738
 30
0.0
 11
-1553.037447264992
 21
1853.387256119738
 31
0.0
  0
LINE
  5
132F4
330
1A
100
AcDbEntity
  8
ZISSEN1
100
AcDbLine
 10
-1560.537447264993
 20
1847.737258119738
 30
0.0
 11
-1553.037447264992
 21
1847.737258119738
 31
0.0
  0
LINE
  5
132F5
330
1A
100
AcDbEntity
  8
ZISSEN1
100
AcDbLine
 10
-1553.037447264992
 20
1847.737258119738
 30
0.0
 11
-1553.037447264992
 21
1855.737258119738
 31
0.0
  0
LINE
  5
132F6
330
1A
100
AcDbEntity
  8
ZISSEN1
100
AcDbLine
 10
-1560.537447264993
 20
1847.737258119738
 30
0.0
 11
-1560.537447264993
 21
1855.737258119738
 31
0.0
  0
LINE
  5
132F7
330
1A
100
AcDbEntity
  8
ZISSEN1
100
AcDbLine
 10
-1552.537447264993
 20
1847.737258119738
 30
0.0
 11
-1552.537447264993
 21
1855.737258119738
 31
0.0
  0
LINE
  5
132F8
330
1A
100
AcDbEntity
  8
ZISSEN1
100
AcDbLine
 10
-1566.187434693311
 20
1855.737258119738
 30
0.0
 11
-1566.187434693311
 21
1857.337258119738
 31
0.0
  0
LINE
  5
132F9
330
1A
100
AcDbEntity
  8
ZISSEN1
100
AcDbLine
 10
-1567.187434693311
 20
1855.737258119738
 30
0.0
 11
-1567.187434693311
 21
1857.337258119738
 31
0.0
  0
LINE
  5
132FA
330
1A
100
AcDbEntity
  8
ZISSEN1
100
AcDbLine
 10
-1568.187434462577
 20
1845.737258119737
 30
0.0
 11
-1568.187434462657
 21
1859.837258119737
 31
0.0
  0
LINE
  5
132FB
330
1A
100
AcDbEntity
  8
ZISSEN1
100
AcDbLine
 10
-1545.037447264992
 20
1847.737258119738
 30
0.0
 11
-1545.037447264992
 21
1855.737258119738
 31
0.0
  0
LINE
  5
132FC
330
1A
100
AcDbEntity
  8
ZISSEN1
100
AcDbLine
 10
-1544.537447264993
 20
1847.737258119738
 30
0.0
 11
-1537.037447264992
 21
1847.737258119738
 31
0.0
  0
LINE
  5
132FD
330
1A
100
AcDbEntity
  8
ZISSEN1
100
AcDbLine
 10
-1537.037447264992
 20
1847.737258119738
 30
0.0
 11
-1537.037447264992
 21
1855.737258119738
 31
0.0
  0
LINE
  5
132FE
330
1A
100
AcDbEntity
  8
ZISSEN1
100
AcDbLine
 10
-1544.537447264993
 20
1847.737258119738
 30
0.0
 11
-1544.537447264993
 21
1855.737258119738
 31
0.0
  0
LINE
  5
132FF
330
1A
100
AcDbEntity
  8
ZISSEN1
100
AcDbLine
 10
-1531.787434693313
 20
1855.737258119738
 30
0.0
 11
-1531.787434693313
 21
1857.337258119738
 31
0.0
  0
LINE
  5
13300
330
1A
100
AcDbEntity
  8
ZISSEN1
100
AcDbLine
 10
-1548.987455856659
 20
1864.437258119736
 30
0.0
 11
-1548.987455856659
 21
1869.737258119737
 31
0.0
  0
LINE
  5
13301
330
1A
100
AcDbEntity
  8
ZISSEN1
100
AcDbLine
 10
-1528.887456087312
 20
1874.637258119738
 30
0.0
 11
-1528.887456087312
 21
1864.937258119738
 31
0.0
  0
LINE
  5
13302
330
1A
100
AcDbEntity
  8
ZISSEN1
100
AcDbLine
 10
-1503.687434462659
 20
1871.237258119738
 30
0.0
 11
-1503.687434462659
 21
1866.237258119738
 31
0.0
  0
LINE
  5
13303
330
1A
100
AcDbEntity
  8
ZISSEN1
100
AcDbLine
 10
-1503.887434462658
 20
1869.737258119736
 30
0.0
 11
-1504.887434462658
 21
1870.737258119737
 31
0.0
  0
LINE
  5
13304
330
1A
100
AcDbEntity
  8
ZISSEN1
100
AcDbLine
 10
-1527.387455856658
 20
1870.737258119737
 30
0.0
 11
-1528.387455856658
 21
1869.737258119736
 31
0.0
  0
LINE
  5
13305
330
1A
100
AcDbEntity
  8
ZISSEN1
100
AcDbLine
 10
-1504.187417395431
 20
1846.037258119738
 30
0.0
 11
-1513.287417395431
 21
1846.037258119738
 31
0.0
  0
LINE
  5
13306
330
1A
100
AcDbEntity
  8
ZISSEN1
100
AcDbLine
 10
-1504.187417395431
 20
1855.737258119738
 30
0.0
 11
-1516.68742646485
 21
1855.737258119738
 31
0.0
  0
LINE
  5
13307
330
1A
100
AcDbEntity
  8
ZISSEN1
100
AcDbLine
 10
-1516.68742646485
 20
1857.337258119738
 30
0.0
 11
-1504.187434693311
 21
1857.337258119738
 31
0.0
  0
LINE
  5
13308
330
1A
100
AcDbEntity
  8
ZISSEN1
100
AcDbLine
 10
-1514.28743446266
 20
1859.837258119737
 30
0.0
 11
-1504.887434462658
 21
1859.837258119737
 31
0.0
  0
LINE
  5
13309
330
1A
100
AcDbEntity
  8
ZISSEN1
100
AcDbLine
 10
-1514.28743446266
 20
1844.837258119737
 30
0.0
 11
-1504.887434462658
 21
1844.837258119737
 31
0.0
  0
LINE
  5
1330A
330
1A
100
AcDbEntity
  8
ZISSEN1
100
AcDbLine
 10
-1529.587403217811
 20
1839.437258119738
 30
0.0
 11
-1519.687403217809
 21
1839.437258119738
 31
0.0
  0
LINE
  5
1330B
330
1A
100
AcDbEntity
  8
ZISSEN1
100
AcDbLine
 10
-1530.787434693313
 20
1855.737258119738
 30
0.0
 11
-1530.787434693313
 21
1857.337258119738
 31
0.0
  0
LINE
  5
1330C
330
1A
100
AcDbEntity
  8
ZISSEN1
100
AcDbLine
 10
-1529.787456087309
 20
1855.737258119738
 30
0.0
 11
-1529.787456087309
 21
1857.337258119738
 31
0.0
  0
LINE
  5
1330D
330
1A
100
AcDbEntity
  8
ZISSEN1
100
AcDbLine
 10
-1513.287417395431
 20
1846.037258119738
 30
0.0
 11
-1513.287417395431
 21
1855.737258119738
 31
0.0
  0
LINE
  5
1330E
330
1A
100
AcDbEntity
  8
ZISSEN1
100
AcDbLine
 10
-1516.18742646485
 20
1855.737258119738
 30
0.0
 11
-1516.18742646485
 21
1857.337258119738
 31
0.0
  0
LINE
  5
1330F
330
1A
100
AcDbEntity
  8
ZISSEN1
100
AcDbLine
 10
-1516.687434462659
 20
1857.787258119737
 30
0.0
 11
-1514.28743446266
 21
1857.787258119737
 31
0.0
  0
LINE
  5
13310
330
1A
100
AcDbEntity
  8
ZISSEN1
100
AcDbLine
 10
-1516.687434462659
 20
1857.787258119737
 30
0.0
 11
-1516.687434462659
 21
1855.287258119737
 31
0.0
  0
LINE
  5
13311
330
1A
100
AcDbEntity
  8
ZISSEN1
100
AcDbLine
 10
-1516.687434462659
 20
1855.287258119737
 30
0.0
 11
-1514.28743446266
 21
1855.287258119737
 31
0.0
  0
LINE
  5
13312
330
1A
100
AcDbEntity
  8
ZISSEN1
100
AcDbLine
 10
-1514.28743446266
 20
1855.287258119737
 30
0.0
 11
-1514.28743446266
 21
1844.837258119737
 31
0.0
  0
LINE
  5
13313
330
1A
100
AcDbEntity
  8
ZISSEN1
100
AcDbLine
 10
-1514.28743446266
 20
1857.787258119737
 30
0.0
 11
-1514.28743446266
 21
1859.837258119737
 31
0.0
  0
LINE
  5
13314
330
1A
100
AcDbEntity
  8
ZISSEN1
100
AcDbLine
 10
-1528.387455856658
 20
1864.437258119736
 30
0.0
 11
-1528.387455856658
 21
1869.737258119737
 31
0.0
  0
LINE
  5
13315
330
1A
100
AcDbEntity
  8
ZISSEN1
100
AcDbLine
 10
-1528.287434462658
 20
1859.837258119737
 30
0.0
 11
-1528.287434462658
 21
1845.737258119737
 31
0.0
  0
LINE
  5
13316
330
1A
100
AcDbEntity
  8
CL1
100
AcDbLine
 10
-1498.687434462659
 20
1846.987258119738
 30
0.0
 11
-1498.687434462659
 21
1851.661972493172
 31
0.0
  0
LINE
  5
13317
330
1A
100
AcDbEntity
  8
CL1
100
AcDbLine
 10
-1501.437434462659
 20
1849.237258119738
 30
0.0
 11
-1493.078937743454
 21
1849.237258119738
 31
0.0
  0
LINE
  5
13318
330
1A
100
AcDbEntity
  8
ZISSEN1
100
AcDbLine
 10
-1504.187434693311
 20
1857.337258119738
 30
0.0
 11
-1504.187417395431
 21
1846.037258119738
 31
0.0
  0
LINE
  5
13319
330
1A
100
AcDbEntity
  8
ZISSEN1
100
AcDbLine
 10
-1505.187434693311
 20
1855.737258119738
 30
0.0
 11
-1505.187434693311
 21
1857.337258119738
 31
0.0
  0
LINE
  5
1331A
330
1A
100
AcDbEntity
  8
ZISSEN1
100
AcDbLine
 10
-1499.187434462659
 20
1846.987258119738
 30
0.0
 11
-1493.687434462656
 21
1846.987258119738
 31
0.0
  0
LINE
  5
1331B
330
1A
100
AcDbEntity
  8
ZISSEN1
100
AcDbLine
 10
-1493.687434462656
 20
1851.487258119738
 30
0.0
 11
-1499.187434462659
 21
1851.487258119738
 31
0.0
  0
LINE
  5
1331C
330
1A
100
AcDbEntity
  8
ZISSEN1
100
AcDbLine
 10
-1493.687434462656
 20
1864.237258119738
 30
0.0
 11
-1493.687434462656
 21
1851.487258119738
 31
0.0
  0
LINE
  5
1331D
330
1A
100
AcDbEntity
  8
ZISSEN1
100
AcDbLine
 10
-1503.887434462658
 20
1868.237258119738
 30
0.0
 11
-1503.687434462659
 21
1868.237258119738
 31
0.0
  0
LINE
  5
1331E
330
1A
100
AcDbEntity
  8
ZISSEN1
100
AcDbLine
 10
-1495.687434462656
 20
1866.237258119738
 30
0.0
 11
-1493.687434462656
 21
1864.237258119738
 31
0.0
  0
LINE
  5
1331F
330
1A
100
AcDbEntity
  8
ZISSEN1
100
AcDbLine
 10
-1503.687434462659
 20
1866.237258119738
 30
0.0
 11
-1495.687434462656
 21
1866.237258119738
 31
0.0
  0
LINE
  5
13320
330
1A
100
AcDbEntity
  8
ZISSEN1
100
AcDbLine
 10
-1504.887434462658
 20
1859.837258119737
 30
0.0
 11
-1503.887434462658
 21
1860.837258119737
 31
0.0
  0
LINE
  5
13321
330
1A
100
AcDbEntity
  8
ZISSEN1
100
AcDbLine
 10
-1503.687434462659
 20
1861.337258119736
 30
0.0
 11
-1502.887434462658
 21
1861.337258119738
 31
0.0
  0
LINE
  5
13322
330
1A
100
AcDbEntity
  8
ZISSEN1
100
AcDbLine
 10
-1503.887434462658
 20
1860.837258119737
 30
0.0
 11
-1503.887434462658
 21
1869.737258119736
 31
0.0
  0
LINE
  5
13323
330
1A
100
AcDbEntity
  8
ZISSEN1
100
AcDbLine
 10
-1503.687434462659
 20
1860.337258119736
 30
0.0
 11
-1502.887434462658
 21
1860.337258119736
 31
0.0
  0
LINE
  5
13324
330
1A
100
AcDbEntity
  8
ZISSEN1
100
AcDbLine
 10
-1503.887434462658
 20
1843.837258119737
 30
0.0
 11
-1504.887434462658
 21
1844.837258119737
 31
0.0
  0
ARC
  5
13325
330
1A
100
AcDbEntity
  8
ZISSEN1
100
AcDbCircle
 10
-1499.187434462659
 20
1849.237258119738
 30
0.0
 40
2.25
100
AcDbArc
 50
90.0
 51
270.0
  0
LINE
  5
13326
330
1A
100
AcDbEntity
  8
ZISSEN1
100
AcDbLine
 10
-1511.837434462657
 20
1871.237258119738
 30
0.0
 11
-1511.750278719908
 21
1872.233452817831
 31
0.0
  0
LINE
  5
13327
330
1A
100
AcDbEntity
  8
ZISSEN1
100
AcDbLine
 10
-1511.837434462657
 20
1871.237258119738
 30
0.0
 11
-1505.537434462658
 21
1871.237258119738
 31
0.0
  0
LINE
  5
13328
330
1A
100
AcDbEntity
  8
ZISSEN1
100
AcDbLine
 10
-1527.387455856658
 20
1870.737258119737
 30
0.0
 11
-1504.887434462658
 21
1870.737258119737
 31
0.0
  0
LINE
  5
13329
330
1A
100
AcDbEntity
  8
ZISSEN1
100
AcDbLine
 10
-1503.687434462659
 20
1871.237258119738
 30
0.0
 11
-1528.887456087312
 21
1871.237258119738
 31
0.0
  0
ARC
  5
1332A
330
1A
100
AcDbEntity
  8
ZISSEN1
100
AcDbCircle
 10
-1508.687434462656
 20
1868.06262913114
 30
0.0
 40
5.174628988598421
100
AcDbArc
 50
53.70830187268603
 51
126.2916981273139
  0
LINE
  5
1332B
330
1A
100
AcDbEntity
  8
ZISSEN1
100
AcDbLine
 10
-1505.537434462658
 20
1871.237258119738
 30
0.0
 11
-1505.624590205403
 21
1872.233452817831
 31
0.0
  0
LINE
  5
1332C
330
1A
100
AcDbEntity
  8
ZISSEN1
100
AcDbLine
 10
-1504.687433497285
 20
1870.537257154363
 30
0.0
 11
-1504.687433497285
 21
1871.237258119738
 31
0.0
  0
LINE
  5
13492
330
1A
100
AcDbEntity
  8
ZISSEN1
100
AcDbLine
 10
-1663.687434462655
 20
1679.502455969888
 30
0.0
 11
-1493.687434462656
 21
1679.502455969888
 31
0.0
  0
LINE
  5
1350A
330
1A
100
AcDbEntity
  8
CL1
100
AcDbLine
 10
-1701.691887287921
 20
1681.797920106012
 30
0.0
 11
-1701.691887287921
 21
1673.933055044368
 31
0.0
  0
LINE
  5
1350E
330
1A
100
AcDbEntity
  8
CL1
100
AcDbLine
 10
-1658.6888018116
 20
1682.191246418308
 30
0.0
 11
-1658.6888018116
 21
1671.099769731514
 31
0.0
  0
LINE
  5
13510
330
1A
100
AcDbEntity
  8
CL1
100
AcDbLine
 10
-1498.692051193879
 20
1682.594573293993
 30
0.0
 11
-1498.692051193879
 21
1674.124717918822
 31
0.0
  0
LINE
  5
13512
330
1A
100
AcDbEntity
  8
CL1
100
AcDbLine
 10
-1450.790999699557
 20
1682.165585171624
 30
0.0
 11
-1450.790999699557
 21
1671.939289349369
 31
0.0
  0
DIMENSION
  5
136A2
330
1A
100
AcDbEntity
  8
SUNPOU
100
AcDbDimension
  2
*D9
 10
-1736.500027674572
 20
1775.802518638362
 30
0.0
 11
-1739.250027674573
 21
1767.802486762173
 31
0.0
 70
    32
  1
(16)
  3
標準スタイル
100
AcDbAlignedDimension
 13
-1725.287434462656
 23
1759.802454885985
 33
0.0
 14
-1724.777168261512
 24
1775.802518638362
 34
0.0
 50
90.0
100
AcDbRotatedDimension
1001
ACAD
1000
DSTYLE
1002
{
1070
   340
1005
10
1070
    41
1040
2.0
1070
    40
1040
1.0
1002
}
  0
VIEWPORT
  5
5D8F
330
5D8E
100
AcDbEntity
 67
     1
  8
0
100
AcDbViewport
 10
221.7983922322079
 20
165.4018346413323
 30
0.0
 40
573.9825248868203
 41
329.6562736515749
 68
     1
 69
     1
1001
ACAD
1000
MVIEW
1002
{
1070
    16
1010
0.0
1020
0.0
1030
0.0
1010
0.0
1020
0.0
1030
1.0
1040
0.0
1040
329.6562736515749
1040
221.7983922322079
1040
165.4018346413323
1040
50.0
1040
0.0
1040
0.0
1070
     0
1070
   100
1070
     1
1070
     0
1070
     0
1070
     0
1070
     0
1070
     0
1040
0.0
1040
0.0
1040
0.0
1040
1.0
1040
1.0
1040
10.0
1040
10.0
1070
     0
1002
{
1002
}
1002
}
  0
VIEWPORT
  5
6001
330
5D8E
100
AcDbEntity
 67
     1
  8
ZISSEN1
100
AcDbViewport
 10
221.7861955525412
 20
157.6960273330388
 30
0.0
 40
385.4999999999997
 41
259.9999999999999
 68
     2
 69
     2
1001
ACAD
1000
MVIEW
1002
{
1070
    16
1010
0.0
1020
0.0
1030
0.0
1010
0.0
1020
0.0
1030
1.0
1040
0.0
1040
259.9999999999999
1040
-1587.116155895301
1040
1779.957092491038
1040
50.0
1040
0.0
1040
0.0
1070
     0
1070
   100
1070
     1
1070
     0
1070
     0
1070
     0
1070
     0
1070
     0
1040
0.0
1040
0.0
1040
0.0
1040
1.0
1040
1.0
1040
10.0
1040
10.0
1070
     0
1002
{
1002
}
1002
}
  0
TEXT
  5
12C0E
330
5D8E
100
AcDbEntity
 67
     1
  8
SUNPOU
 62
     0
100
AcDbText
 10
369.7804635405202
 20
44.45106598157519
 30
0.0
 40
3.5
  1
縮尺 1/1
  7
ゴシック体
100
AcDbText
  0
ENDSEC
  0
SECTION
  2
OBJECTS
  0
DICTIONARY
  5
C
330
0
100
AcDbDictionary
  3
ACAD_GROUP
350
D
  3
ACAD_LAYOUT
350
5C7D
  3
ACAD_MLINESTYLE
350
E
  3
ACAD_PLOTSETTINGS
350
5C7E
  3
ACAD_PLOTSTYLENAME
350
5C7B
  3
ACDBVARIABLEDICTIONARY
350
1348A
  3
DWGPROPS
350
5E8E
  3
ACDBHEADERROUNDTRIPXREC
350
136E8
  0
DICTIONARY
  5
12CB3
330
2
100
AcDbDictionary
280
     1
  3
ACAD_LAYERFILTERS
360
12CB4
  0
DICTIONARY
  5
13708
330
1A
100
AcDbDictionary
280
     1
  3
ACAD_LAYOUTSELFREF
360
13709
  0
DICTIONARY
  5
1370A
330
5D8E
100
AcDbDictionary
280
     1
  3
ACAD_LAYOUTSELFREF
360
1370B
  0
DICTIONARY
  5
D
102
{ACAD_REACTORS
330
C
102
}
330
C
100
AcDbDictionary
  3
*A1
350
477D
  3
*A2
350
4780
  3
*A3
350
4781
  3
*A4
350
4C0E
  3
*A5
350
4C0F
  3
*A6
350
4C10
  3
*A7
350
4C11
  3
*A8
350
4C12
  3
*A9
350
4C13
  3
*A10
350
4C14
  3
*A11
350
4C15
  3
*A12
350
4C16
  3
*A13
350
4C17
  3
*A14
350
477E
  3
*A15
350
477F
  0
DICTIONARY
  5
5C7D
102
{ACAD_REACTORS
330
C
102
}
330
C
100
AcDbDictionary
  0
DICTIONARY
  5
E
102
{ACAD_REACTORS
330
C
102
}
330
C
100
AcDbDictionary
  3
STANDARD
350
13
  0
DICTIONARY
  5
5C7E
102
{ACAD_REACTORS
330
C
102
}
330
C
100
AcDbDictionary
  0
ACDBDICTIONARYWDFLT
  5
5C7B
102
{ACAD_REACTORS
330
C
102
}
330
C
100
AcDbDictionary
281
     1
  3
Normal
350
5C7C
100
AcDbDictionaryWithDefault
340
5C7C
  0
DICTIONARY
  5
1348A
102
{ACAD_REACTORS
330
C
102
}
330
C
100
AcDbDictionary
  3
SORTENTS
350
1348B
  0
XRECORD
  5
5E8E
102
{ACAD_REACTORS
330
C
102
}
330
C
100
AcDbXrecord
  1
DWGPROPS COOKIE
  2

  3

  4

  6

  7

  8

  9

300
=
301
=
302
=
303
=
304
=
305
=
306
=
307
=
308
=
309
=
 40
0.586753587962963
 41
2450495.493631365
 42
2453208.662277431
  1

 90
        0
  0
DICTIONARY
  5
136E8
102
{ACAD_REACTORS
330
C
102
}
330
C
100
AcDbDictionary
  3
TSTACKALIGN
350
136E9
  3
TSTACKSIZE
350
136EA
  3
HYPERLINKBASE
350
136EB
  3
STYLESHEET
350
136EC
  3
LAYOUTDICT
350
136ED
  3
PLOTSETDICT
350
136EE
  3
PLOTSTYLNAMDICT
350
136EF
  3
LWETCUNION
350
136F0
  3
INSUNITS
350
136F1
  3
CEPSNTYPE
350
136F2
  3
FINGERPRINTGUID
350
136F3
  3
VERSIONGUID
350
136F4
  3
PSVPSCALE
350
136F5
  3
PUCSORTHOREF
350
136F6
  3
PUCSORTHOVIEW
350
136F7
  3
PUCSBASE
350
136F8
  3
PUCSORGTOP
350
136F9
  3
PUCSORGBOTTOM
350
136FA
  3
PUCSORGLEFT
350
136FB
  3
PUCSORGRIGHT
350
136FC
  3
PUCSORGFRONT
350
136FD
  3
PUCSORGBACK
350
136FE
  3
UCSORTHOREF
350
136FF
  3
UCSORTHOVIEW
350
13700
  3
UCSBASE
350
13701
  3
UCSORGTOP
350
13702
  3
UCSORGBOTTOM
350
13703
  3
UCSORGLEFT
350
13704
  3
UCSORGRIGHT
350
13705
  3
UCSORGFRONT
350
13706
  3
UCSORGBACK
350
13707
  0
DICTIONARY
  5
12CB4
102
{ACAD_REACTORS
330
12CB3
102
}
330
12CB3
100
AcDbDictionary
280
     1
  3
BASE
360
12CB5
  3
CASE
360
12CB6
  3
KIKOU
360
12CB7
  0
XRECORD
  5
13709
102
{ACAD_REACTORS
330
13708
102
}
330
13708
100
AcDbXrecord
340
1A
  0
XRECORD
  5
1370B
102
{ACAD_REACTORS
330
1370A
102
}
330
1370A
100
AcDbXrecord
340
5D8E
  0
GROUP
  5
477D
102
{ACAD_REACTORS
330
D
102
}
330
D
100
AcDbGroup
300

 70
     1
 71
     1
  0
GROUP
  5
4780
102
{ACAD_REACTORS
330
D
102
}
330
D
100
AcDbGroup
300

 70
     1
 71
     1
  0
GROUP
  5
4781
102
{ACAD_REACTORS
330
D
102
}
330
D
100
AcDbGroup
300

 70
     1
 71
     1
  0
GROUP
  5
4C0E
102
{ACAD_REACTORS
330
D
102
}
330
D
100
AcDbGroup
300

 70
     1
 71
     1
  0
GROUP
  5
4C0F
102
{ACAD_REACTORS
330
D
102
}
330
D
100
AcDbGroup
300

 70
     1
 71
     1
  0
GROUP
  5
4C10
102
{ACAD_REACTORS
330
D
102
}
330
D
100
AcDbGroup
300

 70
     1
 71
     1
  0
GROUP
  5
4C11
102
{ACAD_REACTORS
330
D
102
}
330
D
100
AcDbGroup
300

 70
     1
 71
     1
  0
GROUP
  5
4C12
102
{ACAD_REACTORS
330
D
102
}
330
D
100
AcDbGroup
300

 70
     1
 71
     1
  0
GROUP
  5
4C13
102
{ACAD_REACTORS
330
D
102
}
330
D
100
AcDbGroup
300

 70
     1
 71
     1
  0
GROUP
  5
4C14
102
{ACAD_REACTORS
330
D
102
}
330
D
100
AcDbGroup
300

 70
     1
 71
     1
  0
GROUP
  5
4C15
102
{ACAD_REACTORS
330
D
102
}
330
D
100
AcDbGroup
300

 70
     1
 71
     1
  0
GROUP
  5
4C16
102
{ACAD_REACTORS
330
D
102
}
330
D
100
AcDbGroup
300

 70
     1
 71
     1
  0
GROUP
  5
4C17
102
{ACAD_REACTORS
330
D
102
}
330
D
100
AcDbGroup
300

 70
     1
 71
     1
  0
GROUP
  5
477E
102
{ACAD_REACTORS
330
D
102
}
330
D
100
AcDbGroup
300

 70
     1
 71
     1
  0
GROUP
  5
477F
102
{ACAD_REACTORS
330
D
102
}
330
D
100
AcDbGroup
300

 70
     1
 71
     1
  0
MLINESTYLE
  5
13
102
{ACAD_REACTORS
330
E
102
}
330
E
100
AcDbMlineStyle
  2
STANDARD
 70
     0
  3

 62
     0
 51
90.0
 52
90.0
 71
     2
 49
0.5
 62
   256
  6
BYLAYER
 49
-0.5
 62
   256
  6
BYLAYER
  0
ACDBPLACEHOLDER
  5
5C7C
102
{ACAD_REACTORS
330
5C7B
102
}
330
5C7B
100
AcDbPlaceHolder
280
     0
  0
DICTIONARYVAR
  5
1348B
102
{ACAD_REACTORS
330
1348A
102
}
330
1348A
100
DictionaryVariables
280
     0
  1
96
  0
XRECORD
  5
136E9
102
{ACAD_REACTORS
330
136E8
102
}
330
136E8
100
AcDbXrecord
 90
        1
  0
XRECORD
  5
136EA
102
{ACAD_REACTORS
330
136E8
102
}
330
136E8
100
AcDbXrecord
 90
       70
  0
XRECORD
  5
136EB
102
{ACAD_REACTORS
330
136E8
102
}
330
136E8
100
AcDbXrecord
  1

  0
XRECORD
  5
136EC
102
{ACAD_REACTORS
330
136E8
102
}
330
136E8
100
AcDbXrecord
  1

  0
XRECORD
  5
136ED
102
{ACAD_REACTORS
330
136E8
102
}
330
136E8
100
AcDbXrecord
340
5C7D
  0
XRECORD
  5
136EE
102
{ACAD_REACTORS
330
136E8
102
}
330
136E8
100
AcDbXrecord
340
5C7E
  0
XRECORD
  5
136EF
102
{ACAD_REACTORS
330
136E8
102
}
330
136E8
100
AcDbXrecord
340
5C7B
  0
XRECORD
  5
136F0
102
{ACAD_REACTORS
330
136E8
102
}
330
136E8
100
AcDbXrecord
 90
    10781
  0
XRECORD
  5
136F1
102
{ACAD_REACTORS
330
136E8
102
}
330
136E8
100
AcDbXrecord
 90
        0
  0
XRECORD
  5
136F2
102
{ACAD_REACTORS
330
136E8
102
}
330
136E8
100
AcDbXrecord
 90
        0
  0
XRECORD
  5
136F3
102
{ACAD_REACTORS
330
136E8
102
}
330
136E8
100
AcDbXrecord
  1
{225A7F0D-DA29-11D8-946A-0000E2416295}
  0
XRECORD
  5
136F4
102
{ACAD_REACTORS
330
136E8
102
}
330
136E8
100
AcDbXrecord
  1
{9FB1ABD2-0FA7-4613-B208-705609DFFA7B}
  0
XRECORD
  5
136F5
102
{ACAD_REACTORS
330
136E8
102
}
330
136E8
100
AcDbXrecord
 40
0.0
  0
XRECORD
  5
136F6
102
{ACAD_REACTORS
330
136E8
102
}
330
136E8
100
AcDbXrecord
340
0
  0
XRECORD
  5
136F7
102
{ACAD_REACTORS
330
136E8
102
}
330
136E8
100
AcDbXrecord
 70
     0
  0
XRECORD
  5
136F8
102
{ACAD_REACTORS
330
136E8
102
}
330
136E8
100
AcDbXrecord
340
0
  0
XRECORD
  5
136F9
102
{ACAD_REACTORS
330
136E8
102
}
330
136E8
100
AcDbXrecord
 10
0.0
 20
0.0
 30
0.0
  0
XRECORD
  5
136FA
102
{ACAD_REACTORS
330
136E8
102
}
330
136E8
100
AcDbXrecord
 10
0.0
 20
0.0
 30
0.0
  0
XRECORD
  5
136FB
102
{ACAD_REACTORS
330
136E8
102
}
330
136E8
100
AcDbXrecord
 10
0.0
 20
0.0
 30
0.0
  0
XRECORD
  5
136FC
102
{ACAD_REACTORS
330
136E8
102
}
330
136E8
100
AcDbXrecord
 10
0.0
 20
0.0
 30
0.0
  0
XRECORD
  5
136FD
102
{ACAD_REACTORS
330
136E8
102
}
330
136E8
100
AcDbXrecord
 10
0.0
 20
0.0
 30
0.0
  0
XRECORD
  5
136FE
102
{ACAD_REACTORS
330
136E8
102
}
330
136E8
100
AcDbXrecord
 10
0.0
 20
0.0
 30
0.0
  0
XRECORD
  5
136FF
102
{ACAD_REACTORS
330
136E8
102
}
330
136E8
100
AcDbXrecord
340
0
  0
XRECORD
  5
13700
102
{ACAD_REACTORS
330
136E8
102
}
330
136E8
100
AcDbXrecord
 70
     0
  0
XRECORD
  5
13701
102
{ACAD_REACTORS
330
136E8
102
}
330
136E8
100
AcDbXrecord
340
0
  0
XRECORD
  5
13702
102
{ACAD_REACTORS
330
136E8
102
}
330
136E8
100
AcDbXrecord
 10
0.0
 20
0.0
 30
0.0
  0
XRECORD
  5
13703
102
{ACAD_REACTORS
330
136E8
102
}
330
136E8
100
AcDbXrecord
 10
0.0
 20
0.0
 30
0.0
  0
XRECORD
  5
13704
102
{ACAD_REACTORS
330
136E8
102
}
330
136E8
100
AcDbXrecord
 10
0.0
 20
0.0
 30
0.0
  0
XRECORD
  5
13705
102
{ACAD_REACTORS
330
136E8
102
}
330
136E8
100
AcDbXrecord
 10
0.0
 20
0.0
 30
0.0
  0
XRECORD
  5
13706
102
{ACAD_REACTORS
330
136E8
102
}
330
136E8
100
AcDbXrecord
 10
0.0
 20
0.0
 30
0.0
  0
XRECORD
  5
13707
102
{ACAD_REACTORS
330
136E8
102
}
330
136E8
100
AcDbXrecord
 10
0.0
 20
0.0
 30
0.0
  0
XRECORD
  5
12CB5
102
{ACAD_REACTORS
330
12CB4
102
}
330
12CB4
100
AcDbXrecord
  1
BASE
  1
BASE*
  1
*
  1
*
 70
     0
  1
*
  1
*
  0
XRECORD
  5
12CB6
102
{ACAD_REACTORS
330
12CB4
102
}
330
12CB4
100
AcDbXrecord
  1
CASE
  1
CASE*
  1
*
  1
*
 70
     0
  1
*
  1
*
  0
XRECORD
  5
12CB7
102
{ACAD_REACTORS
330
12CB4
102
}
330
12CB4
100
AcDbXrecord
  1
KIKOU
  1
KIKOU*
  1
*
  1
*
 70
     0
  1
*
  1
*
  0
ENDSEC
  0
EOF
