  0
SECTION
  2
HEADER
  9
$ACADVER
  1
AC1014
  9
$ACADMAINTVER
 70
     9
  9
$DWGCODEPAGE
  3
ANSI_932
  9
$INSBASE
 10
0.0
 20
0.0
 30
0.0
  9
$EXTMIN
 10
-1574.910583961856
 20
1496.709262981963
 30
-0.00000001
  9
$EXTMAX
 10
-1328.4
 20
1684.258577755064
 30
0.00000001
  9
$LIMMIN
 10
0.0
 20
0.0
  9
$LIMMAX
 10
420.0
 20
297.0
  9
$ORTHOMODE
 70
     1
  9
$REGENMODE
 70
     1
  9
$FILLMODE
 70
     1
  9
$QTEXTMODE
 70
     0
  9
$MIRRTEXT
 70
     1
  9
$DRAGMODE
 70
     2
  9
$LTSCALE
 40
1.0
  9
$OSMODE
 70
    37
  9
$ATTMODE
 70
     1
  9
$TEXTSIZE
 40
2.5
  9
$TRACEWID
 40
1.0
  9
$TEXTSTYLE
  7
ゴシック体
  9
$CLAYER
  8
ZISSEN1
  9
$CELTYPE
  6
BYLAYER
  9
$CECOLOR
 62
   256
  9
$CELTSCALE
 40
1.0
  9
$DELOBJ
 70
     1
  9
$DISPSILH
 70
     0
  9
$DIMSCALE
 40
0.0
  9
$DIMASZ
 40
3.0
  9
$DIMEXO
 40
0.5
  9
$DIMDLI
 40
0.5
  9
$DIMRND
 40
0.0
  9
$DIMDLE
 40
0.0
  9
$DIMEXE
 40
0.5
  9
$DIMTP
 40
0.0
  9
$DIMTM
 40
0.0
  9
$DIMTXT
 40
3.5
  9
$DIMCEN
 40
0.0
  9
$DIMTSZ
 40
0.0
  9
$DIMTOL
 70
     0
  9
$DIMLIM
 70
     0
  9
$DIMTIH
 70
     0
  9
$DIMTOH
 70
     0
  9
$DIMSE1
 70
     0
  9
$DIMSE2
 70
     0
  9
$DIMTAD
 70
     1
  9
$DIMZIN
 70
     8
  9
$DIMBLK
  1

  9
$DIMASO
 70
     1
  9
$DIMSHO
 70
     1
  9
$DIMPOST
  1

  9
$DIMAPOST
  1

  9
$DIMALT
 70
     0
  9
$DIMALTD
 70
     2
  9
$DIMALTF
 40
25.4
  9
$DIMLFAC
 40
1.0
  9
$DIMTOFL
 70
     1
  9
$DIMTVP
 40
0.0
  9
$DIMTIX
 70
     0
  9
$DIMSOXD
 70
     0
  9
$DIMSAH
 70
     0
  9
$DIMBLK1
  1

  9
$DIMBLK2
  1

  9
$DIMSTYLE
  2
標準スタイル
  9
$DIMCLRD
 70
     1
  9
$DIMCLRE
 70
     1
  9
$DIMCLRT
 70
     1
  9
$DIMTFAC
 40
1.0
  9
$DIMGAP
 40
1.0
  9
$DIMJUST
 70
     0
  9
$DIMSD1
 70
     0
  9
$DIMSD2
 70
     0
  9
$DIMTOLJ
 70
     1
  9
$DIMTZIN
 70
     8
  9
$DIMALTZ
 70
     0
  9
$DIMALTTZ
 70
     0
  9
$DIMFIT
 70
     3
  9
$DIMUPT
 70
     0
  9
$DIMUNIT
 70
     2
  9
$DIMDEC
 70
     2
  9
$DIMTDEC
 70
     2
  9
$DIMALTU
 70
     2
  9
$DIMALTTD
 70
     2
  9
$DIMTXSTY
  7
ゴシック体
  9
$DIMAUNIT
 70
     0
  9
$LUNITS
 70
     2
  9
$LUPREC
 70
     4
  9
$SKETCHINC
 40
1.0
  9
$FILLETRAD
 40
0.0
  9
$AUNITS
 70
     0
  9
$AUPREC
 70
     0
  9
$MENU
  1
.
  9
$ELEVATION
 40
0.0
  9
$PELEVATION
 40
0.0
  9
$THICKNESS
 40
0.0
  9
$LIMCHECK
 70
     0
  9
$BLIPMODE
 70
     0
  9
$CHAMFERA
 40
10.0
  9
$CHAMFERB
 40
10.0
  9
$CHAMFERC
 40
2.0
  9
$CHAMFERD
 40
0.7853981633974483
  9
$SKPOLY
 70
     0
  9
$TDCREATE
 40
2450495.493631365
  9
$TDUPDATE
 40
2455084.706494699
  9
$TDINDWG
 40
2.0308572801
  9
$TDUSRTIMER
 40
2.0308572801
  9
$USRTIMER
 70
     1
  9
$ANGBASE
 50
0.0
  9
$ANGDIR
 70
     0
  9
$PDMODE
 70
    99
  9
$PDSIZE
 40
0.0
  9
$PLINEWID
 40
0.0
  9
$COORDS
 70
     1
  9
$SPLFRAME
 70
     0
  9
$SPLINETYPE
 70
     6
  9
$SPLINESEGS
 70
     8
  9
$ATTDIA
 70
     0
  9
$ATTREQ
 70
     1
  9
$HANDLING
 70
 10241
  9
$HANDSEED
  5
15D60
  9
$SURFTAB1
 70
     6
  9
$SURFTAB2
 70
     6
  9
$SURFTYPE
 70
     6
  9
$SURFU
 70
     6
  9
$SURFV
 70
     6
  9
$UCSNAME
  2

  9
$UCSORG
 10
0.0
 20
0.0
 30
0.0
  9
$UCSXDIR
 10
1.0
 20
0.0
 30
0.0
  9
$UCSYDIR
 10
0.0
 20
1.0
 30
0.0
  9
$PUCSNAME
  2

  9
$PUCSORG
 10
0.0
 20
0.0
 30
0.0
  9
$PUCSXDIR
 10
1.0
 20
0.0
 30
0.0
  9
$PUCSYDIR
 10
0.0
 20
1.0
 30
0.0
  9
$USERI1
 70
     0
  9
$USERI2
 70
     0
  9
$USERI3
 70
     0
  9
$USERI4
 70
     0
  9
$USERI5
 70
     0
  9
$USERR1
 40
0.0
  9
$USERR2
 40
0.0
  9
$USERR3
 40
0.0
  9
$USERR4
 40
0.0
  9
$USERR5
 40
0.0
  9
$WORLDVIEW
 70
     1
  9
$SHADEDGE
 70
     3
  9
$SHADEDIF
 70
    70
  9
$TILEMODE
 70
     0
  9
$MAXACTVP
 70
    16
  9
$PINSBASE
 10
0.0
 20
0.0
 30
0.0
  9
$PLIMCHECK
 70
     0
  9
$PEXTMIN
 10
29.03619555254135
 20
27.69602733303884
 30
0.0
  9
$PEXTMAX
 10
414.5361955525411
 20
287.6960273330388
 30
0.0
  9
$PLIMMIN
 10
11.81292516792682
 20
9.198315512921345
  9
$PLIMMAX
 10
431.7595804413643
 20
306.2089661476869
  9
$UNITMODE
 70
     0
  9
$VISRETAIN
 70
     0
  9
$PLINEGEN
 70
     0
  9
$PSLTSCALE
 70
     1
  9
$TREEDEPTH
 70
  3020
  9
$PICKSTYLE
 70
     1
  9
$CMLSTYLE
  2
STANDARD
  9
$CMLJUST
 70
     0
  9
$CMLSCALE
 40
1.0
  9
$PROXYGRAPHICS
 70
     1
  9
$MEASUREMENT
 70
     1
  0
ENDSEC
  0
SECTION
  2
CLASSES
  0
CLASS
  1
LWPOLYLINE
  2
AcDbPolyline
  3
AutoCAD 2000
 90
        0
280
     0
281
     1
  0
CLASS
  1
HATCH
  2
AcDbHatch
  3
AutoCAD 2000
 90
        0
280
     0
281
     1
  0
CLASS
  1
ACDBDICTIONARYWDFLT
  2
AcDbDictionaryWithDefault
  3
AutoCAD 2000
 90
        0
280
     0
281
     0
  0
CLASS
  1
ACDBPLACEHOLDER
  2
AcDbPlaceHolder
  3
AutoCAD 2000
 90
        0
280
     0
281
     0
  0
CLASS
  1
LAYOUT
  2
AcDbLayout
  3
AutoCAD 2000
 90
        0
280
     0
281
     0
  0
CLASS
  1
DICTIONARYVAR
  2
AcDbDictionaryVar
  3
AutoCAD 2000
 90
        0
280
     0
281
     0
  0
CLASS
  1
LONG_TRANSACTION
  2
AcDbLongTransaction
  3
AutoCAD 2000
 90
        0
280
     0
281
     0
  0
CLASS
  1
LWPOLYLINE
  2
AcDbPolyline
  3
AutoCAD 2000
 90
        0
280
     0
281
     1
  0
CLASS
  1
HATCH
  2
AcDbHatch
  3
AutoCAD 2000
 90
        0
280
     0
281
     1
  0
CLASS
  1
XRECORD
  2
AcDbXrecord
  3
AutoCAD 2000
 90
        0
280
     0
281
     0
  0
ENDSEC
  0
SECTION
  2
TABLES
  0
TABLE
  2
VPORT
  5
8
330
0
100
AcDbSymbolTable
 70
     1
  0
VPORT
  5
15D26
330
8
100
AcDbSymbolTableRecord
100
AcDbViewportTableRecord
  2
*ACTIVE
 70
     0
 10
0.0
 20
0.0
 11
1.0
 21
1.0
 12
-1419.742261087229
 22
1588.062639456744
 13
0.0
 23
0.0
 14
5.0
 24
5.0
 15
0.0
 25
0.0
 16
0.0
 26
0.0
 36
1.0
 17
0.0
 27
0.0
 37
0.0
 40
251.3387939187451
 41
1.695885509838998
 42
50.0
 43
0.0
 44
0.0
 50
0.0
 51
0.0
 71
     0
 72
   100
 73
     1
 74
     0
 75
     0
 76
     0
 77
     0
 78
     0
  0
ENDTAB
  0
TABLE
  2
LTYPE
  5
5
330
0
100
AcDbSymbolTable
 70
     3
  0
LTYPE
  5
14
330
5
100
AcDbSymbolTableRecord
100
AcDbLinetypeTableRecord
  2
BYBLOCK
 70
     0
  3

 72
    65
 73
     0
 40
0.0
  0
LTYPE
  5
15
330
5
100
AcDbSymbolTableRecord
100
AcDbLinetypeTableRecord
  2
BYLAYER
 70
     0
  3

 72
    65
 73
     0
 40
0.0
  0
LTYPE
  5
16
330
5
100
AcDbSymbolTableRecord
100
AcDbLinetypeTableRecord
  2
CONTINUOUS
 70
     0
  3
Solid line
 72
    65
 73
     0
 40
0.0
  0
LTYPE
  5
329
330
5
100
AcDbSymbolTableRecord
100
AcDbLinetypeTableRecord
  2
DASHEDX2
 70
     0
  3
____  ____  ____  ____  ____  ____  ____  ____ 
 72
    65
 73
     2
 40
1.5
 49
1.0
 74
     0
 49
-0.5
 74
     0
  0
LTYPE
  5
1956
330
5
100
AcDbSymbolTableRecord
100
AcDbLinetypeTableRecord
  2
CENTERX2
 70
     0
  3
________  __  ________  __  ________  __  _____
 72
    65
 73
     4
 40
4.0
 49
2.5
 74
     0
 49
-0.5
 74
     0
 49
0.5
 74
     0
 49
-0.5
 74
     0
  0
ENDTAB
  0
TABLE
  2
LAYER
  5
2
102
{ACAD_XDICTIONARY
360
130FA
102
}
330
0
100
AcDbSymbolTable
 70
     8
  0
LAYER
  5
F
330
2
100
AcDbSymbolTableRecord
100
AcDbLayerTableRecord
  2
0
 70
     0
 62
     7
  6
CONTINUOUS
  0
LAYER
  5
18F
330
2
100
AcDbSymbolTableRecord
100
AcDbLayerTableRecord
  2
ZISSEN1
 70
     0
 62
     7
  6
CONTINUOUS
  0
LAYER
  5
529
330
2
100
AcDbSymbolTableRecord
100
AcDbLayerTableRecord
  2
SUNPOU
 70
     0
 62
     1
  6
CONTINUOUS
  0
LAYER
  5
1959
330
2
100
AcDbSymbolTableRecord
100
AcDbLayerTableRecord
  2
KAKURESEN1
 70
     0
 62
     3
  6
DASHEDX2
  0
LAYER
  5
195A
330
2
100
AcDbSymbolTableRecord
100
AcDbLayerTableRecord
  2
CL1
 70
     0
 62
   210
  6
CENTERX2
  0
LAYER
  5
3A9B
330
2
100
AcDbSymbolTableRecord
100
AcDbLayerTableRecord
  2
DEFPOINTS
 70
     0
 62
     7
  6
CONTINUOUS
  0
LAYER
  5
131A2
330
2
100
AcDbSymbolTableRecord
100
AcDbLayerTableRecord
  2
実践
 70
     0
 62
     7
  6
CONTINUOUS
  0
LAYER
  5
131A3
330
2
100
AcDbSymbolTableRecord
100
AcDbLayerTableRecord
  2
出力ｷﾊ_ﾝ
 70
     0
 62
     7
  6
CONTINUOUS
  0
ENDTAB
  0
TABLE
  2
STYLE
  5
3
330
0
100
AcDbSymbolTable
 70
     3
  0
STYLE
  5
10
330
3
100
AcDbSymbolTableRecord
100
AcDbTextStyleTableRecord
  2
STANDARD
 70
     0
 40
0.0
 41
1.0
 50
0.0
 71
     0
 42
3.0
  3
txt
  4
BigFont
  0
STYLE
  5
1960
330
3
100
AcDbSymbolTableRecord
100
AcDbTextStyleTableRecord
  2
ゴシック体
 70
     0
 40
0.0
 41
1.0
 50
0.0
 71
     0
 42
2.5
  3
MS Gothic.ttf
  4

1001
ACAD
1000
MS Gothic
1071
    32817
  0
STYLE
  5
131A6
330
3
100
AcDbSymbolTableRecord
100
AcDbTextStyleTableRecord
  2
ｽﾀｲﾙ2
 70
     0
 40
0.0
 41
1.0
 50
0.0
 71
     0
 42
3.0
  3
ARIAL.TTF
  4

1001
ACAD
1000
Arial
1071
       34
  0
ENDTAB
  0
TABLE
  2
VIEW
  5
6
330
0
100
AcDbSymbolTable
 70
     0
  0
ENDTAB
  0
TABLE
  2
UCS
  5
7
330
0
100
AcDbSymbolTable
 70
     0
  0
ENDTAB
  0
TABLE
  2
APPID
  5
9
330
0
100
AcDbSymbolTable
 70
     5
  0
APPID
  5
11
330
9
100
AcDbSymbolTableRecord
100
AcDbRegAppTableRecord
  2
ACAD
 70
     0
  0
APPID
  5
4005
330
9
100
AcDbSymbolTableRecord
100
AcDbRegAppTableRecord
  2
CONTENTTABDATA
 70
     0
  0
APPID
  5
4006
330
9
100
AcDbSymbolTableRecord
100
AcDbRegAppTableRecord
  2
CONTENTCURRENTTAB
 70
     0
  0
APPID
  5
477B
330
9
100
AcDbSymbolTableRecord
100
AcDbRegAppTableRecord
  2
CONTENTBLOCKDESCRIPTION
 70
     0
  0
APPID
  5
477C
330
9
100
AcDbSymbolTableRecord
100
AcDbRegAppTableRecord
  2
CONTENTBLOCKICON
 70
     0
  0
ENDTAB
  0
TABLE
  2
DIMSTYLE
  5
A
330
0
100
AcDbSymbolTable
 70
     3
  0
DIMSTYLE
105
1D
330
A
100
AcDbSymbolTableRecord
100
AcDbDimStyleTableRecord
  2
STANDARD
 70
     0
  3

  4

  5

  6

  7

 40
1.0
 41
0.18
 42
0.0625
 43
0.38
 44
0.18
 45
0.0
 46
0.0
 47
0.0
 48
0.0
140
0.18
141
0.09
142
0.0
143
25.4
144
1.0
145
0.0
146
1.0
147
0.09
 71
     0
 72
     0
 73
     1
 74
     1
 75
     0
 76
     0
 77
     0
 78
     0
170
     0
171
     2
172
     0
173
     0
174
     0
175
     0
176
     0
177
     0
178
     0
270
     2
271
     4
272
     4
273
     2
274
     2
340
10
275
     0
280
     0
281
     0
282
     0
283
     1
284
     0
285
     0
286
     0
287
     3
288
     0
  0
DIMSTYLE
105
52E
330
A
100
AcDbSymbolTableRecord
100
AcDbDimStyleTableRecord
  2
標準スタイル
 70
     0
  3

  4

  5

  6

  7

 40
0.0
 41
3.0
 42
0.5
 43
0.5
 44
0.5
 45
0.0
 46
0.0
 47
0.0
 48
0.0
140
3.5
141
0.0
142
0.0
143
25.4
144
1.0
145
0.0
146
1.0
147
1.0
 71
     0
 72
     0
 73
     0
 74
     0
 75
     0
 76
     0
 77
     1
 78
     8
170
     0
171
     2
172
     1
173
     0
174
     0
175
     0
176
     1
177
     1
178
     1
270
     2
271
     2
272
     2
273
     2
274
     2
340
1960
275
     0
280
     0
281
     0
282
     0
283
     1
284
     8
285
     0
286
     0
287
     3
288
     0
  0
DIMSTYLE
105
131A7
102
{ACAD_REACTORS
330
14989
330
1498F
330
15B8E
330
1498C
330
1498A
330
1498B
330
15BC2
330
1496D
330
1496C
330
1496E
102
}
330
A
100
AcDbSymbolTableRecord
100
AcDbDimStyleTableRecord
  2
ISO-25
 70
     0
  3

  4

  5

  6

  7

 40
1.0
 41
2.5
 42
0.625
 43
3.75
 44
1.25
 45
0.0
 46
0.0
 47
0.0
 48
0.0
140
2.5
141
2.5
142
0.0
143
0.03937007874016
144
1.0
145
0.0
146
1.0
147
0.625
 71
     0
 72
     0
 73
     0
 74
     0
 75
     0
 76
     0
 77
     1
 78
     8
170
     0
171
     3
172
     1
173
     0
174
     0
175
     0
176
     1
177
     1
178
     1
270
     2
271
     2
272
     2
273
     2
274
     3
340
10
275
     0
280
     0
281
     0
282
     0
283
     0
284
     8
285
     0
286
     0
287
     3
288
     0
  0
ENDTAB
  0
TABLE
  2
BLOCK_RECORD
  5
1
330
0
100
AcDbSymbolTable
 70
    10
  0
BLOCK_RECORD
  5
1A
102
{ACAD_XDICTIONARY
360
15D5C
102
}
330
1
100
AcDbSymbolTableRecord
100
AcDbBlockTableRecord
  2
*MODEL_SPACE
  0
BLOCK_RECORD
  5
5D8E
102
{ACAD_XDICTIONARY
360
15D5E
102
}
330
1
100
AcDbSymbolTableRecord
100
AcDbBlockTableRecord
  2
*PAPER_SPACE
  0
BLOCK_RECORD
  5
15461
330
1
100
AcDbSymbolTableRecord
100
AcDbBlockTableRecord
  2
*D0
  0
BLOCK_RECORD
  5
1546D
330
1
100
AcDbSymbolTableRecord
100
AcDbBlockTableRecord
  2
*D1
  0
BLOCK_RECORD
  5
15479
330
1
100
AcDbSymbolTableRecord
100
AcDbBlockTableRecord
  2
*D2
  0
BLOCK_RECORD
  5
15485
330
1
100
AcDbSymbolTableRecord
100
AcDbBlockTableRecord
  2
*D3
  0
BLOCK_RECORD
  5
15491
330
1
100
AcDbSymbolTableRecord
100
AcDbBlockTableRecord
  2
*D4
  0
BLOCK_RECORD
  5
1549F
330
1
100
AcDbSymbolTableRecord
100
AcDbBlockTableRecord
  2
*D5
  0
BLOCK_RECORD
  5
154AD
330
1
100
AcDbSymbolTableRecord
100
AcDbBlockTableRecord
  2
*D6
  0
BLOCK_RECORD
  5
154D1
330
1
100
AcDbSymbolTableRecord
100
AcDbBlockTableRecord
  2
*D7
  0
BLOCK_RECORD
  5
15B8F
330
1
100
AcDbSymbolTableRecord
100
AcDbBlockTableRecord
  2
*D8
  0
BLOCK_RECORD
  5
15BC3
330
1
100
AcDbSymbolTableRecord
100
AcDbBlockTableRecord
  2
*D9
  0
ENDTAB
  0
ENDSEC
  0
SECTION
  2
BLOCKS
  0
BLOCK
  5
1B
330
1A
100
AcDbEntity
  8
0
100
AcDbBlockBegin
  2
*MODEL_SPACE
 70
     0
 10
0.0
 20
0.0
 30
0.0
  3
*MODEL_SPACE
  1

  0
ENDBLK
  5
1C
330
1A
100
AcDbEntity
  8
0
100
AcDbBlockEnd
  0
BLOCK
  5
5E60
330
5D8E
100
AcDbEntity
 67
     1
  8
0
100
AcDbBlockBegin
  2
*PAPER_SPACE
 70
     0
 10
0.0
 20
0.0
 30
0.0
  3
*PAPER_SPACE
  1

  0
ENDBLK
  5
5E61
330
5D8E
100
AcDbEntity
 67
     1
  8
0
100
AcDbBlockEnd
  0
BLOCK
  5
1546B
330
15461
100
AcDbEntity
  8
0
100
AcDbBlockBegin
  2
*D0
 70
     1
 10
0.0
 20
0.0
 30
0.0
  3
*D0
  1

  0
LINE
  5
15C79
330
15461
100
AcDbEntity
  8
SUNPOU
 62
     0
100
AcDbLine
 10
-1397.874999999999
 20
1560.0
 30
0.0
 11
-1384.320332560568
 21
1560.0
 31
0.0
  0
LINE
  5
15C7A
330
15461
100
AcDbEntity
  8
SUNPOU
 62
     0
100
AcDbLine
 10
-1390.375
 20
1500.0
 30
0.0
 11
-1384.320332560568
 21
1500.0
 31
0.0
  0
LINE
  5
15C7B
330
15461
100
AcDbEntity
  8
SUNPOU
 62
     0
100
AcDbLine
 10
-1385.570332560567
 20
1557.5
 30
0.0
 11
-1385.570332560568
 21
1502.5
 31
0.0
  0
SOLID
  5
15C7C
330
15461
100
AcDbEntity
  8
SUNPOU
 62
     0
100
AcDbTrace
 10
-1385.986999227234
 20
1557.5
 30
0.0
 11
-1385.153665893901
 21
1557.5
 31
0.0
 12
-1385.570332560567
 22
1560.0
 32
0.0
 13
-1385.570332560567
 23
1560.0
 33
0.0
  0
SOLID
  5
15C7D
330
15461
100
AcDbEntity
  8
SUNPOU
 62
     0
100
AcDbTrace
 10
-1385.986999227235
 20
1502.5
 30
0.0
 11
-1385.153665893901
 21
1502.5
 31
0.0
 12
-1385.570332560568
 22
1500.0
 32
0.0
 13
-1385.570332560568
 23
1500.0
 33
0.0
  0
MTEXT
  5
15C7E
330
15461
100
AcDbEntity
  8
SUNPOU
 62
     0
100
AcDbMText
 10
-1387.945332560568
 20
1529.999999999999
 30
0.0
 40
3.5
 41
0.0
 71
     5
 72
     1
  1
60
 11
0.0000000000000001
 21
1.0
 31
0.0
1001
ACAD
1000
MTEXTBEGIN
1070
    73
1070
     1
1070
    44
1040
1.0
1070
    74
1070
     0
1000
MTEXTEND
  0
POINT
  5
15C7F
330
15461
100
AcDbEntity
  8
DEFPOINTS
 62
     0
100
AcDbPoint
 10
-1398.5
 20
1560.0
 30
0.0
  0
POINT
  5
15C80
330
15461
100
AcDbEntity
  8
DEFPOINTS
 62
     0
100
AcDbPoint
 10
-1391.0
 20
1500.0
 30
0.0
  0
POINT
  5
15C81
330
15461
100
AcDbEntity
  8
DEFPOINTS
 62
     0
100
AcDbPoint
 10
-1385.570332560568
 20
1500.0
 30
0.0
  0
ENDBLK
  5
1546C
330
15461
100
AcDbEntity
  8
0
100
AcDbBlockEnd
  0
BLOCK
  5
15477
330
1546D
100
AcDbEntity
  8
0
100
AcDbBlockBegin
  2
*D1
 70
     1
 10
0.0
 20
0.0
 30
0.0
  3
*D1
  1

  0
LINE
  5
15C70
330
1546D
100
AcDbEntity
  8
SUNPOU
 62
     0
100
AcDbLine
 10
-1398.598582077553
 20
1560.625
 30
0.0
 11
-1398.598582077553
 21
1581.311239774762
 31
0.0
  0
LINE
  5
15C71
330
1546D
100
AcDbEntity
  8
SUNPOU
 62
     0
100
AcDbLine
 10
-1494.499993094057
 20
1560.625
 30
0.0
 11
-1494.499993094057
 21
1581.311239774762
 31
0.0
  0
LINE
  5
15C72
330
1546D
100
AcDbEntity
  8
SUNPOU
 62
     0
100
AcDbLine
 10
-1401.098582077553
 20
1580.061239774762
 30
0.0
 11
-1491.999993094057
 21
1580.061239774762
 31
0.0
  0
SOLID
  5
15C73
330
1546D
100
AcDbEntity
  8
SUNPOU
 62
     0
100
AcDbTrace
 10
-1401.098582077553
 20
1580.477906441429
 30
0.0
 11
-1401.098582077553
 21
1579.644573108096
 31
0.0
 12
-1398.598582077553
 22
1580.061239774762
 32
0.0
 13
-1398.598582077553
 23
1580.061239774762
 33
0.0
  0
SOLID
  5
15C74
330
1546D
100
AcDbEntity
  8
SUNPOU
 62
     0
100
AcDbTrace
 10
-1491.999993094057
 20
1580.477906441429
 30
0.0
 11
-1491.999993094057
 21
1579.644573108096
 31
0.0
 12
-1494.499993094057
 22
1580.061239774762
 32
0.0
 13
-1494.499993094057
 23
1580.061239774762
 33
0.0
  0
MTEXT
  5
15C75
330
1546D
100
AcDbEntity
  8
SUNPOU
 62
     0
100
AcDbMText
 10
-1446.549287585805
 20
1582.436239774762
 30
0.0
 40
3.5
 41
0.0
 71
     5
 72
     1
  1
96
1001
ACAD
1000
MTEXTBEGIN
1070
    73
1070
     1
1070
    44
1040
1.0
1070
    74
1070
     0
1000
MTEXTEND
  0
POINT
  5
15C76
330
1546D
100
AcDbEntity
  8
DEFPOINTS
 62
     0
100
AcDbPoint
 10
-1398.598582077553
 20
1560.000000000001
 30
0.0
  0
POINT
  5
15C77
330
1546D
100
AcDbEntity
  8
DEFPOINTS
 62
     0
100
AcDbPoint
 10
-1494.499993094057
 20
1560.0
 30
0.0
  0
POINT
  5
15C78
330
1546D
100
AcDbEntity
  8
DEFPOINTS
 62
     0
100
AcDbPoint
 10
-1494.499993094057
 20
1580.061239774762
 30
0.0
  0
ENDBLK
  5
15478
330
1546D
100
AcDbEntity
  8
0
100
AcDbBlockEnd
  0
BLOCK
  5
15483
330
15479
100
AcDbEntity
  8
0
100
AcDbBlockBegin
  2
*D2
 70
     1
 10
0.0
 20
0.0
 30
0.0
  3
*D2
  1

  0
LINE
  5
15C82
330
15479
100
AcDbEntity
  8
SUNPOU
 62
     0
100
AcDbLine
 10
-1399.289313367521
 20
1574.0
 30
0.0
 11
-1376.746124815017
 21
1574.0
 31
0.0
  0
LINE
  5
15C83
330
15479
100
AcDbEntity
  8
SUNPOU
 62
     0
100
AcDbLine
 10
-1390.375
 20
1500.0
 30
0.0
 11
-1376.746124815017
 21
1500.0
 31
0.0
  0
LINE
  5
15C84
330
15479
100
AcDbEntity
  8
SUNPOU
 62
     0
100
AcDbLine
 10
-1377.996124815017
 20
1571.5
 30
0.0
 11
-1377.996124815017
 21
1502.5
 31
0.0
  0
SOLID
  5
15C85
330
15479
100
AcDbEntity
  8
SUNPOU
 62
     0
100
AcDbTrace
 10
-1378.412791481684
 20
1571.5
 30
0.0
 11
-1377.57945814835
 21
1571.5
 31
0.0
 12
-1377.996124815017
 22
1574.0
 32
0.0
 13
-1377.996124815017
 23
1574.0
 33
0.0
  0
SOLID
  5
15C86
330
15479
100
AcDbEntity
  8
SUNPOU
 62
     0
100
AcDbTrace
 10
-1378.412791481684
 20
1502.5
 30
0.0
 11
-1377.57945814835
 21
1502.5
 31
0.0
 12
-1377.996124815017
 22
1500.0
 32
0.0
 13
-1377.996124815017
 23
1500.0
 33
0.0
  0
MTEXT
  5
15C87
330
15479
100
AcDbEntity
  8
SUNPOU
 62
     0
100
AcDbMText
 10
-1380.371124815017
 20
1536.999999999999
 30
0.0
 40
3.5
 41
0.0
 71
     5
 72
     1
  1
74
 11
0.0000000000000001
 21
1.0
 31
0.0
1001
ACAD
1000
MTEXTBEGIN
1070
    73
1070
     1
1070
    44
1040
1.0
1070
    74
1070
     0
1000
MTEXTEND
  0
POINT
  5
15C88
330
15479
100
AcDbEntity
  8
DEFPOINTS
 62
     0
100
AcDbPoint
 10
-1399.914313367521
 20
1574.0
 30
0.0
  0
POINT
  5
15C89
330
15479
100
AcDbEntity
  8
DEFPOINTS
 62
     0
100
AcDbPoint
 10
-1391.0
 20
1500.0
 30
0.0
  0
POINT
  5
15C8A
330
15479
100
AcDbEntity
  8
DEFPOINTS
 62
     0
100
AcDbPoint
 10
-1377.996124815017
 20
1500.0
 30
0.0
  0
ENDBLK
  5
15484
330
15479
100
AcDbEntity
  8
0
100
AcDbBlockEnd
  0
BLOCK
  5
1548F
330
15485
100
AcDbEntity
  8
0
100
AcDbBlockBegin
  2
*D3
 70
     1
 10
0.0
 20
0.0
 30
0.0
  3
*D3
  1

  0
LINE
  5
15C2D
330
15485
100
AcDbEntity
  8
SUNPOU
 62
     0
100
AcDbLine
 10
-1396.500013357189
 20
1649.624916936575
 30
0.0
 11
-1396.500013357189
 21
1666.720637893905
 31
0.0
  0
LINE
  5
15C2E
330
15485
100
AcDbEntity
  8
SUNPOU
 62
     0
100
AcDbLine
 10
-1495.499906451246
 20
1651.324916936579
 30
0.0
 11
-1495.499906451246
 21
1666.720637893905
 31
0.0
  0
LINE
  5
15C2F
330
15485
100
AcDbEntity
  8
SUNPOU
 62
     0
100
AcDbLine
 10
-1399.00001335719
 20
1665.470637893905
 30
0.0
 11
-1492.999906451246
 21
1665.470637893905
 31
0.0
  0
SOLID
  5
15C30
330
15485
100
AcDbEntity
  8
SUNPOU
 62
     0
100
AcDbTrace
 10
-1399.00001335719
 20
1665.887304560571
 30
0.0
 11
-1399.00001335719
 21
1665.053971227238
 31
0.0
 12
-1396.500013357189
 22
1665.470637893905
 32
0.0
 13
-1396.500013357189
 23
1665.470637893905
 33
0.0
  0
SOLID
  5
15C31
330
15485
100
AcDbEntity
  8
SUNPOU
 62
     0
100
AcDbTrace
 10
-1492.999906451246
 20
1665.887304560571
 30
0.0
 11
-1492.999906451246
 21
1665.053971227238
 31
0.0
 12
-1495.499906451246
 22
1665.470637893905
 32
0.0
 13
-1495.499906451246
 23
1665.470637893905
 33
0.0
  0
MTEXT
  5
15C32
330
15485
100
AcDbEntity
  8
SUNPOU
 62
     0
100
AcDbMText
 10
-1445.999959904218
 20
1667.845637893905
 30
0.0
 40
3.5
 41
0.0
 71
     5
 72
     1
  1
99
1001
ACAD
1000
MTEXTBEGIN
1070
    73
1070
     1
1070
    44
1040
1.0
1070
    74
1070
     0
1000
MTEXTEND
  0
POINT
  5
15C33
330
15485
100
AcDbEntity
  8
DEFPOINTS
 62
     0
100
AcDbPoint
 10
-1396.500013357189
 20
1648.999916936575
 30
0.0
  0
POINT
  5
15C34
330
15485
100
AcDbEntity
  8
DEFPOINTS
 62
     0
100
AcDbPoint
 10
-1495.499906451246
 20
1650.699916936579
 30
0.0
  0
POINT
  5
15C35
330
15485
100
AcDbEntity
  8
DEFPOINTS
 62
     0
100
AcDbPoint
 10
-1495.499906451246
 20
1665.470637893905
 30
0.0
  0
ENDBLK
  5
15490
330
15485
100
AcDbEntity
  8
0
100
AcDbBlockEnd
  0
BLOCK
  5
1549D
330
15491
100
AcDbEntity
  8
0
100
AcDbBlockBegin
  2
*D4
 70
     1
 10
0.0
 20
0.0
 30
0.0
  3
*D4
  1

  0
LINE
  5
15C51
330
15491
100
AcDbEntity
  8
SUNPOU
 62
     0
100
AcDbLine
 10
-1390.374906451246
 20
1627.749997370904
 30
0.0
 11
-1382.371488775898
 21
1627.749997370904
 31
0.0
  0
LINE
  5
15C52
330
15491
100
AcDbEntity
  8
SUNPOU
 62
     0
100
AcDbLine
 10
-1390.374906451246
 20
1624.249997370904
 30
0.0
 11
-1382.371488775898
 21
1624.249997370904
 31
0.0
  0
LINE
  5
15C53
330
15491
100
AcDbEntity
  8
SUNPOU
 62
     0
100
AcDbLine
 10
-1383.621488775898
 20
1630.249997370904
 30
0.0
 11
-1383.621488775898
 21
1632.749997370904
 31
0.0
  0
LINE
  5
15C54
330
15491
100
AcDbEntity
  8
SUNPOU
 62
     0
100
AcDbLine
 10
-1383.621488775898
 20
1621.749997370904
 30
0.0
 11
-1383.621488775898
 21
1610.999997370904
 31
0.0
  0
LINE
  5
15C55
330
15491
100
AcDbEntity
  8
SUNPOU
 62
     0
100
AcDbLine
 10
-1383.621488775898
 20
1627.749997370904
 30
0.0
 11
-1383.621488775898
 21
1624.249997370904
 31
0.0
  0
SOLID
  5
15C56
330
15491
100
AcDbEntity
  8
SUNPOU
 62
     0
100
AcDbTrace
 10
-1384.038155442564
 20
1630.249997370904
 30
0.0
 11
-1383.204822109231
 21
1630.249997370904
 31
0.0
 12
-1383.621488775898
 22
1627.749997370904
 32
0.0
 13
-1383.621488775898
 23
1627.749997370904
 33
0.0
  0
SOLID
  5
15C57
330
15491
100
AcDbEntity
  8
SUNPOU
 62
     0
100
AcDbTrace
 10
-1384.038155442564
 20
1621.749997370904
 30
0.0
 11
-1383.204822109231
 21
1621.749997370904
 31
0.0
 12
-1383.621488775898
 22
1624.249997370904
 32
0.0
 13
-1383.621488775898
 23
1624.249997370904
 33
0.0
  0
MTEXT
  5
15C58
330
15491
100
AcDbEntity
  8
SUNPOU
 62
     0
100
AcDbMText
 10
-1385.996488775898
 20
1615.124997370904
 30
0.0
 40
3.5
 41
0.0
 71
     5
 72
     1
  1
3.5
 11
0.0000000000000001
 21
1.0
 31
0.0
1001
ACAD
1000
MTEXTBEGIN
1070
    73
1070
     1
1070
    44
1040
1.0
1070
    74
1070
     0
1000
MTEXTEND
  0
POINT
  5
15C59
330
15491
100
AcDbEntity
  8
DEFPOINTS
 62
     0
100
AcDbPoint
 10
-1390.999906451246
 20
1627.749997370904
 30
0.0
  0
POINT
  5
15C5A
330
15491
100
AcDbEntity
  8
DEFPOINTS
 62
     0
100
AcDbPoint
 10
-1390.999906451246
 20
1624.249997370904
 30
0.0
  0
POINT
  5
15C5B
330
15491
100
AcDbEntity
  8
DEFPOINTS
 62
     0
100
AcDbPoint
 10
-1383.621488775898
 20
1624.249997370904
 30
0.0
  0
ENDBLK
  5
1549E
330
15491
100
AcDbEntity
  8
0
100
AcDbBlockEnd
  0
BLOCK
  5
154AB
330
1549F
100
AcDbEntity
  8
0
100
AcDbBlockBegin
  2
*D5
 70
     1
 10
0.0
 20
0.0
 30
0.0
  3
*D5
  1

  0
LINE
  5
15C5C
330
1549F
100
AcDbEntity
  8
SUNPOU
 62
     0
100
AcDbLine
 10
-1395.374906451244
 20
1625.999997370903
 30
0.0
 11
-1375.567572181092
 21
1625.999997370903
 31
0.0
  0
LINE
  5
15C5D
330
1549F
100
AcDbEntity
  8
SUNPOU
 62
     0
100
AcDbLine
 10
-1391.374941190324
 20
1619.999962631825
 30
0.0
 11
-1375.567572181092
 21
1619.999962631825
 31
0.0
  0
LINE
  5
15C5E
330
1549F
100
AcDbEntity
  8
SUNPOU
 62
     0
100
AcDbLine
 10
-1376.817572181092
 20
1628.499997370903
 30
0.0
 11
-1376.817572181092
 21
1630.999997370903
 31
0.0
  0
LINE
  5
15C5F
330
1549F
100
AcDbEntity
  8
SUNPOU
 62
     0
100
AcDbLine
 10
-1376.817572181092
 20
1617.499962631825
 30
0.0
 11
-1376.817572181092
 21
1614.999962631825
 31
0.0
  0
LINE
  5
15C60
330
1549F
100
AcDbEntity
  8
SUNPOU
 62
     0
100
AcDbLine
 10
-1376.817572181092
 20
1625.999997370903
 30
0.0
 11
-1376.817572181092
 21
1619.999962631825
 31
0.0
  0
SOLID
  5
15C61
330
1549F
100
AcDbEntity
  8
SUNPOU
 62
     0
100
AcDbTrace
 10
-1377.234238847759
 20
1628.499997370903
 30
0.0
 11
-1376.400905514425
 21
1628.499997370903
 31
0.0
 12
-1376.817572181092
 22
1625.999997370903
 32
0.0
 13
-1376.817572181092
 23
1625.999997370903
 33
0.0
  0
SOLID
  5
15C62
330
1549F
100
AcDbEntity
  8
SUNPOU
 62
     0
100
AcDbTrace
 10
-1377.234238847759
 20
1617.499962631825
 30
0.0
 11
-1376.400905514425
 21
1617.499962631825
 31
0.0
 12
-1376.817572181092
 22
1619.999962631825
 32
0.0
 13
-1376.817572181092
 23
1619.999962631825
 33
0.0
  0
MTEXT
  5
15C63
330
1549F
100
AcDbEntity
  8
SUNPOU
 62
     0
100
AcDbMText
 10
-1379.192572181093
 20
1622.999980001364
 30
0.0
 40
3.5
 41
0.0
 71
     5
 72
     1
  1
6
 11
0.0000000000000001
 21
1.0
 31
0.0
1001
ACAD
1000
MTEXTBEGIN
1070
    73
1070
     1
1070
    44
1040
1.0
1070
    74
1070
     0
1000
MTEXTEND
  0
POINT
  5
15C64
330
1549F
100
AcDbEntity
  8
DEFPOINTS
 62
     0
100
AcDbPoint
 10
-1395.999906451244
 20
1625.999997370903
 30
0.0
  0
POINT
  5
15C65
330
1549F
100
AcDbEntity
  8
DEFPOINTS
 62
     0
100
AcDbPoint
 10
-1391.999941190324
 20
1619.999962631825
 30
0.0
  0
POINT
  5
15C66
330
1549F
100
AcDbEntity
  8
DEFPOINTS
 62
     0
100
AcDbPoint
 10
-1376.817572181092
 20
1619.999962631825
 30
0.0
  0
ENDBLK
  5
154AC
330
1549F
100
AcDbEntity
  8
0
100
AcDbBlockEnd
  0
BLOCK
  5
154B7
330
154AD
100
AcDbEntity
  8
0
100
AcDbBlockBegin
  2
*D6
 70
     1
 10
0.0
 20
0.0
 30
0.0
  3
*D6
  1

  0
LINE
  5
15C48
330
154AD
100
AcDbEntity
  8
SUNPOU
 62
     0
100
AcDbLine
 10
-1390.999906451246
 20
1620.374997370904
 30
0.0
 11
-1390.999906451246
 21
1597.546256863429
 31
0.0
  0
LINE
  5
15C49
330
154AD
100
AcDbEntity
  8
SUNPOU
 62
     0
100
AcDbLine
 10
-1499.999906451246
 20
1620.374997370904
 30
0.0
 11
-1499.999906451246
 21
1597.546256863429
 31
0.0
  0
LINE
  5
15C4A
330
154AD
100
AcDbEntity
  8
SUNPOU
 62
     0
100
AcDbLine
 10
-1393.499906451246
 20
1598.796256863429
 30
0.0
 11
-1497.499906451246
 21
1598.796256863429
 31
0.0
  0
SOLID
  5
15C4B
330
154AD
100
AcDbEntity
  8
SUNPOU
 62
     0
100
AcDbTrace
 10
-1393.499906451246
 20
1599.212923530096
 30
0.0
 11
-1393.499906451246
 21
1598.379590196762
 31
0.0
 12
-1390.999906451246
 22
1598.796256863429
 32
0.0
 13
-1390.999906451246
 23
1598.796256863429
 33
0.0
  0
SOLID
  5
15C4C
330
154AD
100
AcDbEntity
  8
SUNPOU
 62
     0
100
AcDbTrace
 10
-1497.499906451246
 20
1599.212923530096
 30
0.0
 11
-1497.499906451246
 21
1598.379590196762
 31
0.0
 12
-1499.999906451246
 22
1598.796256863429
 32
0.0
 13
-1499.999906451246
 23
1598.796256863429
 33
0.0
  0
MTEXT
  5
15C4D
330
154AD
100
AcDbEntity
  8
SUNPOU
 62
     0
100
AcDbMText
 10
-1445.499906451246
 20
1601.171256863429
 30
0.0
 40
3.5
 41
0.0
 71
     5
 72
     1
  1
109
1001
ACAD
1000
MTEXTBEGIN
1070
    73
1070
     1
1070
    44
1040
1.0
1070
    74
1070
     0
1000
MTEXTEND
  0
POINT
  5
15C4E
330
154AD
100
AcDbEntity
  8
DEFPOINTS
 62
     0
100
AcDbPoint
 10
-1390.999906451246
 20
1620.999997370904
 30
0.0
  0
POINT
  5
15C4F
330
154AD
100
AcDbEntity
  8
DEFPOINTS
 62
     0
100
AcDbPoint
 10
-1499.999906451246
 20
1620.999997370904
 30
0.0
  0
POINT
  5
15C50
330
154AD
100
AcDbEntity
  8
DEFPOINTS
 62
     0
100
AcDbPoint
 10
-1499.999906451246
 20
1598.796256863429
 30
0.0
  0
ENDBLK
  5
154B8
330
154AD
100
AcDbEntity
  8
0
100
AcDbBlockEnd
  0
BLOCK
  5
154DB
330
154D1
100
AcDbEntity
  8
0
100
AcDbBlockBegin
  2
*D7
 70
     1
 10
0.0
 20
0.0
 30
0.0
  3
*D7
  1

  0
LINE
  5
15D03
330
154D1
100
AcDbEntity
  8
SUNPOU
 62
     0
100
AcDbLine
 10
-1399.285437938511
 20
1656.499916936575
 30
0.0
 11
-1369.676548933827
 21
1656.499916936575
 31
0.0
  0
LINE
  5
15D04
330
154D1
100
AcDbEntity
  8
SUNPOU
 62
     0
100
AcDbLine
 10
-1397.874906451246
 20
1619.999962631825
 30
0.0
 11
-1369.676548933827
 21
1619.999962631825
 31
0.0
  0
LINE
  5
15D05
330
154D1
100
AcDbEntity
  8
SUNPOU
 62
     0
100
AcDbLine
 10
-1370.926548933827
 20
1653.999916936575
 30
0.0
 11
-1370.926548933827
 21
1622.499962631825
 31
0.0
  0
SOLID
  5
15D06
330
154D1
100
AcDbEntity
  8
SUNPOU
 62
     0
100
AcDbTrace
 10
-1371.343215600494
 20
1653.999916936575
 30
0.0
 11
-1370.50988226716
 21
1653.999916936575
 31
0.0
 12
-1370.926548933827
 22
1656.499916936575
 32
0.0
 13
-1370.926548933827
 23
1656.499916936575
 33
0.0
  0
SOLID
  5
15D07
330
154D1
100
AcDbEntity
  8
SUNPOU
 62
     0
100
AcDbTrace
 10
-1371.343215600494
 20
1622.499962631825
 30
0.0
 11
-1370.50988226716
 21
1622.499962631825
 31
0.0
 12
-1370.926548933827
 22
1619.999962631825
 32
0.0
 13
-1370.926548933827
 23
1619.999962631825
 33
0.0
  0
MTEXT
  5
15D08
330
154D1
100
AcDbEntity
  8
SUNPOU
 62
     0
100
AcDbMText
 10
-1373.301548933827
 20
1638.2499397842
 30
0.0
 40
3.5
 41
0.0
 71
     5
 72
     1
  1
36.5
 11
0.0000000000000001
 21
1.0
 31
0.0
1001
ACAD
1000
MTEXTBEGIN
1070
    73
1070
     1
1070
    44
1040
1.0
1070
    74
1070
     0
1000
MTEXTEND
  0
POINT
  5
15D09
330
154D1
100
AcDbEntity
  8
DEFPOINTS
 62
     0
100
AcDbPoint
 10
-1399.910437938511
 20
1656.499916936575
 30
0.0
  0
POINT
  5
15D0A
330
154D1
100
AcDbEntity
  8
DEFPOINTS
 62
     0
100
AcDbPoint
 10
-1398.499906451246
 20
1619.999962631825
 30
0.0
  0
POINT
  5
15D0B
330
154D1
100
AcDbEntity
  8
DEFPOINTS
 62
     0
100
AcDbPoint
 10
-1370.926548933827
 20
1619.999962631825
 30
0.0
  0
ENDBLK
  5
154DC
330
154D1
100
AcDbEntity
  8
0
100
AcDbBlockEnd
  0
BLOCK
  5
15B99
330
15B8F
100
AcDbEntity
  8
0
100
AcDbBlockBegin
  2
*D8
 70
     1
 10
0.0
 20
0.0
 30
0.0
  3
*D8
  1

  0
LINE
  5
15C3F
330
15B8F
100
AcDbEntity
  8
SUNPOU
 62
     0
100
AcDbLine
 10
-1395.499906451246
 20
1622.312168219809
 30
0.0
 11
-1395.499906451246
 21
1606.726125304341
 31
0.0
  0
LINE
  5
15C40
330
15B8F
100
AcDbEntity
  8
SUNPOU
 62
     0
100
AcDbLine
 10
-1496.497910076596
 20
1620.523370328918
 30
0.0
 11
-1496.497910076596
 21
1606.726125304341
 31
0.0
  0
LINE
  5
15C41
330
15B8F
100
AcDbEntity
  8
SUNPOU
 62
     0
100
AcDbLine
 10
-1397.999906451246
 20
1607.976125304341
 30
0.0
 11
-1493.997910076596
 21
1607.976125304341
 31
0.0
  0
SOLID
  5
15C42
330
15B8F
100
AcDbEntity
  8
SUNPOU
 62
     0
100
AcDbTrace
 10
-1397.999906451246
 20
1608.392791971008
 30
0.0
 11
-1397.999906451246
 21
1607.559458637674
 31
0.0
 12
-1395.499906451246
 22
1607.976125304341
 32
0.0
 13
-1395.499906451246
 23
1607.976125304341
 33
0.0
  0
SOLID
  5
15C43
330
15B8F
100
AcDbEntity
  8
SUNPOU
 62
     0
100
AcDbTrace
 10
-1493.997910076596
 20
1608.392791971008
 30
0.0
 11
-1493.997910076596
 21
1607.559458637674
 31
0.0
 12
-1496.497910076596
 22
1607.976125304341
 32
0.0
 13
-1496.497910076596
 23
1607.976125304341
 33
0.0
  0
MTEXT
  5
15C44
330
15B8F
100
AcDbEntity
  8
SUNPOU
 62
     0
100
AcDbMText
 10
-1445.998908263921
 20
1610.351125304341
 30
0.0
 40
3.5
 41
0.0
 71
     5
 72
     1
  1
101
1001
ACAD
1000
MTEXTBEGIN
1070
    73
1070
     1
1070
    44
1040
1.0
1070
    74
1070
     0
1000
MTEXTEND
  0
POINT
  5
15C45
330
15B8F
100
AcDbEntity
  8
DEFPOINTS
 62
     0
100
AcDbPoint
 10
-1395.499906451246
 20
1622.937168219809
 30
0.0
  0
POINT
  5
15C46
330
15B8F
100
AcDbEntity
  8
DEFPOINTS
 62
     0
100
AcDbPoint
 10
-1496.497910076596
 20
1621.148370328918
 30
0.0
  0
POINT
  5
15C47
330
15B8F
100
AcDbEntity
  8
DEFPOINTS
 62
     0
100
AcDbPoint
 10
-1496.497910076596
 20
1607.976125304341
 30
0.0
  0
ENDBLK
  5
15B9A
330
15B8F
100
AcDbEntity
  8
0
100
AcDbBlockEnd
  0
BLOCK
  5
15BCD
330
15BC3
100
AcDbEntity
  8
0
100
AcDbBlockBegin
  2
*D9
 70
     1
 10
0.0
 20
0.0
 30
0.0
  3
*D9
  1

  0
LINE
  5
15C67
330
15BC3
100
AcDbEntity
  8
SUNPOU
 62
     0
100
AcDbLine
 10
-1366.900000000001
 20
1564.575
 30
0.0
 11
-1366.900000000001
 21
1580.735254350361
 31
0.0
  0
LINE
  5
15C68
330
15BC3
100
AcDbEntity
  8
SUNPOU
 62
     0
100
AcDbLine
 10
-1328.4
 20
1574.625
 30
0.0
 11
-1328.4
 21
1580.735254350361
 31
0.0
  0
LINE
  5
15C69
330
15BC3
100
AcDbEntity
  8
SUNPOU
 62
     0
100
AcDbLine
 10
-1364.400000000001
 20
1579.485254350361
 30
0.0
 11
-1330.9
 21
1579.485254350361
 31
0.0
  0
SOLID
  5
15C6A
330
15BC3
100
AcDbEntity
  8
SUNPOU
 62
     0
100
AcDbTrace
 10
-1364.400000000001
 20
1579.901921017027
 30
0.0
 11
-1364.400000000001
 21
1579.068587683694
 31
0.0
 12
-1366.900000000001
 22
1579.485254350361
 32
0.0
 13
-1366.900000000001
 23
1579.485254350361
 33
0.0
  0
SOLID
  5
15C6B
330
15BC3
100
AcDbEntity
  8
SUNPOU
 62
     0
100
AcDbTrace
 10
-1330.9
 20
1579.901921017027
 30
0.0
 11
-1330.9
 21
1579.068587683694
 31
0.0
 12
-1328.4
 22
1579.485254350361
 32
0.0
 13
-1328.4
 23
1579.485254350361
 33
0.0
  0
MTEXT
  5
15C6C
330
15BC3
100
AcDbEntity
  8
SUNPOU
 62
     0
100
AcDbMText
 10
-1347.65
 20
1581.860254350361
 30
0.0
 40
3.5
 41
0.0
 71
     5
 72
     1
  1
38.5
1001
ACAD
1000
MTEXTBEGIN
1070
    73
1070
     1
1070
    44
1040
1.0
1070
    74
1070
     0
1000
MTEXTEND
  0
POINT
  5
15C6D
330
15BC3
100
AcDbEntity
  8
DEFPOINTS
 62
     0
100
AcDbPoint
 10
-1366.900000000001
 20
1563.95
 30
0.0
  0
POINT
  5
15C6E
330
15BC3
100
AcDbEntity
  8
DEFPOINTS
 62
     0
100
AcDbPoint
 10
-1328.4
 20
1574.0
 30
0.0
  0
POINT
  5
15C6F
330
15BC3
100
AcDbEntity
  8
DEFPOINTS
 62
     0
100
AcDbPoint
 10
-1328.4
 20
1579.485254350361
 30
0.0
  0
ENDBLK
  5
15BCE
330
15BC3
100
AcDbEntity
  8
0
100
AcDbBlockEnd
  0
ENDSEC
  0
SECTION
  2
ENTITIES
  0
MTEXT
  5
5084
330
1A
100
AcDbEntity
  8
0
100
AcDbMText
 10
1985.239088685435
 20
-948.5420423450428
 30
0.0
 40
8.0
 41
0.0
 71
     7
 72
     5
  1

1001
ACAD
1000
MTEXTBEGIN
1070
    73
1070
     1
1070
    44
1040
1.0
1070
    74
1070
     0
1000
MTEXTEND
  0
MTEXT
  5
5085
330
1A
100
AcDbEntity
  8
0
100
AcDbMText
 10
4270.596778580329
 20
22.24825240601649
 30
0.0
 40
8.0
 41
0.0
 71
     7
 72
     5
  1

1001
ACAD
1000
MTEXTBEGIN
1070
    73
1070
     1
1070
    44
1040
1.0
1070
    74
1070
     0
1000
MTEXTEND
  0
MTEXT
  5
5343
330
1A
100
AcDbEntity
  8
SUNPOU
100
AcDbMText
 10
6936.493799262471
 20
9534.359644781135
 30
0.0
 40
10.5
 41
0.0
 71
     1
 72
     5
  1

1001
ACAD
1000
MTEXTBEGIN
1070
    73
1070
     1
1070
    44
1040
1.0
1070
    74
1070
     0
1000
MTEXTEND
  0
MTEXT
  5
544F
330
1A
100
AcDbEntity
  8
0
100
AcDbMText
 10
16317.2832773148
 20
12833.35428897674
 30
0.0
 40
8.0
 41
0.0
 71
     7
 72
     5
  1

1001
ACAD
1000
MTEXTBEGIN
1070
    73
1070
     1
1070
    44
1040
1.0
1070
    74
1070
     0
1000
MTEXTEND
  0
MTEXT
  5
5450
330
1A
100
AcDbEntity
  8
0
100
AcDbMText
 10
18602.64096720969
 20
13804.1445837278
 30
0.0
 40
8.0
 41
0.0
 71
     7
 72
     5
  1

1001
ACAD
1000
MTEXTBEGIN
1070
    73
1070
     1
1070
    44
1040
1.0
1070
    74
1070
     0
1000
MTEXTEND
  0
MTEXT
  5
5451
330
1A
100
AcDbEntity
  8
SUNPOU
100
AcDbMText
 10
21268.53798789184
 20
23316.25597610292
 30
0.0
 40
10.5
 41
0.0
 71
     1
 72
     5
  1

1001
ACAD
1000
MTEXTBEGIN
1070
    73
1070
     1
1070
    44
1040
1.0
1070
    74
1070
     0
1000
MTEXTEND
  0
MTEXT
  5
5452
330
1A
100
AcDbEntity
  8
SUNPOU
100
AcDbMText
 10
13337.6147919559
 20
22369.46284218996
 30
0.0
 40
10.5
 41
0.0
 71
     7
 72
     5
  1

1001
ACAD
1000
MTEXTBEGIN
1070
    73
1070
     1
1070
    44
1040
1.0
1070
    74
1070
     0
1000
MTEXTEND
  0
MTEXT
  5
5453
330
1A
100
AcDbEntity
  8
SUNPOU
100
AcDbMText
 10
16286.59845646867
 20
27270.13891403281
 30
0.0
 40
10.5
 41
0.0
 71
     7
 72
     5
  1

1001
ACAD
1000
MTEXTBEGIN
1070
    73
1070
     1
1070
    44
1040
1.0
1070
    74
1070
     0
1000
MTEXTEND
  0
MTEXT
  5
5454
330
1A
100
AcDbEntity
  8
SUNPOU
100
AcDbMText
 10
20795.67658441924
 20
29706.43966165288
 30
0.0
 40
10.5
 41
0.0
 71
     7
 72
     5
  1

1001
ACAD
1000
MTEXTBEGIN
1070
    73
1070
     1
1070
    44
1040
1.0
1070
    74
1070
     0
1000
MTEXTEND
  0
MTEXT
  5
5455
330
1A
100
AcDbEntity
  8
0
100
AcDbMText
 10
16611.93789220314
 20
14707.52144344448
 30
0.0
 40
8.0
 41
0.0
 71
     7
 72
     5
  1

1001
ACAD
1000
MTEXTBEGIN
1070
    73
1070
     1
1070
    44
1040
1.0
1070
    74
1070
     0
1000
MTEXTEND
  0
MTEXT
  5
5456
330
1A
100
AcDbEntity
  8
0
100
AcDbMText
 10
18897.29558209804
 20
15678.31173819554
 30
0.0
 40
8.0
 41
0.0
 71
     7
 72
     5
  1

1001
ACAD
1000
MTEXTBEGIN
1070
    73
1070
     1
1070
    44
1040
1.0
1070
    74
1070
     0
1000
MTEXTEND
  0
MTEXT
  5
5457
330
1A
100
AcDbEntity
  8
SUNPOU
100
AcDbMText
 10
21563.19260278019
 20
25190.42313057066
 30
0.0
 40
10.5
 41
0.0
 71
     1
 72
     5
  1

1001
ACAD
1000
MTEXTBEGIN
1070
    73
1070
     1
1070
    44
1040
1.0
1070
    74
1070
     0
1000
MTEXTEND
  0
MTEXT
  5
5458
330
1A
100
AcDbEntity
  8
SUNPOU
100
AcDbMText
 10
13632.26940684426
 20
24243.6299966577
 30
0.0
 40
10.5
 41
0.0
 71
     7
 72
     5
  1

1001
ACAD
1000
MTEXTBEGIN
1070
    73
1070
     1
1070
    44
1040
1.0
1070
    74
1070
     0
1000
MTEXTEND
  0
MTEXT
  5
5459
330
1A
100
AcDbEntity
  8
SUNPOU
100
AcDbMText
 10
16581.25307135702
 20
29144.30606850055
 30
0.0
 40
10.5
 41
0.0
 71
     7
 72
     5
  1

1001
ACAD
1000
MTEXTBEGIN
1070
    73
1070
     1
1070
    44
1040
1.0
1070
    74
1070
     0
1000
MTEXTEND
  0
MTEXT
  5
545A
330
1A
100
AcDbEntity
  8
SUNPOU
100
AcDbMText
 10
21090.33119930759
 20
31580.60681612062
 30
0.0
 40
10.5
 41
0.0
 71
     7
 72
     5
  1

1001
ACAD
1000
MTEXTBEGIN
1070
    73
1070
     1
1070
    44
1040
1.0
1070
    74
1070
     0
1000
MTEXTEND
  0
MTEXT
  5
545B
330
1A
100
AcDbEntity
  8
0
100
AcDbMText
 10
22871.60517627167
 20
23974.88367124799
 30
0.0
 40
8.0
 41
0.0
 71
     7
 72
     5
  1

1001
ACAD
1000
MTEXTBEGIN
1070
    73
1070
     1
1070
    44
1040
1.0
1070
    74
1070
     0
1000
MTEXTEND
  0
MTEXT
  5
545C
330
1A
100
AcDbEntity
  8
0
100
AcDbMText
 10
25156.96286616657
 20
24945.67396599906
 30
0.0
 40
8.0
 41
0.0
 71
     7
 72
     5
  1

1001
ACAD
1000
MTEXTBEGIN
1070
    73
1070
     1
1070
    44
1040
1.0
1070
    74
1070
     0
1000
MTEXTEND
  0
MTEXT
  5
545D
330
1A
100
AcDbEntity
  8
SUNPOU
100
AcDbMText
 10
27822.85988684871
 20
34457.78535837418
 30
0.0
 40
10.5
 41
0.0
 71
     1
 72
     5
  1

1001
ACAD
1000
MTEXTBEGIN
1070
    73
1070
     1
1070
    44
1040
1.0
1070
    74
1070
     0
1000
MTEXTEND
  0
MTEXT
  5
545E
330
1A
100
AcDbEntity
  8
SUNPOU
100
AcDbMText
 10
19891.93669091278
 20
33510.99222446122
 30
0.0
 40
10.5
 41
0.0
 71
     7
 72
     5
  1

1001
ACAD
1000
MTEXTBEGIN
1070
    73
1070
     1
1070
    44
1040
1.0
1070
    74
1070
     0
1000
MTEXTEND
  0
MTEXT
  5
545F
330
1A
100
AcDbEntity
  8
SUNPOU
100
AcDbMText
 10
22840.92035542555
 20
38411.66829630407
 30
0.0
 40
10.5
 41
0.0
 71
     7
 72
     5
  1

1001
ACAD
1000
MTEXTBEGIN
1070
    73
1070
     1
1070
    44
1040
1.0
1070
    74
1070
     0
1000
MTEXTEND
  0
MTEXT
  5
5460
330
1A
100
AcDbEntity
  8
SUNPOU
100
AcDbMText
 10
27349.99848337611
 20
40847.96904392415
 30
0.0
 40
10.5
 41
0.0
 71
     7
 72
     5
  1

1001
ACAD
1000
MTEXTBEGIN
1070
    73
1070
     1
1070
    44
1040
1.0
1070
    74
1070
     0
1000
MTEXTEND
  0
MTEXT
  5
55B7
330
1A
100
AcDbEntity
  8
SUNPOU
100
AcDbMText
 10
67424.23923338197
 20
64463.86602884816
 30
0.0
 40
10.5
 41
0.0
 71
     9
 72
     5
  1

1001
ACAD
1000
MTEXTBEGIN
1070
    73
1070
     1
1070
    44
1040
1.0
1070
    74
1070
     0
1000
MTEXTEND
  0
MTEXT
  5
55B8
330
1A
100
AcDbEntity
  8
SUNPOU
100
AcDbMText
 10
76146.40679929998
 20
71879.70056038563
 30
0.0
 40
10.5
 41
0.0
 71
     9
 72
     5
  1

1001
ACAD
1000
MTEXTBEGIN
1070
    73
1070
     1
1070
    44
1040
1.0
1070
    74
1070
     0
1000
MTEXTEND
  0
MTEXT
  5
55B9
330
1A
100
AcDbEntity
  8
SUNPOU
100
AcDbMText
 10
95100.16551662994
 20
89346.27661287766
 30
0.0
 40
10.5
 41
0.0
 71
     9
 72
     5
  1

1001
ACAD
1000
MTEXTBEGIN
1070
    73
1070
     1
1070
    44
1040
1.0
1070
    74
1070
     0
1000
MTEXTEND
  0
MTEXT
  5
55BA
330
1A
100
AcDbEntity
  8
SUNPOU
100
AcDbMText
 10
97043.57276333936
 20
87545.22753299966
 30
0.0
 40
3.5
 41
0.0
 71
     9
 72
     5
  1

1001
ACAD
1000
MTEXTBEGIN
1070
    73
1070
     1
1070
    44
1040
1.0
1070
    74
1070
     0
1000
MTEXTEND
  0
MTEXT
  5
55BB
330
1A
100
AcDbEntity
  8
SUNPOU
100
AcDbMText
 10
128169.752595959
 20
130040.1732006569
 30
0.0
 40
10.5
 41
0.0
 71
     9
 72
     5
  1

1001
ACAD
1000
MTEXTBEGIN
1070
    73
1070
     1
1070
    44
1040
1.0
1070
    74
1070
     0
1000
MTEXTEND
  0
MTEXT
  5
55BC
330
1A
100
AcDbEntity
  8
SUNPOU
100
AcDbMText
 10
130113.1598426684
 20
128239.1241207789
 30
0.0
 40
3.5
 41
0.0
 71
     9
 72
     5
  1

1001
ACAD
1000
MTEXTBEGIN
1070
    73
1070
     1
1070
    44
1040
1.0
1070
    74
1070
     0
1000
MTEXTEND
  0
MTEXT
  5
55BD
330
1A
100
AcDbEntity
  8
SUNPOU
100
AcDbMText
 10
78610.02030175463
 20
75873.33835563206
 30
0.0
 40
10.5
 41
0.0
 71
     9
 72
     5
  1

1001
ACAD
1000
MTEXTBEGIN
1070
    73
1070
     1
1070
    44
1040
1.0
1070
    74
1070
     0
1000
MTEXTEND
  0
MTEXT
  5
55BE
330
1A
100
AcDbEntity
  8
SUNPOU
100
AcDbMText
 10
64662.02020137863
 20
56700.93921651987
 30
0.0
 40
3.5
 41
0.0
 71
     7
 72
     5
  1

1001
ACAD
1000
MTEXTBEGIN
1070
    73
1070
     1
1070
    44
1040
1.0
1070
    74
1070
     0
1000
MTEXTEND
  0
MTEXT
  5
55BF
330
1A
100
AcDbEntity
  8
SUNPOU
100
AcDbMText
 10
45647.18959837178
 20
44463.08794733807
 30
0.0
 40
10.5
 41
0.0
 71
     7
 72
     5
  1

1001
ACAD
1000
MTEXTBEGIN
1070
    73
1070
     1
1070
    44
1040
1.0
1070
    74
1070
     0
1000
MTEXTEND
  0
MTEXT
  5
55C0
330
1A
100
AcDbEntity
  8
SUNPOU
100
AcDbMText
 10
33189.96133342368
 20
28618.15636923965
 30
0.0
 40
35.0
 41
0.0
 71
     9
 72
     5
  1

1001
ACAD
1000
MTEXTBEGIN
1070
    73
1070
     1
1070
    44
1040
1.0
1070
    74
1070
     0
1000
MTEXTEND
  0
MTEXT
  5
55C1
330
1A
100
AcDbEntity
  8
SUNPOU
100
AcDbMText
 10
32098.44639099864
 20
29226.93177928835
 30
0.0
 40
350.0000004171781
 41
0.0
 71
     7
 72
     5
  1

1001
ACAD
1000
MTEXTBEGIN
1070
    73
1070
     1
1070
    44
1040
1.0
1070
    74
1070
     0
1000
MTEXTEND
  0
MTEXT
  5
55C2
330
1A
100
AcDbEntity
  8
0
100
AcDbMText
 10
38142.39714894154
 20
27206.85414142458
 30
0.0
 40
8.0
 41
0.0
 71
     7
 72
     5
  1

1001
ACAD
1000
MTEXTBEGIN
1070
    73
1070
     1
1070
    44
1040
1.0
1070
    74
1070
     0
1000
MTEXTEND
  0
MTEXT
  5
55C3
330
1A
100
AcDbEntity
  8
0
100
AcDbMText
 10
40427.75483883644
 20
28177.64443617564
 30
0.0
 40
8.0
 41
0.0
 71
     7
 72
     5
  1

1001
ACAD
1000
MTEXTBEGIN
1070
    73
1070
     1
1070
    44
1040
1.0
1070
    74
1070
     0
1000
MTEXTEND
  0
MTEXT
  5
55C4
330
1A
100
AcDbEntity
  8
SUNPOU
100
AcDbMText
 10
43093.65185951858
 20
37689.75582855077
 30
0.0
 40
10.5
 41
0.0
 71
     1
 72
     5
  1

1001
ACAD
1000
MTEXTBEGIN
1070
    73
1070
     1
1070
    44
1040
1.0
1070
    74
1070
     0
1000
MTEXTEND
  0
MTEXT
  5
55C5
330
1A
100
AcDbEntity
  8
SUNPOU
100
AcDbMText
 10
35162.72866358265
 20
36742.96269463781
 30
0.0
 40
10.5
 41
0.0
 71
     7
 72
     5
  1

1001
ACAD
1000
MTEXTBEGIN
1070
    73
1070
     1
1070
    44
1040
1.0
1070
    74
1070
     0
1000
MTEXTEND
  0
MTEXT
  5
55C6
330
1A
100
AcDbEntity
  8
SUNPOU
100
AcDbMText
 10
38111.71232809542
 20
41643.63876648066
 30
0.0
 40
10.5
 41
0.0
 71
     7
 72
     5
  1

1001
ACAD
1000
MTEXTBEGIN
1070
    73
1070
     1
1070
    44
1040
1.0
1070
    74
1070
     0
1000
MTEXTEND
  0
MTEXT
  5
55C7
330
1A
100
AcDbEntity
  8
SUNPOU
100
AcDbMText
 10
42620.79045604597
 20
44079.93951410074
 30
0.0
 40
10.5
 41
0.0
 71
     7
 72
     5
  1

1001
ACAD
1000
MTEXTBEGIN
1070
    73
1070
     1
1070
    44
1040
1.0
1070
    74
1070
     0
1000
MTEXTEND
  0
MTEXT
  5
55C8
330
1A
100
AcDbEntity
  8
SUNPOU
100
AcDbMText
 10
26221.62834281429
 20
23077.53566448964
 30
0.0
 40
10.5
 41
0.0
 71
     7
 72
     5
  1

1001
ACAD
1000
MTEXTBEGIN
1070
    73
1070
     1
1070
    44
1040
1.0
1070
    74
1070
     0
1000
MTEXTEND
  0
MTEXT
  5
55C9
330
1A
100
AcDbEntity
  8
SUNPOU
100
AcDbMText
 10
77413.14677671455
 20
68750.51622813789
 30
0.0
 40
10.5
 41
0.0
 71
     9
 72
     5
  1

1001
ACAD
1000
MTEXTBEGIN
1070
    73
1070
     1
1070
    44
1040
1.0
1070
    74
1070
     0
1000
MTEXTEND
  0
MTEXT
  5
55CA
330
1A
100
AcDbEntity
  8
SUNPOU
100
AcDbMText
 10
86135.31434263256
 20
76166.35075967536
 30
0.0
 40
10.5
 41
0.0
 71
     9
 72
     5
  1

1001
ACAD
1000
MTEXTBEGIN
1070
    73
1070
     1
1070
    44
1040
1.0
1070
    74
1070
     0
1000
MTEXTEND
  0
MTEXT
  5
55CB
330
1A
100
AcDbEntity
  8
SUNPOU
100
AcDbMText
 10
105089.0730599625
 20
93632.92681216739
 30
0.0
 40
10.5
 41
0.0
 71
     9
 72
     5
  1

1001
ACAD
1000
MTEXTBEGIN
1070
    73
1070
     1
1070
    44
1040
1.0
1070
    74
1070
     0
1000
MTEXTEND
  0
MTEXT
  5
55CC
330
1A
100
AcDbEntity
  8
SUNPOU
100
AcDbMText
 10
107032.4803066719
 20
91831.8777322894
 30
0.0
 40
3.5
 41
0.0
 71
     9
 72
     5
  1

1001
ACAD
1000
MTEXTBEGIN
1070
    73
1070
     1
1070
    44
1040
1.0
1070
    74
1070
     0
1000
MTEXTEND
  0
MTEXT
  5
55CD
330
1A
100
AcDbEntity
  8
SUNPOU
100
AcDbMText
 10
138158.6601392916
 20
134326.8233999467
 30
0.0
 40
10.5
 41
0.0
 71
     9
 72
     5
  1

1001
ACAD
1000
MTEXTBEGIN
1070
    73
1070
     1
1070
    44
1040
1.0
1070
    74
1070
     0
1000
MTEXTEND
  0
MTEXT
  5
55CE
330
1A
100
AcDbEntity
  8
SUNPOU
100
AcDbMText
 10
140102.067386001
 20
132525.7743200686
 30
0.0
 40
3.5
 41
0.0
 71
     9
 72
     5
  1

1001
ACAD
1000
MTEXTBEGIN
1070
    73
1070
     1
1070
    44
1040
1.0
1070
    74
1070
     0
1000
MTEXTEND
  0
MTEXT
  5
55CF
330
1A
100
AcDbEntity
  8
SUNPOU
100
AcDbMText
 10
88598.92784508721
 20
80159.98855492179
 30
0.0
 40
10.5
 41
0.0
 71
     9
 72
     5
  1

1001
ACAD
1000
MTEXTBEGIN
1070
    73
1070
     1
1070
    44
1040
1.0
1070
    74
1070
     0
1000
MTEXTEND
  0
MTEXT
  5
55D0
330
1A
100
AcDbEntity
  8
SUNPOU
100
AcDbMText
 10
74650.92774471121
 20
60987.5894158096
 30
0.0
 40
3.5
 41
0.0
 71
     7
 72
     5
  1

1001
ACAD
1000
MTEXTBEGIN
1070
    73
1070
     1
1070
    44
1040
1.0
1070
    74
1070
     0
1000
MTEXTEND
  0
MTEXT
  5
55D1
330
1A
100
AcDbEntity
  8
SUNPOU
100
AcDbMText
 10
55636.09714170436
 20
48749.73814662781
 30
0.0
 40
10.5
 41
0.0
 71
     7
 72
     5
  1

1001
ACAD
1000
MTEXTBEGIN
1070
    73
1070
     1
1070
    44
1040
1.0
1070
    74
1070
     0
1000
MTEXTEND
  0
MTEXT
  5
55D2
330
1A
100
AcDbEntity
  8
SUNPOU
100
AcDbMText
 10
43178.86887675626
 20
32904.80656852938
 30
0.0
 40
35.0
 41
0.0
 71
     9
 72
     5
  1

1001
ACAD
1000
MTEXTBEGIN
1070
    73
1070
     1
1070
    44
1040
1.0
1070
    74
1070
     0
1000
MTEXTEND
  0
MTEXT
  5
55D3
330
1A
100
AcDbEntity
  8
SUNPOU
100
AcDbMText
 10
42087.35393433121
 20
33513.58197857809
 30
0.0
 40
350.0000004171781
 41
0.0
 71
     7
 72
     5
  1

1001
ACAD
1000
MTEXTBEGIN
1070
    73
1070
     1
1070
    44
1040
1.0
1070
    74
1070
     0
1000
MTEXTEND
  0
MTEXT
  5
55D4
330
1A
100
AcDbEntity
  8
0
100
AcDbMText
 10
48131.30469227412
 20
31493.50434071431
 30
0.0
 40
8.0
 41
0.0
 71
     7
 72
     5
  1

1001
ACAD
1000
MTEXTBEGIN
1070
    73
1070
     1
1070
    44
1040
1.0
1070
    74
1070
     0
1000
MTEXTEND
  0
MTEXT
  5
55D5
330
1A
100
AcDbEntity
  8
0
100
AcDbMText
 10
50416.66238216901
 20
32464.29463546537
 30
0.0
 40
8.0
 41
0.0
 71
     7
 72
     5
  1

1001
ACAD
1000
MTEXTBEGIN
1070
    73
1070
     1
1070
    44
1040
1.0
1070
    74
1070
     0
1000
MTEXTEND
  0
MTEXT
  5
55D6
330
1A
100
AcDbEntity
  8
SUNPOU
100
AcDbMText
 10
53082.55940285115
 20
41976.4060278405
 30
0.0
 40
10.5
 41
0.0
 71
     1
 72
     5
  1

1001
ACAD
1000
MTEXTBEGIN
1070
    73
1070
     1
1070
    44
1040
1.0
1070
    74
1070
     0
1000
MTEXTEND
  0
MTEXT
  5
55D7
330
1A
100
AcDbEntity
  8
SUNPOU
100
AcDbMText
 10
45151.63620691522
 20
41029.61289392755
 30
0.0
 40
10.5
 41
0.0
 71
     7
 72
     5
  1

1001
ACAD
1000
MTEXTBEGIN
1070
    73
1070
     1
1070
    44
1040
1.0
1070
    74
1070
     0
1000
MTEXTEND
  0
MTEXT
  5
55D8
330
1A
100
AcDbEntity
  8
SUNPOU
100
AcDbMText
 10
48100.61987142798
 20
45930.28896577039
 30
0.0
 40
10.5
 41
0.0
 71
     7
 72
     5
  1

1001
ACAD
1000
MTEXTBEGIN
1070
    73
1070
     1
1070
    44
1040
1.0
1070
    74
1070
     0
1000
MTEXTEND
  0
MTEXT
  5
55D9
330
1A
100
AcDbEntity
  8
SUNPOU
100
AcDbMText
 10
52609.69799937854
 20
48366.58971339046
 30
0.0
 40
10.5
 41
0.0
 71
     7
 72
     5
  1

1001
ACAD
1000
MTEXTBEGIN
1070
    73
1070
     1
1070
    44
1040
1.0
1070
    74
1070
     0
1000
MTEXTEND
  0
MTEXT
  5
55DA
330
1A
100
AcDbEntity
  8
SUNPOU
100
AcDbMText
 10
36210.53588614687
 20
27364.18586377937
 30
0.0
 40
10.5
 41
0.0
 71
     7
 72
     5
  1

1001
ACAD
1000
MTEXTBEGIN
1070
    73
1070
     1
1070
    44
1040
1.0
1070
    74
1070
     0
1000
MTEXTEND
  0
MTEXT
  5
55DB
330
1A
100
AcDbEntity
  8
SUNPOU
100
AcDbMText
 10
38021.29879752181
 20
33691.59985125794
 30
0.0
 40
10.5
 41
0.0
 71
     9
 72
     5
  1

1001
ACAD
1000
MTEXTBEGIN
1070
    73
1070
     1
1070
    44
1040
1.0
1070
    74
1070
     0
1000
MTEXTEND
  0
MTEXT
  5
55DC
330
1A
100
AcDbEntity
  8
SUNPOU
100
AcDbMText
 10
46743.46636343979
 20
41107.43438279541
 30
0.0
 40
10.5
 41
0.0
 71
     9
 72
     5
  1

1001
ACAD
1000
MTEXTBEGIN
1070
    73
1070
     1
1070
    44
1040
1.0
1070
    74
1070
     0
1000
MTEXTEND
  0
MTEXT
  5
55DD
330
1A
100
AcDbEntity
  8
SUNPOU
100
AcDbMText
 10
65697.22508076975
 20
58574.01043528746
 30
0.0
 40
10.5
 41
0.0
 71
     9
 72
     5
  1

1001
ACAD
1000
MTEXTBEGIN
1070
    73
1070
     1
1070
    44
1040
1.0
1070
    74
1070
     0
1000
MTEXTEND
  0
MTEXT
  5
55DE
330
1A
100
AcDbEntity
  8
SUNPOU
100
AcDbMText
 10
67640.63232747917
 20
56772.96135540945
 30
0.0
 40
3.5
 41
0.0
 71
     9
 72
     5
  1

1001
ACAD
1000
MTEXTBEGIN
1070
    73
1070
     1
1070
    44
1040
1.0
1070
    74
1070
     0
1000
MTEXTEND
  0
MTEXT
  5
55DF
330
1A
100
AcDbEntity
  8
SUNPOU
100
AcDbMText
 10
98766.81216009888
 20
99267.9070230668
 30
0.0
 40
10.5
 41
0.0
 71
     9
 72
     5
  1

1001
ACAD
1000
MTEXTBEGIN
1070
    73
1070
     1
1070
    44
1040
1.0
1070
    74
1070
     0
1000
MTEXTEND
  0
MTEXT
  5
55E0
330
1A
100
AcDbEntity
  8
SUNPOU
100
AcDbMText
 10
100710.2194068083
 20
97466.85794318878
 30
0.0
 40
3.5
 41
0.0
 71
     9
 72
     5
  1

1001
ACAD
1000
MTEXTBEGIN
1070
    73
1070
     1
1070
    44
1040
1.0
1070
    74
1070
     0
1000
MTEXTEND
  0
MTEXT
  5
55E1
330
1A
100
AcDbEntity
  8
SUNPOU
100
AcDbMText
 10
49207.07986589444
 20
45101.07217804185
 30
0.0
 40
10.5
 41
0.0
 71
     9
 72
     5
  1

1001
ACAD
1000
MTEXTBEGIN
1070
    73
1070
     1
1070
    44
1040
1.0
1070
    74
1070
     0
1000
MTEXTEND
  0
MTEXT
  5
55E2
330
1A
100
AcDbEntity
  8
SUNPOU
100
AcDbMText
 10
35259.07976551845
 20
25928.67303892964
 30
0.0
 40
3.5
 41
0.0
 71
     7
 72
     5
  1

1001
ACAD
1000
MTEXTBEGIN
1070
    73
1070
     1
1070
    44
1040
1.0
1070
    74
1070
     0
1000
MTEXTEND
  0
MTEXT
  5
55E3
330
1A
100
AcDbEntity
  8
SUNPOU
100
AcDbMText
 10
48951.43044828905
 20
35287.73625995099
 30
0.0
 40
10.5
 41
0.0
 71
     9
 72
     5
  1

1001
ACAD
1000
MTEXTBEGIN
1070
    73
1070
     1
1070
    44
1040
1.0
1070
    74
1070
     0
1000
MTEXTEND
  0
MTEXT
  5
55E4
330
1A
100
AcDbEntity
  8
SUNPOU
100
AcDbMText
 10
57673.59801420702
 20
42703.57079148847
 30
0.0
 40
10.5
 41
0.0
 71
     9
 72
     5
  1

1001
ACAD
1000
MTEXTBEGIN
1070
    73
1070
     1
1070
    44
1040
1.0
1070
    74
1070
     0
1000
MTEXTEND
  0
MTEXT
  5
55E5
330
1A
100
AcDbEntity
  8
SUNPOU
100
AcDbMText
 10
76627.35673153699
 20
60170.14684398051
 30
0.0
 40
10.5
 41
0.0
 71
     9
 72
     5
  1

1001
ACAD
1000
MTEXTBEGIN
1070
    73
1070
     1
1070
    44
1040
1.0
1070
    74
1070
     0
1000
MTEXTEND
  0
MTEXT
  5
55E6
330
1A
100
AcDbEntity
  8
SUNPOU
100
AcDbMText
 10
78570.76397824641
 20
58369.09776410251
 30
0.0
 40
3.5
 41
0.0
 71
     9
 72
     5
  1

1001
ACAD
1000
MTEXTBEGIN
1070
    73
1070
     1
1070
    44
1040
1.0
1070
    74
1070
     0
1000
MTEXTEND
  0
MTEXT
  5
55E7
330
1A
100
AcDbEntity
  8
SUNPOU
100
AcDbMText
 10
109696.9438108661
 20
100864.0434317598
 30
0.0
 40
10.5
 41
0.0
 71
     9
 72
     5
  1

1001
ACAD
1000
MTEXTBEGIN
1070
    73
1070
     1
1070
    44
1040
1.0
1070
    74
1070
     0
1000
MTEXTEND
  0
MTEXT
  5
55E8
330
1A
100
AcDbEntity
  8
SUNPOU
100
AcDbMText
 10
111640.3510575755
 20
99062.99435188183
 30
0.0
 40
3.5
 41
0.0
 71
     9
 72
     5
  1

1001
ACAD
1000
MTEXTBEGIN
1070
    73
1070
     1
1070
    44
1040
1.0
1070
    74
1070
     0
1000
MTEXTEND
  0
MTEXT
  5
55E9
330
1A
100
AcDbEntity
  8
SUNPOU
100
AcDbMText
 10
60137.21151666167
 20
46697.20858673491
 30
0.0
 40
10.5
 41
0.0
 71
     9
 72
     5
  1

1001
ACAD
1000
MTEXTBEGIN
1070
    73
1070
     1
1070
    44
1040
1.0
1070
    74
1070
     0
1000
MTEXTEND
  0
MTEXT
  5
55EA
330
1A
100
AcDbEntity
  8
SUNPOU
100
AcDbMText
 10
46189.21141628568
 20
27524.80944762269
 30
0.0
 40
3.5
 41
0.0
 71
     7
 72
     5
  1

1001
ACAD
1000
MTEXTBEGIN
1070
    73
1070
     1
1070
    44
1040
1.0
1070
    74
1070
     0
1000
MTEXTEND
  0
MTEXT
  5
55EB
330
1A
100
AcDbEntity
  8
SUNPOU
100
AcDbMText
 10
45007.68847015541
 20
38269.57947701874
 30
0.0
 40
10.5
 41
0.0
 71
     9
 72
     5
  1

1001
ACAD
1000
MTEXTBEGIN
1070
    73
1070
     1
1070
    44
1040
1.0
1070
    74
1070
     0
1000
MTEXTEND
  0
MTEXT
  5
55EC
330
1A
100
AcDbEntity
  8
SUNPOU
100
AcDbMText
 10
63961.44718748539
 20
55736.15552951081
 30
0.0
 40
10.5
 41
0.0
 71
     9
 72
     5
  1

1001
ACAD
1000
MTEXTBEGIN
1070
    73
1070
     1
1070
    44
1040
1.0
1070
    74
1070
     0
1000
MTEXTEND
  0
MTEXT
  5
55ED
330
1A
100
AcDbEntity
  8
SUNPOU
100
AcDbMText
 10
65904.85443419479
 20
53935.10644963279
 30
0.0
 40
3.5
 41
0.0
 71
     9
 72
     5
  1

1001
ACAD
1000
MTEXTBEGIN
1070
    73
1070
     1
1070
    44
1040
1.0
1070
    74
1070
     0
1000
MTEXTEND
  0
MTEXT
  5
55EE
330
1A
100
AcDbEntity
  8
SUNPOU
100
AcDbMText
 10
97031.03426681451
 20
96430.05211729015
 30
0.0
 40
10.5
 41
0.0
 71
     9
 72
     5
  1

1001
ACAD
1000
MTEXTBEGIN
1070
    73
1070
     1
1070
    44
1040
1.0
1070
    74
1070
     0
1000
MTEXTEND
  0
MTEXT
  5
55EF
330
1A
100
AcDbEntity
  8
SUNPOU
100
AcDbMText
 10
98974.44151352393
 20
94629.00303741212
 30
0.0
 40
3.5
 41
0.0
 71
     9
 72
     5
  1

1001
ACAD
1000
MTEXTBEGIN
1070
    73
1070
     1
1070
    44
1040
1.0
1070
    74
1070
     0
1000
MTEXTEND
  0
MTEXT
  5
55F0
330
1A
100
AcDbEntity
  8
SUNPOU
100
AcDbMText
 10
47471.30197261006
 20
42263.21727226519
 30
0.0
 40
10.5
 41
0.0
 71
     9
 72
     5
  1

1001
ACAD
1000
MTEXTBEGIN
1070
    73
1070
     1
1070
    44
1040
1.0
1070
    74
1070
     0
1000
MTEXTEND
  0
MTEXT
  5
55F1
330
1A
100
AcDbEntity
  8
SUNPOU
100
AcDbMText
 10
33523.30187223408
 20
23090.81813315298
 30
0.0
 40
3.5
 41
0.0
 71
     7
 72
     5
  1

1001
ACAD
1000
MTEXTBEGIN
1070
    73
1070
     1
1070
    44
1040
1.0
1070
    74
1070
     0
1000
MTEXTEND
  0
MTEXT
  5
55F2
330
1A
100
AcDbEntity
  8
SUNPOU
100
AcDbMText
 10
57959.46254102503
 20
50038.08111611015
 30
0.0
 40
10.5
 41
0.0
 71
     9
 72
     5
  1

1001
ACAD
1000
MTEXTBEGIN
1070
    73
1070
     1
1070
    44
1040
1.0
1070
    74
1070
     0
1000
MTEXTEND
  0
MTEXT
  5
55F3
330
1A
100
AcDbEntity
  8
SUNPOU
100
AcDbMText
 10
76913.22125835503
 20
67504.65716860222
 30
0.0
 40
10.5
 41
0.0
 71
     9
 72
     5
  1

1001
ACAD
1000
MTEXTBEGIN
1070
    73
1070
     1
1070
    44
1040
1.0
1070
    74
1070
     0
1000
MTEXTEND
  0
MTEXT
  5
55F4
330
1A
100
AcDbEntity
  8
SUNPOU
100
AcDbMText
 10
78856.62850506443
 20
65703.6080887242
 30
0.0
 40
3.5
 41
0.0
 71
     9
 72
     5
  1

1001
ACAD
1000
MTEXTBEGIN
1070
    73
1070
     1
1070
    44
1040
1.0
1070
    74
1070
     0
1000
MTEXTEND
  0
MTEXT
  5
55F5
330
1A
100
AcDbEntity
  8
SUNPOU
100
AcDbMText
 10
109982.8083376841
 20
108198.5537563815
 30
0.0
 40
10.5
 41
0.0
 71
     9
 72
     5
  1

1001
ACAD
1000
MTEXTBEGIN
1070
    73
1070
     1
1070
    44
1040
1.0
1070
    74
1070
     0
1000
MTEXTEND
  0
MTEXT
  5
55F6
330
1A
100
AcDbEntity
  8
SUNPOU
100
AcDbMText
 10
111926.2155843935
 20
106397.5046765035
 30
0.0
 40
3.5
 41
0.0
 71
     9
 72
     5
  1

1001
ACAD
1000
MTEXTBEGIN
1070
    73
1070
     1
1070
    44
1040
1.0
1070
    74
1070
     0
1000
MTEXTEND
  0
MTEXT
  5
55F7
330
1A
100
AcDbEntity
  8
SUNPOU
100
AcDbMText
 10
60423.07604347968
 20
54031.71891135659
 30
0.0
 40
10.5
 41
0.0
 71
     9
 72
     5
  1

1001
ACAD
1000
MTEXTBEGIN
1070
    73
1070
     1
1070
    44
1040
1.0
1070
    74
1070
     0
1000
MTEXTEND
  0
MTEXT
  5
55F8
330
1A
100
AcDbEntity
  8
SUNPOU
100
AcDbMText
 10
46475.07594310369
 20
34859.3197722444
 30
0.0
 40
3.5
 41
0.0
 71
     7
 72
     5
  1

1001
ACAD
1000
MTEXTBEGIN
1070
    73
1070
     1
1070
    44
1040
1.0
1070
    74
1070
     0
1000
MTEXTEND
  0
MTEXT
  5
55F9
330
1A
100
AcDbEntity
  8
SUNPOU
100
AcDbMText
 10
74027.35402123588
 20
68370.58278833383
 30
0.0
 40
10.5
 41
0.0
 71
     9
 72
     5
  1

1001
ACAD
1000
MTEXTBEGIN
1070
    73
1070
     1
1070
    44
1040
1.0
1070
    74
1070
     0
1000
MTEXTEND
  0
MTEXT
  5
55FA
330
1A
100
AcDbEntity
  8
SUNPOU
100
AcDbMText
 10
75970.7612679453
 20
66569.53370845583
 30
0.0
 40
3.5
 41
0.0
 71
     9
 72
     5
  1

1001
ACAD
1000
MTEXTBEGIN
1070
    73
1070
     1
1070
    44
1040
1.0
1070
    74
1070
     0
1000
MTEXTEND
  0
MTEXT
  5
55FB
330
1A
100
AcDbEntity
  8
SUNPOU
100
AcDbMText
 10
107096.941100565
 20
109064.4793761132
 30
0.0
 40
10.5
 41
0.0
 71
     9
 72
     5
  1

1001
ACAD
1000
MTEXTBEGIN
1070
    73
1070
     1
1070
    44
1040
1.0
1070
    74
1070
     0
1000
MTEXTEND
  0
MTEXT
  5
55FC
330
1A
100
AcDbEntity
  8
SUNPOU
100
AcDbMText
 10
109040.3483472744
 20
107263.4302962351
 30
0.0
 40
3.5
 41
0.0
 71
     9
 72
     5
  1

1001
ACAD
1000
MTEXTBEGIN
1070
    73
1070
     1
1070
    44
1040
1.0
1070
    74
1070
     0
1000
MTEXTEND
  0
MTEXT
  5
55FD
330
1A
100
AcDbEntity
  8
SUNPOU
100
AcDbMText
 10
105709.1709283621
 20
108141.3777665285
 30
0.0
 40
10.5
 41
0.0
 71
     9
 72
     5
  1

1001
ACAD
1000
MTEXTBEGIN
1070
    73
1070
     1
1070
    44
1040
1.0
1070
    74
1070
     0
1000
MTEXTEND
  0
MTEXT
  5
55FE
330
1A
100
AcDbEntity
  8
SUNPOU
100
AcDbMText
 10
107652.5781750715
 20
106340.3286866505
 30
0.0
 40
3.5
 41
0.0
 71
     9
 72
     5
  1

1001
ACAD
1000
MTEXTBEGIN
1070
    73
1070
     1
1070
    44
1040
1.0
1070
    74
1070
     0
1000
MTEXTEND
  0
MTEXT
  5
55FF
330
1A
100
AcDbEntity
  8
SUNPOU
100
AcDbMText
 10
73193.09268743351
 20
66158.78082845056
 30
0.0
 40
10.5
 41
0.0
 71
     9
 72
     5
  1

1001
ACAD
1000
MTEXTBEGIN
1070
    73
1070
     1
1070
    44
1040
1.0
1070
    74
1070
     0
1000
MTEXTEND
  0
MTEXT
  5
5600
330
1A
100
AcDbEntity
  8
SUNPOU
100
AcDbMText
 10
75916.39889159806
 20
66563.46252003162
 30
0.0
 40
3.5
 41
0.0
 71
     9
 72
     5
  1

1001
ACAD
1000
MTEXTBEGIN
1070
    73
1070
     1
1070
    44
1040
1.0
1070
    74
1070
     0
1000
MTEXTEND
  0
MTEXT
  5
5601
330
1A
100
AcDbEntity
  8
SUNPOU
100
AcDbMText
 10
75124.04436649058
 20
63402.1566819768
 30
0.0
 40
10.5
 41
0.0
 71
     9
 72
     5
  1

1001
ACAD
1000
MTEXTBEGIN
1070
    73
1070
     1
1070
    44
1040
1.0
1070
    74
1070
     0
1000
MTEXTEND
  0
MTEXT
  5
5602
330
1A
100
AcDbEntity
  8
SUNPOU
100
AcDbMText
 10
77067.4516132
 20
61601.1076020988
 30
0.0
 40
3.5
 41
0.0
 71
     9
 72
     5
  1

1001
ACAD
1000
MTEXTBEGIN
1070
    73
1070
     1
1070
    44
1040
1.0
1070
    74
1070
     0
1000
MTEXTEND
  0
MTEXT
  5
5603
330
1A
100
AcDbEntity
  8
SUNPOU
100
AcDbMText
 10
77012.54710378659
 20
61488.33571981449
 30
0.0
 40
3.5
 41
0.0
 71
     9
 72
     5
  1

1001
ACAD
1000
MTEXTBEGIN
1070
    73
1070
     1
1070
    44
1040
1.0
1070
    74
1070
     0
1000
MTEXTEND
  0
MTEXT
  5
5604
330
1A
100
AcDbEntity
  8
SUNPOU
100
AcDbMText
 10
76376.61896736668
 20
60677.01447874797
 30
0.0
 40
3.5
 41
0.0
 71
     9
 72
     5
  1

1001
ACAD
1000
MTEXTBEGIN
1070
    73
1070
     1
1070
    44
1040
1.0
1070
    74
1070
     0
1000
MTEXTEND
  0
MTEXT
  5
5605
330
1A
100
AcDbEntity
  8
SUNPOU
100
AcDbMText
 10
76375.37854794595
 20
60676.76650181047
 30
0.0
 40
10.5
 41
0.0
 71
     9
 72
     5
  1

1001
ACAD
1000
MTEXTBEGIN
1070
    73
1070
     1
1070
    44
1040
1.0
1070
    74
1070
     0
1000
MTEXTEND
  0
MTEXT
  5
5606
330
1A
100
AcDbEntity
  8
SUNPOU
100
AcDbMText
 10
84709.93991079748
 20
78034.0328293557
 30
0.0
 40
10.5
 41
0.0
 71
     9
 72
     5
  1

1001
ACAD
1000
MTEXTBEGIN
1070
    73
1070
     1
1070
    44
1040
1.0
1070
    74
1070
     0
1000
MTEXTEND
  0
MTEXT
  5
5607
330
1A
100
AcDbEntity
  8
SUNPOU
100
AcDbMText
 10
93432.10747671548
 20
85449.86736089315
 30
0.0
 40
10.5
 41
0.0
 71
     9
 72
     5
  1

1001
ACAD
1000
MTEXTBEGIN
1070
    73
1070
     1
1070
    44
1040
1.0
1070
    74
1070
     0
1000
MTEXTEND
  0
MTEXT
  5
5608
330
1A
100
AcDbEntity
  8
SUNPOU
100
AcDbMText
 10
112385.8661940454
 20
102916.4434133851
 30
0.0
 40
10.5
 41
0.0
 71
     9
 72
     5
  1

1001
ACAD
1000
MTEXTBEGIN
1070
    73
1070
     1
1070
    44
1040
1.0
1070
    74
1070
     0
1000
MTEXTEND
  0
MTEXT
  5
5609
330
1A
100
AcDbEntity
  8
SUNPOU
100
AcDbMText
 10
114329.2734407548
 20
101115.3943335072
 30
0.0
 40
3.5
 41
0.0
 71
     9
 72
     5
  1

1001
ACAD
1000
MTEXTBEGIN
1070
    73
1070
     1
1070
    44
1040
1.0
1070
    74
1070
     0
1000
MTEXTEND
  0
MTEXT
  5
560A
330
1A
100
AcDbEntity
  8
SUNPOU
100
AcDbMText
 10
145455.4532733745
 20
143610.3400011645
 30
0.0
 40
10.5
 41
0.0
 71
     9
 72
     5
  1

1001
ACAD
1000
MTEXTBEGIN
1070
    73
1070
     1
1070
    44
1040
1.0
1070
    74
1070
     0
1000
MTEXTEND
  0
MTEXT
  5
560B
330
1A
100
AcDbEntity
  8
SUNPOU
100
AcDbMText
 10
147398.8605200839
 20
141809.2909212864
 30
0.0
 40
3.5
 41
0.0
 71
     9
 72
     5
  1

1001
ACAD
1000
MTEXTBEGIN
1070
    73
1070
     1
1070
    44
1040
1.0
1070
    74
1070
     0
1000
MTEXTEND
  0
MTEXT
  5
560C
330
1A
100
AcDbEntity
  8
SUNPOU
100
AcDbMText
 10
95895.72097917013
 20
89443.5051561396
 30
0.0
 40
10.5
 41
0.0
 71
     9
 72
     5
  1

1001
ACAD
1000
MTEXTBEGIN
1070
    73
1070
     1
1070
    44
1040
1.0
1070
    74
1070
     0
1000
MTEXTEND
  0
MTEXT
  5
560D
330
1A
100
AcDbEntity
  8
SUNPOU
100
AcDbMText
 10
81947.72087879414
 20
70271.1060170274
 30
0.0
 40
3.5
 41
0.0
 71
     7
 72
     5
  1

1001
ACAD
1000
MTEXTBEGIN
1070
    73
1070
     1
1070
    44
1040
1.0
1070
    74
1070
     0
1000
MTEXTEND
  0
MTEXT
  5
560E
330
1A
100
AcDbEntity
  8
SUNPOU
100
AcDbMText
 10
62932.89027578729
 20
58033.25474784561
 30
0.0
 40
10.5
 41
0.0
 71
     7
 72
     5
  1

1001
ACAD
1000
MTEXTBEGIN
1070
    73
1070
     1
1070
    44
1040
1.0
1070
    74
1070
     0
1000
MTEXTEND
  0
MTEXT
  5
560F
330
1A
100
AcDbEntity
  8
SUNPOU
100
AcDbMText
 10
50475.66201083918
 20
42188.32316974719
 30
0.0
 40
35.0
 41
0.0
 71
     9
 72
     5
  1

1001
ACAD
1000
MTEXTBEGIN
1070
    73
1070
     1
1070
    44
1040
1.0
1070
    74
1070
     0
1000
MTEXTEND
  0
MTEXT
  5
5610
330
1A
100
AcDbEntity
  8
SUNPOU
100
AcDbMText
 10
49384.14706841413
 20
42797.0985797959
 30
0.0
 40
350.0000004171781
 41
0.0
 71
     7
 72
     5
  1

1001
ACAD
1000
MTEXTBEGIN
1070
    73
1070
     1
1070
    44
1040
1.0
1070
    74
1070
     0
1000
MTEXTEND
  0
MTEXT
  5
5611
330
1A
100
AcDbEntity
  8
0
100
AcDbMText
 10
55428.09782635704
 20
40777.02094193211
 30
0.0
 40
8.0
 41
0.0
 71
     7
 72
     5
  1

1001
ACAD
1000
MTEXTBEGIN
1070
    73
1070
     1
1070
    44
1040
1.0
1070
    74
1070
     0
1000
MTEXTEND
  0
MTEXT
  5
5612
330
1A
100
AcDbEntity
  8
0
100
AcDbMText
 10
57713.45551625194
 20
41747.81123668317
 30
0.0
 40
8.0
 41
0.0
 71
     7
 72
     5
  1

1001
ACAD
1000
MTEXTBEGIN
1070
    73
1070
     1
1070
    44
1040
1.0
1070
    74
1070
     0
1000
MTEXTEND
  0
MTEXT
  5
5613
330
1A
100
AcDbEntity
  8
SUNPOU
100
AcDbMText
 10
60379.35253693408
 20
51259.9226290583
 30
0.0
 40
10.5
 41
0.0
 71
     1
 72
     5
  1

1001
ACAD
1000
MTEXTBEGIN
1070
    73
1070
     1
1070
    44
1040
1.0
1070
    74
1070
     0
1000
MTEXTEND
  0
MTEXT
  5
5614
330
1A
100
AcDbEntity
  8
SUNPOU
100
AcDbMText
 10
52448.42934099814
 20
50313.12949514535
 30
0.0
 40
10.5
 41
0.0
 71
     7
 72
     5
  1

1001
ACAD
1000
MTEXTBEGIN
1070
    73
1070
     1
1070
    44
1040
1.0
1070
    74
1070
     0
1000
MTEXTEND
  0
MTEXT
  5
5615
330
1A
100
AcDbEntity
  8
SUNPOU
100
AcDbMText
 10
55397.41300551091
 20
55213.80556698819
 30
0.0
 40
10.5
 41
0.0
 71
     7
 72
     5
  1

1001
ACAD
1000
MTEXTBEGIN
1070
    73
1070
     1
1070
    44
1040
1.0
1070
    74
1070
     0
1000
MTEXTEND
  0
MTEXT
  5
5616
330
1A
100
AcDbEntity
  8
SUNPOU
100
AcDbMText
 10
59906.49113346147
 20
57650.10631460826
 30
0.0
 40
10.5
 41
0.0
 71
     7
 72
     5
  1

1001
ACAD
1000
MTEXTBEGIN
1070
    73
1070
     1
1070
    44
1040
1.0
1070
    74
1070
     0
1000
MTEXTEND
  0
MTEXT
  5
5617
330
1A
100
AcDbEntity
  8
SUNPOU
100
AcDbMText
 10
43507.32902022979
 20
36647.70246499718
 30
0.0
 40
10.5
 41
0.0
 71
     7
 72
     5
  1

1001
ACAD
1000
MTEXTBEGIN
1070
    73
1070
     1
1070
    44
1040
1.0
1070
    74
1070
     0
1000
MTEXTEND
  0
MTEXT
  5
5618
330
1A
100
AcDbEntity
  8
SUNPOU
100
AcDbMText
 10
94698.84745413006
 20
82320.68302864542
 30
0.0
 40
10.5
 41
0.0
 71
     9
 72
     5
  1

1001
ACAD
1000
MTEXTBEGIN
1070
    73
1070
     1
1070
    44
1040
1.0
1070
    74
1070
     0
1000
MTEXTEND
  0
MTEXT
  5
5619
330
1A
100
AcDbEntity
  8
SUNPOU
100
AcDbMText
 10
103421.015020048
 20
89736.5175601829
 30
0.0
 40
10.5
 41
0.0
 71
     9
 72
     5
  1

1001
ACAD
1000
MTEXTBEGIN
1070
    73
1070
     1
1070
    44
1040
1.0
1070
    74
1070
     0
1000
MTEXTEND
  0
MTEXT
  5
561A
330
1A
100
AcDbEntity
  8
SUNPOU
100
AcDbMText
 10
122374.773737378
 20
107203.0936126749
 30
0.0
 40
10.5
 41
0.0
 71
     9
 72
     5
  1

1001
ACAD
1000
MTEXTBEGIN
1070
    73
1070
     1
1070
    44
1040
1.0
1070
    74
1070
     0
1000
MTEXTEND
  0
MTEXT
  5
561B
330
1A
100
AcDbEntity
  8
SUNPOU
100
AcDbMText
 10
124318.1809840874
 20
105402.0445327969
 30
0.0
 40
3.5
 41
0.0
 71
     9
 72
     5
  1

1001
ACAD
1000
MTEXTBEGIN
1070
    73
1070
     1
1070
    44
1040
1.0
1070
    74
1070
     0
1000
MTEXTEND
  0
MTEXT
  5
561C
330
1A
100
AcDbEntity
  8
SUNPOU
100
AcDbMText
 10
155444.3608167071
 20
147896.9902004542
 30
0.0
 40
10.5
 41
0.0
 71
     9
 72
     5
  1

1001
ACAD
1000
MTEXTBEGIN
1070
    73
1070
     1
1070
    44
1040
1.0
1070
    74
1070
     0
1000
MTEXTEND
  0
MTEXT
  5
561D
330
1A
100
AcDbEntity
  8
SUNPOU
100
AcDbMText
 10
157387.7680634165
 20
146095.9411205762
 30
0.0
 40
3.5
 41
0.0
 71
     9
 72
     5
  1

1001
ACAD
1000
MTEXTBEGIN
1070
    73
1070
     1
1070
    44
1040
1.0
1070
    74
1070
     0
1000
MTEXTEND
  0
MTEXT
  5
561E
330
1A
100
AcDbEntity
  8
SUNPOU
100
AcDbMText
 10
105884.6285225027
 20
93730.15535542933
 30
0.0
 40
10.5
 41
0.0
 71
     9
 72
     5
  1

1001
ACAD
1000
MTEXTBEGIN
1070
    73
1070
     1
1070
    44
1040
1.0
1070
    74
1070
     0
1000
MTEXTEND
  0
MTEXT
  5
561F
330
1A
100
AcDbEntity
  8
SUNPOU
100
AcDbMText
 10
91936.6284221267
 20
74557.75621631714
 30
0.0
 40
3.5
 41
0.0
 71
     7
 72
     5
  1

1001
ACAD
1000
MTEXTBEGIN
1070
    73
1070
     1
1070
    44
1040
1.0
1070
    74
1070
     0
1000
MTEXTEND
  0
MTEXT
  5
5620
330
1A
100
AcDbEntity
  8
SUNPOU
100
AcDbMText
 10
72921.79781911986
 20
62319.90494713533
 30
0.0
 40
10.5
 41
0.0
 71
     7
 72
     5
  1

1001
ACAD
1000
MTEXTBEGIN
1070
    73
1070
     1
1070
    44
1040
1.0
1070
    74
1070
     0
1000
MTEXTEND
  0
MTEXT
  5
5621
330
1A
100
AcDbEntity
  8
SUNPOU
100
AcDbMText
 10
60464.56955417175
 20
46474.97336903692
 30
0.0
 40
35.0
 41
0.0
 71
     9
 72
     5
  1

1001
ACAD
1000
MTEXTBEGIN
1070
    73
1070
     1
1070
    44
1040
1.0
1070
    74
1070
     0
1000
MTEXTEND
  0
MTEXT
  5
5622
330
1A
100
AcDbEntity
  8
SUNPOU
100
AcDbMText
 10
59373.05461174672
 20
47083.74877908562
 30
0.0
 40
350.0000004171781
 41
0.0
 71
     7
 72
     5
  1

1001
ACAD
1000
MTEXTBEGIN
1070
    73
1070
     1
1070
    44
1040
1.0
1070
    74
1070
     0
1000
MTEXTEND
  0
MTEXT
  5
5623
330
1A
100
AcDbEntity
  8
0
100
AcDbMText
 10
65417.00536968962
 20
45063.67114122186
 30
0.0
 40
8.0
 41
0.0
 71
     7
 72
     5
  1

1001
ACAD
1000
MTEXTBEGIN
1070
    73
1070
     1
1070
    44
1040
1.0
1070
    74
1070
     0
1000
MTEXTEND
  0
MTEXT
  5
5624
330
1A
100
AcDbEntity
  8
0
100
AcDbMText
 10
67702.36305958452
 20
46034.46143597292
 30
0.0
 40
8.0
 41
0.0
 71
     7
 72
     5
  1

1001
ACAD
1000
MTEXTBEGIN
1070
    73
1070
     1
1070
    44
1040
1.0
1070
    74
1070
     0
1000
MTEXTEND
  0
MTEXT
  5
5625
330
1A
100
AcDbEntity
  8
SUNPOU
100
AcDbMText
 10
70368.26008026666
 20
55546.57282834803
 30
0.0
 40
10.5
 41
0.0
 71
     1
 72
     5
  1

1001
ACAD
1000
MTEXTBEGIN
1070
    73
1070
     1
1070
    44
1040
1.0
1070
    74
1070
     0
1000
MTEXTEND
  0
MTEXT
  5
5626
330
1A
100
AcDbEntity
  8
SUNPOU
100
AcDbMText
 10
62437.33688433072
 20
54599.77969443508
 30
0.0
 40
10.5
 41
0.0
 71
     7
 72
     5
  1

1001
ACAD
1000
MTEXTBEGIN
1070
    73
1070
     1
1070
    44
1040
1.0
1070
    74
1070
     0
1000
MTEXTEND
  0
MTEXT
  5
5627
330
1A
100
AcDbEntity
  8
SUNPOU
100
AcDbMText
 10
65386.32054884349
 20
59500.45576627792
 30
0.0
 40
10.5
 41
0.0
 71
     7
 72
     5
  1

1001
ACAD
1000
MTEXTBEGIN
1070
    73
1070
     1
1070
    44
1040
1.0
1070
    74
1070
     0
1000
MTEXTEND
  0
MTEXT
  5
5628
330
1A
100
AcDbEntity
  8
SUNPOU
100
AcDbMText
 10
69895.39867679405
 20
61936.756513898
 30
0.0
 40
10.5
 41
0.0
 71
     7
 72
     5
  1

1001
ACAD
1000
MTEXTBEGIN
1070
    73
1070
     1
1070
    44
1040
1.0
1070
    74
1070
     0
1000
MTEXTEND
  0
MTEXT
  5
5629
330
1A
100
AcDbEntity
  8
SUNPOU
100
AcDbMText
 10
53496.23656356237
 20
40934.35266428691
 30
0.0
 40
10.5
 41
0.0
 71
     7
 72
     5
  1

1001
ACAD
1000
MTEXTBEGIN
1070
    73
1070
     1
1070
    44
1040
1.0
1070
    74
1070
     0
1000
MTEXTEND
  0
MTEXT
  5
562A
330
1A
100
AcDbEntity
  8
SUNPOU
100
AcDbMText
 10
55306.99947493731
 20
47261.76665176547
 30
0.0
 40
10.5
 41
0.0
 71
     9
 72
     5
  1

1001
ACAD
1000
MTEXTBEGIN
1070
    73
1070
     1
1070
    44
1040
1.0
1070
    74
1070
     0
1000
MTEXTEND
  0
MTEXT
  5
562B
330
1A
100
AcDbEntity
  8
SUNPOU
100
AcDbMText
 10
64029.16704085528
 20
54677.60118330295
 30
0.0
 40
10.5
 41
0.0
 71
     9
 72
     5
  1

1001
ACAD
1000
MTEXTBEGIN
1070
    73
1070
     1
1070
    44
1040
1.0
1070
    74
1070
     0
1000
MTEXTEND
  0
MTEXT
  5
562C
330
1A
100
AcDbEntity
  8
SUNPOU
100
AcDbMText
 10
82982.92575818527
 20
72144.17723579499
 30
0.0
 40
10.5
 41
0.0
 71
     9
 72
     5
  1

1001
ACAD
1000
MTEXTBEGIN
1070
    73
1070
     1
1070
    44
1040
1.0
1070
    74
1070
     0
1000
MTEXTEND
  0
MTEXT
  5
562D
330
1A
100
AcDbEntity
  8
SUNPOU
100
AcDbMText
 10
84926.33300489467
 20
70343.12815591698
 30
0.0
 40
3.5
 41
0.0
 71
     9
 72
     5
  1

1001
ACAD
1000
MTEXTBEGIN
1070
    73
1070
     1
1070
    44
1040
1.0
1070
    74
1070
     0
1000
MTEXTEND
  0
MTEXT
  5
562E
330
1A
100
AcDbEntity
  8
SUNPOU
100
AcDbMText
 10
116052.5128375143
 20
112838.0738235743
 30
0.0
 40
10.5
 41
0.0
 71
     9
 72
     5
  1

1001
ACAD
1000
MTEXTBEGIN
1070
    73
1070
     1
1070
    44
1040
1.0
1070
    74
1070
     0
1000
MTEXTEND
  0
MTEXT
  5
562F
330
1A
100
AcDbEntity
  8
SUNPOU
100
AcDbMText
 10
117995.9200842238
 20
111037.0247436963
 30
0.0
 40
3.5
 41
0.0
 71
     9
 72
     5
  1

1001
ACAD
1000
MTEXTBEGIN
1070
    73
1070
     1
1070
    44
1040
1.0
1070
    74
1070
     0
1000
MTEXTEND
  0
MTEXT
  5
5630
330
1A
100
AcDbEntity
  8
SUNPOU
100
AcDbMText
 10
66492.78054330994
 20
58671.23897854939
 30
0.0
 40
10.5
 41
0.0
 71
     9
 72
     5
  1

1001
ACAD
1000
MTEXTBEGIN
1070
    73
1070
     1
1070
    44
1040
1.0
1070
    74
1070
     0
1000
MTEXTEND
  0
MTEXT
  5
5631
330
1A
100
AcDbEntity
  8
SUNPOU
100
AcDbMText
 10
52544.78044293396
 20
39498.83983943717
 30
0.0
 40
3.5
 41
0.0
 71
     7
 72
     5
  1

1001
ACAD
1000
MTEXTBEGIN
1070
    73
1070
     1
1070
    44
1040
1.0
1070
    74
1070
     0
1000
MTEXTEND
  0
MTEXT
  5
5632
330
1A
100
AcDbEntity
  8
SUNPOU
100
AcDbMText
 10
66237.13112570454
 20
48857.90306045851
 30
0.0
 40
10.5
 41
0.0
 71
     9
 72
     5
  1

1001
ACAD
1000
MTEXTBEGIN
1070
    73
1070
     1
1070
    44
1040
1.0
1070
    74
1070
     0
1000
MTEXTEND
  0
MTEXT
  5
5633
330
1A
100
AcDbEntity
  8
SUNPOU
100
AcDbMText
 10
74959.29869162252
 20
56273.737591996
 30
0.0
 40
10.5
 41
0.0
 71
     9
 72
     5
  1

1001
ACAD
1000
MTEXTBEGIN
1070
    73
1070
     1
1070
    44
1040
1.0
1070
    74
1070
     0
1000
MTEXTEND
  0
MTEXT
  5
5634
330
1A
100
AcDbEntity
  8
SUNPOU
100
AcDbMText
 10
93913.0574089525
 20
73740.31364448805
 30
0.0
 40
10.5
 41
0.0
 71
     9
 72
     5
  1

1001
ACAD
1000
MTEXTBEGIN
1070
    73
1070
     1
1070
    44
1040
1.0
1070
    74
1070
     0
1000
MTEXTEND
  0
MTEXT
  5
5635
330
1A
100
AcDbEntity
  8
SUNPOU
100
AcDbMText
 10
95856.46465566192
 20
71939.26456461004
 30
0.0
 40
3.5
 41
0.0
 71
     9
 72
     5
  1

1001
ACAD
1000
MTEXTBEGIN
1070
    73
1070
     1
1070
    44
1040
1.0
1070
    74
1070
     0
1000
MTEXTEND
  0
MTEXT
  5
5636
330
1A
100
AcDbEntity
  8
SUNPOU
100
AcDbMText
 10
126982.6444882816
 20
114434.2102322673
 30
0.0
 40
10.5
 41
0.0
 71
     9
 72
     5
  1

1001
ACAD
1000
MTEXTBEGIN
1070
    73
1070
     1
1070
    44
1040
1.0
1070
    74
1070
     0
1000
MTEXTEND
  0
MTEXT
  5
5637
330
1A
100
AcDbEntity
  8
SUNPOU
100
AcDbMText
 10
128926.051734991
 20
112633.1611523893
 30
0.0
 40
3.5
 41
0.0
 71
     9
 72
     5
  1

1001
ACAD
1000
MTEXTBEGIN
1070
    73
1070
     1
1070
    44
1040
1.0
1070
    74
1070
     0
1000
MTEXTEND
  0
MTEXT
  5
5638
330
1A
100
AcDbEntity
  8
SUNPOU
100
AcDbMText
 10
77422.91219407717
 20
60267.37538724244
 30
0.0
 40
10.5
 41
0.0
 71
     9
 72
     5
  1

1001
ACAD
1000
MTEXTBEGIN
1070
    73
1070
     1
1070
    44
1040
1.0
1070
    74
1070
     0
1000
MTEXTEND
  0
MTEXT
  5
5639
330
1A
100
AcDbEntity
  8
SUNPOU
100
AcDbMText
 10
63474.91209370119
 20
41094.97624813023
 30
0.0
 40
3.5
 41
0.0
 71
     7
 72
     5
  1

1001
ACAD
1000
MTEXTBEGIN
1070
    73
1070
     1
1070
    44
1040
1.0
1070
    74
1070
     0
1000
MTEXTEND
  0
MTEXT
  5
563A
330
1A
100
AcDbEntity
  8
SUNPOU
100
AcDbMText
 10
48117.65086229006
 20
40806.11043916631
 30
0.0
 40
10.5
 41
0.0
 71
     9
 72
     5
  1

1001
ACAD
1000
MTEXTBEGIN
1070
    73
1070
     1
1070
    44
1040
1.0
1070
    74
1070
     0
1000
MTEXTEND
  0
MTEXT
  5
563B
330
1A
100
AcDbEntity
  8
SUNPOU
100
AcDbMText
 10
67071.40957962004
 20
58272.68649165837
 30
0.0
 40
10.5
 41
0.0
 71
     9
 72
     5
  1

1001
ACAD
1000
MTEXTBEGIN
1070
    73
1070
     1
1070
    44
1040
1.0
1070
    74
1070
     0
1000
MTEXTEND
  0
MTEXT
  5
563C
330
1A
100
AcDbEntity
  8
SUNPOU
100
AcDbMText
 10
69014.81682632945
 20
56471.63741178035
 30
0.0
 40
3.5
 41
0.0
 71
     9
 72
     5
  1

1001
ACAD
1000
MTEXTBEGIN
1070
    73
1070
     1
1070
    44
1040
1.0
1070
    74
1070
     0
1000
MTEXTEND
  0
MTEXT
  5
563D
330
1A
100
AcDbEntity
  8
SUNPOU
100
AcDbMText
 10
100140.9966589491
 20
98966.58307943772
 30
0.0
 40
10.5
 41
0.0
 71
     9
 72
     5
  1

1001
ACAD
1000
MTEXTBEGIN
1070
    73
1070
     1
1070
    44
1040
1.0
1070
    74
1070
     0
1000
MTEXTEND
  0
MTEXT
  5
563E
330
1A
100
AcDbEntity
  8
SUNPOU
100
AcDbMText
 10
102084.4039056586
 20
97165.53399955969
 30
0.0
 40
3.5
 41
0.0
 71
     9
 72
     5
  1

1001
ACAD
1000
MTEXTBEGIN
1070
    73
1070
     1
1070
    44
1040
1.0
1070
    74
1070
     0
1000
MTEXTEND
  0
MTEXT
  5
563F
330
1A
100
AcDbEntity
  8
SUNPOU
100
AcDbMText
 10
50581.26436474472
 20
44799.74823441275
 30
0.0
 40
10.5
 41
0.0
 71
     9
 72
     5
  1

1001
ACAD
1000
MTEXTBEGIN
1070
    73
1070
     1
1070
    44
1040
1.0
1070
    74
1070
     0
1000
MTEXTEND
  0
MTEXT
  5
5640
330
1A
100
AcDbEntity
  8
SUNPOU
100
AcDbMText
 10
36633.26426436873
 20
25627.34909530054
 30
0.0
 40
3.5
 41
0.0
 71
     7
 72
     5
  1

1001
ACAD
1000
MTEXTBEGIN
1070
    73
1070
     1
1070
    44
1040
1.0
1070
    74
1070
     0
1000
MTEXTEND
  0
MTEXT
  5
5641
330
1A
100
AcDbEntity
  8
SUNPOU
100
AcDbMText
 10
61069.42493315968
 20
52574.61207825771
 30
0.0
 40
10.5
 41
0.0
 71
     9
 72
     5
  1

1001
ACAD
1000
MTEXTBEGIN
1070
    73
1070
     1
1070
    44
1040
1.0
1070
    74
1070
     0
1000
MTEXTEND
  0
MTEXT
  5
5642
330
1A
100
AcDbEntity
  8
SUNPOU
100
AcDbMText
 10
80023.18365048967
 20
70041.18813074978
 30
0.0
 40
10.5
 41
0.0
 71
     9
 72
     5
  1

1001
ACAD
1000
MTEXTBEGIN
1070
    73
1070
     1
1070
    44
1040
1.0
1070
    74
1070
     0
1000
MTEXTEND
  0
MTEXT
  5
5643
330
1A
100
AcDbEntity
  8
SUNPOU
100
AcDbMText
 10
81966.59089719908
 20
68240.13905087176
 30
0.0
 40
3.5
 41
0.0
 71
     9
 72
     5
  1

1001
ACAD
1000
MTEXTBEGIN
1070
    73
1070
     1
1070
    44
1040
1.0
1070
    74
1070
     0
1000
MTEXTEND
  0
MTEXT
  5
5644
330
1A
100
AcDbEntity
  8
SUNPOU
100
AcDbMText
 10
113092.7707298187
 20
110735.0847185291
 30
0.0
 40
10.5
 41
0.0
 71
     9
 72
     5
  1

1001
ACAD
1000
MTEXTBEGIN
1070
    73
1070
     1
1070
    44
1040
1.0
1070
    74
1070
     0
1000
MTEXTEND
  0
MTEXT
  5
5645
330
1A
100
AcDbEntity
  8
SUNPOU
100
AcDbMText
 10
115036.1779765282
 20
108934.0356386511
 30
0.0
 40
3.5
 41
0.0
 71
     9
 72
     5
  1

1001
ACAD
1000
MTEXTBEGIN
1070
    73
1070
     1
1070
    44
1040
1.0
1070
    74
1070
     0
1000
MTEXTEND
  0
MTEXT
  5
5646
330
1A
100
AcDbEntity
  8
SUNPOU
100
AcDbMText
 10
63533.03843561433
 20
56568.24987350415
 30
0.0
 40
10.5
 41
0.0
 71
     9
 72
     5
  1

1001
ACAD
1000
MTEXTBEGIN
1070
    73
1070
     1
1070
    44
1040
1.0
1070
    74
1070
     0
1000
MTEXTEND
  0
MTEXT
  5
5647
330
1A
100
AcDbEntity
  8
SUNPOU
100
AcDbMText
 10
49585.03833523835
 20
37395.85073439196
 30
0.0
 40
3.5
 41
0.0
 71
     7
 72
     5
  1

1001
ACAD
1000
MTEXTBEGIN
1070
    73
1070
     1
1070
    44
1040
1.0
1070
    74
1070
     0
1000
MTEXTEND
  0
MTEXT
  5
5648
330
1A
100
AcDbEntity
  8
SUNPOU
100
AcDbMText
 10
77137.31641337052
 20
70907.11375048141
 30
0.0
 40
10.5
 41
0.0
 71
     9
 72
     5
  1

1001
ACAD
1000
MTEXTBEGIN
1070
    73
1070
     1
1070
    44
1040
1.0
1070
    74
1070
     0
1000
MTEXTEND
  0
MTEXT
  5
5649
330
1A
100
AcDbEntity
  8
SUNPOU
100
AcDbMText
 10
79080.72366007995
 20
69106.06467060339
 30
0.0
 40
3.5
 41
0.0
 71
     9
 72
     5
  1

1001
ACAD
1000
MTEXTBEGIN
1070
    73
1070
     1
1070
    44
1040
1.0
1070
    74
1070
     0
1000
MTEXTEND
  0
MTEXT
  5
564A
330
1A
100
AcDbEntity
  8
SUNPOU
100
AcDbMText
 10
110206.9034926996
 20
111601.0103382607
 30
0.0
 40
10.5
 41
0.0
 71
     9
 72
     5
  1

1001
ACAD
1000
MTEXTBEGIN
1070
    73
1070
     1
1070
    44
1040
1.0
1070
    74
1070
     0
1000
MTEXTEND
  0
MTEXT
  5
564B
330
1A
100
AcDbEntity
  8
SUNPOU
100
AcDbMText
 10
112150.310739409
 20
109799.9612583827
 30
0.0
 40
3.5
 41
0.0
 71
     9
 72
     5
  1

1001
ACAD
1000
MTEXTBEGIN
1070
    73
1070
     1
1070
    44
1040
1.0
1070
    74
1070
     0
1000
MTEXTEND
  0
MTEXT
  5
564C
330
1A
100
AcDbEntity
  8
SUNPOU
100
AcDbMText
 10
108819.1333204968
 20
110677.9087286761
 30
0.0
 40
10.5
 41
0.0
 71
     9
 72
     5
  1

1001
ACAD
1000
MTEXTBEGIN
1070
    73
1070
     1
1070
    44
1040
1.0
1070
    74
1070
     0
1000
MTEXTEND
  0
MTEXT
  5
564D
330
1A
100
AcDbEntity
  8
SUNPOU
100
AcDbMText
 10
110762.5405672062
 20
108876.8596487981
 30
0.0
 40
3.5
 41
0.0
 71
     9
 72
     5
  1

1001
ACAD
1000
MTEXTBEGIN
1070
    73
1070
     1
1070
    44
1040
1.0
1070
    74
1070
     0
1000
MTEXTEND
  0
MTEXT
  5
564E
330
1A
100
AcDbEntity
  8
SUNPOU
100
AcDbMText
 10
76303.05507956816
 20
68695.31179059812
 30
0.0
 40
10.5
 41
0.0
 71
     9
 72
     5
  1

1001
ACAD
1000
MTEXTBEGIN
1070
    73
1070
     1
1070
    44
1040
1.0
1070
    74
1070
     0
1000
MTEXTEND
  0
MTEXT
  5
564F
330
1A
100
AcDbEntity
  8
SUNPOU
100
AcDbMText
 10
79026.36128373271
 20
69099.99348217918
 30
0.0
 40
3.5
 41
0.0
 71
     9
 72
     5
  1

1001
ACAD
1000
MTEXTBEGIN
1070
    73
1070
     1
1070
    44
1040
1.0
1070
    74
1070
     0
1000
MTEXTEND
  0
MTEXT
  5
5650
330
1A
100
AcDbEntity
  8
SUNPOU
100
AcDbMText
 10
78234.00675862522
 20
65938.68764412436
 30
0.0
 40
10.5
 41
0.0
 71
     9
 72
     5
  1

1001
ACAD
1000
MTEXTBEGIN
1070
    73
1070
     1
1070
    44
1040
1.0
1070
    74
1070
     0
1000
MTEXTEND
  0
MTEXT
  5
5651
330
1A
100
AcDbEntity
  8
SUNPOU
100
AcDbMText
 10
80177.41400533465
 20
64137.63856424636
 30
0.0
 40
3.5
 41
0.0
 71
     9
 72
     5
  1

1001
ACAD
1000
MTEXTBEGIN
1070
    73
1070
     1
1070
    44
1040
1.0
1070
    74
1070
     0
1000
MTEXTEND
  0
MTEXT
  5
5652
330
1A
100
AcDbEntity
  8
SUNPOU
100
AcDbMText
 10
80122.50949592123
 20
64024.86668196205
 30
0.0
 40
3.5
 41
0.0
 71
     9
 72
     5
  1

1001
ACAD
1000
MTEXTBEGIN
1070
    73
1070
     1
1070
    44
1040
1.0
1070
    74
1070
     0
1000
MTEXTEND
  0
MTEXT
  5
5653
330
1A
100
AcDbEntity
  8
SUNPOU
100
AcDbMText
 10
79486.58135950133
 20
63213.54544089553
 30
0.0
 40
3.5
 41
0.0
 71
     9
 72
     5
  1

1001
ACAD
1000
MTEXTBEGIN
1070
    73
1070
     1
1070
    44
1040
1.0
1070
    74
1070
     0
1000
MTEXTEND
  0
MTEXT
  5
5654
330
1A
100
AcDbEntity
  8
SUNPOU
100
AcDbMText
 10
79485.3409400806
 20
63213.29746395804
 30
0.0
 40
10.5
 41
0.0
 71
     9
 72
     5
  1

1001
ACAD
1000
MTEXTBEGIN
1070
    73
1070
     1
1070
    44
1040
1.0
1070
    74
1070
     0
1000
MTEXTEND
  0
MTEXT
  5
5655
330
1A
100
AcDbEntity
  8
SUNPOU
100
AcDbMText
 10
85473.63363627567
 20
80747.76348077064
 30
0.0
 40
10.5
 41
0.0
 71
     9
 72
     5
  1

1001
ACAD
1000
MTEXTBEGIN
1070
    73
1070
     1
1070
    44
1040
1.0
1070
    74
1070
     0
1000
MTEXTEND
  0
MTEXT
  5
5656
330
1A
100
AcDbEntity
  8
SUNPOU
100
AcDbMText
 10
94195.80120219368
 20
88163.59801230809
 30
0.0
 40
10.5
 41
0.0
 71
     9
 72
     5
  1

1001
ACAD
1000
MTEXTBEGIN
1070
    73
1070
     1
1070
    44
1040
1.0
1070
    74
1070
     0
1000
MTEXTEND
  0
MTEXT
  5
5657
330
1A
100
AcDbEntity
  8
SUNPOU
100
AcDbMText
 10
113149.5599195236
 20
105630.1740648001
 30
0.0
 40
10.5
 41
0.0
 71
     9
 72
     5
  1

1001
ACAD
1000
MTEXTBEGIN
1070
    73
1070
     1
1070
    44
1040
1.0
1070
    74
1070
     0
1000
MTEXTEND
  0
MTEXT
  5
5658
330
1A
100
AcDbEntity
  8
SUNPOU
100
AcDbMText
 10
115092.967166233
 20
103829.1249849221
 30
0.0
 40
3.5
 41
0.0
 71
     9
 72
     5
  1

1001
ACAD
1000
MTEXTBEGIN
1070
    73
1070
     1
1070
    44
1040
1.0
1070
    74
1070
     0
1000
MTEXTEND
  0
MTEXT
  5
5659
330
1A
100
AcDbEntity
  8
SUNPOU
100
AcDbMText
 10
146219.1469988527
 20
146324.0706525794
 30
0.0
 40
10.5
 41
0.0
 71
     9
 72
     5
  1

1001
ACAD
1000
MTEXTBEGIN
1070
    73
1070
     1
1070
    44
1040
1.0
1070
    74
1070
     0
1000
MTEXTEND
  0
MTEXT
  5
565A
330
1A
100
AcDbEntity
  8
SUNPOU
100
AcDbMText
 10
148162.5542455621
 20
144523.0215727014
 30
0.0
 40
3.5
 41
0.0
 71
     9
 72
     5
  1

1001
ACAD
1000
MTEXTBEGIN
1070
    73
1070
     1
1070
    44
1040
1.0
1070
    74
1070
     0
1000
MTEXTEND
  0
MTEXT
  5
565B
330
1A
100
AcDbEntity
  8
SUNPOU
100
AcDbMText
 10
96659.41470464833
 20
92157.23580755453
 30
0.0
 40
10.5
 41
0.0
 71
     9
 72
     5
  1

1001
ACAD
1000
MTEXTBEGIN
1070
    73
1070
     1
1070
    44
1040
1.0
1070
    74
1070
     0
1000
MTEXTEND
  0
MTEXT
  5
565C
330
1A
100
AcDbEntity
  8
SUNPOU
100
AcDbMText
 10
82711.41460427234
 20
72984.83666844234
 30
0.0
 40
3.5
 41
0.0
 71
     7
 72
     5
  1

1001
ACAD
1000
MTEXTBEGIN
1070
    73
1070
     1
1070
    44
1040
1.0
1070
    74
1070
     0
1000
MTEXTEND
  0
MTEXT
  5
565D
330
1A
100
AcDbEntity
  8
SUNPOU
100
AcDbMText
 10
63696.58400126548
 20
60746.98539926055
 30
0.0
 40
10.5
 41
0.0
 71
     7
 72
     5
  1

1001
ACAD
1000
MTEXTBEGIN
1070
    73
1070
     1
1070
    44
1040
1.0
1070
    74
1070
     0
1000
MTEXTEND
  0
MTEXT
  5
565E
330
1A
100
AcDbEntity
  8
SUNPOU
100
AcDbMText
 10
51239.35573631738
 20
44902.05382116213
 30
0.0
 40
35.0
 41
0.0
 71
     9
 72
     5
  1

1001
ACAD
1000
MTEXTBEGIN
1070
    73
1070
     1
1070
    44
1040
1.0
1070
    74
1070
     0
1000
MTEXTEND
  0
MTEXT
  5
565F
330
1A
100
AcDbEntity
  8
SUNPOU
100
AcDbMText
 10
50147.84079389233
 20
45510.82923121084
 30
0.0
 40
350.0000004171781
 41
0.0
 71
     7
 72
     5
  1

1001
ACAD
1000
MTEXTBEGIN
1070
    73
1070
     1
1070
    44
1040
1.0
1070
    74
1070
     0
1000
MTEXTEND
  0
MTEXT
  5
5660
330
1A
100
AcDbEntity
  8
0
100
AcDbMText
 10
56191.79155183523
 20
43490.75159334705
 30
0.0
 40
8.0
 41
0.0
 71
     7
 72
     5
  1

1001
ACAD
1000
MTEXTBEGIN
1070
    73
1070
     1
1070
    44
1040
1.0
1070
    74
1070
     0
1000
MTEXTEND
  0
MTEXT
  5
5661
330
1A
100
AcDbEntity
  8
0
100
AcDbMText
 10
58477.14924173013
 20
44461.54188809812
 30
0.0
 40
8.0
 41
0.0
 71
     7
 72
     5
  1

1001
ACAD
1000
MTEXTBEGIN
1070
    73
1070
     1
1070
    44
1040
1.0
1070
    74
1070
     0
1000
MTEXTEND
  0
MTEXT
  5
5662
330
1A
100
AcDbEntity
  8
SUNPOU
100
AcDbMText
 10
61143.04626241227
 20
53973.65328047324
 30
0.0
 40
10.5
 41
0.0
 71
     1
 72
     5
  1

1001
ACAD
1000
MTEXTBEGIN
1070
    73
1070
     1
1070
    44
1040
1.0
1070
    74
1070
     0
1000
MTEXTEND
  0
MTEXT
  5
5663
330
1A
100
AcDbEntity
  8
SUNPOU
100
AcDbMText
 10
53212.12306647634
 20
53026.86014656028
 30
0.0
 40
10.5
 41
0.0
 71
     7
 72
     5
  1

1001
ACAD
1000
MTEXTBEGIN
1070
    73
1070
     1
1070
    44
1040
1.0
1070
    74
1070
     0
1000
MTEXTEND
  0
MTEXT
  5
5664
330
1A
100
AcDbEntity
  8
SUNPOU
100
AcDbMText
 10
56161.1067309891
 20
57927.53621840312
 30
0.0
 40
10.5
 41
0.0
 71
     7
 72
     5
  1

1001
ACAD
1000
MTEXTBEGIN
1070
    73
1070
     1
1070
    44
1040
1.0
1070
    74
1070
     0
1000
MTEXTEND
  0
MTEXT
  5
5665
330
1A
100
AcDbEntity
  8
SUNPOU
100
AcDbMText
 10
60670.18485893966
 20
60363.8369660232
 30
0.0
 40
10.5
 41
0.0
 71
     7
 72
     5
  1

1001
ACAD
1000
MTEXTBEGIN
1070
    73
1070
     1
1070
    44
1040
1.0
1070
    74
1070
     0
1000
MTEXTEND
  0
MTEXT
  5
5666
330
1A
100
AcDbEntity
  8
SUNPOU
100
AcDbMText
 10
44271.02274570799
 20
39361.43311641212
 30
0.0
 40
10.5
 41
0.0
 71
     7
 72
     5
  1

1001
ACAD
1000
MTEXTBEGIN
1070
    73
1070
     1
1070
    44
1040
1.0
1070
    74
1070
     0
1000
MTEXTEND
  0
MTEXT
  5
5667
330
1A
100
AcDbEntity
  8
SUNPOU
100
AcDbMText
 10
95462.54117960824
 20
85034.41368006038
 30
0.0
 40
10.5
 41
0.0
 71
     9
 72
     5
  1

1001
ACAD
1000
MTEXTBEGIN
1070
    73
1070
     1
1070
    44
1040
1.0
1070
    74
1070
     0
1000
MTEXTEND
  0
MTEXT
  5
5668
330
1A
100
AcDbEntity
  8
SUNPOU
100
AcDbMText
 10
104184.7087455262
 20
92450.24821159784
 30
0.0
 40
10.5
 41
0.0
 71
     9
 72
     5
  1

1001
ACAD
1000
MTEXTBEGIN
1070
    73
1070
     1
1070
    44
1040
1.0
1070
    74
1070
     0
1000
MTEXTEND
  0
MTEXT
  5
5669
330
1A
100
AcDbEntity
  8
SUNPOU
100
AcDbMText
 10
123138.4674628562
 20
109916.8242640898
 30
0.0
 40
10.5
 41
0.0
 71
     9
 72
     5
  1

1001
ACAD
1000
MTEXTBEGIN
1070
    73
1070
     1
1070
    44
1040
1.0
1070
    74
1070
     0
1000
MTEXTEND
  0
MTEXT
  5
566A
330
1A
100
AcDbEntity
  8
SUNPOU
100
AcDbMText
 10
125081.8747095656
 20
108115.7751842118
 30
0.0
 40
3.5
 41
0.0
 71
     9
 72
     5
  1

1001
ACAD
1000
MTEXTBEGIN
1070
    73
1070
     1
1070
    44
1040
1.0
1070
    74
1070
     0
1000
MTEXTEND
  0
MTEXT
  5
566B
330
1A
100
AcDbEntity
  8
SUNPOU
100
AcDbMText
 10
156208.0545421853
 20
150610.7208518691
 30
0.0
 40
10.5
 41
0.0
 71
     9
 72
     5
  1

1001
ACAD
1000
MTEXTBEGIN
1070
    73
1070
     1
1070
    44
1040
1.0
1070
    74
1070
     0
1000
MTEXTEND
  0
MTEXT
  5
566C
330
1A
100
AcDbEntity
  8
SUNPOU
100
AcDbMText
 10
158151.4617888947
 20
148809.6717719911
 30
0.0
 40
3.5
 41
0.0
 71
     9
 72
     5
  1

1001
ACAD
1000
MTEXTBEGIN
1070
    73
1070
     1
1070
    44
1040
1.0
1070
    74
1070
     0
1000
MTEXTEND
  0
MTEXT
  5
566D
330
1A
100
AcDbEntity
  8
SUNPOU
100
AcDbMText
 10
106648.3222479809
 20
96443.88600684427
 30
0.0
 40
10.5
 41
0.0
 71
     9
 72
     5
  1

1001
ACAD
1000
MTEXTBEGIN
1070
    73
1070
     1
1070
    44
1040
1.0
1070
    74
1070
     0
1000
MTEXTEND
  0
MTEXT
  5
566E
330
1A
100
AcDbEntity
  8
SUNPOU
100
AcDbMText
 10
92700.3221476049
 20
77271.48686773207
 30
0.0
 40
3.5
 41
0.0
 71
     7
 72
     5
  1

1001
ACAD
1000
MTEXTBEGIN
1070
    73
1070
     1
1070
    44
1040
1.0
1070
    74
1070
     0
1000
MTEXTEND
  0
MTEXT
  5
566F
330
1A
100
AcDbEntity
  8
SUNPOU
100
AcDbMText
 10
73685.49154459806
 20
65033.63559855027
 30
0.0
 40
10.5
 41
0.0
 71
     7
 72
     5
  1

1001
ACAD
1000
MTEXTBEGIN
1070
    73
1070
     1
1070
    44
1040
1.0
1070
    74
1070
     0
1000
MTEXTEND
  0
MTEXT
  5
5670
330
1A
100
AcDbEntity
  8
SUNPOU
100
AcDbMText
 10
61228.26327964995
 20
49188.70402045185
 30
0.0
 40
35.0
 41
0.0
 71
     9
 72
     5
  1

1001
ACAD
1000
MTEXTBEGIN
1070
    73
1070
     1
1070
    44
1040
1.0
1070
    74
1070
     0
1000
MTEXTEND
  0
MTEXT
  5
5671
330
1A
100
AcDbEntity
  8
SUNPOU
100
AcDbMText
 10
60136.74833722491
 20
49797.47943050056
 30
0.0
 40
350.0000004171781
 41
0.0
 71
     7
 72
     5
  1

1001
ACAD
1000
MTEXTBEGIN
1070
    73
1070
     1
1070
    44
1040
1.0
1070
    74
1070
     0
1000
MTEXTEND
  0
MTEXT
  5
5672
330
1A
100
AcDbEntity
  8
0
100
AcDbMText
 10
66180.69909516782
 20
47777.40179263678
 30
0.0
 40
8.0
 41
0.0
 71
     7
 72
     5
  1

1001
ACAD
1000
MTEXTBEGIN
1070
    73
1070
     1
1070
    44
1040
1.0
1070
    74
1070
     0
1000
MTEXTEND
  0
MTEXT
  5
5673
330
1A
100
AcDbEntity
  8
0
100
AcDbMText
 10
68466.05678506271
 20
48748.19208738784
 30
0.0
 40
8.0
 41
0.0
 71
     7
 72
     5
  1

1001
ACAD
1000
MTEXTBEGIN
1070
    73
1070
     1
1070
    44
1040
1.0
1070
    74
1070
     0
1000
MTEXTEND
  0
MTEXT
  5
5674
330
1A
100
AcDbEntity
  8
SUNPOU
100
AcDbMText
 10
71131.95380574485
 20
58260.30347976296
 30
0.0
 40
10.5
 41
0.0
 71
     1
 72
     5
  1

1001
ACAD
1000
MTEXTBEGIN
1070
    73
1070
     1
1070
    44
1040
1.0
1070
    74
1070
     0
1000
MTEXTEND
  0
MTEXT
  5
5675
330
1A
100
AcDbEntity
  8
SUNPOU
100
AcDbMText
 10
63201.03060980891
 20
57313.51034585002
 30
0.0
 40
10.5
 41
0.0
 71
     7
 72
     5
  1

1001
ACAD
1000
MTEXTBEGIN
1070
    73
1070
     1
1070
    44
1040
1.0
1070
    74
1070
     0
1000
MTEXTEND
  0
MTEXT
  5
5676
330
1A
100
AcDbEntity
  8
SUNPOU
100
AcDbMText
 10
66150.01427432169
 20
62214.18641769286
 30
0.0
 40
10.5
 41
0.0
 71
     7
 72
     5
  1

1001
ACAD
1000
MTEXTBEGIN
1070
    73
1070
     1
1070
    44
1040
1.0
1070
    74
1070
     0
1000
MTEXTEND
  0
MTEXT
  5
5677
330
1A
100
AcDbEntity
  8
SUNPOU
100
AcDbMText
 10
70659.09240227225
 20
64650.48716531294
 30
0.0
 40
10.5
 41
0.0
 71
     7
 72
     5
  1

1001
ACAD
1000
MTEXTBEGIN
1070
    73
1070
     1
1070
    44
1040
1.0
1070
    74
1070
     0
1000
MTEXTEND
  0
MTEXT
  5
5678
330
1A
100
AcDbEntity
  8
SUNPOU
100
AcDbMText
 10
54259.93028904056
 20
43648.08331570185
 30
0.0
 40
10.5
 41
0.0
 71
     7
 72
     5
  1

1001
ACAD
1000
MTEXTBEGIN
1070
    73
1070
     1
1070
    44
1040
1.0
1070
    74
1070
     0
1000
MTEXTEND
  0
MTEXT
  5
5679
330
1A
100
AcDbEntity
  8
SUNPOU
100
AcDbMText
 10
56070.69320041551
 20
49975.4973031804
 30
0.0
 40
10.5
 41
0.0
 71
     9
 72
     5
  1

1001
ACAD
1000
MTEXTBEGIN
1070
    73
1070
     1
1070
    44
1040
1.0
1070
    74
1070
     0
1000
MTEXTEND
  0
MTEXT
  5
567A
330
1A
100
AcDbEntity
  8
SUNPOU
100
AcDbMText
 10
64792.86076633348
 20
57391.33183471788
 30
0.0
 40
10.5
 41
0.0
 71
     9
 72
     5
  1

1001
ACAD
1000
MTEXTBEGIN
1070
    73
1070
     1
1070
    44
1040
1.0
1070
    74
1070
     0
1000
MTEXTEND
  0
MTEXT
  5
567B
330
1A
100
AcDbEntity
  8
SUNPOU
100
AcDbMText
 10
83746.61948366345
 20
74857.90788720994
 30
0.0
 40
10.5
 41
0.0
 71
     9
 72
     5
  1

1001
ACAD
1000
MTEXTBEGIN
1070
    73
1070
     1
1070
    44
1040
1.0
1070
    74
1070
     0
1000
MTEXTEND
  0
MTEXT
  5
567C
330
1A
100
AcDbEntity
  8
SUNPOU
100
AcDbMText
 10
85690.02673037287
 20
73056.85880733192
 30
0.0
 40
3.5
 41
0.0
 71
     9
 72
     5
  1

1001
ACAD
1000
MTEXTBEGIN
1070
    73
1070
     1
1070
    44
1040
1.0
1070
    74
1070
     0
1000
MTEXTEND
  0
MTEXT
  5
567D
330
1A
100
AcDbEntity
  8
SUNPOU
100
AcDbMText
 10
116816.2065629925
 20
115551.8044749892
 30
0.0
 40
10.5
 41
0.0
 71
     9
 72
     5
  1

1001
ACAD
1000
MTEXTBEGIN
1070
    73
1070
     1
1070
    44
1040
1.0
1070
    74
1070
     0
1000
MTEXTEND
  0
MTEXT
  5
567E
330
1A
100
AcDbEntity
  8
SUNPOU
100
AcDbMText
 10
118759.613809702
 20
113750.7553951112
 30
0.0
 40
3.5
 41
0.0
 71
     9
 72
     5
  1

1001
ACAD
1000
MTEXTBEGIN
1070
    73
1070
     1
1070
    44
1040
1.0
1070
    74
1070
     0
1000
MTEXTEND
  0
MTEXT
  5
567F
330
1A
100
AcDbEntity
  8
SUNPOU
100
AcDbMText
 10
67256.47426878814
 20
61384.96962996432
 30
0.0
 40
10.5
 41
0.0
 71
     9
 72
     5
  1

1001
ACAD
1000
MTEXTBEGIN
1070
    73
1070
     1
1070
    44
1040
1.0
1070
    74
1070
     0
1000
MTEXTEND
  0
MTEXT
  5
5680
330
1A
100
AcDbEntity
  8
SUNPOU
100
AcDbMText
 10
53308.47416841216
 20
42212.57049085211
 30
0.0
 40
3.5
 41
0.0
 71
     7
 72
     5
  1

1001
ACAD
1000
MTEXTBEGIN
1070
    73
1070
     1
1070
    44
1040
1.0
1070
    74
1070
     0
1000
MTEXTEND
  0
MTEXT
  5
5681
330
1A
100
AcDbEntity
  8
SUNPOU
100
AcDbMText
 10
67000.82485118274
 20
51571.63371187345
 30
0.0
 40
10.5
 41
0.0
 71
     9
 72
     5
  1

1001
ACAD
1000
MTEXTBEGIN
1070
    73
1070
     1
1070
    44
1040
1.0
1070
    74
1070
     0
1000
MTEXTEND
  0
MTEXT
  5
5682
330
1A
100
AcDbEntity
  8
SUNPOU
100
AcDbMText
 10
75722.99241710071
 20
58987.46824341094
 30
0.0
 40
10.5
 41
0.0
 71
     9
 72
     5
  1

1001
ACAD
1000
MTEXTBEGIN
1070
    73
1070
     1
1070
    44
1040
1.0
1070
    74
1070
     0
1000
MTEXTEND
  0
MTEXT
  5
5683
330
1A
100
AcDbEntity
  8
SUNPOU
100
AcDbMText
 10
94676.75113443068
 20
76454.04429590299
 30
0.0
 40
10.5
 41
0.0
 71
     9
 72
     5
  1

1001
ACAD
1000
MTEXTBEGIN
1070
    73
1070
     1
1070
    44
1040
1.0
1070
    74
1070
     0
1000
MTEXTEND
  0
MTEXT
  5
5684
330
1A
100
AcDbEntity
  8
SUNPOU
100
AcDbMText
 10
96620.1583811401
 20
74652.99521602498
 30
0.0
 40
3.5
 41
0.0
 71
     9
 72
     5
  1

1001
ACAD
1000
MTEXTBEGIN
1070
    73
1070
     1
1070
    44
1040
1.0
1070
    74
1070
     0
1000
MTEXTEND
  0
MTEXT
  5
5685
330
1A
100
AcDbEntity
  8
SUNPOU
100
AcDbMText
 10
127746.3382137598
 20
117147.9408836823
 30
0.0
 40
10.5
 41
0.0
 71
     9
 72
     5
  1

1001
ACAD
1000
MTEXTBEGIN
1070
    73
1070
     1
1070
    44
1040
1.0
1070
    74
1070
     0
1000
MTEXTEND
  0
MTEXT
  5
5686
330
1A
100
AcDbEntity
  8
SUNPOU
100
AcDbMText
 10
129689.7454604692
 20
115346.8918038043
 30
0.0
 40
3.5
 41
0.0
 71
     9
 72
     5
  1

1001
ACAD
1000
MTEXTBEGIN
1070
    73
1070
     1
1070
    44
1040
1.0
1070
    74
1070
     0
1000
MTEXTEND
  0
MTEXT
  5
5687
330
1A
100
AcDbEntity
  8
SUNPOU
100
AcDbMText
 10
78186.60591955537
 20
62981.10603865738
 30
0.0
 40
10.5
 41
0.0
 71
     9
 72
     5
  1

1001
ACAD
1000
MTEXTBEGIN
1070
    73
1070
     1
1070
    44
1040
1.0
1070
    74
1070
     0
1000
MTEXTEND
  0
MTEXT
  5
5688
330
1A
100
AcDbEntity
  8
SUNPOU
100
AcDbMText
 10
64238.60581917939
 20
43808.70689954517
 30
0.0
 40
3.5
 41
0.0
 71
     7
 72
     5
  1

1001
ACAD
1000
MTEXTBEGIN
1070
    73
1070
     1
1070
    44
1040
1.0
1070
    74
1070
     0
1000
MTEXTEND
  0
MTEXT
  5
5689
330
1A
100
AcDbEntity
  8
SUNPOU
100
AcDbMText
 10
33428.13481137435
 20
32770.04710035564
 30
0.0
 40
10.5
 41
0.0
 71
     9
 72
     5
  1

1001
ACAD
1000
MTEXTBEGIN
1070
    73
1070
     1
1070
    44
1040
1.0
1070
    74
1070
     0
1000
MTEXTEND
  0
MTEXT
  5
568A
330
1A
100
AcDbEntity
  8
SUNPOU
100
AcDbMText
 10
52381.89352870432
 20
50236.62315284769
 30
0.0
 40
10.5
 41
0.0
 71
     9
 72
     5
  1

1001
ACAD
1000
MTEXTBEGIN
1070
    73
1070
     1
1070
    44
1040
1.0
1070
    74
1070
     0
1000
MTEXTEND
  0
MTEXT
  5
568B
330
1A
100
AcDbEntity
  8
SUNPOU
100
AcDbMText
 10
54325.30077541374
 20
48435.57407296968
 30
0.0
 40
3.5
 41
0.0
 71
     9
 72
     5
  1

1001
ACAD
1000
MTEXTBEGIN
1070
    73
1070
     1
1070
    44
1040
1.0
1070
    74
1070
     0
1000
MTEXTEND
  0
MTEXT
  5
568C
330
1A
100
AcDbEntity
  8
SUNPOU
100
AcDbMText
 10
85451.48060803343
 20
90930.51974062703
 30
0.0
 40
10.5
 41
0.0
 71
     9
 72
     5
  1

1001
ACAD
1000
MTEXTBEGIN
1070
    73
1070
     1
1070
    44
1040
1.0
1070
    74
1070
     0
1000
MTEXTEND
  0
MTEXT
  5
568D
330
1A
100
AcDbEntity
  8
SUNPOU
100
AcDbMText
 10
87394.88785474286
 20
89129.47066074901
 30
0.0
 40
3.5
 41
0.0
 71
     9
 72
     5
  1

1001
ACAD
1000
MTEXTBEGIN
1070
    73
1070
     1
1070
    44
1040
1.0
1070
    74
1070
     0
1000
MTEXTEND
  0
MTEXT
  5
568E
330
1A
100
AcDbEntity
  8
SUNPOU
100
AcDbMText
 10
35891.74831382901
 20
36763.68489560208
 30
0.0
 40
10.5
 41
0.0
 71
     9
 72
     5
  1

1001
ACAD
1000
MTEXTBEGIN
1070
    73
1070
     1
1070
    44
1040
1.0
1070
    74
1070
     0
1000
MTEXTEND
  0
MTEXT
  5
568F
330
1A
100
AcDbEntity
  8
SUNPOU
100
AcDbMText
 10
21943.74821345303
 20
17591.28575648986
 30
0.0
 40
3.5
 41
0.0
 71
     7
 72
     5
  1

1001
ACAD
1000
MTEXTBEGIN
1070
    73
1070
     1
1070
    44
1040
1.0
1070
    74
1070
     0
1000
MTEXTEND
  0
MTEXT
  5
11D07
330
1A
100
AcDbEntity
  8
ZISSEN1
100
AcDbMText
 10
-1574.910583961856
 20
1684.258577755062
 30
0.0
 40
5.0
 41
144.9620025476898
 71
     1
 72
     5
  1
CB-52/3232-MIL　No.SS0001f71
1001
ACAD
1000
MTEXTBEGIN
1070
    73
1070
     1
1070
    44
1040
1.0
1070
    74
1070
     0
1000
MTEXTEND
  0
MTEXT
  5
1495F
330
1A
100
AcDbEntity
  8
ZISSEN1
  6
BYBLOCK
100
AcDbMText
 10
-1511.012697495121
 20
1619.556326745091
 30
0.0
 40
3.0
 41
28.41066376571898
 71
     1
 72
     5
  1
{\fＭＳ ゴシック|b0|i0|c128|p49;2-M3}
  7
ｽﾀｲﾙ2
1001
ACAD
1000
MTEXTBEGIN
1070
    73
1070
     1
1070
    44
1040
1.0
1070
    74
1070
     0
1000
MTEXTEND
  0
MTEXT
  5
14960
330
1A
100
AcDbEntity
  8
ZISSEN1
  6
BYBLOCK
100
AcDbMText
 10
-1439.944289979493
 20
1612.479796983127
 30
0.0
 40
3.0
 41
28.41066376571898
 71
     1
 72
     5
  1
{\fＭＳ ゴシック|b0|i0|c128|p49;(USER取付寸法)}
  7
ｽﾀｲﾙ2
1001
ACAD
1000
MTEXTBEGIN
1070
    73
1070
     1
1070
    44
1040
1.0
1070
    74
1070
     0
1000
MTEXTEND
  0
MTEXT
  5
14961
330
1A
100
AcDbEntity
  8
ZISSEN1
  6
BYBLOCK
100
AcDbMText
 10
-1380.426504255514
 20
1592.990195717233
 30
0.0
 40
3.0
 41
28.41066376571898
 71
     1
 72
     5
  1
{\fＭＳ ゴシック|b0|i0|c128|p49;(USER取付寸法)}
  7
ｽﾀｲﾙ2
 11
0.0000000000000006
 21
1.0
 31
0.0
1001
ACAD
1000
MTEXTBEGIN
1070
    73
1070
     1
1070
    44
1040
1.0
1070
    74
1070
     0
1000
MTEXTEND
  0
DIMENSION
  5
1496C
330
1A
100
AcDbEntity
  8
SUNPOU
100
AcDbDimension
  2
*D0
 10
-1385.570332560568
 20
1500.0
 30
0.0
 11
-1387.945332560568
 21
1529.999999999999
 31
0.0
 70
    32
  3
ISO-25
100
AcDbAlignedDimension
 13
-1398.5
 23
1560.0
 33
0.0
 14
-1391.0
 24
1500.0
 34
0.0
 50
270.0
100
AcDbRotatedDimension
1001
ACAD
1000
DSTYLE
1002
{
1070
   140
1040
3.5
1070
   176
1070
     0
1070
   177
1070
     0
1070
   178
1070
     0
1002
}
  0
DIMENSION
  5
1496D
330
1A
100
AcDbEntity
  8
SUNPOU
100
AcDbDimension
  2
*D1
 10
-1494.499993094057
 20
1580.061239774762
 30
0.0
 11
-1446.549287585805
 21
1582.436239774762
 31
0.0
 70
    32
  1
96
  3
ISO-25
100
AcDbAlignedDimension
 13
-1398.598582077553
 23
1560.000000000001
 33
0.0
 14
-1494.499993094057
 24
1560.0
 34
0.0
100
AcDbRotatedDimension
1001
ACAD
1000
DSTYLE
1002
{
1070
   140
1040
3.5
1070
   176
1070
     0
1070
   177
1070
     0
1070
   178
1070
     0
1002
}
  0
DIMENSION
  5
1496E
330
1A
100
AcDbEntity
  8
SUNPOU
100
AcDbDimension
  2
*D2
 10
-1377.996124815017
 20
1500.0
 30
0.0
 11
-1380.371124815017
 21
1536.999999999999
 31
0.0
 70
    32
  1
74
  3
ISO-25
100
AcDbAlignedDimension
 13
-1399.914313367521
 23
1574.0
 33
0.0
 14
-1391.0
 24
1500.0
 34
0.0
 50
270.0
100
AcDbRotatedDimension
1001
ACAD
1000
DSTYLE
1002
{
1070
   140
1040
3.5
1070
   176
1070
     0
1070
   177
1070
     0
1070
   178
1070
     0
1002
}
  0
DIMENSION
  5
14989
330
1A
100
AcDbEntity
  8
SUNPOU
100
AcDbDimension
  2
*D3
 10
-1495.499906451246
 20
1665.470637893905
 30
0.0
 11
-1445.999959904218
 21
1667.845637893905
 31
0.0
 70
    32
  3
ISO-25
100
AcDbAlignedDimension
 13
-1396.500013357189
 23
1648.999916936575
 33
0.0
 14
-1495.499906451246
 24
1650.699916936579
 34
0.0
100
AcDbRotatedDimension
1001
ACAD
1000
DSTYLE
1002
{
1070
   140
1040
3.5
1070
   177
1070
     0
1070
   176
1070
     0
1070
   178
1070
     0
1002
}
  0
DIMENSION
  5
1498A
330
1A
100
AcDbEntity
  8
SUNPOU
100
AcDbDimension
  2
*D4
 10
-1383.621488775898
 20
1624.249997370904
 30
0.0
 11
-1385.996488775898
 21
1615.124997370904
 31
0.0
 70
    32
  3
ISO-25
100
AcDbAlignedDimension
 13
-1390.999906451246
 23
1627.749997370904
 33
0.0
 14
-1390.999906451246
 24
1624.249997370904
 34
0.0
 50
270.0
100
AcDbRotatedDimension
1001
ACAD
1000
DSTYLE
1002
{
1070
   140
1040
3.5
1070
   176
1070
     0
1070
   177
1070
     0
1070
   178
1070
     0
1002
}
  0
DIMENSION
  5
1498B
330
1A
100
AcDbEntity
  8
SUNPOU
100
AcDbDimension
  2
*D5
 10
-1376.817572181092
 20
1619.999962631825
 30
0.0
 11
-1376.817572181093
 21
1622.999980001364
 31
0.0
 70
   160
  3
ISO-25
100
AcDbAlignedDimension
 13
-1395.999906451244
 23
1625.999997370903
 33
0.0
 14
-1391.999941190324
 24
1619.999962631825
 34
0.0
 50
270.0
100
AcDbRotatedDimension
1001
ACAD
1000
DSTYLE
1002
{
1070
   140
1040
3.5
1070
   176
1070
     0
1070
   177
1070
     0
1070
   178
1070
     0
1002
}
  0
DIMENSION
  5
1498C
330
1A
100
AcDbEntity
  8
SUNPOU
100
AcDbDimension
  2
*D6
 10
-1499.999906451246
 20
1598.796256863429
 30
0.0
 11
-1445.499906451246
 21
1601.171256863429
 31
0.0
 70
    32
  3
ISO-25
100
AcDbAlignedDimension
 13
-1390.999906451246
 23
1620.999997370904
 33
0.0
 14
-1499.999906451246
 24
1620.999997370904
 34
0.0
100
AcDbRotatedDimension
1001
ACAD
1000
DSTYLE
1002
{
1070
   140
1040
3.5
1070
   176
1070
     0
1070
   177
1070
     0
1070
   178
1070
     0
1002
}
  0
DIMENSION
  5
1498F
330
1A
100
AcDbEntity
  8
SUNPOU
100
AcDbDimension
  2
*D7
 10
-1370.926548933827
 20
1619.999962631825
 30
0.0
 11
-1370.926548933827
 21
1638.2499397842
 31
0.0
 70
   160
  3
ISO-25
100
AcDbAlignedDimension
 13
-1399.910437938511
 23
1656.499916936575
 33
0.0
 14
-1398.499906451246
 24
1619.999962631825
 34
0.0
 50
270.0
100
AcDbRotatedDimension
1001
ACAD
1000
DSTYLE
1002
{
1070
   140
1040
3.5
1070
   176
1070
     0
1070
   177
1070
     0
1070
   178
1070
     0
1002
}
  0
LINE
  5
14990
330
1A
100
AcDbEntity
  8
ZISSEN1
100
AcDbLine
 10
-1365.0
 20
1500.0
 30
0.0
 11
-1332.999999999998
 21
1500.0
 31
0.0
  0
LINE
  5
14991
330
1A
100
AcDbEntity
  8
ZISSEN1
100
AcDbLine
 10
-1500.0
 20
1500.0
 30
0.0
 11
-1391.0
 21
1500.0
 31
0.0
  0
LINE
  5
14992
330
1A
100
AcDbEntity
  8
ZISSEN1
100
AcDbLine
 10
-1543.000000000003
 20
1499.999999999999
 30
0.0
 11
-1511.000000000003
 21
1500.0
 31
0.0
  0
LINE
  5
14994
330
1A
100
AcDbEntity
  8
ZISSEN1
100
AcDbLine
 10
-1365.0
 20
1500.0
 30
0.0
 11
-1365.0
 21
1502.0
 31
0.0
  0
LINE
  5
14995
330
1A
100
AcDbEntity
  8
ZISSEN1
100
AcDbLine
 10
-1364.999999999996
 20
1502.0
 30
0.0
 11
-1365.0
 21
1500.0
 31
0.0
  0
ELLIPSE
  5
14996
330
1A
100
AcDbEntity
  8
ZISSEN1
 48
0.4
100
AcDbEllipse
 10
-1365.750160868658
 20
1506.500000000276
 30
0.0
 11
0.0000000000000037
 21
2.75
 31
0.0
210
0.0
220
0.0
230
1.0
 40
0.3090909090909173
 41
6.283185307179586
 42
9.424777960769379
  0
LINE
  5
14997
330
1A
100
AcDbEntity
  8
ZISSEN1
 48
0.4
100
AcDbLine
 10
-1365.750160868658
 20
1509.250000000276
 30
0.0
 11
-1365.000160868658
 21
1509.250000000276
 31
0.0
  0
LINE
  5
14998
330
1A
100
AcDbEntity
  8
ZISSEN1
 48
0.4
100
AcDbLine
 10
-1365.750160868658
 20
1503.750000000276
 30
0.0
 11
-1365.000160868658
 21
1503.750000000276
 31
0.0
  0
LINE
  5
14999
330
1A
100
AcDbEntity
  8
ZISSEN1
100
AcDbLine
 10
-1365.000160868658
 20
1503.750000000276
 30
0.0
 11
-1365.000160868658
 21
1509.250000000276
 31
0.0
  0
ELLIPSE
  5
1499A
330
1A
100
AcDbEntity
  8
ZISSEN1
 48
0.4
100
AcDbEllipse
 10
-1359.95
 20
1506.500000000276
 30
0.0
 11
0.0000000000000037
 21
2.75
 31
0.0
210
0.0
220
0.0
230
1.0
 40
0.3090909090909173
 41
6.283185307179586
 42
9.424777960769379
  0
LINE
  5
1499B
330
1A
100
AcDbEntity
  8
ZISSEN1
 48
0.4
100
AcDbLine
 10
-1359.95
 20
1509.250000000276
 30
0.0
 11
-1359.2
 21
1509.250000000276
 31
0.0
  0
LINE
  5
1499C
330
1A
100
AcDbEntity
  8
ZISSEN1
 48
0.4
100
AcDbLine
 10
-1359.95
 20
1503.750000000276
 30
0.0
 11
-1359.2
 21
1503.750000000276
 31
0.0
  0
LINE
  5
1499D
330
1A
100
AcDbEntity
  8
ZISSEN1
100
AcDbLine
 10
-1359.2
 20
1503.750000000276
 30
0.0
 11
-1359.2
 21
1509.250000000276
 31
0.0
  0
ELLIPSE
  5
1499E
330
1A
100
AcDbEntity
  8
ZISSEN1
 48
0.4
100
AcDbEllipse
 10
-1330.25
 20
1542.5
 30
0.0
 11
-0.0000000000000003
 21
2.75
 31
0.0
210
0.0
220
0.0
230
-1.0
 40
0.3090909090909173
 41
6.283185307179586
 42
9.424777960769379
  0
LINE
  5
1499F
330
1A
100
AcDbEntity
  8
ZISSEN1
 48
0.4
100
AcDbLine
 10
-1330.25
 20
1545.25
 30
0.0
 11
-1331.0
 21
1545.25
 31
0.0
  0
LINE
  5
149A0
330
1A
100
AcDbEntity
  8
ZISSEN1
 48
0.4
100
AcDbLine
 10
-1330.25
 20
1539.75
 30
0.0
 11
-1331.0
 21
1539.75
 31
0.0
  0
LINE
  5
149A1
330
1A
100
AcDbEntity
  8
ZISSEN1
100
AcDbLine
 10
-1331.0
 20
1539.75
 30
0.0
 11
-1331.0
 21
1545.25
 31
0.0
  0
LINE
  5
149A2
330
1A
100
AcDbEntity
  8
ZISSEN1
100
AcDbLine
 10
-1331.0
 20
1503.75
 30
0.0
 11
-1331.0
 21
1509.25
 31
0.0
  0
LINE
  5
149A3
330
1A
100
AcDbEntity
  8
ZISSEN1
 48
0.4
100
AcDbLine
 10
-1330.25
 20
1503.75
 30
0.0
 11
-1331.0
 21
1503.75
 31
0.0
  0
LINE
  5
149A4
330
1A
100
AcDbEntity
  8
ZISSEN1
 48
0.4
100
AcDbLine
 10
-1330.25
 20
1509.25
 30
0.0
 11
-1331.0
 21
1509.25
 31
0.0
  0
ELLIPSE
  5
149A5
330
1A
100
AcDbEntity
  8
ZISSEN1
 48
0.4
100
AcDbEllipse
 10
-1330.25
 20
1506.499999999999
 30
0.0
 11
-0.0000000000000003
 21
2.75
 31
0.0
210
0.0
220
0.0
230
-1.0
 40
0.3090909090909173
 41
6.283185307179586
 42
9.424777960769379
  0
LINE
  5
149A6
330
1A
100
AcDbEntity
  8
ZISSEN1
100
AcDbLine
 10
-1335.0
 20
1545.0
 30
0.0
 11
-1333.0
 21
1545.0
 31
0.0
  0
LINE
  5
149A7
330
1A
100
AcDbEntity
  8
ZISSEN1
100
AcDbLine
 10
-1335.0
 20
1540.0
 30
0.0
 11
-1333.0
 21
1540.0
 31
0.0
  0
LINE
  5
149A8
330
1A
100
AcDbEntity
  8
ZISSEN1
100
AcDbLine
 10
-1333.0
 20
1539.985
 30
0.0
 11
-1333.0
 21
1544.985
 31
0.0
  0
CIRCLE
  5
149A9
330
1A
100
AcDbEntity
  8
出力ｷﾊ_ﾝ
100
AcDbCircle
 10
-1341.300538844017
 20
1507.3
 30
0.0
 40
3.149999999999999
  0
LINE
  5
149AA
330
1A
100
AcDbEntity
  8
ZISSEN1
100
AcDbLine
 10
-1363.700160868658
 20
1523.0
 30
0.0
 11
-1361.200160868658
 21
1523.0
 31
0.0
  0
LINE
  5
149AB
330
1A
100
AcDbEntity
  8
ZISSEN1
100
AcDbLine
 10
-1363.700160868658
 20
1514.0
 30
0.0
 11
-1363.700160868658
 21
1523.0
 31
0.0
  0
LINE
  5
149AC
330
1A
100
AcDbEntity
  8
ZISSEN1
100
AcDbLine
 10
-1363.700160868658
 20
1514.0
 30
0.0
 11
-1362.700160868658
 21
1513.0
 31
0.0
  0
LINE
  5
149B1
330
1A
100
AcDbEntity
  8
ZISSEN1
100
AcDbLine
 10
-1345.100538843744
 20
1504.0
 30
0.0
 11
-1352.80016086866
 21
1504.0
 31
0.0
  0
LINE
  5
149B2
330
1A
100
AcDbEntity
  8
ZISSEN1
100
AcDbLine
 10
-1360.75
 20
1502.0
 30
0.0
 11
-1360.75
 21
1500.0
 31
0.0
  0
LINE
  5
149B3
330
1A
100
AcDbEntity
  8
ZISSEN1
100
AcDbLine
 10
-1364.0
 20
1500.0
 30
0.0
 11
-1364.0
 21
1502.0
 31
0.0
  0
LINE
  5
149B4
330
1A
100
AcDbEntity
  8
ZISSEN1
100
AcDbLine
 10
-1365.0
 20
1500.0
 30
0.0
 11
-1365.0
 21
1502.0
 31
0.0
  0
LINE
  5
149B6
330
1A
100
AcDbEntity
  8
ZISSEN1
100
AcDbLine
 10
-1344.0
 20
1560.5
 30
0.0
 11
-1345.909997000002
 21
1560.5
 31
0.0
  0
LINE
  5
149B7
330
1A
100
AcDbEntity
  8
ZISSEN1
100
AcDbLine
 10
-1344.0
 20
1560.0
 30
0.0
 11
-1344.0
 21
1560.5
 31
0.0
  0
LINE
  5
149B9
330
1A
100
AcDbEntity
  8
ZISSEN1
100
AcDbLine
 10
-1338.600000000002
 20
1560.5
 30
0.0
 11
-1336.690002999999
 21
1560.5
 31
0.0
  0
LINE
  5
149BA
330
1A
100
AcDbEntity
  8
ZISSEN1
100
AcDbLine
 10
-1338.600000000002
 20
1560.0
 30
0.0
 11
-1338.600000000002
 21
1560.5
 31
0.0
  0
LINE
  5
149BB
330
1A
100
AcDbEntity
  8
ZISSEN1
100
AcDbLine
 10
-1365.000160868658
 20
1558.120000000002
 30
0.0
 11
-1365.000160868658
 21
1552.620000000002
 31
0.0
  0
LINE
  5
149BC
330
1A
100
AcDbEntity
  8
ZISSEN1
100
AcDbLine
 10
-1365.900000000001
 20
1563.95
 30
0.0
 11
-1365.900000000001
 21
1555.299999999999
 31
0.0
  0
LINE
  5
149BD
330
1A
100
AcDbEntity
  8
ZISSEN1
100
AcDbLine
 10
-1359.2
 20
1560.0
 30
0.0
 11
-1359.2
 21
1563.95
 31
0.0
  0
LINE
  5
149BE
330
1A
100
AcDbEntity
  8
ZISSEN1
100
AcDbLine
 10
-1357.600000000002
 20
1560.0
 30
0.0
 11
-1357.600000000002
 21
1563.95
 31
0.0
  0
LINE
  5
149C7
330
1A
100
AcDbEntity
  8
ZISSEN1
100
AcDbLine
 10
-1335.0
 20
1500.0
 30
0.0
 11
-1335.0
 21
1549.900000000001
 31
0.0
  0
LINE
  5
149C8
330
1A
100
AcDbEntity
  8
ZISSEN1
100
AcDbLine
 10
-1337.5
 20
1559.2
 30
0.0
 11
-1337.5
 21
1560.0
 31
0.0
  0
LINE
  5
149C9
330
1A
100
AcDbEntity
  8
ZISSEN1
100
AcDbLine
 10
-1359.2
 20
1563.95
 30
0.0
 11
-1366.900000000001
 21
1563.95
 31
0.0
  0
LINE
  5
149CA
330
1A
100
AcDbEntity
  8
ZISSEN1
100
AcDbLine
 10
-1354.399510999999
 20
1560.0
 30
0.0
 11
-1365.000160868658
 21
1560.0
 31
0.0
  0
LINE
  5
149CB
330
1A
100
AcDbEntity
  8
0
  6
CONTINUOUS
 62
     7
100
AcDbLine
 10
-1336.690002999999
 20
1573.910498000001
 30
0.0
 11
-1336.690002999999
 21
1564.410498000001
 31
0.0
  0
LINE
  5
149FC
330
1A
100
AcDbEntity
  8
ZISSEN1
100
AcDbLine
 10
-1357.600000000002
 20
1503.5
 30
0.0
 11
-1357.600000000002
 21
1509.5
 31
0.0
  0
LINE
  5
14A23
330
1A
100
AcDbEntity
  8
0
  6
CONTINUOUS
 62
     7
100
AcDbLine
 10
-1345.909997000002
 20
1573.910498000001
 30
0.0
 11
-1345.909997000002
 21
1564.410498000001
 31
0.0
  0
LINE
  5
14A24
330
1A
100
AcDbEntity
  8
ZISSEN1
100
AcDbLine
 10
-1359.2
 20
1562.95
 30
0.0
 11
-1357.600000000002
 21
1562.95
 31
0.0
  0
LINE
  5
14A25
330
1A
100
AcDbEntity
  8
ZISSEN1
100
AcDbLine
 10
-1359.2
 20
1562.95
 30
0.0
 11
-1357.600000000002
 21
1562.95
 31
0.0
  0
LINE
  5
14A26
330
1A
100
AcDbEntity
  8
ZISSEN1
100
AcDbLine
 10
-1359.2
 20
1504.5
 30
0.0
 11
-1357.600000000002
 21
1504.5
 31
0.0
  0
LINE
  5
14A27
330
1A
100
AcDbEntity
  8
ZISSEN1
100
AcDbLine
 10
-1357.600000000002
 20
1506.116450402089
 30
0.0
 11
-1357.600000000002
 21
1513.0
 31
0.0
  0
LINE
  5
14A28
330
1A
100
AcDbEntity
  8
ZISSEN1
100
AcDbLine
 10
-1359.2
 20
1563.95
 30
0.0
 11
-1357.600000000002
 21
1563.95
 31
0.0
  0
LINE
  5
14A2A
330
1A
100
AcDbEntity
  8
ZISSEN1
100
AcDbLine
 10
-1365.900000000001
 20
1563.95
 30
0.0
 11
-1359.2
 21
1563.95
 31
0.0
  0
LINE
  5
14A2B
330
1A
100
AcDbEntity
  8
ZISSEN1
100
AcDbLine
 10
-1359.2
 20
1563.95
 30
0.0
 11
-1357.600000000002
 21
1563.95
 31
0.0
  0
LINE
  5
14A2C
330
1A
100
AcDbEntity
  8
ZISSEN1
100
AcDbLine
 10
-1359.2
 20
1503.5
 30
0.0
 11
-1357.600000000002
 21
1503.5
 31
0.0
  0
LINE
  5
14A2D
330
1A
100
AcDbEntity
  8
出力ｷﾊ_ﾝ
100
AcDbLine
 10
-1365.000160868658
 20
1502.0
 30
0.0
 11
-1345.100538843744
 21
1502.0
 31
0.0
  0
LINE
  5
14A2E
330
1A
100
AcDbEntity
  8
ZISSEN1
100
AcDbLine
 10
-1333.0
 20
1502.0
 30
0.0
 11
-1333.0
 21
1504.0
 31
0.0
  0
LINE
  5
14A2F
330
1A
100
AcDbEntity
  8
ZISSEN1
100
AcDbLine
 10
-1331.0
 20
1502.0
 30
0.0
 11
-1331.0
 21
1545.900000000001
 31
0.0
  0
LINE
  5
14A30
330
1A
100
AcDbEntity
  8
出力ｷﾊ_ﾝ
100
AcDbLine
 10
-1331.0
 20
1541.90653179909
 30
0.0
 11
-1331.0
 21
1545.900000000001
 31
0.0
  0
ARC
  5
14A31
330
1A
100
AcDbEntity
  8
出力ｷﾊ_ﾝ
100
AcDbCircle
 10
-1332.999999999996
 20
1501.999999999999
 30
0.0
 40
2.0
100
AcDbArc
 50
270.0
 51
0.0
  0
LINE
  5
14A32
330
1A
100
AcDbEntity
  8
ZISSEN1
100
AcDbLine
 10
-1333.0
 20
1502.0
 30
0.0
 11
-1333.0
 21
1500.0
 31
0.0
  0
LINE
  5
14A33
330
1A
100
AcDbEntity
  8
ZISSEN1
100
AcDbLine
 10
-1333.0
 20
1545.900000000001
 30
0.0
 11
-1333.0
 21
1502.0
 31
0.0
  0
LINE
  5
14A34
330
1A
100
AcDbEntity
  8
ZISSEN1
100
AcDbLine
 10
-1333.0
 20
1545.900000000001
 30
0.0
 11
-1331.0
 21
1545.900000000001
 31
0.0
  0
LINE
  5
14A35
330
1A
100
AcDbEntity
  8
ZISSEN1
100
AcDbLine
 10
-1333.0
 20
1544.900000000001
 30
0.0
 11
-1331.0
 21
1544.900000000001
 31
0.0
  0
LINE
  5
14A36
330
1A
100
AcDbEntity
  8
ZISSEN1
  6
DASHEDX2
100
AcDbLine
 10
-1359.2
 20
1563.95
 30
0.0
 11
-1365.900000000001
 21
1563.95
 31
0.0
  0
LINE
  5
14A37
330
1A
100
AcDbEntity
  8
ZISSEN1
100
AcDbLine
 10
-1361.500000000003
 20
1551.350000000002
 30
0.0
 11
-1361.500000000003
 21
1552.45
 31
0.0
  0
LINE
  5
14A38
330
1A
100
AcDbEntity
  8
ZISSEN1
100
AcDbLine
 10
-1364.200160868658
 20
1552.45
 30
0.0
 11
-1361.500000000003
 21
1552.45
 31
0.0
  0
LINE
  5
14A39
330
1A
100
AcDbEntity
  8
ZISSEN1
100
AcDbLine
 10
-1365.000160868658
 20
1560.0
 30
0.0
 11
-1365.000160868658
 21
1504.0
 31
0.0
  0
LINE
  5
14A3A
330
1A
100
AcDbEntity
  8
ZISSEN1
100
AcDbLine
 10
-1364.200160868658
 20
1560.0
 30
0.0
 11
-1364.200160868658
 21
1504.0
 31
0.0
  0
LINE
  5
14A3B
330
1A
100
AcDbEntity
  8
ZISSEN1
100
AcDbLine
 10
-1364.200160868658
 20
1504.0
 30
0.0
 11
-1365.000160868658
 21
1504.0
 31
0.0
  0
LINE
  5
14A3C
330
1A
100
AcDbEntity
  8
ZISSEN1
100
AcDbLine
 10
-1364.200160868658
 20
1513.0
 30
0.0
 11
-1365.000160868658
 21
1513.0
 31
0.0
  0
LINE
  5
14A3D
330
1A
100
AcDbEntity
  8
ZISSEN1
100
AcDbLine
 10
-1357.25
 20
1502.0
 30
0.0
 11
-1357.25
 21
1500.0
 31
0.0
  0
LINE
  5
14A3E
330
1A
100
AcDbEntity
  8
ZISSEN1
100
AcDbLine
 10
-1354.0
 20
1502.0
 30
0.0
 11
-1354.0
 21
1500.0
 31
0.0
  0
LINE
  5
14A3F
330
1A
100
AcDbEntity
  8
ZISSEN1
100
AcDbLine
 10
-1353.000160868658
 20
1502.0
 30
0.0
 11
-1353.000160868658
 21
1500.0
 31
0.0
  0
LINE
  5
14A40
330
1A
100
AcDbEntity
  8
ZISSEN1
100
AcDbLine
 10
-1361.200160868658
 20
1560.0
 30
0.0
 11
-1361.200160868658
 21
1523.0
 31
0.0
  0
LINE
  5
14A41
330
1A
100
AcDbEntity
  8
KAKURESEN1
 62
     0
100
AcDbLine
 10
-1352.80016086866
 20
1504.0
 30
0.0
 11
-1353.800160868661
 21
1505.0
 31
0.0
  0
LINE
  5
14A42
330
1A
100
AcDbEntity
  8
ZISSEN1
100
AcDbLine
 10
-1353.800160868661
 20
1505.0
 30
0.0
 11
-1353.800160868661
 21
1513.0
 31
0.0
  0
LINE
  5
14A43
330
1A
100
AcDbEntity
  8
ZISSEN1
100
AcDbLine
 10
-1353.800160868661
 20
1513.0
 30
0.0
 11
-1362.700160868658
 21
1513.0
 31
0.0
  0
LINE
  5
14A44
330
1A
100
AcDbEntity
  8
ZISSEN1
100
AcDbLine
 10
-1359.2
 20
1513.0
 30
0.0
 11
-1359.2
 21
1503.5
 31
0.0
  0
LINE
  5
14A45
330
1A
100
AcDbEntity
  8
ZISSEN1
100
AcDbLine
 10
-1345.600000000002
 20
1503.5
 30
0.0
 11
-1345.600000000002
 21
1504.0
 31
0.0
  0
LINE
  5
14A46
330
1A
100
AcDbEntity
  8
ZISSEN1
100
AcDbLine
 10
-1333.0
 20
1504.0
 30
0.0
 11
-1335.0
 21
1504.0
 31
0.0
  0
LINE
  5
14A47
330
1A
100
AcDbEntity
  8
ZISSEN1
100
AcDbLine
 10
-1361.200160868658
 20
1559.2
 30
0.0
 11
-1364.200160868658
 21
1559.2
 31
0.0
  0
LINE
  5
14A48
330
1A
100
AcDbEntity
  8
ZISSEN1
100
AcDbLine
 10
-1365.000160868658
 20
1555.299999999999
 30
0.0
 11
-1365.900000000001
 21
1555.299999999999
 31
0.0
  0
LINE
  5
14A49
330
1A
100
AcDbEntity
  8
ZISSEN1
100
AcDbLine
 10
-1365.000160868658
 20
1552.45
 30
0.0
 11
-1366.900000000001
 21
1552.45
 31
0.0
  0
ARC
  5
14A4A
330
1A
100
AcDbEntity
  8
ZISSEN1
100
AcDbCircle
 10
-1349.250080434329
 20
1503.499999999999
 30
0.0
 40
1.5
100
AcDbArc
 50
180.0
 51
270.0
  0
ARC
  5
14A4B
330
1A
100
AcDbEntity
  8
ZISSEN1
100
AcDbCircle
 10
-1356.750080434328
 20
1503.499999999999
 30
0.0
 40
1.5
100
AcDbArc
 50
270.0
 51
309.2925102677271
  0
ARC
  5
14A4C
330
1A
100
AcDbEntity
  8
ZISSEN1
100
AcDbCircle
 10
-1356.750080434328
 20
1503.499999999999
 30
0.0
 40
1.500000000000081
100
AcDbArc
 50
309.2925102677271
 51
0.0
  0
LINE
  5
14A4D
330
1A
100
AcDbEntity
  8
ZISSEN1
100
AcDbLine
 10
-1357.600000000002
 20
1504.479999999999
 30
0.0
 11
-1353.28016086866
 21
1504.479999999999
 31
0.0
  0
LINE
  5
14A4F
330
1A
100
AcDbEntity
  8
ZISSEN1
100
AcDbLine
 10
-1333.0
 20
1509.0
 30
0.0
 11
-1335.0
 21
1509.0
 31
0.0
  0
LINE
  5
14A50
330
1A
100
AcDbEntity
  8
ZISSEN1
100
AcDbLine
 10
-1357.600000000002
 20
1508.52
 30
0.0
 11
-1353.800160868661
 21
1508.52
 31
0.0
  0
LINE
  5
14A51
330
1A
100
AcDbEntity
  8
ZISSEN1
100
AcDbLine
 10
-1350.750080434329
 20
1503.5
 30
0.0
 11
-1353.800160868661
 21
1503.5
 31
0.0
  0
LINE
  5
14A52
330
1A
100
AcDbEntity
  8
ZISSEN1
100
AcDbLine
 10
-1361.200160868658
 20
1551.350000000002
 30
0.0
 11
-1361.500000000003
 21
1551.350000000002
 31
0.0
  0
LINE
  5
14A53
330
1A
100
AcDbEntity
  8
ZISSEN1
100
AcDbLine
 10
-1366.900000000001
 20
1552.45
 30
0.0
 11
-1366.900000000001
 21
1563.95
 31
0.0
  0
LINE
  5
14A54
330
1A
100
AcDbEntity
  8
ZISSEN1
100
AcDbLine
 10
-1361.2
 20
1555.299999999999
 30
0.0
 11
-1364.200160868658
 21
1555.299999999999
 31
0.0
  0
LINE
  5
14A56
330
1A
100
AcDbEntity
  8
ZISSEN1
100
AcDbLine
 10
-1337.50034628226
 20
1550.900000000001
 30
0.0
 11
-1337.50034628226
 21
1560.0
 31
0.0
  0
LINE
  5
14A57
330
1A
100
AcDbEntity
  8
ZISSEN1
100
AcDbLine
 10
-1336.0
 20
1550.900000000001
 30
0.0
 11
-1337.50034628226
 21
1550.900000000001
 31
0.0
  0
LINE
  5
14A58
330
1A
100
AcDbEntity
  8
ZISSEN1
100
AcDbLine
 10
-1336.0
 20
1550.900000000001
 30
0.0
 11
-1335.0
 21
1549.900000000001
 31
0.0
  0
LINE
  5
14A59
330
1A
100
AcDbEntity
  8
ZISSEN1
100
AcDbLine
 10
-1337.50034628226
 20
1560.0
 30
0.0
 11
-1345.099654554127
 21
1560.0
 31
0.0
  0
LINE
  5
14A5A
330
1A
100
AcDbEntity
  8
ZISSEN1
100
AcDbLine
 10
-1345.099654554127
 20
1560.0
 30
0.0
 11
-1345.099654554127
 21
1550.900000000001
 31
0.0
  0
LINE
  5
14A5B
330
1A
100
AcDbEntity
  8
ZISSEN1
100
AcDbLine
 10
-1345.099654554127
 20
1550.900000000001
 30
0.0
 11
-1354.399510999999
 21
1550.900000000001
 31
0.0
  0
LINE
  5
14A5C
330
1A
100
AcDbEntity
  8
ZISSEN1
100
AcDbLine
 10
-1354.399510999999
 20
1550.900000000001
 30
0.0
 11
-1354.399510999999
 21
1560.0
 31
0.0
  0
LINE
  5
14A60
330
1A
100
AcDbEntity
  8
ZISSEN1
100
AcDbLine
 10
-1355.250080434329
 20
1503.5
 30
0.0
 11
-1353.800160868661
 21
1503.5
 31
0.0
  0
LINE
  5
14A61
330
1A
100
AcDbEntity
  8
ZISSEN1
100
AcDbLine
 10
-1364.200160868658
 20
1508.52
 30
0.0
 11
-1360.526775562579
 21
1508.52
 31
0.0
  0
LINE
  5
14A62
330
1A
100
AcDbEntity
  8
ZISSEN1
100
AcDbLine
 10
-1364.200160868658
 20
1504.479999999999
 30
0.0
 11
-1360.526775562579
 21
1504.479999999999
 31
0.0
  0
LINE
  5
14A63
330
1A
100
AcDbEntity
  8
ZISSEN1
100
AcDbLine
 10
-1336.000538843749
 20
1511.0
 30
0.0
 11
-1335.000538843749
 21
1510.0
 31
0.0
  0
LINE
  5
14A64
330
1A
100
AcDbEntity
  8
ZISSEN1
100
AcDbLine
 10
-1336.000538843749
 20
1511.0
 30
0.0
 11
-1344.100538843744
 21
1511.0
 31
0.0
  0
LINE
  5
14A75
330
1A
100
AcDbEntity
  8
ZISSEN1
100
AcDbLine
 10
-1344.100538843744
 20
1511.0
 30
0.0
 11
-1345.100538843744
 21
1510.0
 31
0.0
  0
LINE
  5
14A76
330
1A
100
AcDbEntity
  8
ZISSEN1
100
AcDbLine
 10
-1345.100538843748
 20
1500.0
 30
0.0
 11
-1345.100538843744
 21
1510.0
 31
0.0
  0
LINE
  5
14A77
330
1A
100
AcDbEntity
  8
出力ｷﾊ_ﾝ
100
AcDbLine
 10
-1335.0
 20
1502.0
 30
0.0
 11
-1333.0
 21
1502.0
 31
0.0
  0
LINE
  5
14A78
330
1A
100
AcDbEntity
  8
ZISSEN1
100
AcDbLine
 10
-1345.600000000002
 20
1503.5
 30
0.0
 11
-1345.100538843744
 21
1503.5
 31
0.0
  0
LINE
  5
14A7B
330
1A
100
AcDbEntity
  8
ZISSEN1
100
AcDbLine
 10
-1518.399999999997
 20
1513.999999999996
 30
0.0
 11
-1518.399999999997
 21
1530.0
 31
0.0
  0
LINE
  5
14A7C
330
1A
100
AcDbEntity
  8
ZISSEN1
100
AcDbLine
 10
-1522.199839131342
 20
1513.999999999996
 30
0.0
 11
-1522.199839131342
 21
1530.0
 31
0.0
  0
LINE
  5
14A7D
330
1A
100
AcDbEntity
  8
ZISSEN1
100
AcDbLine
 10
-1522.199839131342
 20
1530.0
 30
0.0
 11
-1517.899999999998
 21
1530.0
 31
0.0
  0
LINE
  5
14A7E
330
1A
100
AcDbEntity
  8
ZISSEN1
100
AcDbLine
 10
-1517.899999999998
 20
1513.999999999996
 30
0.0
 11
-1522.199839131342
 21
1513.999999999996
 31
0.0
  0
LINE
  5
14A7F
330
1A
100
AcDbEntity
  8
ZISSEN1
100
AcDbLine
 10
-1541.000000000003
 20
1502.0
 30
0.0
 11
-1543.000000000003
 21
1502.0
 31
0.0
  0
LINE
  5
14A80
330
1A
100
AcDbEntity
  8
ZISSEN1
100
AcDbLine
 10
-1532.0
 20
1503.5
 30
0.0
 11
-1530.899461156255
 21
1503.5
 31
0.0
  0
LINE
  5
14A81
330
1A
100
AcDbEntity
  8
ZISSEN1
100
AcDbLine
 10
-1541.000000000003
 20
1504.0
 30
0.0
 11
-1530.899461156255
 21
1504.0
 31
0.0
  0
LINE
  5
14A82
330
1A
100
AcDbEntity
  8
ZISSEN1
100
AcDbLine
 10
-1541.000000000003
 20
1502.0
 30
0.0
 11
-1530.899461156255
 21
1502.0
 31
0.0
  0
LINE
  5
14A83
330
1A
100
AcDbEntity
  8
ZISSEN1
100
AcDbLine
 10
-1514.799839131345
 20
1514.0
 30
0.0
 11
-1515.799839131345
 21
1513.0
 31
0.0
  0
LINE
  5
14A84
330
1A
100
AcDbEntity
  8
ZISSEN1
100
AcDbLine
 10
-1515.799839131345
 20
1513.0
 30
0.0
 11
-1522.199839131342
 21
1513.0
 31
0.0
  0
LINE
  5
14A87
330
1A
100
AcDbEntity
  8
0
  6
CONTINUOUS
 62
     7
100
AcDbLine
 10
-1518.399999999997
 20
1520.849999999998
 30
0.0
 11
-1518.399999999997
 21
1520.649999999998
 31
0.0
  0
LINE
  5
14A8A
330
1A
100
AcDbEntity
  8
0
  6
CONTINUOUS
 62
     7
100
AcDbLine
 10
-1518.419999999998
 20
1526.774999999997
 30
0.0
 11
-1518.419999999998
 21
1517.224999999998
 31
0.0
  0
LINE
  5
14A8C
330
1A
100
AcDbEntity
  8
0
  6
CONTINUOUS
 62
     7
100
AcDbLine
 10
-1518.439999999998
 20
1528.949999999997
 30
0.0
 11
-1518.439999999998
 21
1515.049999999999
 31
0.0
  0
LINE
  5
14A8F
330
1A
100
AcDbEntity
  8
0
  6
CONTINUOUS
 62
     7
100
AcDbLine
 10
-1518.419999999998
 20
1520.649999999998
 30
0.0
 11
-1518.399999999997
 21
1520.649999999998
 31
0.0
  0
LINE
  5
14AAE
330
1A
100
AcDbEntity
  8
0
  6
CONTINUOUS
 62
     7
100
AcDbLine
 10
-1518.399999999997
 20
1520.349999999998
 30
0.0
 11
-1518.399999999997
 21
1520.149999999997
 31
0.0
  0
LINE
  5
14AAF
330
1A
100
AcDbEntity
  8
0
  6
CONTINUOUS
 62
     7
100
AcDbLine
 10
-1518.419999999998
 20
1520.349999999998
 30
0.0
 11
-1518.399999999997
 21
1520.349999999998
 31
0.0
  0
LINE
  5
14AB0
330
1A
100
AcDbEntity
  8
0
  6
CONTINUOUS
 62
     7
100
AcDbLine
 10
-1518.419999999998
 20
1520.149999999997
 30
0.0
 11
-1518.399999999997
 21
1520.149999999997
 31
0.0
  0
LINE
  5
14AB1
330
1A
100
AcDbEntity
  8
0
  6
CONTINUOUS
 62
     7
100
AcDbLine
 10
-1518.399999999997
 20
1519.849999999998
 30
0.0
 11
-1518.399999999997
 21
1519.649999999997
 31
0.0
  0
LINE
  5
14AB2
330
1A
100
AcDbEntity
  8
0
  6
CONTINUOUS
 62
     7
100
AcDbLine
 10
-1518.419999999998
 20
1519.649999999997
 30
0.0
 11
-1518.399999999997
 21
1519.649999999997
 31
0.0
  0
LINE
  5
14AB3
330
1A
100
AcDbEntity
  8
0
  6
CONTINUOUS
 62
     7
100
AcDbLine
 10
-1518.419999999998
 20
1519.849999999998
 30
0.0
 11
-1518.399999999997
 21
1519.849999999998
 31
0.0
  0
LINE
  5
14AB4
330
1A
100
AcDbEntity
  8
0
  6
CONTINUOUS
 62
     7
100
AcDbLine
 10
-1518.419999999998
 20
1519.349999999998
 30
0.0
 11
-1518.399999999997
 21
1519.349999999998
 31
0.0
  0
LINE
  5
14AB5
330
1A
100
AcDbEntity
  8
0
  6
CONTINUOUS
 62
     7
100
AcDbLine
 10
-1518.419999999998
 20
1519.149999999998
 30
0.0
 11
-1518.399999999997
 21
1519.149999999998
 31
0.0
  0
LINE
  5
14AB6
330
1A
100
AcDbEntity
  8
0
  6
CONTINUOUS
 62
     7
100
AcDbLine
 10
-1518.419999999998
 20
1518.849999999998
 30
0.0
 11
-1518.399999999997
 21
1518.849999999998
 31
0.0
  0
LINE
  5
14AB7
330
1A
100
AcDbEntity
  8
0
  6
CONTINUOUS
 62
     7
100
AcDbLine
 10
-1518.419999999998
 20
1518.649999999998
 30
0.0
 11
-1518.399999999997
 21
1518.649999999998
 31
0.0
  0
LINE
  5
14AB8
330
1A
100
AcDbEntity
  8
0
  6
CONTINUOUS
 62
     7
100
AcDbLine
 10
-1518.419999999998
 20
1518.349999999998
 30
0.0
 11
-1518.399999999997
 21
1518.349999999998
 31
0.0
  0
LINE
  5
14AB9
330
1A
100
AcDbEntity
  8
0
  6
CONTINUOUS
 62
     7
100
AcDbLine
 10
-1518.399999999997
 20
1518.849999999998
 30
0.0
 11
-1518.399999999997
 21
1518.649999999998
 31
0.0
  0
LINE
  5
14ABA
330
1A
100
AcDbEntity
  8
0
  6
CONTINUOUS
 62
     7
100
AcDbLine
 10
-1518.399999999997
 20
1519.349999999998
 30
0.0
 11
-1518.399999999997
 21
1519.149999999998
 31
0.0
  0
LINE
  5
14ACA
330
1A
100
AcDbEntity
  8
0
  6
CONTINUOUS
 62
     7
100
AcDbLine
 10
-1518.419999999998
 20
1517.849999999998
 30
0.0
 11
-1518.399999999997
 21
1517.849999999998
 31
0.0
  0
LINE
  5
14ACB
330
1A
100
AcDbEntity
  8
0
  6
CONTINUOUS
 62
     7
100
AcDbLine
 10
-1518.419999999998
 20
1518.149999999997
 30
0.0
 11
-1518.399999999997
 21
1518.149999999997
 31
0.0
  0
LINE
  5
14ACC
330
1A
100
AcDbEntity
  8
0
  6
CONTINUOUS
 62
     7
100
AcDbLine
 10
-1518.419999999998
 20
1517.649999999997
 30
0.0
 11
-1518.399999999997
 21
1517.649999999997
 31
0.0
  0
LINE
  5
14ACD
330
1A
100
AcDbEntity
  8
0
  6
CONTINUOUS
 62
     7
100
AcDbLine
 10
-1518.399999999997
 20
1517.849999999998
 30
0.0
 11
-1518.399999999997
 21
1517.649999999997
 31
0.0
  0
LINE
  5
14ACE
330
1A
100
AcDbEntity
  8
0
  6
CONTINUOUS
 62
     7
100
AcDbLine
 10
-1518.439999999998
 20
1517.224999999998
 30
0.0
 11
-1518.419999999998
 21
1517.224999999998
 31
0.0
  0
LINE
  5
14ACF
330
1A
100
AcDbEntity
  8
0
  6
CONTINUOUS
 62
     7
100
AcDbLine
 10
-1518.439999999998
 20
1516.669999999998
 30
0.0
 11
-1518.419999999998
 21
1516.669999999998
 31
0.0
  0
LINE
  5
14AD0
330
1A
100
AcDbEntity
  8
0
  6
CONTINUOUS
 62
     7
100
AcDbLine
 10
-1518.439999999998
 20
1516.399999999998
 30
0.0
 11
-1518.419999999998
 21
1516.399999999998
 31
0.0
  0
LINE
  5
14AD1
330
1A
100
AcDbEntity
  8
0
  6
CONTINUOUS
 62
     7
100
AcDbLine
 10
-1518.419999999998
 20
1516.399999999998
 30
0.0
 11
-1518.419999999998
 21
1516.669999999998
 31
0.0
  0
LINE
  5
14AD2
330
1A
100
AcDbEntity
  8
0
  6
CONTINUOUS
 62
     7
100
AcDbLine
 10
-1518.419999999998
 20
1516.669999999998
 30
0.0
 11
-1518.419999999998
 21
1517.224999999998
 31
0.0
  0
LINE
  5
14AD5
330
1A
100
AcDbEntity
  8
0
  6
CONTINUOUS
 62
     7
100
AcDbLine
 10
-1518.399999999997
 20
1518.349999999998
 30
0.0
 11
-1518.399999999997
 21
1518.149999999997
 31
0.0
  0
LINE
  5
14AD6
330
1A
100
AcDbEntity
  8
0
  6
CONTINUOUS
 62
     7
100
AcDbLine
 10
-1518.439999999998
 20
1515.859999999997
 30
0.0
 11
-1518.419999999998
 21
1515.859999999997
 31
0.0
  0
LINE
  5
14AD7
330
1A
100
AcDbEntity
  8
0
  6
CONTINUOUS
 62
     7
100
AcDbLine
 10
-1518.419999999998
 20
1515.059999999997
 30
0.0
 11
-1518.439999999998
 21
1515.059999999997
 31
0.0
  0
LINE
  5
14AD8
330
1A
100
AcDbEntity
  8
0
  6
CONTINUOUS
 62
     7
100
AcDbLine
 10
-1518.419999999998
 20
1515.859999999997
 30
0.0
 11
-1518.419999999998
 21
1515.059999999997
 31
0.0
  0
LINE
  5
14AD9
330
1A
100
AcDbEntity
  8
0
  6
CONTINUOUS
 62
     7
100
AcDbLine
 10
-1518.439999999998
 20
1515.049999999999
 30
0.0
 11
-1519.599999999998
 21
1515.049999999999
 31
0.0
  0
LINE
  5
14ADC
330
1A
100
AcDbEntity
  8
0
  6
CONTINUOUS
 62
     7
100
AcDbLine
 10
-1518.419999999998
 20
1528.939999999998
 30
0.0
 11
-1518.439999999998
 21
1528.939999999998
 31
0.0
  0
LINE
  5
14ADD
330
1A
100
AcDbEntity
  8
0
  6
CONTINUOUS
 62
     7
100
AcDbLine
 10
-1518.439999999998
 20
1528.949999999997
 30
0.0
 11
-1519.599999999998
 21
1528.949999999997
 31
0.0
  0
LINE
  5
14AE3
330
1A
100
AcDbEntity
  8
0
  6
CONTINUOUS
 62
     7
100
AcDbLine
 10
-1518.439999999998
 20
1528.139999999999
 30
0.0
 11
-1518.419999999998
 21
1528.139999999999
 31
0.0
  0
LINE
  5
14AE4
330
1A
100
AcDbEntity
  8
0
  6
CONTINUOUS
 62
     7
100
AcDbLine
 10
-1518.439999999998
 20
1527.599999999998
 30
0.0
 11
-1518.419999999998
 21
1527.599999999998
 31
0.0
  0
LINE
  5
14AE5
330
1A
100
AcDbEntity
  8
0
  6
CONTINUOUS
 62
     7
100
AcDbLine
 10
-1518.439999999998
 20
1527.329999999998
 30
0.0
 11
-1518.419999999998
 21
1527.329999999998
 31
0.0
  0
LINE
  5
14AE6
330
1A
100
AcDbEntity
  8
0
  6
CONTINUOUS
 62
     7
100
AcDbLine
 10
-1518.439999999998
 20
1526.774999999997
 30
0.0
 11
-1518.419999999998
 21
1526.774999999997
 31
0.0
  0
LINE
  5
14AE7
330
1A
100
AcDbEntity
  8
0
  6
CONTINUOUS
 62
     7
100
AcDbLine
 10
-1518.419999999998
 20
1526.774999999997
 30
0.0
 11
-1518.419999999998
 21
1527.329999999998
 31
0.0
  0
LINE
  5
14AE8
330
1A
100
AcDbEntity
  8
0
  6
CONTINUOUS
 62
     7
100
AcDbLine
 10
-1518.419999999998
 20
1527.599999999998
 30
0.0
 11
-1518.419999999998
 21
1527.329999999998
 31
0.0
  0
LINE
  5
14B04
330
1A
100
AcDbEntity
  8
0
  6
CONTINUOUS
 62
     7
100
AcDbLine
 10
-1518.399999999997
 20
1526.349999999998
 30
0.0
 11
-1518.399999999997
 21
1526.149999999997
 31
0.0
  0
LINE
  5
14B05
330
1A
100
AcDbEntity
  8
0
  6
CONTINUOUS
 62
     7
100
AcDbLine
 10
-1518.419999999998
 20
1526.349999999998
 30
0.0
 11
-1518.399999999997
 21
1526.349999999998
 31
0.0
  0
LINE
  5
14B06
330
1A
100
AcDbEntity
  8
0
  6
CONTINUOUS
 62
     7
100
AcDbLine
 10
-1518.419999999998
 20
1526.149999999997
 30
0.0
 11
-1518.399999999997
 21
1526.149999999997
 31
0.0
  0
LINE
  5
14B07
330
1A
100
AcDbEntity
  8
0
  6
CONTINUOUS
 62
     7
100
AcDbLine
 10
-1518.399999999997
 20
1525.849999999998
 30
0.0
 11
-1518.399999999997
 21
1525.649999999997
 31
0.0
  0
LINE
  5
14B08
330
1A
100
AcDbEntity
  8
0
  6
CONTINUOUS
 62
     7
100
AcDbLine
 10
-1518.419999999998
 20
1525.849999999998
 30
0.0
 11
-1518.399999999997
 21
1525.849999999998
 31
0.0
  0
LINE
  5
14B09
330
1A
100
AcDbEntity
  8
0
  6
CONTINUOUS
 62
     7
100
AcDbLine
 10
-1518.419999999998
 20
1525.649999999997
 30
0.0
 11
-1518.399999999997
 21
1525.649999999997
 31
0.0
  0
LINE
  5
14B0A
330
1A
100
AcDbEntity
  8
0
  6
CONTINUOUS
 62
     7
100
AcDbLine
 10
-1518.399999999997
 20
1525.349999999998
 30
0.0
 11
-1518.399999999997
 21
1525.149999999998
 31
0.0
  0
LINE
  5
14B0B
330
1A
100
AcDbEntity
  8
0
  6
CONTINUOUS
 62
     7
100
AcDbLine
 10
-1518.419999999998
 20
1525.149999999998
 30
0.0
 11
-1518.399999999997
 21
1525.149999999998
 31
0.0
  0
LINE
  5
14B0C
330
1A
100
AcDbEntity
  8
0
  6
CONTINUOUS
 62
     7
100
AcDbLine
 10
-1518.419999999998
 20
1525.349999999998
 30
0.0
 11
-1518.399999999997
 21
1525.349999999998
 31
0.0
  0
LINE
  5
14B0D
330
1A
100
AcDbEntity
  8
0
  6
CONTINUOUS
 62
     7
100
AcDbLine
 10
-1518.399999999997
 20
1524.849999999998
 30
0.0
 11
-1518.399999999997
 21
1524.649999999997
 31
0.0
  0
LINE
  5
14B0E
330
1A
100
AcDbEntity
  8
0
  6
CONTINUOUS
 62
     7
100
AcDbLine
 10
-1518.419999999998
 20
1524.849999999998
 30
0.0
 11
-1518.399999999997
 21
1524.849999999998
 31
0.0
  0
LINE
  5
14B0F
330
1A
100
AcDbEntity
  8
0
  6
CONTINUOUS
 62
     7
100
AcDbLine
 10
-1518.419999999998
 20
1524.649999999997
 30
0.0
 11
-1518.399999999997
 21
1524.649999999997
 31
0.0
  0
LINE
  5
14B2C
330
1A
100
AcDbEntity
  8
0
  6
CONTINUOUS
 62
     7
100
AcDbLine
 10
-1518.399999999997
 20
1524.349999999998
 30
0.0
 11
-1518.399999999997
 21
1524.149999999997
 31
0.0
  0
LINE
  5
14B2D
330
1A
100
AcDbEntity
  8
0
  6
CONTINUOUS
 62
     7
100
AcDbLine
 10
-1518.419999999998
 20
1524.149999999997
 30
0.0
 11
-1518.399999999997
 21
1524.149999999997
 31
0.0
  0
LINE
  5
14B2E
330
1A
100
AcDbEntity
  8
0
  6
CONTINUOUS
 62
     7
100
AcDbLine
 10
-1518.419999999998
 20
1524.349999999998
 30
0.0
 11
-1518.399999999997
 21
1524.349999999998
 31
0.0
  0
LINE
  5
14B2F
330
1A
100
AcDbEntity
  8
0
  6
CONTINUOUS
 62
     7
100
AcDbLine
 10
-1518.399999999997
 20
1523.849999999998
 30
0.0
 11
-1518.399999999997
 21
1523.649999999997
 31
0.0
  0
LINE
  5
14B30
330
1A
100
AcDbEntity
  8
0
  6
CONTINUOUS
 62
     7
100
AcDbLine
 10
-1518.419999999998
 20
1523.649999999997
 30
0.0
 11
-1518.399999999997
 21
1523.649999999997
 31
0.0
  0
LINE
  5
14B31
330
1A
100
AcDbEntity
  8
0
  6
CONTINUOUS
 62
     7
100
AcDbLine
 10
-1518.419999999998
 20
1523.849999999998
 30
0.0
 11
-1518.399999999997
 21
1523.849999999998
 31
0.0
  0
LINE
  5
14B32
330
1A
100
AcDbEntity
  8
0
  6
CONTINUOUS
 62
     7
100
AcDbLine
 10
-1518.399999999997
 20
1523.349999999998
 30
0.0
 11
-1518.399999999997
 21
1523.149999999998
 31
0.0
  0
LINE
  5
14B33
330
1A
100
AcDbEntity
  8
0
  6
CONTINUOUS
 62
     7
100
AcDbLine
 10
-1518.419999999998
 20
1523.349999999998
 30
0.0
 11
-1518.399999999997
 21
1523.349999999998
 31
0.0
  0
LINE
  5
14B34
330
1A
100
AcDbEntity
  8
0
  6
CONTINUOUS
 62
     7
100
AcDbLine
 10
-1518.419999999998
 20
1523.149999999998
 30
0.0
 11
-1518.399999999997
 21
1523.149999999998
 31
0.0
  0
LINE
  5
14B35
330
1A
100
AcDbEntity
  8
0
  6
CONTINUOUS
 62
     7
100
AcDbLine
 10
-1518.399999999997
 20
1522.849999999998
 30
0.0
 11
-1518.399999999997
 21
1522.649999999997
 31
0.0
  0
LINE
  5
14B36
330
1A
100
AcDbEntity
  8
0
  6
CONTINUOUS
 62
     7
100
AcDbLine
 10
-1518.419999999998
 20
1522.649999999997
 30
0.0
 11
-1518.399999999997
 21
1522.649999999997
 31
0.0
  0
LINE
  5
14B37
330
1A
100
AcDbEntity
  8
0
  6
CONTINUOUS
 62
     7
100
AcDbLine
 10
-1518.419999999998
 20
1522.849999999998
 30
0.0
 11
-1518.399999999997
 21
1522.849999999998
 31
0.0
  0
LINE
  5
14B4F
330
1A
100
AcDbEntity
  8
0
  6
CONTINUOUS
 62
     7
100
AcDbLine
 10
-1518.399999999997
 20
1522.349999999998
 30
0.0
 11
-1518.399999999997
 21
1522.149999999997
 31
0.0
  0
LINE
  5
14B50
330
1A
100
AcDbEntity
  8
0
  6
CONTINUOUS
 62
     7
100
AcDbLine
 10
-1518.419999999998
 20
1522.149999999997
 30
0.0
 11
-1518.399999999997
 21
1522.149999999997
 31
0.0
  0
LINE
  5
14B51
330
1A
100
AcDbEntity
  8
0
  6
CONTINUOUS
 62
     7
100
AcDbLine
 10
-1518.419999999998
 20
1522.349999999998
 30
0.0
 11
-1518.399999999997
 21
1522.349999999998
 31
0.0
  0
LINE
  5
14B52
330
1A
100
AcDbEntity
  8
0
  6
CONTINUOUS
 62
     7
100
AcDbLine
 10
-1518.399999999997
 20
1521.849999999998
 30
0.0
 11
-1518.399999999997
 21
1521.649999999997
 31
0.0
  0
LINE
  5
14B53
330
1A
100
AcDbEntity
  8
0
  6
CONTINUOUS
 62
     7
100
AcDbLine
 10
-1518.419999999998
 20
1521.849999999998
 30
0.0
 11
-1518.399999999997
 21
1521.849999999998
 31
0.0
  0
LINE
  5
14B54
330
1A
100
AcDbEntity
  8
0
  6
CONTINUOUS
 62
     7
100
AcDbLine
 10
-1518.419999999998
 20
1521.649999999997
 30
0.0
 11
-1518.399999999997
 21
1521.649999999997
 31
0.0
  0
LINE
  5
14B55
330
1A
100
AcDbEntity
  8
0
  6
CONTINUOUS
 62
     7
100
AcDbLine
 10
-1518.399999999997
 20
1521.349999999998
 30
0.0
 11
-1518.399999999997
 21
1521.149999999997
 31
0.0
  0
LINE
  5
14B56
330
1A
100
AcDbEntity
  8
0
  6
CONTINUOUS
 62
     7
100
AcDbLine
 10
-1518.419999999998
 20
1521.349999999998
 30
0.0
 11
-1518.399999999997
 21
1521.349999999998
 31
0.0
  0
LINE
  5
14B57
330
1A
100
AcDbEntity
  8
0
  6
CONTINUOUS
 62
     7
100
AcDbLine
 10
-1518.419999999998
 20
1521.149999999997
 30
0.0
 11
-1518.399999999997
 21
1521.149999999997
 31
0.0
  0
LINE
  5
14B58
330
1A
100
AcDbEntity
  8
0
  6
CONTINUOUS
 62
     7
100
AcDbLine
 10
-1518.419999999998
 20
1520.849999999998
 30
0.0
 11
-1518.399999999997
 21
1520.849999999998
 31
0.0
  0
LINE
  5
14B5B
330
1A
100
AcDbEntity
  8
0
  6
CONTINUOUS
 62
     7
100
AcDbLine
 10
-1519.599999999998
 20
1528.949999999997
 30
0.0
 11
-1519.599999999998
 21
1515.049999999999
 31
0.0
  0
LINE
  5
14B5C
330
1A
100
AcDbEntity
  8
0
  6
CONTINUOUS
 62
     7
100
AcDbLine
 10
-1518.419999999998
 20
1528.139999999999
 30
0.0
 11
-1518.419999999998
 21
1528.939999999998
 31
0.0
  0
LINE
  5
14B5D
330
1A
100
AcDbEntity
  8
ZISSEN1
100
AcDbLine
 10
-1517.899999999998
 20
1530.0
 30
0.0
 11
-1517.899999999998
 21
1513.999999999996
 31
0.0
  0
LINE
  5
14B5E
330
1A
100
AcDbEntity
  8
ZISSEN1
100
AcDbLine
 10
-1520.749919565671
 20
1503.5
 30
0.0
 11
-1522.199839131342
 21
1503.5
 31
0.0
  0
LINE
  5
14B62
330
1A
100
AcDbEntity
  8
ZISSEN1
100
AcDbLine
 10
-1521.600489000004
 20
1550.900000000001
 30
0.0
 11
-1521.600489000004
 21
1560.0
 31
0.0
  0
LINE
  5
14B63
330
1A
100
AcDbEntity
  8
ZISSEN1
  6
CONTINUOUS
100
AcDbLine
 10
-1530.900345445876
 20
1550.900000000001
 30
0.0
 11
-1521.600489000004
 21
1550.900000000001
 31
0.0
  0
LINE
  5
14B64
330
1A
100
AcDbEntity
  8
ZISSEN1
100
AcDbLine
 10
-1530.900345445876
 20
1560.0
 30
0.0
 11
-1530.900345445876
 21
1550.900000000001
 31
0.0
  0
LINE
  5
14B65
330
1A
100
AcDbEntity
  8
ZISSEN1
100
AcDbLine
 10
-1538.499653717743
 20
1560.0
 30
0.0
 11
-1530.900345445876
 21
1560.0
 31
0.0
  0
LINE
  5
14B66
330
1A
100
AcDbEntity
  8
ZISSEN1
100
AcDbLine
 10
-1540.000000000003
 20
1550.899999999997
 30
0.0
 11
-1541.000000000003
 21
1549.899999999998
 31
0.0
  0
LINE
  5
14B67
330
1A
100
AcDbEntity
  8
ZISSEN1
100
AcDbLine
 10
-1540.000000000003
 20
1550.899999999997
 30
0.0
 11
-1538.499653717743
 21
1550.899999999997
 31
0.0
  0
LINE
  5
14B68
330
1A
100
AcDbEntity
  8
ZISSEN1
100
AcDbLine
 10
-1538.499653717743
 20
1550.899999999997
 30
0.0
 11
-1538.499653717743
 21
1560.0
 31
0.0
  0
LINE
  5
14B69
330
1A
100
AcDbEntity
  8
ZISSEN1
100
AcDbLine
 10
-1509.099999999998
 20
1552.45
 30
0.0
 11
-1509.099999999998
 21
1563.95
 31
0.0
  0
LINE
  5
14B6A
330
1A
100
AcDbEntity
  8
ZISSEN1
100
AcDbLine
 10
-1514.799839131345
 20
1551.349999999998
 30
0.0
 11
-1514.499999999999
 21
1551.349999999998
 31
0.0
  0
LINE
  5
14B6B
330
1A
100
AcDbEntity
  8
ZISSEN1
100
AcDbLine
 10
-1536.95
 20
1503.5
 30
0.0
 11
-1532.45
 21
1503.5
 31
0.0
  0
ARC
  5
14B6D
330
1A
100
AcDbEntity
  8
ZISSEN1
100
AcDbCircle
 10
-1530.95
 20
1503.499999999999
 30
0.0
 40
1.500000000000302
100
AcDbArc
 50
180.0
 51
219.9397196738805
  0
ARC
  5
14B6E
330
1A
100
AcDbEntity
  8
ZISSEN1
100
AcDbCircle
 10
-1530.95
 20
1503.499999999999
 30
0.0
 40
1.49999999999909
100
AcDbArc
 50
221.0071026759218
 51
270.0
  0
ARC
  5
14B6F
330
1A
100
AcDbEntity
  8
ZISSEN1
100
AcDbCircle
 10
-1519.249919565671
 20
1503.499999999999
 30
0.0
 40
1.500000000000081
100
AcDbArc
 50
180.0
 51
230.7074897322728
  0
ARC
  5
14B70
330
1A
100
AcDbEntity
  8
ZISSEN1
100
AcDbCircle
 10
-1519.249919565671
 20
1503.499999999999
 30
0.0
 40
1.5
100
AcDbArc
 50
230.7074897322728
 51
270.0
  0
LINE
  5
14B71
330
1A
100
AcDbEntity
  8
ZISSEN1
100
AcDbLine
 10
-1510.999839131342
 20
1552.45
 30
0.0
 11
-1509.099999999998
 21
1552.45
 31
0.0
  0
LINE
  5
14B72
330
1A
100
AcDbEntity
  8
ZISSEN1
100
AcDbLine
 10
-1514.799839131345
 20
1559.2
 30
0.0
 11
-1511.799839131341
 21
1559.2
 31
0.0
  0
LINE
  5
14B73
330
1A
100
AcDbEntity
  8
ZISSEN1
100
AcDbLine
 10
-1530.400000000001
 20
1503.5
 30
0.0
 11
-1530.400000000001
 21
1504.0
 31
0.0
  0
LINE
  5
14B74
330
1A
100
AcDbEntity
  8
ZISSEN1
100
AcDbLine
 10
-1532.0
 20
1503.5
 30
0.0
 11
-1532.0
 21
1504.0
 31
0.0
  0
LINE
  5
14B75
330
1A
100
AcDbEntity
  8
ZISSEN1
100
AcDbLine
 10
-1537.400000000001
 20
1503.5
 30
0.0
 11
-1537.400000000001
 21
1504.0
 31
0.0
  0
LINE
  5
14B76
330
1A
100
AcDbEntity
  8
ZISSEN1
100
AcDbLine
 10
-1539.0
 20
1504.0
 30
0.0
 11
-1539.0
 21
1503.5
 31
0.0
  0
LINE
  5
14B77
330
1A
100
AcDbEntity
  8
ZISSEN1
100
AcDbLine
 10
-1516.799999999999
 20
1513.0
 30
0.0
 11
-1516.799999999999
 21
1503.5
 31
0.0
  0
LINE
  5
14B78
330
1A
100
AcDbEntity
  8
ZISSEN1
100
AcDbLine
 10
-1522.199839131342
 20
1502.0
 30
0.0
 11
-1522.199839131342
 21
1513.0
 31
0.0
  0
LINE
  5
14B79
330
1A
100
AcDbEntity
  8
ZISSEN1
100
AcDbLine
 10
-1527.699839131342
 20
1502.0
 30
0.0
 11
-1527.699839131342
 21
1504.0
 31
0.0
  0
LINE
  5
14B7A
330
1A
100
AcDbEntity
  8
ZISSEN1
100
AcDbLine
 10
-1514.799839131345
 20
1560.0
 30
0.0
 11
-1514.799839131345
 21
1514.0
 31
0.0
  0
LINE
  5
14B7B
330
1A
100
AcDbEntity
  8
ZISSEN1
100
AcDbLine
 10
-1522.999839131342
 20
1502.0
 30
0.0
 11
-1522.999839131342
 21
1500.0
 31
0.0
  0
LINE
  5
14B7C
330
1A
100
AcDbEntity
  8
ZISSEN1
100
AcDbLine
 10
-1522.000000000003
 20
1502.0
 30
0.0
 11
-1522.000000000003
 21
1500.0
 31
0.0
  0
LINE
  5
14B7D
330
1A
100
AcDbEntity
  8
ZISSEN1
100
AcDbLine
 10
-1518.750000000003
 20
1502.0
 30
0.0
 11
-1518.750000000003
 21
1500.0
 31
0.0
  0
LINE
  5
14B7E
330
1A
100
AcDbEntity
  8
ZISSEN1
100
AcDbLine
 10
-1511.799839131341
 20
1513.0
 30
0.0
 11
-1510.999839131342
 21
1513.0
 31
0.0
  0
LINE
  5
14B7F
330
1A
100
AcDbEntity
  8
ZISSEN1
100
AcDbLine
 10
-1511.799839131341
 20
1504.0
 30
0.0
 11
-1510.999839131342
 21
1504.0
 31
0.0
  0
LINE
  5
14B80
330
1A
100
AcDbEntity
  8
ZISSEN1
100
AcDbLine
 10
-1511.799839131341
 20
1560.0
 30
0.0
 11
-1511.799839131341
 21
1504.0
 31
0.0
  0
LINE
  5
14B81
330
1A
100
AcDbEntity
  8
ZISSEN1
100
AcDbLine
 10
-1510.999839131342
 20
1560.0
 30
0.0
 11
-1511.0
 21
1503.75
 31
0.0
  0
LINE
  5
14B82
330
1A
100
AcDbEntity
  8
ZISSEN1
100
AcDbLine
 10
-1511.799839131344
 20
1552.45
 30
0.0
 11
-1514.499999999999
 21
1552.45
 31
0.0
  0
LINE
  5
14B83
330
1A
100
AcDbEntity
  8
ZISSEN1
100
AcDbLine
 10
-1514.499999999999
 20
1551.349999999998
 30
0.0
 11
-1514.499999999999
 21
1552.45
 31
0.0
  0
LINE
  5
14B84
330
1A
100
AcDbEntity
  8
ZISSEN1
100
AcDbLine
 10
-1543.000000000003
 20
1544.899999999997
 30
0.0
 11
-1545.0
 21
1544.899999999997
 31
0.0
  0
LINE
  5
14B85
330
1A
100
AcDbEntity
  8
ZISSEN1
100
AcDbLine
 10
-1543.000000000003
 20
1545.899999999997
 30
0.0
 11
-1545.0
 21
1545.899999999997
 31
0.0
  0
LINE
  5
14B86
330
1A
100
AcDbEntity
  8
ZISSEN1
100
AcDbLine
 10
-1543.000000000003
 20
1545.899999999997
 30
0.0
 11
-1543.000000000003
 21
1502.0
 31
0.0
  0
ARC
  5
14B87
330
1A
100
AcDbEntity
  8
出力ｷﾊ_ﾝ
100
AcDbCircle
 10
-1543.000000000003
 20
1501.999999999999
 30
0.0
 40
2.0
100
AcDbArc
 50
180.0
 51
270.0
  0
LINE
  5
14B88
330
1A
100
AcDbEntity
  8
出力ｷﾊ_ﾝ
100
AcDbLine
 10
-1545.0
 20
1541.906531799086
 30
0.0
 11
-1545.0
 21
1545.899999999997
 31
0.0
  0
LINE
  5
14B89
330
1A
100
AcDbEntity
  8
ZISSEN1
100
AcDbLine
 10
-1545.000000000003
 20
1502.0
 30
0.0
 11
-1545.0
 21
1545.899999999997
 31
0.0
  0
LINE
  5
14B8A
330
1A
100
AcDbEntity
  8
ZISSEN1
100
AcDbLine
 10
-1543.000000000003
 20
1502.0
 30
0.0
 11
-1543.000000000003
 21
1504.0
 31
0.0
  0
LINE
  5
14B8B
330
1A
100
AcDbEntity
  8
出力ｷﾊ_ﾝ
100
AcDbLine
 10
-1510.999839131342
 20
1502.0
 30
0.0
 11
-1530.899461156255
 21
1502.0
 31
0.0
  0
LINE
  5
14B8C
330
1A
100
AcDbEntity
  8
ZISSEN1
100
AcDbLine
 10
-1516.799999999999
 20
1503.5
 30
0.0
 11
-1518.399999999997
 21
1503.5
 31
0.0
  0
LINE
  5
14B8D
330
1A
100
AcDbEntity
  8
ZISSEN1
100
AcDbLine
 10
-1516.799999999999
 20
1563.95
 30
0.0
 11
-1518.400000000001
 21
1563.95
 31
0.0
  0
LINE
  5
14B8E
330
1A
100
AcDbEntity
  8
ZISSEN1
100
AcDbLine
 10
-1530.400000000001
 20
1503.5
 30
0.0
 11
-1530.899461156255
 21
1503.5
 31
0.0
  0
LINE
  5
14B90
330
1A
100
AcDbEntity
  8
ZISSEN1
100
AcDbLine
 10
-1516.799999999999
 20
1563.95
 30
0.0
 11
-1518.400000000001
 21
1563.95
 31
0.0
  0
LINE
  5
14B91
330
1A
100
AcDbEntity
  8
ZISSEN1
100
AcDbLine
 10
-1516.799999999999
 20
1504.5
 30
0.0
 11
-1518.399999999997
 21
1504.5
 31
0.0
  0
LINE
  5
14B92
330
1A
100
AcDbEntity
  8
ZISSEN1
100
AcDbLine
 10
-1516.799999999999
 20
1562.95
 30
0.0
 11
-1518.400000000001
 21
1562.95
 31
0.0
  0
LINE
  5
14B93
330
1A
100
AcDbEntity
  8
ZISSEN1
100
AcDbLine
 10
-1516.799999999999
 20
1562.95
 30
0.0
 11
-1518.400000000001
 21
1562.95
 31
0.0
  0
LINE
  5
14B94
330
1A
100
AcDbEntity
  8
ZISSEN1
  6
CONTINUOUS
100
AcDbLine
 10
-1530.090003000001
 20
1574.0
 30
0.0
 11
-1530.090003000001
 21
1550.900000000001
 31
0.0
  0
LINE
  5
14BB1
330
1A
100
AcDbEntity
  8
ZISSEN1
  6
CONTINUOUS
100
AcDbLine
 10
-1521.89
 20
1550.900000000001
 30
0.0
 11
-1521.89
 21
1574.0
 31
0.0
  0
LINE
  5
14BBA
330
1A
100
AcDbEntity
  8
ZISSEN1
  6
CONTINUOUS
100
AcDbLine
 10
-1521.89
 20
1574.0
 30
0.0
 11
-1530.090003000001
 21
1574.0
 31
0.0
  0
LINE
  5
14BBB
330
1A
100
AcDbEntity
  8
ZISSEN1
100
AcDbLine
 10
-1518.399999999997
 20
1503.5
 30
0.0
 11
-1518.399999999997
 21
1513.0
 31
0.0
  0
LINE
  5
14BC5
330
1A
100
AcDbEntity
  8
ZISSEN1
  6
CONTINUOUS
100
AcDbLine
 10
-1547.509999999999
 20
1546.899999999997
 30
0.0
 11
-1547.509999999999
 21
1574.0
 31
0.0
  0
LINE
  5
14BEC
330
1A
100
AcDbEntity
  8
ZISSEN1
  6
CONTINUOUS
100
AcDbLine
 10
-1539.309997
 20
1574.0
 30
0.0
 11
-1539.309997
 21
1550.899999999997
 31
0.0
  0
LINE
  5
14BED
330
1A
100
AcDbEntity
  8
ZISSEN1
100
AcDbLine
 10
-1539.0
 20
1503.5
 30
0.0
 11
-1537.400000000001
 21
1503.5
 31
0.0
  0
ARC
  5
14BEE
330
1A
100
AcDbEntity
  8
ZISSEN1
100
AcDbCircle
 10
-1538.45
 20
1503.499999999999
 30
0.0
 40
1.5
100
AcDbArc
 50
270.0
 51
0.0
  0
LINE
  5
14BEF
330
1A
100
AcDbEntity
  8
ZISSEN1
100
AcDbLine
 10
-1511.000000000003
 20
1502.0
 30
0.0
 11
-1511.000000000003
 21
1500.0
 31
0.0
  0
LINE
  5
14BF0
330
1A
100
AcDbEntity
  8
ZISSEN1
100
AcDbLine
 10
-1545.0
 20
1539.750000000273
 30
0.0
 11
-1545.0
 21
1545.250000000272
 31
0.0
  0
LINE
  5
14BF1
330
1A
100
AcDbEntity
  8
ZISSEN1
100
AcDbLine
 10
-1521.890504999999
 20
1560.0
 30
0.0
 11
-1510.999839131342
 21
1560.0
 31
0.0
  0
LINE
  5
14BF2
330
1A
100
AcDbEntity
  8
ZISSEN1
100
AcDbLine
 10
-1516.799999999999
 20
1563.95
 30
0.0
 11
-1509.099999999998
 21
1563.95
 31
0.0
  0
LINE
  5
14BF3
330
1A
100
AcDbEntity
  8
ZISSEN1
100
AcDbLine
 10
-1538.499999999999
 20
1559.2
 30
0.0
 11
-1538.499999999999
 21
1560.0
 31
0.0
  0
LINE
  5
14BF4
330
1A
100
AcDbEntity
  8
ZISSEN1
100
AcDbLine
 10
-1541.000000000003
 20
1505.0
 30
0.0
 11
-1540.000000000003
 21
1504.0
 31
0.0
  0
LINE
  5
14BF5
330
1A
100
AcDbEntity
  8
ZISSEN1
100
AcDbLine
 10
-1541.000000000003
 20
1505.0
 30
0.0
 11
-1541.000000000003
 21
1549.899999999998
 31
0.0
  0
LINE
  5
14BFE
330
1A
100
AcDbEntity
  8
ZISSEN1
100
AcDbLine
 10
-1518.400000000001
 20
1560.0
 30
0.0
 11
-1518.400000000001
 21
1563.95
 31
0.0
  0
LINE
  5
14BFF
330
1A
100
AcDbEntity
  8
ZISSEN1
100
AcDbLine
 10
-1516.799999999999
 20
1560.0
 30
0.0
 11
-1516.799999999999
 21
1563.95
 31
0.0
  0
LINE
  5
14C00
330
1A
100
AcDbEntity
  8
ZISSEN1
100
AcDbLine
 10
-1510.999839131342
 20
1558.119999999999
 30
0.0
 11
-1510.999839131342
 21
1552.619999999999
 31
0.0
  0
LINE
  5
14C01
330
1A
100
AcDbEntity
  8
ZISSEN1
100
AcDbLine
 10
-1537.400000000001
 20
1560.0
 30
0.0
 11
-1537.400000000001
 21
1560.5
 31
0.0
  0
LINE
  5
14C02
330
1A
100
AcDbEntity
  8
ZISSEN1
100
AcDbLine
 10
-1537.400000000001
 20
1560.5
 30
0.0
 11
-1539.309997
 21
1560.5
 31
0.0
  0
LINE
  5
14C04
330
1A
100
AcDbEntity
  8
ZISSEN1
100
AcDbLine
 10
-1532.0
 20
1560.0
 30
0.0
 11
-1532.0
 21
1560.5
 31
0.0
  0
LINE
  5
14C05
330
1A
100
AcDbEntity
  8
ZISSEN1
100
AcDbLine
 10
-1532.0
 20
1560.5
 30
0.0
 11
-1530.090003000001
 21
1560.5
 31
0.0
  0
LINE
  5
14C07
330
1A
100
AcDbEntity
  8
ZISSEN1
100
AcDbLine
 10
-1511.000000000003
 20
1500.0
 30
0.0
 11
-1511.000000000003
 21
1502.0
 31
0.0
  0
LINE
  5
14C08
330
1A
100
AcDbEntity
  8
ZISSEN1
100
AcDbLine
 10
-1512.000000000003
 20
1500.0
 30
0.0
 11
-1512.000000000003
 21
1502.0
 31
0.0
  0
LINE
  5
14C09
330
1A
100
AcDbEntity
  8
ZISSEN1
100
AcDbLine
 10
-1515.250000000003
 20
1502.0
 30
0.0
 11
-1515.250000000003
 21
1500.0
 31
0.0
  0
LINE
  5
14C0A
330
1A
100
AcDbEntity
  8
ZISSEN1
100
AcDbLine
 10
-1530.899461156255
 20
1504.0
 30
0.0
 11
-1527.699839131342
 21
1504.0
 31
0.0
  0
LINE
  5
14C0B
330
1A
100
AcDbEntity
  8
ZISSEN1
100
AcDbLine
 10
-1547.509999999999
 20
1546.899999999997
 30
0.0
 11
-1541.000000000003
 21
1546.899999999997
 31
0.0
  0
LINE
  5
14C0F
330
1A
100
AcDbEntity
  8
ZISSEN1
100
AcDbLine
 10
-1545.000000000003
 20
1503.75
 30
0.0
 11
-1545.000000000003
 21
1509.25
 31
0.0
  0
LINE
  5
14C10
330
1A
100
AcDbEntity
  8
ZISSEN1
 48
0.4
100
AcDbLine
 10
-1545.750000000003
 20
1503.75
 30
0.0
 11
-1545.000000000003
 21
1503.75
 31
0.0
  0
LINE
  5
14C11
330
1A
100
AcDbEntity
  8
ZISSEN1
 48
0.4
100
AcDbLine
 10
-1545.750000000003
 20
1509.25
 30
0.0
 11
-1545.000000000003
 21
1509.25
 31
0.0
  0
ELLIPSE
  5
14C12
330
1A
100
AcDbEntity
  8
ZISSEN1
 48
0.4
100
AcDbEllipse
 10
-1545.750000000003
 20
1506.499999999999
 30
0.0
 11
0.0000000000000024
 21
2.75
 31
0.0
210
0.0
220
0.0
230
1.0
 40
0.3090909090909173
 41
6.283185307179586
 42
9.424777960769379
  0
ELLIPSE
  5
14C13
330
1A
100
AcDbEntity
  8
ZISSEN1
 48
0.4
100
AcDbEllipse
 10
-1545.750000000003
 20
1542.5
 30
0.0
 11
0.0000000000000024
 21
2.75
 31
0.0
210
0.0
220
0.0
230
1.0
 40
0.3090909090909173
 41
6.283185307179586
 42
9.424777960769379
  0
LINE
  5
14C14
330
1A
100
AcDbEntity
  8
ZISSEN1
 48
0.4
100
AcDbLine
 10
-1545.750000000003
 20
1545.25
 30
0.0
 11
-1545.000000000003
 21
1545.25
 31
0.0
  0
LINE
  5
14C15
330
1A
100
AcDbEntity
  8
ZISSEN1
 48
0.4
100
AcDbLine
 10
-1545.750000000003
 20
1539.75
 30
0.0
 11
-1545.000000000003
 21
1539.75
 31
0.0
  0
LINE
  5
14C16
330
1A
100
AcDbEntity
  8
ZISSEN1
100
AcDbLine
 10
-1545.000000000003
 20
1539.75
 30
0.0
 11
-1545.000000000003
 21
1545.25
 31
0.0
  0
LINE
  5
14C17
330
1A
100
AcDbEntity
  8
出力ｷﾊ_ﾝ
100
AcDbLine
 10
-1545.000000000003
 20
1541.90653179909
 30
0.0
 11
-1545.000000000003
 21
1545.900000000001
 31
0.0
  0
LINE
  5
14C18
330
1A
100
AcDbEntity
  8
ZISSEN1
100
AcDbLine
 10
-1541.000000000003
 20
1545.0
 30
0.0
 11
-1543.000000000003
 21
1545.0
 31
0.0
  0
LINE
  5
14C19
330
1A
100
AcDbEntity
  8
ZISSEN1
100
AcDbLine
 10
-1541.000000000003
 20
1540.0
 30
0.0
 11
-1543.000000000003
 21
1540.0
 31
0.0
  0
LINE
  5
14C1A
330
1A
100
AcDbEntity
  8
ZISSEN1
100
AcDbLine
 10
-1543.000000000003
 20
1539.985
 30
0.0
 11
-1543.000000000003
 21
1544.985
 31
0.0
  0
LINE
  5
14C1B
330
1A
100
AcDbEntity
  8
ZISSEN1
100
AcDbLine
 10
-1543.000000000003
 20
1504.0
 30
0.0
 11
-1541.000000000003
 21
1504.0
 31
0.0
  0
LINE
  5
14C1C
330
1A
100
AcDbEntity
  8
ZISSEN1
100
AcDbLine
 10
-1543.000000000003
 20
1509.0
 30
0.0
 11
-1541.000000000003
 21
1509.0
 31
0.0
  0
ELLIPSE
  5
14C1D
330
1A
100
AcDbEntity
  8
ZISSEN1
 48
0.4
100
AcDbEllipse
 10
-1510.249839131345
 20
1506.500000000272
 30
0.0
 11
-0.0000000000000017
 21
2.75
 31
0.0
210
0.0
220
0.0
230
-1.0
 40
0.3090909090909173
 41
6.283185307179586
 42
9.424777960769379
  0
LINE
  5
14C1E
330
1A
100
AcDbEntity
  8
ZISSEN1
 48
0.4
100
AcDbLine
 10
-1510.249839131345
 20
1509.250000000273
 30
0.0
 11
-1510.999839131345
 21
1509.250000000273
 31
0.0
  0
LINE
  5
14C1F
330
1A
100
AcDbEntity
  8
ZISSEN1
 48
0.4
100
AcDbLine
 10
-1510.249839131345
 20
1503.750000000272
 30
0.0
 11
-1510.999839131345
 21
1503.750000000272
 31
0.0
  0
LINE
  5
14C20
330
1A
100
AcDbEntity
  8
ZISSEN1
100
AcDbLine
 10
-1510.999839131345
 20
1503.750000000272
 30
0.0
 11
-1510.999839131345
 21
1509.250000000273
 31
0.0
  0
LINE
  5
14C21
330
1A
100
AcDbEntity
  8
ZISSEN1
 48
0.4
100
AcDbLine
 10
-1516.050000000003
 20
1509.250000000273
 30
0.0
 11
-1516.800000000003
 21
1509.250000000273
 31
0.0
  0
LINE
  5
14C22
330
1A
100
AcDbEntity
  8
ZISSEN1
 48
0.4
100
AcDbLine
 10
-1516.050000000003
 20
1503.750000000272
 30
0.0
 11
-1516.800000000003
 21
1503.750000000272
 31
0.0
  0
LINE
  5
14C23
330
1A
100
AcDbEntity
  8
ZISSEN1
100
AcDbLine
 10
-1516.800000000003
 20
1503.750000000272
 30
0.0
 11
-1516.800000000003
 21
1509.250000000273
 31
0.0
  0
LINE
  5
14C24
330
1A
100
AcDbEntity
  8
ZISSEN1
100
AcDbLine
 10
-1511.799839131344
 20
1504.0
 30
0.0
 11
-1510.999839131345
 21
1504.0
 31
0.0
  0
LINE
  5
14C25
330
1A
100
AcDbEntity
  8
ZISSEN1
100
AcDbLine
 10
-1511.799839131344
 20
1508.52
 30
0.0
 11
-1516.800000000003
 21
1508.52
 31
0.0
  0
LINE
  5
14C26
330
1A
100
AcDbEntity
  8
ZISSEN1
100
AcDbLine
 10
-1511.799839131344
 20
1504.479999999999
 30
0.0
 11
-1516.800000000003
 21
1504.479999999999
 31
0.0
  0
LINE
  5
14C27
330
1A
100
AcDbEntity
  8
ZISSEN1
100
AcDbLine
 10
-1518.400000000001
 20
1504.479999999999
 30
0.0
 11
-1522.199839131342
 21
1504.479999999999
 31
0.0
  0
LINE
  5
14C28
330
1A
100
AcDbEntity
  8
ZISSEN1
100
AcDbLine
 10
-1518.400000000001
 20
1508.52
 30
0.0
 11
-1522.199839131342
 21
1508.52
 31
0.0
  0
LINE
  5
14C29
330
1A
100
AcDbEntity
  8
ZISSEN1
100
AcDbLine
 10
-1535.900000000005
 20
1503.619999999999
 30
0.0
 11
-1533.500000000007
 21
1503.619999999999
 31
0.0
  0
LINE
  5
14C2A
330
1A
100
AcDbEntity
  8
ZISSEN1
100
AcDbLine
 10
-1535.900000000005
 20
1503.619999999995
 30
0.0
 11
-1535.900000000005
 21
1504.0
 31
0.0
  0
LINE
  5
14C2B
330
1A
100
AcDbEntity
  8
ZISSEN1
100
AcDbLine
 10
-1533.500000000007
 20
1503.619999999999
 30
0.0
 11
-1533.500000000007
 21
1504.0
 31
0.0
  0
LINE
  5
14C2C
330
1A
100
AcDbEntity
  8
ZISSEN1
100
AcDbLine
 10
-1516.050000000003
 20
1503.750000000272
 30
0.0
 11
-1515.626206559042
 21
1504.479999999999
 31
0.0
  0
LINE
  5
14C2D
330
1A
100
AcDbEntity
  8
ZISSEN1
100
AcDbLine
 10
-1515.626206559042
 20
1508.519999999997
 30
0.0
 11
-1516.050000000003
 21
1509.250000000273
 31
0.0
  0
ELLIPSE
  5
14C2E
330
1A
100
AcDbEntity
  8
ZISSEN1
 48
0.4
100
AcDbEllipse
 10
-1496.500050649181
 20
1502.900000000001
 30
0.0
 11
-3.149999999999636
 21
0.000000000000001
 31
0.0
210
0.0
220
0.0
230
1.0
 40
0.3174603174603541
 41
3.141592653589793
 42
6.283185307179586
  0
LINE
  5
14C2F
330
1A
100
AcDbEntity
  8
ZISSEN1
 48
0.4
100
AcDbLine
 10
-1493.35005064918
 20
1502.900000000001
 30
0.0
 11
-1493.35005064918
 21
1502.0
 31
0.0
  0
LINE
  5
14C30
330
1A
100
AcDbEntity
  8
ZISSEN1
100
AcDbLine
 10
-1499.650050649179
 20
1502.0
 30
0.0
 11
-1493.35005064918
 21
1502.0
 31
0.0
  0
LINE
  5
14C31
330
1A
100
AcDbEntity
  8
ZISSEN1
 48
0.4
100
AcDbLine
 10
-1499.650050649179
 20
1502.900000000001
 30
0.0
 11
-1499.650050649179
 21
1502.0
 31
0.0
  0
ELLIPSE
  5
14C32
330
1A
100
AcDbEntity
  8
ZISSEN1
 48
0.4
100
AcDbEllipse
 10
-1395.5
 20
1502.900000000001
 30
0.0
 11
-3.149999999999636
 21
0.000000000000001
 31
0.0
210
0.0
220
0.0
230
1.0
 40
0.3174603174603541
 41
3.141592653589793
 42
6.283185307179586
  0
LINE
  5
14C33
330
1A
100
AcDbEntity
  8
ZISSEN1
 48
0.4
100
AcDbLine
 10
-1392.349999999998
 20
1502.900000000001
 30
0.0
 11
-1392.349999999998
 21
1502.0
 31
0.0
  0
LINE
  5
14C34
330
1A
100
AcDbEntity
  8
ZISSEN1
100
AcDbLine
 10
-1399.649999999997
 20
1502.0
 30
0.0
 11
-1393.349999999998
 21
1502.0
 31
0.0
  0
LINE
  5
14C35
330
1A
100
AcDbEntity
  8
ZISSEN1
 48
0.4
100
AcDbLine
 10
-1398.649999999997
 20
1502.900000000001
 30
0.0
 11
-1398.649999999997
 21
1502.0
 31
0.0
  0
LINE
  5
14C36
330
1A
100
AcDbEntity
  8
ZISSEN1
100
AcDbLine
 10
-1392.0
 20
1502.0
 30
0.0
 11
-1392.0
 21
1500.0
 31
0.0
  0
LINE
  5
14C37
330
1A
100
AcDbEntity
  8
ZISSEN1
100
AcDbLine
 10
-1400.0
 20
1510.749999999999
 30
0.0
 11
-1400.0
 21
1502.0
 31
0.0
  0
LINE
  5
14C38
330
1A
100
AcDbEntity
  8
ZISSEN1
100
AcDbLine
 10
-1398.5
 20
1504.0
 30
0.0
 11
-1399.299999999999
 21
1504.0
 31
0.0
  0
LINE
  5
14C39
330
1A
100
AcDbEntity
  8
ZISSEN1
100
AcDbLine
 10
-1398.5
 20
1513.0
 30
0.0
 11
-1398.5
 21
1504.0
 31
0.0
  0
ARC
  5
14C3A
330
1A
100
AcDbEntity
  8
ZISSEN1
100
AcDbCircle
 10
-1400.999999999998
 20
1503.499999999999
 30
0.0
 40
1.0
100
AcDbArc
 50
90.0
 51
180.0
  0
ARC
  5
14C3B
330
1A
100
AcDbEntity
  8
ZISSEN1
100
AcDbCircle
 10
-1491.999999999998
 20
1503.499999999999
 30
0.0
 40
1.0
100
AcDbArc
 50
0.0
 51
90.0
  0
LINE
  5
14C3C
330
1A
100
AcDbEntity
  8
ZISSEN1
100
AcDbLine
 10
-1445.492011835405
 20
1560.0
 30
0.0
 11
-1445.492011835405
 21
1560.5
 31
0.0
  0
LINE
  5
14C3D
330
1A
100
AcDbEntity
  8
ZISSEN1
100
AcDbLine
 10
-1461.404224990725
 20
1560.0
 30
0.0
 11
-1494.499993094057
 21
1560.0
 31
0.0
  0
LINE
  5
14C3E
330
1A
100
AcDbEntity
  8
ZISSEN1
100
AcDbLine
 10
-1398.5
 20
1560.0
 30
0.0
 11
-1407.099999999998
 21
1560.0
 31
0.0
  0
LINE
  5
14C9F
330
1A
100
AcDbEntity
  8
ZISSEN1
100
AcDbLine
 10
-1416.994857215522
 20
1560.0
 30
0.0
 11
-1445.604124990721
 21
1560.0
 31
0.0
  0
LINE
  5
14CA0
330
1A
100
AcDbEntity
  8
ZISSEN1
100
AcDbLine
 10
-1391.0
 20
1502.0
 30
0.0
 11
-1500.0
 21
1502.0
 31
0.0
  0
LINE
  5
14CA1
330
1A
100
AcDbEntity
  8
ZISSEN1
100
AcDbLine
 10
-1492.0
 20
1509.250160358915
 30
0.0
 11
-1492.0
 21
1504.5
 31
0.0
  0
LINE
  5
14CA2
330
1A
100
AcDbEntity
  8
ZISSEN1
100
AcDbLine
 10
-1499.0
 20
1500.0
 30
0.0
 11
-1499.0
 21
1502.0
 31
0.0
  0
LINE
  5
14CA3
330
1A
100
AcDbEntity
  8
ZISSEN1
100
AcDbLine
 10
-1392.0
 20
1502.0
 30
0.0
 11
-1392.0
 21
1500.0
 31
0.0
  0
LINE
  5
14CA4
330
1A
100
AcDbEntity
  8
ZISSEN1
100
AcDbLine
 10
-1391.0
 20
1502.0
 30
0.0
 11
-1391.0
 21
1500.0
 31
0.0
  0
LINE
  5
14CA5
330
1A
100
AcDbEntity
  8
ZISSEN1
100
AcDbLine
 10
-1500.0
 20
1500.0
 30
0.0
 11
-1500.0
 21
1502.0
 31
0.0
  0
LINE
  5
14CA6
330
1A
100
AcDbEntity
  8
ZISSEN1
100
AcDbLine
 10
-1398.5
 20
1513.0
 30
0.0
 11
-1398.5
 21
1560.0
 31
0.0
  0
LINE
  5
14CA7
330
1A
100
AcDbEntity
  8
ZISSEN1
100
AcDbLine
 10
-1494.5
 20
1560.0
 30
0.0
 11
-1494.5
 21
1513.0
 31
0.0
  0
LINE
  5
14CA8
330
1A
100
AcDbEntity
  8
ZISSEN1
100
AcDbLine
 10
-1494.5
 20
1513.0
 30
0.0
 11
-1488.5
 21
1504.0
 31
0.0
  0
LINE
  5
14CA9
330
1A
100
AcDbEntity
  8
ZISSEN1
100
AcDbLine
 10
-1493.2
 20
1511.199433427762
 30
0.0
 11
-1493.2
 21
1502.0
 31
0.0
  0
LINE
  5
14CAA
330
1A
100
AcDbEntity
  8
ZISSEN1
100
AcDbLine
 10
-1494.0
 20
1512.413953488368
 30
0.0
 11
-1494.0
 21
1502.0
 31
0.0
  0
LINE
  5
14CAB
330
1A
100
AcDbEntity
  8
ZISSEN1
100
AcDbLine
 10
-1398.5
 20
1513.0
 30
0.0
 11
-1404.5
 21
1504.0
 31
0.0
  0
LINE
  5
14CAC
330
1A
100
AcDbEntity
  8
ZISSEN1
100
AcDbLine
 10
-1399.299999999999
 20
1511.799999999999
 30
0.0
 11
-1399.299999999999
 21
1504.0
 31
0.0
  0
LINE
  5
14CBB
330
1A
100
AcDbEntity
  8
ZISSEN1
100
AcDbLine
 10
-1461.404124990724
 20
1552.449999999998
 30
0.0
 11
-1461.404124990724
 21
1563.95
 31
0.0
  0
LINE
  5
14CBC
330
1A
100
AcDbEntity
  8
ZISSEN1
100
AcDbLine
 10
-1445.604124990721
 20
1552.449999999998
 30
0.0
 11
-1445.604124990721
 21
1563.95
 31
0.0
  0
LINE
  5
14CE2
330
1A
100
AcDbEntity
  8
ZISSEN1
100
AcDbLine
 10
-1445.104124990721
 20
1550.0
 30
0.0
 11
-1445.104124990721
 21
1559.999999999998
 31
0.0
  0
LINE
  5
14CE3
330
1A
100
AcDbEntity
  8
ZISSEN1
100
AcDbLine
 10
-1461.904124990724
 20
1550.0
 30
0.0
 11
-1445.104124990721
 21
1550.0
 31
0.0
  0
LINE
  5
14CE4
330
1A
100
AcDbEntity
  8
ZISSEN1
100
AcDbLine
 10
-1461.904124990724
 20
1550.0
 30
0.0
 11
-1461.904124990724
 21
1559.999999999998
 31
0.0
  0
LINE
  5
14CE8
330
1A
100
AcDbEntity
  8
ZISSEN1
100
AcDbLine
 10
-1407.099999999998
 20
1563.95
 30
0.0
 11
-1407.099999999998
 21
1555.3
 31
0.0
  0
LINE
  5
14CEA
330
1A
100
AcDbEntity
  8
ZISSEN1
100
AcDbLine
 10
-1416.999999999996
 20
1563.95
 30
0.0
 11
-1407.099999999998
 21
1563.95
 31
0.0
  0
LINE
  5
14CEB
330
1A
100
AcDbEntity
  8
ZISSEN1
100
AcDbLine
 10
-1416.999999999996
 20
1563.95
 30
0.0
 11
-1416.999999999996
 21
1555.3
 31
0.0
  0
LINE
  5
14CFF
330
1A
100
AcDbEntity
  8
ZISSEN1
100
AcDbLine
 10
-1406.599999999998
 20
1559.999999999996
 30
0.0
 11
-1406.599999999998
 21
1551.399999999997
 31
0.0
  0
LINE
  5
14D00
330
1A
100
AcDbEntity
  8
ZISSEN1
100
AcDbLine
 10
-1417.5
 20
1559.999999999996
 30
0.0
 11
-1417.5
 21
1551.399999999997
 31
0.0
  0
LINE
  5
14D01
330
1A
100
AcDbEntity
  8
ZISSEN1
100
AcDbLine
 10
-1417.5
 20
1551.399999999997
 30
0.0
 11
-1406.599999999998
 21
1551.399999999997
 31
0.0
  0
LINE
  5
14D02
330
1A
100
AcDbEntity
  8
ZISSEN1
100
AcDbLine
 10
-1406.599999999998
 20
1559.2
 30
0.0
 11
-1407.099999999998
 21
1559.2
 31
0.0
  0
LINE
  5
14D03
330
1A
100
AcDbEntity
  8
ZISSEN1
100
AcDbLine
 10
-1417.5
 20
1559.2
 30
0.0
 11
-1416.999999999996
 21
1559.199999999997
 31
0.0
  0
LINE
  5
14D08
330
1A
100
AcDbEntity
  8
ZISSEN1
100
AcDbLine
 10
-1398.5
 20
1511.0
 30
0.0
 11
-1398.5
 21
1502.0
 31
0.0
  0
LINE
  5
14D09
330
1A
100
AcDbEntity
  8
ZISSEN1
100
AcDbLine
 10
-1398.5
 20
1511.0
 30
0.0
 11
-1396.5
 21
1511.0
 31
0.0
  0
LINE
  5
14D0A
330
1A
100
AcDbEntity
  8
ZISSEN1
100
AcDbLine
 10
-1396.5
 20
1511.0
 30
0.0
 11
-1396.5
 21
1502.0
 31
0.0
  0
LINE
  5
14D0B
330
1A
100
AcDbEntity
  8
ZISSEN1
100
AcDbLine
 10
-1398.5
 20
1510.0
 30
0.0
 11
-1396.5
 21
1510.0
 31
0.0
  0
LINE
  5
14D0D
330
1A
100
AcDbEntity
  8
ZISSEN1
100
AcDbLine
 10
-1401.0
 20
1509.25
 30
0.0
 11
-1401.0
 21
1504.5
 31
0.0
  0
LINE
  5
14D0E
330
1A
100
AcDbEntity
  8
ZISSEN1
100
AcDbLine
 10
-1493.0
 20
1510.750160358915
 30
0.0
 11
-1493.0
 21
1502.0
 31
0.0
  0
LINE
  5
14D0F
330
1A
100
AcDbEntity
  8
ZISSEN1
100
AcDbLine
 10
-1461.404124990724
 20
1563.95
 30
0.0
 11
-1445.604124990721
 21
1563.95
 31
0.0
  0
LINE
  5
14D15
330
1A
100
AcDbEntity
  8
ZISSEN1
100
AcDbLine
 10
-1402.0
 20
1503.5
 30
0.0
 11
-1491.0
 21
1503.5
 31
0.0
  0
LINE
  5
14D16
330
1A
100
AcDbEntity
  8
ZISSEN1
100
AcDbLine
 10
-1488.499893094056
 20
1504.0
 30
0.0
 11
-1404.5
 21
1504.0
 31
0.0
  0
LINE
  5
14D17
330
1A
100
AcDbEntity
  8
ZISSEN1
100
AcDbLine
 10
-1445.492011835405
 20
1560.5
 30
0.0
 11
-1445.604124990721
 21
1560.5
 31
0.0
  0
CIRCLE
  5
14D28
330
1A
100
AcDbEntity
  8
出力ｷﾊ_ﾝ
100
AcDbCircle
 10
-1486.999999999998
 20
1506.499999999999
 30
0.0
 40
2.75
  0
LINE
  5
14D2A
330
1A
100
AcDbEntity
  8
ZISSEN1
 48
0.4
100
AcDbLine
 10
-1395.599999999998
 20
1510.449999999998
 30
0.0
 11
-1396.5
 21
1510.449999999998
 31
0.0
  0
LINE
  5
14D2B
330
1A
100
AcDbEntity
  8
ZISSEN1
 48
0.4
100
AcDbLine
 10
-1395.599999999998
 20
1504.149999999999
 30
0.0
 11
-1396.5
 21
1504.149999999999
 31
0.0
  0
ELLIPSE
  5
14D2C
330
1A
100
AcDbEntity
  8
ZISSEN1
 48
0.4
100
AcDbEllipse
 10
-1395.599999999998
 20
1507.299999999999
 30
0.0
 11
0.0000000000000008
 21
3.149999999999636
 31
0.0
210
0.0
220
0.0
230
1.0
 40
0.3174603174603541
 41
3.141592653589793
 42
6.283185307179586
  0
LINE
  5
14D2D
330
1A
100
AcDbEntity
  8
ZISSEN1
100
AcDbLine
 10
-1390.999906451246
 20
1627.749997370904
 30
0.0
 11
-1392.999906451246
 21
1627.749997370904
 31
0.0
  0
LINE
  5
14D2E
330
1A
100
AcDbEntity
  8
ZISSEN1
100
AcDbLine
 10
-1390.999906451246
 20
1624.249997370904
 30
0.0
 11
-1392.999906451246
 21
1624.249997370904
 31
0.0
  0
LINE
  5
14D2F
330
1A
100
AcDbEntity
  8
ZISSEN1
100
AcDbLine
 10
-1500.0
 20
1636.899997370904
 30
0.0
 11
-1500.0
 21
1627.749997370902
 31
0.0
  0
LINE
  5
14D30
330
1A
100
AcDbEntity
  8
ZISSEN1
100
AcDbLine
 10
-1390.999906451246
 20
1636.899997370904
 30
0.0
 11
-1390.999906451246
 21
1627.749997370904
 31
0.0
  0
LINE
  5
14D31
330
1A
100
AcDbEntity
  8
ZISSEN1
100
AcDbLine
 10
-1498.999906451246
 20
1637.899997370904
 30
0.0
 11
-1495.499906451246
 21
1637.899957153743
 31
0.0
  0
LINE
  5
14D32
330
1A
100
AcDbEntity
  8
ZISSEN1
100
AcDbLine
 10
-1391.999906451246
 20
1637.899997370904
 30
0.0
 11
-1398.499906451246
 21
1637.89991693658
 31
0.0
  0
LINE
  5
14D33
330
1A
100
AcDbEntity
  8
ZISSEN1
100
AcDbLine
 10
-1400.000018662887
 20
1647.999916936575
 30
0.0
 11
-1400.000025676117
 21
1647.499916936575
 31
0.0
  0
LINE
  5
14D34
330
1A
100
AcDbEntity
  8
ZISSEN1
100
AcDbLine
 10
-1401.000144900988
 20
1647.999916936575
 30
0.0
 11
-1401.000144900988
 21
1647.499916936575
 31
0.0
  0
LINE
  5
14E0E
330
1A
100
AcDbEntity
  8
ZISSEN1
  6
CONTINUOUS
100
AcDbLine
 10
-1448.3
 20
1656.5
 30
0.0
 11
-1448.3
 21
1648.3
 31
0.0
  0
LINE
  5
14E16
330
1A
100
AcDbEntity
  8
ZISSEN1
  6
CONTINUOUS
100
AcDbLine
 10
-1493.089374963981
 20
1656.5
 30
0.0
 11
-1493.089374963981
 21
1648.3
 31
0.0
  0
LINE
  5
14E2C
330
1A
100
AcDbEntity
  8
ZISSEN1
  6
CONTINUOUS
100
AcDbLine
 10
-1493.0
 20
1648.3
 30
0.0
 11
-1448.3
 21
1648.3
 31
0.0
  0
LINE
  5
14E2D
330
1A
100
AcDbEntity
  8
ZISSEN1
  6
CONTINUOUS
100
AcDbLine
 10
-1493.0
 20
1656.5
 30
0.0
 11
-1448.3
 21
1656.5
 31
0.0
  0
LINE
  5
14E8E
330
1A
100
AcDbEntity
  8
ZISSEN1
100
AcDbLine
 10
-1400.000018662887
 20
1647.999916936575
 30
0.0
 11
-1492.999799545302
 21
1647.999916936575
 31
0.0
  0
LINE
  5
14EEF
330
1A
100
AcDbEntity
  8
ZISSEN1
  6
CONTINUOUS
100
AcDbLine
 10
-1444.7
 20
1656.5
 30
0.0
 11
-1400.0
 21
1656.5
 31
0.0
  0
LINE
  5
14EF0
330
1A
100
AcDbEntity
  8
ZISSEN1
  6
CONTINUOUS
100
AcDbLine
 10
-1444.7
 20
1648.3
 30
0.0
 11
-1400.0
 21
1648.3
 31
0.0
  0
LINE
  5
14F06
330
1A
100
AcDbEntity
  8
ZISSEN1
  6
CONTINUOUS
100
AcDbLine
 10
-1444.7
 20
1656.5
 30
0.0
 11
-1444.7
 21
1648.3
 31
0.0
  0
LINE
  5
14F0E
330
1A
100
AcDbEntity
  8
ZISSEN1
  6
CONTINUOUS
100
AcDbLine
 10
-1399.910437938511
 20
1656.5
 30
0.0
 11
-1399.910437938511
 21
1648.3
 31
0.0
  0
LINE
  5
14FEB
330
1A
100
AcDbEntity
  8
ZISSEN1
100
AcDbLine
 10
-1398.499906451246
 20
1649.999916936575
 30
0.0
 11
-1399.299906451245
 21
1649.999916936575
 31
0.0
  0
LINE
  5
14FEC
330
1A
100
AcDbEntity
  8
ZISSEN1
100
AcDbLine
 10
-1461.899031441973
 20
1619.999916936575
 30
0.0
 11
-1461.899031441973
 21
1623.699916936575
 31
0.0
  0
LINE
  5
14FED
330
1A
100
AcDbEntity
  8
ZISSEN1
100
AcDbLine
 10
-1491.999799545302
 20
1647.999916936575
 30
0.0
 11
-1491.999799545302
 21
1647.499916936575
 31
0.0
  0
LINE
  5
14FEE
330
1A
100
AcDbEntity
  8
ZISSEN1
100
AcDbLine
 10
-1492.999799545302
 20
1647.999916936575
 30
0.0
 11
-1492.999799545302
 21
1647.499916936575
 31
0.0
  0
LINE
  5
14FEF
330
1A
100
AcDbEntity
  8
ZISSEN1
100
AcDbLine
 10
-1492.999799545302
 20
1639.399916936573
 30
0.0
 11
-1492.999799545302
 21
1639.899916936573
 31
0.0
  0
LINE
  5
14FF0
330
1A
100
AcDbEntity
  8
ZISSEN1
100
AcDbLine
 10
-1398.499906451246
 20
1648.999916936575
 30
0.0
 11
-1399.299906451245
 21
1648.999916936575
 31
0.0
  0
LINE
  5
14FF1
330
1A
100
AcDbEntity
  8
ZISSEN1
100
AcDbLine
 10
-1399.999906451246
 20
1639.399916936573
 30
0.0
 11
-1399.999906451246
 21
1639.899916936573
 31
0.0
  0
LINE
  5
14FF2
330
1A
100
AcDbEntity
  8
ZISSEN1
100
AcDbLine
 10
-1445.59903144197
 20
1627.399916936576
 30
0.0
 11
-1445.59903144197
 21
1625.799916936574
 31
0.0
  0
LINE
  5
14FF3
330
1A
100
AcDbEntity
  8
ZISSEN1
100
AcDbLine
 10
-1466.023427468573
 20
1627.899916936576
 30
0.0
 11
-1445.09903144197
 21
1627.899916936576
 31
0.0
  0
LINE
  5
14FF4
330
1A
100
AcDbEntity
  8
ZISSEN1
100
AcDbLine
 10
-1444.999906451246
 20
1639.899916936573
 30
0.0
 11
-1398.499906451246
 21
1639.899916936573
 31
0.0
  0
LINE
  5
14FF5
330
1A
100
AcDbEntity
  8
ZISSEN1
100
AcDbLine
 10
-1444.999906451246
 20
1647.499916936575
 30
0.0
 11
-1398.499906451246
 21
1647.499916936575
 31
0.0
  0
LINE
  5
14FF6
330
1A
100
AcDbEntity
  8
ZISSEN1
100
AcDbLine
 10
-1444.999906451246
 20
1646.399916936573
 30
0.0
 11
-1447.999906451246
 21
1646.399916936573
 31
0.0
  0
LINE
  5
14FF7
330
1A
100
AcDbEntity
  8
ZISSEN1
100
AcDbLine
 10
-1444.999906451246
 20
1640.999916936575
 30
0.0
 11
-1447.999906451246
 21
1640.999916936575
 31
0.0
  0
LINE
  5
14FF8
330
1A
100
AcDbEntity
  8
ZISSEN1
100
AcDbLine
 10
-1445.499906451246
 20
1639.399916936573
 30
0.0
 11
-1447.499906451246
 21
1639.399916936573
 31
0.0
  0
LINE
  5
14FF9
330
1A
100
AcDbEntity
  8
ZISSEN1
100
AcDbLine
 10
-1447.499906451246
 20
1639.399916936573
 30
0.0
 11
-1447.499906451246
 21
1640.999916936575
 31
0.0
  0
LINE
  5
14FFA
330
1A
100
AcDbEntity
  8
ZISSEN1
100
AcDbLine
 10
-1445.499906451246
 20
1639.399916936573
 30
0.0
 11
-1445.499906451246
 21
1640.999916936575
 31
0.0
  0
LINE
  5
14FFB
330
1A
100
AcDbEntity
  8
ZISSEN1
100
AcDbLine
 10
-1444.999906451246
 20
1639.899916936573
 30
0.0
 11
-1444.999906451246
 21
1641.499916936575
 31
0.0
  0
LINE
  5
14FFC
330
1A
100
AcDbEntity
  8
ZISSEN1
100
AcDbLine
 10
-1447.999906451246
 20
1639.899916936573
 30
0.0
 11
-1447.999906451246
 21
1641.499916936575
 31
0.0
  0
LINE
  5
14FFD
330
1A
100
AcDbEntity
  8
ZISSEN1
100
AcDbLine
 10
-1444.999906451246
 20
1641.499916936575
 30
0.0
 11
-1447.999906451246
 21
1641.499916936575
 31
0.0
  0
LINE
  5
14FFE
330
1A
100
AcDbEntity
  8
ZISSEN1
100
AcDbLine
 10
-1444.999906451246
 20
1645.899916936573
 30
0.0
 11
-1447.999906451246
 21
1645.899916936573
 31
0.0
  0
LINE
  5
14FFF
330
1A
100
AcDbEntity
  8
ZISSEN1
100
AcDbLine
 10
-1447.999906451246
 20
1647.499916936575
 30
0.0
 11
-1447.999906451246
 21
1645.899916936573
 31
0.0
  0
LINE
  5
15000
330
1A
100
AcDbEntity
  8
ZISSEN1
100
AcDbLine
 10
-1444.999906451246
 20
1647.499916936575
 30
0.0
 11
-1444.999906451246
 21
1645.899916936573
 31
0.0
  0
LINE
  5
15001
330
1A
100
AcDbEntity
  8
ZISSEN1
100
AcDbLine
 10
-1445.499906451246
 20
1647.999916936575
 30
0.0
 11
-1445.499906451246
 21
1646.399916936573
 31
0.0
  0
LINE
  5
15002
330
1A
100
AcDbEntity
  8
ZISSEN1
100
AcDbLine
 10
-1447.499906451246
 20
1647.999916936575
 30
0.0
 11
-1447.499906451246
 21
1646.399916936573
 31
0.0
  0
LINE
  5
15003
330
1A
100
AcDbEntity
  8
ZISSEN1
100
AcDbLine
 10
-1493.699799545303
 20
1639.899916936573
 30
0.0
 11
-1493.699799545303
 21
1630.399916936573
 31
0.0
  0
LINE
  5
15004
330
1A
100
AcDbEntity
  8
ZISSEN1
100
AcDbLine
 10
-1493.699799545303
 20
1649.999916936575
 30
0.0
 11
-1493.699799545303
 21
1647.499916936575
 31
0.0
  0
LINE
  5
1500A
330
1A
100
AcDbEntity
  8
ZISSEN1
100
AcDbLine
 10
-1406.599906451244
 20
1625.799916936574
 30
0.0
 11
-1417.499906451242
 21
1625.799916936574
 31
0.0
  0
LINE
  5
1500B
330
1A
100
AcDbEntity
  8
ZISSEN1
100
AcDbLine
 10
-1493.699799545303
 20
1649.999916936575
 30
0.0
 11
-1494.499799545302
 21
1649.999916936575
 31
0.0
  0
LINE
  5
1500C
330
1A
100
AcDbEntity
  8
ZISSEN1
100
AcDbLine
 10
-1466.103427468571
 20
1627.399916936576
 30
0.0
 11
-1445.09903144197
 21
1627.399916936576
 31
0.0
  0
LINE
  5
1500D
330
1A
100
AcDbEntity
  8
ZISSEN1
  6
CONTINUOUS
100
AcDbLine
 10
-1494.5
 20
1622.8
 30
0.0
 11
-1494.5
 21
1650.0
 31
0.0
  0
LINE
  5
1500E
330
1A
100
AcDbEntity
  8
ZISSEN1
100
AcDbLine
 10
-1417.499906451242
 20
1626.299916936574
 30
0.0
 11
-1417.499906451242
 21
1620.000294911663
 31
0.0
  0
LINE
  5
1500F
330
1A
100
AcDbEntity
  8
ZISSEN1
100
AcDbLine
 10
-1406.599906451244
 20
1626.299916936574
 30
0.0
 11
-1417.499906451242
 21
1626.299916936574
 31
0.0
  0
LINE
  5
15010
330
1A
100
AcDbEntity
  8
ZISSEN1
100
AcDbLine
 10
-1447.999906451246
 20
1639.899916936573
 30
0.0
 11
-1494.499799545302
 21
1639.899916936573
 31
0.0
  0
LINE
  5
15011
330
1A
100
AcDbEntity
  8
ZISSEN1
  6
CONTINUOUS
100
AcDbLine
 10
-1398.499906451246
 20
1630.399916936573
 30
0.0
 11
-1494.499799545302
 21
1630.399916936573
 31
0.0
  0
LINE
  5
15012
330
1A
100
AcDbEntity
  8
ZISSEN1
  6
CONTINUOUS
100
AcDbLine
 10
-1399.299906451245
 20
1630.399916936573
 30
0.0
 11
-1399.299906451245
 21
1639.899916936573
 31
0.0
  0
LINE
  5
15013
330
1A
100
AcDbEntity
  8
ZISSEN1
100
AcDbLine
 10
-1406.599906451244
 20
1620.000294911663
 30
0.0
 11
-1406.599906451244
 21
1626.299916936574
 31
0.0
  0
LINE
  5
15014
330
1A
100
AcDbEntity
  8
ZISSEN1
  6
CONTINUOUS
100
AcDbLine
 10
-1398.499906451246
 20
1649.999916936575
 30
0.0
 11
-1398.499906451246
 21
1622.800294911658
 31
0.0
  0
LINE
  5
15015
330
1A
100
AcDbEntity
  8
ZISSEN1
100
AcDbLine
 10
-1447.999906451246
 20
1647.499916936575
 30
0.0
 11
-1494.499799545302
 21
1647.499916936575
 31
0.0
  0
LINE
  5
15016
330
1A
100
AcDbEntity
  8
ZISSEN1
  6
CONTINUOUS
100
AcDbLine
 10
-1399.299906451245
 20
1649.999916936575
 30
0.0
 11
-1399.299906451245
 21
1647.499916936575
 31
0.0
  0
LINE
  5
15017
330
1A
100
AcDbEntity
  8
ZISSEN1
100
AcDbLine
 10
-1487.523374338202
 20
1630.399916936573
 30
0.0
 11
-1487.523374338202
 21
1630.899916936573
 31
0.0
  0
LINE
  5
150F1
330
1A
100
AcDbEntity
  8
ZISSEN1
  6
CONTINUOUS
100
AcDbLine
 10
-1448.3
 20
1630.9
 30
0.0
 11
-1448.3
 21
1639.1
 31
0.0
  0
LINE
  5
150F9
330
1A
100
AcDbEntity
  8
ZISSEN1
  6
CONTINUOUS
100
AcDbLine
 10
-1493.089374963981
 20
1630.9
 30
0.0
 11
-1493.089374963981
 21
1639.1
 31
0.0
  0
LINE
  5
1510F
330
1A
100
AcDbEntity
  8
ZISSEN1
  6
CONTINUOUS
100
AcDbLine
 10
-1493.0
 20
1639.1
 30
0.0
 11
-1448.3
 21
1639.1
 31
0.0
  0
LINE
  5
15110
330
1A
100
AcDbEntity
  8
ZISSEN1
  6
CONTINUOUS
100
AcDbLine
 10
-1493.0
 20
1630.9
 30
0.0
 11
-1448.3
 21
1630.9
 31
0.0
  0
LINE
  5
15171
330
1A
100
AcDbEntity
  8
ZISSEN1
100
AcDbLine
 10
-1399.999906451246
 20
1639.399916936573
 30
0.0
 11
-1492.999799545302
 21
1639.399916936573
 31
0.0
  0
LINE
  5
15172
330
1A
100
AcDbEntity
  8
ZISSEN1
100
AcDbLine
 10
-1445.59903144197
 20
1625.799916936574
 30
0.0
 11
-1466.103427468571
 21
1625.799916936574
 31
0.0
  0
LINE
  5
15173
330
1A
100
AcDbEntity
  8
ZISSEN1
100
AcDbLine
 10
-1491.999799545302
 20
1639.399916936573
 30
0.0
 11
-1491.999799545302
 21
1639.899916936573
 31
0.0
  0
LINE
  5
15174
330
1A
100
AcDbEntity
  8
ZISSEN1
100
AcDbLine
 10
-1401.000025676117
 20
1639.399916936573
 30
0.0
 11
-1401.000025676117
 21
1639.899916936573
 31
0.0
  0
LINE
  5
15175
330
1A
100
AcDbEntity
  8
ZISSEN1
100
AcDbLine
 10
-1409.523374338203
 20
1630.399916936573
 30
0.0
 11
-1409.523374338203
 21
1630.899916936573
 31
0.0
  0
LINE
  5
15176
330
1A
100
AcDbEntity
  8
ZISSEN1
100
AcDbLine
 10
-1405.483374338202
 20
1630.899916936573
 30
0.0
 11
-1405.483374338202
 21
1630.399916936573
 31
0.0
  0
LINE
  5
151D7
330
1A
100
AcDbEntity
  8
ZISSEN1
  6
CONTINUOUS
100
AcDbLine
 10
-1444.7
 20
1630.9
 30
0.0
 11
-1400.0
 21
1630.9
 31
0.0
  0
LINE
  5
151D8
330
1A
100
AcDbEntity
  8
ZISSEN1
  6
CONTINUOUS
100
AcDbLine
 10
-1444.7
 20
1639.1
 30
0.0
 11
-1400.0
 21
1639.1
 31
0.0
  0
LINE
  5
151EE
330
1A
100
AcDbEntity
  8
ZISSEN1
  6
CONTINUOUS
100
AcDbLine
 10
-1444.7
 20
1630.9
 30
0.0
 11
-1444.7
 21
1639.1
 31
0.0
  0
LINE
  5
151F6
330
1A
100
AcDbEntity
  8
ZISSEN1
  6
CONTINUOUS
100
AcDbLine
 10
-1399.9
 20
1630.9
 30
0.0
 11
-1399.9
 21
1639.1
 31
0.0
  0
LINE
  5
152D0
330
1A
100
AcDbEntity
  8
ZISSEN1
100
AcDbLine
 10
-1407.099906451245
 20
1625.799916936574
 30
0.0
 11
-1416.999906451242
 21
1625.799916936574
 31
0.0
  0
LINE
  5
152D3
330
1A
100
AcDbEntity
  8
ZISSEN1
100
AcDbLine
 10
-1407.099906451245
 20
1619.099916936574
 30
0.0
 11
-1407.099906451245
 21
1625.799916936574
 31
0.0
  0
LINE
  5
152DC
330
1A
100
AcDbEntity
  8
ZISSEN1
100
AcDbLine
 10
-1416.999906451242
 20
1619.099916936574
 30
0.0
 11
-1407.099906451245
 21
1619.099916936574
 31
0.0
  0
LINE
  5
152E3
330
1A
100
AcDbEntity
  8
ZISSEN1
100
AcDbLine
 10
-1416.999906451242
 20
1625.799916936574
 30
0.0
 11
-1416.999906451242
 21
1619.099916936574
 31
0.0
  0
LINE
  5
152E5
330
1A
100
AcDbEntity
  8
ZISSEN1
100
AcDbLine
 10
-1483.483374338201
 20
1630.399916936573
 30
0.0
 11
-1483.483374338201
 21
1630.899916936573
 31
0.0
  0
LINE
  5
1532C
330
1A
100
AcDbEntity
  8
ZISSEN1
  6
CONTINUOUS
100
AcDbLine
 10
-1493.089374963981
 20
1656.499916936573
 30
0.0
 11
-1493.089374963981
 21
1648.299935936574
 31
0.0
  0
LINE
  5
15342
330
1A
100
AcDbEntity
  8
ZISSEN1
  6
CONTINUOUS
100
AcDbLine
 10
-1493.089374963981
 20
1648.299935936574
 30
0.0
 11
-1488.659377963982
 21
1648.299935936574
 31
0.0
  0
LINE
  5
15343
330
1A
100
AcDbEntity
  8
ZISSEN1
  6
CONTINUOUS
100
AcDbLine
 10
-1493.089374963981
 20
1656.499916936573
 30
0.0
 11
-1482.939219963982
 21
1656.499916936573
 31
0.0
  0
LINE
  5
153A3
330
1A
100
AcDbEntity
  8
ZISSEN1
  6
BYBLOCK
100
AcDbLine
 10
-1447.79903144197
 20
1625.799916936574
 30
0.0
 11
-1445.09903144197
 21
1625.799916936574
 31
0.0
  0
LINE
  5
153AC
330
1A
100
AcDbEntity
  8
実践
100
AcDbLine
 10
-1445.59903144197
 20
1618.099916936575
 30
0.0
 11
-1461.399031441973
 21
1618.099916936575
 31
0.0
  0
LINE
  5
153AF
330
1A
100
AcDbEntity
  8
実践
100
AcDbLine
 10
-1445.59903144197
 20
1618.099916936575
 30
0.0
 11
-1461.399031441973
 21
1618.099916936575
 31
0.0
  0
LINE
  5
153B2
330
1A
100
AcDbEntity
  8
実践
100
AcDbLine
 10
-1461.399031441973
 20
1618.099916936575
 30
0.0
 11
-1461.399031441973
 21
1625.799916936574
 31
0.0
  0
LINE
  5
153B3
330
1A
100
AcDbEntity
  8
実践
100
AcDbLine
 10
-1461.399031441973
 20
1624.499916936575
 30
0.0
 11
-1461.399031441973
 21
1618.099916936575
 31
0.0
  0
LINE
  5
153DC
330
1A
100
AcDbEntity
  8
実践
100
AcDbLine
 10
-1445.59903144197
 20
1627.899916936576
 30
0.0
 11
-1445.59903144197
 21
1618.099916936575
 31
0.0
  0
LINE
  5
15419
330
1A
100
AcDbEntity
  8
ZISSEN1
100
AcDbLine
 10
-1448.519918067345
 20
1630.899916936573
 30
0.0
 11
-1448.519918067345
 21
1630.399916936573
 31
0.0
  0
LINE
  5
1541A
330
1A
100
AcDbEntity
  8
ZISSEN1
100
AcDbLine
 10
-1444.479918067345
 20
1630.899916936573
 30
0.0
 11
-1444.479918067345
 21
1630.399916936573
 31
0.0
  0
LINE
  5
1541B
330
1A
100
AcDbEntity
  8
ZISSEN1
100
AcDbLine
 10
-1461.399031441973
 20
1625.799916936574
 30
0.0
 11
-1461.399031441973
 21
1627.399916936576
 31
0.0
  0
LINE
  5
1541C
330
1A
100
AcDbEntity
  8
ZISSEN1
100
AcDbLine
 10
-1399.299906451245
 20
1620.799916936574
 30
0.0
 11
-1398.499906451246
 21
1620.799916936574
 31
0.0
  0
LINE
  5
1541D
330
1A
100
AcDbEntity
  8
ZISSEN1
100
AcDbLine
 10
-1398.499906451246
 20
1620.799916936574
 30
0.0
 11
-1398.499906451246
 21
1619.999916936575
 31
0.0
  0
LINE
  5
1541E
330
1A
100
AcDbEntity
  8
ZISSEN1
100
AcDbLine
 10
-1444.599984587699
 20
1651.999916936577
 30
0.0
 11
-1448.3
 21
1651.999916936577
 31
0.0
  0
LINE
  5
1541F
330
1A
100
AcDbEntity
  8
ZISSEN1
100
AcDbLine
 10
-1444.599933938514
 20
1653.999916936575
 30
0.0
 11
-1448.3
 21
1653.999916936575
 31
0.0
  0
LINE
  5
15420
330
1A
100
AcDbEntity
  8
ZISSEN1
100
AcDbLine
 10
-1446.59903144197
 20
1627.399916936576
 30
0.0
 11
-1446.59903144197
 21
1625.799916936574
 31
0.0
  0
LINE
  5
15421
330
1A
100
AcDbEntity
  8
ZISSEN1
100
AcDbLine
 10
-1463.548427468571
 20
1624.699916936576
 30
0.0
 11
-1464.79842746857
 21
1624.699916936576
 31
0.0
  0
LINE
  5
15422
330
1A
100
AcDbEntity
  8
ZISSEN1
100
AcDbLine
 10
-1463.548427468571
 20
1625.799916936574
 30
0.0
 11
-1463.548427468571
 21
1624.699916936576
 31
0.0
  0
LINE
  5
15423
330
1A
100
AcDbEntity
  8
ZISSEN1
100
AcDbLine
 10
-1463.548427468571
 20
1625.799916936574
 30
0.0
 11
-1464.79842746857
 21
1625.799916936574
 31
0.0
  0
LINE
  5
15424
330
1A
100
AcDbEntity
  8
ZISSEN1
100
AcDbLine
 10
-1464.79842746857
 20
1624.699916936576
 30
0.0
 11
-1464.79842746857
 21
1625.799916936574
 31
0.0
  0
LINE
  5
15425
330
1A
100
AcDbEntity
  8
ZISSEN1
100
AcDbLine
 10
-1466.103427468571
 20
1623.699916936575
 30
0.0
 11
-1461.899031441973
 21
1623.699916936575
 31
0.0
  0
LINE
  5
15426
330
1A
100
AcDbEntity
  8
ZISSEN1
100
AcDbLine
 10
-1466.103427468571
 20
1623.699916936575
 30
0.0
 11
-1466.103427468571
 21
1627.899916936576
 31
0.0
  0
LINE
  5
15427
330
1A
100
AcDbEntity
  8
ZISSEN1
100
AcDbLine
 10
-1493.7
 20
1620.8
 30
0.0
 11
-1494.5
 21
1620.8
 31
0.0
  0
LINE
  5
15428
330
1A
100
AcDbEntity
  8
ZISSEN1
100
AcDbLine
 10
-1493.7
 20
1620.8
 30
0.0
 11
-1493.7
 21
1622.8
 31
0.0
  0
LINE
  5
15429
330
1A
100
AcDbEntity
  8
ZISSEN1
100
AcDbLine
 10
-1493.7
 20
1622.8
 30
0.0
 11
-1494.5
 21
1622.8
 31
0.0
  0
LINE
  5
1542A
330
1A
100
AcDbEntity
  8
ZISSEN1
100
AcDbLine
 10
-1399.299906451245
 20
1623.799916936574
 30
0.0
 11
-1398.499906451246
 21
1623.799916936574
 31
0.0
  0
LINE
  5
1542B
330
1A
100
AcDbEntity
  8
ZISSEN1
100
AcDbLine
 10
-1399.299906451245
 20
1620.799916936574
 30
0.0
 11
-1399.299906451245
 21
1623.799916936574
 31
0.0
  0
LINE
  5
1542C
330
1A
100
AcDbEntity
  8
ZISSEN1
100
AcDbLine
 10
-1399.299906451245
 20
1620.799916936574
 30
0.0
 11
-1398.499906451246
 21
1620.799916936574
 31
0.0
  0
LINE
  5
1542D
330
1A
100
AcDbEntity
  8
ZISSEN1
100
AcDbLine
 10
-1398.499906451246
 20
1620.799916936574
 30
0.0
 11
-1398.499906451246
 21
1619.999916936575
 31
0.0
  0
LINE
  5
1542E
330
1A
100
AcDbEntity
  8
ZISSEN1
100
AcDbLine
 10
-1398.499906451246
 20
1620.799916936574
 30
0.0
 11
-1398.499906451246
 21
1619.999916936575
 31
0.0
  0
LINE
  5
1542F
330
1A
100
AcDbEntity
  8
ZISSEN1
100
AcDbLine
 10
-1460.399031441973
 20
1625.799916936574
 30
0.0
 11
-1460.399031441973
 21
1627.399916936576
 31
0.0
  0
LINE
  5
15430
330
1A
100
AcDbEntity
  8
ZISSEN1
100
AcDbLine
 10
-1445.09903144197
 20
1619.999916936575
 30
0.0
 11
-1445.09903144197
 21
1627.899916936576
 31
0.0
  0
LINE
  5
15431
330
1A
100
AcDbEntity
  8
ZISSEN1
100
AcDbLine
 10
-1391.999906451246
 20
1619.999997370904
 30
0.0
 11
-1407.049906451245
 21
1619.999916936575
 31
0.0
  0
LINE
  5
15432
330
1A
100
AcDbEntity
  8
ZISSEN1
100
AcDbLine
 10
-1407.099906451245
 20
1619.999916936575
 30
0.0
 11
-1403.749906451246
 21
1619.999916936575
 31
0.0
  0
LINE
  5
15433
330
1A
100
AcDbEntity
  8
ZISSEN1
100
AcDbLine
 10
-1416.999906451242
 20
1619.999916936575
 30
0.0
 11
-1445.59903144197
 21
1619.999916936575
 31
0.0
  0
LINE
  5
15434
330
1A
100
AcDbEntity
  8
ZISSEN1
100
AcDbLine
 10
-1461.399031441973
 20
1620.0
 30
0.0
 11
-1499.0
 21
1619.999997370904
 31
0.0
  0
LINE
  5
15435
330
1A
100
AcDbEntity
  8
ZISSEN1
100
AcDbLine
 10
-1494.5
 20
1620.0
 30
0.0
 11
-1494.5
 21
1620.8
 31
0.0
  0
LINE
  5
15436
330
1A
100
AcDbEntity
  8
ZISSEN1
100
AcDbLine
 10
-1406.599906451244
 20
1620.799916936574
 30
0.0
 11
-1407.099906451245
 21
1620.799916936574
 31
0.0
  0
LINE
  5
15437
330
1A
100
AcDbEntity
  8
ZISSEN1
100
AcDbLine
 10
-1416.999906451242
 20
1620.799916936574
 30
0.0
 11
-1417.499906451242
 21
1620.799916936574
 31
0.0
  0
LINE
  5
15438
330
1A
100
AcDbEntity
  8
ZISSEN1
100
AcDbLine
 10
-1445.09903144197
 20
1620.799916936574
 30
0.0
 11
-1445.59903144197
 21
1620.799916936574
 31
0.0
  0
LINE
  5
15439
330
1A
100
AcDbEntity
  8
ZISSEN1
100
AcDbLine
 10
-1461.399031441973
 20
1620.799916936574
 30
0.0
 11
-1461.899031441973
 21
1620.799916936574
 31
0.0
  0
ARC
  5
1543A
330
1A
100
AcDbEntity
  8
KAKURESEN1
  6
BYBLOCK
 62
     0
100
AcDbCircle
 10
-1395.999906451244
 20
1625.999997370903
 30
0.0
 40
1.75
100
AcDbArc
 50
90.0
 51
270.0
  0
LINE
  5
1543B
330
1A
100
AcDbEntity
  8
ZISSEN1
100
AcDbLine
 10
-1391.999906451246
 20
1637.899997370904
 30
0.0
 11
-1390.999906451246
 21
1636.899997370904
 31
0.0
  0
LINE
  5
1543C
330
1A
100
AcDbEntity
  8
ZISSEN1
100
AcDbLine
 10
-1390.999906451246
 20
1620.999997370904
 30
0.0
 11
-1390.999906451246
 21
1624.249997370904
 31
0.0
  0
LINE
  5
1543D
330
1A
100
AcDbEntity
  8
ZISSEN1
100
AcDbLine
 10
-1391.999906451246
 20
1619.999997370904
 30
0.0
 11
-1390.999906451246
 21
1620.999997370904
 31
0.0
  0
LINE
  5
1543E
330
1A
100
AcDbEntity
  8
KAKURESEN1
  6
BYBLOCK
 62
     0
100
AcDbLine
 10
-1392.999906451246
 20
1627.749997370904
 30
0.0
 11
-1395.999906451246
 21
1627.749997370904
 31
0.0
  0
LINE
  5
1543F
330
1A
100
AcDbEntity
  8
KAKURESEN1
  6
BYBLOCK
 62
     0
100
AcDbLine
 10
-1392.999906451246
 20
1624.249997370904
 30
0.0
 11
-1395.999906451246
 21
1624.249997370904
 31
0.0
  0
LINE
  5
15440
330
1A
100
AcDbEntity
  8
ZISSEN1
100
AcDbLine
 10
-1499.0
 20
1619.999997370904
 30
0.0
 11
-1500.0
 21
1620.999997370904
 31
0.0
  0
LINE
  5
15441
330
1A
100
AcDbEntity
  8
ZISSEN1
100
AcDbLine
 10
-1500.0
 20
1620.999997370904
 30
0.0
 11
-1500.0
 21
1624.249997370904
 31
0.0
  0
LINE
  5
15442
330
1A
100
AcDbEntity
  8
ZISSEN1
100
AcDbLine
 10
-1498.999906451246
 20
1637.899997370904
 30
0.0
 11
-1499.999906451246
 21
1636.899997370904
 31
0.0
  0
ARC
  5
15443
330
1A
100
AcDbEntity
  8
KAKURESEN1
  6
BYBLOCK
 62
     0
100
AcDbCircle
 10
-1495.999957100429
 20
1625.999997370901
 30
0.0
 40
1.75
100
AcDbArc
 50
270.0
 51
90.0
  0
LINE
  5
15444
330
1A
100
AcDbEntity
  8
KAKURESEN1
  6
BYBLOCK
 62
     0
100
AcDbLine
 10
-1500.0
 20
1624.249997370904
 30
0.0
 11
-1495.999957100431
 21
1624.249997370902
 31
0.0
  0
LINE
  5
15445
330
1A
100
AcDbEntity
  8
KAKURESEN1
  6
BYBLOCK
 62
     0
100
AcDbLine
 10
-1499.999957100431
 20
1627.749997370902
 30
0.0
 11
-1495.999957100431
 21
1627.749997370902
 31
0.0
  0
LINE
  5
1544C
330
1A
100
AcDbEntity
  8
ZISSEN1
100
AcDbLine
 10
-1396.500013357189
 20
1640.899916936576
 30
0.0
 11
-1398.502698917518
 21
1640.899916936576
 31
0.0
  0
LINE
  5
1544D
330
1A
100
AcDbEntity
  8
ZISSEN1
100
AcDbLine
 10
-1396.500013357189
 20
1649.999916936577
 30
0.0
 11
-1396.500013357189
 21
1639.899916936577
 31
0.0
  0
LINE
  5
1544E
330
1A
100
AcDbEntity
  8
ZISSEN1
100
AcDbLine
 10
-1399.997327796861
 20
1649.999916936577
 30
0.0
 11
-1396.500013357189
 21
1649.999916936577
 31
0.0
  0
LINE
  5
1544F
330
1A
100
AcDbEntity
  8
ZISSEN1
100
AcDbLine
 10
-1399.300013357189
 20
1648.999916936575
 30
0.0
 11
-1396.500013357189
 21
1648.999916936575
 31
0.0
  0
LINE
  5
15450
330
1A
100
AcDbEntity
  8
ZISSEN1
100
AcDbLine
 10
-1495.499906451246
 20
1650.699916936579
 30
0.0
 11
-1495.499906451246
 21
1637.899957153743
 31
0.0
  0
LINE
  5
15451
330
1A
100
AcDbEntity
  8
ZISSEN1
100
AcDbLine
 10
-1495.499855802061
 20
1650.699916936576
 30
0.0
 11
-1494.199855802061
 21
1651.999916936575
 31
0.0
  0
LINE
  5
15452
330
1A
100
AcDbEntity
  8
ZISSEN1
100
AcDbLine
 10
-1494.199855802061
 20
1651.999916936575
 30
0.0
 11
-1493.089324314796
 21
1651.999916936575
 31
0.0
  0
LINE
  5
15453
330
1A
100
AcDbEntity
  8
ZISSEN1
100
AcDbLine
 10
-1493.699799545303
 20
1648.999916936575
 30
0.0
 11
-1494.499799545302
 21
1648.999916936575
 31
0.0
  0
LINE
  5
15454
330
1A
100
AcDbEntity
  8
ZISSEN1
100
AcDbLine
 10
-1487.814647401269
 20
1619.99821725146
 30
0.0
 11
-1483.814647401269
 21
1619.99821725146
 31
0.0
  0
ELLIPSE
  5
15455
330
1A
100
AcDbEntity
  8
ZISSEN1
 48
0.4
100
AcDbEllipse
 10
-1486.999906451246
 20
1619.248217251459
 30
0.0
 11
2.75
 21
0.0000000000000002
 31
0.0
210
0.0
220
0.0
230
-1.0
 40
0.3090909090909173
 41
6.283185307179586
 42
9.424777960769379
  0
LINE
  5
15456
330
1A
100
AcDbEntity
  8
ZISSEN1
 48
0.4
100
AcDbLine
 10
-1484.249906451246
 20
1619.248217251459
 30
0.0
 11
-1484.249906451246
 21
1619.99821725146
 31
0.0
  0
LINE
  5
15457
330
1A
100
AcDbEntity
  8
ZISSEN1
 48
0.4
100
AcDbLine
 10
-1489.749906451246
 20
1619.248217251459
 30
0.0
 11
-1489.749906451246
 21
1619.99821725146
 31
0.0
  0
LINE
  5
15458
330
1A
100
AcDbEntity
  8
ZISSEN1
100
AcDbLine
 10
-1466.023427468573
 20
1627.899916936576
 30
0.0
 11
-1466.103427468571
 21
1627.899916936576
 31
0.0
  0
LINE
  5
15459
330
1A
100
AcDbEntity
  8
ZISSEN1
100
AcDbLine
 10
-1396.500013357189
 20
1639.899916936577
 30
0.0
 11
-1398.499906451246
 21
1639.899916936573
 31
0.0
  0
LINE
  5
1545A
330
1A
100
AcDbEntity
  8
ZISSEN1
100
AcDbLine
 10
-1398.499906451246
 20
1621.299916936574
 30
0.0
 11
-1399.299906451245
 21
1621.299916936574
 31
0.0
  0
LINE
  5
1545B
330
1A
100
AcDbEntity
  8
ZISSEN1
100
AcDbLine
 10
-1398.499906451246
 20
1621.299916936574
 30
0.0
 11
-1398.499906451246
 21
1622.799916936574
 31
0.0
  0
LINE
  5
1545C
330
1A
100
AcDbEntity
  8
ZISSEN1
100
AcDbLine
 10
-1446.761793706876
 20
1654.772681736593
 30
0.0
 11
-1446.761793706876
 21
1653.999916936575
 31
0.0
  0
ARC
  5
1545D
330
1A
100
AcDbEntity
  8
ZISSEN1
100
AcDbCircle
 10
-1443.999906451244
 20
1650.59992461934
 30
0.0
 40
5.003990724652107
100
AcDbArc
 50
96.88689645344222
 51
123.4999958881037
  0
LINE
  5
1545E
330
1A
100
AcDbEntity
  8
ZISSEN1
 48
0.4
100
AcDbLine
 10
-1395.600013357188
 20
1640.549916936576
 30
0.0
 11
-1396.500013357189
 21
1640.549916936576
 31
0.0
  0
LINE
  5
1545F
330
1A
100
AcDbEntity
  8
ZISSEN1
 48
0.4
100
AcDbLine
 10
-1395.600013357188
 20
1646.849916936575
 30
0.0
 11
-1396.500013357189
 21
1646.849916936575
 31
0.0
  0
ELLIPSE
  5
15460
330
1A
100
AcDbEntity
  8
ZISSEN1
 48
0.4
100
AcDbEllipse
 10
-1395.600013357188
 20
1643.699916936578
 30
0.0
 11
-0.0000000000000019
 21
-3.149999999999636
 31
0.0
210
0.0
220
0.0
230
-1.0
 40
0.3174603174603541
 41
3.141592653589793
 42
6.283185307179586
  0
LINE
  5
157E8
330
1A
100
AcDbEntity
  8
ZISSEN1
  6
CONTINUOUS
100
AcDbLine
 10
-1493.093250392991
 20
1559.9999996592
 30
0.0
 11
-1493.093250392991
 21
1574.0
 31
0.0
  0
LINE
  5
157E9
330
1A
100
AcDbEntity
  8
ZISSEN1
  6
CONTINUOUS
100
AcDbLine
 10
-1493.093250392991
 20
1574.0
 30
0.0
 11
-1448.403754392988
 21
1574.0
 31
0.0
  0
LINE
  5
157EA
330
1A
100
AcDbEntity
  8
ZISSEN1
  6
CONTINUOUS
100
AcDbLine
 10
-1448.403754392988
 20
1563.950000000001
 30
0.0
 11
-1448.403754392988
 21
1574.0
 31
0.0
  0
LINE
  5
157F2
330
1A
100
AcDbEntity
  8
ZISSEN1
  6
CONTINUOUS
100
AcDbLine
 10
-1444.603809367524
 20
1559.99966077216
 30
0.0
 11
-1444.603809367524
 21
1574.0
 31
0.0
  0
LINE
  5
157F3
330
1A
100
AcDbEntity
  8
ZISSEN1
  6
CONTINUOUS
100
AcDbLine
 10
-1444.603809367524
 20
1574.0
 30
0.0
 11
-1399.914313367521
 21
1574.0
 31
0.0
  0
LINE
  5
157F4
330
1A
100
AcDbEntity
  8
ZISSEN1
  6
CONTINUOUS
100
AcDbLine
 10
-1399.914313367521
 20
1559.99966077216
 30
0.0
 11
-1399.914313367521
 21
1574.0
 31
0.0
  0
LINE
  5
157FB
330
1A
100
AcDbEntity
  8
CL1
100
AcDbLine
 10
-1486.999999999998
 20
1510.91096240016
 30
0.0
 11
-1486.999999999998
 21
1501.91096240016
 31
0.0
  0
LINE
  5
157FC
330
1A
100
AcDbEntity
  8
CL1
100
AcDbLine
 10
-1489.620763223751
 20
1506.499999999999
 30
0.0
 11
-1484.320763223751
 21
1506.499999999999
 31
0.0
  0
LINE
  5
1581E
330
1A
100
AcDbEntity
  8
ZISSEN1
  6
CONTINUOUS
100
AcDbLine
 10
-1354.109495
 20
1574.0
 30
0.0
 11
-1354.109495
 21
1550.900000000001
 31
0.0
  0
LINE
  5
1581F
330
1A
100
AcDbEntity
  8
ZISSEN1
  6
CONTINUOUS
100
AcDbLine
 10
-1354.109495
 20
1574.0
 30
0.0
 11
-1345.909997000002
 21
1574.0
 31
0.0
  0
LINE
  5
15820
330
1A
100
AcDbEntity
  8
ZISSEN1
  6
CONTINUOUS
100
AcDbLine
 10
-1345.909997000002
 20
1574.0
 30
0.0
 11
-1345.909997000002
 21
1550.900000000001
 31
0.0
  0
LINE
  5
15821
330
1A
100
AcDbEntity
  8
0
  6
CONTINUOUS
 62
     7
100
AcDbLine
 10
-1336.690002999999
 20
1573.910498000001
 30
0.0
 11
-1336.690002999999
 21
1564.410498000001
 31
0.0
  0
LINE
  5
15822
330
1A
100
AcDbEntity
  8
ZISSEN1
  6
CONTINUOUS
100
AcDbLine
 10
-1328.4
 20
1574.0
 30
0.0
 11
-1336.690002999999
 21
1574.0
 31
0.0
  0
LINE
  5
15823
330
1A
100
AcDbEntity
  8
ZISSEN1
  6
CONTINUOUS
100
AcDbLine
 10
-1328.4
 20
1574.0
 30
0.0
 11
-1328.4
 21
1547.000000000001
 31
0.0
  0
LINE
  5
15825
330
1A
100
AcDbEntity
  8
ZISSEN1
  6
CONTINUOUS
100
AcDbLine
 10
-1336.690002999999
 20
1574.0
 30
0.0
 11
-1336.690002999999
 21
1550.900000000001
 31
0.0
  0
LINE
  5
1583F
330
1A
100
AcDbEntity
  8
CL1
100
AcDbLine
 10
-1341.300538844017
 20
1511.710962400161
 30
0.0
 11
-1341.300538844017
 21
1502.710962400161
 31
0.0
  0
LINE
  5
15840
330
1A
100
AcDbEntity
  8
CL1
100
AcDbLine
 10
-1345.887519471006
 20
1507.3
 30
0.0
 11
-1337.386870075598
 21
1507.3
 31
0.0
  0
LINE
  5
15846
330
1A
100
AcDbEntity
  8
CL1
100
AcDbLine
 10
-1359.0
 20
1503.0
 30
0.0
 11
-1359.0
 21
1499.0
 31
0.0
  0
LINE
  5
15920
330
1A
100
AcDbEntity
  8
ZISSEN1
100
AcDbLine
 10
-1445.604124990721
 20
1552.449999999998
 30
0.0
 11
-1461.404124990724
 21
1552.449999999998
 31
0.0
  0
LINE
  5
15921
330
1A
100
AcDbEntity
  8
ZISSEN1
100
AcDbLine
 10
-1407.099999999998
 20
1555.3
 30
0.0
 11
-1416.999999999996
 21
1555.3
 31
0.0
  0
LINE
  5
15A78
330
1A
100
AcDbEntity
  8
CL1
100
AcDbLine
 10
-1517.0
 20
1503.0
 30
0.0
 11
-1517.0
 21
1499.0
 31
0.0
  0
LINE
  5
15A86
330
1A
100
AcDbEntity
  8
ZISSEN1
100
AcDbLine
 10
-1335.0
 20
1547.000000000001
 30
0.0
 11
-1328.4
 21
1547.000000000001
 31
0.0
  0
LINE
  5
15A96
330
1A
100
AcDbEntity
  8
ZISSEN1
  6
CONTINUOUS
100
AcDbLine
 10
-1539.30999705399
 20
1574.000000158114
 30
0.0
 11
-1547.509999999999
 21
1574.000000158114
 31
0.0
  0
LINE
  5
15AD8
330
1A
100
AcDbEntity
  8
CL1
100
AcDbLine
 10
-1502.249678203668
 20
1625.999393618478
 30
0.0
 11
-1492.640590194893
 21
1625.999393618478
 31
0.0
  0
LINE
  5
15AD9
330
1A
100
AcDbEntity
  8
CL1
100
AcDbLine
 10
-1496.497910076596
 20
1621.148370328918
 30
0.0
 11
-1496.497910076596
 21
1629.486989916925
 31
0.0
  0
LINE
  5
15AF5
330
1A
100
AcDbEntity
  8
ZISSEN1
100
AcDbLine
 10
-1390.999906451246
 20
1619.999962631825
 30
0.0
 11
-1395.499906451246
 21
1619.999962631825
 31
0.0
  0
LINE
  5
15AF7
330
1A
100
AcDbEntity
  8
CL1
100
AcDbLine
 10
-1395.499906451246
 20
1629.633332512704
 30
0.0
 11
-1395.499906451246
 21
1622.937168219809
 31
0.0
  0
LEADER
  5
15B6D
330
1A
100
AcDbEntity
  8
ZISSEN1
100
AcDbLeader
  3
標準スタイル
 76
     3
 10
-1496.497910076596
 20
1625.999393618478
 30
0.0
 10
-1501.656863897773
 20
1615.10391953158
 30
0.0
 10
-1511.771693426811
 20
1615.10391953158
 30
0.0
1001
ACAD
1000
DSTYLE
1002
{
1070
     5
1000

1070
    77
1070
     0
1070
   147
1040
1.0
1002
}
  0
LINE
  5
15B6F
330
1A
100
AcDbEntity
  8
CL1
100
AcDbLine
 10
-1398.499906451246
 20
1625.999997370901
 30
0.0
 11
-1393.392175333899
 21
1625.999997370901
 31
0.0
  0
DIMENSION
  5
15B8E
330
1A
100
AcDbEntity
  8
SUNPOU
100
AcDbDimension
  2
*D8
 10
-1496.497910076596
 20
1607.976125304341
 30
0.0
 11
-1445.998908263921
 21
1610.351125304341
 31
0.0
 70
    32
  3
ISO-25
100
AcDbAlignedDimension
 13
-1395.499906451246
 23
1622.937168219809
 33
0.0
 14
-1496.497910076596
 24
1621.148370328918
 34
0.0
100
AcDbRotatedDimension
1001
ACAD
1000
DSTYLE
1002
{
1070
   140
1040
3.5
1070
   176
1070
     0
1070
   177
1070
     0
1070
   178
1070
     0
1002
}
  0
DIMENSION
  5
15BC2
330
1A
100
AcDbEntity
  8
SUNPOU
100
AcDbDimension
  2
*D9
 10
-1328.4
 20
1579.485254350361
 30
0.0
 11
-1347.65
 21
1581.860254350361
 31
0.0
 70
    32
  3
ISO-25
100
AcDbAlignedDimension
 13
-1366.900000000001
 23
1563.95
 33
0.0
 14
-1328.4
 24
1574.0
 34
0.0
100
AcDbRotatedDimension
1001
ACAD
1000
DSTYLE
1002
{
1070
   140
1040
3.5
1070
   176
1070
     0
1070
   177
1070
     0
1070
   178
1070
     0
1002
}
  0
LINE
  5
15C9F
330
1A
100
AcDbEntity
  8
CL1
100
AcDbLine
 10
-1395.504689498062
 20
1505.564456395739
 30
0.0
 11
-1395.504689498062
 21
1497.598497214109
 31
0.0
  0
LINE
  5
15CA1
330
1A
100
AcDbEntity
  8
CL1
100
AcDbLine
 10
-1496.503772736328
 20
1506.384003316859
 30
0.0
 11
-1496.503772736328
 21
1496.709262981963
 31
0.0
  0
VIEWPORT
  5
5D8F
330
5D8E
100
AcDbEntity
 67
     1
  8
0
100
AcDbViewport
 10
299.8230978380224
 20
157.7036408303041
 30
0.0
 40
688.9841201495081
 41
314.237268371582
 68
     2
 69
     1
1001
ACAD
1000
MVIEW
1002
{
1070
    16
1010
0.0
1020
0.0
1030
0.0
1010
0.0
1020
0.0
1030
1.0
1040
0.0
1040
314.237268371582
1040
299.8230978380224
1040
157.7036408303041
1040
50.0
1040
0.0
1040
0.0
1070
     0
1070
   100
1070
     1
1070
     0
1070
     0
1070
     0
1070
     0
1070
     0
1040
0.0
1040
0.0
1040
0.0
1040
1.0
1040
1.0
1040
10.0
1040
10.0
1070
     0
1002
{
1002
}
1002
}
  0
VIEWPORT
  5
6001
330
5D8E
100
AcDbEntity
 67
     1
  8
ZISSEN1
100
AcDbViewport
 10
221.7861955525412
 20
157.6960273330388
 30
0.0
 40
385.4999999999997
 41
259.9999999999999
 68
     1
 69
     2
1001
ACAD
1000
MVIEW
1002
{
1070
    16
1010
0.0
1020
0.0
1030
0.0
1010
0.0
1020
0.0
1030
1.0
1040
0.0
1040
259.9999999999999
1040
-1451.832813783353
1040
1590.591540053899
1040
50.0
1040
0.0
1040
0.0
1070
     0
1070
   100
1070
     1
1070
     0
1070
     0
1070
     0
1070
     0
1070
     0
1040
0.0
1040
0.0
1040
0.0
1040
1.0
1040
1.0
1040
10.0
1040
10.0
1070
     0
1002
{
1002
}
1002
}
  0
TEXT
  5
716F
330
5D8E
100
AcDbEntity
 67
     1
  8
SUNPOU
 62
     0
100
AcDbText
 10
324.1523727489084
 20
43.90165530719229
 30
0.0
 40
3.5
  1
縮尺 1/1
  7
ゴシック体
100
AcDbText
  0
ENDSEC
  0
SECTION
  2
OBJECTS
  0
DICTIONARY
  5
C
330
0
100
AcDbDictionary
  3
ACAD_GROUP
350
D
  3
ACAD_LAYOUT
350
5C7D
  3
ACAD_MLINESTYLE
350
E
  3
ACAD_PLOTSETTINGS
350
5C7E
  3
ACAD_PLOTSTYLENAME
350
5C7B
  3
ACDBVARIABLEDICTIONARY
350
15D39
  3
DWGPROPS
350
15D3B
  3
ACDBHEADERROUNDTRIPXREC
350
15D3C
  0
DICTIONARY
  5
130FA
330
2
100
AcDbDictionary
280
     1
  3
ACAD_LAYERFILTERS
360
130FB
  0
DICTIONARY
  5
15D5C
330
1A
100
AcDbDictionary
280
     1
  3
ACAD_LAYOUTSELFREF
360
15D5D
  0
DICTIONARY
  5
15D5E
330
5D8E
100
AcDbDictionary
280
     1
  3
ACAD_LAYOUTSELFREF
360
15D5F
  0
DICTIONARY
  5
D
102
{ACAD_REACTORS
330
C
102
}
330
C
100
AcDbDictionary
  3
*A1
350
477D
  3
*A2
350
477E
  3
*A3
350
477F
  3
*A4
350
4780
  3
*A5
350
4781
  3
*A6
350
4C0E
  3
*A7
350
4C0F
  3
*A8
350
4C10
  3
*A9
350
4C11
  3
*A10
350
4C12
  3
*A11
350
4C13
  3
*A12
350
4C14
  3
*A13
350
4C15
  3
*A14
350
4C16
  3
*A15
350
4C17
  0
DICTIONARY
  5
5C7D
102
{ACAD_REACTORS
330
C
102
}
330
C
100
AcDbDictionary
  0
DICTIONARY
  5
E
102
{ACAD_REACTORS
330
C
102
}
330
C
100
AcDbDictionary
  3
STANDARD
350
13
  0
DICTIONARY
  5
5C7E
102
{ACAD_REACTORS
330
C
102
}
330
C
100
AcDbDictionary
  0
ACDBDICTIONARYWDFLT
  5
5C7B
102
{ACAD_REACTORS
330
C
102
}
330
C
100
AcDbDictionary
281
     1
  3
Normal
350
5C7C
100
AcDbDictionaryWithDefault
340
5C7C
  0
DICTIONARY
  5
15D39
102
{ACAD_REACTORS
330
C
102
}
330
C
100
AcDbDictionary
  3
INDEXCTL
350
15D3A
  0
XRECORD
  5
15D3B
102
{ACAD_REACTORS
330
C
102
}
330
C
100
AcDbXrecord
  1
DWGPROPS COOKIE
  2

  3

  4

  6

  7

  8

  9

300
=
301
=
302
=
303
=
304
=
305
=
306
=
307
=
308
=
309
=
 40
2.030856458333333
 41
2450495.493631365
 42
2455084.706494699
  1

 90
        0
  0
DICTIONARY
  5
15D3C
102
{ACAD_REACTORS
330
C
102
}
330
C
100
AcDbDictionary
  3
TSTACKALIGN
350
15D3D
  3
TSTACKSIZE
350
15D3E
  3
HYPERLINKBASE
350
15D3F
  3
STYLESHEET
350
15D40
  3
LAYOUTDICT
350
15D41
  3
PLOTSETDICT
350
15D42
  3
PLOTSTYLNAMDICT
350
15D43
  3
LWETCUNION
350
15D44
  3
INSUNITS
350
15D45
  3
CEPSNTYPE
350
15D46
  3
FINGERPRINTGUID
350
15D47
  3
VERSIONGUID
350
15D48
  3
PSVPSCALE
350
15D49
  3
PUCSORTHOREF
350
15D4A
  3
PUCSORTHOVIEW
350
15D4B
  3
PUCSBASE
350
15D4C
  3
PUCSORGTOP
350
15D4D
  3
PUCSORGBOTTOM
350
15D4E
  3
PUCSORGLEFT
350
15D4F
  3
PUCSORGRIGHT
350
15D50
  3
PUCSORGFRONT
350
15D51
  3
PUCSORGBACK
350
15D52
  3
UCSORTHOREF
350
15D53
  3
UCSORTHOVIEW
350
15D54
  3
UCSBASE
350
15D55
  3
UCSORGTOP
350
15D56
  3
UCSORGBOTTOM
350
15D57
  3
UCSORGLEFT
350
15D58
  3
UCSORGRIGHT
350
15D59
  3
UCSORGFRONT
350
15D5A
  3
UCSORGBACK
350
15D5B
  0
DICTIONARY
  5
130FB
102
{ACAD_REACTORS
330
130FA
102
}
330
130FA
100
AcDbDictionary
280
     1
  3
BASE
360
130FC
  3
CASE
360
130FD
  3
KIKOU
360
130FE
  0
XRECORD
  5
15D5D
102
{ACAD_REACTORS
330
15D5C
102
}
330
15D5C
100
AcDbXrecord
340
1A
  0
XRECORD
  5
15D5F
102
{ACAD_REACTORS
330
15D5E
102
}
330
15D5E
100
AcDbXrecord
340
5D8E
  0
GROUP
  5
477D
102
{ACAD_REACTORS
330
D
102
}
330
D
100
AcDbGroup
300

 70
     1
 71
     1
  0
GROUP
  5
477E
102
{ACAD_REACTORS
330
D
102
}
330
D
100
AcDbGroup
300

 70
     1
 71
     1
  0
GROUP
  5
477F
102
{ACAD_REACTORS
330
D
102
}
330
D
100
AcDbGroup
300

 70
     1
 71
     1
  0
GROUP
  5
4780
102
{ACAD_REACTORS
330
D
102
}
330
D
100
AcDbGroup
300

 70
     1
 71
     1
  0
GROUP
  5
4781
102
{ACAD_REACTORS
330
D
102
}
330
D
100
AcDbGroup
300

 70
     1
 71
     1
  0
GROUP
  5
4C0E
102
{ACAD_REACTORS
330
D
102
}
330
D
100
AcDbGroup
300

 70
     1
 71
     1
  0
GROUP
  5
4C0F
102
{ACAD_REACTORS
330
D
102
}
330
D
100
AcDbGroup
300

 70
     1
 71
     1
  0
GROUP
  5
4C10
102
{ACAD_REACTORS
330
D
102
}
330
D
100
AcDbGroup
300

 70
     1
 71
     1
  0
GROUP
  5
4C11
102
{ACAD_REACTORS
330
D
102
}
330
D
100
AcDbGroup
300

 70
     1
 71
     1
  0
GROUP
  5
4C12
102
{ACAD_REACTORS
330
D
102
}
330
D
100
AcDbGroup
300

 70
     1
 71
     1
  0
GROUP
  5
4C13
102
{ACAD_REACTORS
330
D
102
}
330
D
100
AcDbGroup
300

 70
     1
 71
     1
  0
GROUP
  5
4C14
102
{ACAD_REACTORS
330
D
102
}
330
D
100
AcDbGroup
300

 70
     1
 71
     1
  0
GROUP
  5
4C15
102
{ACAD_REACTORS
330
D
102
}
330
D
100
AcDbGroup
300

 70
     1
 71
     1
  0
GROUP
  5
4C16
102
{ACAD_REACTORS
330
D
102
}
330
D
100
AcDbGroup
300

 70
     1
 71
     1
  0
GROUP
  5
4C17
102
{ACAD_REACTORS
330
D
102
}
330
D
100
AcDbGroup
300

 70
     1
 71
     1
  0
MLINESTYLE
  5
13
102
{ACAD_REACTORS
330
E
102
}
330
E
100
AcDbMlineStyle
  2
STANDARD
 70
     0
  3

 62
     0
 51
90.0
 52
90.0
 71
     2
 49
0.5
 62
   256
  6
BYLAYER
 49
-0.5
 62
   256
  6
BYLAYER
  0
ACDBPLACEHOLDER
  5
5C7C
102
{ACAD_REACTORS
330
5C7B
102
}
330
5C7B
100
AcDbPlaceHolder
280
     0
  0
DICTIONARYVAR
  5
15D3A
102
{ACAD_REACTORS
330
15D39
102
}
330
15D39
100
DictionaryVariables
280
     0
  1
-1
  0
XRECORD
  5
15D3D
102
{ACAD_REACTORS
330
15D3C
102
}
330
15D3C
100
AcDbXrecord
 90
        1
  0
XRECORD
  5
15D3E
102
{ACAD_REACTORS
330
15D3C
102
}
330
15D3C
100
AcDbXrecord
 90
       70
  0
XRECORD
  5
15D3F
102
{ACAD_REACTORS
330
15D3C
102
}
330
15D3C
100
AcDbXrecord
  1

  0
XRECORD
  5
15D40
102
{ACAD_REACTORS
330
15D3C
102
}
330
15D3C
100
AcDbXrecord
  1

  0
XRECORD
  5
15D41
102
{ACAD_REACTORS
330
15D3C
102
}
330
15D3C
100
AcDbXrecord
340
5C7D
  0
XRECORD
  5
15D42
102
{ACAD_REACTORS
330
15D3C
102
}
330
15D3C
100
AcDbXrecord
340
5C7E
  0
XRECORD
  5
15D43
102
{ACAD_REACTORS
330
15D3C
102
}
330
15D3C
100
AcDbXrecord
340
5C7B
  0
XRECORD
  5
15D44
102
{ACAD_REACTORS
330
15D3C
102
}
330
15D3C
100
AcDbXrecord
 90
    10781
  0
XRECORD
  5
15D45
102
{ACAD_REACTORS
330
15D3C
102
}
330
15D3C
100
AcDbXrecord
 90
        0
  0
XRECORD
  5
15D46
102
{ACAD_REACTORS
330
15D3C
102
}
330
15D3C
100
AcDbXrecord
 90
        0
  0
XRECORD
  5
15D47
102
{ACAD_REACTORS
330
15D3C
102
}
330
15D3C
100
AcDbXrecord
  1
{225A7F0D-DA29-11D8-946A-0000E2416295}
  0
XRECORD
  5
15D48
102
{ACAD_REACTORS
330
15D3C
102
}
330
15D3C
100
AcDbXrecord
  1
{578C01DB-8686-4555-B3C1-F22798A7DE45}
  0
XRECORD
  5
15D49
102
{ACAD_REACTORS
330
15D3C
102
}
330
15D3C
100
AcDbXrecord
 40
0.0
  0
XRECORD
  5
15D4A
102
{ACAD_REACTORS
330
15D3C
102
}
330
15D3C
100
AcDbXrecord
340
0
  0
XRECORD
  5
15D4B
102
{ACAD_REACTORS
330
15D3C
102
}
330
15D3C
100
AcDbXrecord
 70
     0
  0
XRECORD
  5
15D4C
102
{ACAD_REACTORS
330
15D3C
102
}
330
15D3C
100
AcDbXrecord
340
0
  0
XRECORD
  5
15D4D
102
{ACAD_REACTORS
330
15D3C
102
}
330
15D3C
100
AcDbXrecord
 10
0.0
 20
0.0
 30
0.0
  0
XRECORD
  5
15D4E
102
{ACAD_REACTORS
330
15D3C
102
}
330
15D3C
100
AcDbXrecord
 10
0.0
 20
0.0
 30
0.0
  0
XRECORD
  5
15D4F
102
{ACAD_REACTORS
330
15D3C
102
}
330
15D3C
100
AcDbXrecord
 10
0.0
 20
0.0
 30
0.0
  0
XRECORD
  5
15D50
102
{ACAD_REACTORS
330
15D3C
102
}
330
15D3C
100
AcDbXrecord
 10
0.0
 20
0.0
 30
0.0
  0
XRECORD
  5
15D51
102
{ACAD_REACTORS
330
15D3C
102
}
330
15D3C
100
AcDbXrecord
 10
0.0
 20
0.0
 30
0.0
  0
XRECORD
  5
15D52
102
{ACAD_REACTORS
330
15D3C
102
}
330
15D3C
100
AcDbXrecord
 10
0.0
 20
0.0
 30
0.0
  0
XRECORD
  5
15D53
102
{ACAD_REACTORS
330
15D3C
102
}
330
15D3C
100
AcDbXrecord
340
0
  0
XRECORD
  5
15D54
102
{ACAD_REACTORS
330
15D3C
102
}
330
15D3C
100
AcDbXrecord
 70
     0
  0
XRECORD
  5
15D55
102
{ACAD_REACTORS
330
15D3C
102
}
330
15D3C
100
AcDbXrecord
340
0
  0
XRECORD
  5
15D56
102
{ACAD_REACTORS
330
15D3C
102
}
330
15D3C
100
AcDbXrecord
 10
0.0
 20
0.0
 30
0.0
  0
XRECORD
  5
15D57
102
{ACAD_REACTORS
330
15D3C
102
}
330
15D3C
100
AcDbXrecord
 10
0.0
 20
0.0
 30
0.0
  0
XRECORD
  5
15D58
102
{ACAD_REACTORS
330
15D3C
102
}
330
15D3C
100
AcDbXrecord
 10
0.0
 20
0.0
 30
0.0
  0
XRECORD
  5
15D59
102
{ACAD_REACTORS
330
15D3C
102
}
330
15D3C
100
AcDbXrecord
 10
0.0
 20
0.0
 30
0.0
  0
XRECORD
  5
15D5A
102
{ACAD_REACTORS
330
15D3C
102
}
330
15D3C
100
AcDbXrecord
 10
0.0
 20
0.0
 30
0.0
  0
XRECORD
  5
15D5B
102
{ACAD_REACTORS
330
15D3C
102
}
330
15D3C
100
AcDbXrecord
 10
0.0
 20
0.0
 30
0.0
  0
XRECORD
  5
130FC
102
{ACAD_REACTORS
330
130FB
102
}
330
130FB
100
AcDbXrecord
  1
BASE
  1
BASE*
  1
*
  1
*
 70
     0
  1
*
  1
*
  0
XRECORD
  5
130FD
102
{ACAD_REACTORS
330
130FB
102
}
330
130FB
100
AcDbXrecord
  1
CASE
  1
CASE*
  1
*
  1
*
 70
     0
  1
*
  1
*
  0
XRECORD
  5
130FE
102
{ACAD_REACTORS
330
130FB
102
}
330
130FB
100
AcDbXrecord
  1
KIKOU
  1
KIKOU*
  1
*
  1
*
 70
     0
  1
*
  1
*
  0
ENDSEC
  0
EOF
