  0
SECTION
  2
HEADER
  9
$ACADVER
  1
AC1014
  9
$ACADMAINTVER
 70
     9
  9
$DWGCODEPAGE
  3
ANSI_932
  9
$INSBASE
 10
0.0
 20
0.0
 30
0.0
  9
$EXTMIN
 10
-1681.899478298015
 20
1588.792893218811
 30
-0.00000001
  9
$EXTMAX
 10
-1431.39999999
 20
1756.045429394411
 30
0.00000001
  9
$LIMMIN
 10
0.0
 20
0.0
  9
$LIMMAX
 10
420.0
 20
297.0
  9
$ORTHOMODE
 70
     1
  9
$REGENMODE
 70
     1
  9
$FILLMODE
 70
     1
  9
$QTEXTMODE
 70
     0
  9
$MIRRTEXT
 70
     1
  9
$DRAGMODE
 70
     2
  9
$LTSCALE
 40
1.0
  9
$OSMODE
 70
    37
  9
$ATTMODE
 70
     1
  9
$TEXTSIZE
 40
2.5
  9
$TRACEWID
 40
1.0
  9
$TEXTSTYLE
  7
ゴシック体
  9
$CLAYER
  8
ZISSEN1
  9
$CELTYPE
  6
BYLAYER
  9
$CECOLOR
 62
   256
  9
$CELTSCALE
 40
1.0
  9
$DELOBJ
 70
     1
  9
$DISPSILH
 70
     0
  9
$DIMSCALE
 40
0.0
  9
$DIMASZ
 40
3.0
  9
$DIMEXO
 40
0.5
  9
$DIMDLI
 40
0.5
  9
$DIMRND
 40
0.0
  9
$DIMDLE
 40
0.0
  9
$DIMEXE
 40
0.5
  9
$DIMTP
 40
0.0
  9
$DIMTM
 40
0.0
  9
$DIMTXT
 40
3.5
  9
$DIMCEN
 40
0.0
  9
$DIMTSZ
 40
0.0
  9
$DIMTOL
 70
     0
  9
$DIMLIM
 70
     0
  9
$DIMTIH
 70
     0
  9
$DIMTOH
 70
     0
  9
$DIMSE1
 70
     0
  9
$DIMSE2
 70
     0
  9
$DIMTAD
 70
     1
  9
$DIMZIN
 70
     8
  9
$DIMBLK
  1

  9
$DIMASO
 70
     1
  9
$DIMSHO
 70
     1
  9
$DIMPOST
  1

  9
$DIMAPOST
  1

  9
$DIMALT
 70
     0
  9
$DIMALTD
 70
     2
  9
$DIMALTF
 40
25.4
  9
$DIMLFAC
 40
1.0
  9
$DIMTOFL
 70
     1
  9
$DIMTVP
 40
0.0
  9
$DIMTIX
 70
     0
  9
$DIMSOXD
 70
     0
  9
$DIMSAH
 70
     0
  9
$DIMBLK1
  1

  9
$DIMBLK2
  1

  9
$DIMSTYLE
  2
標準スタイル
  9
$DIMCLRD
 70
     1
  9
$DIMCLRE
 70
     1
  9
$DIMCLRT
 70
     1
  9
$DIMTFAC
 40
1.0
  9
$DIMGAP
 40
1.0
  9
$DIMJUST
 70
     0
  9
$DIMSD1
 70
     0
  9
$DIMSD2
 70
     0
  9
$DIMTOLJ
 70
     1
  9
$DIMTZIN
 70
     8
  9
$DIMALTZ
 70
     0
  9
$DIMALTTZ
 70
     0
  9
$DIMFIT
 70
     3
  9
$DIMUPT
 70
     0
  9
$DIMUNIT
 70
     2
  9
$DIMDEC
 70
     2
  9
$DIMTDEC
 70
     2
  9
$DIMALTU
 70
     2
  9
$DIMALTTD
 70
     2
  9
$DIMTXSTY
  7
ゴシック体
  9
$DIMAUNIT
 70
     0
  9
$LUNITS
 70
     2
  9
$LUPREC
 70
     4
  9
$SKETCHINC
 40
1.0
  9
$FILLETRAD
 40
0.0
  9
$AUNITS
 70
     0
  9
$AUPREC
 70
     0
  9
$MENU
  1
.
  9
$ELEVATION
 40
0.0
  9
$PELEVATION
 40
0.0
  9
$THICKNESS
 40
0.0
  9
$LIMCHECK
 70
     0
  9
$BLIPMODE
 70
     0
  9
$CHAMFERA
 40
10.0
  9
$CHAMFERB
 40
10.0
  9
$CHAMFERC
 40
2.0
  9
$CHAMFERD
 40
0.7853981633974483
  9
$SKPOLY
 70
     0
  9
$TDCREATE
 40
2450495.493631365
  9
$TDUPDATE
 40
2455127.799880405
  9
$TDINDWG
 40
2.0488619329
  9
$TDUSRTIMER
 40
2.0488619329
  9
$USRTIMER
 70
     1
  9
$ANGBASE
 50
0.0
  9
$ANGDIR
 70
     0
  9
$PDMODE
 70
    99
  9
$PDSIZE
 40
0.0
  9
$PLINEWID
 40
0.0
  9
$COORDS
 70
     1
  9
$SPLFRAME
 70
     0
  9
$SPLINETYPE
 70
     6
  9
$SPLINESEGS
 70
     8
  9
$ATTDIA
 70
     0
  9
$ATTREQ
 70
     1
  9
$HANDLING
 70
 10241
  9
$HANDSEED
  5
16337
  9
$SURFTAB1
 70
     6
  9
$SURFTAB2
 70
     6
  9
$SURFTYPE
 70
     6
  9
$SURFU
 70
     6
  9
$SURFV
 70
     6
  9
$UCSNAME
  2

  9
$UCSORG
 10
0.0
 20
0.0
 30
0.0
  9
$UCSXDIR
 10
1.0
 20
0.0
 30
0.0
  9
$UCSYDIR
 10
0.0
 20
1.0
 30
0.0
  9
$PUCSNAME
  2

  9
$PUCSORG
 10
0.0
 20
0.0
 30
0.0
  9
$PUCSXDIR
 10
1.0
 20
0.0
 30
0.0
  9
$PUCSYDIR
 10
0.0
 20
1.0
 30
0.0
  9
$USERI1
 70
     0
  9
$USERI2
 70
     0
  9
$USERI3
 70
     0
  9
$USERI4
 70
     0
  9
$USERI5
 70
     0
  9
$USERR1
 40
0.0
  9
$USERR2
 40
0.0
  9
$USERR3
 40
0.0
  9
$USERR4
 40
0.0
  9
$USERR5
 40
0.0
  9
$WORLDVIEW
 70
     1
  9
$SHADEDGE
 70
     3
  9
$SHADEDIF
 70
    70
  9
$TILEMODE
 70
     0
  9
$MAXACTVP
 70
    16
  9
$PINSBASE
 10
0.0
 20
0.0
 30
0.0
  9
$PLIMCHECK
 70
     0
  9
$PEXTMIN
 10
29.03619555254135
 20
27.69602733303884
 30
0.0
  9
$PEXTMAX
 10
414.5361955525411
 20
287.6960273330388
 30
0.0
  9
$PLIMMIN
 10
11.82433780389674
 20
9.18781516542163
  9
$PLIMMAX
 10
431.7709930773342
 20
306.1984658001872
  9
$UNITMODE
 70
     0
  9
$VISRETAIN
 70
     0
  9
$PLINEGEN
 70
     0
  9
$PSLTSCALE
 70
     1
  9
$TREEDEPTH
 70
  3020
  9
$PICKSTYLE
 70
     1
  9
$CMLSTYLE
  2
STANDARD
  9
$CMLJUST
 70
     0
  9
$CMLSCALE
 40
1.0
  9
$PROXYGRAPHICS
 70
     1
  9
$MEASUREMENT
 70
     1
  0
ENDSEC
  0
SECTION
  2
CLASSES
  0
CLASS
  1
LWPOLYLINE
  2
AcDbPolyline
  3
AutoCAD 2000
 90
        0
280
     0
281
     1
  0
CLASS
  1
HATCH
  2
AcDbHatch
  3
AutoCAD 2000
 90
        0
280
     0
281
     1
  0
CLASS
  1
ACDBDICTIONARYWDFLT
  2
AcDbDictionaryWithDefault
  3
AutoCAD 2000
 90
        0
280
     0
281
     0
  0
CLASS
  1
ACDBPLACEHOLDER
  2
AcDbPlaceHolder
  3
AutoCAD 2000
 90
        0
280
     0
281
     0
  0
CLASS
  1
LAYOUT
  2
AcDbLayout
  3
AutoCAD 2000
 90
        0
280
     0
281
     0
  0
CLASS
  1
DICTIONARYVAR
  2
AcDbDictionaryVar
  3
AutoCAD 2000
 90
        0
280
     0
281
     0
  0
CLASS
  1
LONG_TRANSACTION
  2
AcDbLongTransaction
  3
AutoCAD 2000
 90
        0
280
     0
281
     0
  0
CLASS
  1
LWPOLYLINE
  2
AcDbPolyline
  3
AutoCAD 2000
 90
        0
280
     0
281
     1
  0
CLASS
  1
HATCH
  2
AcDbHatch
  3
AutoCAD 2000
 90
        0
280
     0
281
     1
  0
CLASS
  1
XRECORD
  2
AcDbXrecord
  3
AutoCAD 2000
 90
        0
280
     0
281
     0
  0
ENDSEC
  0
SECTION
  2
TABLES
  0
TABLE
  2
VPORT
  5
8
330
0
100
AcDbSymbolTable
 70
     1
  0
VPORT
  5
1630B
330
8
100
AcDbSymbolTableRecord
100
AcDbViewportTableRecord
  2
*ACTIVE
 70
     0
 10
0.0
 20
0.0
 11
1.0
 21
1.0
 12
-1527.121235530249
 22
1678.157910112072
 13
0.0
 23
0.0
 14
5.0
 24
5.0
 15
0.0
 25
0.0
 16
0.0
 26
0.0
 36
1.0
 17
0.0
 27
0.0
 37
0.0
 40
221.5255062776396
 41
1.695885509838998
 42
50.0
 43
0.0
 44
0.0
 50
0.0
 51
0.0
 71
     0
 72
   100
 73
     1
 74
     0
 75
     0
 76
     0
 77
     0
 78
     0
  0
ENDTAB
  0
TABLE
  2
LTYPE
  5
5
330
0
100
AcDbSymbolTable
 70
     4
  0
LTYPE
  5
14
330
5
100
AcDbSymbolTableRecord
100
AcDbLinetypeTableRecord
  2
BYBLOCK
 70
     0
  3

 72
    65
 73
     0
 40
0.0
  0
LTYPE
  5
15
330
5
100
AcDbSymbolTableRecord
100
AcDbLinetypeTableRecord
  2
BYLAYER
 70
     0
  3

 72
    65
 73
     0
 40
0.0
  0
LTYPE
  5
16
330
5
100
AcDbSymbolTableRecord
100
AcDbLinetypeTableRecord
  2
CONTINUOUS
 70
     0
  3
Solid line
 72
    65
 73
     0
 40
0.0
  0
LTYPE
  5
329
330
5
100
AcDbSymbolTableRecord
100
AcDbLinetypeTableRecord
  2
DASHEDX2
 70
     0
  3
____  ____  ____  ____  ____  ____  ____  ____ 
 72
    65
 73
     2
 40
1.5
 49
1.0
 74
     0
 49
-0.5
 74
     0
  0
LTYPE
  5
1956
330
5
100
AcDbSymbolTableRecord
100
AcDbLinetypeTableRecord
  2
CENTERX2
 70
     0
  3
________  __  ________  __  ________  __  _____
 72
    65
 73
     4
 40
4.0
 49
2.5
 74
     0
 49
-0.5
 74
     0
 49
0.5
 74
     0
 49
-0.5
 74
     0
  0
LTYPE
  5
1958
330
5
100
AcDbSymbolTableRecord
100
AcDbLinetypeTableRecord
  2
PHANTOMX2
 70
     0
  3
____________    ____    ____    ____________   
 72
    65
 73
     6
 40
5.0
 49
2.5
 74
     0
 49
-0.5
 74
     0
 49
0.5
 74
     0
 49
-0.5
 74
     0
 49
0.5
 74
     0
 49
-0.5
 74
     0
  0
ENDTAB
  0
TABLE
  2
LAYER
  5
2
102
{ACAD_XDICTIONARY
360
130FA
102
}
330
0
100
AcDbSymbolTable
 70
     9
  0
LAYER
  5
F
330
2
100
AcDbSymbolTableRecord
100
AcDbLayerTableRecord
  2
0
 70
     0
 62
     7
  6
CONTINUOUS
  0
LAYER
  5
18F
330
2
100
AcDbSymbolTableRecord
100
AcDbLayerTableRecord
  2
ZISSEN1
 70
     0
 62
     7
  6
CONTINUOUS
  0
LAYER
  5
529
330
2
100
AcDbSymbolTableRecord
100
AcDbLayerTableRecord
  2
SUNPOU
 70
     0
 62
     1
  6
CONTINUOUS
  0
LAYER
  5
1959
330
2
100
AcDbSymbolTableRecord
100
AcDbLayerTableRecord
  2
KAKURESEN1
 70
     0
 62
     3
  6
DASHEDX2
  0
LAYER
  5
195A
330
2
100
AcDbSymbolTableRecord
100
AcDbLayerTableRecord
  2
CL1
 70
     0
 62
   210
  6
CENTERX2
  0
LAYER
  5
195C
330
2
100
AcDbSymbolTableRecord
100
AcDbLayerTableRecord
  2
SOUZOUSEN
 70
     0
 62
     5
  6
PHANTOMX2
  0
LAYER
  5
3A9B
330
2
100
AcDbSymbolTableRecord
100
AcDbLayerTableRecord
  2
DEFPOINTS
 70
     0
 62
     7
  6
CONTINUOUS
  0
LAYER
  5
131A2
330
2
100
AcDbSymbolTableRecord
100
AcDbLayerTableRecord
  2
実践
 70
     0
 62
     7
  6
CONTINUOUS
  0
LAYER
  5
131A3
330
2
100
AcDbSymbolTableRecord
100
AcDbLayerTableRecord
  2
出力ｷﾊ_ﾝ
 70
     0
 62
     7
  6
CONTINUOUS
  0
ENDTAB
  0
TABLE
  2
STYLE
  5
3
330
0
100
AcDbSymbolTable
 70
     2
  0
STYLE
  5
10
330
3
100
AcDbSymbolTableRecord
100
AcDbTextStyleTableRecord
  2
STANDARD
 70
     0
 40
0.0
 41
1.0
 50
0.0
 71
     0
 42
3.0
  3
txt
  4
BigFont
  0
STYLE
  5
1960
330
3
100
AcDbSymbolTableRecord
100
AcDbTextStyleTableRecord
  2
ゴシック体
 70
     0
 40
0.0
 41
1.0
 50
0.0
 71
     0
 42
2.5
  3
MS Gothic.ttf
  4

1001
ACAD
1000
MS Gothic
1071
    32817
  0
ENDTAB
  0
TABLE
  2
VIEW
  5
6
330
0
100
AcDbSymbolTable
 70
     0
  0
ENDTAB
  0
TABLE
  2
UCS
  5
7
330
0
100
AcDbSymbolTable
 70
     0
  0
ENDTAB
  0
TABLE
  2
APPID
  5
9
330
0
100
AcDbSymbolTable
 70
     5
  0
APPID
  5
11
330
9
100
AcDbSymbolTableRecord
100
AcDbRegAppTableRecord
  2
ACAD
 70
     0
  0
APPID
  5
4005
330
9
100
AcDbSymbolTableRecord
100
AcDbRegAppTableRecord
  2
CONTENTTABDATA
 70
     0
  0
APPID
  5
4006
330
9
100
AcDbSymbolTableRecord
100
AcDbRegAppTableRecord
  2
CONTENTCURRENTTAB
 70
     0
  0
APPID
  5
477B
330
9
100
AcDbSymbolTableRecord
100
AcDbRegAppTableRecord
  2
CONTENTBLOCKDESCRIPTION
 70
     0
  0
APPID
  5
477C
330
9
100
AcDbSymbolTableRecord
100
AcDbRegAppTableRecord
  2
CONTENTBLOCKICON
 70
     0
  0
ENDTAB
  0
TABLE
  2
DIMSTYLE
  5
A
330
0
100
AcDbSymbolTable
 70
     3
  0
DIMSTYLE
105
1D
330
A
100
AcDbSymbolTableRecord
100
AcDbDimStyleTableRecord
  2
STANDARD
 70
     0
  3

  4

  5

  6

  7

 40
1.0
 41
0.18
 42
0.0625
 43
0.38
 44
0.18
 45
0.0
 46
0.0
 47
0.0
 48
0.0
140
0.18
141
0.09
142
0.0
143
25.4
144
1.0
145
0.0
146
1.0
147
0.09
 71
     0
 72
     0
 73
     1
 74
     1
 75
     0
 76
     0
 77
     0
 78
     0
170
     0
171
     2
172
     0
173
     0
174
     0
175
     0
176
     0
177
     0
178
     0
270
     2
271
     4
272
     4
273
     2
274
     2
340
10
275
     0
280
     0
281
     0
282
     0
283
     1
284
     0
285
     0
286
     0
287
     3
288
     0
  0
DIMSTYLE
105
52E
330
A
100
AcDbSymbolTableRecord
100
AcDbDimStyleTableRecord
  2
標準スタイル
 70
     0
  3

  4

  5

  6

  7

 40
0.0
 41
3.0
 42
0.5
 43
0.5
 44
0.5
 45
0.0
 46
0.0
 47
0.0
 48
0.0
140
3.5
141
0.0
142
0.0
143
25.4
144
1.0
145
0.0
146
1.0
147
1.0
 71
     0
 72
     0
 73
     0
 74
     0
 75
     0
 76
     0
 77
     1
 78
     8
170
     0
171
     2
172
     1
173
     0
174
     0
175
     0
176
     1
177
     1
178
     1
270
     2
271
     2
272
     2
273
     2
274
     2
340
1960
275
     0
280
     0
281
     0
282
     0
283
     1
284
     8
285
     0
286
     0
287
     3
288
     0
  0
DIMSTYLE
105
131A7
102
{ACAD_REACTORS
330
15265
330
1544F
330
15450
330
15FD8
330
15FE7
330
16082
330
160A7
330
16156
330
161AC
102
}
330
A
100
AcDbSymbolTableRecord
100
AcDbDimStyleTableRecord
  2
ISO-25
 70
     0
  3

  4

  5

  6

  7

 40
1.0
 41
2.5
 42
0.625
 43
3.75
 44
1.25
 45
0.0
 46
0.0
 47
0.0
 48
0.0
140
2.5
141
2.5
142
0.0
143
0.03937007874016
144
1.0
145
0.0
146
1.0
147
0.625
 71
     0
 72
     0
 73
     0
 74
     0
 75
     0
 76
     0
 77
     1
 78
     8
170
     0
171
     3
172
     1
173
     0
174
     0
175
     0
176
     1
177
     1
178
     1
270
     2
271
     2
272
     2
273
     2
274
     3
340
10
275
     0
280
     0
281
     0
282
     0
283
     0
284
     8
285
     0
286
     0
287
     3
288
     0
  0
ENDTAB
  0
TABLE
  2
BLOCK_RECORD
  5
1
330
0
100
AcDbSymbolTable
 70
     9
  0
BLOCK_RECORD
  5
1A
102
{ACAD_XDICTIONARY
360
16333
102
}
330
1
100
AcDbSymbolTableRecord
100
AcDbBlockTableRecord
  2
*MODEL_SPACE
  0
BLOCK_RECORD
  5
5D8E
102
{ACAD_XDICTIONARY
360
16335
102
}
330
1
100
AcDbSymbolTableRecord
100
AcDbBlockTableRecord
  2
*PAPER_SPACE
  0
BLOCK_RECORD
  5
154A4
330
1
100
AcDbSymbolTableRecord
100
AcDbBlockTableRecord
  2
*D0
  0
BLOCK_RECORD
  5
154EC
330
1
100
AcDbSymbolTableRecord
100
AcDbBlockTableRecord
  2
*D1
  0
BLOCK_RECORD
  5
154F8
330
1
100
AcDbSymbolTableRecord
100
AcDbBlockTableRecord
  2
*D2
  0
BLOCK_RECORD
  5
15FD9
330
1
100
AcDbSymbolTableRecord
100
AcDbBlockTableRecord
  2
*D3
  0
BLOCK_RECORD
  5
15FE8
330
1
100
AcDbSymbolTableRecord
100
AcDbBlockTableRecord
  2
*D4
  0
BLOCK_RECORD
  5
16083
330
1
100
AcDbSymbolTableRecord
100
AcDbBlockTableRecord
  2
*D5
  0
BLOCK_RECORD
  5
160A8
330
1
100
AcDbSymbolTableRecord
100
AcDbBlockTableRecord
  2
*D6
  0
BLOCK_RECORD
  5
16157
330
1
100
AcDbSymbolTableRecord
100
AcDbBlockTableRecord
  2
*D7
  0
BLOCK_RECORD
  5
161AD
330
1
100
AcDbSymbolTableRecord
100
AcDbBlockTableRecord
  2
*D8
  0
ENDTAB
  0
ENDSEC
  0
SECTION
  2
BLOCKS
  0
BLOCK
  5
1B
330
1A
100
AcDbEntity
  8
0
100
AcDbBlockBegin
  2
*MODEL_SPACE
 70
     0
 10
0.0
 20
0.0
 30
0.0
  3
*MODEL_SPACE
  1

  0
ENDBLK
  5
1C
330
1A
100
AcDbEntity
  8
0
100
AcDbBlockEnd
  0
BLOCK
  5
5E60
330
5D8E
100
AcDbEntity
 67
     1
  8
0
100
AcDbBlockBegin
  2
*PAPER_SPACE
 70
     0
 10
0.0
 20
0.0
 30
0.0
  3
*PAPER_SPACE
  1

  0
ENDBLK
  5
5E61
330
5D8E
100
AcDbEntity
 67
     1
  8
0
100
AcDbBlockEnd
  0
BLOCK
  5
154AE
330
154A4
100
AcDbEntity
  8
0
100
AcDbBlockBegin
  2
*D0
 70
     1
 10
0.0
 20
0.0
 30
0.0
  3
*D0
  1

  0
LINE
  5
15F01
330
154A4
100
AcDbEntity
  8
SUNPOU
 62
     1
100
AcDbLine
 10
-1596.499999999999
 20
1723.324919565673
 30
0.0
 11
-1596.499999999999
 21
1740.344204061844
 31
0.0
  0
LINE
  5
15F02
330
154A4
100
AcDbEntity
  8
SUNPOU
 62
     1
100
AcDbLine
 10
-1497.500106905943
 20
1722.624919565674
 30
0.0
 11
-1497.500106905943
 21
1740.344204061844
 31
0.0
  0
LINE
  5
15F03
330
154A4
100
AcDbEntity
  8
SUNPOU
 62
     1
100
AcDbLine
 10
-1594.0
 20
1739.094204061844
 30
0.0
 11
-1500.000106905943
 21
1739.094204061844
 31
0.0
  0
SOLID
  5
15F04
330
154A4
100
AcDbEntity
  8
SUNPOU
 62
     1
100
AcDbTrace
 10
-1594.0
 20
1739.510870728511
 30
0.0
 11
-1594.0
 21
1738.677537395178
 31
0.0
 12
-1596.499999999999
 22
1739.094204061844
 32
0.0
 13
-1596.499999999999
 23
1739.094204061844
 33
0.0
  0
SOLID
  5
15F05
330
154A4
100
AcDbEntity
  8
SUNPOU
 62
     1
100
AcDbTrace
 10
-1500.000106905943
 20
1739.510870728511
 30
0.0
 11
-1500.000106905943
 21
1738.677537395178
 31
0.0
 12
-1497.500106905943
 22
1739.094204061844
 32
0.0
 13
-1497.500106905943
 23
1739.094204061844
 33
0.0
  0
MTEXT
  5
15F06
330
154A4
100
AcDbEntity
  8
SUNPOU
 62
     1
100
AcDbMText
 10
-1547.000053452971
 20
1741.469204061844
 30
0.0
 40
3.5
 41
0.0
 71
     5
 72
     1
  1
99
1001
ACAD
1000
MTEXTBEGIN
1070
    73
1070
     1
1070
    44
1040
1.0
1070
    74
1070
     0
1000
MTEXTEND
  0
POINT
  5
15F07
330
154A4
100
AcDbEntity
  8
DEFPOINTS
 62
     0
100
AcDbPoint
 10
-1596.499999999999
 20
1722.699919565673
 30
0.0
  0
POINT
  5
15F08
330
154A4
100
AcDbEntity
  8
DEFPOINTS
 62
     0
100
AcDbPoint
 10
-1497.500106905943
 20
1721.999919565674
 30
0.0
  0
POINT
  5
15F09
330
154A4
100
AcDbEntity
  8
DEFPOINTS
 62
     0
100
AcDbPoint
 10
-1497.500106905943
 20
1739.094204061844
 30
0.0
  0
ENDBLK
  5
154AF
330
154A4
100
AcDbEntity
  8
0
100
AcDbBlockEnd
  0
BLOCK
  5
154F6
330
154EC
100
AcDbEntity
  8
0
100
AcDbBlockBegin
  2
*D1
 70
     1
 10
0.0
 20
0.0
 30
0.0
  3
*D1
  1

  0
LINE
  5
15F3B
330
154EC
100
AcDbEntity
  8
SUNPOU
 62
     1
100
AcDbLine
 10
-1493.375
 20
1600.0
 30
0.0
 11
-1488.200465700013
 21
1600.0
 31
0.0
  0
LINE
  5
15F3C
330
154EC
100
AcDbEntity
  8
SUNPOU
 62
     1
100
AcDbLine
 10
-1498.874999999999
 20
1660.0
 30
0.0
 11
-1488.200465700013
 21
1660.0
 31
0.0
  0
LINE
  5
15F3D
330
154EC
100
AcDbEntity
  8
SUNPOU
 62
     1
100
AcDbLine
 10
-1489.450465700014
 20
1602.5
 30
0.0
 11
-1489.450465700014
 21
1657.499999999999
 31
0.0
  0
SOLID
  5
15F3E
330
154EC
100
AcDbEntity
  8
SUNPOU
 62
     1
100
AcDbTrace
 10
-1489.86713236668
 20
1602.5
 30
0.0
 11
-1489.033799033347
 21
1602.5
 31
0.0
 12
-1489.450465700014
 22
1600.0
 32
0.0
 13
-1489.450465700014
 23
1600.0
 33
0.0
  0
SOLID
  5
15F3F
330
154EC
100
AcDbEntity
  8
SUNPOU
 62
     1
100
AcDbTrace
 10
-1489.86713236668
 20
1657.499999999999
 30
0.0
 11
-1489.033799033347
 21
1657.499999999999
 31
0.0
 12
-1489.450465700014
 22
1660.0
 32
0.0
 13
-1489.450465700014
 23
1660.0
 33
0.0
  0
MTEXT
  5
15F40
330
154EC
100
AcDbEntity
  8
SUNPOU
 62
     1
100
AcDbMText
 10
-1491.825465700014
 20
1627.499999999999
 30
0.0
 40
3.5
 41
0.0
 71
     5
 72
     1
  1
60
 11
0.0000000000000001
 21
1.0
 31
0.0
1001
ACAD
1000
MTEXTBEGIN
1070
    73
1070
     1
1070
    44
1040
1.0
1070
    74
1070
     0
1000
MTEXTEND
  0
POINT
  5
15F41
330
154EC
100
AcDbEntity
  8
DEFPOINTS
 62
     0
100
AcDbPoint
 10
-1494.0
 20
1600.0
 30
0.0
  0
POINT
  5
15F42
330
154EC
100
AcDbEntity
  8
DEFPOINTS
 62
     0
100
AcDbPoint
 10
-1499.5
 20
1660.0
 30
0.0
  0
POINT
  5
15F43
330
154EC
100
AcDbEntity
  8
DEFPOINTS
 62
     0
100
AcDbPoint
 10
-1489.450465700014
 20
1660.0
 30
0.0
  0
ENDBLK
  5
154F7
330
154EC
100
AcDbEntity
  8
0
100
AcDbBlockEnd
  0
BLOCK
  5
15502
330
154F8
100
AcDbEntity
  8
0
100
AcDbBlockBegin
  2
*D2
 70
     1
 10
0.0
 20
0.0
 30
0.0
  3
*D2
  1

  0
LINE
  5
15F44
330
154F8
100
AcDbEntity
  8
SUNPOU
 62
     1
100
AcDbLine
 10
-1493.375
 20
1600.0
 30
0.0
 11
-1482.994460555644
 21
1600.0
 31
0.0
  0
LINE
  5
15F45
330
154F8
100
AcDbEntity
  8
SUNPOU
 62
     1
100
AcDbLine
 10
-1500.285530158562
 20
1674.0000003408
 30
0.0
 11
-1482.994460555644
 21
1674.0000003408
 31
0.0
  0
LINE
  5
15F46
330
154F8
100
AcDbEntity
  8
SUNPOU
 62
     1
100
AcDbLine
 10
-1484.244460555644
 20
1602.5
 30
0.0
 11
-1484.244460555644
 21
1671.5000003408
 31
0.0
  0
SOLID
  5
15F47
330
154F8
100
AcDbEntity
  8
SUNPOU
 62
     1
100
AcDbTrace
 10
-1484.661127222311
 20
1602.5
 30
0.0
 11
-1483.827793888977
 21
1602.5
 31
0.0
 12
-1484.244460555644
 22
1600.0
 32
0.0
 13
-1484.244460555644
 23
1600.0
 33
0.0
  0
SOLID
  5
15F48
330
154F8
100
AcDbEntity
  8
SUNPOU
 62
     1
100
AcDbTrace
 10
-1484.661127222311
 20
1671.5000003408
 30
0.0
 11
-1483.827793888977
 21
1671.5000003408
 31
0.0
 12
-1484.244460555644
 22
1674.0000003408
 32
0.0
 13
-1484.244460555644
 23
1674.0000003408
 33
0.0
  0
MTEXT
  5
15F49
330
154F8
100
AcDbEntity
  8
SUNPOU
 62
     1
100
AcDbMText
 10
-1486.619460555644
 20
1636.955190683209
 30
0.0
 40
3.5
 41
0.0
 71
     5
 72
     1
  1
74
 11
0.0000000000000001
 21
1.0
 31
0.0
1001
ACAD
1000
MTEXTBEGIN
1070
    73
1070
     1
1070
    44
1040
1.0
1070
    74
1070
     0
1000
MTEXTEND
  0
POINT
  5
15F4A
330
154F8
100
AcDbEntity
  8
DEFPOINTS
 62
     0
100
AcDbPoint
 10
-1494.0
 20
1600.0
 30
0.0
  0
POINT
  5
15F4B
330
154F8
100
AcDbEntity
  8
DEFPOINTS
 62
     0
100
AcDbPoint
 10
-1500.910530158562
 20
1674.0000003408
 30
0.0
  0
POINT
  5
15F4C
330
154F8
100
AcDbEntity
  8
DEFPOINTS
 62
     0
100
AcDbPoint
 10
-1484.244460555644
 20
1674.0000003408
 30
0.0
  0
ENDBLK
  5
15503
330
154F8
100
AcDbEntity
  8
0
100
AcDbBlockEnd
  0
BLOCK
  5
15FE5
330
15FD9
100
AcDbEntity
  8
0
100
AcDbBlockBegin
  2
*D3
 70
     1
 10
0.0
 20
0.0
 30
0.0
  3
*D3
  1

  0
LINE
  5
161C4
330
15FD9
100
AcDbEntity
  8
SUNPOU
 62
     1
100
AcDbLine
 10
-1492.523742758898
 20
1704.999999999998
 30
0.0
 11
-1476.878983887195
 21
1704.999999999998
 31
0.0
  0
LINE
  5
161C5
330
15FD9
100
AcDbEntity
  8
SUNPOU
 62
     1
100
AcDbLine
 10
-1493.375
 20
1699.0
 30
0.0
 11
-1476.878983887195
 21
1699.0
 31
0.0
  0
LINE
  5
161C6
330
15FD9
100
AcDbEntity
  8
SUNPOU
 62
     1
100
AcDbLine
 10
-1478.128983887195
 20
1707.499999999998
 30
0.0
 11
-1478.128983887195
 21
1709.999999999998
 31
0.0
  0
LINE
  5
161C7
330
15FD9
100
AcDbEntity
  8
SUNPOU
 62
     1
100
AcDbLine
 10
-1478.128983887195
 20
1696.5
 30
0.0
 11
-1478.128983887195
 21
1694.0
 31
0.0
  0
LINE
  5
161C8
330
15FD9
100
AcDbEntity
  8
SUNPOU
 62
     1
100
AcDbLine
 10
-1478.128983887195
 20
1704.999999999998
 30
0.0
 11
-1478.128983887195
 21
1699.0
 31
0.0
  0
SOLID
  5
161C9
330
15FD9
100
AcDbEntity
  8
SUNPOU
 62
     1
100
AcDbTrace
 10
-1478.545650553862
 20
1707.499999999998
 30
0.0
 11
-1477.712317220528
 21
1707.499999999998
 31
0.0
 12
-1478.128983887195
 22
1704.999999999998
 32
0.0
 13
-1478.128983887195
 23
1704.999999999998
 33
0.0
  0
SOLID
  5
161CA
330
15FD9
100
AcDbEntity
  8
SUNPOU
 62
     1
100
AcDbTrace
 10
-1478.545650553862
 20
1696.5
 30
0.0
 11
-1477.712317220528
 21
1696.5
 31
0.0
 12
-1478.128983887195
 22
1699.0
 32
0.0
 13
-1478.128983887195
 23
1699.0
 33
0.0
  0
MTEXT
  5
161CB
330
15FD9
100
AcDbEntity
  8
SUNPOU
 62
     1
100
AcDbMText
 10
-1480.503983887196
 20
1701.999999999999
 30
0.0
 40
3.5
 41
0.0
 71
     5
 72
     1
  1
6
 11
0.0000000000000001
 21
1.0
 31
0.0
1001
ACAD
1000
MTEXTBEGIN
1070
    73
1070
     1
1070
    44
1040
1.0
1070
    74
1070
     0
1000
MTEXTEND
  0
POINT
  5
161CC
330
15FD9
100
AcDbEntity
  8
DEFPOINTS
 62
     0
100
AcDbPoint
 10
-1493.148742758898
 20
1704.999999999998
 30
0.0
  0
POINT
  5
161CD
330
15FD9
100
AcDbEntity
  8
DEFPOINTS
 62
     0
100
AcDbPoint
 10
-1494.0
 20
1699.0
 30
0.0
  0
POINT
  5
161CE
330
15FD9
100
AcDbEntity
  8
DEFPOINTS
 62
     0
100
AcDbPoint
 10
-1478.128983887195
 20
1699.0
 30
0.0
  0
ENDBLK
  5
15FE6
330
15FD9
100
AcDbEntity
  8
0
100
AcDbBlockEnd
  0
BLOCK
  5
15FF2
330
15FE8
100
AcDbEntity
  8
0
100
AcDbBlockBegin
  2
*D4
 70
     1
 10
0.0
 20
0.0
 30
0.0
  3
*D4
  1

  0
LINE
  5
15FFF
330
15FE8
100
AcDbEntity
  8
SUNPOU
 62
     1
100
AcDbLine
 10
-1493.375
 20
1699.0
 30
0.0
 11
-1470.177866846451
 21
1699.0
 31
0.0
  0
LINE
  5
16000
330
15FE8
100
AcDbEntity
  8
SUNPOU
 62
     1
100
AcDbLine
 10
-1500.375
 20
1725.999919565673
 30
0.0
 11
-1470.177866846451
 21
1725.999919565673
 31
0.0
  0
LINE
  5
16001
330
15FE8
100
AcDbEntity
  8
SUNPOU
 62
     1
100
AcDbLine
 10
-1471.427866846451
 20
1701.5
 30
0.0
 11
-1471.427866846451
 21
1723.499919565673
 31
0.0
  0
SOLID
  5
16002
330
15FE8
100
AcDbEntity
  8
SUNPOU
 62
     1
100
AcDbTrace
 10
-1471.844533513118
 20
1701.5
 30
0.0
 11
-1471.011200179785
 21
1701.5
 31
0.0
 12
-1471.427866846451
 22
1699.0
 32
0.0
 13
-1471.427866846451
 23
1699.0
 33
0.0
  0
SOLID
  5
16003
330
15FE8
100
AcDbEntity
  8
SUNPOU
 62
     1
100
AcDbTrace
 10
-1471.844533513118
 20
1723.499919565673
 30
0.0
 11
-1471.011200179785
 21
1723.499919565673
 31
0.0
 12
-1471.427866846451
 22
1725.999919565673
 32
0.0
 13
-1471.427866846451
 23
1725.999919565673
 33
0.0
  0
MTEXT
  5
16004
330
15FE8
100
AcDbEntity
  8
SUNPOU
 62
     1
100
AcDbMText
 10
-1473.802866846452
 20
1712.499959782836
 30
0.0
 40
3.5
 41
0.0
 71
     5
 72
     1
  1
27
 11
0.0000000000000001
 21
1.0
 31
0.0
1001
ACAD
1000
MTEXTBEGIN
1070
    73
1070
     1
1070
    44
1040
1.0
1070
    74
1070
     0
1000
MTEXTEND
  0
POINT
  5
16005
330
15FE8
100
AcDbEntity
  8
DEFPOINTS
 62
     0
100
AcDbPoint
 10
-1494.0
 20
1699.0
 30
0.0
  0
POINT
  5
16006
330
15FE8
100
AcDbEntity
  8
DEFPOINTS
 62
     0
100
AcDbPoint
 10
-1501.0
 20
1725.999919565673
 30
0.0
  0
POINT
  5
16007
330
15FE8
100
AcDbEntity
  8
DEFPOINTS
 62
     0
100
AcDbPoint
 10
-1471.427866846451
 20
1725.999919565673
 30
0.0
  0
ENDBLK
  5
15FF3
330
15FE8
100
AcDbEntity
  8
0
100
AcDbBlockEnd
  0
BLOCK
  5
1608D
330
16083
100
AcDbEntity
  8
0
100
AcDbBlockBegin
  2
*D5
 70
     1
 10
0.0
 20
0.0
 30
0.0
  3
*D5
  1

  0
LINE
  5
1608F
330
16083
100
AcDbEntity
  8
SUNPOU
 62
     1
100
AcDbLine
 10
-1462.000000000005
 20
1664.575
 30
0.0
 11
-1462.000000000005
 21
1684.663094453973
 31
0.0
  0
LINE
  5
16090
330
16083
100
AcDbEntity
  8
SUNPOU
 62
     1
100
AcDbLine
 10
-1433.000000000001
 20
1657.824999999997
 30
0.0
 11
-1433.000000000001
 21
1684.663094453973
 31
0.0
  0
LINE
  5
16091
330
16083
100
AcDbEntity
  8
SUNPOU
 62
     1
100
AcDbLine
 10
-1459.500000000005
 20
1683.413094453973
 30
0.0
 11
-1435.500000000001
 21
1683.413094453973
 31
0.0
  0
SOLID
  5
16092
330
16083
100
AcDbEntity
  8
SUNPOU
 62
     1
100
AcDbTrace
 10
-1459.500000000005
 20
1683.829761120639
 30
0.0
 11
-1459.500000000005
 21
1682.996427787306
 31
0.0
 12
-1462.000000000005
 22
1683.413094453973
 32
0.0
 13
-1462.000000000005
 23
1683.413094453973
 33
0.0
  0
SOLID
  5
16093
330
16083
100
AcDbEntity
  8
SUNPOU
 62
     1
100
AcDbTrace
 10
-1435.500000000001
 20
1683.829761120639
 30
0.0
 11
-1435.500000000001
 21
1682.996427787306
 31
0.0
 12
-1433.000000000001
 22
1683.413094453973
 32
0.0
 13
-1433.000000000001
 23
1683.413094453973
 33
0.0
  0
MTEXT
  5
16094
330
16083
100
AcDbEntity
  8
SUNPOU
 62
     1
100
AcDbMText
 10
-1447.500000000003
 20
1685.788094453973
 30
0.0
 40
3.5
 41
0.0
 71
     5
 72
     1
  1
29
1001
ACAD
1000
MTEXTBEGIN
1070
    73
1070
     1
1070
    44
1040
1.0
1070
    74
1070
     0
1000
MTEXTEND
  0
POINT
  5
16095
330
16083
100
AcDbEntity
  8
DEFPOINTS
 62
     0
100
AcDbPoint
 10
-1462.000000000005
 20
1663.95
 30
0.0
  0
POINT
  5
16096
330
16083
100
AcDbEntity
  8
DEFPOINTS
 62
     0
100
AcDbPoint
 10
-1433.000000000001
 20
1657.199999999997
 30
0.0
  0
POINT
  5
16097
330
16083
100
AcDbEntity
  8
DEFPOINTS
 62
     0
100
AcDbPoint
 10
-1433.000000000001
 20
1683.413094453973
 30
0.0
  0
ENDBLK
  5
1608E
330
16083
100
AcDbEntity
  8
0
100
AcDbBlockEnd
  0
BLOCK
  5
160B4
330
160A8
100
AcDbEntity
  8
0
100
AcDbBlockBegin
  2
*D6
 70
     1
 10
0.0
 20
0.0
 30
0.0
  3
*D6
  1

  0
LINE
  5
160B6
330
160A8
100
AcDbEntity
  8
SUNPOU
 62
     1
100
AcDbLine
 10
-1491.875
 20
1706.75
 30
0.0
 11
-1484.286069360443
 21
1706.75
 31
0.0
  0
LINE
  5
160B7
330
160A8
100
AcDbEntity
  8
SUNPOU
 62
     1
100
AcDbLine
 10
-1491.875
 20
1703.249999999999
 30
0.0
 11
-1484.286069360443
 21
1703.249999999999
 31
0.0
  0
LINE
  5
160B8
330
160A8
100
AcDbEntity
  8
SUNPOU
 62
     1
100
AcDbLine
 10
-1485.536069360443
 20
1709.25
 30
0.0
 11
-1485.536069360443
 21
1711.75
 31
0.0
  0
LINE
  5
160B9
330
160A8
100
AcDbEntity
  8
SUNPOU
 62
     1
100
AcDbLine
 10
-1485.536069360443
 20
1700.75
 30
0.0
 11
-1485.536069360443
 21
1690.0
 31
0.0
  0
LINE
  5
160BA
330
160A8
100
AcDbEntity
  8
SUNPOU
 62
     1
100
AcDbLine
 10
-1485.536069360443
 20
1706.75
 30
0.0
 11
-1485.536069360443
 21
1703.249999999999
 31
0.0
  0
SOLID
  5
160BB
330
160A8
100
AcDbEntity
  8
SUNPOU
 62
     1
100
AcDbTrace
 10
-1485.95273602711
 20
1709.25
 30
0.0
 11
-1485.119402693777
 21
1709.25
 31
0.0
 12
-1485.536069360443
 22
1706.75
 32
0.0
 13
-1485.536069360443
 23
1706.75
 33
0.0
  0
SOLID
  5
160BC
330
160A8
100
AcDbEntity
  8
SUNPOU
 62
     1
100
AcDbTrace
 10
-1485.95273602711
 20
1700.75
 30
0.0
 11
-1485.119402693777
 21
1700.75
 31
0.0
 12
-1485.536069360443
 22
1703.249999999999
 32
0.0
 13
-1485.536069360443
 23
1703.249999999999
 33
0.0
  0
MTEXT
  5
160BD
330
160A8
100
AcDbEntity
  8
SUNPOU
 62
     1
100
AcDbMText
 10
-1487.911069360444
 20
1694.124999999999
 30
0.0
 40
3.5
 41
0.0
 71
     5
 72
     1
  1
3.5
 11
0.0000000000000001
 21
1.0
 31
0.0
1001
ACAD
1000
MTEXTBEGIN
1070
    73
1070
     1
1070
    44
1040
1.0
1070
    74
1070
     0
1000
MTEXTEND
  0
POINT
  5
160BE
330
160A8
100
AcDbEntity
  8
DEFPOINTS
 62
     0
100
AcDbPoint
 10
-1492.5
 20
1706.75
 30
0.0
  0
POINT
  5
160BF
330
160A8
100
AcDbEntity
  8
DEFPOINTS
 62
     0
100
AcDbPoint
 10
-1492.5
 20
1703.249999999999
 30
0.0
  0
POINT
  5
160C0
330
160A8
100
AcDbEntity
  8
DEFPOINTS
 62
     0
100
AcDbPoint
 10
-1485.536069360443
 20
1703.249999999999
 30
0.0
  0
ENDBLK
  5
160B5
330
160A8
100
AcDbEntity
  8
0
100
AcDbBlockEnd
  0
BLOCK
  5
16161
330
16157
100
AcDbEntity
  8
0
100
AcDbBlockBegin
  2
*D7
 70
     1
 10
0.0
 20
0.0
 30
0.0
  3
*D7
  1

  0
LINE
  5
16163
330
16157
100
AcDbEntity
  8
SUNPOU
 62
     1
100
AcDbLine
 10
-1597.5
 20
1699.847407939743
 30
0.0
 11
-1597.5
 21
1689.410982133024
 31
0.0
  0
LINE
  5
16164
330
16157
100
AcDbEntity
  8
SUNPOU
 62
     1
100
AcDbLine
 10
-1496.5
 20
1699.347407939742
 30
0.0
 11
-1496.5
 21
1689.410982133024
 31
0.0
  0
LINE
  5
16165
330
16157
100
AcDbEntity
  8
SUNPOU
 62
     1
100
AcDbLine
 10
-1595.0
 20
1690.660982133024
 30
0.0
 11
-1499.0
 21
1690.660982133024
 31
0.0
  0
SOLID
  5
16166
330
16157
100
AcDbEntity
  8
SUNPOU
 62
     1
100
AcDbTrace
 10
-1595.0
 20
1691.077648799691
 30
0.0
 11
-1595.0
 21
1690.244315466357
 31
0.0
 12
-1597.5
 22
1690.660982133024
 32
0.0
 13
-1597.5
 23
1690.660982133024
 33
0.0
  0
SOLID
  5
16167
330
16157
100
AcDbEntity
  8
SUNPOU
 62
     1
100
AcDbTrace
 10
-1499.0
 20
1691.077648799691
 30
0.0
 11
-1499.0
 21
1690.244315466357
 31
0.0
 12
-1496.5
 22
1690.660982133024
 32
0.0
 13
-1496.5
 23
1690.660982133024
 33
0.0
  0
MTEXT
  5
16168
330
16157
100
AcDbEntity
  8
SUNPOU
 62
     1
100
AcDbMText
 10
-1547.0
 20
1693.035982133024
 30
0.0
 40
3.5
 41
0.0
 71
     5
 72
     1
  1
101
1001
ACAD
1000
MTEXTBEGIN
1070
    73
1070
     1
1070
    44
1040
1.0
1070
    74
1070
     0
1000
MTEXTEND
  0
POINT
  5
16169
330
16157
100
AcDbEntity
  8
DEFPOINTS
 62
     0
100
AcDbPoint
 10
-1597.5
 20
1700.472407939743
 30
0.0
  0
POINT
  5
1616A
330
16157
100
AcDbEntity
  8
DEFPOINTS
 62
     0
100
AcDbPoint
 10
-1496.5
 20
1699.972407939743
 30
0.0
  0
POINT
  5
1616B
330
16157
100
AcDbEntity
  8
DEFPOINTS
 62
     0
100
AcDbPoint
 10
-1496.5
 20
1690.660982133024
 30
0.0
  0
ENDBLK
  5
16162
330
16157
100
AcDbEntity
  8
0
100
AcDbBlockEnd
  0
BLOCK
  5
161B7
330
161AD
100
AcDbEntity
  8
0
100
AcDbBlockBegin
  2
*D8
 70
     1
 10
0.0
 20
0.0
 30
0.0
  3
*D8
  1

  0
LINE
  5
161B9
330
161AD
100
AcDbEntity
  8
SUNPOU
 62
     1
100
AcDbLine
 10
-1601.0
 20
1699.374999999999
 30
0.0
 11
-1601.0
 21
1681.80863695306
 31
0.0
  0
LINE
  5
161BA
330
161AD
100
AcDbEntity
  8
SUNPOU
 62
     1
100
AcDbLine
 10
-1492.0
 20
1699.374999999999
 30
0.0
 11
-1492.0
 21
1681.80863695306
 31
0.0
  0
LINE
  5
161BB
330
161AD
100
AcDbEntity
  8
SUNPOU
 62
     1
100
AcDbLine
 10
-1598.5
 20
1683.05863695306
 30
0.0
 11
-1494.5
 21
1683.05863695306
 31
0.0
  0
SOLID
  5
161BC
330
161AD
100
AcDbEntity
  8
SUNPOU
 62
     1
100
AcDbTrace
 10
-1598.5
 20
1683.475303619727
 30
0.0
 11
-1598.5
 21
1682.641970286393
 31
0.0
 12
-1601.0
 22
1683.05863695306
 32
0.0
 13
-1601.0
 23
1683.05863695306
 33
0.0
  0
SOLID
  5
161BD
330
161AD
100
AcDbEntity
  8
SUNPOU
 62
     1
100
AcDbTrace
 10
-1494.5
 20
1683.475303619727
 30
0.0
 11
-1494.5
 21
1682.641970286393
 31
0.0
 12
-1492.0
 22
1683.05863695306
 32
0.0
 13
-1492.0
 23
1683.05863695306
 33
0.0
  0
MTEXT
  5
161BE
330
161AD
100
AcDbEntity
  8
SUNPOU
 62
     1
100
AcDbMText
 10
-1546.499999999999
 20
1685.43363695306
 30
0.0
 40
3.5
 41
0.0
 71
     5
 72
     1
  1
109
1001
ACAD
1000
MTEXTBEGIN
1070
    73
1070
     1
1070
    44
1040
1.0
1070
    74
1070
     0
1000
MTEXTEND
  0
POINT
  5
161BF
330
161AD
100
AcDbEntity
  8
DEFPOINTS
 62
     0
100
AcDbPoint
 10
-1601.0
 20
1700.0
 30
0.0
  0
POINT
  5
161C0
330
161AD
100
AcDbEntity
  8
DEFPOINTS
 62
     0
100
AcDbPoint
 10
-1492.0
 20
1700.0
 30
0.0
  0
POINT
  5
161C1
330
161AD
100
AcDbEntity
  8
DEFPOINTS
 62
     0
100
AcDbPoint
 10
-1492.0
 20
1683.05863695306
 30
0.0
  0
ENDBLK
  5
161B8
330
161AD
100
AcDbEntity
  8
0
100
AcDbBlockEnd
  0
ENDSEC
  0
SECTION
  2
ENTITIES
  0
MTEXT
  5
5084
330
1A
100
AcDbEntity
  8
0
100
AcDbMText
 10
1985.239088685435
 20
-948.5420423450428
 30
0.0
 40
8.0
 41
0.0
 71
     7
 72
     5
  1

1001
ACAD
1000
MTEXTBEGIN
1070
    73
1070
     1
1070
    44
1040
1.0
1070
    74
1070
     0
1000
MTEXTEND
  0
MTEXT
  5
5085
330
1A
100
AcDbEntity
  8
0
100
AcDbMText
 10
4270.596778580329
 20
22.24825240601649
 30
0.0
 40
8.0
 41
0.0
 71
     7
 72
     5
  1

1001
ACAD
1000
MTEXTBEGIN
1070
    73
1070
     1
1070
    44
1040
1.0
1070
    74
1070
     0
1000
MTEXTEND
  0
MTEXT
  5
5343
330
1A
100
AcDbEntity
  8
SUNPOU
100
AcDbMText
 10
6936.493799262471
 20
9534.359644781135
 30
0.0
 40
10.5
 41
0.0
 71
     1
 72
     5
  1

1001
ACAD
1000
MTEXTBEGIN
1070
    73
1070
     1
1070
    44
1040
1.0
1070
    74
1070
     0
1000
MTEXTEND
  0
MTEXT
  5
544F
330
1A
100
AcDbEntity
  8
0
100
AcDbMText
 10
16317.2832773148
 20
12833.35428897674
 30
0.0
 40
8.0
 41
0.0
 71
     7
 72
     5
  1

1001
ACAD
1000
MTEXTBEGIN
1070
    73
1070
     1
1070
    44
1040
1.0
1070
    74
1070
     0
1000
MTEXTEND
  0
MTEXT
  5
5450
330
1A
100
AcDbEntity
  8
0
100
AcDbMText
 10
18602.64096720969
 20
13804.1445837278
 30
0.0
 40
8.0
 41
0.0
 71
     7
 72
     5
  1

1001
ACAD
1000
MTEXTBEGIN
1070
    73
1070
     1
1070
    44
1040
1.0
1070
    74
1070
     0
1000
MTEXTEND
  0
MTEXT
  5
5451
330
1A
100
AcDbEntity
  8
SUNPOU
100
AcDbMText
 10
21268.53798789184
 20
23316.25597610292
 30
0.0
 40
10.5
 41
0.0
 71
     1
 72
     5
  1

1001
ACAD
1000
MTEXTBEGIN
1070
    73
1070
     1
1070
    44
1040
1.0
1070
    74
1070
     0
1000
MTEXTEND
  0
MTEXT
  5
5452
330
1A
100
AcDbEntity
  8
SUNPOU
100
AcDbMText
 10
13337.6147919559
 20
22369.46284218996
 30
0.0
 40
10.5
 41
0.0
 71
     7
 72
     5
  1

1001
ACAD
1000
MTEXTBEGIN
1070
    73
1070
     1
1070
    44
1040
1.0
1070
    74
1070
     0
1000
MTEXTEND
  0
MTEXT
  5
5453
330
1A
100
AcDbEntity
  8
SUNPOU
100
AcDbMText
 10
16286.59845646867
 20
27270.13891403281
 30
0.0
 40
10.5
 41
0.0
 71
     7
 72
     5
  1

1001
ACAD
1000
MTEXTBEGIN
1070
    73
1070
     1
1070
    44
1040
1.0
1070
    74
1070
     0
1000
MTEXTEND
  0
MTEXT
  5
5454
330
1A
100
AcDbEntity
  8
SUNPOU
100
AcDbMText
 10
20795.67658441924
 20
29706.43966165288
 30
0.0
 40
10.5
 41
0.0
 71
     7
 72
     5
  1

1001
ACAD
1000
MTEXTBEGIN
1070
    73
1070
     1
1070
    44
1040
1.0
1070
    74
1070
     0
1000
MTEXTEND
  0
MTEXT
  5
5455
330
1A
100
AcDbEntity
  8
0
100
AcDbMText
 10
16611.93789220314
 20
14707.52144344448
 30
0.0
 40
8.0
 41
0.0
 71
     7
 72
     5
  1

1001
ACAD
1000
MTEXTBEGIN
1070
    73
1070
     1
1070
    44
1040
1.0
1070
    74
1070
     0
1000
MTEXTEND
  0
MTEXT
  5
5456
330
1A
100
AcDbEntity
  8
0
100
AcDbMText
 10
18897.29558209804
 20
15678.31173819554
 30
0.0
 40
8.0
 41
0.0
 71
     7
 72
     5
  1

1001
ACAD
1000
MTEXTBEGIN
1070
    73
1070
     1
1070
    44
1040
1.0
1070
    74
1070
     0
1000
MTEXTEND
  0
MTEXT
  5
5457
330
1A
100
AcDbEntity
  8
SUNPOU
100
AcDbMText
 10
21563.19260278019
 20
25190.42313057066
 30
0.0
 40
10.5
 41
0.0
 71
     1
 72
     5
  1

1001
ACAD
1000
MTEXTBEGIN
1070
    73
1070
     1
1070
    44
1040
1.0
1070
    74
1070
     0
1000
MTEXTEND
  0
MTEXT
  5
5458
330
1A
100
AcDbEntity
  8
SUNPOU
100
AcDbMText
 10
13632.26940684426
 20
24243.6299966577
 30
0.0
 40
10.5
 41
0.0
 71
     7
 72
     5
  1

1001
ACAD
1000
MTEXTBEGIN
1070
    73
1070
     1
1070
    44
1040
1.0
1070
    74
1070
     0
1000
MTEXTEND
  0
MTEXT
  5
5459
330
1A
100
AcDbEntity
  8
SUNPOU
100
AcDbMText
 10
16581.25307135702
 20
29144.30606850055
 30
0.0
 40
10.5
 41
0.0
 71
     7
 72
     5
  1

1001
ACAD
1000
MTEXTBEGIN
1070
    73
1070
     1
1070
    44
1040
1.0
1070
    74
1070
     0
1000
MTEXTEND
  0
MTEXT
  5
545A
330
1A
100
AcDbEntity
  8
SUNPOU
100
AcDbMText
 10
21090.33119930759
 20
31580.60681612062
 30
0.0
 40
10.5
 41
0.0
 71
     7
 72
     5
  1

1001
ACAD
1000
MTEXTBEGIN
1070
    73
1070
     1
1070
    44
1040
1.0
1070
    74
1070
     0
1000
MTEXTEND
  0
MTEXT
  5
545B
330
1A
100
AcDbEntity
  8
0
100
AcDbMText
 10
22871.60517627167
 20
23974.88367124799
 30
0.0
 40
8.0
 41
0.0
 71
     7
 72
     5
  1

1001
ACAD
1000
MTEXTBEGIN
1070
    73
1070
     1
1070
    44
1040
1.0
1070
    74
1070
     0
1000
MTEXTEND
  0
MTEXT
  5
545C
330
1A
100
AcDbEntity
  8
0
100
AcDbMText
 10
25156.96286616657
 20
24945.67396599906
 30
0.0
 40
8.0
 41
0.0
 71
     7
 72
     5
  1

1001
ACAD
1000
MTEXTBEGIN
1070
    73
1070
     1
1070
    44
1040
1.0
1070
    74
1070
     0
1000
MTEXTEND
  0
MTEXT
  5
545D
330
1A
100
AcDbEntity
  8
SUNPOU
100
AcDbMText
 10
27822.85988684871
 20
34457.78535837418
 30
0.0
 40
10.5
 41
0.0
 71
     1
 72
     5
  1

1001
ACAD
1000
MTEXTBEGIN
1070
    73
1070
     1
1070
    44
1040
1.0
1070
    74
1070
     0
1000
MTEXTEND
  0
MTEXT
  5
545E
330
1A
100
AcDbEntity
  8
SUNPOU
100
AcDbMText
 10
19891.93669091278
 20
33510.99222446122
 30
0.0
 40
10.5
 41
0.0
 71
     7
 72
     5
  1

1001
ACAD
1000
MTEXTBEGIN
1070
    73
1070
     1
1070
    44
1040
1.0
1070
    74
1070
     0
1000
MTEXTEND
  0
MTEXT
  5
545F
330
1A
100
AcDbEntity
  8
SUNPOU
100
AcDbMText
 10
22840.92035542555
 20
38411.66829630407
 30
0.0
 40
10.5
 41
0.0
 71
     7
 72
     5
  1

1001
ACAD
1000
MTEXTBEGIN
1070
    73
1070
     1
1070
    44
1040
1.0
1070
    74
1070
     0
1000
MTEXTEND
  0
MTEXT
  5
5460
330
1A
100
AcDbEntity
  8
SUNPOU
100
AcDbMText
 10
27349.99848337611
 20
40847.96904392415
 30
0.0
 40
10.5
 41
0.0
 71
     7
 72
     5
  1

1001
ACAD
1000
MTEXTBEGIN
1070
    73
1070
     1
1070
    44
1040
1.0
1070
    74
1070
     0
1000
MTEXTEND
  0
MTEXT
  5
55B7
330
1A
100
AcDbEntity
  8
SUNPOU
100
AcDbMText
 10
67424.23923338197
 20
64463.86602884816
 30
0.0
 40
10.5
 41
0.0
 71
     9
 72
     5
  1

1001
ACAD
1000
MTEXTBEGIN
1070
    73
1070
     1
1070
    44
1040
1.0
1070
    74
1070
     0
1000
MTEXTEND
  0
MTEXT
  5
55B8
330
1A
100
AcDbEntity
  8
SUNPOU
100
AcDbMText
 10
76146.40679929998
 20
71879.70056038563
 30
0.0
 40
10.5
 41
0.0
 71
     9
 72
     5
  1

1001
ACAD
1000
MTEXTBEGIN
1070
    73
1070
     1
1070
    44
1040
1.0
1070
    74
1070
     0
1000
MTEXTEND
  0
MTEXT
  5
55B9
330
1A
100
AcDbEntity
  8
SUNPOU
100
AcDbMText
 10
95100.16551662994
 20
89346.27661287766
 30
0.0
 40
10.5
 41
0.0
 71
     9
 72
     5
  1

1001
ACAD
1000
MTEXTBEGIN
1070
    73
1070
     1
1070
    44
1040
1.0
1070
    74
1070
     0
1000
MTEXTEND
  0
MTEXT
  5
55BA
330
1A
100
AcDbEntity
  8
SUNPOU
100
AcDbMText
 10
97043.57276333936
 20
87545.22753299966
 30
0.0
 40
3.5
 41
0.0
 71
     9
 72
     5
  1

1001
ACAD
1000
MTEXTBEGIN
1070
    73
1070
     1
1070
    44
1040
1.0
1070
    74
1070
     0
1000
MTEXTEND
  0
MTEXT
  5
55BB
330
1A
100
AcDbEntity
  8
SUNPOU
100
AcDbMText
 10
128169.752595959
 20
130040.1732006569
 30
0.0
 40
10.5
 41
0.0
 71
     9
 72
     5
  1

1001
ACAD
1000
MTEXTBEGIN
1070
    73
1070
     1
1070
    44
1040
1.0
1070
    74
1070
     0
1000
MTEXTEND
  0
MTEXT
  5
55BC
330
1A
100
AcDbEntity
  8
SUNPOU
100
AcDbMText
 10
130113.1598426684
 20
128239.1241207789
 30
0.0
 40
3.5
 41
0.0
 71
     9
 72
     5
  1

1001
ACAD
1000
MTEXTBEGIN
1070
    73
1070
     1
1070
    44
1040
1.0
1070
    74
1070
     0
1000
MTEXTEND
  0
MTEXT
  5
55BD
330
1A
100
AcDbEntity
  8
SUNPOU
100
AcDbMText
 10
78610.02030175463
 20
75873.33835563206
 30
0.0
 40
10.5
 41
0.0
 71
     9
 72
     5
  1

1001
ACAD
1000
MTEXTBEGIN
1070
    73
1070
     1
1070
    44
1040
1.0
1070
    74
1070
     0
1000
MTEXTEND
  0
MTEXT
  5
55BE
330
1A
100
AcDbEntity
  8
SUNPOU
100
AcDbMText
 10
64662.02020137863
 20
56700.93921651987
 30
0.0
 40
3.5
 41
0.0
 71
     7
 72
     5
  1

1001
ACAD
1000
MTEXTBEGIN
1070
    73
1070
     1
1070
    44
1040
1.0
1070
    74
1070
     0
1000
MTEXTEND
  0
MTEXT
  5
55BF
330
1A
100
AcDbEntity
  8
SUNPOU
100
AcDbMText
 10
45647.18959837178
 20
44463.08794733807
 30
0.0
 40
10.5
 41
0.0
 71
     7
 72
     5
  1

1001
ACAD
1000
MTEXTBEGIN
1070
    73
1070
     1
1070
    44
1040
1.0
1070
    74
1070
     0
1000
MTEXTEND
  0
MTEXT
  5
55C0
330
1A
100
AcDbEntity
  8
SUNPOU
100
AcDbMText
 10
33189.96133342368
 20
28618.15636923965
 30
0.0
 40
35.0
 41
0.0
 71
     9
 72
     5
  1

1001
ACAD
1000
MTEXTBEGIN
1070
    73
1070
     1
1070
    44
1040
1.0
1070
    74
1070
     0
1000
MTEXTEND
  0
MTEXT
  5
55C1
330
1A
100
AcDbEntity
  8
SUNPOU
100
AcDbMText
 10
32098.44639099864
 20
29226.93177928835
 30
0.0
 40
350.0000004171781
 41
0.0
 71
     7
 72
     5
  1

1001
ACAD
1000
MTEXTBEGIN
1070
    73
1070
     1
1070
    44
1040
1.0
1070
    74
1070
     0
1000
MTEXTEND
  0
MTEXT
  5
55C2
330
1A
100
AcDbEntity
  8
0
100
AcDbMText
 10
38142.39714894154
 20
27206.85414142458
 30
0.0
 40
8.0
 41
0.0
 71
     7
 72
     5
  1

1001
ACAD
1000
MTEXTBEGIN
1070
    73
1070
     1
1070
    44
1040
1.0
1070
    74
1070
     0
1000
MTEXTEND
  0
MTEXT
  5
55C3
330
1A
100
AcDbEntity
  8
0
100
AcDbMText
 10
40427.75483883644
 20
28177.64443617564
 30
0.0
 40
8.0
 41
0.0
 71
     7
 72
     5
  1

1001
ACAD
1000
MTEXTBEGIN
1070
    73
1070
     1
1070
    44
1040
1.0
1070
    74
1070
     0
1000
MTEXTEND
  0
MTEXT
  5
55C4
330
1A
100
AcDbEntity
  8
SUNPOU
100
AcDbMText
 10
43093.65185951858
 20
37689.75582855077
 30
0.0
 40
10.5
 41
0.0
 71
     1
 72
     5
  1

1001
ACAD
1000
MTEXTBEGIN
1070
    73
1070
     1
1070
    44
1040
1.0
1070
    74
1070
     0
1000
MTEXTEND
  0
MTEXT
  5
55C5
330
1A
100
AcDbEntity
  8
SUNPOU
100
AcDbMText
 10
35162.72866358265
 20
36742.96269463781
 30
0.0
 40
10.5
 41
0.0
 71
     7
 72
     5
  1

1001
ACAD
1000
MTEXTBEGIN
1070
    73
1070
     1
1070
    44
1040
1.0
1070
    74
1070
     0
1000
MTEXTEND
  0
MTEXT
  5
55C6
330
1A
100
AcDbEntity
  8
SUNPOU
100
AcDbMText
 10
38111.71232809542
 20
41643.63876648066
 30
0.0
 40
10.5
 41
0.0
 71
     7
 72
     5
  1

1001
ACAD
1000
MTEXTBEGIN
1070
    73
1070
     1
1070
    44
1040
1.0
1070
    74
1070
     0
1000
MTEXTEND
  0
MTEXT
  5
55C7
330
1A
100
AcDbEntity
  8
SUNPOU
100
AcDbMText
 10
42620.79045604597
 20
44079.93951410074
 30
0.0
 40
10.5
 41
0.0
 71
     7
 72
     5
  1

1001
ACAD
1000
MTEXTBEGIN
1070
    73
1070
     1
1070
    44
1040
1.0
1070
    74
1070
     0
1000
MTEXTEND
  0
MTEXT
  5
55C8
330
1A
100
AcDbEntity
  8
SUNPOU
100
AcDbMText
 10
26221.62834281429
 20
23077.53566448964
 30
0.0
 40
10.5
 41
0.0
 71
     7
 72
     5
  1

1001
ACAD
1000
MTEXTBEGIN
1070
    73
1070
     1
1070
    44
1040
1.0
1070
    74
1070
     0
1000
MTEXTEND
  0
MTEXT
  5
55C9
330
1A
100
AcDbEntity
  8
SUNPOU
100
AcDbMText
 10
77413.14677671455
 20
68750.51622813789
 30
0.0
 40
10.5
 41
0.0
 71
     9
 72
     5
  1

1001
ACAD
1000
MTEXTBEGIN
1070
    73
1070
     1
1070
    44
1040
1.0
1070
    74
1070
     0
1000
MTEXTEND
  0
MTEXT
  5
55CA
330
1A
100
AcDbEntity
  8
SUNPOU
100
AcDbMText
 10
86135.31434263256
 20
76166.35075967536
 30
0.0
 40
10.5
 41
0.0
 71
     9
 72
     5
  1

1001
ACAD
1000
MTEXTBEGIN
1070
    73
1070
     1
1070
    44
1040
1.0
1070
    74
1070
     0
1000
MTEXTEND
  0
MTEXT
  5
55CB
330
1A
100
AcDbEntity
  8
SUNPOU
100
AcDbMText
 10
105089.0730599625
 20
93632.92681216739
 30
0.0
 40
10.5
 41
0.0
 71
     9
 72
     5
  1

1001
ACAD
1000
MTEXTBEGIN
1070
    73
1070
     1
1070
    44
1040
1.0
1070
    74
1070
     0
1000
MTEXTEND
  0
MTEXT
  5
55CC
330
1A
100
AcDbEntity
  8
SUNPOU
100
AcDbMText
 10
107032.4803066719
 20
91831.8777322894
 30
0.0
 40
3.5
 41
0.0
 71
     9
 72
     5
  1

1001
ACAD
1000
MTEXTBEGIN
1070
    73
1070
     1
1070
    44
1040
1.0
1070
    74
1070
     0
1000
MTEXTEND
  0
MTEXT
  5
55CD
330
1A
100
AcDbEntity
  8
SUNPOU
100
AcDbMText
 10
138158.6601392916
 20
134326.8233999467
 30
0.0
 40
10.5
 41
0.0
 71
     9
 72
     5
  1

1001
ACAD
1000
MTEXTBEGIN
1070
    73
1070
     1
1070
    44
1040
1.0
1070
    74
1070
     0
1000
MTEXTEND
  0
MTEXT
  5
55CE
330
1A
100
AcDbEntity
  8
SUNPOU
100
AcDbMText
 10
140102.067386001
 20
132525.7743200686
 30
0.0
 40
3.5
 41
0.0
 71
     9
 72
     5
  1

1001
ACAD
1000
MTEXTBEGIN
1070
    73
1070
     1
1070
    44
1040
1.0
1070
    74
1070
     0
1000
MTEXTEND
  0
MTEXT
  5
55CF
330
1A
100
AcDbEntity
  8
SUNPOU
100
AcDbMText
 10
88598.92784508721
 20
80159.98855492179
 30
0.0
 40
10.5
 41
0.0
 71
     9
 72
     5
  1

1001
ACAD
1000
MTEXTBEGIN
1070
    73
1070
     1
1070
    44
1040
1.0
1070
    74
1070
     0
1000
MTEXTEND
  0
MTEXT
  5
55D0
330
1A
100
AcDbEntity
  8
SUNPOU
100
AcDbMText
 10
74650.92774471121
 20
60987.5894158096
 30
0.0
 40
3.5
 41
0.0
 71
     7
 72
     5
  1

1001
ACAD
1000
MTEXTBEGIN
1070
    73
1070
     1
1070
    44
1040
1.0
1070
    74
1070
     0
1000
MTEXTEND
  0
MTEXT
  5
55D1
330
1A
100
AcDbEntity
  8
SUNPOU
100
AcDbMText
 10
55636.09714170436
 20
48749.73814662781
 30
0.0
 40
10.5
 41
0.0
 71
     7
 72
     5
  1

1001
ACAD
1000
MTEXTBEGIN
1070
    73
1070
     1
1070
    44
1040
1.0
1070
    74
1070
     0
1000
MTEXTEND
  0
MTEXT
  5
55D2
330
1A
100
AcDbEntity
  8
SUNPOU
100
AcDbMText
 10
43178.86887675626
 20
32904.80656852938
 30
0.0
 40
35.0
 41
0.0
 71
     9
 72
     5
  1

1001
ACAD
1000
MTEXTBEGIN
1070
    73
1070
     1
1070
    44
1040
1.0
1070
    74
1070
     0
1000
MTEXTEND
  0
MTEXT
  5
55D3
330
1A
100
AcDbEntity
  8
SUNPOU
100
AcDbMText
 10
42087.35393433121
 20
33513.58197857809
 30
0.0
 40
350.0000004171781
 41
0.0
 71
     7
 72
     5
  1

1001
ACAD
1000
MTEXTBEGIN
1070
    73
1070
     1
1070
    44
1040
1.0
1070
    74
1070
     0
1000
MTEXTEND
  0
MTEXT
  5
55D4
330
1A
100
AcDbEntity
  8
0
100
AcDbMText
 10
48131.30469227412
 20
31493.50434071431
 30
0.0
 40
8.0
 41
0.0
 71
     7
 72
     5
  1

1001
ACAD
1000
MTEXTBEGIN
1070
    73
1070
     1
1070
    44
1040
1.0
1070
    74
1070
     0
1000
MTEXTEND
  0
MTEXT
  5
55D5
330
1A
100
AcDbEntity
  8
0
100
AcDbMText
 10
50416.66238216901
 20
32464.29463546537
 30
0.0
 40
8.0
 41
0.0
 71
     7
 72
     5
  1

1001
ACAD
1000
MTEXTBEGIN
1070
    73
1070
     1
1070
    44
1040
1.0
1070
    74
1070
     0
1000
MTEXTEND
  0
MTEXT
  5
55D6
330
1A
100
AcDbEntity
  8
SUNPOU
100
AcDbMText
 10
53082.55940285115
 20
41976.4060278405
 30
0.0
 40
10.5
 41
0.0
 71
     1
 72
     5
  1

1001
ACAD
1000
MTEXTBEGIN
1070
    73
1070
     1
1070
    44
1040
1.0
1070
    74
1070
     0
1000
MTEXTEND
  0
MTEXT
  5
55D7
330
1A
100
AcDbEntity
  8
SUNPOU
100
AcDbMText
 10
45151.63620691522
 20
41029.61289392755
 30
0.0
 40
10.5
 41
0.0
 71
     7
 72
     5
  1

1001
ACAD
1000
MTEXTBEGIN
1070
    73
1070
     1
1070
    44
1040
1.0
1070
    74
1070
     0
1000
MTEXTEND
  0
MTEXT
  5
55D8
330
1A
100
AcDbEntity
  8
SUNPOU
100
AcDbMText
 10
48100.61987142798
 20
45930.28896577039
 30
0.0
 40
10.5
 41
0.0
 71
     7
 72
     5
  1

1001
ACAD
1000
MTEXTBEGIN
1070
    73
1070
     1
1070
    44
1040
1.0
1070
    74
1070
     0
1000
MTEXTEND
  0
MTEXT
  5
55D9
330
1A
100
AcDbEntity
  8
SUNPOU
100
AcDbMText
 10
52609.69799937854
 20
48366.58971339046
 30
0.0
 40
10.5
 41
0.0
 71
     7
 72
     5
  1

1001
ACAD
1000
MTEXTBEGIN
1070
    73
1070
     1
1070
    44
1040
1.0
1070
    74
1070
     0
1000
MTEXTEND
  0
MTEXT
  5
55DA
330
1A
100
AcDbEntity
  8
SUNPOU
100
AcDbMText
 10
36210.53588614687
 20
27364.18586377937
 30
0.0
 40
10.5
 41
0.0
 71
     7
 72
     5
  1

1001
ACAD
1000
MTEXTBEGIN
1070
    73
1070
     1
1070
    44
1040
1.0
1070
    74
1070
     0
1000
MTEXTEND
  0
MTEXT
  5
55DB
330
1A
100
AcDbEntity
  8
SUNPOU
100
AcDbMText
 10
38021.29879752181
 20
33691.59985125794
 30
0.0
 40
10.5
 41
0.0
 71
     9
 72
     5
  1

1001
ACAD
1000
MTEXTBEGIN
1070
    73
1070
     1
1070
    44
1040
1.0
1070
    74
1070
     0
1000
MTEXTEND
  0
MTEXT
  5
55DC
330
1A
100
AcDbEntity
  8
SUNPOU
100
AcDbMText
 10
46743.46636343979
 20
41107.43438279541
 30
0.0
 40
10.5
 41
0.0
 71
     9
 72
     5
  1

1001
ACAD
1000
MTEXTBEGIN
1070
    73
1070
     1
1070
    44
1040
1.0
1070
    74
1070
     0
1000
MTEXTEND
  0
MTEXT
  5
55DD
330
1A
100
AcDbEntity
  8
SUNPOU
100
AcDbMText
 10
65697.22508076975
 20
58574.01043528746
 30
0.0
 40
10.5
 41
0.0
 71
     9
 72
     5
  1

1001
ACAD
1000
MTEXTBEGIN
1070
    73
1070
     1
1070
    44
1040
1.0
1070
    74
1070
     0
1000
MTEXTEND
  0
MTEXT
  5
55DE
330
1A
100
AcDbEntity
  8
SUNPOU
100
AcDbMText
 10
67640.63232747917
 20
56772.96135540945
 30
0.0
 40
3.5
 41
0.0
 71
     9
 72
     5
  1

1001
ACAD
1000
MTEXTBEGIN
1070
    73
1070
     1
1070
    44
1040
1.0
1070
    74
1070
     0
1000
MTEXTEND
  0
MTEXT
  5
55DF
330
1A
100
AcDbEntity
  8
SUNPOU
100
AcDbMText
 10
98766.81216009888
 20
99267.9070230668
 30
0.0
 40
10.5
 41
0.0
 71
     9
 72
     5
  1

1001
ACAD
1000
MTEXTBEGIN
1070
    73
1070
     1
1070
    44
1040
1.0
1070
    74
1070
     0
1000
MTEXTEND
  0
MTEXT
  5
55E0
330
1A
100
AcDbEntity
  8
SUNPOU
100
AcDbMText
 10
100710.2194068083
 20
97466.85794318878
 30
0.0
 40
3.5
 41
0.0
 71
     9
 72
     5
  1

1001
ACAD
1000
MTEXTBEGIN
1070
    73
1070
     1
1070
    44
1040
1.0
1070
    74
1070
     0
1000
MTEXTEND
  0
MTEXT
  5
55E1
330
1A
100
AcDbEntity
  8
SUNPOU
100
AcDbMText
 10
49207.07986589444
 20
45101.07217804185
 30
0.0
 40
10.5
 41
0.0
 71
     9
 72
     5
  1

1001
ACAD
1000
MTEXTBEGIN
1070
    73
1070
     1
1070
    44
1040
1.0
1070
    74
1070
     0
1000
MTEXTEND
  0
MTEXT
  5
55E2
330
1A
100
AcDbEntity
  8
SUNPOU
100
AcDbMText
 10
35259.07976551845
 20
25928.67303892964
 30
0.0
 40
3.5
 41
0.0
 71
     7
 72
     5
  1

1001
ACAD
1000
MTEXTBEGIN
1070
    73
1070
     1
1070
    44
1040
1.0
1070
    74
1070
     0
1000
MTEXTEND
  0
MTEXT
  5
55E3
330
1A
100
AcDbEntity
  8
SUNPOU
100
AcDbMText
 10
48951.43044828905
 20
35287.73625995099
 30
0.0
 40
10.5
 41
0.0
 71
     9
 72
     5
  1

1001
ACAD
1000
MTEXTBEGIN
1070
    73
1070
     1
1070
    44
1040
1.0
1070
    74
1070
     0
1000
MTEXTEND
  0
MTEXT
  5
55E4
330
1A
100
AcDbEntity
  8
SUNPOU
100
AcDbMText
 10
57673.59801420702
 20
42703.57079148847
 30
0.0
 40
10.5
 41
0.0
 71
     9
 72
     5
  1

1001
ACAD
1000
MTEXTBEGIN
1070
    73
1070
     1
1070
    44
1040
1.0
1070
    74
1070
     0
1000
MTEXTEND
  0
MTEXT
  5
55E5
330
1A
100
AcDbEntity
  8
SUNPOU
100
AcDbMText
 10
76627.35673153699
 20
60170.14684398051
 30
0.0
 40
10.5
 41
0.0
 71
     9
 72
     5
  1

1001
ACAD
1000
MTEXTBEGIN
1070
    73
1070
     1
1070
    44
1040
1.0
1070
    74
1070
     0
1000
MTEXTEND
  0
MTEXT
  5
55E6
330
1A
100
AcDbEntity
  8
SUNPOU
100
AcDbMText
 10
78570.76397824641
 20
58369.09776410251
 30
0.0
 40
3.5
 41
0.0
 71
     9
 72
     5
  1

1001
ACAD
1000
MTEXTBEGIN
1070
    73
1070
     1
1070
    44
1040
1.0
1070
    74
1070
     0
1000
MTEXTEND
  0
MTEXT
  5
55E7
330
1A
100
AcDbEntity
  8
SUNPOU
100
AcDbMText
 10
109696.9438108661
 20
100864.0434317598
 30
0.0
 40
10.5
 41
0.0
 71
     9
 72
     5
  1

1001
ACAD
1000
MTEXTBEGIN
1070
    73
1070
     1
1070
    44
1040
1.0
1070
    74
1070
     0
1000
MTEXTEND
  0
MTEXT
  5
55E8
330
1A
100
AcDbEntity
  8
SUNPOU
100
AcDbMText
 10
111640.3510575755
 20
99062.99435188183
 30
0.0
 40
3.5
 41
0.0
 71
     9
 72
     5
  1

1001
ACAD
1000
MTEXTBEGIN
1070
    73
1070
     1
1070
    44
1040
1.0
1070
    74
1070
     0
1000
MTEXTEND
  0
MTEXT
  5
55E9
330
1A
100
AcDbEntity
  8
SUNPOU
100
AcDbMText
 10
60137.21151666167
 20
46697.20858673491
 30
0.0
 40
10.5
 41
0.0
 71
     9
 72
     5
  1

1001
ACAD
1000
MTEXTBEGIN
1070
    73
1070
     1
1070
    44
1040
1.0
1070
    74
1070
     0
1000
MTEXTEND
  0
MTEXT
  5
55EA
330
1A
100
AcDbEntity
  8
SUNPOU
100
AcDbMText
 10
46189.21141628568
 20
27524.80944762269
 30
0.0
 40
3.5
 41
0.0
 71
     7
 72
     5
  1

1001
ACAD
1000
MTEXTBEGIN
1070
    73
1070
     1
1070
    44
1040
1.0
1070
    74
1070
     0
1000
MTEXTEND
  0
MTEXT
  5
55EB
330
1A
100
AcDbEntity
  8
SUNPOU
100
AcDbMText
 10
45007.68847015541
 20
38269.57947701874
 30
0.0
 40
10.5
 41
0.0
 71
     9
 72
     5
  1

1001
ACAD
1000
MTEXTBEGIN
1070
    73
1070
     1
1070
    44
1040
1.0
1070
    74
1070
     0
1000
MTEXTEND
  0
MTEXT
  5
55EC
330
1A
100
AcDbEntity
  8
SUNPOU
100
AcDbMText
 10
63961.44718748539
 20
55736.15552951081
 30
0.0
 40
10.5
 41
0.0
 71
     9
 72
     5
  1

1001
ACAD
1000
MTEXTBEGIN
1070
    73
1070
     1
1070
    44
1040
1.0
1070
    74
1070
     0
1000
MTEXTEND
  0
MTEXT
  5
55ED
330
1A
100
AcDbEntity
  8
SUNPOU
100
AcDbMText
 10
65904.85443419479
 20
53935.10644963279
 30
0.0
 40
3.5
 41
0.0
 71
     9
 72
     5
  1

1001
ACAD
1000
MTEXTBEGIN
1070
    73
1070
     1
1070
    44
1040
1.0
1070
    74
1070
     0
1000
MTEXTEND
  0
MTEXT
  5
55EE
330
1A
100
AcDbEntity
  8
SUNPOU
100
AcDbMText
 10
97031.03426681451
 20
96430.05211729015
 30
0.0
 40
10.5
 41
0.0
 71
     9
 72
     5
  1

1001
ACAD
1000
MTEXTBEGIN
1070
    73
1070
     1
1070
    44
1040
1.0
1070
    74
1070
     0
1000
MTEXTEND
  0
MTEXT
  5
55EF
330
1A
100
AcDbEntity
  8
SUNPOU
100
AcDbMText
 10
98974.44151352393
 20
94629.00303741212
 30
0.0
 40
3.5
 41
0.0
 71
     9
 72
     5
  1

1001
ACAD
1000
MTEXTBEGIN
1070
    73
1070
     1
1070
    44
1040
1.0
1070
    74
1070
     0
1000
MTEXTEND
  0
MTEXT
  5
55F0
330
1A
100
AcDbEntity
  8
SUNPOU
100
AcDbMText
 10
47471.30197261006
 20
42263.21727226519
 30
0.0
 40
10.5
 41
0.0
 71
     9
 72
     5
  1

1001
ACAD
1000
MTEXTBEGIN
1070
    73
1070
     1
1070
    44
1040
1.0
1070
    74
1070
     0
1000
MTEXTEND
  0
MTEXT
  5
55F1
330
1A
100
AcDbEntity
  8
SUNPOU
100
AcDbMText
 10
33523.30187223408
 20
23090.81813315298
 30
0.0
 40
3.5
 41
0.0
 71
     7
 72
     5
  1

1001
ACAD
1000
MTEXTBEGIN
1070
    73
1070
     1
1070
    44
1040
1.0
1070
    74
1070
     0
1000
MTEXTEND
  0
MTEXT
  5
55F2
330
1A
100
AcDbEntity
  8
SUNPOU
100
AcDbMText
 10
57959.46254102503
 20
50038.08111611015
 30
0.0
 40
10.5
 41
0.0
 71
     9
 72
     5
  1

1001
ACAD
1000
MTEXTBEGIN
1070
    73
1070
     1
1070
    44
1040
1.0
1070
    74
1070
     0
1000
MTEXTEND
  0
MTEXT
  5
55F3
330
1A
100
AcDbEntity
  8
SUNPOU
100
AcDbMText
 10
76913.22125835503
 20
67504.65716860222
 30
0.0
 40
10.5
 41
0.0
 71
     9
 72
     5
  1

1001
ACAD
1000
MTEXTBEGIN
1070
    73
1070
     1
1070
    44
1040
1.0
1070
    74
1070
     0
1000
MTEXTEND
  0
MTEXT
  5
55F4
330
1A
100
AcDbEntity
  8
SUNPOU
100
AcDbMText
 10
78856.62850506443
 20
65703.6080887242
 30
0.0
 40
3.5
 41
0.0
 71
     9
 72
     5
  1

1001
ACAD
1000
MTEXTBEGIN
1070
    73
1070
     1
1070
    44
1040
1.0
1070
    74
1070
     0
1000
MTEXTEND
  0
MTEXT
  5
55F5
330
1A
100
AcDbEntity
  8
SUNPOU
100
AcDbMText
 10
109982.8083376841
 20
108198.5537563815
 30
0.0
 40
10.5
 41
0.0
 71
     9
 72
     5
  1

1001
ACAD
1000
MTEXTBEGIN
1070
    73
1070
     1
1070
    44
1040
1.0
1070
    74
1070
     0
1000
MTEXTEND
  0
MTEXT
  5
55F6
330
1A
100
AcDbEntity
  8
SUNPOU
100
AcDbMText
 10
111926.2155843935
 20
106397.5046765035
 30
0.0
 40
3.5
 41
0.0
 71
     9
 72
     5
  1

1001
ACAD
1000
MTEXTBEGIN
1070
    73
1070
     1
1070
    44
1040
1.0
1070
    74
1070
     0
1000
MTEXTEND
  0
MTEXT
  5
55F7
330
1A
100
AcDbEntity
  8
SUNPOU
100
AcDbMText
 10
60423.07604347968
 20
54031.71891135659
 30
0.0
 40
10.5
 41
0.0
 71
     9
 72
     5
  1

1001
ACAD
1000
MTEXTBEGIN
1070
    73
1070
     1
1070
    44
1040
1.0
1070
    74
1070
     0
1000
MTEXTEND
  0
MTEXT
  5
55F8
330
1A
100
AcDbEntity
  8
SUNPOU
100
AcDbMText
 10
46475.07594310369
 20
34859.3197722444
 30
0.0
 40
3.5
 41
0.0
 71
     7
 72
     5
  1

1001
ACAD
1000
MTEXTBEGIN
1070
    73
1070
     1
1070
    44
1040
1.0
1070
    74
1070
     0
1000
MTEXTEND
  0
MTEXT
  5
55F9
330
1A
100
AcDbEntity
  8
SUNPOU
100
AcDbMText
 10
74027.35402123588
 20
68370.58278833383
 30
0.0
 40
10.5
 41
0.0
 71
     9
 72
     5
  1

1001
ACAD
1000
MTEXTBEGIN
1070
    73
1070
     1
1070
    44
1040
1.0
1070
    74
1070
     0
1000
MTEXTEND
  0
MTEXT
  5
55FA
330
1A
100
AcDbEntity
  8
SUNPOU
100
AcDbMText
 10
75970.7612679453
 20
66569.53370845583
 30
0.0
 40
3.5
 41
0.0
 71
     9
 72
     5
  1

1001
ACAD
1000
MTEXTBEGIN
1070
    73
1070
     1
1070
    44
1040
1.0
1070
    74
1070
     0
1000
MTEXTEND
  0
MTEXT
  5
55FB
330
1A
100
AcDbEntity
  8
SUNPOU
100
AcDbMText
 10
107096.941100565
 20
109064.4793761132
 30
0.0
 40
10.5
 41
0.0
 71
     9
 72
     5
  1

1001
ACAD
1000
MTEXTBEGIN
1070
    73
1070
     1
1070
    44
1040
1.0
1070
    74
1070
     0
1000
MTEXTEND
  0
MTEXT
  5
55FC
330
1A
100
AcDbEntity
  8
SUNPOU
100
AcDbMText
 10
109040.3483472744
 20
107263.4302962351
 30
0.0
 40
3.5
 41
0.0
 71
     9
 72
     5
  1

1001
ACAD
1000
MTEXTBEGIN
1070
    73
1070
     1
1070
    44
1040
1.0
1070
    74
1070
     0
1000
MTEXTEND
  0
MTEXT
  5
55FD
330
1A
100
AcDbEntity
  8
SUNPOU
100
AcDbMText
 10
105709.1709283621
 20
108141.3777665285
 30
0.0
 40
10.5
 41
0.0
 71
     9
 72
     5
  1

1001
ACAD
1000
MTEXTBEGIN
1070
    73
1070
     1
1070
    44
1040
1.0
1070
    74
1070
     0
1000
MTEXTEND
  0
MTEXT
  5
55FE
330
1A
100
AcDbEntity
  8
SUNPOU
100
AcDbMText
 10
107652.5781750715
 20
106340.3286866505
 30
0.0
 40
3.5
 41
0.0
 71
     9
 72
     5
  1

1001
ACAD
1000
MTEXTBEGIN
1070
    73
1070
     1
1070
    44
1040
1.0
1070
    74
1070
     0
1000
MTEXTEND
  0
MTEXT
  5
55FF
330
1A
100
AcDbEntity
  8
SUNPOU
100
AcDbMText
 10
73193.09268743351
 20
66158.78082845056
 30
0.0
 40
10.5
 41
0.0
 71
     9
 72
     5
  1

1001
ACAD
1000
MTEXTBEGIN
1070
    73
1070
     1
1070
    44
1040
1.0
1070
    74
1070
     0
1000
MTEXTEND
  0
MTEXT
  5
5600
330
1A
100
AcDbEntity
  8
SUNPOU
100
AcDbMText
 10
75916.39889159806
 20
66563.46252003162
 30
0.0
 40
3.5
 41
0.0
 71
     9
 72
     5
  1

1001
ACAD
1000
MTEXTBEGIN
1070
    73
1070
     1
1070
    44
1040
1.0
1070
    74
1070
     0
1000
MTEXTEND
  0
MTEXT
  5
5601
330
1A
100
AcDbEntity
  8
SUNPOU
100
AcDbMText
 10
75124.04436649058
 20
63402.1566819768
 30
0.0
 40
10.5
 41
0.0
 71
     9
 72
     5
  1

1001
ACAD
1000
MTEXTBEGIN
1070
    73
1070
     1
1070
    44
1040
1.0
1070
    74
1070
     0
1000
MTEXTEND
  0
MTEXT
  5
5602
330
1A
100
AcDbEntity
  8
SUNPOU
100
AcDbMText
 10
77067.4516132
 20
61601.1076020988
 30
0.0
 40
3.5
 41
0.0
 71
     9
 72
     5
  1

1001
ACAD
1000
MTEXTBEGIN
1070
    73
1070
     1
1070
    44
1040
1.0
1070
    74
1070
     0
1000
MTEXTEND
  0
MTEXT
  5
5603
330
1A
100
AcDbEntity
  8
SUNPOU
100
AcDbMText
 10
77012.54710378659
 20
61488.33571981449
 30
0.0
 40
3.5
 41
0.0
 71
     9
 72
     5
  1

1001
ACAD
1000
MTEXTBEGIN
1070
    73
1070
     1
1070
    44
1040
1.0
1070
    74
1070
     0
1000
MTEXTEND
  0
MTEXT
  5
5604
330
1A
100
AcDbEntity
  8
SUNPOU
100
AcDbMText
 10
76376.61896736668
 20
60677.01447874797
 30
0.0
 40
3.5
 41
0.0
 71
     9
 72
     5
  1

1001
ACAD
1000
MTEXTBEGIN
1070
    73
1070
     1
1070
    44
1040
1.0
1070
    74
1070
     0
1000
MTEXTEND
  0
MTEXT
  5
5605
330
1A
100
AcDbEntity
  8
SUNPOU
100
AcDbMText
 10
76375.37854794595
 20
60676.76650181047
 30
0.0
 40
10.5
 41
0.0
 71
     9
 72
     5
  1

1001
ACAD
1000
MTEXTBEGIN
1070
    73
1070
     1
1070
    44
1040
1.0
1070
    74
1070
     0
1000
MTEXTEND
  0
MTEXT
  5
5606
330
1A
100
AcDbEntity
  8
SUNPOU
100
AcDbMText
 10
84709.93991079748
 20
78034.0328293557
 30
0.0
 40
10.5
 41
0.0
 71
     9
 72
     5
  1

1001
ACAD
1000
MTEXTBEGIN
1070
    73
1070
     1
1070
    44
1040
1.0
1070
    74
1070
     0
1000
MTEXTEND
  0
MTEXT
  5
5607
330
1A
100
AcDbEntity
  8
SUNPOU
100
AcDbMText
 10
93432.10747671548
 20
85449.86736089315
 30
0.0
 40
10.5
 41
0.0
 71
     9
 72
     5
  1

1001
ACAD
1000
MTEXTBEGIN
1070
    73
1070
     1
1070
    44
1040
1.0
1070
    74
1070
     0
1000
MTEXTEND
  0
MTEXT
  5
5608
330
1A
100
AcDbEntity
  8
SUNPOU
100
AcDbMText
 10
112385.8661940454
 20
102916.4434133851
 30
0.0
 40
10.5
 41
0.0
 71
     9
 72
     5
  1

1001
ACAD
1000
MTEXTBEGIN
1070
    73
1070
     1
1070
    44
1040
1.0
1070
    74
1070
     0
1000
MTEXTEND
  0
MTEXT
  5
5609
330
1A
100
AcDbEntity
  8
SUNPOU
100
AcDbMText
 10
114329.2734407548
 20
101115.3943335072
 30
0.0
 40
3.5
 41
0.0
 71
     9
 72
     5
  1

1001
ACAD
1000
MTEXTBEGIN
1070
    73
1070
     1
1070
    44
1040
1.0
1070
    74
1070
     0
1000
MTEXTEND
  0
MTEXT
  5
560A
330
1A
100
AcDbEntity
  8
SUNPOU
100
AcDbMText
 10
145455.4532733745
 20
143610.3400011645
 30
0.0
 40
10.5
 41
0.0
 71
     9
 72
     5
  1

1001
ACAD
1000
MTEXTBEGIN
1070
    73
1070
     1
1070
    44
1040
1.0
1070
    74
1070
     0
1000
MTEXTEND
  0
MTEXT
  5
560B
330
1A
100
AcDbEntity
  8
SUNPOU
100
AcDbMText
 10
147398.8605200839
 20
141809.2909212864
 30
0.0
 40
3.5
 41
0.0
 71
     9
 72
     5
  1

1001
ACAD
1000
MTEXTBEGIN
1070
    73
1070
     1
1070
    44
1040
1.0
1070
    74
1070
     0
1000
MTEXTEND
  0
MTEXT
  5
560C
330
1A
100
AcDbEntity
  8
SUNPOU
100
AcDbMText
 10
95895.72097917013
 20
89443.5051561396
 30
0.0
 40
10.5
 41
0.0
 71
     9
 72
     5
  1

1001
ACAD
1000
MTEXTBEGIN
1070
    73
1070
     1
1070
    44
1040
1.0
1070
    74
1070
     0
1000
MTEXTEND
  0
MTEXT
  5
560D
330
1A
100
AcDbEntity
  8
SUNPOU
100
AcDbMText
 10
81947.72087879414
 20
70271.1060170274
 30
0.0
 40
3.5
 41
0.0
 71
     7
 72
     5
  1

1001
ACAD
1000
MTEXTBEGIN
1070
    73
1070
     1
1070
    44
1040
1.0
1070
    74
1070
     0
1000
MTEXTEND
  0
MTEXT
  5
560E
330
1A
100
AcDbEntity
  8
SUNPOU
100
AcDbMText
 10
62932.89027578729
 20
58033.25474784561
 30
0.0
 40
10.5
 41
0.0
 71
     7
 72
     5
  1

1001
ACAD
1000
MTEXTBEGIN
1070
    73
1070
     1
1070
    44
1040
1.0
1070
    74
1070
     0
1000
MTEXTEND
  0
MTEXT
  5
560F
330
1A
100
AcDbEntity
  8
SUNPOU
100
AcDbMText
 10
50475.66201083918
 20
42188.32316974719
 30
0.0
 40
35.0
 41
0.0
 71
     9
 72
     5
  1

1001
ACAD
1000
MTEXTBEGIN
1070
    73
1070
     1
1070
    44
1040
1.0
1070
    74
1070
     0
1000
MTEXTEND
  0
MTEXT
  5
5610
330
1A
100
AcDbEntity
  8
SUNPOU
100
AcDbMText
 10
49384.14706841413
 20
42797.0985797959
 30
0.0
 40
350.0000004171781
 41
0.0
 71
     7
 72
     5
  1

1001
ACAD
1000
MTEXTBEGIN
1070
    73
1070
     1
1070
    44
1040
1.0
1070
    74
1070
     0
1000
MTEXTEND
  0
MTEXT
  5
5611
330
1A
100
AcDbEntity
  8
0
100
AcDbMText
 10
55428.09782635704
 20
40777.02094193211
 30
0.0
 40
8.0
 41
0.0
 71
     7
 72
     5
  1

1001
ACAD
1000
MTEXTBEGIN
1070
    73
1070
     1
1070
    44
1040
1.0
1070
    74
1070
     0
1000
MTEXTEND
  0
MTEXT
  5
5612
330
1A
100
AcDbEntity
  8
0
100
AcDbMText
 10
57713.45551625194
 20
41747.81123668317
 30
0.0
 40
8.0
 41
0.0
 71
     7
 72
     5
  1

1001
ACAD
1000
MTEXTBEGIN
1070
    73
1070
     1
1070
    44
1040
1.0
1070
    74
1070
     0
1000
MTEXTEND
  0
MTEXT
  5
5613
330
1A
100
AcDbEntity
  8
SUNPOU
100
AcDbMText
 10
60379.35253693408
 20
51259.9226290583
 30
0.0
 40
10.5
 41
0.0
 71
     1
 72
     5
  1

1001
ACAD
1000
MTEXTBEGIN
1070
    73
1070
     1
1070
    44
1040
1.0
1070
    74
1070
     0
1000
MTEXTEND
  0
MTEXT
  5
5614
330
1A
100
AcDbEntity
  8
SUNPOU
100
AcDbMText
 10
52448.42934099814
 20
50313.12949514535
 30
0.0
 40
10.5
 41
0.0
 71
     7
 72
     5
  1

1001
ACAD
1000
MTEXTBEGIN
1070
    73
1070
     1
1070
    44
1040
1.0
1070
    74
1070
     0
1000
MTEXTEND
  0
MTEXT
  5
5615
330
1A
100
AcDbEntity
  8
SUNPOU
100
AcDbMText
 10
55397.41300551091
 20
55213.80556698819
 30
0.0
 40
10.5
 41
0.0
 71
     7
 72
     5
  1

1001
ACAD
1000
MTEXTBEGIN
1070
    73
1070
     1
1070
    44
1040
1.0
1070
    74
1070
     0
1000
MTEXTEND
  0
MTEXT
  5
5616
330
1A
100
AcDbEntity
  8
SUNPOU
100
AcDbMText
 10
59906.49113346147
 20
57650.10631460826
 30
0.0
 40
10.5
 41
0.0
 71
     7
 72
     5
  1

1001
ACAD
1000
MTEXTBEGIN
1070
    73
1070
     1
1070
    44
1040
1.0
1070
    74
1070
     0
1000
MTEXTEND
  0
MTEXT
  5
5617
330
1A
100
AcDbEntity
  8
SUNPOU
100
AcDbMText
 10
43507.32902022979
 20
36647.70246499718
 30
0.0
 40
10.5
 41
0.0
 71
     7
 72
     5
  1

1001
ACAD
1000
MTEXTBEGIN
1070
    73
1070
     1
1070
    44
1040
1.0
1070
    74
1070
     0
1000
MTEXTEND
  0
MTEXT
  5
5618
330
1A
100
AcDbEntity
  8
SUNPOU
100
AcDbMText
 10
94698.84745413006
 20
82320.68302864542
 30
0.0
 40
10.5
 41
0.0
 71
     9
 72
     5
  1

1001
ACAD
1000
MTEXTBEGIN
1070
    73
1070
     1
1070
    44
1040
1.0
1070
    74
1070
     0
1000
MTEXTEND
  0
MTEXT
  5
5619
330
1A
100
AcDbEntity
  8
SUNPOU
100
AcDbMText
 10
103421.015020048
 20
89736.5175601829
 30
0.0
 40
10.5
 41
0.0
 71
     9
 72
     5
  1

1001
ACAD
1000
MTEXTBEGIN
1070
    73
1070
     1
1070
    44
1040
1.0
1070
    74
1070
     0
1000
MTEXTEND
  0
MTEXT
  5
561A
330
1A
100
AcDbEntity
  8
SUNPOU
100
AcDbMText
 10
122374.773737378
 20
107203.0936126749
 30
0.0
 40
10.5
 41
0.0
 71
     9
 72
     5
  1

1001
ACAD
1000
MTEXTBEGIN
1070
    73
1070
     1
1070
    44
1040
1.0
1070
    74
1070
     0
1000
MTEXTEND
  0
MTEXT
  5
561B
330
1A
100
AcDbEntity
  8
SUNPOU
100
AcDbMText
 10
124318.1809840874
 20
105402.0445327969
 30
0.0
 40
3.5
 41
0.0
 71
     9
 72
     5
  1

1001
ACAD
1000
MTEXTBEGIN
1070
    73
1070
     1
1070
    44
1040
1.0
1070
    74
1070
     0
1000
MTEXTEND
  0
MTEXT
  5
561C
330
1A
100
AcDbEntity
  8
SUNPOU
100
AcDbMText
 10
155444.3608167071
 20
147896.9902004542
 30
0.0
 40
10.5
 41
0.0
 71
     9
 72
     5
  1

1001
ACAD
1000
MTEXTBEGIN
1070
    73
1070
     1
1070
    44
1040
1.0
1070
    74
1070
     0
1000
MTEXTEND
  0
MTEXT
  5
561D
330
1A
100
AcDbEntity
  8
SUNPOU
100
AcDbMText
 10
157387.7680634165
 20
146095.9411205762
 30
0.0
 40
3.5
 41
0.0
 71
     9
 72
     5
  1

1001
ACAD
1000
MTEXTBEGIN
1070
    73
1070
     1
1070
    44
1040
1.0
1070
    74
1070
     0
1000
MTEXTEND
  0
MTEXT
  5
561E
330
1A
100
AcDbEntity
  8
SUNPOU
100
AcDbMText
 10
105884.6285225027
 20
93730.15535542933
 30
0.0
 40
10.5
 41
0.0
 71
     9
 72
     5
  1

1001
ACAD
1000
MTEXTBEGIN
1070
    73
1070
     1
1070
    44
1040
1.0
1070
    74
1070
     0
1000
MTEXTEND
  0
MTEXT
  5
561F
330
1A
100
AcDbEntity
  8
SUNPOU
100
AcDbMText
 10
91936.6284221267
 20
74557.75621631714
 30
0.0
 40
3.5
 41
0.0
 71
     7
 72
     5
  1

1001
ACAD
1000
MTEXTBEGIN
1070
    73
1070
     1
1070
    44
1040
1.0
1070
    74
1070
     0
1000
MTEXTEND
  0
MTEXT
  5
5620
330
1A
100
AcDbEntity
  8
SUNPOU
100
AcDbMText
 10
72921.79781911986
 20
62319.90494713533
 30
0.0
 40
10.5
 41
0.0
 71
     7
 72
     5
  1

1001
ACAD
1000
MTEXTBEGIN
1070
    73
1070
     1
1070
    44
1040
1.0
1070
    74
1070
     0
1000
MTEXTEND
  0
MTEXT
  5
5621
330
1A
100
AcDbEntity
  8
SUNPOU
100
AcDbMText
 10
60464.56955417175
 20
46474.97336903692
 30
0.0
 40
35.0
 41
0.0
 71
     9
 72
     5
  1

1001
ACAD
1000
MTEXTBEGIN
1070
    73
1070
     1
1070
    44
1040
1.0
1070
    74
1070
     0
1000
MTEXTEND
  0
MTEXT
  5
5622
330
1A
100
AcDbEntity
  8
SUNPOU
100
AcDbMText
 10
59373.05461174672
 20
47083.74877908562
 30
0.0
 40
350.0000004171781
 41
0.0
 71
     7
 72
     5
  1

1001
ACAD
1000
MTEXTBEGIN
1070
    73
1070
     1
1070
    44
1040
1.0
1070
    74
1070
     0
1000
MTEXTEND
  0
MTEXT
  5
5623
330
1A
100
AcDbEntity
  8
0
100
AcDbMText
 10
65417.00536968962
 20
45063.67114122186
 30
0.0
 40
8.0
 41
0.0
 71
     7
 72
     5
  1

1001
ACAD
1000
MTEXTBEGIN
1070
    73
1070
     1
1070
    44
1040
1.0
1070
    74
1070
     0
1000
MTEXTEND
  0
MTEXT
  5
5624
330
1A
100
AcDbEntity
  8
0
100
AcDbMText
 10
67702.36305958452
 20
46034.46143597292
 30
0.0
 40
8.0
 41
0.0
 71
     7
 72
     5
  1

1001
ACAD
1000
MTEXTBEGIN
1070
    73
1070
     1
1070
    44
1040
1.0
1070
    74
1070
     0
1000
MTEXTEND
  0
MTEXT
  5
5625
330
1A
100
AcDbEntity
  8
SUNPOU
100
AcDbMText
 10
70368.26008026666
 20
55546.57282834803
 30
0.0
 40
10.5
 41
0.0
 71
     1
 72
     5
  1

1001
ACAD
1000
MTEXTBEGIN
1070
    73
1070
     1
1070
    44
1040
1.0
1070
    74
1070
     0
1000
MTEXTEND
  0
MTEXT
  5
5626
330
1A
100
AcDbEntity
  8
SUNPOU
100
AcDbMText
 10
62437.33688433072
 20
54599.77969443508
 30
0.0
 40
10.5
 41
0.0
 71
     7
 72
     5
  1

1001
ACAD
1000
MTEXTBEGIN
1070
    73
1070
     1
1070
    44
1040
1.0
1070
    74
1070
     0
1000
MTEXTEND
  0
MTEXT
  5
5627
330
1A
100
AcDbEntity
  8
SUNPOU
100
AcDbMText
 10
65386.32054884349
 20
59500.45576627792
 30
0.0
 40
10.5
 41
0.0
 71
     7
 72
     5
  1

1001
ACAD
1000
MTEXTBEGIN
1070
    73
1070
     1
1070
    44
1040
1.0
1070
    74
1070
     0
1000
MTEXTEND
  0
MTEXT
  5
5628
330
1A
100
AcDbEntity
  8
SUNPOU
100
AcDbMText
 10
69895.39867679405
 20
61936.756513898
 30
0.0
 40
10.5
 41
0.0
 71
     7
 72
     5
  1

1001
ACAD
1000
MTEXTBEGIN
1070
    73
1070
     1
1070
    44
1040
1.0
1070
    74
1070
     0
1000
MTEXTEND
  0
MTEXT
  5
5629
330
1A
100
AcDbEntity
  8
SUNPOU
100
AcDbMText
 10
53496.23656356237
 20
40934.35266428691
 30
0.0
 40
10.5
 41
0.0
 71
     7
 72
     5
  1

1001
ACAD
1000
MTEXTBEGIN
1070
    73
1070
     1
1070
    44
1040
1.0
1070
    74
1070
     0
1000
MTEXTEND
  0
MTEXT
  5
562A
330
1A
100
AcDbEntity
  8
SUNPOU
100
AcDbMText
 10
55306.99947493731
 20
47261.76665176547
 30
0.0
 40
10.5
 41
0.0
 71
     9
 72
     5
  1

1001
ACAD
1000
MTEXTBEGIN
1070
    73
1070
     1
1070
    44
1040
1.0
1070
    74
1070
     0
1000
MTEXTEND
  0
MTEXT
  5
562B
330
1A
100
AcDbEntity
  8
SUNPOU
100
AcDbMText
 10
64029.16704085528
 20
54677.60118330295
 30
0.0
 40
10.5
 41
0.0
 71
     9
 72
     5
  1

1001
ACAD
1000
MTEXTBEGIN
1070
    73
1070
     1
1070
    44
1040
1.0
1070
    74
1070
     0
1000
MTEXTEND
  0
MTEXT
  5
562C
330
1A
100
AcDbEntity
  8
SUNPOU
100
AcDbMText
 10
82982.92575818527
 20
72144.17723579499
 30
0.0
 40
10.5
 41
0.0
 71
     9
 72
     5
  1

1001
ACAD
1000
MTEXTBEGIN
1070
    73
1070
     1
1070
    44
1040
1.0
1070
    74
1070
     0
1000
MTEXTEND
  0
MTEXT
  5
562D
330
1A
100
AcDbEntity
  8
SUNPOU
100
AcDbMText
 10
84926.33300489467
 20
70343.12815591698
 30
0.0
 40
3.5
 41
0.0
 71
     9
 72
     5
  1

1001
ACAD
1000
MTEXTBEGIN
1070
    73
1070
     1
1070
    44
1040
1.0
1070
    74
1070
     0
1000
MTEXTEND
  0
MTEXT
  5
562E
330
1A
100
AcDbEntity
  8
SUNPOU
100
AcDbMText
 10
116052.5128375143
 20
112838.0738235743
 30
0.0
 40
10.5
 41
0.0
 71
     9
 72
     5
  1

1001
ACAD
1000
MTEXTBEGIN
1070
    73
1070
     1
1070
    44
1040
1.0
1070
    74
1070
     0
1000
MTEXTEND
  0
MTEXT
  5
562F
330
1A
100
AcDbEntity
  8
SUNPOU
100
AcDbMText
 10
117995.9200842238
 20
111037.0247436963
 30
0.0
 40
3.5
 41
0.0
 71
     9
 72
     5
  1

1001
ACAD
1000
MTEXTBEGIN
1070
    73
1070
     1
1070
    44
1040
1.0
1070
    74
1070
     0
1000
MTEXTEND
  0
MTEXT
  5
5630
330
1A
100
AcDbEntity
  8
SUNPOU
100
AcDbMText
 10
66492.78054330994
 20
58671.23897854939
 30
0.0
 40
10.5
 41
0.0
 71
     9
 72
     5
  1

1001
ACAD
1000
MTEXTBEGIN
1070
    73
1070
     1
1070
    44
1040
1.0
1070
    74
1070
     0
1000
MTEXTEND
  0
MTEXT
  5
5631
330
1A
100
AcDbEntity
  8
SUNPOU
100
AcDbMText
 10
52544.78044293396
 20
39498.83983943717
 30
0.0
 40
3.5
 41
0.0
 71
     7
 72
     5
  1

1001
ACAD
1000
MTEXTBEGIN
1070
    73
1070
     1
1070
    44
1040
1.0
1070
    74
1070
     0
1000
MTEXTEND
  0
MTEXT
  5
5632
330
1A
100
AcDbEntity
  8
SUNPOU
100
AcDbMText
 10
66237.13112570454
 20
48857.90306045851
 30
0.0
 40
10.5
 41
0.0
 71
     9
 72
     5
  1

1001
ACAD
1000
MTEXTBEGIN
1070
    73
1070
     1
1070
    44
1040
1.0
1070
    74
1070
     0
1000
MTEXTEND
  0
MTEXT
  5
5633
330
1A
100
AcDbEntity
  8
SUNPOU
100
AcDbMText
 10
74959.29869162252
 20
56273.737591996
 30
0.0
 40
10.5
 41
0.0
 71
     9
 72
     5
  1

1001
ACAD
1000
MTEXTBEGIN
1070
    73
1070
     1
1070
    44
1040
1.0
1070
    74
1070
     0
1000
MTEXTEND
  0
MTEXT
  5
5634
330
1A
100
AcDbEntity
  8
SUNPOU
100
AcDbMText
 10
93913.0574089525
 20
73740.31364448805
 30
0.0
 40
10.5
 41
0.0
 71
     9
 72
     5
  1

1001
ACAD
1000
MTEXTBEGIN
1070
    73
1070
     1
1070
    44
1040
1.0
1070
    74
1070
     0
1000
MTEXTEND
  0
MTEXT
  5
5635
330
1A
100
AcDbEntity
  8
SUNPOU
100
AcDbMText
 10
95856.46465566192
 20
71939.26456461004
 30
0.0
 40
3.5
 41
0.0
 71
     9
 72
     5
  1

1001
ACAD
1000
MTEXTBEGIN
1070
    73
1070
     1
1070
    44
1040
1.0
1070
    74
1070
     0
1000
MTEXTEND
  0
MTEXT
  5
5636
330
1A
100
AcDbEntity
  8
SUNPOU
100
AcDbMText
 10
126982.6444882816
 20
114434.2102322673
 30
0.0
 40
10.5
 41
0.0
 71
     9
 72
     5
  1

1001
ACAD
1000
MTEXTBEGIN
1070
    73
1070
     1
1070
    44
1040
1.0
1070
    74
1070
     0
1000
MTEXTEND
  0
MTEXT
  5
5637
330
1A
100
AcDbEntity
  8
SUNPOU
100
AcDbMText
 10
128926.051734991
 20
112633.1611523893
 30
0.0
 40
3.5
 41
0.0
 71
     9
 72
     5
  1

1001
ACAD
1000
MTEXTBEGIN
1070
    73
1070
     1
1070
    44
1040
1.0
1070
    74
1070
     0
1000
MTEXTEND
  0
MTEXT
  5
5638
330
1A
100
AcDbEntity
  8
SUNPOU
100
AcDbMText
 10
77422.91219407717
 20
60267.37538724244
 30
0.0
 40
10.5
 41
0.0
 71
     9
 72
     5
  1

1001
ACAD
1000
MTEXTBEGIN
1070
    73
1070
     1
1070
    44
1040
1.0
1070
    74
1070
     0
1000
MTEXTEND
  0
MTEXT
  5
5639
330
1A
100
AcDbEntity
  8
SUNPOU
100
AcDbMText
 10
63474.91209370119
 20
41094.97624813023
 30
0.0
 40
3.5
 41
0.0
 71
     7
 72
     5
  1

1001
ACAD
1000
MTEXTBEGIN
1070
    73
1070
     1
1070
    44
1040
1.0
1070
    74
1070
     0
1000
MTEXTEND
  0
MTEXT
  5
563A
330
1A
100
AcDbEntity
  8
SUNPOU
100
AcDbMText
 10
48117.65086229006
 20
40806.11043916631
 30
0.0
 40
10.5
 41
0.0
 71
     9
 72
     5
  1

1001
ACAD
1000
MTEXTBEGIN
1070
    73
1070
     1
1070
    44
1040
1.0
1070
    74
1070
     0
1000
MTEXTEND
  0
MTEXT
  5
563B
330
1A
100
AcDbEntity
  8
SUNPOU
100
AcDbMText
 10
67071.40957962004
 20
58272.68649165837
 30
0.0
 40
10.5
 41
0.0
 71
     9
 72
     5
  1

1001
ACAD
1000
MTEXTBEGIN
1070
    73
1070
     1
1070
    44
1040
1.0
1070
    74
1070
     0
1000
MTEXTEND
  0
MTEXT
  5
563C
330
1A
100
AcDbEntity
  8
SUNPOU
100
AcDbMText
 10
69014.81682632945
 20
56471.63741178035
 30
0.0
 40
3.5
 41
0.0
 71
     9
 72
     5
  1

1001
ACAD
1000
MTEXTBEGIN
1070
    73
1070
     1
1070
    44
1040
1.0
1070
    74
1070
     0
1000
MTEXTEND
  0
MTEXT
  5
563D
330
1A
100
AcDbEntity
  8
SUNPOU
100
AcDbMText
 10
100140.9966589491
 20
98966.58307943772
 30
0.0
 40
10.5
 41
0.0
 71
     9
 72
     5
  1

1001
ACAD
1000
MTEXTBEGIN
1070
    73
1070
     1
1070
    44
1040
1.0
1070
    74
1070
     0
1000
MTEXTEND
  0
MTEXT
  5
563E
330
1A
100
AcDbEntity
  8
SUNPOU
100
AcDbMText
 10
102084.4039056586
 20
97165.53399955969
 30
0.0
 40
3.5
 41
0.0
 71
     9
 72
     5
  1

1001
ACAD
1000
MTEXTBEGIN
1070
    73
1070
     1
1070
    44
1040
1.0
1070
    74
1070
     0
1000
MTEXTEND
  0
MTEXT
  5
563F
330
1A
100
AcDbEntity
  8
SUNPOU
100
AcDbMText
 10
50581.26436474472
 20
44799.74823441275
 30
0.0
 40
10.5
 41
0.0
 71
     9
 72
     5
  1

1001
ACAD
1000
MTEXTBEGIN
1070
    73
1070
     1
1070
    44
1040
1.0
1070
    74
1070
     0
1000
MTEXTEND
  0
MTEXT
  5
5640
330
1A
100
AcDbEntity
  8
SUNPOU
100
AcDbMText
 10
36633.26426436873
 20
25627.34909530054
 30
0.0
 40
3.5
 41
0.0
 71
     7
 72
     5
  1

1001
ACAD
1000
MTEXTBEGIN
1070
    73
1070
     1
1070
    44
1040
1.0
1070
    74
1070
     0
1000
MTEXTEND
  0
MTEXT
  5
5641
330
1A
100
AcDbEntity
  8
SUNPOU
100
AcDbMText
 10
61069.42493315968
 20
52574.61207825771
 30
0.0
 40
10.5
 41
0.0
 71
     9
 72
     5
  1

1001
ACAD
1000
MTEXTBEGIN
1070
    73
1070
     1
1070
    44
1040
1.0
1070
    74
1070
     0
1000
MTEXTEND
  0
MTEXT
  5
5642
330
1A
100
AcDbEntity
  8
SUNPOU
100
AcDbMText
 10
80023.18365048967
 20
70041.18813074978
 30
0.0
 40
10.5
 41
0.0
 71
     9
 72
     5
  1

1001
ACAD
1000
MTEXTBEGIN
1070
    73
1070
     1
1070
    44
1040
1.0
1070
    74
1070
     0
1000
MTEXTEND
  0
MTEXT
  5
5643
330
1A
100
AcDbEntity
  8
SUNPOU
100
AcDbMText
 10
81966.59089719908
 20
68240.13905087176
 30
0.0
 40
3.5
 41
0.0
 71
     9
 72
     5
  1

1001
ACAD
1000
MTEXTBEGIN
1070
    73
1070
     1
1070
    44
1040
1.0
1070
    74
1070
     0
1000
MTEXTEND
  0
MTEXT
  5
5644
330
1A
100
AcDbEntity
  8
SUNPOU
100
AcDbMText
 10
113092.7707298187
 20
110735.0847185291
 30
0.0
 40
10.5
 41
0.0
 71
     9
 72
     5
  1

1001
ACAD
1000
MTEXTBEGIN
1070
    73
1070
     1
1070
    44
1040
1.0
1070
    74
1070
     0
1000
MTEXTEND
  0
MTEXT
  5
5645
330
1A
100
AcDbEntity
  8
SUNPOU
100
AcDbMText
 10
115036.1779765282
 20
108934.0356386511
 30
0.0
 40
3.5
 41
0.0
 71
     9
 72
     5
  1

1001
ACAD
1000
MTEXTBEGIN
1070
    73
1070
     1
1070
    44
1040
1.0
1070
    74
1070
     0
1000
MTEXTEND
  0
MTEXT
  5
5646
330
1A
100
AcDbEntity
  8
SUNPOU
100
AcDbMText
 10
63533.03843561433
 20
56568.24987350415
 30
0.0
 40
10.5
 41
0.0
 71
     9
 72
     5
  1

1001
ACAD
1000
MTEXTBEGIN
1070
    73
1070
     1
1070
    44
1040
1.0
1070
    74
1070
     0
1000
MTEXTEND
  0
MTEXT
  5
5647
330
1A
100
AcDbEntity
  8
SUNPOU
100
AcDbMText
 10
49585.03833523835
 20
37395.85073439196
 30
0.0
 40
3.5
 41
0.0
 71
     7
 72
     5
  1

1001
ACAD
1000
MTEXTBEGIN
1070
    73
1070
     1
1070
    44
1040
1.0
1070
    74
1070
     0
1000
MTEXTEND
  0
MTEXT
  5
5648
330
1A
100
AcDbEntity
  8
SUNPOU
100
AcDbMText
 10
77137.31641337052
 20
70907.11375048141
 30
0.0
 40
10.5
 41
0.0
 71
     9
 72
     5
  1

1001
ACAD
1000
MTEXTBEGIN
1070
    73
1070
     1
1070
    44
1040
1.0
1070
    74
1070
     0
1000
MTEXTEND
  0
MTEXT
  5
5649
330
1A
100
AcDbEntity
  8
SUNPOU
100
AcDbMText
 10
79080.72366007995
 20
69106.06467060339
 30
0.0
 40
3.5
 41
0.0
 71
     9
 72
     5
  1

1001
ACAD
1000
MTEXTBEGIN
1070
    73
1070
     1
1070
    44
1040
1.0
1070
    74
1070
     0
1000
MTEXTEND
  0
MTEXT
  5
564A
330
1A
100
AcDbEntity
  8
SUNPOU
100
AcDbMText
 10
110206.9034926996
 20
111601.0103382607
 30
0.0
 40
10.5
 41
0.0
 71
     9
 72
     5
  1

1001
ACAD
1000
MTEXTBEGIN
1070
    73
1070
     1
1070
    44
1040
1.0
1070
    74
1070
     0
1000
MTEXTEND
  0
MTEXT
  5
564B
330
1A
100
AcDbEntity
  8
SUNPOU
100
AcDbMText
 10
112150.310739409
 20
109799.9612583827
 30
0.0
 40
3.5
 41
0.0
 71
     9
 72
     5
  1

1001
ACAD
1000
MTEXTBEGIN
1070
    73
1070
     1
1070
    44
1040
1.0
1070
    74
1070
     0
1000
MTEXTEND
  0
MTEXT
  5
564C
330
1A
100
AcDbEntity
  8
SUNPOU
100
AcDbMText
 10
108819.1333204968
 20
110677.9087286761
 30
0.0
 40
10.5
 41
0.0
 71
     9
 72
     5
  1

1001
ACAD
1000
MTEXTBEGIN
1070
    73
1070
     1
1070
    44
1040
1.0
1070
    74
1070
     0
1000
MTEXTEND
  0
MTEXT
  5
564D
330
1A
100
AcDbEntity
  8
SUNPOU
100
AcDbMText
 10
110762.5405672062
 20
108876.8596487981
 30
0.0
 40
3.5
 41
0.0
 71
     9
 72
     5
  1

1001
ACAD
1000
MTEXTBEGIN
1070
    73
1070
     1
1070
    44
1040
1.0
1070
    74
1070
     0
1000
MTEXTEND
  0
MTEXT
  5
564E
330
1A
100
AcDbEntity
  8
SUNPOU
100
AcDbMText
 10
76303.05507956816
 20
68695.31179059812
 30
0.0
 40
10.5
 41
0.0
 71
     9
 72
     5
  1

1001
ACAD
1000
MTEXTBEGIN
1070
    73
1070
     1
1070
    44
1040
1.0
1070
    74
1070
     0
1000
MTEXTEND
  0
MTEXT
  5
564F
330
1A
100
AcDbEntity
  8
SUNPOU
100
AcDbMText
 10
79026.36128373271
 20
69099.99348217918
 30
0.0
 40
3.5
 41
0.0
 71
     9
 72
     5
  1

1001
ACAD
1000
MTEXTBEGIN
1070
    73
1070
     1
1070
    44
1040
1.0
1070
    74
1070
     0
1000
MTEXTEND
  0
MTEXT
  5
5650
330
1A
100
AcDbEntity
  8
SUNPOU
100
AcDbMText
 10
78234.00675862522
 20
65938.68764412436
 30
0.0
 40
10.5
 41
0.0
 71
     9
 72
     5
  1

1001
ACAD
1000
MTEXTBEGIN
1070
    73
1070
     1
1070
    44
1040
1.0
1070
    74
1070
     0
1000
MTEXTEND
  0
MTEXT
  5
5651
330
1A
100
AcDbEntity
  8
SUNPOU
100
AcDbMText
 10
80177.41400533465
 20
64137.63856424636
 30
0.0
 40
3.5
 41
0.0
 71
     9
 72
     5
  1

1001
ACAD
1000
MTEXTBEGIN
1070
    73
1070
     1
1070
    44
1040
1.0
1070
    74
1070
     0
1000
MTEXTEND
  0
MTEXT
  5
5652
330
1A
100
AcDbEntity
  8
SUNPOU
100
AcDbMText
 10
80122.50949592123
 20
64024.86668196205
 30
0.0
 40
3.5
 41
0.0
 71
     9
 72
     5
  1

1001
ACAD
1000
MTEXTBEGIN
1070
    73
1070
     1
1070
    44
1040
1.0
1070
    74
1070
     0
1000
MTEXTEND
  0
MTEXT
  5
5653
330
1A
100
AcDbEntity
  8
SUNPOU
100
AcDbMText
 10
79486.58135950133
 20
63213.54544089553
 30
0.0
 40
3.5
 41
0.0
 71
     9
 72
     5
  1

1001
ACAD
1000
MTEXTBEGIN
1070
    73
1070
     1
1070
    44
1040
1.0
1070
    74
1070
     0
1000
MTEXTEND
  0
MTEXT
  5
5654
330
1A
100
AcDbEntity
  8
SUNPOU
100
AcDbMText
 10
79485.3409400806
 20
63213.29746395804
 30
0.0
 40
10.5
 41
0.0
 71
     9
 72
     5
  1

1001
ACAD
1000
MTEXTBEGIN
1070
    73
1070
     1
1070
    44
1040
1.0
1070
    74
1070
     0
1000
MTEXTEND
  0
MTEXT
  5
5655
330
1A
100
AcDbEntity
  8
SUNPOU
100
AcDbMText
 10
85473.63363627567
 20
80747.76348077064
 30
0.0
 40
10.5
 41
0.0
 71
     9
 72
     5
  1

1001
ACAD
1000
MTEXTBEGIN
1070
    73
1070
     1
1070
    44
1040
1.0
1070
    74
1070
     0
1000
MTEXTEND
  0
MTEXT
  5
5656
330
1A
100
AcDbEntity
  8
SUNPOU
100
AcDbMText
 10
94195.80120219368
 20
88163.59801230809
 30
0.0
 40
10.5
 41
0.0
 71
     9
 72
     5
  1

1001
ACAD
1000
MTEXTBEGIN
1070
    73
1070
     1
1070
    44
1040
1.0
1070
    74
1070
     0
1000
MTEXTEND
  0
MTEXT
  5
5657
330
1A
100
AcDbEntity
  8
SUNPOU
100
AcDbMText
 10
113149.5599195236
 20
105630.1740648001
 30
0.0
 40
10.5
 41
0.0
 71
     9
 72
     5
  1

1001
ACAD
1000
MTEXTBEGIN
1070
    73
1070
     1
1070
    44
1040
1.0
1070
    74
1070
     0
1000
MTEXTEND
  0
MTEXT
  5
5658
330
1A
100
AcDbEntity
  8
SUNPOU
100
AcDbMText
 10
115092.967166233
 20
103829.1249849221
 30
0.0
 40
3.5
 41
0.0
 71
     9
 72
     5
  1

1001
ACAD
1000
MTEXTBEGIN
1070
    73
1070
     1
1070
    44
1040
1.0
1070
    74
1070
     0
1000
MTEXTEND
  0
MTEXT
  5
5659
330
1A
100
AcDbEntity
  8
SUNPOU
100
AcDbMText
 10
146219.1469988527
 20
146324.0706525794
 30
0.0
 40
10.5
 41
0.0
 71
     9
 72
     5
  1

1001
ACAD
1000
MTEXTBEGIN
1070
    73
1070
     1
1070
    44
1040
1.0
1070
    74
1070
     0
1000
MTEXTEND
  0
MTEXT
  5
565A
330
1A
100
AcDbEntity
  8
SUNPOU
100
AcDbMText
 10
148162.5542455621
 20
144523.0215727014
 30
0.0
 40
3.5
 41
0.0
 71
     9
 72
     5
  1

1001
ACAD
1000
MTEXTBEGIN
1070
    73
1070
     1
1070
    44
1040
1.0
1070
    74
1070
     0
1000
MTEXTEND
  0
MTEXT
  5
565B
330
1A
100
AcDbEntity
  8
SUNPOU
100
AcDbMText
 10
96659.41470464833
 20
92157.23580755453
 30
0.0
 40
10.5
 41
0.0
 71
     9
 72
     5
  1

1001
ACAD
1000
MTEXTBEGIN
1070
    73
1070
     1
1070
    44
1040
1.0
1070
    74
1070
     0
1000
MTEXTEND
  0
MTEXT
  5
565C
330
1A
100
AcDbEntity
  8
SUNPOU
100
AcDbMText
 10
82711.41460427234
 20
72984.83666844234
 30
0.0
 40
3.5
 41
0.0
 71
     7
 72
     5
  1

1001
ACAD
1000
MTEXTBEGIN
1070
    73
1070
     1
1070
    44
1040
1.0
1070
    74
1070
     0
1000
MTEXTEND
  0
MTEXT
  5
565D
330
1A
100
AcDbEntity
  8
SUNPOU
100
AcDbMText
 10
63696.58400126548
 20
60746.98539926055
 30
0.0
 40
10.5
 41
0.0
 71
     7
 72
     5
  1

1001
ACAD
1000
MTEXTBEGIN
1070
    73
1070
     1
1070
    44
1040
1.0
1070
    74
1070
     0
1000
MTEXTEND
  0
MTEXT
  5
565E
330
1A
100
AcDbEntity
  8
SUNPOU
100
AcDbMText
 10
51239.35573631738
 20
44902.05382116213
 30
0.0
 40
35.0
 41
0.0
 71
     9
 72
     5
  1

1001
ACAD
1000
MTEXTBEGIN
1070
    73
1070
     1
1070
    44
1040
1.0
1070
    74
1070
     0
1000
MTEXTEND
  0
MTEXT
  5
565F
330
1A
100
AcDbEntity
  8
SUNPOU
100
AcDbMText
 10
50147.84079389233
 20
45510.82923121084
 30
0.0
 40
350.0000004171781
 41
0.0
 71
     7
 72
     5
  1

1001
ACAD
1000
MTEXTBEGIN
1070
    73
1070
     1
1070
    44
1040
1.0
1070
    74
1070
     0
1000
MTEXTEND
  0
MTEXT
  5
5660
330
1A
100
AcDbEntity
  8
0
100
AcDbMText
 10
56191.79155183523
 20
43490.75159334705
 30
0.0
 40
8.0
 41
0.0
 71
     7
 72
     5
  1

1001
ACAD
1000
MTEXTBEGIN
1070
    73
1070
     1
1070
    44
1040
1.0
1070
    74
1070
     0
1000
MTEXTEND
  0
MTEXT
  5
5661
330
1A
100
AcDbEntity
  8
0
100
AcDbMText
 10
58477.14924173013
 20
44461.54188809812
 30
0.0
 40
8.0
 41
0.0
 71
     7
 72
     5
  1

1001
ACAD
1000
MTEXTBEGIN
1070
    73
1070
     1
1070
    44
1040
1.0
1070
    74
1070
     0
1000
MTEXTEND
  0
MTEXT
  5
5662
330
1A
100
AcDbEntity
  8
SUNPOU
100
AcDbMText
 10
61143.04626241227
 20
53973.65328047324
 30
0.0
 40
10.5
 41
0.0
 71
     1
 72
     5
  1

1001
ACAD
1000
MTEXTBEGIN
1070
    73
1070
     1
1070
    44
1040
1.0
1070
    74
1070
     0
1000
MTEXTEND
  0
MTEXT
  5
5663
330
1A
100
AcDbEntity
  8
SUNPOU
100
AcDbMText
 10
53212.12306647634
 20
53026.86014656028
 30
0.0
 40
10.5
 41
0.0
 71
     7
 72
     5
  1

1001
ACAD
1000
MTEXTBEGIN
1070
    73
1070
     1
1070
    44
1040
1.0
1070
    74
1070
     0
1000
MTEXTEND
  0
MTEXT
  5
5664
330
1A
100
AcDbEntity
  8
SUNPOU
100
AcDbMText
 10
56161.1067309891
 20
57927.53621840312
 30
0.0
 40
10.5
 41
0.0
 71
     7
 72
     5
  1

1001
ACAD
1000
MTEXTBEGIN
1070
    73
1070
     1
1070
    44
1040
1.0
1070
    74
1070
     0
1000
MTEXTEND
  0
MTEXT
  5
5665
330
1A
100
AcDbEntity
  8
SUNPOU
100
AcDbMText
 10
60670.18485893966
 20
60363.8369660232
 30
0.0
 40
10.5
 41
0.0
 71
     7
 72
     5
  1

1001
ACAD
1000
MTEXTBEGIN
1070
    73
1070
     1
1070
    44
1040
1.0
1070
    74
1070
     0
1000
MTEXTEND
  0
MTEXT
  5
5666
330
1A
100
AcDbEntity
  8
SUNPOU
100
AcDbMText
 10
44271.02274570799
 20
39361.43311641212
 30
0.0
 40
10.5
 41
0.0
 71
     7
 72
     5
  1

1001
ACAD
1000
MTEXTBEGIN
1070
    73
1070
     1
1070
    44
1040
1.0
1070
    74
1070
     0
1000
MTEXTEND
  0
MTEXT
  5
5667
330
1A
100
AcDbEntity
  8
SUNPOU
100
AcDbMText
 10
95462.54117960824
 20
85034.41368006038
 30
0.0
 40
10.5
 41
0.0
 71
     9
 72
     5
  1

1001
ACAD
1000
MTEXTBEGIN
1070
    73
1070
     1
1070
    44
1040
1.0
1070
    74
1070
     0
1000
MTEXTEND
  0
MTEXT
  5
5668
330
1A
100
AcDbEntity
  8
SUNPOU
100
AcDbMText
 10
104184.7087455262
 20
92450.24821159784
 30
0.0
 40
10.5
 41
0.0
 71
     9
 72
     5
  1

1001
ACAD
1000
MTEXTBEGIN
1070
    73
1070
     1
1070
    44
1040
1.0
1070
    74
1070
     0
1000
MTEXTEND
  0
MTEXT
  5
5669
330
1A
100
AcDbEntity
  8
SUNPOU
100
AcDbMText
 10
123138.4674628562
 20
109916.8242640898
 30
0.0
 40
10.5
 41
0.0
 71
     9
 72
     5
  1

1001
ACAD
1000
MTEXTBEGIN
1070
    73
1070
     1
1070
    44
1040
1.0
1070
    74
1070
     0
1000
MTEXTEND
  0
MTEXT
  5
566A
330
1A
100
AcDbEntity
  8
SUNPOU
100
AcDbMText
 10
125081.8747095656
 20
108115.7751842118
 30
0.0
 40
3.5
 41
0.0
 71
     9
 72
     5
  1

1001
ACAD
1000
MTEXTBEGIN
1070
    73
1070
     1
1070
    44
1040
1.0
1070
    74
1070
     0
1000
MTEXTEND
  0
MTEXT
  5
566B
330
1A
100
AcDbEntity
  8
SUNPOU
100
AcDbMText
 10
156208.0545421853
 20
150610.7208518691
 30
0.0
 40
10.5
 41
0.0
 71
     9
 72
     5
  1

1001
ACAD
1000
MTEXTBEGIN
1070
    73
1070
     1
1070
    44
1040
1.0
1070
    74
1070
     0
1000
MTEXTEND
  0
MTEXT
  5
566C
330
1A
100
AcDbEntity
  8
SUNPOU
100
AcDbMText
 10
158151.4617888947
 20
148809.6717719911
 30
0.0
 40
3.5
 41
0.0
 71
     9
 72
     5
  1

1001
ACAD
1000
MTEXTBEGIN
1070
    73
1070
     1
1070
    44
1040
1.0
1070
    74
1070
     0
1000
MTEXTEND
  0
MTEXT
  5
566D
330
1A
100
AcDbEntity
  8
SUNPOU
100
AcDbMText
 10
106648.3222479809
 20
96443.88600684427
 30
0.0
 40
10.5
 41
0.0
 71
     9
 72
     5
  1

1001
ACAD
1000
MTEXTBEGIN
1070
    73
1070
     1
1070
    44
1040
1.0
1070
    74
1070
     0
1000
MTEXTEND
  0
MTEXT
  5
566E
330
1A
100
AcDbEntity
  8
SUNPOU
100
AcDbMText
 10
92700.3221476049
 20
77271.48686773207
 30
0.0
 40
3.5
 41
0.0
 71
     7
 72
     5
  1

1001
ACAD
1000
MTEXTBEGIN
1070
    73
1070
     1
1070
    44
1040
1.0
1070
    74
1070
     0
1000
MTEXTEND
  0
MTEXT
  5
566F
330
1A
100
AcDbEntity
  8
SUNPOU
100
AcDbMText
 10
73685.49154459806
 20
65033.63559855027
 30
0.0
 40
10.5
 41
0.0
 71
     7
 72
     5
  1

1001
ACAD
1000
MTEXTBEGIN
1070
    73
1070
     1
1070
    44
1040
1.0
1070
    74
1070
     0
1000
MTEXTEND
  0
MTEXT
  5
5670
330
1A
100
AcDbEntity
  8
SUNPOU
100
AcDbMText
 10
61228.26327964995
 20
49188.70402045185
 30
0.0
 40
35.0
 41
0.0
 71
     9
 72
     5
  1

1001
ACAD
1000
MTEXTBEGIN
1070
    73
1070
     1
1070
    44
1040
1.0
1070
    74
1070
     0
1000
MTEXTEND
  0
MTEXT
  5
5671
330
1A
100
AcDbEntity
  8
SUNPOU
100
AcDbMText
 10
60136.74833722491
 20
49797.47943050056
 30
0.0
 40
350.0000004171781
 41
0.0
 71
     7
 72
     5
  1

1001
ACAD
1000
MTEXTBEGIN
1070
    73
1070
     1
1070
    44
1040
1.0
1070
    74
1070
     0
1000
MTEXTEND
  0
MTEXT
  5
5672
330
1A
100
AcDbEntity
  8
0
100
AcDbMText
 10
66180.69909516782
 20
47777.40179263678
 30
0.0
 40
8.0
 41
0.0
 71
     7
 72
     5
  1

1001
ACAD
1000
MTEXTBEGIN
1070
    73
1070
     1
1070
    44
1040
1.0
1070
    74
1070
     0
1000
MTEXTEND
  0
MTEXT
  5
5673
330
1A
100
AcDbEntity
  8
0
100
AcDbMText
 10
68466.05678506271
 20
48748.19208738784
 30
0.0
 40
8.0
 41
0.0
 71
     7
 72
     5
  1

1001
ACAD
1000
MTEXTBEGIN
1070
    73
1070
     1
1070
    44
1040
1.0
1070
    74
1070
     0
1000
MTEXTEND
  0
MTEXT
  5
5674
330
1A
100
AcDbEntity
  8
SUNPOU
100
AcDbMText
 10
71131.95380574485
 20
58260.30347976296
 30
0.0
 40
10.5
 41
0.0
 71
     1
 72
     5
  1

1001
ACAD
1000
MTEXTBEGIN
1070
    73
1070
     1
1070
    44
1040
1.0
1070
    74
1070
     0
1000
MTEXTEND
  0
MTEXT
  5
5675
330
1A
100
AcDbEntity
  8
SUNPOU
100
AcDbMText
 10
63201.03060980891
 20
57313.51034585002
 30
0.0
 40
10.5
 41
0.0
 71
     7
 72
     5
  1

1001
ACAD
1000
MTEXTBEGIN
1070
    73
1070
     1
1070
    44
1040
1.0
1070
    74
1070
     0
1000
MTEXTEND
  0
MTEXT
  5
5676
330
1A
100
AcDbEntity
  8
SUNPOU
100
AcDbMText
 10
66150.01427432169
 20
62214.18641769286
 30
0.0
 40
10.5
 41
0.0
 71
     7
 72
     5
  1

1001
ACAD
1000
MTEXTBEGIN
1070
    73
1070
     1
1070
    44
1040
1.0
1070
    74
1070
     0
1000
MTEXTEND
  0
MTEXT
  5
5677
330
1A
100
AcDbEntity
  8
SUNPOU
100
AcDbMText
 10
70659.09240227225
 20
64650.48716531294
 30
0.0
 40
10.5
 41
0.0
 71
     7
 72
     5
  1

1001
ACAD
1000
MTEXTBEGIN
1070
    73
1070
     1
1070
    44
1040
1.0
1070
    74
1070
     0
1000
MTEXTEND
  0
MTEXT
  5
5678
330
1A
100
AcDbEntity
  8
SUNPOU
100
AcDbMText
 10
54259.93028904056
 20
43648.08331570185
 30
0.0
 40
10.5
 41
0.0
 71
     7
 72
     5
  1

1001
ACAD
1000
MTEXTBEGIN
1070
    73
1070
     1
1070
    44
1040
1.0
1070
    74
1070
     0
1000
MTEXTEND
  0
MTEXT
  5
5679
330
1A
100
AcDbEntity
  8
SUNPOU
100
AcDbMText
 10
56070.69320041551
 20
49975.4973031804
 30
0.0
 40
10.5
 41
0.0
 71
     9
 72
     5
  1

1001
ACAD
1000
MTEXTBEGIN
1070
    73
1070
     1
1070
    44
1040
1.0
1070
    74
1070
     0
1000
MTEXTEND
  0
MTEXT
  5
567A
330
1A
100
AcDbEntity
  8
SUNPOU
100
AcDbMText
 10
64792.86076633348
 20
57391.33183471788
 30
0.0
 40
10.5
 41
0.0
 71
     9
 72
     5
  1

1001
ACAD
1000
MTEXTBEGIN
1070
    73
1070
     1
1070
    44
1040
1.0
1070
    74
1070
     0
1000
MTEXTEND
  0
MTEXT
  5
567B
330
1A
100
AcDbEntity
  8
SUNPOU
100
AcDbMText
 10
83746.61948366345
 20
74857.90788720994
 30
0.0
 40
10.5
 41
0.0
 71
     9
 72
     5
  1

1001
ACAD
1000
MTEXTBEGIN
1070
    73
1070
     1
1070
    44
1040
1.0
1070
    74
1070
     0
1000
MTEXTEND
  0
MTEXT
  5
567C
330
1A
100
AcDbEntity
  8
SUNPOU
100
AcDbMText
 10
85690.02673037287
 20
73056.85880733192
 30
0.0
 40
3.5
 41
0.0
 71
     9
 72
     5
  1

1001
ACAD
1000
MTEXTBEGIN
1070
    73
1070
     1
1070
    44
1040
1.0
1070
    74
1070
     0
1000
MTEXTEND
  0
MTEXT
  5
567D
330
1A
100
AcDbEntity
  8
SUNPOU
100
AcDbMText
 10
116816.2065629925
 20
115551.8044749892
 30
0.0
 40
10.5
 41
0.0
 71
     9
 72
     5
  1

1001
ACAD
1000
MTEXTBEGIN
1070
    73
1070
     1
1070
    44
1040
1.0
1070
    74
1070
     0
1000
MTEXTEND
  0
MTEXT
  5
567E
330
1A
100
AcDbEntity
  8
SUNPOU
100
AcDbMText
 10
118759.613809702
 20
113750.7553951112
 30
0.0
 40
3.5
 41
0.0
 71
     9
 72
     5
  1

1001
ACAD
1000
MTEXTBEGIN
1070
    73
1070
     1
1070
    44
1040
1.0
1070
    74
1070
     0
1000
MTEXTEND
  0
MTEXT
  5
567F
330
1A
100
AcDbEntity
  8
SUNPOU
100
AcDbMText
 10
67256.47426878814
 20
61384.96962996432
 30
0.0
 40
10.5
 41
0.0
 71
     9
 72
     5
  1

1001
ACAD
1000
MTEXTBEGIN
1070
    73
1070
     1
1070
    44
1040
1.0
1070
    74
1070
     0
1000
MTEXTEND
  0
MTEXT
  5
5680
330
1A
100
AcDbEntity
  8
SUNPOU
100
AcDbMText
 10
53308.47416841216
 20
42212.57049085211
 30
0.0
 40
3.5
 41
0.0
 71
     7
 72
     5
  1

1001
ACAD
1000
MTEXTBEGIN
1070
    73
1070
     1
1070
    44
1040
1.0
1070
    74
1070
     0
1000
MTEXTEND
  0
MTEXT
  5
5681
330
1A
100
AcDbEntity
  8
SUNPOU
100
AcDbMText
 10
67000.82485118274
 20
51571.63371187345
 30
0.0
 40
10.5
 41
0.0
 71
     9
 72
     5
  1

1001
ACAD
1000
MTEXTBEGIN
1070
    73
1070
     1
1070
    44
1040
1.0
1070
    74
1070
     0
1000
MTEXTEND
  0
MTEXT
  5
5682
330
1A
100
AcDbEntity
  8
SUNPOU
100
AcDbMText
 10
75722.99241710071
 20
58987.46824341094
 30
0.0
 40
10.5
 41
0.0
 71
     9
 72
     5
  1

1001
ACAD
1000
MTEXTBEGIN
1070
    73
1070
     1
1070
    44
1040
1.0
1070
    74
1070
     0
1000
MTEXTEND
  0
MTEXT
  5
5683
330
1A
100
AcDbEntity
  8
SUNPOU
100
AcDbMText
 10
94676.75113443068
 20
76454.04429590299
 30
0.0
 40
10.5
 41
0.0
 71
     9
 72
     5
  1

1001
ACAD
1000
MTEXTBEGIN
1070
    73
1070
     1
1070
    44
1040
1.0
1070
    74
1070
     0
1000
MTEXTEND
  0
MTEXT
  5
5684
330
1A
100
AcDbEntity
  8
SUNPOU
100
AcDbMText
 10
96620.1583811401
 20
74652.99521602498
 30
0.0
 40
3.5
 41
0.0
 71
     9
 72
     5
  1

1001
ACAD
1000
MTEXTBEGIN
1070
    73
1070
     1
1070
    44
1040
1.0
1070
    74
1070
     0
1000
MTEXTEND
  0
MTEXT
  5
5685
330
1A
100
AcDbEntity
  8
SUNPOU
100
AcDbMText
 10
127746.3382137598
 20
117147.9408836823
 30
0.0
 40
10.5
 41
0.0
 71
     9
 72
     5
  1

1001
ACAD
1000
MTEXTBEGIN
1070
    73
1070
     1
1070
    44
1040
1.0
1070
    74
1070
     0
1000
MTEXTEND
  0
MTEXT
  5
5686
330
1A
100
AcDbEntity
  8
SUNPOU
100
AcDbMText
 10
129689.7454604692
 20
115346.8918038043
 30
0.0
 40
3.5
 41
0.0
 71
     9
 72
     5
  1

1001
ACAD
1000
MTEXTBEGIN
1070
    73
1070
     1
1070
    44
1040
1.0
1070
    74
1070
     0
1000
MTEXTEND
  0
MTEXT
  5
5687
330
1A
100
AcDbEntity
  8
SUNPOU
100
AcDbMText
 10
78186.60591955537
 20
62981.10603865738
 30
0.0
 40
10.5
 41
0.0
 71
     9
 72
     5
  1

1001
ACAD
1000
MTEXTBEGIN
1070
    73
1070
     1
1070
    44
1040
1.0
1070
    74
1070
     0
1000
MTEXTEND
  0
MTEXT
  5
5688
330
1A
100
AcDbEntity
  8
SUNPOU
100
AcDbMText
 10
64238.60581917939
 20
43808.70689954517
 30
0.0
 40
3.5
 41
0.0
 71
     7
 72
     5
  1

1001
ACAD
1000
MTEXTBEGIN
1070
    73
1070
     1
1070
    44
1040
1.0
1070
    74
1070
     0
1000
MTEXTEND
  0
MTEXT
  5
5689
330
1A
100
AcDbEntity
  8
SUNPOU
100
AcDbMText
 10
33428.13481137435
 20
32770.04710035564
 30
0.0
 40
10.5
 41
0.0
 71
     9
 72
     5
  1

1001
ACAD
1000
MTEXTBEGIN
1070
    73
1070
     1
1070
    44
1040
1.0
1070
    74
1070
     0
1000
MTEXTEND
  0
MTEXT
  5
568A
330
1A
100
AcDbEntity
  8
SUNPOU
100
AcDbMText
 10
52381.89352870432
 20
50236.62315284769
 30
0.0
 40
10.5
 41
0.0
 71
     9
 72
     5
  1

1001
ACAD
1000
MTEXTBEGIN
1070
    73
1070
     1
1070
    44
1040
1.0
1070
    74
1070
     0
1000
MTEXTEND
  0
MTEXT
  5
568B
330
1A
100
AcDbEntity
  8
SUNPOU
100
AcDbMText
 10
54325.30077541374
 20
48435.57407296968
 30
0.0
 40
3.5
 41
0.0
 71
     9
 72
     5
  1

1001
ACAD
1000
MTEXTBEGIN
1070
    73
1070
     1
1070
    44
1040
1.0
1070
    74
1070
     0
1000
MTEXTEND
  0
MTEXT
  5
568C
330
1A
100
AcDbEntity
  8
SUNPOU
100
AcDbMText
 10
85451.48060803343
 20
90930.51974062703
 30
0.0
 40
10.5
 41
0.0
 71
     9
 72
     5
  1

1001
ACAD
1000
MTEXTBEGIN
1070
    73
1070
     1
1070
    44
1040
1.0
1070
    74
1070
     0
1000
MTEXTEND
  0
MTEXT
  5
568D
330
1A
100
AcDbEntity
  8
SUNPOU
100
AcDbMText
 10
87394.88785474286
 20
89129.47066074901
 30
0.0
 40
3.5
 41
0.0
 71
     9
 72
     5
  1

1001
ACAD
1000
MTEXTBEGIN
1070
    73
1070
     1
1070
    44
1040
1.0
1070
    74
1070
     0
1000
MTEXTEND
  0
MTEXT
  5
568E
330
1A
100
AcDbEntity
  8
SUNPOU
100
AcDbMText
 10
35891.74831382901
 20
36763.68489560208
 30
0.0
 40
10.5
 41
0.0
 71
     9
 72
     5
  1

1001
ACAD
1000
MTEXTBEGIN
1070
    73
1070
     1
1070
    44
1040
1.0
1070
    74
1070
     0
1000
MTEXTEND
  0
MTEXT
  5
568F
330
1A
100
AcDbEntity
  8
SUNPOU
100
AcDbMText
 10
21943.74821345303
 20
17591.28575648986
 30
0.0
 40
3.5
 41
0.0
 71
     7
 72
     5
  1

1001
ACAD
1000
MTEXTBEGIN
1070
    73
1070
     1
1070
    44
1040
1.0
1070
    74
1070
     0
1000
MTEXTEND
  0
MTEXT
  5
11D07
330
1A
100
AcDbEntity
  8
ZISSEN1
100
AcDbMText
 10
-1681.899478298015
 20
1756.045429394411
 30
0.0
 40
5.0
 41
136.535
 71
     1
 72
     5
  1
CB-53/1616-MIL　No.SS0001f70r1
1001
ACAD
1000
MTEXTBEGIN
1070
    73
1070
     1
1070
    44
1040
1.0
1070
    74
1070
     0
1000
MTEXTEND
  0
LINE
  5
14A62
330
1A
100
AcDbEntity
  8
ZISSEN1
100
AcDbLine
 10
-1600.0
 20
1600.0
 30
0.0
 11
-1600.0
 21
1602.0
 31
0.0
  0
CIRCLE
  5
14A63
330
1A
100
AcDbEntity
  8
出力ｷﾊ_ﾝ
100
AcDbCircle
 10
-1588.0
 20
1606.499999999998
 30
0.0
 40
2.75
  0
LINE
  5
14A74
330
1A
100
AcDbEntity
  8
ZISSEN1
100
AcDbLine
 10
-1546.487911835411
 20
1660.5
 30
0.0
 11
-1546.600024990726
 21
1660.5
 31
0.0
  0
LINE
  5
14A75
330
1A
100
AcDbEntity
  8
ZISSEN1
100
AcDbLine
 10
-1589.499893094056
 20
1604.0
 30
0.0
 11
-1505.5
 21
1604.0
 31
0.0
  0
LINE
  5
14A76
330
1A
100
AcDbEntity
  8
ZISSEN1
100
AcDbLine
 10
-1503.0
 20
1603.5
 30
0.0
 11
-1592.0
 21
1603.5
 31
0.0
  0
LINE
  5
14A7D
330
1A
100
AcDbEntity
  8
ZISSEN1
100
AcDbLine
 10
-1562.400024990725
 20
1663.95
 30
0.0
 11
-1546.600024990726
 21
1663.95
 31
0.0
  0
LINE
  5
14A7F
330
1A
100
AcDbEntity
  8
ZISSEN1
100
AcDbLine
 10
-1594.0
 20
1610.750160358915
 30
0.0
 11
-1594.0
 21
1602.0
 31
0.0
  0
LINE
  5
14A80
330
1A
100
AcDbEntity
  8
ZISSEN1
100
AcDbLine
 10
-1502.0
 20
1609.25
 30
0.0
 11
-1502.0
 21
1604.5
 31
0.0
  0
LINE
  5
14A83
330
1A
100
AcDbEntity
  8
ZISSEN1
100
AcDbLine
 10
-1499.5
 20
1610.0
 30
0.0
 11
-1497.5
 21
1610.0
 31
0.0
  0
LINE
  5
14A84
330
1A
100
AcDbEntity
  8
ZISSEN1
100
AcDbLine
 10
-1497.5
 20
1611.0
 30
0.0
 11
-1497.5
 21
1602.0
 31
0.0
  0
LINE
  5
14A85
330
1A
100
AcDbEntity
  8
ZISSEN1
100
AcDbLine
 10
-1499.5
 20
1611.0
 30
0.0
 11
-1497.5
 21
1611.0
 31
0.0
  0
LINE
  5
14A86
330
1A
100
AcDbEntity
  8
ZISSEN1
100
AcDbLine
 10
-1499.5
 20
1611.0
 30
0.0
 11
-1499.5
 21
1602.0
 31
0.0
  0
LINE
  5
14BB9
330
1A
100
AcDbEntity
  8
ZISSEN1
100
AcDbLine
 10
-1518.500000000002
 20
1659.2
 30
0.0
 11
-1518.000000000002
 21
1659.199999999997
 31
0.0
  0
LINE
  5
14BBA
330
1A
100
AcDbEntity
  8
ZISSEN1
100
AcDbLine
 10
-1507.600000000004
 20
1659.2
 30
0.0
 11
-1508.100000000004
 21
1659.2
 31
0.0
  0
LINE
  5
14BBB
330
1A
100
AcDbEntity
  8
ZISSEN1
100
AcDbLine
 10
-1518.500000000002
 20
1651.399999999997
 30
0.0
 11
-1507.600000000004
 21
1651.399999999997
 31
0.0
  0
LINE
  5
14BBC
330
1A
100
AcDbEntity
  8
ZISSEN1
100
AcDbLine
 10
-1518.500000000002
 20
1659.999999999996
 30
0.0
 11
-1518.500000000002
 21
1651.399999999997
 31
0.0
  0
LINE
  5
14BBD
330
1A
100
AcDbEntity
  8
ZISSEN1
100
AcDbLine
 10
-1507.600000000004
 20
1659.999999999996
 30
0.0
 11
-1507.600000000004
 21
1651.399999999997
 31
0.0
  0
LINE
  5
14BC0
330
1A
100
AcDbEntity
  8
ZISSEN1
100
AcDbLine
 10
-1508.100000000004
 20
1652.45
 30
0.0
 11
-1518.000000000002
 21
1652.45
 31
0.0
  0
LINE
  5
14BD5
330
1A
100
AcDbEntity
  8
ZISSEN1
100
AcDbLine
 10
-1518.000000000002
 20
1663.95
 30
0.0
 11
-1518.000000000002
 21
1652.45
 31
0.0
  0
LINE
  5
14BD6
330
1A
100
AcDbEntity
  8
ZISSEN1
100
AcDbLine
 10
-1518.000000000002
 20
1663.95
 30
0.0
 11
-1508.100000000004
 21
1663.95
 31
0.0
  0
LINE
  5
14BD7
330
1A
100
AcDbEntity
  8
ZISSEN1
100
AcDbLine
 10
-1508.100000000004
 20
1659.2
 30
0.0
 11
-1508.100000000004
 21
1652.45
 31
0.0
  0
LINE
  5
14BD8
330
1A
100
AcDbEntity
  8
ZISSEN1
100
AcDbLine
 10
-1508.100000000004
 20
1663.95
 30
0.0
 11
-1508.100000000004
 21
1659.2
 31
0.0
  0
LINE
  5
14BDC
330
1A
100
AcDbEntity
  8
ZISSEN1
100
AcDbLine
 10
-1562.900024990725
 20
1647.0
 30
0.0
 11
-1562.900024990725
 21
1659.999999999998
 31
0.0
  0
LINE
  5
14BDD
330
1A
100
AcDbEntity
  8
ZISSEN1
100
AcDbLine
 10
-1562.900024990725
 20
1647.0
 30
0.0
 11
-1546.100024990726
 21
1647.0
 31
0.0
  0
LINE
  5
14BDE
330
1A
100
AcDbEntity
  8
ZISSEN1
100
AcDbLine
 10
-1546.100024990726
 20
1647.0
 30
0.0
 11
-1546.100024990726
 21
1659.999999999998
 31
0.0
  0
LINE
  5
14C04
330
1A
100
AcDbEntity
  8
ZISSEN1
100
AcDbLine
 10
-1546.600024990726
 20
1650.45
 30
0.0
 11
-1546.600024990726
 21
1663.95
 31
0.0
  0
LINE
  5
14C05
330
1A
100
AcDbEntity
  8
ZISSEN1
100
AcDbLine
 10
-1562.400024990725
 20
1650.45
 30
0.0
 11
-1562.400024990725
 21
1663.95
 31
0.0
  0
LINE
  5
14C14
330
1A
100
AcDbEntity
  8
ZISSEN1
100
AcDbLine
 10
-1546.600024990726
 20
1650.45
 30
0.0
 11
-1562.400024990725
 21
1650.45
 31
0.0
  0
LINE
  5
14C2D
330
1A
100
AcDbEntity
  8
ZISSEN1
100
AcDbLine
 10
-1499.5
 20
1613.0
 30
0.0
 11
-1499.5
 21
1604.0
 31
0.0
  0
LINE
  5
14C2E
330
1A
100
AcDbEntity
  8
ZISSEN1
100
AcDbLine
 10
-1501.0
 20
1602.0
 30
0.0
 11
-1501.0
 21
1610.75
 31
0.0
  0
LINE
  5
14C2F
330
1A
100
AcDbEntity
  8
ZISSEN1
100
AcDbLine
 10
-1499.5
 20
1613.0
 30
0.0
 11
-1505.5
 21
1604.0
 31
0.0
  0
LINE
  5
14C32
330
1A
100
AcDbEntity
  8
ZISSEN1
100
AcDbLine
 10
-1595.111167810085
 20
1612.628944047119
 30
0.0
 11
-1595.013654561946
 21
1602.0
 31
0.0
  0
LINE
  5
14C33
330
1A
100
AcDbEntity
  8
ZISSEN1
100
AcDbLine
 10
-1594.305666430806
 20
1611.860056366898
 30
0.0
 11
-1594.213859574505
 21
1602.0
 31
0.0
  0
LINE
  5
14C34
330
1A
100
AcDbEntity
  8
ZISSEN1
100
AcDbLine
 10
-1595.499893094056
 20
1613.0
 30
0.0
 11
-1589.499893094056
 21
1604.0
 31
0.0
  0
LINE
  5
14C35
330
1A
100
AcDbEntity
  8
ZISSEN1
100
AcDbLine
 10
-1595.499893094056
 20
1660.0
 30
0.0
 11
-1595.499893094056
 21
1613.0
 31
0.0
  0
LINE
  5
14C39
330
1A
100
AcDbEntity
  8
ZISSEN1
100
AcDbLine
 10
-1499.5
 20
1613.0
 30
0.0
 11
-1499.5
 21
1660.0
 31
0.0
  0
LINE
  5
14C3A
330
1A
100
AcDbEntity
  8
ZISSEN1
100
AcDbLine
 10
-1495.0
 20
1600.0
 30
0.0
 11
-1600.0
 21
1600.0
 31
0.0
  0
LINE
  5
14C3F
330
1A
100
AcDbEntity
  8
ZISSEN1
100
AcDbLine
 10
-1593.0
 20
1609.250160358915
 30
0.0
 11
-1593.0
 21
1604.5
 31
0.0
  0
LINE
  5
14C40
330
1A
100
AcDbEntity
  8
ZISSEN1
100
AcDbLine
 10
-1495.0
 20
1602.0
 30
0.0
 11
-1600.0
 21
1602.0
 31
0.0
  0
LINE
  5
14C44
330
1A
100
AcDbEntity
  8
ZISSEN1
100
AcDbLine
 10
-1557.082416223984
 20
1600.0
 30
0.0
 11
-1557.082416223984
 21
1600.0
 31
0.0
  0
LINE
  5
14C45
330
1A
100
AcDbEntity
  8
ZISSEN1
100
AcDbLine
 10
-1557.082416223984
 20
1600.000000000001
 30
0.0
 11
-1557.082416223984
 21
1600.000000000001
 31
0.0
  0
ARC
  5
14C46
330
1A
100
AcDbEntity
  8
ZISSEN1
100
AcDbCircle
 10
-1525.800000000002
 20
1589.999999999998
 30
0.0
 40
1.0
100
AcDbArc
 50
270.0
 51
0.0
  0
ARC
  5
14C47
330
1A
100
AcDbEntity
  8
ZISSEN1
100
AcDbCircle
 10
-1526.300000000003
 20
1590.499999999998
 30
0.0
 40
0.5
100
AcDbArc
 50
270.0
 51
0.0
  0
ARC
  5
14C48
330
1A
100
AcDbEntity
  8
ZISSEN1
100
AcDbCircle
 10
-1526.300000000003
 20
1590.499999999998
 30
0.0
 40
0.5
100
AcDbArc
 50
180.0
 51
270.0
  0
LINE
  5
14C49
330
1A
100
AcDbEntity
  8
ZISSEN1
100
AcDbLine
 10
-1526.300000000003
 20
1590.0
 30
0.0
 11
-1526.300000000003
 21
1590.0
 31
0.0
  0
LINE
  5
14C4A
330
1A
100
AcDbEntity
  8
ZISSEN1
100
AcDbLine
 10
-1525.800000000002
 20
1589.0
 30
0.0
 11
-1526.800000000003
 21
1589.0
 31
0.0
  0
ARC
  5
14C4B
330
1A
100
AcDbEntity
  8
ZISSEN1
100
AcDbCircle
 10
-1526.68226373825
 20
1590.284240479903
 30
0.0
 40
1.289626084396955
100
AcDbArc
 50
192.7328418660766
 51
264.7618949008391
  0
ARC
  5
14C4C
330
1A
100
AcDbEntity
  8
ZISSEN1
100
AcDbCircle
 10
-1526.860875113525
 20
1592.307397122722
 30
0.0
 40
1.935680772379327
100
AcDbArc
 50
119.0232943101175
 51
182.884952064735
  0
ARC
  5
14C4D
330
1A
100
AcDbEntity
  8
ZISSEN1
100
AcDbCircle
 10
-1528.85826055564
 20
1598.299999999997
 30
0.0
 40
1.0
100
AcDbArc
 50
20.24575920235006
 51
90.0
  0
LINE
  5
14C4E
330
1A
100
AcDbEntity
  8
ZISSEN1
100
AcDbLine
 10
-1527.799999999999
 20
1594.0
 30
0.0
 11
-1527.799999999999
 21
1594.0
 31
0.0
  0
ARC
  5
14C4F
330
1A
100
AcDbEntity
  8
ZISSEN1
100
AcDbCircle
 10
-1530.799999325652
 20
1596.399999999999
 30
0.0
 40
1.0
100
AcDbArc
 50
270.0
 51
0.0
  0
LINE
  5
14C50
330
1A
100
AcDbEntity
  8
ZISSEN1
100
AcDbLine
 10
-1527.920043604128
 20
1598.646047615071
 30
0.0
 11
-1526.800000000003
 21
1595.609344427248
 31
0.0
  0
ARC
  5
14C51
330
1A
100
AcDbEntity
  8
ZISSEN1
100
AcDbCircle
 10
-1525.300000000003
 20
1593.499999999998
 30
0.0
 40
0.5
100
AcDbArc
 50
90.0
 51
180.0
  0
ARC
  5
14C52
330
1A
100
AcDbEntity
  8
ZISSEN1
100
AcDbCircle
 10
-1525.300000000003
 20
1593.499999999998
 30
0.0
 40
0.5
100
AcDbArc
 50
0.0
 51
90.0
  0
LINE
  5
14C53
330
1A
100
AcDbEntity
  8
ZISSEN1
100
AcDbLine
 10
-1525.300000000003
 20
1594.0
 30
0.0
 11
-1525.300000000003
 21
1594.0
 31
0.0
  0
LINE
  5
14C54
330
1A
100
AcDbEntity
  8
ZISSEN1
100
AcDbLine
 10
-1529.610212789812
 20
1598.105187813987
 30
0.0
 11
-1529.610212789812
 21
1598.105187813987
 31
0.0
  0
LINE
  5
14C55
330
1A
100
AcDbEntity
  8
ZISSEN1
100
AcDbLine
 10
-1529.110212789812
 20
1597.605187813988
 30
0.0
 11
-1527.799999999999
 21
1594.0
 31
0.0
  0
ARC
  5
14C56
330
1A
100
AcDbEntity
  8
ZISSEN1
100
AcDbCircle
 10
-1529.610212789812
 20
1597.605187813986
 30
0.0
 40
0.5
100
AcDbArc
 50
0.0
 51
90.0
  0
LINE
  5
14C57
330
1A
100
AcDbEntity
  8
ZISSEN1
100
AcDbLine
 10
-1530.110212789812
 20
1597.605187813988
 30
0.0
 11
-1529.799999325652
 21
1596.400000000001
 31
0.0
  0
ARC
  5
14C58
330
1A
100
AcDbEntity
  8
ZISSEN1
100
AcDbCircle
 10
-1529.610212789812
 20
1597.605187813986
 30
0.0
 40
0.5
100
AcDbArc
 50
90.0
 51
180.0
  0
LINE
  5
14C59
330
1A
100
AcDbEntity
  8
ZISSEN1
100
AcDbLine
 10
-1525.300000000003
 20
1594.0
 30
0.0
 11
-1526.800000000003
 21
1594.0
 31
0.0
  0
LINE
  5
14C5A
330
1A
100
AcDbEntity
  8
ZISSEN1
100
AcDbLine
 10
-1526.800000000003
 20
1595.609344427248
 30
0.0
 11
-1526.800000000003
 21
1590.5
 31
0.0
  0
LINE
  5
14C5B
330
1A
100
AcDbEntity
  8
ZISSEN1
100
AcDbLine
 10
-1525.800000000002
 20
1593.5
 30
0.0
 11
-1525.800000000002
 21
1590.5
 31
0.0
  0
LINE
  5
14C5C
330
1A
100
AcDbEntity
  8
ZISSEN1
100
AcDbLine
 10
-1524.800000000003
 20
1593.5
 30
0.0
 11
-1524.800000000003
 21
1590.0
 31
0.0
  0
LINE
  5
14C5D
330
1A
100
AcDbEntity
  8
ZISSEN1
100
AcDbLine
 10
-1528.794102623971
 20
1592.209973073204
 30
0.0
 11
-1527.940175812735
 21
1590.0
 31
0.0
  0
LINE
  5
14C5E
330
1A
100
AcDbEntity
  8
ZISSEN1
100
AcDbLine
 10
-1533.5
 20
1600.0
 30
0.0
 11
-1532.800000000003
 21
1599.299999999999
 31
0.0
  0
LINE
  5
14C5F
330
1A
100
AcDbEntity
  8
ZISSEN1
100
AcDbLine
 10
-1533.5
 20
1600.0
 30
0.0
 11
-1533.5
 21
1600.0
 31
0.0
  0
LINE
  5
14C60
330
1A
100
AcDbEntity
  8
ZISSEN1
100
AcDbLine
 10
-1532.800000000003
 20
1599.299999999999
 30
0.0
 11
-1528.85826055564
 21
1599.299999999999
 31
0.0
  0
ARC
  5
14C61
330
1A
100
AcDbEntity
  8
ZISSEN1
100
AcDbCircle
 10
-1568.317736261753
 20
1590.284240479903
 30
0.0
 40
1.289626084396955
100
AcDbArc
 50
275.2381050991608
 51
347.2671581339233
  0
LINE
  5
14C62
330
1A
100
AcDbEntity
  8
ZISSEN1
100
AcDbLine
 10
-1569.2
 20
1589.0
 30
0.0
 11
-1568.2
 21
1589.0
 31
0.0
  0
LINE
  5
14C63
330
1A
100
AcDbEntity
  8
ZISSEN1
100
AcDbLine
 10
-1568.7
 20
1590.0
 30
0.0
 11
-1568.7
 21
1590.0
 31
0.0
  0
ARC
  5
14C64
330
1A
100
AcDbEntity
  8
ZISSEN1
100
AcDbCircle
 10
-1568.7
 20
1590.499999999998
 30
0.0
 40
0.5
100
AcDbArc
 50
270.0
 51
0.0
  0
ARC
  5
14C65
330
1A
100
AcDbEntity
  8
ZISSEN1
100
AcDbCircle
 10
-1568.7
 20
1590.499999999998
 30
0.0
 40
0.5
100
AcDbArc
 50
180.0
 51
270.0
  0
ARC
  5
14C66
330
1A
100
AcDbEntity
  8
ZISSEN1
100
AcDbCircle
 10
-1569.2
 20
1589.999999999998
 30
0.0
 40
1.0
100
AcDbArc
 50
180.0
 51
270.0
  0
ARC
  5
14C67
330
1A
100
AcDbEntity
  8
ZISSEN1
100
AcDbCircle
 10
-1565.389787210191
 20
1597.605187813986
 30
0.0
 40
0.5
100
AcDbArc
 50
90.0
 51
180.0
  0
LINE
  5
14C68
330
1A
100
AcDbEntity
  8
ZISSEN1
100
AcDbLine
 10
-1562.2
 20
1599.299999999999
 30
0.0
 11
-1566.141739444363
 21
1599.299999999999
 31
0.0
  0
ARC
  5
14C69
330
1A
100
AcDbEntity
  8
ZISSEN1
100
AcDbCircle
 10
-1568.139124886474
 20
1592.307397122722
 30
0.0
 40
1.935680772379327
100
AcDbArc
 50
357.1150479352649
 51
60.97670568988245
  0
LINE
  5
14C6A
330
1A
100
AcDbEntity
  8
ZISSEN1
100
AcDbLine
 10
-1565.889787210191
 20
1597.605187813988
 30
0.0
 11
-1567.2
 21
1594.0
 31
0.0
  0
ARC
  5
14C6B
330
1A
100
AcDbEntity
  8
ZISSEN1
100
AcDbCircle
 10
-1566.141739444363
 20
1598.299999999997
 30
0.0
 40
1.0
100
AcDbArc
 50
90.0
 51
159.7542407976499
  0
LINE
  5
14C6C
330
1A
100
AcDbEntity
  8
ZISSEN1
100
AcDbLine
 10
-1565.389787210191
 20
1598.105187813987
 30
0.0
 11
-1565.389787210191
 21
1598.105187813987
 31
0.0
  0
ARC
  5
14C6D
330
1A
100
AcDbEntity
  8
ZISSEN1
100
AcDbCircle
 10
-1565.389787210191
 20
1597.605187813986
 30
0.0
 40
0.5
100
AcDbArc
 50
0.0
 51
90.0
  0
LINE
  5
14C6E
330
1A
100
AcDbEntity
  8
ZISSEN1
100
AcDbLine
 10
-1564.889787210191
 20
1597.605187813988
 30
0.0
 11
-1565.200000674351
 21
1596.400000000001
 31
0.0
  0
ARC
  5
14C6F
330
1A
100
AcDbEntity
  8
ZISSEN1
100
AcDbCircle
 10
-1564.200000674351
 20
1596.399999999999
 30
0.0
 40
1.0
100
AcDbArc
 50
180.0
 51
270.0
  0
LINE
  5
14C70
330
1A
100
AcDbEntity
  8
ZISSEN1
100
AcDbLine
 10
-1561.5
 20
1600.0
 30
0.0
 11
-1562.2
 21
1599.299999999999
 31
0.0
  0
LINE
  5
14C71
330
1A
100
AcDbEntity
  8
ZISSEN1
100
AcDbLine
 10
-1561.5
 20
1600.0
 30
0.0
 11
-1561.5
 21
1600.0
 31
0.0
  0
LINE
  5
14C72
330
1A
100
AcDbEntity
  8
ZISSEN1
100
AcDbLine
 10
-1569.7
 20
1594.0
 30
0.0
 11
-1568.2
 21
1594.0
 31
0.0
  0
LINE
  5
14C73
330
1A
100
AcDbEntity
  8
ZISSEN1
100
AcDbLine
 10
-1569.7
 20
1594.0
 30
0.0
 11
-1569.7
 21
1594.0
 31
0.0
  0
ARC
  5
14C74
330
1A
100
AcDbEntity
  8
ZISSEN1
100
AcDbCircle
 10
-1569.7
 20
1593.499999999998
 30
0.0
 40
0.5
100
AcDbArc
 50
90.0
 51
180.0
  0
ARC
  5
14C75
330
1A
100
AcDbEntity
  8
ZISSEN1
100
AcDbCircle
 10
-1569.7
 20
1593.499999999998
 30
0.0
 40
0.5
100
AcDbArc
 50
0.0
 51
90.0
  0
LINE
  5
14C76
330
1A
100
AcDbEntity
  8
ZISSEN1
100
AcDbLine
 10
-1567.2
 20
1594.0
 30
0.0
 11
-1567.2
 21
1594.0
 31
0.0
  0
LINE
  5
14C77
330
1A
100
AcDbEntity
  8
ZISSEN1
100
AcDbLine
 10
-1567.079956395875
 20
1598.646047615071
 30
0.0
 11
-1568.2
 21
1595.609344427248
 31
0.0
  0
LINE
  5
14C78
330
1A
100
AcDbEntity
  8
ZISSEN1
100
AcDbLine
 10
-1566.205897376032
 20
1592.209973073204
 30
0.0
 11
-1567.059824187265
 21
1590.0
 31
0.0
  0
LINE
  5
14C79
330
1A
100
AcDbEntity
  8
ZISSEN1
100
AcDbLine
 10
-1570.2
 20
1593.5
 30
0.0
 11
-1570.2
 21
1590.0
 31
0.0
  0
LINE
  5
14C7A
330
1A
100
AcDbEntity
  8
ZISSEN1
100
AcDbLine
 10
-1569.2
 20
1593.5
 30
0.0
 11
-1569.2
 21
1590.5
 31
0.0
  0
LINE
  5
14C7B
330
1A
100
AcDbEntity
  8
ZISSEN1
100
AcDbLine
 10
-1568.2
 20
1595.609344427248
 30
0.0
 11
-1568.2
 21
1590.5
 31
0.0
  0
LINE
  5
14C7C
330
1A
100
AcDbEntity
  8
ZISSEN1
100
AcDbLine
 10
-1530.799999325652
 20
1595.400000000001
 30
0.0
 11
-1564.200000674351
 21
1595.400000000001
 31
0.0
  0
LINE
  5
14C7D
330
1A
100
AcDbEntity
  8
ZISSEN1
100
AcDbLine
 10
-1533.5
 20
1600.0
 30
0.0
 11
-1561.5
 21
1600.0
 31
0.0
  0
LINE
  5
14C7E
330
1A
100
AcDbEntity
  8
ZISSEN1
100
AcDbLine
 10
-1518.000000000002
 20
1659.999999999996
 30
0.0
 11
-1546.600024990726
 21
1659.999999999998
 31
0.0
  0
LINE
  5
14CE0
330
1A
100
AcDbEntity
  8
ZISSEN1
100
AcDbLine
 10
-1499.5
 20
1660.0
 30
0.0
 11
-1508.100000000004
 21
1660.0
 31
0.0
  0
LINE
  5
14CE1
330
1A
100
AcDbEntity
  8
ZISSEN1
100
AcDbLine
 10
-1562.414124990726
 20
1659.999999999998
 30
0.0
 11
-1595.499893094056
 21
1660.0
 31
0.0
  0
LINE
  5
14CE8
330
1A
100
AcDbEntity
  8
ZISSEN1
100
AcDbLine
 10
-1546.487911835411
 20
1660.0
 30
0.0
 11
-1546.487911835411
 21
1660.5
 31
0.0
  0
ARC
  5
14CE9
330
1A
100
AcDbEntity
  8
ZISSEN1
100
AcDbCircle
 10
-1593.0
 20
1603.499999999998
 30
0.0
 40
1.0
100
AcDbArc
 50
0.0
 51
90.0
  0
ARC
  5
14CEA
330
1A
100
AcDbEntity
  8
ZISSEN1
100
AcDbCircle
 10
-1502.0
 20
1603.499999999998
 30
0.0
 40
1.0
100
AcDbArc
 50
90.0
 51
180.0
  0
ELLIPSE
  5
14CED
330
1A
100
AcDbEntity
  8
ZISSEN1
 48
0.4
100
AcDbEllipse
 10
-1496.599999999998
 20
1607.299999999999
 30
0.0
 11
0.0000000000000008
 21
3.149999999999636
 31
0.0
210
0.0
220
0.0
230
1.0
 40
0.3174603174603541
 41
3.141592653589793
 42
6.283185307179586
  0
LINE
  5
14CEE
330
1A
100
AcDbEntity
  8
ZISSEN1
 48
0.4
100
AcDbLine
 10
-1496.599999999998
 20
1604.149999999999
 30
0.0
 11
-1497.5
 21
1604.149999999999
 31
0.0
  0
LINE
  5
14CEF
330
1A
100
AcDbEntity
  8
ZISSEN1
 48
0.4
100
AcDbLine
 10
-1496.599999999998
 20
1610.449999999999
 30
0.0
 11
-1497.5
 21
1610.449999999999
 31
0.0
  0
LINE
  5
14CFE
330
1A
100
AcDbEntity
  8
ZISSEN1
100
AcDbLine
 10
-1590.759679999999
 20
1698.498314060285
 30
0.0
 11
-1590.759679999999
 21
1698.228884060285
 31
0.0
  0
LINE
  5
14D03
330
1A
100
AcDbEntity
  8
ZISSEN1
100
AcDbLine
 10
-1590.759679999999
 20
1698.498314060285
 30
0.0
 11
-1590.759679999999
 21
1698.998314060283
 31
0.0
  0
LINE
  5
14D05
330
1A
100
AcDbEntity
  8
ZISSEN1
100
AcDbLine
 10
-1596.499999999999
 20
1722.999812659729
 30
0.0
 11
-1595.499893094056
 21
1723.999919565674
 31
0.0
  0
LINE
  5
14D06
330
1A
100
AcDbEntity
  8
ZISSEN1
100
AcDbLine
 10
-1596.499999999999
 20
1722.999812659729
 30
0.0
 11
-1596.499999999999
 21
1711.0
 31
0.0
  0
LINE
  5
14D07
330
1A
100
AcDbEntity
  8
ZISSEN1
100
AcDbLine
 10
-1497.500106905943
 20
1712.899919565674
 30
0.0
 11
-1499.5
 21
1712.899919565674
 31
0.0
  0
LINE
  5
14D08
330
1A
100
AcDbEntity
  8
ZISSEN1
100
AcDbLine
 10
-1499.5
 20
1720.999919565674
 30
0.0
 11
-1497.500106905943
 21
1720.999919565674
 31
0.0
  0
LINE
  5
14D09
330
1A
100
AcDbEntity
  8
ZISSEN1
100
AcDbLine
 10
-1499.500053452971
 20
1721.999919565674
 30
0.0
 11
-1497.500106905943
 21
1721.999919565674
 31
0.0
  0
LINE
  5
14D0A
330
1A
100
AcDbEntity
  8
ZISSEN1
100
AcDbLine
 10
-1497.500106905943
 20
1711.899919565674
 30
0.0
 11
-1499.5
 21
1711.899919565674
 31
0.0
  0
LINE
  5
14D0B
330
1A
100
AcDbEntity
  8
ZISSEN1
100
AcDbLine
 10
-1497.500106905943
 20
1721.999919565674
 30
0.0
 11
-1497.500106905943
 21
1711.899919565674
 31
0.0
  0
LINE
  5
14D0D
330
1A
100
AcDbEntity
  8
ZISSEN1
100
AcDbLine
 10
-1493.0
 20
1710.7
 30
0.0
 11
-1499.5
 21
1710.7
 31
0.0
  0
LINE
  5
14D13
330
1A
100
AcDbEntity
  8
ZISSEN1
100
AcDbLine
 10
-1547.761233933848
 20
1726.499919565671
 30
0.0
 11
-1547.761233933848
 21
1726.769349565671
 31
0.0
  0
LINE
  5
14D15
330
1A
100
AcDbEntity
  8
ZISSEN1
100
AcDbLine
 10
-1547.761233933848
 20
1725.999919565673
 30
0.0
 11
-1547.761233933848
 21
1726.499919565671
 31
0.0
  0
LINE
  5
14D18
330
1A
100
AcDbEntity
  8
ZISSEN1
100
AcDbLine
 10
-1592.589456896634
 20
1725.999919565673
 30
0.0
 11
-1592.589456896634
 21
1725.499919565674
 31
0.0
  0
LINE
  5
14D19
330
1A
100
AcDbEntity
  8
ZISSEN1
100
AcDbLine
 10
-1502.00010760877
 20
1725.999919565673
 30
0.0
 11
-1502.00010760877
 21
1725.499919565673
 31
0.0
  0
LINE
  5
14D1A
330
1A
100
AcDbEntity
  8
ZISSEN1
100
AcDbLine
 10
-1501.0
 20
1725.999919565673
 30
0.0
 11
-1501.0
 21
1725.199919565673
 31
0.0
  0
LINE
  5
14D1B
330
1A
100
AcDbEntity
  8
ZISSEN1
100
AcDbLine
 10
-1546.000059612435
 20
1720.499919565671
 30
0.0
 11
-1549.000059612435
 21
1720.499919565671
 31
0.0
  0
LINE
  5
14D1C
330
1A
100
AcDbEntity
  8
ZISSEN1
100
AcDbLine
 10
-1549.000059612435
 20
1718.899919565672
 30
0.0
 11
-1549.000059612435
 21
1720.499919565671
 31
0.0
  0
LINE
  5
14D1D
330
1A
100
AcDbEntity
  8
ZISSEN1
100
AcDbLine
 10
-1546.000059612435
 20
1718.899919565672
 30
0.0
 11
-1546.000059612435
 21
1720.499919565671
 31
0.0
  0
LINE
  5
14D1E
330
1A
100
AcDbEntity
  8
ZISSEN1
100
AcDbLine
 10
-1546.000059612435
 20
1719.999919565671
 30
0.0
 11
-1549.000059612435
 21
1719.999919565671
 31
0.0
  0
LINE
  5
14D1F
330
1A
100
AcDbEntity
  8
ZISSEN1
100
AcDbLine
 10
-1549.000059612435
 20
1718.899919565672
 30
0.0
 11
-1595.499893094056
 21
1718.899919565672
 31
0.0
  0
LINE
  5
14D20
330
1A
100
AcDbEntity
  8
ZISSEN1
100
AcDbLine
 10
-1503.00011922487
 20
1718.399919565672
 30
0.0
 11
-1503.00011922487
 21
1718.89991956567
 31
0.0
  0
LINE
  5
14D21
330
1A
100
AcDbEntity
  8
ZISSEN1
100
AcDbLine
 10
-1502.000119224871
 20
1718.39991956567
 30
0.0
 11
-1502.000119224871
 21
1718.89991956567
 31
0.0
  0
LINE
  5
14D23
330
1A
100
AcDbEntity
  8
ZISSEN1
100
AcDbLine
 10
-1499.5
 20
1718.89991956567
 30
0.0
 11
-1546.000059612435
 21
1718.899919565672
 31
0.0
  0
LINE
  5
14D24
330
1A
100
AcDbEntity
  8
ZISSEN1
100
AcDbLine
 10
-1501.0
 20
1725.499919565673
 30
0.0
 11
-1594.0
 21
1725.499919565674
 31
0.0
  0
LINE
  5
14D26
330
1A
100
AcDbEntity
  8
KAKURESEN1
100
AcDbLine
 10
-1499.5
 20
1721.999919565674
 30
0.0
 11
-1500.299999999999
 21
1721.999919565674
 31
0.0
  0
LINE
  5
14D27
330
1A
100
AcDbEntity
  8
ZISSEN1
100
AcDbLine
 10
-1594.699893094057
 20
1709.399919565667
 30
0.0
 11
-1594.699893094057
 21
1718.899919565672
 31
0.0
  0
LINE
  5
14D28
330
1A
100
AcDbEntity
  8
ZISSEN1
  6
CONTINUOUS
100
AcDbLine
 10
-1500.299999999999
 20
1709.399919565667
 30
0.0
 11
-1500.299999999999
 21
1718.89991956567
 31
0.0
  0
LINE
  5
14D29
330
1A
100
AcDbEntity
  8
ZISSEN1
100
AcDbLine
 10
-1499.5
 20
1699.79991956567
 30
0.0
 11
-1499.5
 21
1698.999919565669
 31
0.0
  0
LINE
  5
14D2A
330
1A
100
AcDbEntity
  8
ZISSEN1
100
AcDbLine
 10
-1499.5
 20
1699.799919565668
 30
0.0
 11
-1499.5
 21
1698.999919565669
 31
0.0
  0
LINE
  5
14D2B
330
1A
100
AcDbEntity
  8
ZISSEN1
100
AcDbLine
 10
-1500.299999999999
 20
1699.799919565668
 30
0.0
 11
-1499.5
 21
1699.799919565668
 31
0.0
  0
LINE
  5
14D2C
330
1A
100
AcDbEntity
  8
ZISSEN1
100
AcDbLine
 10
-1500.299999999999
 20
1699.799919565668
 30
0.0
 11
-1500.299999999999
 21
1701.799919565668
 31
0.0
  0
LINE
  5
14D2D
330
1A
100
AcDbEntity
  8
ZISSEN1
100
AcDbLine
 10
-1500.299999999999
 20
1701.799919565668
 30
0.0
 11
-1499.5
 21
1701.799919565668
 31
0.0
  0
LINE
  5
14D2E
330
1A
100
AcDbEntity
  8
ZISSEN1
100
AcDbLine
 10
-1499.5
 20
1699.79991956567
 30
0.0
 11
-1499.5
 21
1698.999919565671
 31
0.0
  0
LINE
  5
14D2F
330
1A
100
AcDbEntity
  8
ZISSEN1
100
AcDbLine
 10
-1500.299999999999
 20
1699.799919565668
 30
0.0
 11
-1499.5
 21
1699.79991956567
 31
0.0
  0
LINE
  5
14D30
330
1A
100
AcDbEntity
  8
ZISSEN1
  6
CONTINUOUS
100
AcDbLine
 10
-1499.500053452971
 20
1721.999919565674
 30
0.0
 11
-1499.5
 21
1701.800297540754
 31
0.0
  0
LINE
  5
14D32
330
1A
100
AcDbEntity
  8
ZISSEN1
100
AcDbLine
 10
-1499.5
 20
1698.999919565669
 30
0.0
 11
-1508.099999999998
 21
1698.999919565671
 31
0.0
  0
LINE
  5
14D33
330
1A
100
AcDbEntity
  8
ZISSEN1
100
AcDbLine
 10
-1507.599999999998
 20
1699.799919565668
 30
0.0
 11
-1508.099999999998
 21
1699.799919565668
 31
0.0
  0
LINE
  5
14D35
330
1A
100
AcDbEntity
  8
ZISSEN1
100
AcDbLine
 10
-1507.599999999998
 20
1699.000297540758
 30
0.0
 11
-1507.599999999998
 21
1705.29991956567
 31
0.0
  0
LINE
  5
14D36
330
1A
100
AcDbEntity
  8
ZISSEN1
100
AcDbLine
 10
-1507.599999999998
 20
1705.29991956567
 30
0.0
 11
-1518.499999999998
 21
1705.29991956567
 31
0.0
  0
LINE
  5
14D37
330
1A
100
AcDbEntity
  8
ZISSEN1
100
AcDbLine
 10
-1518.499999999998
 20
1705.29991956567
 30
0.0
 11
-1518.499999999998
 21
1699.000297540758
 31
0.0
  0
LINE
  5
14D38
330
1A
100
AcDbEntity
  8
ZISSEN1
100
AcDbLine
 10
-1507.599999999998
 20
1704.79991956567
 30
0.0
 11
-1518.499999999998
 21
1704.79991956567
 31
0.0
  0
LINE
  5
14D39
330
1A
100
AcDbEntity
  8
ZISSEN1
100
AcDbLine
 10
-1517.999999999998
 20
1699.799919565668
 30
0.0
 11
-1518.499999999998
 21
1699.799919565668
 31
0.0
  0
LINE
  5
14D3A
330
1A
100
AcDbEntity
  8
ZISSEN1
100
AcDbLine
 10
-1517.999999999998
 20
1698.999919565669
 30
0.0
 11
-1546.604124990724
 21
1698.999919565671
 31
0.0
  0
LINE
  5
14D3B
330
1A
100
AcDbEntity
  8
ZISSEN1
100
AcDbLine
 10
-1546.104124990725
 20
1699.799919565668
 30
0.0
 11
-1546.604124990724
 21
1699.799919565668
 31
0.0
  0
LINE
  5
14D3D
330
1A
100
AcDbEntity
  8
ZISSEN1
100
AcDbLine
 10
-1546.104124990725
 20
1698.999919565671
 30
0.0
 11
-1546.104124990725
 21
1706.89991956567
 31
0.0
  0
LINE
  5
14D3E
330
1A
100
AcDbEntity
  8
ZISSEN1
  6
BYBLOCK
100
AcDbLine
 10
-1548.804124990725
 20
1704.79991956567
 30
0.0
 11
-1546.104124990725
 21
1704.79991956567
 31
0.0
  0
LINE
  5
14D3F
330
1A
100
AcDbEntity
  8
ZISSEN1
100
AcDbLine
 10
-1567.104121017326
 20
1702.699919565669
 30
0.0
 11
-1567.104121017326
 21
1706.89991956567
 31
0.0
  0
LINE
  5
14D40
330
1A
100
AcDbEntity
  8
ZISSEN1
100
AcDbLine
 10
-1567.104121017326
 20
1706.39991956567
 30
0.0
 11
-1546.104124990725
 21
1706.39991956567
 31
0.0
  0
LINE
  5
14D41
330
1A
100
AcDbEntity
  8
ZISSEN1
100
AcDbLine
 10
-1567.104121017326
 20
1706.89991956567
 30
0.0
 11
-1546.104124990725
 21
1706.89991956567
 31
0.0
  0
LINE
  5
14D42
330
1A
100
AcDbEntity
  8
ZISSEN1
100
AcDbLine
 10
-1567.104121017326
 20
1702.699919565669
 30
0.0
 11
-1562.904124990726
 21
1702.699919565669
 31
0.0
  0
LINE
  5
14D43
330
1A
100
AcDbEntity
  8
ZISSEN1
100
AcDbLine
 10
-1562.904124990726
 20
1698.999919565669
 30
0.0
 11
-1562.904124990726
 21
1702.699919565669
 31
0.0
  0
LINE
  5
14D44
330
1A
100
AcDbEntity
  8
ZISSEN1
100
AcDbLine
 10
-1562.404124990726
 20
1698.999905540065
 30
0.0
 11
-1599.0
 21
1698.997623408937
 31
0.0
  0
LINE
  5
14D45
330
1A
100
AcDbEntity
  8
ZISSEN1
  6
CONTINUOUS
100
AcDbLine
 10
-1499.5
 20
1709.399919565667
 30
0.0
 11
-1595.499893094056
 21
1709.399919565667
 31
0.0
  0
LINE
  5
14D47
330
1A
100
AcDbEntity
  8
ZISSEN1
100
AcDbLine
 10
-1595.499893094056
 20
1698.999919565669
 30
0.0
 11
-1595.499893094056
 21
1699.79991956567
 31
0.0
  0
LINE
  5
14D48
330
1A
100
AcDbEntity
  8
ZISSEN1
100
AcDbLine
 10
-1594.699893094057
 20
1701.79991956567
 30
0.0
 11
-1595.499893094056
 21
1701.79991956567
 31
0.0
  0
LINE
  5
14D49
330
1A
100
AcDbEntity
  8
ZISSEN1
100
AcDbLine
 10
-1594.699893094057
 20
1699.79991956567
 30
0.0
 11
-1594.699893094057
 21
1701.79991956567
 31
0.0
  0
LINE
  5
14D4A
330
1A
100
AcDbEntity
  8
ZISSEN1
100
AcDbLine
 10
-1594.699893094057
 20
1699.79991956567
 30
0.0
 11
-1595.499893094056
 21
1699.79991956567
 31
0.0
  0
LINE
  5
14D4C
330
1A
100
AcDbEntity
  8
ZISSEN1
  6
CONTINUOUS
100
AcDbLine
 10
-1595.499893094056
 20
1701.800297540754
 30
0.0
 11
-1595.500119224871
 21
1721.999919565674
 31
0.0
  0
LINE
  5
14D4D
330
1A
100
AcDbEntity
  8
ZISSEN1
100
AcDbLine
 10
-1590.759679999999
 20
1726.499919565671
 30
0.0
 11
-1590.759679999999
 21
1725.999919565674
 31
0.0
  0
LINE
  5
14D4F
330
1A
100
AcDbEntity
  8
ZISSEN1
100
AcDbLine
 10
-1508.259679999999
 20
1725.999919565673
 30
0.0
 11
-1508.259679999999
 21
1726.499919565671
 31
0.0
  0
LINE
  5
14D51
330
1A
100
AcDbEntity
  8
ZISSEN1
100
AcDbLine
 10
-1546.499999999999
 20
1718.399919565672
 30
0.0
 11
-1546.499999999999
 21
1719.999919565671
 31
0.0
  0
LINE
  5
14D52
330
1A
100
AcDbEntity
  8
ZISSEN1
100
AcDbLine
 10
-1548.5
 20
1718.399919565672
 30
0.0
 11
-1548.5
 21
1719.999919565671
 31
0.0
  0
LINE
  5
14D53
330
1A
100
AcDbEntity
  8
ZISSEN1
100
AcDbLine
 10
-1545.4800116161
 20
1709.899919565669
 30
0.0
 11
-1545.4800116161
 21
1709.399919565667
 31
0.0
  0
LINE
  5
14D54
330
1A
100
AcDbEntity
  8
ZISSEN1
100
AcDbLine
 10
-1549.520011616099
 20
1709.89991956567
 30
0.0
 11
-1549.520011616099
 21
1709.399919565667
 31
0.0
  0
LINE
  5
14D58
330
1A
100
AcDbEntity
  8
ZISSEN1
  6
BYBLOCK
100
AcDbLine
 10
-1548.904124990726
 20
1704.79991956567
 30
0.0
 11
-1567.104121017326
 21
1704.79991956567
 31
0.0
  0
LINE
  5
14D5B
330
1A
100
AcDbEntity
  8
ZISSEN1
  6
BYBLOCK
100
AcDbLine
 10
-1554.128380316791
 20
1704.79991956567
 30
0.0
 11
-1555.928380316792
 21
1704.79991956567
 31
0.0
  0
LINE
  5
14D5D
330
1A
100
AcDbEntity
  8
ZISSEN1
  6
BYBLOCK
100
AcDbLine
 10
-1562.404124990726
 20
1703.499919565671
 30
0.0
 11
-1562.404124990726
 21
1704.79991956567
 31
0.0
  0
LINE
  5
14D93
330
1A
100
AcDbEntity
  8
実践
100
AcDbLine
 10
-1546.604124990724
 20
1704.79991956567
 30
0.0
 11
-1546.604124990724
 21
1696.999919565669
 31
0.0
  0
LINE
  5
14DBC
330
1A
100
AcDbEntity
  8
実践
100
AcDbLine
 10
-1562.404124990726
 20
1703.499919565671
 30
0.0
 11
-1562.404124990726
 21
1697.099919565669
 31
0.0
  0
LINE
  5
14DBD
330
1A
100
AcDbEntity
  8
実践
100
AcDbLine
 10
-1562.404124990726
 20
1696.999919565669
 30
0.0
 11
-1562.404124990726
 21
1703.499919565671
 31
0.0
  0
LINE
  5
14DC3
330
1A
100
AcDbEntity
  8
実践
100
AcDbLine
 10
-1546.604124990724
 20
1696.999919565669
 30
0.0
 11
-1562.404124990726
 21
1696.999919565669
 31
0.0
  0
LINE
  5
14DCC
330
1A
100
AcDbEntity
  8
ZISSEN1
  6
BYBLOCK
100
AcDbLine
 10
-1548.804124990725
 20
1704.79991956567
 30
0.0
 11
-1546.604124990724
 21
1704.79991956567
 31
0.0
  0
LINE
  5
14DCD
330
1A
100
AcDbEntity
  8
ZISSEN1
100
AcDbLine
 10
-1501.0
 20
1725.999919565673
 30
0.0
 11
-1594.0
 21
1725.999919565674
 31
0.0
  0
LINE
  5
14DCF
330
1A
100
AcDbEntity
  8
ZISSEN1
100
AcDbLine
 10
-1517.999999999998
 20
1704.79991956567
 30
0.0
 11
-1517.999999999998
 21
1698.099919565669
 31
0.0
  0
LINE
  5
14DD6
330
1A
100
AcDbEntity
  8
ZISSEN1
100
AcDbLine
 10
-1517.999999999998
 20
1698.099919565669
 30
0.0
 11
-1508.099999999998
 21
1698.099919565669
 31
0.0
  0
LINE
  5
14DDF
330
1A
100
AcDbEntity
  8
ZISSEN1
100
AcDbLine
 10
-1508.099999999998
 20
1698.099919565669
 30
0.0
 11
-1508.099999999998
 21
1704.79991956567
 31
0.0
  0
LINE
  5
14EA4
330
1A
100
AcDbEntity
  8
ZISSEN1
  6
CONTINUOUS
100
AcDbLine
 10
-1500.910531487265
 20
1709.899919565669
 30
0.0
 11
-1545.600027487267
 21
1709.899919565669
 31
0.0
  0
LINE
  5
14EA5
330
1A
100
AcDbEntity
  8
ZISSEN1
  6
CONTINUOUS
100
AcDbLine
 10
-1500.910531487265
 20
1718.09990056567
 30
0.0
 11
-1545.600027487267
 21
1718.09990056567
 31
0.0
  0
LINE
  5
14EBB
330
1A
100
AcDbEntity
  8
ZISSEN1
  6
CONTINUOUS
100
AcDbLine
 10
-1500.910531487265
 20
1709.899919565669
 30
0.0
 11
-1500.910531487265
 21
1718.09990056567
 31
0.0
  0
LINE
  5
14EC3
330
1A
100
AcDbEntity
  8
ZISSEN1
  6
CONTINUOUS
100
AcDbLine
 10
-1545.600027487267
 20
1709.899919565669
 30
0.0
 11
-1545.600027487267
 21
1718.09990056567
 31
0.0
  0
LINE
  5
14F3B
330
1A
100
AcDbEntity
  8
ZISSEN1
100
AcDbLine
 10
-1503.479999999999
 20
1709.89991956567
 30
0.0
 11
-1503.479999999999
 21
1709.399919565667
 31
0.0
  0
LINE
  5
14F3D
330
1A
100
AcDbEntity
  8
ZISSEN1
100
AcDbLine
 10
-1592.999893094056
 20
1718.399919565672
 30
0.0
 11
-1592.999893094056
 21
1718.899919565672
 31
0.0
  0
LINE
  5
14F3E
330
1A
100
AcDbEntity
  8
ZISSEN1
100
AcDbLine
 10
-1591.999893094056
 20
1718.399919565672
 30
0.0
 11
-1591.999893094056
 21
1718.899919565672
 31
0.0
  0
LINE
  5
14F3F
330
1A
100
AcDbEntity
  8
ZISSEN1
100
AcDbLine
 10
-1547.942195445983
 20
1704.79991956567
 30
0.0
 11
-1556.042195445983
 21
1704.79991956567
 31
0.0
  0
LINE
  5
14F40
330
1A
100
AcDbEntity
  8
ZISSEN1
100
AcDbLine
 10
-1502.000119224871
 20
1718.39991956567
 30
0.0
 11
-1592.999893094056
 21
1718.399919565672
 31
0.0
  0
LINE
  5
14FB8
330
1A
100
AcDbEntity
  8
ZISSEN1
  6
CONTINUOUS
100
AcDbLine
 10
-1594.089468512735
 20
1709.89991956567
 30
0.0
 11
-1594.089468512735
 21
1718.09990056567
 31
0.0
  0
LINE
  5
14FC0
330
1A
100
AcDbEntity
  8
ZISSEN1
  6
CONTINUOUS
100
AcDbLine
 10
-1549.399972512734
 20
1709.89991956567
 30
0.0
 11
-1549.399972512734
 21
1718.09990056567
 31
0.0
  0
LINE
  5
1509F
330
1A
100
AcDbEntity
  8
ZISSEN1
100
AcDbLine
 10
-1590.759679999999
 20
1726.499919565671
 30
0.0
 11
-1590.759679999999
 21
1726.769349565673
 31
0.0
  0
LINE
  5
150A0
330
1A
100
AcDbEntity
  8
ZISSEN1
100
AcDbLine
 10
-1508.259679999999
 20
1726.499919565671
 30
0.0
 11
-1508.259679999999
 21
1726.769349565671
 31
0.0
  0
LINE
  5
150A5
330
1A
100
AcDbEntity
  8
ZISSEN1
100
AcDbLine
 10
-1594.0
 20
1725.200038790544
 30
0.0
 11
-1594.0
 21
1725.999919565674
 31
0.0
  0
LINE
  5
150B9
330
1A
100
AcDbEntity
  8
ZISSEN1
100
AcDbLine
 10
-1493.0
 20
1710.7
 30
0.0
 11
-1492.0
 21
1709.7
 31
0.0
  0
LINE
  5
150BD
330
1A
100
AcDbEntity
  8
ZISSEN1
100
AcDbLine
 10
-1601.0
 20
1710.0
 30
0.0
 11
-1601.0
 21
1706.749999999999
 31
0.0
  0
LINE
  5
150BE
330
1A
100
AcDbEntity
  8
ZISSEN1
100
AcDbLine
 10
-1601.0
 20
1700.0
 30
0.0
 11
-1601.0
 21
1703.249999999999
 31
0.0
  0
LINE
  5
150BF
330
1A
100
AcDbEntity
  8
ZISSEN1
100
AcDbLine
 10
-1600.0
 20
1699.0
 30
0.0
 11
-1601.0
 21
1700.0
 31
0.0
  0
TEXT
  5
150D3
330
1A
100
AcDbEntity
  8
ZISSEN1
  6
BYBLOCK
100
AcDbText
 10
-1626.322931859857
 20
1695.870013822415
 30
0.0
 40
3.0
  1
2-M3
 72
     1
 11
-1620.822931859857
 21
1697.370013822415
 31
0.0
100
AcDbText
 73
     2
  0
LINE
  5
150D4
330
1A
100
AcDbEntity
  8
ZISSEN1
100
AcDbLine
 10
-1600.0
 20
1711.0
 30
0.0
 11
-1601.0
 21
1710.0
 31
0.0
  0
LINE
  5
150D5
330
1A
100
AcDbEntity
  8
ZISSEN1
100
AcDbLine
 10
-1562.404124990726
 20
1706.39991956567
 30
0.0
 11
-1562.404124990726
 21
1704.79991956567
 31
0.0
  0
LINE
  5
150D6
330
1A
100
AcDbEntity
  8
ZISSEN1
100
AcDbLine
 10
-1561.404124990725
 20
1706.39991956567
 30
0.0
 11
-1561.404124990725
 21
1704.79991956567
 31
0.0
  0
LINE
  5
150D7
330
1A
100
AcDbEntity
  8
ZISSEN1
100
AcDbLine
 10
-1546.604124990724
 20
1706.39991956567
 30
0.0
 11
-1546.604124990724
 21
1704.79991956567
 31
0.0
  0
LINE
  5
150D8
330
1A
100
AcDbEntity
  8
ZISSEN1
100
AcDbLine
 10
-1547.604124990725
 20
1706.39991956567
 30
0.0
 11
-1547.604124990725
 21
1704.79991956567
 31
0.0
  0
LINE
  5
150D9
330
1A
100
AcDbEntity
  8
ZISSEN1
100
AcDbLine
 10
-1566.053521017325
 20
1703.699919565669
 30
0.0
 11
-1566.053521017325
 21
1704.79991956567
 31
0.0
  0
LINE
  5
150DB
330
1A
100
AcDbEntity
  8
ZISSEN1
100
AcDbLine
 10
-1564.803521017325
 20
1704.79991956567
 30
0.0
 11
-1564.803521017325
 21
1703.699919565669
 31
0.0
  0
LINE
  5
150DC
330
1A
100
AcDbEntity
  8
ZISSEN1
100
AcDbLine
 10
-1564.803521017325
 20
1703.699919565669
 30
0.0
 11
-1566.053521017325
 21
1703.699919565669
 31
0.0
  0
LINE
  5
150DF
330
1A
100
AcDbEntity
  8
ZISSEN1
 48
0.4
100
AcDbLine
 10
-1496.597421345613
 20
1712.549919565672
 30
0.0
 11
-1497.497421345615
 21
1712.549919565672
 31
0.0
  0
LINE
  5
150E0
330
1A
100
AcDbEntity
  8
ZISSEN1
 48
0.4
100
AcDbLine
 10
-1496.597421345613
 20
1718.849919565671
 30
0.0
 11
-1497.497421345615
 21
1718.849919565671
 31
0.0
  0
ELLIPSE
  5
150E1
330
1A
100
AcDbEntity
  8
ZISSEN1
 48
0.4
100
AcDbEllipse
 10
-1496.597421345613
 20
1715.699919565673
 30
0.0
 11
-0.0000000000000019
 21
-3.149999999999636
 31
0.0
210
0.0
220
0.0
230
-1.0
 40
0.3174603174603541
 41
3.141592653589793
 42
6.283185307179586
  0
LINE
  5
150E2
330
1A
100
AcDbEntity
  8
ZISSEN1
100
AcDbLine
 10
-1501.299999999999
 20
1725.499919565673
 30
0.0
 11
-1500.299999999999
 21
1724.499919565672
 31
0.0
  0
LINE
  5
150E3
330
1A
100
AcDbEntity
  8
ZISSEN1
100
AcDbLine
 10
-1500.300053452971
 20
1721.999919565674
 30
0.0
 11
-1500.299999999999
 21
1724.499919565672
 31
0.0
  0
LINE
  5
150E4
330
1A
100
AcDbEntity
  8
ZISSEN1
100
AcDbLine
 10
-1500.299999999999
 20
1721.999919565674
 30
0.0
 11
-1497.500106905943
 21
1721.999919565674
 31
0.0
  0
LINE
  5
150E5
330
1A
100
AcDbEntity
  8
ZISSEN1
100
AcDbLine
 10
-1593.700119224871
 20
1725.499919565673
 30
0.0
 11
-1594.700119224872
 21
1724.499919565672
 31
0.0
  0
LINE
  5
150E6
330
1A
100
AcDbEntity
  8
ZISSEN1
100
AcDbLine
 10
-1594.7000657719
 20
1721.999919565674
 30
0.0
 11
-1594.700119224872
 21
1724.499919565672
 31
0.0
  0
LINE
  5
150E7
330
1A
100
AcDbEntity
  8
ZISSEN1
100
AcDbLine
 10
-1595.500119224871
 20
1721.999919565674
 30
0.0
 11
-1594.700119224872
 21
1721.999919565674
 31
0.0
  0
LINE
  5
150E8
330
1A
100
AcDbEntity
  8
ZISSEN1
100
AcDbLine
 10
-1595.499893094056
 20
1723.999919565674
 30
0.0
 11
-1594.700108534278
 21
1723.999919565674
 31
0.0
  0
LINE
  5
150EC
330
1A
100
AcDbEntity
  8
ZISSEN1
100
AcDbLine
 10
-1435.0
 20
1602.0
 30
0.0
 11
-1437.0
 21
1602.0
 31
0.0
  0
LINE
  5
150ED
330
1A
100
AcDbEntity
  8
ZISSEN1
100
AcDbLine
 10
-1447.100538843748
 20
1600.0
 30
0.0
 11
-1447.100538843744
 21
1610.0
 31
0.0
  0
LINE
  5
150EE
330
1A
100
AcDbEntity
  8
ZISSEN1
100
AcDbLine
 10
-1446.100538843744
 20
1611.0
 30
0.0
 11
-1447.100538843744
 21
1610.0
 31
0.0
  0
LINE
  5
150EF
330
1A
100
AcDbEntity
  8
ZISSEN1
100
AcDbLine
 10
-1438.000538843749
 20
1611.0
 30
0.0
 11
-1446.100538843744
 21
1611.0
 31
0.0
  0
LINE
  5
150F0
330
1A
100
AcDbEntity
  8
ZISSEN1
100
AcDbLine
 10
-1438.000538843749
 20
1611.0
 30
0.0
 11
-1437.000538843749
 21
1610.0
 31
0.0
  0
LINE
  5
150F1
330
1A
100
AcDbEntity
  8
ZISSEN1
100
AcDbLine
 10
-1457.700160868662
 20
1623.0
 30
0.0
 11
-1456.200160868658
 21
1623.0
 31
0.0
  0
LINE
  5
150F2
330
1A
100
AcDbEntity
  8
ZISSEN1
100
AcDbLine
 10
-1458.700160868662
 20
1614.0
 30
0.0
 11
-1457.700160868662
 21
1613.0
 31
0.0
  0
LINE
  5
1514B
330
1A
100
AcDbEntity
  8
ZISSEN1
100
AcDbLine
 10
-1433.500000000002
 20
1660.0
 30
0.0
 11
-1433.500000000002
 21
1659.2
 31
0.0
  0
LINE
  5
1514C
330
1A
100
AcDbEntity
  8
ZISSEN1
100
AcDbLine
 10
-1433.500000000002
 20
1659.2
 30
0.0
 11
-1437.0
 21
1659.2
 31
0.0
  0
LINE
  5
1514D
330
1A
100
AcDbEntity
  8
ZISSEN1
100
AcDbLine
 10
-1434.500000000001
 20
1660.0
 30
0.0
 11
-1434.500000000001
 21
1659.2
 31
0.0
  0
LINE
  5
1514F
330
1A
100
AcDbEntity
  8
ZISSEN1
100
AcDbLine
 10
-1435.0
 20
1600.0
 30
0.0
 11
-1460.0
 21
1600.0
 31
0.0
  0
LINE
  5
15150
330
1A
100
AcDbEntity
  8
ZISSEN1
100
AcDbLine
 10
-1456.75
 20
1603.5
 30
0.0
 11
-1455.300080434332
 21
1603.5
 31
0.0
  0
LINE
  5
15152
330
1A
100
AcDbEntity
  8
ZISSEN1
100
AcDbLine
 10
-1440.609994000024
 20
1650.900000000001
 30
0.0
 11
-1440.609994000326
 21
1657.370000999999
 31
0.0
  0
LINE
  5
15155
330
1A
100
AcDbEntity
  8
ZISSEN1
100
AcDbLine
 10
-1449.399510999999
 20
1650.900000000001
 30
0.0
 11
-1449.399510999999
 21
1660.0
 31
0.0
  0
LINE
  5
15156
330
1A
100
AcDbEntity
  8
ZISSEN1
100
AcDbLine
 10
-1440.099654554127
 20
1650.900000000001
 30
0.0
 11
-1449.399510999999
 21
1650.900000000001
 31
0.0
  0
LINE
  5
15157
330
1A
100
AcDbEntity
  8
ZISSEN1
100
AcDbLine
 10
-1440.099654554127
 20
1660.0
 30
0.0
 11
-1440.099654554127
 21
1650.900000000001
 31
0.0
  0
LINE
  5
15158
330
1A
100
AcDbEntity
  8
ZISSEN1
100
AcDbLine
 10
-1433.500000000002
 20
1660.0
 30
0.0
 11
-1440.099654554127
 21
1660.0
 31
0.0
  0
LINE
  5
1515A
330
1A
100
AcDbEntity
  8
ZISSEN1
100
AcDbLine
 10
-1456.200000000004
 20
1655.300000000003
 30
0.0
 11
-1459.200160868658
 21
1655.300000000003
 31
0.0
  0
LINE
  5
1515B
330
1A
100
AcDbEntity
  8
ZISSEN1
100
AcDbLine
 10
-1462.000000000005
 20
1652.45
 30
0.0
 11
-1462.000000000005
 21
1663.95
 31
0.0
  0
LINE
  5
1515C
330
1A
100
AcDbEntity
  8
ZISSEN1
100
AcDbLine
 10
-1456.200160868658
 20
1651.349999999998
 30
0.0
 11
-1456.500000000003
 21
1651.349999999998
 31
0.0
  0
LINE
  5
1515E
330
1A
100
AcDbEntity
  8
ZISSEN1
100
AcDbLine
 10
-1452.25
 20
1603.5
 30
0.0
 11
-1455.300080434332
 21
1603.5
 31
0.0
  0
ARC
  5
15161
330
1A
100
AcDbEntity
  8
ZISSEN1
100
AcDbCircle
 10
-1458.25
 20
1603.499999999998
 30
0.0
 40
1.500000000000081
100
AcDbArc
 50
309.2925102676986
 51
0.0
  0
ARC
  5
15162
330
1A
100
AcDbEntity
  8
ZISSEN1
100
AcDbCircle
 10
-1458.25
 20
1603.499999999998
 30
0.0
 40
1.5
100
AcDbArc
 50
270.0
 51
309.2925102676986
  0
ARC
  5
15163
330
1A
100
AcDbEntity
  8
ZISSEN1
100
AcDbCircle
 10
-1450.75
 20
1603.499999999998
 30
0.0
 40
1.5
100
AcDbArc
 50
180.0
 51
270.0
  0
LINE
  5
15165
330
1A
100
AcDbEntity
  8
ZISSEN1
100
AcDbLine
 10
-1451.300000000001
 20
1600.0
 30
0.0
 11
-1457.7
 21
1600.0
 31
0.0
  0
LINE
  5
15166
330
1A
100
AcDbEntity
  8
ZISSEN1
100
AcDbLine
 10
-1457.7
 20
1600.0
 30
0.0
 11
-1451.300000000001
 21
1600.0
 31
0.0
  0
LINE
  5
15167
330
1A
100
AcDbEntity
  8
ZISSEN1
100
AcDbLine
 10
-1457.7
 20
1599.299999999999
 30
0.0
 11
-1451.300000000001
 21
1599.299999999999
 31
0.0
  0
LINE
  5
15168
330
1A
100
AcDbEntity
  8
ZISSEN1
100
AcDbLine
 10
-1457.7
 20
1594.0
 30
0.0
 11
-1451.300000000001
 21
1594.0
 31
0.0
  0
LINE
  5
15169
330
1A
100
AcDbEntity
  8
ZISSEN1
100
AcDbLine
 10
-1457.7
 20
1589.0
 30
0.0
 11
-1451.300000000001
 21
1589.0
 31
0.0
  0
LINE
  5
1516A
330
1A
100
AcDbEntity
  8
ZISSEN1
100
AcDbLine
 10
-1457.7
 20
1589.0
 30
0.0
 11
-1451.300000000001
 21
1589.0
 31
0.0
  0
LINE
  5
1516B
330
1A
100
AcDbEntity
  8
ZISSEN1
100
AcDbLine
 10
-1451.300000000001
 20
1589.0
 30
0.0
 11
-1451.300000000001
 21
1600.0
 31
0.0
  0
LINE
  5
1516C
330
1A
100
AcDbEntity
  8
ZISSEN1
100
AcDbLine
 10
-1457.7
 20
1600.0
 30
0.0
 11
-1457.7
 21
1589.0
 31
0.0
  0
LINE
  5
1516D
330
1A
100
AcDbEntity
  8
出力ｷﾊ_ﾝ
100
AcDbLine
 10
-1451.323070282051
 20
1600.0
 30
0.0
 11
-1453.073070282051
 21
1600.0
 31
0.0
  0
LINE
  5
1516E
330
1A
100
AcDbEntity
  8
ZISSEN1
100
AcDbLine
 10
-1460.000160868661
 20
1652.45
 30
0.0
 11
-1462.000000000005
 21
1652.45
 31
0.0
  0
LINE
  5
1516F
330
1A
100
AcDbEntity
  8
ZISSEN1
100
AcDbLine
 10
-1460.000160868659
 20
1655.300000000003
 30
0.0
 11
-1460.900000000005
 21
1655.300000000003
 31
0.0
  0
LINE
  5
15170
330
1A
100
AcDbEntity
  8
ZISSEN1
100
AcDbLine
 10
-1456.200160868658
 20
1659.2
 30
0.0
 11
-1459.200160868662
 21
1659.2
 31
0.0
  0
LINE
  5
15173
330
1A
100
AcDbEntity
  8
ZISSEN1
100
AcDbLine
 10
-1454.200000000004
 20
1613.0
 30
0.0
 11
-1454.200000000004
 21
1603.5
 31
0.0
  0
LINE
  5
15174
330
1A
100
AcDbEntity
  8
ZISSEN1
100
AcDbLine
 10
-1448.80016086866
 20
1613.0
 30
0.0
 11
-1457.700160868662
 21
1613.0
 31
0.0
  0
LINE
  5
15175
330
1A
100
AcDbEntity
  8
ZISSEN1
100
AcDbLine
 10
-1448.80016086866
 20
1605.0
 30
0.0
 11
-1448.80016086866
 21
1613.0
 31
0.0
  0
LINE
  5
15176
330
1A
100
AcDbEntity
  8
ZISSEN1
100
AcDbLine
 10
-1447.800160868661
 20
1604.0
 30
0.0
 11
-1448.80016086866
 21
1605.0
 31
0.0
  0
LINE
  5
15177
330
1A
100
AcDbEntity
  8
ZISSEN1
100
AcDbLine
 10
-1456.200160868658
 20
1660.0
 30
0.0
 11
-1456.200160868658
 21
1623.0
 31
0.0
  0
LINE
  5
15178
330
1A
100
AcDbEntity
  8
ZISSEN1
100
AcDbLine
 10
-1448.000160868661
 20
1602.0
 30
0.0
 11
-1448.000160868661
 21
1600.0
 31
0.0
  0
LINE
  5
15179
330
1A
100
AcDbEntity
  8
ZISSEN1
100
AcDbLine
 10
-1449.0
 20
1602.0
 30
0.0
 11
-1449.0
 21
1600.0
 31
0.0
  0
LINE
  5
1517A
330
1A
100
AcDbEntity
  8
ZISSEN1
100
AcDbLine
 10
-1452.25
 20
1602.0
 30
0.0
 11
-1452.25
 21
1600.0
 31
0.0
  0
LINE
  5
1517B
330
1A
100
AcDbEntity
  8
ZISSEN1
100
AcDbLine
 10
-1459.200160868662
 20
1613.0
 30
0.0
 11
-1460.000160868661
 21
1613.0
 31
0.0
  0
LINE
  5
1517C
330
1A
100
AcDbEntity
  8
ZISSEN1
100
AcDbLine
 10
-1459.200160868662
 20
1604.0
 30
0.0
 11
-1460.000160868661
 21
1604.0
 31
0.0
  0
LINE
  5
1517D
330
1A
100
AcDbEntity
  8
ZISSEN1
100
AcDbLine
 10
-1459.200160868662
 20
1660.0
 30
0.0
 11
-1459.200160868662
 21
1604.0
 31
0.0
  0
LINE
  5
1517E
330
1A
100
AcDbEntity
  8
ZISSEN1
100
AcDbLine
 10
-1460.000160868659
 20
1660.0
 30
0.0
 11
-1460.000000000003
 21
1603.75
 31
0.0
  0
LINE
  5
1517F
330
1A
100
AcDbEntity
  8
SOUZOUSEN
  6
PHANTOMX2
100
AcDbLine
 10
-1455.500000000003
 20
1672.049999999999
 30
0.0
 11
-1455.500000000003
 21
1663.95
 31
0.0
  0
LINE
  5
15180
330
1A
100
AcDbEntity
  8
SOUZOUSEN
  6
PHANTOMX2
100
AcDbLine
 10
-1461.900000000005
 20
1672.049999999999
 30
0.0
 11
-1455.500000000003
 21
1672.049999999999
 31
0.0
  0
LINE
  5
15189
330
1A
100
AcDbEntity
  8
ZISSEN1
100
AcDbLine
 10
-1459.200160868658
 20
1652.45
 30
0.0
 11
-1456.500000000003
 21
1652.45
 31
0.0
  0
LINE
  5
1518A
330
1A
100
AcDbEntity
  8
ZISSEN1
100
AcDbLine
 10
-1456.500000000003
 20
1651.349999999998
 30
0.0
 11
-1456.500000000003
 21
1652.45
 31
0.0
  0
LINE
  5
1518E
330
1A
100
AcDbEntity
  8
SOUZOUSEN
  6
PHANTOMX2
100
AcDbLine
 10
-1461.900000000005
 20
1672.049999999999
 30
0.0
 11
-1461.900000000005
 21
1663.95
 31
0.0
  0
LINE
  5
1518F
330
1A
100
AcDbEntity
  8
ZISSEN1
100
AcDbLine
 10
-1435.0
 20
1657.199999999997
 30
0.0
 11
-1433.000000000001
 21
1657.199999999997
 31
0.0
  0
LINE
  5
15190
330
1A
100
AcDbEntity
  8
ZISSEN1
100
AcDbLine
 10
-1435.0
 20
1658.199999999997
 30
0.0
 11
-1433.000000000001
 21
1658.199999999997
 31
0.0
  0
LINE
  5
15191
330
1A
100
AcDbEntity
  8
ZISSEN1
100
AcDbLine
 10
-1435.0
 20
1658.199999999997
 30
0.0
 11
-1435.0
 21
1602.0
 31
0.0
  0
ARC
  5
15192
330
1A
100
AcDbEntity
  8
出力ｷﾊ_ﾝ
100
AcDbCircle
 10
-1435.0
 20
1601.999999999998
 30
0.0
 40
2.0
100
AcDbArc
 50
270.0
 51
0.0
  0
LINE
  5
15193
330
1A
100
AcDbEntity
  8
ZISSEN1
100
AcDbLine
 10
-1433.0
 20
1602.0
 30
0.0
 11
-1433.000000000001
 21
1658.199999999997
 31
0.0
  0
LINE
  5
15194
330
1A
100
AcDbEntity
  8
ZISSEN1
100
AcDbLine
 10
-1435.0
 20
1602.0
 30
0.0
 11
-1435.0
 21
1604.0
 31
0.0
  0
LINE
  5
15195
330
1A
100
AcDbEntity
  8
出力ｷﾊ_ﾝ
100
AcDbLine
 10
-1460.000160868661
 20
1602.0
 30
0.0
 11
-1447.100538843748
 21
1602.0
 31
0.0
  0
LINE
  5
15197
330
1A
100
AcDbEntity
  8
ZISSEN1
100
AcDbLine
 10
-1454.200000000004
 20
1603.5
 30
0.0
 11
-1452.600000000004
 21
1603.5
 31
0.0
  0
LINE
  5
15199
330
1A
100
AcDbEntity
  8
ZISSEN1
100
AcDbLine
 10
-1454.200000000004
 20
1663.95
 30
0.0
 11
-1452.600000000002
 21
1663.95
 31
0.0
  0
LINE
  5
151AA
330
1A
100
AcDbEntity
  8
ZISSEN1
100
AcDbLine
 10
-1454.200000000004
 20
1663.95
 30
0.0
 11
-1452.600000000002
 21
1663.95
 31
0.0
  0
LINE
  5
151AB
330
1A
100
AcDbEntity
  8
ZISSEN1
100
AcDbLine
 10
-1452.600000000002
 20
1606.116450402089
 30
0.0
 11
-1452.600000000002
 21
1613.116450402089
 31
0.0
  0
LINE
  5
151AE
330
1A
100
AcDbEntity
  8
ZISSEN1
100
AcDbLine
 10
-1454.200000000004
 20
1604.5
 30
0.0
 11
-1452.600000000004
 21
1604.5
 31
0.0
  0
LINE
  5
151B0
330
1A
100
AcDbEntity
  8
ZISSEN1
100
AcDbLine
 10
-1454.200000000004
 20
1662.95
 30
0.0
 11
-1452.600000000002
 21
1662.95
 31
0.0
  0
LINE
  5
151B1
330
1A
100
AcDbEntity
  8
ZISSEN1
100
AcDbLine
 10
-1454.200000000004
 20
1662.95
 30
0.0
 11
-1452.600000000002
 21
1662.95
 31
0.0
  0
LINE
  5
151B2
330
1A
100
AcDbEntity
  8
0
  6
CONTINUOUS
 62
     7
100
AcDbLine
 10
-1440.909997000002
 20
1673.910497999997
 30
0.0
 11
-1440.909997000002
 21
1650.900000000001
 31
0.0
  0
LINE
  5
151DE
330
1A
100
AcDbEntity
  8
ZISSEN1
  6
CONTINUOUS
 62
     7
100
AcDbLine
 10
-1440.609994000002
 20
1655.429999
 30
0.0
 11
-1440.909997000002
 21
1655.429999
 31
0.0
  0
LINE
  5
151E1
330
1A
100
AcDbEntity
  8
0
  6
CONTINUOUS
 62
     7
100
AcDbLine
 10
-1440.609994000002
 20
1660.0
 30
0.0
 11
-1440.609994000002
 21
1660.429999
 31
0.0
  0
LINE
  5
151EF
330
1A
100
AcDbEntity
  8
ZISSEN1
  6
CONTINUOUS
 62
     7
100
AcDbLine
 10
-1440.609994000002
 20
1657.370000999999
 30
0.0
 11
-1440.909997000002
 21
1657.370000999999
 31
0.0
  0
LINE
  5
151FA
330
1A
100
AcDbEntity
  8
0
  6
CONTINUOUS
 62
     7
100
AcDbLine
 10
-1449.109495000004
 20
1650.900000000001
 30
0.0
 11
-1449.109495000004
 21
1673.910497999997
 31
0.0
  0
LINE
  5
15203
330
1A
100
AcDbEntity
  8
0
  6
CONTINUOUS
 62
     7
100
AcDbLine
 10
-1449.109495000004
 20
1673.910497999997
 30
0.0
 11
-1440.909997000002
 21
1673.910497999997
 31
0.0
  0
LINE
  5
15204
330
1A
100
AcDbEntity
  8
ZISSEN1
100
AcDbLine
 10
-1452.600000000004
 20
1603.5
 30
0.0
 11
-1452.600000000004
 21
1609.499999999999
 31
0.0
  0
LINE
  5
15205
330
1A
100
AcDbEntity
  8
出力ｷﾊ_ﾝ
100
AcDbLine
 10
-1441.323070282054
 20
1600.0
 30
0.0
 11
-1443.073070282054
 21
1600.0
 31
0.0
  0
LINE
  5
15207
330
1A
100
AcDbEntity
  8
ZISSEN1
100
AcDbLine
 10
-1454.700160868662
 20
1600.0
 30
0.0
 11
-1448.300160868661
 21
1600.0
 31
0.0
  0
LINE
  5
15208
330
1A
100
AcDbEntity
  8
ZISSEN1
100
AcDbLine
 10
-1448.300160868661
 20
1600.0
 30
0.0
 11
-1454.700160868662
 21
1600.0
 31
0.0
  0
LINE
  5
15209
330
1A
100
AcDbEntity
  8
ZISSEN1
100
AcDbLine
 10
-1447.700000000002
 20
1600.0
 30
0.0
 11
-1447.700000000002
 21
1589.0
 31
0.0
  0
LINE
  5
1520B
330
1A
100
AcDbEntity
  8
ZISSEN1
100
AcDbLine
 10
-1441.300000000002
 20
1589.0
 30
0.0
 11
-1441.300000000002
 21
1600.0
 31
0.0
  0
LINE
  5
1520C
330
1A
100
AcDbEntity
  8
ZISSEN1
100
AcDbLine
 10
-1447.700000000002
 20
1589.0
 30
0.0
 11
-1441.300000000002
 21
1589.0
 31
0.0
  0
LINE
  5
1520D
330
1A
100
AcDbEntity
  8
ZISSEN1
100
AcDbLine
 10
-1447.700000000002
 20
1589.0
 30
0.0
 11
-1441.300000000002
 21
1589.0
 31
0.0
  0
LINE
  5
1520E
330
1A
100
AcDbEntity
  8
ZISSEN1
100
AcDbLine
 10
-1447.700000000002
 20
1594.0
 30
0.0
 11
-1441.300000000002
 21
1594.0
 31
0.0
  0
LINE
  5
1520F
330
1A
100
AcDbEntity
  8
ZISSEN1
100
AcDbLine
 10
-1447.700000000002
 20
1599.299999999999
 30
0.0
 11
-1441.300000000002
 21
1599.299999999999
 31
0.0
  0
LINE
  5
15210
330
1A
100
AcDbEntity
  8
ZISSEN1
100
AcDbLine
 10
-1447.700000000002
 20
1600.0
 30
0.0
 11
-1441.300000000002
 21
1600.0
 31
0.0
  0
LINE
  5
15211
330
1A
100
AcDbEntity
  8
ZISSEN1
100
AcDbLine
 10
-1441.300000000002
 20
1600.0
 30
0.0
 11
-1447.700000000002
 21
1600.0
 31
0.0
  0
LINE
  5
15212
330
1A
100
AcDbEntity
  8
ZISSEN1
100
AcDbLine
 10
-1449.399510999999
 20
1660.0
 30
0.0
 11
-1460.000160868659
 21
1660.0
 31
0.0
  0
LINE
  5
15214
330
1A
100
AcDbEntity
  8
ZISSEN1
100
AcDbLine
 10
-1454.200000000004
 20
1663.95
 30
0.0
 11
-1462.000000000005
 21
1663.95
 31
0.0
  0
LINE
  5
15216
330
1A
100
AcDbEntity
  8
ZISSEN1
100
AcDbLine
 10
-1437.0
 20
1600.0
 30
0.0
 11
-1437.0
 21
1660.0
 31
0.0
  0
LINE
  5
15221
330
1A
100
AcDbEntity
  8
ZISSEN1
100
AcDbLine
 10
-1452.600000000002
 20
1660.0
 30
0.0
 11
-1452.600000000002
 21
1663.95
 31
0.0
  0
LINE
  5
15222
330
1A
100
AcDbEntity
  8
ZISSEN1
100
AcDbLine
 10
-1454.200000000004
 20
1660.0
 30
0.0
 11
-1454.200000000004
 21
1663.95
 31
0.0
  0
LINE
  5
15223
330
1A
100
AcDbEntity
  8
ZISSEN1
100
AcDbLine
 10
-1460.900000000005
 20
1663.95
 30
0.0
 11
-1460.900000000005
 21
1655.300000000003
 31
0.0
  0
LINE
  5
15224
330
1A
100
AcDbEntity
  8
ZISSEN1
100
AcDbLine
 10
-1439.000000000001
 20
1660.0
 30
0.0
 11
-1439.000000000001
 21
1660.5
 31
0.0
  0
LINE
  5
15225
330
1A
100
AcDbEntity
  8
ZISSEN1
100
AcDbLine
 10
-1439.000000000001
 20
1660.5
 30
0.0
 11
-1440.600000000002
 21
1660.5
 31
0.0
  0
LINE
  5
15226
330
1A
100
AcDbEntity
  8
ZISSEN1
100
AcDbLine
 10
-1440.600000000002
 20
1660.5
 30
0.0
 11
-1440.600000000002
 21
1650.900000000001
 31
0.0
  0
LINE
  5
15227
330
1A
100
AcDbEntity
  8
ZISSEN1
100
AcDbLine
 10
-1460.0
 20
1600.0
 30
0.0
 11
-1460.0
 21
1602.0
 31
0.0
  0
LINE
  5
15228
330
1A
100
AcDbEntity
  8
ZISSEN1
100
AcDbLine
 10
-1459.0
 20
1600.0
 30
0.0
 11
-1459.0
 21
1602.0
 31
0.0
  0
LINE
  5
15229
330
1A
100
AcDbEntity
  8
ZISSEN1
100
AcDbLine
 10
-1455.75
 20
1602.0
 30
0.0
 11
-1455.75
 21
1600.0
 31
0.0
  0
LINE
  5
1522B
330
1A
100
AcDbEntity
  8
ZISSEN1
100
AcDbLine
 10
-1447.100538843746
 20
1604.0
 30
0.0
 11
-1447.800160868661
 21
1604.0
 31
0.0
  0
LINE
  5
1522C
330
1A
100
AcDbEntity
  8
ZISSEN1
100
AcDbLine
 10
-1457.700160868662
 20
1623.0
 30
0.0
 11
-1458.700160868662
 21
1623.0
 31
0.0
  0
LINE
  5
1522D
330
1A
100
AcDbEntity
  8
ZISSEN1
100
AcDbLine
 10
-1458.700160868662
 20
1623.0
 30
0.0
 11
-1458.700160868662
 21
1614.0
 31
0.0
  0
CIRCLE
  5
1523E
330
1A
100
AcDbEntity
  8
出力ｷﾊ_ﾝ
100
AcDbCircle
 10
-1443.300538844018
 20
1607.299999999999
 30
0.0
 40
3.149999999999999
  0
LINE
  5
1523F
330
1A
100
AcDbEntity
  8
ZISSEN1
100
AcDbLine
 10
-1459.200160868658
 20
1604.479999999999
 30
0.0
 11
-1455.526775562579
 21
1604.479999999999
 31
0.0
  0
LINE
  5
15240
330
1A
100
AcDbEntity
  8
ZISSEN1
100
AcDbLine
 10
-1459.200160868658
 20
1608.52
 30
0.0
 11
-1455.526775562579
 21
1608.52
 31
0.0
  0
LINE
  5
15241
330
1A
100
AcDbEntity
  8
ZISSEN1
100
AcDbLine
 10
-1459.200160868658
 20
1604.0
 30
0.0
 11
-1460.000160868658
 21
1604.0
 31
0.0
  0
LINE
  5
15242
330
1A
100
AcDbEntity
  8
ZISSEN1
100
AcDbLine
 10
-1454.2
 20
1603.750000000274
 30
0.0
 11
-1454.2
 21
1609.250000000274
 31
0.0
  0
LINE
  5
15243
330
1A
100
AcDbEntity
  8
ZISSEN1
 48
0.4
100
AcDbLine
 10
-1454.95
 20
1603.750000000274
 30
0.0
 11
-1454.2
 21
1603.750000000274
 31
0.0
  0
LINE
  5
15244
330
1A
100
AcDbEntity
  8
ZISSEN1
 48
0.4
100
AcDbLine
 10
-1454.95
 20
1609.250000000274
 30
0.0
 11
-1454.2
 21
1609.250000000274
 31
0.0
  0
ELLIPSE
  5
15245
330
1A
100
AcDbEntity
  8
ZISSEN1
 48
0.4
100
AcDbEllipse
 10
-1454.950000000001
 20
1606.500000000274
 30
0.0
 11
0.000000000000003
 21
2.75
 31
0.0
210
0.0
220
0.0
230
1.0
 40
0.3090909090909173
 41
6.283185307179586
 42
9.424777960769379
  0
LINE
  5
15246
330
1A
100
AcDbEntity
  8
ZISSEN1
100
AcDbLine
 10
-1460.000160868658
 20
1603.750000000274
 30
0.0
 11
-1460.000160868658
 21
1609.250000000274
 31
0.0
  0
LINE
  5
15247
330
1A
100
AcDbEntity
  8
ZISSEN1
 48
0.4
100
AcDbLine
 10
-1460.750160868657
 20
1603.750000000274
 30
0.0
 11
-1460.000160868658
 21
1603.750000000274
 31
0.0
  0
LINE
  5
15248
330
1A
100
AcDbEntity
  8
ZISSEN1
 48
0.4
100
AcDbLine
 10
-1460.750160868657
 20
1609.250000000274
 30
0.0
 11
-1460.000160868658
 21
1609.250000000274
 31
0.0
  0
ELLIPSE
  5
15249
330
1A
100
AcDbEntity
  8
ZISSEN1
 48
0.4
100
AcDbEllipse
 10
-1460.750160868658
 20
1606.500000000274
 30
0.0
 11
0.000000000000003
 21
2.75
 31
0.0
210
0.0
220
0.0
230
1.0
 40
0.3090909090909173
 41
6.283185307179586
 42
9.424777960769379
  0
LINE
  5
1524A
330
1A
100
AcDbEntity
  8
ZISSEN1
100
AcDbLine
 10
-1452.600000000002
 20
1608.52
 30
0.0
 11
-1448.80016086866
 21
1608.52
 31
0.0
  0
LINE
  5
1524B
330
1A
100
AcDbEntity
  8
ZISSEN1
100
AcDbLine
 10
-1452.600000000002
 20
1604.479999999999
 30
0.0
 11
-1448.28016086866
 21
1604.479999999999
 31
0.0
  0
LINE
  5
1524E
330
1A
100
AcDbEntity
  8
ZISSEN1
100
AcDbLine
 10
-1435.0
 20
1609.0
 30
0.0
 11
-1437.0
 21
1609.0
 31
0.0
  0
LINE
  5
1524F
330
1A
100
AcDbEntity
  8
ZISSEN1
100
AcDbLine
 10
-1435.0
 20
1604.0
 30
0.0
 11
-1437.0
 21
1604.0
 31
0.0
  0
ELLIPSE
  5
15250
330
1A
100
AcDbEntity
  8
ZISSEN1
 48
0.4
100
AcDbEllipse
 10
-1432.25
 20
1606.5
 30
0.0
 11
-0.000000000000001
 21
2.75
 31
0.0
210
0.0
220
0.0
230
-1.0
 40
0.3090909090909173
 41
6.283185307179586
 42
9.424777960769379
  0
LINE
  5
15251
330
1A
100
AcDbEntity
  8
ZISSEN1
 48
0.4
100
AcDbLine
 10
-1432.249999999999
 20
1609.25
 30
0.0
 11
-1433.0
 21
1609.25
 31
0.0
  0
LINE
  5
15252
330
1A
100
AcDbEntity
  8
ZISSEN1
 48
0.4
100
AcDbLine
 10
-1432.249999999999
 20
1603.75
 30
0.0
 11
-1433.0
 21
1603.75
 31
0.0
  0
LINE
  5
15253
330
1A
100
AcDbEntity
  8
ZISSEN1
100
AcDbLine
 10
-1433.0
 20
1603.75
 30
0.0
 11
-1433.0
 21
1609.25
 31
0.0
  0
LINE
  5
15255
330
1A
100
AcDbEntity
  8
ZISSEN1
100
AcDbLine
 10
-1433.0
 20
1639.75
 30
0.0
 11
-1433.0
 21
1645.25
 31
0.0
  0
LINE
  5
15256
330
1A
100
AcDbEntity
  8
ZISSEN1
 48
0.4
100
AcDbLine
 10
-1432.249999999999
 20
1639.75
 30
0.0
 11
-1433.0
 21
1639.75
 31
0.0
  0
LINE
  5
15257
330
1A
100
AcDbEntity
  8
ZISSEN1
 48
0.4
100
AcDbLine
 10
-1432.249999999999
 20
1645.25
 30
0.0
 11
-1433.0
 21
1645.25
 31
0.0
  0
ELLIPSE
  5
15258
330
1A
100
AcDbEntity
  8
ZISSEN1
 48
0.4
100
AcDbEllipse
 10
-1432.25
 20
1642.5
 30
0.0
 11
-0.000000000000001
 21
2.75
 31
0.0
210
0.0
220
0.0
230
-1.0
 40
0.3090909090909173
 41
6.283185307179586
 42
9.424777960769379
  0
LINE
  5
15259
330
1A
100
AcDbEntity
  8
ZISSEN1
100
AcDbLine
 10
-1437.0
 20
1640.0
 30
0.0
 11
-1435.0
 21
1640.0
 31
0.0
  0
LINE
  5
1525A
330
1A
100
AcDbEntity
  8
ZISSEN1
100
AcDbLine
 10
-1437.0
 20
1645.0
 30
0.0
 11
-1435.0
 21
1645.0
 31
0.0
  0
MTEXT
  5
15263
330
1A
100
AcDbEntity
  8
ZISSEN1
  6
BYBLOCK
100
AcDbMText
 10
-1541.831540461325
 20
1694.650113519674
 30
0.0
 40
3.0
 41
28.41066376571898
 71
     1
 72
     5
  1
{\fＭＳ ゴシック|b0|i0|c128|p49;(USER取付寸法)}
1001
ACAD
1000
MTEXTBEGIN
1070
    73
1070
     1
1070
    44
1040
1.0
1070
    74
1070
     0
1000
MTEXTEND
  0
DIMENSION
  5
15265
330
1A
100
AcDbEntity
  8
SUNPOU
100
AcDbDimension
  2
*D0
 10
-1497.500106905943
 20
1739.094204061844
 30
0.0
 11
-1547.000053452971
 21
1741.469204061844
 31
0.0
 70
    32
  3
ISO-25
100
AcDbAlignedDimension
 13
-1596.499999999999
 23
1722.699919565673
 33
0.0
 14
-1497.500106905943
 24
1721.999919565674
 34
0.0
100
AcDbRotatedDimension
1001
ACAD
1000
DSTYLE
1002
{
1070
   140
1040
3.5
1070
   340
1005
10
1002
}
  0
LINE
  5
15269
330
1A
100
AcDbEntity
  8
ZISSEN1
100
AcDbLine
 10
-1650.0
 20
1639.999999999996
 30
0.0
 11
-1648.0
 21
1639.999999999996
 31
0.0
  0
LINE
  5
1526A
330
1A
100
AcDbEntity
  8
ZISSEN1
100
AcDbLine
 10
-1648.0
 20
1604.0
 30
0.0
 11
-1641.699839131339
 21
1604.0
 31
0.0
  0
LINE
  5
1526B
330
1A
100
AcDbEntity
  8
ZISSEN1
100
AcDbLine
 10
-1629.25
 20
1602.0
 30
0.0
 11
-1629.25
 21
1600.0
 31
0.0
  0
LINE
  5
1526C
330
1A
100
AcDbEntity
  8
ZISSEN1
100
AcDbLine
 10
-1626.0
 20
1600.0
 30
0.0
 11
-1626.0
 21
1602.0
 31
0.0
  0
LINE
  5
1526D
330
1A
100
AcDbEntity
  8
ZISSEN1
100
AcDbLine
 10
-1625.0
 20
1600.0
 30
0.0
 11
-1625.0
 21
1602.0
 31
0.0
  0
LINE
  5
1526E
330
1A
100
AcDbEntity
  8
ZISSEN1
100
AcDbLine
 10
-1644.399999999999
 20
1660.5
 30
0.0
 11
-1644.399999999999
 21
1650.900000000001
 31
0.0
  0
LINE
  5
1526F
330
1A
100
AcDbEntity
  8
ZISSEN1
100
AcDbLine
 10
-1645.999999999998
 20
1660.5
 30
0.0
 11
-1644.399999999999
 21
1660.5
 31
0.0
  0
LINE
  5
15270
330
1A
100
AcDbEntity
  8
ZISSEN1
100
AcDbLine
 10
-1645.999999999998
 20
1660.0
 30
0.0
 11
-1645.999999999998
 21
1660.5
 31
0.0
  0
LINE
  5
15271
330
1A
100
AcDbEntity
  8
ZISSEN1
100
AcDbLine
 10
-1624.099999999996
 20
1663.95
 30
0.0
 11
-1624.099999999996
 21
1655.300000000001
 31
0.0
  0
LINE
  5
15272
330
1A
100
AcDbEntity
  8
ZISSEN1
100
AcDbLine
 10
-1630.799999999997
 20
1660.0
 30
0.0
 11
-1630.799999999997
 21
1663.95
 31
0.0
  0
LINE
  5
15273
330
1A
100
AcDbEntity
  8
ZISSEN1
100
AcDbLine
 10
-1632.399999999997
 20
1660.0
 30
0.0
 11
-1632.399999999997
 21
1663.95
 31
0.0
  0
LINE
  5
1527E
330
1A
100
AcDbEntity
  8
ZISSEN1
100
AcDbLine
 10
-1648.0
 20
1605.0
 30
0.0
 11
-1648.0
 21
1660.0
 31
0.0
  0
LINE
  5
1527F
330
1A
100
AcDbEntity
  8
ZISSEN1
100
AcDbLine
 10
-1648.0
 20
1605.0
 30
0.0
 11
-1647.0
 21
1604.0
 31
0.0
  0
LINE
  5
15280
330
1A
100
AcDbEntity
  8
ZISSEN1
100
AcDbLine
 10
-1630.799999999997
 20
1663.95
 30
0.0
 11
-1622.999999999996
 21
1663.95
 31
0.0
  0
LINE
  5
15282
330
1A
100
AcDbEntity
  8
ZISSEN1
100
AcDbLine
 10
-1635.890504999997
 20
1660.0
 30
0.0
 11
-1624.99983913134
 21
1660.0
 31
0.0
  0
LINE
  5
15289
330
1A
100
AcDbEntity
  8
ZISSEN1
100
AcDbLine
 10
-1651.999999999998
 20
1645.250000000272
 30
0.0
 11
-1652.749999999997
 21
1645.250000000272
 31
0.0
  0
LINE
  5
1528D
330
1A
100
AcDbEntity
  8
ZISSEN1
100
AcDbLine
 10
-1651.999999999998
 20
1639.750000000272
 30
0.0
 11
-1652.749999999997
 21
1639.750000000272
 31
0.0
  0
LINE
  5
1528E
330
1A
100
AcDbEntity
  8
ZISSEN1
100
AcDbLine
 10
-1651.999999999998
 20
1639.750000000272
 30
0.0
 11
-1651.999999999998
 21
1645.250000000272
 31
0.0
  0
LINE
  5
15290
330
1A
100
AcDbEntity
  8
ZISSEN1
100
AcDbLine
 10
-1625.000000000001
 20
1602.0
 30
0.0
 11
-1625.0
 21
1600.0
 31
0.0
  0
LINE
  5
15291
330
1A
100
AcDbEntity
  8
ZISSEN1
100
AcDbLine
 10
-1643.699999999999
 20
1600.0
 30
0.0
 11
-1637.299999999997
 21
1600.0
 31
0.0
  0
LINE
  5
15292
330
1A
100
AcDbEntity
  8
ZISSEN1
100
AcDbLine
 10
-1637.299999999997
 20
1600.0
 30
0.0
 11
-1643.699999999999
 21
1600.0
 31
0.0
  0
LINE
  5
15293
330
1A
100
AcDbEntity
  8
ZISSEN1
100
AcDbLine
 10
-1637.299999999997
 20
1599.300000000001
 30
0.0
 11
-1643.699999999999
 21
1599.300000000001
 31
0.0
  0
LINE
  5
15294
330
1A
100
AcDbEntity
  8
ZISSEN1
100
AcDbLine
 10
-1637.299999999997
 20
1594.0
 30
0.0
 11
-1643.699999999999
 21
1594.0
 31
0.0
  0
LINE
  5
15295
330
1A
100
AcDbEntity
  8
ZISSEN1
100
AcDbLine
 10
-1637.299999999997
 20
1589.0
 30
0.0
 11
-1643.699999999999
 21
1589.0
 31
0.0
  0
LINE
  5
15296
330
1A
100
AcDbEntity
  8
ZISSEN1
100
AcDbLine
 10
-1637.299999999997
 20
1589.0
 30
0.0
 11
-1643.699999999999
 21
1589.0
 31
0.0
  0
LINE
  5
15297
330
1A
100
AcDbEntity
  8
ZISSEN1
100
AcDbLine
 10
-1643.699999999999
 20
1589.0
 30
0.0
 11
-1643.699999999999
 21
1600.0
 31
0.0
  0
LINE
  5
15298
330
1A
100
AcDbEntity
  8
ZISSEN1
100
AcDbLine
 10
-1637.299999999997
 20
1600.0
 30
0.0
 11
-1637.299999999997
 21
1589.0
 31
0.0
  0
LINE
  5
15299
330
1A
100
AcDbEntity
  8
ZISSEN1
100
AcDbLine
 10
-1636.699839131339
 20
1600.0
 30
0.0
 11
-1630.299839131339
 21
1600.0
 31
0.0
  0
LINE
  5
1529A
330
1A
100
AcDbEntity
  8
ZISSEN1
100
AcDbLine
 10
-1630.299839131339
 20
1600.0
 30
0.0
 11
-1636.699839131339
 21
1600.0
 31
0.0
  0
ARC
  5
1529B
330
1A
100
AcDbEntity
  8
ZISSEN1
100
AcDbCircle
 10
-1644.249999999996
 20
1603.499999999998
 30
0.0
 40
1.5
100
AcDbArc
 50
270.0
 51
0.0
  0
LINE
  5
1529C
330
1A
100
AcDbEntity
  8
出力ｷﾊ_ﾝ
100
AcDbLine
 10
-1643.676929717947
 20
1600.0
 30
0.0
 11
-1641.926929717947
 21
1600.0
 31
0.0
  0
LINE
  5
1529E
330
1A
100
AcDbEntity
  8
ZISSEN1
100
AcDbLine
 10
-1632.399999999996
 20
1603.5
 30
0.0
 11
-1632.399999999996
 21
1613.0
 31
0.0
  0
LINE
  5
1529F
330
1A
100
AcDbEntity
  8
0
  6
CONTINUOUS
 62
     7
100
AcDbLine
 10
-1635.890504999997
 20
1673.910497999999
 30
0.0
 11
-1644.090002999997
 21
1673.910497999999
 31
0.0
  0
LINE
  5
152B3
330
1A
100
AcDbEntity
  8
ZISSEN1
  6
CONTINUOUS
 62
     7
100
AcDbLine
 10
-1644.390005999998
 20
1657.370000999999
 30
0.0
 11
-1644.090002999997
 21
1657.370000999999
 31
0.0
  0
LINE
  5
152E1
330
1A
100
AcDbEntity
  8
0
  6
CONTINUOUS
 62
     7
100
AcDbLine
 10
-1635.890504999997
 20
1673.910497999999
 30
0.0
 11
-1635.890504999997
 21
1650.900000000001
 31
0.0
  0
LINE
  5
152F0
330
1A
100
AcDbEntity
  8
0
  6
CONTINUOUS
 62
     7
100
AcDbLine
 10
-1644.090002999997
 20
1673.910497999999
 30
0.0
 11
-1644.090002999997
 21
1650.900000000001
 31
0.0
  0
LINE
  5
152F1
330
1A
100
AcDbEntity
  8
ZISSEN1
100
AcDbLine
 10
-1630.799999999997
 20
1662.95
 30
0.0
 11
-1632.399999999997
 21
1662.95
 31
0.0
  0
LINE
  5
152F2
330
1A
100
AcDbEntity
  8
ZISSEN1
100
AcDbLine
 10
-1630.799999999997
 20
1662.95
 30
0.0
 11
-1632.399999999997
 21
1662.95
 31
0.0
  0
LINE
  5
152F4
330
1A
100
AcDbEntity
  8
ZISSEN1
100
AcDbLine
 10
-1630.799999999997
 20
1604.5
 30
0.0
 11
-1632.399999999996
 21
1604.5
 31
0.0
  0
LINE
  5
152F8
330
1A
100
AcDbEntity
  8
ZISSEN1
100
AcDbLine
 10
-1630.799999999997
 20
1663.95
 30
0.0
 11
-1632.399999999997
 21
1663.95
 31
0.0
  0
LINE
  5
152FF
330
1A
100
AcDbEntity
  8
ZISSEN1
100
AcDbLine
 10
-1624.099999999996
 20
1663.95
 30
0.0
 11
-1630.799999999997
 21
1663.95
 31
0.0
  0
LINE
  5
15303
330
1A
100
AcDbEntity
  8
ZISSEN1
100
AcDbLine
 10
-1644.399999999997
 20
1603.5
 30
0.0
 11
-1645.999999999998
 21
1603.5
 31
0.0
  0
LINE
  5
15305
330
1A
100
AcDbEntity
  8
ZISSEN1
100
AcDbLine
 10
-1630.799999999997
 20
1663.95
 30
0.0
 11
-1632.399999999997
 21
1663.95
 31
0.0
  0
LINE
  5
15307
330
1A
100
AcDbEntity
  8
ZISSEN1
100
AcDbLine
 10
-1630.799999999997
 20
1603.5
 30
0.0
 11
-1632.399999999996
 21
1603.5
 31
0.0
  0
LINE
  5
15309
330
1A
100
AcDbEntity
  8
出力ｷﾊ_ﾝ
100
AcDbLine
 10
-1624.99983913134
 20
1602.0
 30
0.0
 11
-1650.0
 21
1602.0
 31
0.0
  0
LINE
  5
1530A
330
1A
100
AcDbEntity
  8
ZISSEN1
100
AcDbLine
 10
-1650.0
 20
1602.0
 30
0.0
 11
-1650.0
 21
1604.0
 31
0.0
  0
LINE
  5
1530B
330
1A
100
AcDbEntity
  8
ZISSEN1
100
AcDbLine
 10
-1652.0
 20
1602.0
 30
0.0
 11
-1651.999999999998
 21
1658.199999999999
 31
0.0
  0
LINE
  5
1530C
330
1A
100
AcDbEntity
  8
出力ｷﾊ_ﾝ
100
AcDbLine
 10
-1651.999999999998
 20
1641.891531799085
 30
0.0
 11
-1651.999999999998
 21
1645.884999999996
 31
0.0
  0
ARC
  5
1530D
330
1A
100
AcDbEntity
  8
出力ｷﾊ_ﾝ
100
AcDbCircle
 10
-1650.0
 20
1601.999999999998
 30
0.0
 40
2.0
100
AcDbArc
 50
180.0
 51
270.0
  0
LINE
  5
1530E
330
1A
100
AcDbEntity
  8
ZISSEN1
100
AcDbLine
 10
-1650.0
 20
1658.199999999999
 30
0.0
 11
-1650.0
 21
1602.0
 31
0.0
  0
LINE
  5
1530F
330
1A
100
AcDbEntity
  8
ZISSEN1
100
AcDbLine
 10
-1650.0
 20
1658.199999999999
 30
0.0
 11
-1651.999999999998
 21
1658.199999999999
 31
0.0
  0
LINE
  5
15310
330
1A
100
AcDbEntity
  8
ZISSEN1
100
AcDbLine
 10
-1650.0
 20
1657.199999999998
 30
0.0
 11
-1651.999999999998
 21
1657.199999999998
 31
0.0
  0
LINE
  5
15311
330
1A
100
AcDbEntity
  8
SOUZOUSEN
  6
PHANTOMX2
100
AcDbLine
 10
-1623.099999999996
 20
1672.049999999999
 30
0.0
 11
-1623.099999999996
 21
1663.95
 31
0.0
  0
LINE
  5
15312
330
1A
100
AcDbEntity
  8
ZISSEN1
100
AcDbLine
 10
-1628.799839131341
 20
1651.35
 30
0.0
 11
-1628.499999999996
 21
1651.35
 31
0.0
  0
LINE
  5
15314
330
1A
100
AcDbEntity
  8
ZISSEN1
100
AcDbLine
 10
-1628.499999999996
 20
1651.35
 30
0.0
 11
-1628.499999999996
 21
1652.45
 31
0.0
  0
LINE
  5
15315
330
1A
100
AcDbEntity
  8
ZISSEN1
100
AcDbLine
 10
-1625.799839131341
 20
1652.45
 30
0.0
 11
-1628.499999999996
 21
1652.45
 31
0.0
  0
LINE
  5
1531B
330
1A
100
AcDbEntity
  8
SOUZOUSEN
  6
PHANTOMX2
100
AcDbLine
 10
-1623.099999999996
 20
1672.049999999999
 30
0.0
 11
-1629.499999999996
 21
1672.049999999999
 31
0.0
  0
LINE
  5
1531C
330
1A
100
AcDbEntity
  8
SOUZOUSEN
  6
PHANTOMX2
100
AcDbLine
 10
-1629.499999999996
 20
1672.049999999999
 30
0.0
 11
-1629.499999999996
 21
1663.95
 31
0.0
  0
LINE
  5
1531D
330
1A
100
AcDbEntity
  8
ZISSEN1
100
AcDbLine
 10
-1624.99983913134
 20
1660.0
 30
0.0
 11
-1624.999999999996
 21
1603.75
 31
0.0
  0
LINE
  5
1531E
330
1A
100
AcDbEntity
  8
ZISSEN1
100
AcDbLine
 10
-1625.799839131339
 20
1660.0
 30
0.0
 11
-1625.799839131339
 21
1604.0
 31
0.0
  0
LINE
  5
1531F
330
1A
100
AcDbEntity
  8
ZISSEN1
100
AcDbLine
 10
-1625.799839131339
 20
1604.0
 30
0.0
 11
-1624.99983913134
 21
1604.0
 31
0.0
  0
LINE
  5
15320
330
1A
100
AcDbEntity
  8
ZISSEN1
100
AcDbLine
 10
-1625.799839131339
 20
1613.0
 30
0.0
 11
-1624.99983913134
 21
1613.0
 31
0.0
  0
LINE
  5
15321
330
1A
100
AcDbEntity
  8
ZISSEN1
100
AcDbLine
 10
-1632.75
 20
1602.0
 30
0.0
 11
-1632.75
 21
1600.0
 31
0.0
  0
LINE
  5
15322
330
1A
100
AcDbEntity
  8
ZISSEN1
100
AcDbLine
 10
-1636.0
 20
1602.0
 30
0.0
 11
-1636.0
 21
1600.0
 31
0.0
  0
LINE
  5
15323
330
1A
100
AcDbEntity
  8
ZISSEN1
100
AcDbLine
 10
-1636.99983913134
 20
1602.0
 30
0.0
 11
-1636.99983913134
 21
1600.0
 31
0.0
  0
LINE
  5
15324
330
1A
100
AcDbEntity
  8
ZISSEN1
100
AcDbLine
 10
-1628.799839131341
 20
1660.0
 30
0.0
 11
-1628.799839131341
 21
1614.0
 31
0.0
  0
LINE
  5
15329
330
1A
100
AcDbEntity
  8
ZISSEN1
100
AcDbLine
 10
-1641.699839131339
 20
1602.0
 30
0.0
 11
-1641.699839131339
 21
1604.0
 31
0.0
  0
LINE
  5
1532A
330
1A
100
AcDbEntity
  8
ZISSEN1
100
AcDbLine
 10
-1636.199839131339
 20
1602.0
 30
0.0
 11
-1636.199839131339
 21
1613.0
 31
0.0
  0
LINE
  5
1532B
330
1A
100
AcDbEntity
  8
ZISSEN1
100
AcDbLine
 10
-1630.799999999997
 20
1613.0
 30
0.0
 11
-1630.799999999997
 21
1603.5
 31
0.0
  0
LINE
  5
1532C
330
1A
100
AcDbEntity
  8
ZISSEN1
100
AcDbLine
 10
-1645.999999999998
 20
1603.5
 30
0.0
 11
-1645.999999999998
 21
1604.0
 31
0.0
  0
LINE
  5
1532D
330
1A
100
AcDbEntity
  8
ZISSEN1
100
AcDbLine
 10
-1644.399999999997
 20
1603.5
 30
0.0
 11
-1644.399999999997
 21
1604.0
 31
0.0
  0
LINE
  5
1532E
330
1A
100
AcDbEntity
  8
ZISSEN1
100
AcDbLine
 10
-1650.0
 20
1604.0
 30
0.0
 11
-1648.0
 21
1604.0
 31
0.0
  0
LINE
  5
15330
330
1A
100
AcDbEntity
  8
ZISSEN1
100
AcDbLine
 10
-1628.799839131341
 20
1659.2
 30
0.0
 11
-1625.799839131339
 21
1659.2
 31
0.0
  0
LINE
  5
15331
330
1A
100
AcDbEntity
  8
ZISSEN1
100
AcDbLine
 10
-1624.99983913134
 20
1655.300000000001
 30
0.0
 11
-1624.099999999996
 21
1655.300000000001
 31
0.0
  0
LINE
  5
15332
330
1A
100
AcDbEntity
  8
ZISSEN1
100
AcDbLine
 10
-1624.99983913134
 20
1652.45
 30
0.0
 11
-1622.999999999996
 21
1652.45
 31
0.0
  0
LINE
  5
15333
330
1A
100
AcDbEntity
  8
出力ｷﾊ_ﾝ
100
AcDbLine
 10
-1633.676929717949
 20
1600.0
 30
0.0
 11
-1631.926929717948
 21
1600.0
 31
0.0
  0
LINE
  5
15334
330
1A
100
AcDbEntity
  8
ZISSEN1
100
AcDbLine
 10
-1627.300000000001
 20
1600.0
 30
0.0
 11
-1627.300000000001
 21
1589.0
 31
0.0
  0
LINE
  5
15335
330
1A
100
AcDbEntity
  8
ZISSEN1
100
AcDbLine
 10
-1633.699999999999
 20
1589.0
 30
0.0
 11
-1633.699999999999
 21
1600.0
 31
0.0
  0
LINE
  5
15336
330
1A
100
AcDbEntity
  8
ZISSEN1
100
AcDbLine
 10
-1627.300000000001
 20
1589.0
 30
0.0
 11
-1633.699999999999
 21
1589.0
 31
0.0
  0
LINE
  5
15337
330
1A
100
AcDbEntity
  8
ZISSEN1
100
AcDbLine
 10
-1627.300000000001
 20
1589.0
 30
0.0
 11
-1633.699999999999
 21
1589.0
 31
0.0
  0
LINE
  5
15338
330
1A
100
AcDbEntity
  8
ZISSEN1
100
AcDbLine
 10
-1627.300000000001
 20
1594.0
 30
0.0
 11
-1633.699999999999
 21
1594.0
 31
0.0
  0
LINE
  5
15339
330
1A
100
AcDbEntity
  8
ZISSEN1
100
AcDbLine
 10
-1627.300000000001
 20
1599.300000000001
 30
0.0
 11
-1633.699999999999
 21
1599.300000000001
 31
0.0
  0
LINE
  5
1533A
330
1A
100
AcDbEntity
  8
ZISSEN1
100
AcDbLine
 10
-1627.300000000001
 20
1600.0
 30
0.0
 11
-1633.699999999999
 21
1600.0
 31
0.0
  0
LINE
  5
1533B
330
1A
100
AcDbEntity
  8
ZISSEN1
100
AcDbLine
 10
-1633.699999999999
 20
1600.0
 30
0.0
 11
-1627.300000000001
 21
1600.0
 31
0.0
  0
ARC
  5
1533C
330
1A
100
AcDbEntity
  8
ZISSEN1
100
AcDbCircle
 10
-1634.25
 20
1603.499999999998
 30
0.0
 40
1.5
100
AcDbArc
 50
270.0
 51
0.0
  0
ARC
  5
1533D
330
1A
100
AcDbEntity
  8
ZISSEN1
100
AcDbCircle
 10
-1626.75
 20
1603.499999999998
 30
0.0
 40
1.5
100
AcDbArc
 50
230.7074897323012
 51
270.0
  0
ARC
  5
1533E
330
1A
100
AcDbEntity
  8
ZISSEN1
100
AcDbCircle
 10
-1626.75
 20
1603.499999999998
 30
0.0
 40
1.500000000000081
100
AcDbArc
 50
180.0
 51
230.7074897323012
  0
LINE
  5
15341
330
1A
100
AcDbEntity
  8
ZISSEN1
100
AcDbLine
 10
-1632.399999999997
 20
1604.479999999999
 30
0.0
 11
-1636.199839131339
 21
1604.479999999999
 31
0.0
  0
LINE
  5
15343
330
1A
100
AcDbEntity
  8
ZISSEN1
100
AcDbLine
 10
-1650.0
 20
1644.999999999998
 30
0.0
 11
-1648.0
 21
1644.999999999998
 31
0.0
  0
ELLIPSE
  5
15344
330
1A
100
AcDbEntity
  8
ZISSEN1
 48
0.4
100
AcDbEllipse
 10
-1624.249999999996
 20
1606.499999999999
 30
0.0
 11
-0.0000000000000017
 21
2.75
 31
0.0
210
0.0
220
0.0
230
-1.0
 40
0.3090909090909173
 41
6.283185307179586
 42
9.424777960769379
  0
LINE
  5
15345
330
1A
100
AcDbEntity
  8
ZISSEN1
 48
0.4
100
AcDbLine
 10
-1624.249999999996
 20
1609.25
 30
0.0
 11
-1624.999999999996
 21
1609.25
 31
0.0
  0
LINE
  5
15346
330
1A
100
AcDbEntity
  8
ZISSEN1
 48
0.4
100
AcDbLine
 10
-1624.249999999996
 20
1603.75
 30
0.0
 11
-1624.999999999996
 21
1603.75
 31
0.0
  0
LINE
  5
15347
330
1A
100
AcDbEntity
  8
ZISSEN1
100
AcDbLine
 10
-1650.0
 20
1609.0
 30
0.0
 11
-1647.999999999998
 21
1609.0
 31
0.0
  0
LINE
  5
15349
330
1A
100
AcDbEntity
  8
ZISSEN1
100
AcDbLine
 10
-1632.399999999997
 20
1608.52
 30
0.0
 11
-1636.199839131339
 21
1608.52
 31
0.0
  0
LINE
  5
1534A
330
1A
100
AcDbEntity
  8
ZISSEN1
100
AcDbLine
 10
-1632.75
 20
1603.5
 30
0.0
 11
-1629.69991956567
 21
1603.5
 31
0.0
  0
LINE
  5
1534B
330
1A
100
AcDbEntity
  8
ZISSEN1
100
AcDbLine
 10
-1642.749999999998
 20
1603.5
 30
0.0
 11
-1641.699839131339
 21
1603.499999999999
 31
0.0
  0
LINE
  5
1534C
330
1A
100
AcDbEntity
  8
ZISSEN1
100
AcDbLine
 10
-1628.799839131341
 20
1651.35
 30
0.0
 11
-1628.499999999996
 21
1651.35
 31
0.0
  0
LINE
  5
1534D
330
1A
100
AcDbEntity
  8
ZISSEN1
100
AcDbLine
 10
-1622.999999999996
 20
1652.45
 30
0.0
 11
-1622.999999999996
 21
1663.95
 31
0.0
  0
LINE
  5
1534E
330
1A
100
AcDbEntity
  8
ZISSEN1
100
AcDbLine
 10
-1628.799999999997
 20
1655.300000000001
 30
0.0
 11
-1625.799839131341
 21
1655.300000000001
 31
0.0
  0
LINE
  5
15350
330
1A
100
AcDbEntity
  8
ZISSEN1
100
AcDbLine
 10
-1651.499999999998
 20
1660.0
 30
0.0
 11
-1644.900345445872
 21
1660.0
 31
0.0
  0
LINE
  5
15351
330
1A
100
AcDbEntity
  8
ZISSEN1
100
AcDbLine
 10
-1644.900345445872
 20
1660.0
 30
0.0
 11
-1644.900345445872
 21
1650.900000000001
 31
0.0
  0
LINE
  5
15352
330
1A
100
AcDbEntity
  8
ZISSEN1
100
AcDbLine
 10
-1644.900345445872
 20
1650.900000000001
 30
0.0
 11
-1635.600489
 21
1650.900000000001
 31
0.0
  0
LINE
  5
15353
330
1A
100
AcDbEntity
  8
ZISSEN1
100
AcDbLine
 10
-1635.600489
 20
1650.900000000001
 30
0.0
 11
-1635.600489
 21
1660.0
 31
0.0
  0
LINE
  5
15358
330
1A
100
AcDbEntity
  8
ZISSEN1
100
AcDbLine
 10
-1628.249999999999
 20
1603.5
 30
0.0
 11
-1629.69991956567
 21
1603.5
 31
0.0
  0
LINE
  5
15359
330
1A
100
AcDbEntity
  8
ZISSEN1
100
AcDbLine
 10
-1625.799839131339
 20
1608.52
 30
0.0
 11
-1630.799999999997
 21
1608.52
 31
0.0
  0
LINE
  5
1535A
330
1A
100
AcDbEntity
  8
ZISSEN1
100
AcDbLine
 10
-1625.799839131339
 20
1604.479999999999
 30
0.0
 11
-1630.799999999997
 21
1604.479999999999
 31
0.0
  0
LINE
  5
1535B
330
1A
100
AcDbEntity
  8
ZISSEN1
100
AcDbLine
 10
-1650.0
 20
1600.0
 30
0.0
 11
-1625.0
 21
1600.0
 31
0.0
  0
LINE
  5
1535D
330
1A
100
AcDbEntity
  8
ZISSEN1
100
AcDbLine
 10
-1650.499999999998
 20
1660.0
 30
0.0
 11
-1650.499999999998
 21
1659.2
 31
0.0
  0
LINE
  5
1535E
330
1A
100
AcDbEntity
  8
ZISSEN1
100
AcDbLine
 10
-1651.499999999998
 20
1659.2
 30
0.0
 11
-1648.0
 21
1659.2
 31
0.0
  0
LINE
  5
1535F
330
1A
100
AcDbEntity
  8
ZISSEN1
100
AcDbLine
 10
-1651.499999999998
 20
1660.0
 30
0.0
 11
-1651.499999999998
 21
1659.2
 31
0.0
  0
LINE
  5
15360
330
1A
100
AcDbEntity
  8
ZISSEN1
100
AcDbLine
 10
-1648.0
 20
1605.0
 30
0.0
 11
-1647.0
 21
1604.0
 31
0.0
  0
LINE
  5
15368
330
1A
100
AcDbEntity
  8
ZISSEN1
100
AcDbLine
 10
-1460.0
 20
1602.0
 30
0.0
 11
-1460.0
 21
1600.0
 31
0.0
  0
LINE
  5
15369
330
1A
100
AcDbEntity
  8
ZISSEN1
100
AcDbLine
 10
-1460.0
 20
1600.0
 30
0.0
 11
-1460.0
 21
1602.0
 31
0.0
  0
LINE
  5
1536A
330
1A
100
AcDbEntity
  8
ZISSEN1
100
AcDbLine
 10
-1493.0
 20
1699.0
 30
0.0
 11
-1492.0
 21
1700.0
 31
0.0
  0
LINE
  5
1536B
330
1A
100
AcDbEntity
  8
ZISSEN1
100
AcDbLine
 10
-1648.699919565673
 20
1602.0
 30
0.0
 11
-1648.699919565673
 21
1600.0
 31
0.0
  0
LINE
  5
1536C
330
1A
100
AcDbEntity
  8
ZISSEN1
100
AcDbLine
 10
-1649.999919565672
 20
1602.0
 30
0.0
 11
-1649.999919565672
 21
1600.0
 31
0.0
  0
LINE
  5
1536E
330
1A
100
AcDbEntity
  8
ZISSEN1
100
AcDbLine
 10
-1631.899999999996
 20
1630.0
 30
0.0
 11
-1631.899999999996
 21
1613.999999999998
 31
0.0
  0
LINE
  5
1536F
330
1A
100
AcDbEntity
  8
0
  6
CONTINUOUS
 62
     7
100
AcDbLine
 10
-1632.419999999994
 20
1628.139999999999
 30
0.0
 11
-1632.419999999994
 21
1628.94
 31
0.0
  0
LINE
  5
15370
330
1A
100
AcDbEntity
  8
0
  6
CONTINUOUS
 62
     7
100
AcDbLine
 10
-1633.599999999995
 20
1628.949999999998
 30
0.0
 11
-1633.599999999995
 21
1615.049999999999
 31
0.0
  0
LINE
  5
15373
330
1A
100
AcDbEntity
  8
0
  6
CONTINUOUS
 62
     7
100
AcDbLine
 10
-1632.419999999994
 20
1620.85
 30
0.0
 11
-1632.399999999996
 21
1620.85
 31
0.0
  0
LINE
  5
15374
330
1A
100
AcDbEntity
  8
0
  6
CONTINUOUS
 62
     7
100
AcDbLine
 10
-1632.419999999994
 20
1621.149999999999
 30
0.0
 11
-1632.399999999996
 21
1621.149999999999
 31
0.0
  0
LINE
  5
15375
330
1A
100
AcDbEntity
  8
0
  6
CONTINUOUS
 62
     7
100
AcDbLine
 10
-1632.419999999994
 20
1621.35
 30
0.0
 11
-1632.399999999996
 21
1621.35
 31
0.0
  0
LINE
  5
15376
330
1A
100
AcDbEntity
  8
0
  6
CONTINUOUS
 62
     7
100
AcDbLine
 10
-1632.399999999996
 20
1621.35
 30
0.0
 11
-1632.399999999996
 21
1621.149999999999
 31
0.0
  0
LINE
  5
15377
330
1A
100
AcDbEntity
  8
0
  6
CONTINUOUS
 62
     7
100
AcDbLine
 10
-1632.419999999994
 20
1621.649999999999
 30
0.0
 11
-1632.399999999996
 21
1621.649999999999
 31
0.0
  0
LINE
  5
15378
330
1A
100
AcDbEntity
  8
0
  6
CONTINUOUS
 62
     7
100
AcDbLine
 10
-1632.419999999994
 20
1621.85
 30
0.0
 11
-1632.399999999996
 21
1621.85
 31
0.0
  0
LINE
  5
15379
330
1A
100
AcDbEntity
  8
0
  6
CONTINUOUS
 62
     7
100
AcDbLine
 10
-1632.399999999996
 20
1621.85
 30
0.0
 11
-1632.399999999996
 21
1621.649999999999
 31
0.0
  0
LINE
  5
1537A
330
1A
100
AcDbEntity
  8
0
  6
CONTINUOUS
 62
     7
100
AcDbLine
 10
-1632.419999999994
 20
1622.35
 30
0.0
 11
-1632.399999999996
 21
1622.35
 31
0.0
  0
LINE
  5
1537B
330
1A
100
AcDbEntity
  8
0
  6
CONTINUOUS
 62
     7
100
AcDbLine
 10
-1632.419999999994
 20
1622.149999999999
 30
0.0
 11
-1632.399999999996
 21
1622.149999999999
 31
0.0
  0
LINE
  5
1537C
330
1A
100
AcDbEntity
  8
0
  6
CONTINUOUS
 62
     7
100
AcDbLine
 10
-1632.399999999996
 20
1622.35
 30
0.0
 11
-1632.399999999996
 21
1622.149999999999
 31
0.0
  0
LINE
  5
15394
330
1A
100
AcDbEntity
  8
0
  6
CONTINUOUS
 62
     7
100
AcDbLine
 10
-1632.419999999994
 20
1622.85
 30
0.0
 11
-1632.399999999996
 21
1622.85
 31
0.0
  0
LINE
  5
15395
330
1A
100
AcDbEntity
  8
0
  6
CONTINUOUS
 62
     7
100
AcDbLine
 10
-1632.419999999994
 20
1622.649999999999
 30
0.0
 11
-1632.399999999996
 21
1622.649999999999
 31
0.0
  0
LINE
  5
15396
330
1A
100
AcDbEntity
  8
0
  6
CONTINUOUS
 62
     7
100
AcDbLine
 10
-1632.399999999996
 20
1622.85
 30
0.0
 11
-1632.399999999996
 21
1622.649999999999
 31
0.0
  0
LINE
  5
15397
330
1A
100
AcDbEntity
  8
0
  6
CONTINUOUS
 62
     7
100
AcDbLine
 10
-1632.419999999994
 20
1623.149999999999
 30
0.0
 11
-1632.399999999996
 21
1623.149999999999
 31
0.0
  0
LINE
  5
15398
330
1A
100
AcDbEntity
  8
0
  6
CONTINUOUS
 62
     7
100
AcDbLine
 10
-1632.419999999994
 20
1623.35
 30
0.0
 11
-1632.399999999996
 21
1623.35
 31
0.0
  0
LINE
  5
15399
330
1A
100
AcDbEntity
  8
0
  6
CONTINUOUS
 62
     7
100
AcDbLine
 10
-1632.399999999996
 20
1623.35
 30
0.0
 11
-1632.399999999996
 21
1623.149999999999
 31
0.0
  0
LINE
  5
1539A
330
1A
100
AcDbEntity
  8
0
  6
CONTINUOUS
 62
     7
100
AcDbLine
 10
-1632.419999999994
 20
1623.85
 30
0.0
 11
-1632.399999999996
 21
1623.85
 31
0.0
  0
LINE
  5
1539B
330
1A
100
AcDbEntity
  8
0
  6
CONTINUOUS
 62
     7
100
AcDbLine
 10
-1632.419999999994
 20
1623.649999999999
 30
0.0
 11
-1632.399999999996
 21
1623.649999999999
 31
0.0
  0
LINE
  5
1539C
330
1A
100
AcDbEntity
  8
0
  6
CONTINUOUS
 62
     7
100
AcDbLine
 10
-1632.399999999996
 20
1623.85
 30
0.0
 11
-1632.399999999996
 21
1623.649999999999
 31
0.0
  0
LINE
  5
1539D
330
1A
100
AcDbEntity
  8
0
  6
CONTINUOUS
 62
     7
100
AcDbLine
 10
-1632.419999999994
 20
1624.35
 30
0.0
 11
-1632.399999999996
 21
1624.35
 31
0.0
  0
LINE
  5
1539E
330
1A
100
AcDbEntity
  8
0
  6
CONTINUOUS
 62
     7
100
AcDbLine
 10
-1632.419999999994
 20
1624.149999999999
 30
0.0
 11
-1632.399999999996
 21
1624.149999999999
 31
0.0
  0
LINE
  5
1539F
330
1A
100
AcDbEntity
  8
0
  6
CONTINUOUS
 62
     7
100
AcDbLine
 10
-1632.399999999996
 20
1624.35
 30
0.0
 11
-1632.399999999996
 21
1624.149999999999
 31
0.0
  0
LINE
  5
153BC
330
1A
100
AcDbEntity
  8
0
  6
CONTINUOUS
 62
     7
100
AcDbLine
 10
-1632.419999999994
 20
1624.649999999999
 30
0.0
 11
-1632.399999999996
 21
1624.649999999999
 31
0.0
  0
LINE
  5
153BD
330
1A
100
AcDbEntity
  8
0
  6
CONTINUOUS
 62
     7
100
AcDbLine
 10
-1632.419999999994
 20
1624.85
 30
0.0
 11
-1632.399999999996
 21
1624.85
 31
0.0
  0
LINE
  5
153BE
330
1A
100
AcDbEntity
  8
0
  6
CONTINUOUS
 62
     7
100
AcDbLine
 10
-1632.399999999996
 20
1624.85
 30
0.0
 11
-1632.399999999996
 21
1624.649999999999
 31
0.0
  0
LINE
  5
153BF
330
1A
100
AcDbEntity
  8
0
  6
CONTINUOUS
 62
     7
100
AcDbLine
 10
-1632.419999999994
 20
1625.35
 30
0.0
 11
-1632.399999999996
 21
1625.35
 31
0.0
  0
LINE
  5
153C0
330
1A
100
AcDbEntity
  8
0
  6
CONTINUOUS
 62
     7
100
AcDbLine
 10
-1632.419999999994
 20
1625.149999999999
 30
0.0
 11
-1632.399999999996
 21
1625.149999999999
 31
0.0
  0
LINE
  5
153C1
330
1A
100
AcDbEntity
  8
0
  6
CONTINUOUS
 62
     7
100
AcDbLine
 10
-1632.399999999996
 20
1625.35
 30
0.0
 11
-1632.399999999996
 21
1625.149999999999
 31
0.0
  0
LINE
  5
153C2
330
1A
100
AcDbEntity
  8
0
  6
CONTINUOUS
 62
     7
100
AcDbLine
 10
-1632.419999999994
 20
1625.649999999999
 30
0.0
 11
-1632.399999999996
 21
1625.649999999999
 31
0.0
  0
LINE
  5
153C3
330
1A
100
AcDbEntity
  8
0
  6
CONTINUOUS
 62
     7
100
AcDbLine
 10
-1632.419999999994
 20
1625.85
 30
0.0
 11
-1632.399999999996
 21
1625.85
 31
0.0
  0
LINE
  5
153C4
330
1A
100
AcDbEntity
  8
0
  6
CONTINUOUS
 62
     7
100
AcDbLine
 10
-1632.399999999996
 20
1625.85
 30
0.0
 11
-1632.399999999996
 21
1625.649999999999
 31
0.0
  0
LINE
  5
153C5
330
1A
100
AcDbEntity
  8
0
  6
CONTINUOUS
 62
     7
100
AcDbLine
 10
-1632.419999999994
 20
1626.149999999999
 30
0.0
 11
-1632.399999999996
 21
1626.149999999999
 31
0.0
  0
LINE
  5
153C6
330
1A
100
AcDbEntity
  8
0
  6
CONTINUOUS
 62
     7
100
AcDbLine
 10
-1632.419999999994
 20
1626.35
 30
0.0
 11
-1632.399999999996
 21
1626.35
 31
0.0
  0
LINE
  5
153C7
330
1A
100
AcDbEntity
  8
0
  6
CONTINUOUS
 62
     7
100
AcDbLine
 10
-1632.399999999996
 20
1626.35
 30
0.0
 11
-1632.399999999996
 21
1626.149999999999
 31
0.0
  0
LINE
  5
153E3
330
1A
100
AcDbEntity
  8
0
  6
CONTINUOUS
 62
     7
100
AcDbLine
 10
-1632.419999999994
 20
1627.6
 30
0.0
 11
-1632.419999999994
 21
1627.329999999999
 31
0.0
  0
LINE
  5
153E4
330
1A
100
AcDbEntity
  8
0
  6
CONTINUOUS
 62
     7
100
AcDbLine
 10
-1632.419999999994
 20
1626.774999999999
 30
0.0
 11
-1632.419999999994
 21
1627.329999999999
 31
0.0
  0
LINE
  5
153E5
330
1A
100
AcDbEntity
  8
0
  6
CONTINUOUS
 62
     7
100
AcDbLine
 10
-1632.439999999995
 20
1626.774999999999
 30
0.0
 11
-1632.419999999994
 21
1626.774999999999
 31
0.0
  0
LINE
  5
153E6
330
1A
100
AcDbEntity
  8
0
  6
CONTINUOUS
 62
     7
100
AcDbLine
 10
-1632.439999999995
 20
1627.329999999999
 30
0.0
 11
-1632.419999999994
 21
1627.329999999999
 31
0.0
  0
LINE
  5
153E7
330
1A
100
AcDbEntity
  8
0
  6
CONTINUOUS
 62
     7
100
AcDbLine
 10
-1632.439999999995
 20
1627.6
 30
0.0
 11
-1632.419999999994
 21
1627.6
 31
0.0
  0
LINE
  5
153E8
330
1A
100
AcDbEntity
  8
0
  6
CONTINUOUS
 62
     7
100
AcDbLine
 10
-1632.439999999995
 20
1628.139999999999
 30
0.0
 11
-1632.419999999994
 21
1628.139999999999
 31
0.0
  0
LINE
  5
153EE
330
1A
100
AcDbEntity
  8
0
  6
CONTINUOUS
 62
     7
100
AcDbLine
 10
-1632.439999999995
 20
1628.949999999998
 30
0.0
 11
-1633.599999999995
 21
1628.949999999998
 31
0.0
  0
LINE
  5
153EF
330
1A
100
AcDbEntity
  8
0
  6
CONTINUOUS
 62
     7
100
AcDbLine
 10
-1632.419999999994
 20
1628.94
 30
0.0
 11
-1632.439999999995
 21
1628.94
 31
0.0
  0
LINE
  5
153F2
330
1A
100
AcDbEntity
  8
0
  6
CONTINUOUS
 62
     7
100
AcDbLine
 10
-1632.439999999995
 20
1615.049999999999
 30
0.0
 11
-1633.599999999995
 21
1615.049999999999
 31
0.0
  0
LINE
  5
153F3
330
1A
100
AcDbEntity
  8
0
  6
CONTINUOUS
 62
     7
100
AcDbLine
 10
-1632.419999999994
 20
1615.859999999998
 30
0.0
 11
-1632.419999999994
 21
1615.059999999999
 31
0.0
  0
LINE
  5
153F4
330
1A
100
AcDbEntity
  8
0
  6
CONTINUOUS
 62
     7
100
AcDbLine
 10
-1632.419999999994
 20
1615.059999999999
 30
0.0
 11
-1632.439999999995
 21
1615.059999999999
 31
0.0
  0
LINE
  5
153F5
330
1A
100
AcDbEntity
  8
0
  6
CONTINUOUS
 62
     7
100
AcDbLine
 10
-1632.439999999995
 20
1615.859999999998
 30
0.0
 11
-1632.419999999994
 21
1615.859999999998
 31
0.0
  0
LINE
  5
153F6
330
1A
100
AcDbEntity
  8
0
  6
CONTINUOUS
 62
     7
100
AcDbLine
 10
-1632.399999999996
 20
1618.35
 30
0.0
 11
-1632.399999999996
 21
1618.149999999999
 31
0.0
  0
LINE
  5
153F9
330
1A
100
AcDbEntity
  8
0
  6
CONTINUOUS
 62
     7
100
AcDbLine
 10
-1632.419999999994
 20
1616.67
 30
0.0
 11
-1632.419999999994
 21
1617.225
 31
0.0
  0
LINE
  5
153FA
330
1A
100
AcDbEntity
  8
0
  6
CONTINUOUS
 62
     7
100
AcDbLine
 10
-1632.419999999994
 20
1616.399999999999
 30
0.0
 11
-1632.419999999994
 21
1616.67
 31
0.0
  0
LINE
  5
153FB
330
1A
100
AcDbEntity
  8
0
  6
CONTINUOUS
 62
     7
100
AcDbLine
 10
-1632.439999999995
 20
1616.399999999999
 30
0.0
 11
-1632.419999999994
 21
1616.399999999999
 31
0.0
  0
LINE
  5
153FC
330
1A
100
AcDbEntity
  8
0
  6
CONTINUOUS
 62
     7
100
AcDbLine
 10
-1632.439999999995
 20
1616.67
 30
0.0
 11
-1632.419999999994
 21
1616.67
 31
0.0
  0
LINE
  5
153FD
330
1A
100
AcDbEntity
  8
0
  6
CONTINUOUS
 62
     7
100
AcDbLine
 10
-1632.439999999995
 20
1617.225
 30
0.0
 11
-1632.419999999994
 21
1617.225
 31
0.0
  0
LINE
  5
153FE
330
1A
100
AcDbEntity
  8
0
  6
CONTINUOUS
 62
     7
100
AcDbLine
 10
-1632.399999999996
 20
1617.85
 30
0.0
 11
-1632.399999999996
 21
1617.649999999999
 31
0.0
  0
LINE
  5
153FF
330
1A
100
AcDbEntity
  8
0
  6
CONTINUOUS
 62
     7
100
AcDbLine
 10
-1632.419999999994
 20
1617.649999999999
 30
0.0
 11
-1632.399999999996
 21
1617.649999999999
 31
0.0
  0
LINE
  5
15400
330
1A
100
AcDbEntity
  8
0
  6
CONTINUOUS
 62
     7
100
AcDbLine
 10
-1632.419999999994
 20
1618.149999999999
 30
0.0
 11
-1632.399999999996
 21
1618.149999999999
 31
0.0
  0
LINE
  5
15401
330
1A
100
AcDbEntity
  8
0
  6
CONTINUOUS
 62
     7
100
AcDbLine
 10
-1632.419999999994
 20
1617.85
 30
0.0
 11
-1632.399999999996
 21
1617.85
 31
0.0
  0
LINE
  5
15411
330
1A
100
AcDbEntity
  8
0
  6
CONTINUOUS
 62
     7
100
AcDbLine
 10
-1632.399999999996
 20
1619.35
 30
0.0
 11
-1632.399999999996
 21
1619.149999999999
 31
0.0
  0
LINE
  5
15412
330
1A
100
AcDbEntity
  8
0
  6
CONTINUOUS
 62
     7
100
AcDbLine
 10
-1632.399999999996
 20
1618.85
 30
0.0
 11
-1632.399999999996
 21
1618.649999999999
 31
0.0
  0
LINE
  5
15413
330
1A
100
AcDbEntity
  8
0
  6
CONTINUOUS
 62
     7
100
AcDbLine
 10
-1632.419999999994
 20
1618.35
 30
0.0
 11
-1632.399999999996
 21
1618.35
 31
0.0
  0
LINE
  5
15414
330
1A
100
AcDbEntity
  8
0
  6
CONTINUOUS
 62
     7
100
AcDbLine
 10
-1632.419999999994
 20
1618.649999999999
 30
0.0
 11
-1632.399999999996
 21
1618.649999999999
 31
0.0
  0
LINE
  5
15415
330
1A
100
AcDbEntity
  8
0
  6
CONTINUOUS
 62
     7
100
AcDbLine
 10
-1632.419999999994
 20
1618.85
 30
0.0
 11
-1632.399999999996
 21
1618.85
 31
0.0
  0
LINE
  5
15416
330
1A
100
AcDbEntity
  8
0
  6
CONTINUOUS
 62
     7
100
AcDbLine
 10
-1632.419999999994
 20
1619.149999999999
 30
0.0
 11
-1632.399999999996
 21
1619.149999999999
 31
0.0
  0
LINE
  5
15417
330
1A
100
AcDbEntity
  8
0
  6
CONTINUOUS
 62
     7
100
AcDbLine
 10
-1632.419999999994
 20
1619.35
 30
0.0
 11
-1632.399999999996
 21
1619.35
 31
0.0
  0
LINE
  5
15418
330
1A
100
AcDbEntity
  8
0
  6
CONTINUOUS
 62
     7
100
AcDbLine
 10
-1632.419999999994
 20
1619.85
 30
0.0
 11
-1632.399999999996
 21
1619.85
 31
0.0
  0
LINE
  5
15419
330
1A
100
AcDbEntity
  8
0
  6
CONTINUOUS
 62
     7
100
AcDbLine
 10
-1632.419999999994
 20
1619.649999999999
 30
0.0
 11
-1632.399999999996
 21
1619.649999999999
 31
0.0
  0
LINE
  5
1541A
330
1A
100
AcDbEntity
  8
0
  6
CONTINUOUS
 62
     7
100
AcDbLine
 10
-1632.399999999996
 20
1619.85
 30
0.0
 11
-1632.399999999996
 21
1619.649999999999
 31
0.0
  0
LINE
  5
1541B
330
1A
100
AcDbEntity
  8
0
  6
CONTINUOUS
 62
     7
100
AcDbLine
 10
-1632.419999999994
 20
1620.149999999999
 30
0.0
 11
-1632.399999999996
 21
1620.149999999999
 31
0.0
  0
LINE
  5
1541C
330
1A
100
AcDbEntity
  8
0
  6
CONTINUOUS
 62
     7
100
AcDbLine
 10
-1632.419999999994
 20
1620.35
 30
0.0
 11
-1632.399999999996
 21
1620.35
 31
0.0
  0
LINE
  5
1541D
330
1A
100
AcDbEntity
  8
0
  6
CONTINUOUS
 62
     7
100
AcDbLine
 10
-1632.399999999996
 20
1620.35
 30
0.0
 11
-1632.399999999996
 21
1620.149999999999
 31
0.0
  0
LINE
  5
1543C
330
1A
100
AcDbEntity
  8
0
  6
CONTINUOUS
 62
     7
100
AcDbLine
 10
-1632.419999999994
 20
1620.649999999999
 30
0.0
 11
-1632.399999999996
 21
1620.649999999999
 31
0.0
  0
LINE
  5
1543F
330
1A
100
AcDbEntity
  8
0
  6
CONTINUOUS
 62
     7
100
AcDbLine
 10
-1632.439999999995
 20
1628.949999999998
 30
0.0
 11
-1632.439999999995
 21
1615.049999999999
 31
0.0
  0
LINE
  5
15441
330
1A
100
AcDbEntity
  8
0
  6
CONTINUOUS
 62
     7
100
AcDbLine
 10
-1632.419999999994
 20
1626.774999999999
 30
0.0
 11
-1632.419999999994
 21
1617.225
 31
0.0
  0
LINE
  5
15444
330
1A
100
AcDbEntity
  8
0
  6
CONTINUOUS
 62
     7
100
AcDbLine
 10
-1632.399999999996
 20
1620.85
 30
0.0
 11
-1632.399999999996
 21
1620.649999999999
 31
0.0
  0
LINE
  5
15447
330
1A
100
AcDbEntity
  8
ZISSEN1
100
AcDbLine
 10
-1629.799839131341
 20
1613.0
 30
0.0
 11
-1636.199839131339
 21
1613.0
 31
0.0
  0
LINE
  5
15448
330
1A
100
AcDbEntity
  8
ZISSEN1
100
AcDbLine
 10
-1628.799839131341
 20
1614.0
 30
0.0
 11
-1629.799839131341
 21
1613.0
 31
0.0
  0
LINE
  5
15449
330
1A
100
AcDbEntity
  8
ZISSEN1
100
AcDbLine
 10
-1631.899999999996
 20
1613.999999999998
 30
0.0
 11
-1636.199839131339
 21
1613.999999999998
 31
0.0
  0
LINE
  5
1544A
330
1A
100
AcDbEntity
  8
ZISSEN1
100
AcDbLine
 10
-1636.199839131339
 20
1630.0
 30
0.0
 11
-1631.899999999996
 21
1630.0
 31
0.0
  0
LINE
  5
1544B
330
1A
100
AcDbEntity
  8
ZISSEN1
100
AcDbLine
 10
-1636.199839131339
 20
1613.999999999998
 30
0.0
 11
-1636.199839131339
 21
1630.0
 31
0.0
  0
LINE
  5
1544C
330
1A
100
AcDbEntity
  8
ZISSEN1
100
AcDbLine
 10
-1632.399999999996
 20
1613.999999999998
 30
0.0
 11
-1632.399999999996
 21
1630.0
 31
0.0
  0
LINE
  5
1544E
330
1A
100
AcDbEntity
  8
ZISSEN1
100
AcDbLine
 10
-1493.0
 20
1602.0
 30
0.0
 11
-1493.0
 21
1600.0
 31
0.0
  0
DIMENSION
  5
1544F
330
1A
100
AcDbEntity
  8
SUNPOU
100
AcDbDimension
  2
*D1
 10
-1489.450465700014
 20
1660.0
 30
0.0
 11
-1489.450465700014
 21
1627.499999999999
 31
0.0
 70
   160
  3
ISO-25
100
AcDbAlignedDimension
 13
-1494.0
 23
1600.0
 33
0.0
 14
-1499.5
 24
1660.0
 34
0.0
 50
270.0
100
AcDbRotatedDimension
1001
ACAD
1000
DSTYLE
1002
{
1070
   140
1040
3.5
1002
}
  0
DIMENSION
  5
15450
330
1A
100
AcDbEntity
  8
SUNPOU
100
AcDbDimension
  2
*D2
 10
-1484.244460555644
 20
1674.0000003408
 30
0.0
 11
-1484.244460555644
 21
1636.955190683209
 31
0.0
 70
   160
  3
ISO-25
100
AcDbAlignedDimension
 13
-1494.0
 23
1600.0
 33
0.0
 14
-1500.910530158562
 24
1674.0000003408
 34
0.0
 50
270.0
100
AcDbRotatedDimension
1001
ACAD
1000
DSTYLE
1002
{
1070
   140
1040
3.5
1002
}
  0
LINE
  5
15457
330
1A
100
AcDbEntity
  8
ZISSEN1
100
AcDbLine
 10
-1499.5
 20
1605.0
 30
0.0
 11
-1500.299999999999
 21
1605.0
 31
0.0
  0
LINE
  5
15458
330
1A
100
AcDbEntity
  8
ZISSEN1
100
AcDbLine
 10
-1499.5
 20
1604.0
 30
0.0
 11
-1500.299999999999
 21
1604.0
 31
0.0
  0
LINE
  5
15459
330
1A
100
AcDbEntity
  8
ZISSEN1
100
AcDbLine
 10
-1500.299999999999
 20
1611.799999999999
 30
0.0
 11
-1500.299999999999
 21
1604.0
 31
0.0
  0
ELLIPSE
  5
1562E
330
1A
100
AcDbEntity
  8
ZISSEN1
 48
0.4
100
AcDbEllipse
 10
-1652.749999999997
 20
1642.500000000272
 30
0.0
 11
0.000000000000001
 21
2.75
 31
0.0
210
0.0
220
0.0
230
1.0
 40
0.3090909090909173
 41
6.283185307179586
 42
9.424777960769379
  0
LINE
  5
15631
330
1A
100
AcDbEntity
  8
ZISSEN1
100
AcDbLine
 10
-1651.999999999998
 20
1639.750000000272
 30
0.0
 11
-1651.999999999998
 21
1645.250000000272
 31
0.0
  0
ELLIPSE
  5
15632
330
1A
100
AcDbEntity
  8
ZISSEN1
 48
0.4
100
AcDbEllipse
 10
-1652.749999999997
 20
1606.500000000273
 30
0.0
 11
0.000000000000001
 21
2.75
 31
0.0
210
0.0
220
0.0
230
1.0
 40
0.3090909090909173
 41
6.283185307179586
 42
9.424777960769379
  0
LINE
  5
15633
330
1A
100
AcDbEntity
  8
ZISSEN1
100
AcDbLine
 10
-1651.999999999998
 20
1603.750000000273
 30
0.0
 11
-1651.999999999998
 21
1609.250000000272
 31
0.0
  0
LINE
  5
15634
330
1A
100
AcDbEntity
  8
ZISSEN1
 48
0.4
100
AcDbLine
 10
-1652.749999999998
 20
1603.750000000273
 30
0.0
 11
-1651.999999999998
 21
1603.750000000273
 31
0.0
  0
LINE
  5
15635
330
1A
100
AcDbEntity
  8
ZISSEN1
 48
0.4
100
AcDbLine
 10
-1652.749999999998
 20
1609.250000000272
 30
0.0
 11
-1651.999999999998
 21
1609.250000000272
 31
0.0
  0
LINE
  5
156BE
330
1A
100
AcDbEntity
  8
ZISSEN1
  6
CONTINUOUS
100
AcDbLine
 10
-1549.399972315358
 20
1718.099900357696
 30
0.0
 11
-1594.089468315361
 21
1718.099900357696
 31
0.0
  0
LINE
  5
156BF
330
1A
100
AcDbEntity
  8
ZISSEN1
  6
CONTINUOUS
100
AcDbLine
 10
-1549.399972315358
 20
1709.899919357694
 30
0.0
 11
-1594.089468315361
 21
1709.899919357694
 31
0.0
  0
ELLIPSE
  5
156CB
330
1A
100
AcDbEntity
  8
ZISSEN1
 48
0.4
100
AcDbEllipse
 10
-1588.009679999999
 20
1698.248314060283
 30
0.0
 11
2.75
 21
0.0000000000000005
 31
0.0
210
0.0
220
0.0
230
-1.0
 40
0.3090909090909173
 41
6.283185307179586
 42
9.424777960769379
  0
LINE
  5
156CC
330
1A
100
AcDbEntity
  8
ZISSEN1
 48
0.4
100
AcDbLine
 10
-1585.259679999999
 20
1698.248314060283
 30
0.0
 11
-1585.259679999999
 21
1698.998314060283
 31
0.0
  0
LINE
  5
156CD
330
1A
100
AcDbEntity
  8
ZISSEN1
 48
0.4
100
AcDbLine
 10
-1590.759679999999
 20
1698.248314060283
 30
0.0
 11
-1590.759679999999
 21
1698.998314060283
 31
0.0
  0
ELLIPSE
  5
156D8
330
1A
100
AcDbEntity
  8
ZISSEN1
 48
0.4
100
AcDbEllipse
 10
-1588.009680350969
 20
1726.74991964512
 30
0.0
 11
-2.75
 21
-0.0000000000000008
 31
0.0
210
0.0
220
0.0
230
-1.0
 40
0.3090909090909173
 41
6.283185307179586
 42
9.424777960769379
  0
LINE
  5
156D9
330
1A
100
AcDbEntity
  8
ZISSEN1
 48
0.4
100
AcDbLine
 10
-1590.759680350969
 20
1726.74991964512
 30
0.0
 11
-1590.759680350969
 21
1725.99991964512
 31
0.0
  0
LINE
  5
156DA
330
1A
100
AcDbEntity
  8
ZISSEN1
 48
0.4
100
AcDbLine
 10
-1585.259680350969
 20
1726.74991964512
 30
0.0
 11
-1585.259680350969
 21
1725.99991964512
 31
0.0
  0
ELLIPSE
  5
156E4
330
1A
100
AcDbEntity
  8
ZISSEN1
 48
0.4
100
AcDbEllipse
 10
-1545.011234284818
 20
1726.749919645119
 30
0.0
 11
-2.75
 21
-0.0000000000000008
 31
0.0
210
0.0
220
0.0
230
-1.0
 40
0.3090909090909173
 41
6.283185307179586
 42
9.424777960769379
  0
LINE
  5
156E5
330
1A
100
AcDbEntity
  8
ZISSEN1
 48
0.4
100
AcDbLine
 10
-1547.761234284818
 20
1726.749919645119
 30
0.0
 11
-1547.761234284818
 21
1725.999919645119
 31
0.0
  0
LINE
  5
156E6
330
1A
100
AcDbEntity
  8
ZISSEN1
 48
0.4
100
AcDbLine
 10
-1542.261234284818
 20
1726.749919645119
 30
0.0
 11
-1542.261234284818
 21
1725.999919645119
 31
0.0
  0
ELLIPSE
  5
156F0
330
1A
100
AcDbEntity
  8
ZISSEN1
 48
0.4
100
AcDbEllipse
 10
-1505.509680350969
 20
1726.749919645118
 30
0.0
 11
-2.75
 21
-0.0000000000000008
 31
0.0
210
0.0
220
0.0
230
-1.0
 40
0.3090909090909173
 41
6.283185307179586
 42
9.424777960769379
  0
LINE
  5
156F1
330
1A
100
AcDbEntity
  8
ZISSEN1
 48
0.4
100
AcDbLine
 10
-1508.259680350969
 20
1726.749919645119
 30
0.0
 11
-1508.259680350969
 21
1725.999919645119
 31
0.0
  0
LINE
  5
156F2
330
1A
100
AcDbEntity
  8
ZISSEN1
 48
0.4
100
AcDbLine
 10
-1502.759680350969
 20
1726.749919645119
 30
0.0
 11
-1502.759680350969
 21
1725.999919645119
 31
0.0
  0
LINE
  5
156FF
330
1A
100
AcDbEntity
  8
ZISSEN1
  6
CONTINUOUS
100
AcDbLine
 10
-1594.089467184032
 20
1660.0
 30
0.0
 11
-1594.089467184032
 21
1674.0000003408
 31
0.0
  0
LINE
  5
15700
330
1A
100
AcDbEntity
  8
ZISSEN1
  6
CONTINUOUS
100
AcDbLine
 10
-1594.089467184032
 20
1674.0000003408
 30
0.0
 11
-1549.399971184029
 21
1674.0000003408
 31
0.0
  0
LINE
  5
15701
330
1A
100
AcDbEntity
  8
ZISSEN1
  6
CONTINUOUS
100
AcDbLine
 10
-1549.399971184029
 20
1663.9500003408
 30
0.0
 11
-1549.399971184029
 21
1674.0000003408
 31
0.0
  0
LINE
  5
15702
330
1A
100
AcDbEntity
  8
ZISSEN1
  6
CONTINUOUS
100
AcDbLine
 10
-1545.600026158565
 20
1659.99966111296
 30
0.0
 11
-1545.600026158565
 21
1674.0000003408
 31
0.0
  0
LINE
  5
15703
330
1A
100
AcDbEntity
  8
ZISSEN1
  6
CONTINUOUS
100
AcDbLine
 10
-1545.600026158565
 20
1674.0000003408
 30
0.0
 11
-1500.910530158562
 21
1674.0000003408
 31
0.0
  0
LINE
  5
15704
330
1A
100
AcDbEntity
  8
ZISSEN1
  6
CONTINUOUS
100
AcDbLine
 10
-1500.910530158562
 20
1659.99966111296
 30
0.0
 11
-1500.910530158562
 21
1674.0000003408
 31
0.0
  0
LINE
  5
15727
330
1A
100
AcDbEntity
  8
ZISSEN1
100
AcDbLine
 10
-1497.5
 20
1704.999999999998
 30
0.0
 11
-1502.310859523998
 21
1704.999999999998
 31
0.0
  0
LINE
  5
15728
330
1A
100
AcDbEntity
  8
CL1
100
AcDbLine
 10
-1502.310859523998
 20
1704.999999999998
 30
0.0
 11
-1493.148742758898
 21
1704.999999999998
 31
0.0
  0
LINE
  5
15746
330
1A
100
AcDbEntity
  8
ZISSEN1
100
AcDbLine
 10
-1492.0
 20
1710.0
 30
0.0
 11
-1492.0
 21
1706.749999999999
 31
0.0
  0
LINE
  5
15747
330
1A
100
AcDbEntity
  8
ZISSEN1
100
AcDbLine
 10
-1492.0
 20
1706.75
 30
0.0
 11
-1497.0
 21
1706.75
 31
0.0
  0
LINE
  5
15748
330
1A
100
AcDbEntity
  8
ZISSEN1
100
AcDbLine
 10
-1492.0
 20
1700.0
 30
0.0
 11
-1492.0
 21
1703.249999999999
 31
0.0
  0
LINE
  5
15749
330
1A
100
AcDbEntity
  8
ZISSEN1
100
AcDbLine
 10
-1492.0
 20
1703.249999999999
 30
0.0
 11
-1497.0
 21
1703.249999999999
 31
0.0
  0
LINE
  5
157AB
330
1A
100
AcDbEntity
  8
CL1
100
AcDbLine
 10
-1602.310859523998
 20
1704.999999999998
 30
0.0
 11
-1593.148742758898
 21
1704.999999999998
 31
0.0
  0
MTEXT
  5
157B7
330
1A
100
AcDbEntity
  8
ZISSEN1
  6
BYBLOCK
100
AcDbMText
 10
-1482.018995568927
 20
1673.041860000089
 30
0.0
 40
3.0
 41
28.41066376571898
 71
     1
 72
     5
  1
{\fＭＳ ゴシック|b0|i0|c128|p49;(USER取付寸法)}
 11
0.0000000000000006
 21
1.0
 31
0.0
1001
ACAD
1000
MTEXTBEGIN
1070
    73
1070
     1
1070
    44
1040
1.0
1070
    74
1070
     0
1000
MTEXTEND
  0
LINE
  5
1587F
330
1A
100
AcDbEntity
  8
CL1
100
AcDbLine
 10
-1631.0
 20
1603.0
 30
0.0
 11
-1631.0
 21
1599.0
 31
0.0
  0
LINE
  5
15886
330
1A
100
AcDbEntity
  8
CL1
100
AcDbLine
 10
-1454.0
 20
1603.0
 30
0.0
 11
-1454.0
 21
1599.0
 31
0.0
  0
LINE
  5
15F7D
330
1A
100
AcDbEntity
  8
SOUZOUSEN
100
AcDbLine
 10
-1600.0
 20
1602.0
 30
0.0
 11
-1597.5
 21
1602.0
 31
0.0
  0
LINE
  5
15F7F
330
1A
100
AcDbEntity
  8
SOUZOUSEN
100
AcDbLine
 10
-1495.0
 20
1602.0
 30
0.0
 11
-1497.5
 21
1602.0
 31
0.0
  0
LINE
  5
15F81
330
1A
100
AcDbEntity
  8
CL1
100
AcDbLine
 10
-1597.495441048672
 20
1597.09111091169
 30
0.0
 11
-1597.495441048672
 21
1604.068877450955
 31
0.0
  0
LINE
  5
15F82
330
1A
100
AcDbEntity
  8
CL1
100
AcDbLine
 10
-1496.49607469535
 20
1597.09111091169
 30
0.0
 11
-1496.49607469535
 21
1603.293570157767
 31
0.0
  0
LINE
  5
15FD7
330
1A
100
AcDbEntity
  8
ZISSEN1
100
AcDbLine
 10
-1494.0
 20
1699.0
 30
0.0
 11
-1494.0
 21
1699.0
 31
0.0
  0
DIMENSION
  5
15FD8
330
1A
100
AcDbEntity
  8
SUNPOU
100
AcDbDimension
  2
*D3
 10
-1478.128983887195
 20
1699.0
 30
0.0
 11
-1480.503983887196
 21
1701.999999999999
 31
0.0
 70
    32
  3
ISO-25
100
AcDbAlignedDimension
 13
-1493.148742758898
 23
1704.999999999998
 33
0.0
 14
-1494.0
 24
1699.0
 34
0.0
 50
90.0
100
AcDbRotatedDimension
1001
ACAD
1000
DSTYLE
1002
{
1070
   140
1040
3.5
1002
}
  0
DIMENSION
  5
15FE7
330
1A
100
AcDbEntity
  8
SUNPOU
100
AcDbDimension
  2
*D4
 10
-1471.427866846451
 20
1725.999919565673
 30
0.0
 11
-1473.802866846452
 21
1712.499959782836
 31
0.0
 70
    32
  3
ISO-25
100
AcDbAlignedDimension
 13
-1494.0
 23
1699.0
 33
0.0
 14
-1501.0
 24
1725.999919565673
 34
0.0
 50
90.0
100
AcDbRotatedDimension
1001
ACAD
1000
DSTYLE
1002
{
1070
   140
1040
3.5
1002
}
  0
LINE
  5
16060
330
1A
100
AcDbEntity
  8
ZISSEN1
100
AcDbLine
 10
-1601.0
 20
1706.749999999999
 30
0.0
 11
-1597.0
 21
1706.749999999999
 31
0.0
  0
LINE
  5
16063
330
1A
100
AcDbEntity
  8
ZISSEN1
100
AcDbLine
 10
-1601.0
 20
1703.249999999999
 30
0.0
 11
-1597.0
 21
1703.249999999999
 31
0.0
  0
DIMENSION
  5
16082
330
1A
100
AcDbEntity
  8
SUNPOU
100
AcDbDimension
  2
*D5
 10
-1433.000000000001
 20
1683.413094453973
 30
0.0
 11
-1447.500000000003
 21
1685.788094453973
 31
0.0
 70
    32
  3
ISO-25
100
AcDbAlignedDimension
 13
-1462.000000000005
 23
1663.95
 33
0.0
 14
-1433.000000000001
 24
1657.199999999997
 34
0.0
100
AcDbRotatedDimension
1001
ACAD
1000
DSTYLE
1002
{
1070
   140
1040
3.5
1002
}
  0
LEADER
  5
16099
330
1A
100
AcDbEntity
  8
SUNPOU
100
AcDbLeader
  3
標準スタイル
 76
     3
 10
-1598.0
 20
1704.999999999998
 30
0.0
 10
-1614.32074558562
 20
1694.744018295735
 30
0.0
 10
-1627.477633071181
 20
1694.744018295735
 30
0.0
1001
ACAD
1000
DSTYLE
1002
{
1070
     5
1000

1070
    77
1070
     0
1070
   147
1040
1.0
1002
}
  0
ARC
  5
160A3
330
1A
100
AcDbEntity
  8
ZISSEN1
100
AcDbCircle
 10
-1497.0
 20
1704.999999999998
 30
0.0
 40
1.750000000001818
100
AcDbArc
 50
89.99999999999964
 51
269.9998347821142
  0
ARC
  5
160A6
330
1A
100
AcDbEntity
  8
ZISSEN1
100
AcDbCircle
 10
-1597.0
 20
1704.999999999998
 30
0.0
 40
1.750000000001591
100
AcDbArc
 50
270.0
 51
90.0
  0
DIMENSION
  5
160A7
330
1A
100
AcDbEntity
  8
SUNPOU
100
AcDbDimension
  2
*D6
 10
-1485.536069360443
 20
1703.249999999999
 30
0.0
 11
-1487.911069360444
 21
1694.124999999999
 31
0.0
 70
    32
  3
ISO-25
100
AcDbAlignedDimension
 13
-1492.5
 23
1706.75
 33
0.0
 14
-1492.5
 24
1703.249999999999
 34
0.0
 50
90.0
100
AcDbRotatedDimension
1001
ACAD
1000
DSTYLE
1002
{
1070
   140
1040
3.5
1002
}
  0
LINE
  5
160F0
330
1A
100
AcDbEntity
  8
ZISSEN1
100
AcDbLine
 10
-1600.0
 20
1600.0
 30
0.0
 11
-1601.0
 21
1600.0
 31
0.0
  0
LINE
  5
160F1
330
1A
100
AcDbEntity
  8
ZISSEN1
100
AcDbLine
 10
-1601.0
 20
1600.0
 30
0.0
 11
-1601.0
 21
1602.0
 31
0.0
  0
LINE
  5
160F2
330
1A
100
AcDbEntity
  8
ZISSEN1
100
AcDbLine
 10
-1601.0
 20
1602.0
 30
0.0
 11
-1600.0
 21
1602.0
 31
0.0
  0
LINE
  5
160F4
330
1A
100
AcDbEntity
  8
ZISSEN1
100
AcDbLine
 10
-1495.0
 20
1602.0
 30
0.0
 11
-1492.0
 21
1602.0
 31
0.0
  0
LINE
  5
160F5
330
1A
100
AcDbEntity
  8
ZISSEN1
100
AcDbLine
 10
-1492.0
 20
1602.0
 30
0.0
 11
-1492.0
 21
1600.0
 31
0.0
  0
LINE
  5
160F6
330
1A
100
AcDbEntity
  8
ZISSEN1
100
AcDbLine
 10
-1492.0
 20
1600.0
 30
0.0
 11
-1495.0
 21
1600.0
 31
0.0
  0
LINE
  5
16154
330
1A
100
AcDbEntity
  8
CL1
100
AcDbLine
 10
-1496.5
 20
1709.017304384926
 30
0.0
 11
-1496.5
 21
1699.972407939743
 31
0.0
  0
LINE
  5
16155
330
1A
100
AcDbEntity
  8
CL1
100
AcDbLine
 10
-1597.5
 20
1709.517304384926
 30
0.0
 11
-1597.5
 21
1700.472407939743
 31
0.0
  0
DIMENSION
  5
16156
330
1A
100
AcDbEntity
  8
SUNPOU
100
AcDbDimension
  2
*D7
 10
-1496.5
 20
1690.660982133024
 30
0.0
 11
-1547.0
 21
1693.035982133024
 31
0.0
 70
    32
  3
ISO-25
100
AcDbAlignedDimension
 13
-1597.5
 23
1700.472407939743
 33
0.0
 14
-1496.5
 24
1699.972407939743
 34
0.0
100
AcDbRotatedDimension
1001
ACAD
1000
DSTYLE
1002
{
1070
   140
1040
3.5
1002
}
  0
LINE
  5
1617B
330
1A
100
AcDbEntity
  8
ZISSEN1
100
AcDbLine
 10
-1499.5
 20
1698.999919565669
 30
0.0
 11
-1493.0
 21
1699.0
 31
0.0
  0
LINE
  5
1617C
330
1A
100
AcDbEntity
  8
ZISSEN1
100
AcDbLine
 10
-1600.0
 20
1699.0
 30
0.0
 11
-1595.499893094056
 21
1698.999919565669
 31
0.0
  0
LINE
  5
1617D
330
1A
100
AcDbEntity
  8
ZISSEN1
100
AcDbLine
 10
-1600.0
 20
1711.0
 30
0.0
 11
-1596.499999999999
 21
1711.0
 31
0.0
  0
DIMENSION
  5
161AC
330
1A
100
AcDbEntity
  8
SUNPOU
100
AcDbDimension
  2
*D8
 10
-1492.0
 20
1683.05863695306
 30
0.0
 11
-1546.499999999999
 21
1685.43363695306
 31
0.0
 70
    32
  3
ISO-25
100
AcDbAlignedDimension
 13
-1601.0
 23
1700.0
 33
0.0
 14
-1492.0
 24
1700.0
 34
0.0
100
AcDbRotatedDimension
1001
ACAD
1000
DSTYLE
1002
{
1070
   140
1040
3.5
1002
}
  0
VIEWPORT
  5
5D8F
330
5D8E
100
AcDbEntity
 67
     1
  8
0
100
AcDbViewport
 10
287.0473778153359
 20
157.7044712315178
 30
0.0
 40
576.2284763319761
 41
262.810792099514
 68
     1
 69
     1
1001
ACAD
1000
MVIEW
1002
{
1070
    16
1010
0.0
1020
0.0
1030
0.0
1010
0.0
1020
0.0
1030
1.0
1040
0.0
1040
262.810792099514
1040
287.0473778153359
1040
157.7044712315178
1040
50.0
1040
0.0
1040
0.0
1070
     0
1070
   100
1070
     1
1070
     0
1070
     0
1070
     0
1070
     0
1070
     0
1040
0.0
1040
0.0
1040
0.0
1040
1.0
1040
1.0
1040
10.0
1040
10.0
1070
     0
1002
{
1002
}
1002
}
  0
VIEWPORT
  5
6001
330
5D8E
100
AcDbEntity
 67
     1
  8
ZISSEN1
100
AcDbViewport
 10
221.7861955525412
 20
157.6960273330388
 30
0.0
 40
385.4999999999997
 41
259.9999999999999
 68
     2
 69
     2
1001
ACAD
1000
MVIEW
1002
{
1070
    16
1010
0.0
1020
0.0
1030
0.0
1010
0.0
1020
0.0
1030
1.0
1040
0.0
1040
259.9999999999999
1040
-1556.640557054841
1040
1672.431241255595
1040
50.0
1040
0.0
1040
0.0
1070
     0
1070
   100
1070
     1
1070
     0
1070
     0
1070
     0
1070
     0
1070
     0
1040
0.0
1040
0.0
1040
0.0
1040
1.0
1040
1.0
1040
10.0
1040
10.0
1070
     0
1002
{
1002
}
1002
}
  0
TEXT
  5
716F
330
5D8E
100
AcDbEntity
 67
     1
  8
SUNPOU
 62
     0
100
AcDbText
 10
347.1296585696195
 20
69.86241598515869
 30
0.0
 40
3.5
  1
縮尺 1/1
  7
ゴシック体
100
AcDbText
  0
ENDSEC
  0
SECTION
  2
OBJECTS
  0
DICTIONARY
  5
C
330
0
100
AcDbDictionary
  3
ACAD_GROUP
350
D
  3
ACAD_LAYOUT
350
5C7D
  3
ACAD_MLINESTYLE
350
E
  3
ACAD_PLOTSETTINGS
350
5C7E
  3
ACAD_PLOTSTYLENAME
350
5C7B
  3
ACADDIM
350
1589A
  3
DWGPROPS
350
5E8E
  3
ACDBVARIABLEDICTIONARY
350
16311
  3
ACDBHEADERROUNDTRIPXREC
350
16313
  0
DICTIONARY
  5
130FA
330
2
100
AcDbDictionary
280
     1
  3
ACAD_LAYERFILTERS
360
130FB
  0
DICTIONARY
  5
16333
330
1A
100
AcDbDictionary
280
     1
  3
ACAD_LAYOUTSELFREF
360
16334
  0
DICTIONARY
  5
16335
330
5D8E
100
AcDbDictionary
280
     1
  3
ACAD_LAYOUTSELFREF
360
16336
  0
DICTIONARY
  5
D
102
{ACAD_REACTORS
330
C
102
}
330
C
100
AcDbDictionary
  3
*A1
350
477D
  3
*A2
350
4C12
  3
*A3
350
4C17
  3
*A4
350
4C14
  3
*A5
350
477E
  3
*A6
350
4781
  3
*A7
350
4C0F
  3
*A8
350
4C10
  3
*A9
350
477F
  3
*A10
350
4780
  3
*A11
350
4C11
  3
*A12
350
4C0E
  3
*A13
350
15969
  3
*A14
350
1596C
  3
*A15
350
1596D
  3
*A16
350
1596E
  3
*A17
350
1596A
  3
*A18
350
1596B
  3
*A19
350
1596F
  3
*A20
350
15970
  3
*A21
350
15973
  3
*A22
350
15974
  3
*A23
350
15975
  3
*A24
350
15971
  3
*A25
350
15972
  3
*A26
350
15976
  3
*A27
350
4C13
  3
*A28
350
4C15
  3
*A29
350
4C16
  3
*A30
350
15977
  0
DICTIONARY
  5
5C7D
102
{ACAD_REACTORS
330
C
102
}
330
C
100
AcDbDictionary
  0
DICTIONARY
  5
E
102
{ACAD_REACTORS
330
C
102
}
330
C
100
AcDbDictionary
  3
STANDARD
350
13
  0
DICTIONARY
  5
5C7E
102
{ACAD_REACTORS
330
C
102
}
330
C
100
AcDbDictionary
  0
ACDBDICTIONARYWDFLT
  5
5C7B
102
{ACAD_REACTORS
330
C
102
}
330
C
100
AcDbDictionary
281
     1
  3
Normal
350
5C7C
100
AcDbDictionaryWithDefault
340
5C7C
  0
XRECORD
  5
1589A
102
{ACAD_REACTORS
330
C
102
}
330
C
100
AcDbXrecord
 90
   990106
  3

 60
     0
 61
     0
 62
     1
 63
     3
 64
     0
 65
     0
 66
     0
 67
     3
 68
     1
 69
     0
 70
     0
 71
     0
 72
     0
 40
0.0
170
     0
  0
XRECORD
  5
5E8E
102
{ACAD_REACTORS
330
C
102
}
330
C
100
AcDbXrecord
  1
DWGPROPS COOKIE
  2

  3

  4

  6

  7

  8

  9

300
=
301
=
302
=
303
=
304
=
305
=
306
=
307
=
308
=
309
=
 40
0.586753587962963
 41
2450495.493631365
 42
2453208.662277431
  1

 90
        0
  0
DICTIONARY
  5
16311
102
{ACAD_REACTORS
330
C
102
}
330
C
100
AcDbDictionary
  3
INDEXCTL
350
16312
  0
DICTIONARY
  5
16313
102
{ACAD_REACTORS
330
C
102
}
330
C
100
AcDbDictionary
  3
TSTACKALIGN
350
16314
  3
TSTACKSIZE
350
16315
  3
HYPERLINKBASE
350
16316
  3
STYLESHEET
350
16317
  3
LAYOUTDICT
350
16318
  3
PLOTSETDICT
350
16319
  3
PLOTSTYLNAMDICT
350
1631A
  3
LWETCUNION
350
1631B
  3
INSUNITS
350
1631C
  3
CEPSNTYPE
350
1631D
  3
FINGERPRINTGUID
350
1631E
  3
VERSIONGUID
350
1631F
  3
PSVPSCALE
350
16320
  3
PUCSORTHOREF
350
16321
  3
PUCSORTHOVIEW
350
16322
  3
PUCSBASE
350
16323
  3
PUCSORGTOP
350
16324
  3
PUCSORGBOTTOM
350
16325
  3
PUCSORGLEFT
350
16326
  3
PUCSORGRIGHT
350
16327
  3
PUCSORGFRONT
350
16328
  3
PUCSORGBACK
350
16329
  3
UCSORTHOREF
350
1632A
  3
UCSORTHOVIEW
350
1632B
  3
UCSBASE
350
1632C
  3
UCSORGTOP
350
1632D
  3
UCSORGBOTTOM
350
1632E
  3
UCSORGLEFT
350
1632F
  3
UCSORGRIGHT
350
16330
  3
UCSORGFRONT
350
16331
  3
UCSORGBACK
350
16332
  0
DICTIONARY
  5
130FB
102
{ACAD_REACTORS
330
130FA
102
}
330
130FA
100
AcDbDictionary
280
     1
  3
BASE
360
130FC
  3
CASE
360
130FD
  3
KIKOU
360
130FE
  0
XRECORD
  5
16334
102
{ACAD_REACTORS
330
16333
102
}
330
16333
100
AcDbXrecord
340
1A
  0
XRECORD
  5
16336
102
{ACAD_REACTORS
330
16335
102
}
330
16335
100
AcDbXrecord
340
5D8E
  0
GROUP
  5
477D
102
{ACAD_REACTORS
330
D
102
}
330
D
100
AcDbGroup
300

 70
     1
 71
     1
  0
GROUP
  5
4C12
102
{ACAD_REACTORS
330
D
102
}
330
D
100
AcDbGroup
300

 70
     1
 71
     1
  0
GROUP
  5
4C17
102
{ACAD_REACTORS
330
D
102
}
330
D
100
AcDbGroup
300

 70
     1
 71
     1
  0
GROUP
  5
4C14
102
{ACAD_REACTORS
330
D
102
}
330
D
100
AcDbGroup
300

 70
     1
 71
     1
  0
GROUP
  5
477E
102
{ACAD_REACTORS
330
D
102
}
330
D
100
AcDbGroup
300

 70
     1
 71
     1
  0
GROUP
  5
4781
102
{ACAD_REACTORS
330
D
102
}
330
D
100
AcDbGroup
300

 70
     1
 71
     1
  0
GROUP
  5
4C0F
102
{ACAD_REACTORS
330
D
102
}
330
D
100
AcDbGroup
300

 70
     1
 71
     1
  0
GROUP
  5
4C10
102
{ACAD_REACTORS
330
D
102
}
330
D
100
AcDbGroup
300

 70
     1
 71
     1
  0
GROUP
  5
477F
102
{ACAD_REACTORS
330
D
102
}
330
D
100
AcDbGroup
300

 70
     1
 71
     1
  0
GROUP
  5
4780
102
{ACAD_REACTORS
330
D
102
}
330
D
100
AcDbGroup
300

 70
     1
 71
     1
  0
GROUP
  5
4C11
102
{ACAD_REACTORS
330
D
102
}
330
D
100
AcDbGroup
300

 70
     1
 71
     1
  0
GROUP
  5
4C0E
102
{ACAD_REACTORS
330
D
102
}
330
D
100
AcDbGroup
300

 70
     1
 71
     1
  0
GROUP
  5
15969
102
{ACAD_REACTORS
330
D
102
}
330
D
100
AcDbGroup
300

 70
     1
 71
     1
  0
GROUP
  5
1596C
102
{ACAD_REACTORS
330
D
102
}
330
D
100
AcDbGroup
300

 70
     1
 71
     1
  0
GROUP
  5
1596D
102
{ACAD_REACTORS
330
D
102
}
330
D
100
AcDbGroup
300

 70
     1
 71
     1
  0
GROUP
  5
1596E
102
{ACAD_REACTORS
330
D
102
}
330
D
100
AcDbGroup
300

 70
     1
 71
     1
  0
GROUP
  5
1596A
102
{ACAD_REACTORS
330
D
102
}
330
D
100
AcDbGroup
300

 70
     1
 71
     1
  0
GROUP
  5
1596B
102
{ACAD_REACTORS
330
D
102
}
330
D
100
AcDbGroup
300

 70
     1
 71
     1
  0
GROUP
  5
1596F
102
{ACAD_REACTORS
330
D
102
}
330
D
100
AcDbGroup
300

 70
     1
 71
     1
  0
GROUP
  5
15970
102
{ACAD_REACTORS
330
D
102
}
330
D
100
AcDbGroup
300

 70
     1
 71
     1
  0
GROUP
  5
15973
102
{ACAD_REACTORS
330
D
102
}
330
D
100
AcDbGroup
300

 70
     1
 71
     1
  0
GROUP
  5
15974
102
{ACAD_REACTORS
330
D
102
}
330
D
100
AcDbGroup
300

 70
     1
 71
     1
  0
GROUP
  5
15975
102
{ACAD_REACTORS
330
D
102
}
330
D
100
AcDbGroup
300

 70
     1
 71
     1
  0
GROUP
  5
15971
102
{ACAD_REACTORS
330
D
102
}
330
D
100
AcDbGroup
300

 70
     1
 71
     1
  0
GROUP
  5
15972
102
{ACAD_REACTORS
330
D
102
}
330
D
100
AcDbGroup
300

 70
     1
 71
     1
  0
GROUP
  5
15976
102
{ACAD_REACTORS
330
D
102
}
330
D
100
AcDbGroup
300

 70
     1
 71
     1
  0
GROUP
  5
4C13
102
{ACAD_REACTORS
330
D
102
}
330
D
100
AcDbGroup
300

 70
     1
 71
     1
  0
GROUP
  5
4C15
102
{ACAD_REACTORS
330
D
102
}
330
D
100
AcDbGroup
300

 70
     1
 71
     1
  0
GROUP
  5
4C16
102
{ACAD_REACTORS
330
D
102
}
330
D
100
AcDbGroup
300

 70
     1
 71
     1
  0
GROUP
  5
15977
102
{ACAD_REACTORS
330
D
102
}
330
D
100
AcDbGroup
300

 70
     1
 71
     1
  0
MLINESTYLE
  5
13
102
{ACAD_REACTORS
330
E
102
}
330
E
100
AcDbMlineStyle
  2
STANDARD
 70
     0
  3

 62
     0
 51
90.0
 52
90.0
 71
     2
 49
0.5
 62
   256
  6
BYLAYER
 49
-0.5
 62
   256
  6
BYLAYER
  0
ACDBPLACEHOLDER
  5
5C7C
102
{ACAD_REACTORS
330
5C7B
102
}
330
5C7B
100
AcDbPlaceHolder
280
     0
  0
DICTIONARYVAR
  5
16312
102
{ACAD_REACTORS
330
16311
102
}
330
16311
100
DictionaryVariables
280
     0
  1
-1
  0
XRECORD
  5
16314
102
{ACAD_REACTORS
330
16313
102
}
330
16313
100
AcDbXrecord
 90
        1
  0
XRECORD
  5
16315
102
{ACAD_REACTORS
330
16313
102
}
330
16313
100
AcDbXrecord
 90
       70
  0
XRECORD
  5
16316
102
{ACAD_REACTORS
330
16313
102
}
330
16313
100
AcDbXrecord
  1

  0
XRECORD
  5
16317
102
{ACAD_REACTORS
330
16313
102
}
330
16313
100
AcDbXrecord
  1

  0
XRECORD
  5
16318
102
{ACAD_REACTORS
330
16313
102
}
330
16313
100
AcDbXrecord
340
5C7D
  0
XRECORD
  5
16319
102
{ACAD_REACTORS
330
16313
102
}
330
16313
100
AcDbXrecord
340
5C7E
  0
XRECORD
  5
1631A
102
{ACAD_REACTORS
330
16313
102
}
330
16313
100
AcDbXrecord
340
5C7B
  0
XRECORD
  5
1631B
102
{ACAD_REACTORS
330
16313
102
}
330
16313
100
AcDbXrecord
 90
    10781
  0
XRECORD
  5
1631C
102
{ACAD_REACTORS
330
16313
102
}
330
16313
100
AcDbXrecord
 90
        0
  0
XRECORD
  5
1631D
102
{ACAD_REACTORS
330
16313
102
}
330
16313
100
AcDbXrecord
 90
        0
  0
XRECORD
  5
1631E
102
{ACAD_REACTORS
330
16313
102
}
330
16313
100
AcDbXrecord
  1
{225A7F0D-DA29-11D8-946A-0000E2416295}
  0
XRECORD
  5
1631F
102
{ACAD_REACTORS
330
16313
102
}
330
16313
100
AcDbXrecord
  1
{787BABA6-CE10-4197-9A91-F96BB1DA5212}
  0
XRECORD
  5
16320
102
{ACAD_REACTORS
330
16313
102
}
330
16313
100
AcDbXrecord
 40
0.0
  0
XRECORD
  5
16321
102
{ACAD_REACTORS
330
16313
102
}
330
16313
100
AcDbXrecord
340
0
  0
XRECORD
  5
16322
102
{ACAD_REACTORS
330
16313
102
}
330
16313
100
AcDbXrecord
 70
     0
  0
XRECORD
  5
16323
102
{ACAD_REACTORS
330
16313
102
}
330
16313
100
AcDbXrecord
340
0
  0
XRECORD
  5
16324
102
{ACAD_REACTORS
330
16313
102
}
330
16313
100
AcDbXrecord
 10
0.0
 20
0.0
 30
0.0
  0
XRECORD
  5
16325
102
{ACAD_REACTORS
330
16313
102
}
330
16313
100
AcDbXrecord
 10
0.0
 20
0.0
 30
0.0
  0
XRECORD
  5
16326
102
{ACAD_REACTORS
330
16313
102
}
330
16313
100
AcDbXrecord
 10
0.0
 20
0.0
 30
0.0
  0
XRECORD
  5
16327
102
{ACAD_REACTORS
330
16313
102
}
330
16313
100
AcDbXrecord
 10
0.0
 20
0.0
 30
0.0
  0
XRECORD
  5
16328
102
{ACAD_REACTORS
330
16313
102
}
330
16313
100
AcDbXrecord
 10
0.0
 20
0.0
 30
0.0
  0
XRECORD
  5
16329
102
{ACAD_REACTORS
330
16313
102
}
330
16313
100
AcDbXrecord
 10
0.0
 20
0.0
 30
0.0
  0
XRECORD
  5
1632A
102
{ACAD_REACTORS
330
16313
102
}
330
16313
100
AcDbXrecord
340
0
  0
XRECORD
  5
1632B
102
{ACAD_REACTORS
330
16313
102
}
330
16313
100
AcDbXrecord
 70
     0
  0
XRECORD
  5
1632C
102
{ACAD_REACTORS
330
16313
102
}
330
16313
100
AcDbXrecord
340
0
  0
XRECORD
  5
1632D
102
{ACAD_REACTORS
330
16313
102
}
330
16313
100
AcDbXrecord
 10
0.0
 20
0.0
 30
0.0
  0
XRECORD
  5
1632E
102
{ACAD_REACTORS
330
16313
102
}
330
16313
100
AcDbXrecord
 10
0.0
 20
0.0
 30
0.0
  0
XRECORD
  5
1632F
102
{ACAD_REACTORS
330
16313
102
}
330
16313
100
AcDbXrecord
 10
0.0
 20
0.0
 30
0.0
  0
XRECORD
  5
16330
102
{ACAD_REACTORS
330
16313
102
}
330
16313
100
AcDbXrecord
 10
0.0
 20
0.0
 30
0.0
  0
XRECORD
  5
16331
102
{ACAD_REACTORS
330
16313
102
}
330
16313
100
AcDbXrecord
 10
0.0
 20
0.0
 30
0.0
  0
XRECORD
  5
16332
102
{ACAD_REACTORS
330
16313
102
}
330
16313
100
AcDbXrecord
 10
0.0
 20
0.0
 30
0.0
  0
XRECORD
  5
130FC
102
{ACAD_REACTORS
330
130FB
102
}
330
130FB
100
AcDbXrecord
  1
BASE
  1
BASE*
  1
*
  1
*
 70
     0
  1
*
  1
*
  0
XRECORD
  5
130FD
102
{ACAD_REACTORS
330
130FB
102
}
330
130FB
100
AcDbXrecord
  1
CASE
  1
CASE*
  1
*
  1
*
 70
     0
  1
*
  1
*
  0
XRECORD
  5
130FE
102
{ACAD_REACTORS
330
130FB
102
}
330
130FB
100
AcDbXrecord
  1
KIKOU
  1
KIKOU*
  1
*
  1
*
 70
     0
  1
*
  1
*
  0
ENDSEC
  0
EOF
