  0
SECTION
  2
HEADER
  9
$ACADVER
  1
AC1014
  9
$ACADMAINTVER
 70
     9
  9
$DWGCODEPAGE
  3
ANSI_932
  9
$INSBASE
 10
0.0
 20
0.0
 30
0.0
  9
$EXTMIN
 10
-1717.03213769882
 20
1656.816511750814
 30
0.0
  9
$EXTMAX
 10
-1560.0
 20
1835.705541599433
 30
0.0
  9
$LIMMIN
 10
0.0
 20
0.0
  9
$LIMMAX
 10
420.0
 20
297.0
  9
$ORTHOMODE
 70
     1
  9
$REGENMODE
 70
     1
  9
$FILLMODE
 70
     1
  9
$QTEXTMODE
 70
     0
  9
$MIRRTEXT
 70
     1
  9
$DRAGMODE
 70
     2
  9
$LTSCALE
 40
1.0
  9
$OSMODE
 70
    37
  9
$ATTMODE
 70
     1
  9
$TEXTSIZE
 40
2.5
  9
$TRACEWID
 40
1.0
  9
$TEXTSTYLE
  7
ゴシック体
  9
$CLAYER
  8
CL1
  9
$CELTYPE
  6
BYLAYER
  9
$CECOLOR
 62
   256
  9
$CELTSCALE
 40
1.0
  9
$DELOBJ
 70
     1
  9
$DISPSILH
 70
     0
  9
$DIMSCALE
 40
0.0
  9
$DIMASZ
 40
3.0
  9
$DIMEXO
 40
0.5
  9
$DIMDLI
 40
0.5
  9
$DIMRND
 40
0.0
  9
$DIMDLE
 40
0.0
  9
$DIMEXE
 40
0.5
  9
$DIMTP
 40
0.0
  9
$DIMTM
 40
0.0
  9
$DIMTXT
 40
3.5
  9
$DIMCEN
 40
0.0
  9
$DIMTSZ
 40
0.0
  9
$DIMTOL
 70
     0
  9
$DIMLIM
 70
     0
  9
$DIMTIH
 70
     0
  9
$DIMTOH
 70
     0
  9
$DIMSE1
 70
     0
  9
$DIMSE2
 70
     0
  9
$DIMTAD
 70
     1
  9
$DIMZIN
 70
     8
  9
$DIMBLK
  1

  9
$DIMASO
 70
     1
  9
$DIMSHO
 70
     1
  9
$DIMPOST
  1

  9
$DIMAPOST
  1

  9
$DIMALT
 70
     0
  9
$DIMALTD
 70
     2
  9
$DIMALTF
 40
25.4
  9
$DIMLFAC
 40
1.0
  9
$DIMTOFL
 70
     1
  9
$DIMTVP
 40
0.0
  9
$DIMTIX
 70
     0
  9
$DIMSOXD
 70
     0
  9
$DIMSAH
 70
     0
  9
$DIMBLK1
  1

  9
$DIMBLK2
  1

  9
$DIMSTYLE
  2
標準スタイル
  9
$DIMCLRD
 70
     1
  9
$DIMCLRE
 70
     1
  9
$DIMCLRT
 70
     1
  9
$DIMTFAC
 40
1.0
  9
$DIMGAP
 40
1.0
  9
$DIMJUST
 70
     0
  9
$DIMSD1
 70
     0
  9
$DIMSD2
 70
     0
  9
$DIMTOLJ
 70
     1
  9
$DIMTZIN
 70
     8
  9
$DIMALTZ
 70
     0
  9
$DIMALTTZ
 70
     0
  9
$DIMFIT
 70
     3
  9
$DIMUPT
 70
     0
  9
$DIMUNIT
 70
     2
  9
$DIMDEC
 70
     2
  9
$DIMTDEC
 70
     2
  9
$DIMALTU
 70
     2
  9
$DIMALTTD
 70
     2
  9
$DIMTXSTY
  7
ゴシック体
  9
$DIMAUNIT
 70
     0
  9
$LUNITS
 70
     2
  9
$LUPREC
 70
     4
  9
$SKETCHINC
 40
1.0
  9
$FILLETRAD
 40
1.75
  9
$AUNITS
 70
     0
  9
$AUPREC
 70
     0
  9
$MENU
  1
.
  9
$ELEVATION
 40
0.0
  9
$PELEVATION
 40
0.0
  9
$THICKNESS
 40
0.0
  9
$LIMCHECK
 70
     0
  9
$BLIPMODE
 70
     0
  9
$CHAMFERA
 40
1.0
  9
$CHAMFERB
 40
1.0
  9
$CHAMFERC
 40
2.0
  9
$CHAMFERD
 40
0.7853981633974483
  9
$SKPOLY
 70
     0
  9
$TDCREATE
 40
2450495.493631365
  9
$TDUPDATE
 40
2454488.635581088
  9
$TDINDWG
 40
2.4172067824
  9
$TDUSRTIMER
 40
2.4172031829
  9
$USRTIMER
 70
     1
  9
$ANGBASE
 50
0.0
  9
$ANGDIR
 70
     0
  9
$PDMODE
 70
    99
  9
$PDSIZE
 40
0.0
  9
$PLINEWID
 40
0.0
  9
$COORDS
 70
     1
  9
$SPLFRAME
 70
     0
  9
$SPLINETYPE
 70
     6
  9
$SPLINESEGS
 70
     8
  9
$ATTDIA
 70
     0
  9
$ATTREQ
 70
     1
  9
$HANDLING
 70
 10241
  9
$HANDSEED
  5
13E23
  9
$SURFTAB1
 70
     6
  9
$SURFTAB2
 70
     6
  9
$SURFTYPE
 70
     6
  9
$SURFU
 70
     6
  9
$SURFV
 70
     6
  9
$UCSNAME
  2

  9
$UCSORG
 10
0.0
 20
0.0
 30
0.0
  9
$UCSXDIR
 10
1.0
 20
0.0
 30
0.0
  9
$UCSYDIR
 10
0.0
 20
1.0
 30
0.0
  9
$PUCSNAME
  2

  9
$PUCSORG
 10
0.0
 20
0.0
 30
0.0
  9
$PUCSXDIR
 10
1.0
 20
0.0
 30
0.0
  9
$PUCSYDIR
 10
0.0
 20
1.0
 30
0.0
  9
$USERI1
 70
     0
  9
$USERI2
 70
     0
  9
$USERI3
 70
     0
  9
$USERI4
 70
     0
  9
$USERI5
 70
     0
  9
$USERR1
 40
0.0
  9
$USERR2
 40
0.0
  9
$USERR3
 40
0.0
  9
$USERR4
 40
0.0
  9
$USERR5
 40
0.0
  9
$WORLDVIEW
 70
     1
  9
$SHADEDGE
 70
     3
  9
$SHADEDIF
 70
    70
  9
$TILEMODE
 70
     0
  9
$MAXACTVP
 70
    16
  9
$PINSBASE
 10
0.0
 20
0.0
 30
0.0
  9
$PLIMCHECK
 70
     0
  9
$PEXTMIN
 10
29.03619555254115
 20
27.69602733303884
 30
0.0
  9
$PEXTMAX
 10
414.5361955525409
 20
287.6960273330388
 30
0.0
  9
$PLIMMIN
 10
11.80613426504037
 20
9.195802877591523
  9
$PLIMMAX
 10
431.7527895384778
 20
306.2064535123571
  9
$UNITMODE
 70
     0
  9
$VISRETAIN
 70
     0
  9
$PLINEGEN
 70
     0
  9
$PSLTSCALE
 70
     1
  9
$TREEDEPTH
 70
  3020
  9
$PICKSTYLE
 70
     1
  9
$CMLSTYLE
  2
STANDARD
  9
$CMLJUST
 70
     0
  9
$CMLSCALE
 40
1.0
  9
$PROXYGRAPHICS
 70
     1
  9
$MEASUREMENT
 70
     1
  0
ENDSEC
  0
SECTION
  2
CLASSES
  0
CLASS
  1
LWPOLYLINE
  2
AcDbPolyline
  3
AutoCAD 2000
 90
        0
280
     0
281
     1
  0
CLASS
  1
HATCH
  2
AcDbHatch
  3
AutoCAD 2000
 90
        0
280
     0
281
     1
  0
CLASS
  1
ACDBDICTIONARYWDFLT
  2
AcDbDictionaryWithDefault
  3
AutoCAD 2000
 90
        0
280
     0
281
     0
  0
CLASS
  1
ACDBPLACEHOLDER
  2
AcDbPlaceHolder
  3
AutoCAD 2000
 90
        0
280
     0
281
     0
  0
CLASS
  1
LAYOUT
  2
AcDbLayout
  3
AutoCAD 2000
 90
        0
280
     0
281
     0
  0
CLASS
  1
DICTIONARYVAR
  2
AcDbDictionaryVar
  3
AutoCAD 2000
 90
        0
280
     0
281
     0
  0
CLASS
  1
LONG_TRANSACTION
  2
AcDbLongTransaction
  3
AutoCAD 2000
 90
        0
280
     0
281
     0
  0
CLASS
  1
LWPOLYLINE
  2
AcDbPolyline
  3
AutoCAD 2000
 90
        0
280
     0
281
     1
  0
CLASS
  1
HATCH
  2
AcDbHatch
  3
AutoCAD 2000
 90
        0
280
     0
281
     1
  0
CLASS
  1
XRECORD
  2
AcDbXrecord
  3
AutoCAD 2000
 90
        0
280
     0
281
     0
  0
CLASS
  1
LONG_TRANSACTION
  2
AcDbLongTransaction
  3
AutoCAD 2000
 90
        0
280
     0
281
     0
  0
CLASS
  1
LWPOLYLINE
  2
AcDbPolyline
  3
AutoCAD 2000
 90
        0
280
     0
281
     1
  0
CLASS
  1
HATCH
  2
AcDbHatch
  3
AutoCAD 2000
 90
        0
280
     0
281
     1
  0
CLASS
  1
XRECORD
  2
AcDbXrecord
  3
AutoCAD 2000
 90
        0
280
     0
281
     0
  0
CLASS
  1
LONG_TRANSACTION
  2
AcDbLongTransaction
  3
AutoCAD 2000
 90
        0
280
     0
281
     0
  0
CLASS
  1
LWPOLYLINE
  2
AcDbPolyline
  3
AutoCAD 2000
 90
        0
280
     0
281
     1
  0
CLASS
  1
HATCH
  2
AcDbHatch
  3
AutoCAD 2000
 90
        0
280
     0
281
     1
  0
CLASS
  1
XRECORD
  2
AcDbXrecord
  3
AutoCAD 2000
 90
        0
280
     0
281
     0
  0
ENDSEC
  0
SECTION
  2
TABLES
  0
TABLE
  2
VPORT
  5
8
330
0
100
AcDbSymbolTable
 70
     2
  0
VPORT
  5
13DD7
330
8
100
AcDbSymbolTableRecord
100
AcDbViewportTableRecord
  2
*ACTIVE
 70
     0
 10
0.0
 20
0.0
 11
1.0
 21
1.0
 12
-1607.302412282922
 22
1766.143956465454
 13
0.0
 23
0.0
 14
5.0
 24
5.0
 15
0.0
 25
0.0
 16
0.0
 26
0.0
 36
1.0
 17
0.0
 27
0.0
 37
0.0
 40
237.1345631886417
 41
2.040733197556008
 42
50.0
 43
0.0
 44
0.0
 50
0.0
 51
0.0
 71
     0
 72
   100
 73
     1
 74
     0
 75
     0
 76
     0
 77
     0
 78
     0
  0
ENDTAB
  0
TABLE
  2
LTYPE
  5
5
330
0
100
AcDbSymbolTable
 70
     2
  0
LTYPE
  5
14
330
5
100
AcDbSymbolTableRecord
100
AcDbLinetypeTableRecord
  2
BYBLOCK
 70
     0
  3

 72
    65
 73
     0
 40
0.0
  0
LTYPE
  5
15
330
5
100
AcDbSymbolTableRecord
100
AcDbLinetypeTableRecord
  2
BYLAYER
 70
     0
  3

 72
    65
 73
     0
 40
0.0
  0
LTYPE
  5
16
330
5
100
AcDbSymbolTableRecord
100
AcDbLinetypeTableRecord
  2
CONTINUOUS
 70
     0
  3
Solid line
 72
    65
 73
     0
 40
0.0
  0
LTYPE
  5
1956
330
5
100
AcDbSymbolTableRecord
100
AcDbLinetypeTableRecord
  2
CENTERX2
 70
     0
  3
________  __  ________  __  ________  __  _____
 72
    65
 73
     4
 40
4.0
 49
2.5
 74
     0
 49
-0.5
 74
     0
 49
0.5
 74
     0
 49
-0.5
 74
     0
  0
ENDTAB
  0
TABLE
  2
LAYER
  5
2
330
0
100
AcDbSymbolTable
 70
     5
  0
LAYER
  5
F
330
2
100
AcDbSymbolTableRecord
100
AcDbLayerTableRecord
  2
0
 70
     0
 62
     7
  6
CONTINUOUS
  0
LAYER
  5
18F
330
2
100
AcDbSymbolTableRecord
100
AcDbLayerTableRecord
  2
ZISSEN1
 70
     0
 62
     7
  6
CONTINUOUS
  0
LAYER
  5
529
330
2
100
AcDbSymbolTableRecord
100
AcDbLayerTableRecord
  2
SUNPOU
 70
     0
 62
     1
  6
CONTINUOUS
  0
LAYER
  5
195A
330
2
100
AcDbSymbolTableRecord
100
AcDbLayerTableRecord
  2
CL1
 70
     0
 62
   210
  6
CENTERX2
  0
LAYER
  5
3A9B
330
2
100
AcDbSymbolTableRecord
100
AcDbLayerTableRecord
  2
DEFPOINTS
 70
     0
 62
     7
  6
CONTINUOUS
  0
ENDTAB
  0
TABLE
  2
STYLE
  5
3
330
0
100
AcDbSymbolTable
 70
     2
  0
STYLE
  5
10
330
3
100
AcDbSymbolTableRecord
100
AcDbTextStyleTableRecord
  2
STANDARD
 70
     0
 40
0.0
 41
1.0
 50
0.0
 71
     0
 42
3.0
  3
txt
  4
BigFont
  0
STYLE
  5
1960
330
3
100
AcDbSymbolTableRecord
100
AcDbTextStyleTableRecord
  2
ゴシック体
 70
     0
 40
0.0
 41
1.0
 50
0.0
 71
     0
 42
2.5
  3
MS Gothic.ttf
  4

1001
ACAD
1000
MS Gothic
1071
    32817
  0
ENDTAB
  0
TABLE
  2
VIEW
  5
6
330
0
100
AcDbSymbolTable
 70
     0
  0
ENDTAB
  0
TABLE
  2
UCS
  5
7
330
0
100
AcDbSymbolTable
 70
     0
  0
ENDTAB
  0
TABLE
  2
APPID
  5
9
330
0
100
AcDbSymbolTable
 70
     5
  0
APPID
  5
11
330
9
100
AcDbSymbolTableRecord
100
AcDbRegAppTableRecord
  2
ACAD
 70
     0
  0
APPID
  5
4005
330
9
100
AcDbSymbolTableRecord
100
AcDbRegAppTableRecord
  2
CONTENTTABDATA
 70
     0
  0
APPID
  5
4006
330
9
100
AcDbSymbolTableRecord
100
AcDbRegAppTableRecord
  2
CONTENTCURRENTTAB
 70
     0
  0
APPID
  5
477B
330
9
100
AcDbSymbolTableRecord
100
AcDbRegAppTableRecord
  2
CONTENTBLOCKDESCRIPTION
 70
     0
  0
APPID
  5
477C
330
9
100
AcDbSymbolTableRecord
100
AcDbRegAppTableRecord
  2
CONTENTBLOCKICON
 70
     0
  0
ENDTAB
  0
TABLE
  2
DIMSTYLE
  5
A
330
0
100
AcDbSymbolTable
 70
     2
  0
DIMSTYLE
105
1D
330
A
100
AcDbSymbolTableRecord
100
AcDbDimStyleTableRecord
  2
STANDARD
 70
     0
  3

  4

  5

  6

  7

 40
1.0
 41
0.18
 42
0.0625
 43
0.38
 44
0.18
 45
0.0
 46
0.0
 47
0.0
 48
0.0
140
0.18
141
0.09
142
0.0
143
25.4
144
1.0
145
0.0
146
1.0
147
0.09
 71
     0
 72
     0
 73
     1
 74
     1
 75
     0
 76
     0
 77
     0
 78
     0
170
     0
171
     2
172
     0
173
     0
174
     0
175
     0
176
     0
177
     0
178
     0
270
     2
271
     4
272
     4
273
     2
274
     2
340
10
275
     0
280
     0
281
     0
282
     0
283
     1
284
     0
285
     0
286
     0
287
     3
288
     0
  0
DIMSTYLE
105
52E
102
{ACAD_REACTORS
330
136B7
330
136F5
330
13792
330
137AC
330
1389C
330
138AB
330
138B8
330
138C7
330
138F2
330
13901
330
1390E
330
139B0
330
139BD
330
13A6E
330
13C00
102
}
330
A
100
AcDbSymbolTableRecord
100
AcDbDimStyleTableRecord
  2
標準スタイル
 70
     0
  3

  4

  5

  6

  7

 40
0.0
 41
3.0
 42
0.5
 43
0.5
 44
0.5
 45
0.0
 46
0.0
 47
0.0
 48
0.0
140
3.5
141
0.0
142
0.0
143
25.4
144
1.0
145
0.0
146
1.0
147
1.0
 71
     0
 72
     0
 73
     0
 74
     0
 75
     0
 76
     0
 77
     1
 78
     8
170
     0
171
     2
172
     1
173
     0
174
     0
175
     0
176
     1
177
     1
178
     1
270
     2
271
     2
272
     2
273
     2
274
     2
340
1960
275
     0
280
     0
281
     0
282
     0
283
     1
284
     8
285
     0
286
     0
287
     3
288
     0
  0
ENDTAB
  0
TABLE
  2
BLOCK_RECORD
  5
1
330
0
100
AcDbSymbolTable
 70
    15
  0
BLOCK_RECORD
  5
1A
102
{ACAD_XDICTIONARY
360
12CF1
102
}
330
1
100
AcDbSymbolTableRecord
100
AcDbBlockTableRecord
  2
*MODEL_SPACE
  0
BLOCK_RECORD
  5
5D8E
102
{ACAD_XDICTIONARY
360
12CF3
102
}
330
1
100
AcDbSymbolTableRecord
100
AcDbBlockTableRecord
  2
*PAPER_SPACE
  0
BLOCK_RECORD
  5
1373E
330
1
100
AcDbSymbolTableRecord
100
AcDbBlockTableRecord
  2
*D0
  0
BLOCK_RECORD
  5
1374A
330
1
100
AcDbSymbolTableRecord
100
AcDbBlockTableRecord
  2
*D1
  0
BLOCK_RECORD
  5
13793
330
1
100
AcDbSymbolTableRecord
100
AcDbBlockTableRecord
  2
*D2
  0
BLOCK_RECORD
  5
137AD
330
1
100
AcDbSymbolTableRecord
100
AcDbBlockTableRecord
  2
*D3
  0
BLOCK_RECORD
  5
1389D
330
1
100
AcDbSymbolTableRecord
100
AcDbBlockTableRecord
  2
*D4
  0
BLOCK_RECORD
  5
138AC
330
1
100
AcDbSymbolTableRecord
100
AcDbBlockTableRecord
  2
*D5
  0
BLOCK_RECORD
  5
138B9
330
1
100
AcDbSymbolTableRecord
100
AcDbBlockTableRecord
  2
*D6
  0
BLOCK_RECORD
  5
138C8
330
1
100
AcDbSymbolTableRecord
100
AcDbBlockTableRecord
  2
*D7
  0
BLOCK_RECORD
  5
138F3
330
1
100
AcDbSymbolTableRecord
100
AcDbBlockTableRecord
  2
*D8
  0
BLOCK_RECORD
  5
13902
330
1
100
AcDbSymbolTableRecord
100
AcDbBlockTableRecord
  2
*D9
  0
BLOCK_RECORD
  5
1390F
330
1
100
AcDbSymbolTableRecord
100
AcDbBlockTableRecord
  2
*D10
  0
BLOCK_RECORD
  5
139B1
330
1
100
AcDbSymbolTableRecord
100
AcDbBlockTableRecord
  2
*D11
  0
BLOCK_RECORD
  5
139BE
330
1
100
AcDbSymbolTableRecord
100
AcDbBlockTableRecord
  2
*D12
  0
BLOCK_RECORD
  5
13A6F
330
1
100
AcDbSymbolTableRecord
100
AcDbBlockTableRecord
  2
*D13
  0
BLOCK_RECORD
  5
13C01
330
1
100
AcDbSymbolTableRecord
100
AcDbBlockTableRecord
  2
*D14
  0
ENDTAB
  0
ENDSEC
  0
SECTION
  2
BLOCKS
  0
BLOCK
  5
1B
330
1A
100
AcDbEntity
  8
0
100
AcDbBlockBegin
  2
*MODEL_SPACE
 70
     0
 10
0.0
 20
0.0
 30
0.0
  3
*MODEL_SPACE
  1

  0
ENDBLK
  5
1C
330
1A
100
AcDbEntity
  8
0
100
AcDbBlockEnd
  0
BLOCK
  5
5E60
330
5D8E
100
AcDbEntity
 67
     1
  8
0
100
AcDbBlockBegin
  2
*PAPER_SPACE
 70
     0
 10
0.0
 20
0.0
 30
0.0
  3
*PAPER_SPACE
  1

  0
ENDBLK
  5
5E61
330
5D8E
100
AcDbEntity
 67
     1
  8
0
100
AcDbBlockEnd
  0
BLOCK
  5
13748
330
1373E
100
AcDbEntity
  8
0
100
AcDbBlockBegin
  2
*D0
 70
     1
 10
0.0
 20
0.0
 30
0.0
  3
*D0
  1

  0
LINE
  5
13DAB
330
1373E
100
AcDbEntity
  8
SUNPOU
 62
     1
100
AcDbLine
 10
-1588.999999999999
 20
1751.5
 30
0.0
 11
-1588.999999999999
 21
1733.227330832896
 31
0.0
  0
LINE
  5
13DAC
330
1373E
100
AcDbEntity
  8
SUNPOU
 62
     1
100
AcDbLine
 10
-1560.0
 20
1749.5
 30
0.0
 11
-1560.0
 21
1733.227330832896
 31
0.0
  0
LINE
  5
13DAD
330
1373E
100
AcDbEntity
  8
SUNPOU
 62
     1
100
AcDbLine
 10
-1585.999999999999
 20
1733.727330832896
 30
0.0
 11
-1563.0
 21
1733.727330832896
 31
0.0
  0
SOLID
  5
13DAE
330
1373E
100
AcDbEntity
  8
SUNPOU
 62
     1
100
AcDbTrace
 10
-1585.999999999999
 20
1734.227330832896
 30
0.0
 11
-1585.999999999999
 21
1733.227330832896
 31
0.0
 12
-1588.999999999999
 22
1733.727330832896
 32
0.0
 13
-1588.999999999999
 23
1733.727330832896
 33
0.0
  0
SOLID
  5
13DAF
330
1373E
100
AcDbEntity
  8
SUNPOU
 62
     1
100
AcDbTrace
 10
-1563.0
 20
1734.227330832896
 30
0.0
 11
-1563.0
 21
1733.227330832896
 31
0.0
 12
-1560.0
 22
1733.727330832896
 32
0.0
 13
-1560.0
 23
1733.727330832896
 33
0.0
  0
MTEXT
  5
13DB0
330
1373E
100
AcDbEntity
  8
SUNPOU
 62
     1
100
AcDbMText
 10
-1574.499999999999
 20
1736.477330832896
 30
0.0
 40
3.5
 41
0.0
 71
     5
 72
     1
  1
\A1;29
1001
ACAD
1000
MTEXTBEGIN
1070
    73
1070
     1
1070
    44
1040
1.0
1070
    74
1070
     0
1000
MTEXTEND
  0
POINT
  5
13DB1
330
1373E
100
AcDbEntity
  8
DEFPOINTS
 62
     0
100
AcDbPoint
 10
-1588.999999999999
 20
1752.0
 30
0.0
  0
POINT
  5
13DB2
330
1373E
100
AcDbEntity
  8
DEFPOINTS
 62
     0
100
AcDbPoint
 10
-1560.0
 20
1750.0
 30
0.0
  0
POINT
  5
13DB3
330
1373E
100
AcDbEntity
  8
DEFPOINTS
 62
     0
100
AcDbPoint
 10
-1560.0
 20
1733.727330832896
 30
0.0
  0
ENDBLK
  5
13749
330
1373E
100
AcDbEntity
  8
0
100
AcDbBlockEnd
  0
BLOCK
  5
13756
330
1374A
100
AcDbEntity
  8
0
100
AcDbBlockBegin
  2
*D1
 70
     1
 10
0.0
 20
0.0
 30
0.0
  3
*D1
  1

  0
LINE
  5
13D8C
330
1374A
100
AcDbEntity
  8
SUNPOU
 62
     1
100
AcDbLine
 10
-1578.749999999999
 20
1807.5
 30
0.0
 11
-1578.749999999999
 21
1814.866933658183
 31
0.0
  0
LINE
  5
13D8D
330
1374A
100
AcDbEntity
  8
SUNPOU
 62
     1
100
AcDbLine
 10
-1575.249999999999
 20
1807.5
 30
0.0
 11
-1575.249999999999
 21
1814.866933658183
 31
0.0
  0
LINE
  5
13D8E
330
1374A
100
AcDbEntity
  8
SUNPOU
 62
     1
100
AcDbLine
 10
-1581.749999999999
 20
1814.366933658183
 30
0.0
 11
-1584.749999999999
 21
1814.366933658183
 31
0.0
  0
LINE
  5
13D8F
330
1374A
100
AcDbEntity
  8
SUNPOU
 62
     1
100
AcDbLine
 10
-1572.249999999999
 20
1814.366933658183
 30
0.0
 11
-1560.249999999999
 21
1814.366933658183
 31
0.0
  0
LINE
  5
13D90
330
1374A
100
AcDbEntity
  8
SUNPOU
 62
     1
100
AcDbLine
 10
-1578.749999999999
 20
1814.366933658183
 30
0.0
 11
-1575.249999999999
 21
1814.366933658183
 31
0.0
  0
SOLID
  5
13D91
330
1374A
100
AcDbEntity
  8
SUNPOU
 62
     1
100
AcDbTrace
 10
-1581.749999999999
 20
1814.866933658183
 30
0.0
 11
-1581.749999999999
 21
1813.866933658183
 31
0.0
 12
-1578.749999999999
 22
1814.366933658183
 32
0.0
 13
-1578.749999999999
 23
1814.366933658183
 33
0.0
  0
SOLID
  5
13D92
330
1374A
100
AcDbEntity
  8
SUNPOU
 62
     1
100
AcDbTrace
 10
-1572.249999999999
 20
1814.866933658183
 30
0.0
 11
-1572.249999999999
 21
1813.866933658183
 31
0.0
 12
-1575.249999999999
 22
1814.366933658183
 32
0.0
 13
-1575.249999999999
 23
1814.366933658183
 33
0.0
  0
MTEXT
  5
13D93
330
1374A
100
AcDbEntity
  8
SUNPOU
 62
     1
100
AcDbMText
 10
-1564.749999999999
 20
1817.116933658183
 30
0.0
 40
3.5
 41
0.0
 71
     5
 72
     1
  1
\A1;3.5
1001
ACAD
1000
MTEXTBEGIN
1070
    73
1070
     1
1070
    44
1040
1.0
1070
    74
1070
     0
1000
MTEXTEND
  0
POINT
  5
13D94
330
1374A
100
AcDbEntity
  8
DEFPOINTS
 62
     0
100
AcDbPoint
 10
-1578.749999999999
 20
1807.0
 30
0.0
  0
POINT
  5
13D95
330
1374A
100
AcDbEntity
  8
DEFPOINTS
 62
     0
100
AcDbPoint
 10
-1575.249999999999
 20
1807.0
 30
0.0
  0
POINT
  5
13D96
330
1374A
100
AcDbEntity
  8
DEFPOINTS
 62
     0
100
AcDbPoint
 10
-1575.249999999999
 20
1814.366933658183
 30
0.0
  0
ENDBLK
  5
13757
330
1374A
100
AcDbEntity
  8
0
100
AcDbBlockEnd
  0
BLOCK
  5
1379D
330
13793
100
AcDbEntity
  8
0
100
AcDbBlockBegin
  2
*D2
 70
     1
 10
0.0
 20
0.0
 30
0.0
  3
*D2
  1

  0
LINE
  5
13D64
330
13793
100
AcDbEntity
  8
SUNPOU
 62
     1
100
AcDbLine
 10
-1694.5
 20
1805.0
 30
0.0
 11
-1623.498228857368
 21
1805.0
 31
0.0
  0
LINE
  5
13D65
330
13793
100
AcDbEntity
  8
SUNPOU
 62
     1
100
AcDbLine
 10
-1642.5
 20
1752.0
 30
0.0
 11
-1623.498228857368
 21
1752.0
 31
0.0
  0
LINE
  5
13D66
330
13793
100
AcDbEntity
  8
SUNPOU
 62
     1
100
AcDbLine
 10
-1623.998228857368
 20
1802.0
 30
0.0
 11
-1623.998228857368
 21
1755.0
 31
0.0
  0
SOLID
  5
13D67
330
13793
100
AcDbEntity
  8
SUNPOU
 62
     1
100
AcDbTrace
 10
-1624.498228857368
 20
1802.0
 30
0.0
 11
-1623.498228857368
 21
1802.0
 31
0.0
 12
-1623.998228857368
 22
1805.0
 32
0.0
 13
-1623.998228857368
 23
1805.0
 33
0.0
  0
SOLID
  5
13D68
330
13793
100
AcDbEntity
  8
SUNPOU
 62
     1
100
AcDbTrace
 10
-1624.498228857368
 20
1755.0
 30
0.0
 11
-1623.498228857368
 21
1755.0
 31
0.0
 12
-1623.998228857368
 22
1752.0
 32
0.0
 13
-1623.998228857368
 23
1752.0
 33
0.0
  0
MTEXT
  5
13D69
330
13793
100
AcDbEntity
  8
SUNPOU
 62
     1
100
AcDbMText
 10
-1626.748228857368
 20
1778.499999999999
 30
0.0
 40
3.5
 41
0.0
 71
     5
 72
     1
  1
\A1;53
 11
0.0000000000000001
 21
1.0
 31
0.0
1001
ACAD
1000
MTEXTBEGIN
1070
    73
1070
     1
1070
    44
1040
1.0
1070
    74
1070
     0
1000
MTEXTEND
  0
POINT
  5
13D6A
330
13793
100
AcDbEntity
  8
DEFPOINTS
 62
     0
100
AcDbPoint
 10
-1695.0
 20
1805.0
 30
0.0
  0
POINT
  5
13D6B
330
13793
100
AcDbEntity
  8
DEFPOINTS
 62
     0
100
AcDbPoint
 10
-1643.0
 20
1752.0
 30
0.0
  0
POINT
  5
13D6C
330
13793
100
AcDbEntity
  8
DEFPOINTS
 62
     0
100
AcDbPoint
 10
-1623.998228857368
 20
1752.0
 30
0.0
  0
ENDBLK
  5
1379E
330
13793
100
AcDbEntity
  8
0
100
AcDbBlockEnd
  0
BLOCK
  5
137B9
330
137AD
100
AcDbEntity
  8
0
100
AcDbBlockBegin
  2
*D3
 70
     1
 10
0.0
 20
0.0
 30
0.0
  3
*D3
  1

  0
LINE
  5
13D6D
330
137AD
100
AcDbEntity
  8
SUNPOU
 62
     1
100
AcDbLine
 10
-1642.5
 20
1752.0
 30
0.0
 11
-1623.498228857366
 21
1752.0
 31
0.0
  0
LINE
  5
13D6E
330
137AD
100
AcDbEntity
  8
SUNPOU
 62
     1
100
AcDbLine
 10
-1638.5
 20
1750.0
 30
0.0
 11
-1623.498228857366
 21
1750.0
 31
0.0
  0
LINE
  5
13D6F
330
137AD
100
AcDbEntity
  8
SUNPOU
 62
     1
100
AcDbLine
 10
-1623.998228857366
 20
1755.0
 30
0.0
 11
-1623.998228857366
 21
1758.0
 31
0.0
  0
LINE
  5
13D70
330
137AD
100
AcDbEntity
  8
SUNPOU
 62
     1
100
AcDbLine
 10
-1623.998228857366
 20
1747.0
 30
0.0
 11
-1623.998228857366
 21
1739.666666666666
 31
0.0
  0
LINE
  5
13D71
330
137AD
100
AcDbEntity
  8
SUNPOU
 62
     1
100
AcDbLine
 10
-1623.998228857366
 20
1752.0
 30
0.0
 11
-1623.998228857366
 21
1750.0
 31
0.0
  0
SOLID
  5
13D72
330
137AD
100
AcDbEntity
  8
SUNPOU
 62
     1
100
AcDbTrace
 10
-1624.498228857366
 20
1755.0
 30
0.0
 11
-1623.498228857366
 21
1755.0
 31
0.0
 12
-1623.998228857366
 22
1752.0
 32
0.0
 13
-1623.998228857366
 23
1752.0
 33
0.0
  0
SOLID
  5
13D73
330
137AD
100
AcDbEntity
  8
SUNPOU
 62
     1
100
AcDbTrace
 10
-1624.498228857366
 20
1747.0
 30
0.0
 11
-1623.498228857366
 21
1747.0
 31
0.0
 12
-1623.998228857366
 22
1750.0
 32
0.0
 13
-1623.998228857366
 23
1750.0
 33
0.0
  0
MTEXT
  5
13D74
330
137AD
100
AcDbEntity
  8
SUNPOU
 62
     1
100
AcDbMText
 10
-1626.748228857367
 20
1741.833333333333
 30
0.0
 40
3.5
 41
0.0
 71
     5
 72
     1
  1
\A1;2
 11
0.0000000000000001
 21
1.0
 31
0.0
1001
ACAD
1000
MTEXTBEGIN
1070
    73
1070
     1
1070
    44
1040
1.0
1070
    74
1070
     0
1000
MTEXTEND
  0
POINT
  5
13D75
330
137AD
100
AcDbEntity
  8
DEFPOINTS
 62
     0
100
AcDbPoint
 10
-1643.0
 20
1752.0
 30
0.0
  0
POINT
  5
13D76
330
137AD
100
AcDbEntity
  8
DEFPOINTS
 62
     0
100
AcDbPoint
 10
-1639.0
 20
1750.0
 30
0.0
  0
POINT
  5
13D77
330
137AD
100
AcDbEntity
  8
DEFPOINTS
 62
     0
100
AcDbPoint
 10
-1623.998228857366
 20
1750.0
 30
0.0
  0
ENDBLK
  5
137BA
330
137AD
100
AcDbEntity
  8
0
100
AcDbBlockEnd
  0
BLOCK
  5
138A9
330
1389D
100
AcDbEntity
  8
0
100
AcDbBlockBegin
  2
*D4
 70
     1
 10
0.0
 20
0.0
 30
0.0
  3
*D4
  1

  0
LINE
  5
13D45
330
1389D
100
AcDbEntity
  8
SUNPOU
 62
     1
100
AcDbLine
 10
-1703.0
 20
1749.5
 30
0.0
 11
-1703.0
 21
1740.714134335036
 31
0.0
  0
LINE
  5
13D46
330
1389D
100
AcDbEntity
  8
SUNPOU
 62
     1
100
AcDbLine
 10
-1695.0
 20
1804.5
 30
0.0
 11
-1695.0
 21
1740.714134335036
 31
0.0
  0
LINE
  5
13D47
330
1389D
100
AcDbEntity
  8
SUNPOU
 62
     1
100
AcDbLine
 10
-1706.0
 20
1741.214134335036
 30
0.0
 11
-1709.0
 21
1741.214134335036
 31
0.0
  0
LINE
  5
13D48
330
1389D
100
AcDbEntity
  8
SUNPOU
 62
     1
100
AcDbLine
 10
-1692.0
 20
1741.214134335036
 30
0.0
 11
-1689.0
 21
1741.214134335036
 31
0.0
  0
LINE
  5
13D49
330
1389D
100
AcDbEntity
  8
SUNPOU
 62
     1
100
AcDbLine
 10
-1703.0
 20
1741.214134335036
 30
0.0
 11
-1695.0
 21
1741.214134335036
 31
0.0
  0
SOLID
  5
13D4A
330
1389D
100
AcDbEntity
  8
SUNPOU
 62
     1
100
AcDbTrace
 10
-1706.0
 20
1741.714134335037
 30
0.0
 11
-1706.0
 21
1740.714134335036
 31
0.0
 12
-1703.0
 22
1741.214134335036
 32
0.0
 13
-1703.0
 23
1741.214134335036
 33
0.0
  0
SOLID
  5
13D4B
330
1389D
100
AcDbEntity
  8
SUNPOU
 62
     1
100
AcDbTrace
 10
-1692.0
 20
1741.714134335037
 30
0.0
 11
-1692.0
 21
1740.714134335036
 31
0.0
 12
-1695.0
 22
1741.214134335036
 32
0.0
 13
-1695.0
 23
1741.214134335036
 33
0.0
  0
MTEXT
  5
13D4C
330
1389D
100
AcDbEntity
  8
SUNPOU
 62
     1
100
AcDbMText
 10
-1699.0
 20
1743.964134335036
 30
0.0
 40
3.5
 41
0.0
 71
     5
 72
     1
  1
\A1;8
1001
ACAD
1000
MTEXTBEGIN
1070
    73
1070
     1
1070
    44
1040
1.0
1070
    74
1070
     0
1000
MTEXTEND
  0
POINT
  5
13D4D
330
1389D
100
AcDbEntity
  8
DEFPOINTS
 62
     0
100
AcDbPoint
 10
-1703.0
 20
1750.0
 30
0.0
  0
POINT
  5
13D4E
330
1389D
100
AcDbEntity
  8
DEFPOINTS
 62
     0
100
AcDbPoint
 10
-1695.0
 20
1805.0
 30
0.0
  0
POINT
  5
13D4F
330
1389D
100
AcDbEntity
  8
DEFPOINTS
 62
     0
100
AcDbPoint
 10
-1695.0
 20
1741.214134335036
 30
0.0
  0
ENDBLK
  5
138AA
330
1389D
100
AcDbEntity
  8
0
100
AcDbBlockEnd
  0
BLOCK
  5
138B6
330
138AC
100
AcDbEntity
  8
0
100
AcDbBlockBegin
  2
*D5
 70
     1
 10
0.0
 20
0.0
 30
0.0
  3
*D5
  1

  0
LINE
  5
13DFB
330
138AC
100
AcDbEntity
  8
SUNPOU
 62
     1
100
AcDbLine
 10
-1695.0
 20
1804.5
 30
0.0
 11
-1695.0
 21
1740.714134335036
 31
0.0
  0
LINE
  5
13DFC
330
138AC
100
AcDbEntity
  8
SUNPOU
 62
     1
100
AcDbLine
 10
-1643.0
 20
1751.5
 30
0.0
 11
-1643.0
 21
1740.714134335036
 31
0.0
  0
LINE
  5
13DFD
330
138AC
100
AcDbEntity
  8
SUNPOU
 62
     1
100
AcDbLine
 10
-1692.0
 20
1741.214134335036
 30
0.0
 11
-1646.0
 21
1741.214134335036
 31
0.0
  0
SOLID
  5
13DFE
330
138AC
100
AcDbEntity
  8
SUNPOU
 62
     1
100
AcDbTrace
 10
-1692.0
 20
1741.714134335037
 30
0.0
 11
-1692.0
 21
1740.714134335036
 31
0.0
 12
-1695.0
 22
1741.214134335036
 32
0.0
 13
-1695.0
 23
1741.214134335036
 33
0.0
  0
SOLID
  5
13DFF
330
138AC
100
AcDbEntity
  8
SUNPOU
 62
     1
100
AcDbTrace
 10
-1646.0
 20
1741.714134335037
 30
0.0
 11
-1646.0
 21
1740.714134335036
 31
0.0
 12
-1643.0
 22
1741.214134335036
 32
0.0
 13
-1643.0
 23
1741.214134335036
 33
0.0
  0
MTEXT
  5
13E00
330
138AC
100
AcDbEntity
  8
SUNPOU
 62
     1
100
AcDbMText
 10
-1669.0
 20
1743.964134335036
 30
0.0
 40
3.5
 41
0.0
 71
     5
 72
     1
  1
\A1;52
  0
POINT
  5
13E01
330
138AC
100
AcDbEntity
  8
DEFPOINTS
 62
     0
100
AcDbPoint
 10
-1695.0
 20
1805.0
 30
0.0
  0
POINT
  5
13E02
330
138AC
100
AcDbEntity
  8
DEFPOINTS
 62
     0
100
AcDbPoint
 10
-1643.0
 20
1752.0
 30
0.0
  0
POINT
  5
13E03
330
138AC
100
AcDbEntity
  8
DEFPOINTS
 62
     0
100
AcDbPoint
 10
-1643.0
 20
1741.214134335036
 30
0.0
  0
ENDBLK
  5
138B7
330
138AC
100
AcDbEntity
  8
0
100
AcDbBlockEnd
  0
BLOCK
  5
138C5
330
138B9
100
AcDbEntity
  8
0
100
AcDbBlockBegin
  2
*D6
 70
     1
 10
0.0
 20
0.0
 30
0.0
  3
*D6
  1

  0
LINE
  5
13E04
330
138B9
100
AcDbEntity
  8
SUNPOU
 62
     1
100
AcDbLine
 10
-1643.0
 20
1751.5
 30
0.0
 11
-1643.0
 21
1740.714134335036
 31
0.0
  0
LINE
  5
13E05
330
138B9
100
AcDbEntity
  8
SUNPOU
 62
     1
100
AcDbLine
 10
-1638.0
 20
1750.499999999999
 30
0.0
 11
-1638.0
 21
1740.714134335036
 31
0.0
  0
LINE
  5
13E06
330
138B9
100
AcDbEntity
  8
SUNPOU
 62
     1
100
AcDbLine
 10
-1646.0
 20
1741.214134335036
 30
0.0
 11
-1649.0
 21
1741.214134335036
 31
0.0
  0
LINE
  5
13E07
330
138B9
100
AcDbEntity
  8
SUNPOU
 62
     1
100
AcDbLine
 10
-1635.0
 20
1741.214134335036
 30
0.0
 11
-1632.0
 21
1741.214134335036
 31
0.0
  0
LINE
  5
13E08
330
138B9
100
AcDbEntity
  8
SUNPOU
 62
     1
100
AcDbLine
 10
-1643.0
 20
1741.214134335036
 30
0.0
 11
-1638.0
 21
1741.214134335036
 31
0.0
  0
SOLID
  5
13E09
330
138B9
100
AcDbEntity
  8
SUNPOU
 62
     1
100
AcDbTrace
 10
-1646.0
 20
1741.714134335037
 30
0.0
 11
-1646.0
 21
1740.714134335036
 31
0.0
 12
-1643.0
 22
1741.214134335036
 32
0.0
 13
-1643.0
 23
1741.214134335036
 33
0.0
  0
SOLID
  5
13E0A
330
138B9
100
AcDbEntity
  8
SUNPOU
 62
     1
100
AcDbTrace
 10
-1635.0
 20
1741.714134335037
 30
0.0
 11
-1635.0
 21
1740.714134335036
 31
0.0
 12
-1638.0
 22
1741.214134335036
 32
0.0
 13
-1638.0
 23
1741.214134335036
 33
0.0
  0
MTEXT
  5
13E0B
330
138B9
100
AcDbEntity
  8
SUNPOU
 62
     1
100
AcDbMText
 10
-1640.5
 20
1743.964134335036
 30
0.0
 40
3.5
 41
0.0
 71
     5
 72
     1
  1
\A1;5
  0
POINT
  5
13E0C
330
138B9
100
AcDbEntity
  8
DEFPOINTS
 62
     0
100
AcDbPoint
 10
-1643.0
 20
1752.0
 30
0.0
  0
POINT
  5
13E0D
330
138B9
100
AcDbEntity
  8
DEFPOINTS
 62
     0
100
AcDbPoint
 10
-1638.0
 20
1751.0
 30
0.0
  0
POINT
  5
13E0E
330
138B9
100
AcDbEntity
  8
DEFPOINTS
 62
     0
100
AcDbPoint
 10
-1638.0
 20
1741.214134335036
 30
0.0
  0
ENDBLK
  5
138C6
330
138B9
100
AcDbEntity
  8
0
100
AcDbBlockEnd
  0
BLOCK
  5
138D2
330
138C8
100
AcDbEntity
  8
0
100
AcDbBlockBegin
  2
*D7
 70
     1
 10
0.0
 20
0.0
 30
0.0
  3
*D7
  1

  0
LINE
  5
13D3C
330
138C8
100
AcDbEntity
  8
SUNPOU
 62
     1
100
AcDbLine
 10
-1703.5
 20
1807.0
 30
0.0
 11
-1713.03213769882
 21
1807.0
 31
0.0
  0
LINE
  5
13D3D
330
138C8
100
AcDbEntity
  8
SUNPOU
 62
     1
100
AcDbLine
 10
-1703.5
 20
1750.0
 30
0.0
 11
-1713.03213769882
 21
1750.0
 31
0.0
  0
LINE
  5
13D3E
330
138C8
100
AcDbEntity
  8
SUNPOU
 62
     1
100
AcDbLine
 10
-1712.53213769882
 20
1804.0
 30
0.0
 11
-1712.53213769882
 21
1753.0
 31
0.0
  0
SOLID
  5
13D3F
330
138C8
100
AcDbEntity
  8
SUNPOU
 62
     1
100
AcDbTrace
 10
-1713.03213769882
 20
1804.0
 30
0.0
 11
-1712.03213769882
 21
1804.0
 31
0.0
 12
-1712.53213769882
 22
1807.0
 32
0.0
 13
-1712.53213769882
 23
1807.0
 33
0.0
  0
SOLID
  5
13D40
330
138C8
100
AcDbEntity
  8
SUNPOU
 62
     1
100
AcDbTrace
 10
-1713.03213769882
 20
1753.0
 30
0.0
 11
-1712.03213769882
 21
1753.0
 31
0.0
 12
-1712.53213769882
 22
1750.0
 32
0.0
 13
-1712.53213769882
 23
1750.0
 33
0.0
  0
MTEXT
  5
13D41
330
138C8
100
AcDbEntity
  8
SUNPOU
 62
     1
100
AcDbMText
 10
-1715.28213769882
 20
1778.499999999999
 30
0.0
 40
3.5
 41
0.0
 71
     5
 72
     1
  1
\A1;57
 11
0.0000000000000001
 21
1.0
 31
0.0
1001
ACAD
1000
MTEXTBEGIN
1070
    73
1070
     1
1070
    44
1040
1.0
1070
    74
1070
     0
1000
MTEXTEND
  0
POINT
  5
13D42
330
138C8
100
AcDbEntity
  8
DEFPOINTS
 62
     0
100
AcDbPoint
 10
-1703.0
 20
1807.0
 30
0.0
  0
POINT
  5
13D43
330
138C8
100
AcDbEntity
  8
DEFPOINTS
 62
     0
100
AcDbPoint
 10
-1703.0
 20
1750.0
 30
0.0
  0
POINT
  5
13D44
330
138C8
100
AcDbEntity
  8
DEFPOINTS
 62
     0
100
AcDbPoint
 10
-1712.53213769882
 20
1750.0
 30
0.0
  0
ENDBLK
  5
138D3
330
138C8
100
AcDbEntity
  8
0
100
AcDbBlockEnd
  0
BLOCK
  5
138FF
330
138F3
100
AcDbEntity
  8
0
100
AcDbBlockBegin
  2
*D8
 70
     1
 10
0.0
 20
0.0
 30
0.0
  3
*D8
  1

  0
LINE
  5
13D81
330
138F3
100
AcDbEntity
  8
SUNPOU
 62
     1
100
AcDbLine
 10
-1587.5
 20
1807.0
 30
0.0
 11
-1596.806238258979
 21
1807.0
 31
0.0
  0
LINE
  5
13D82
330
138F3
100
AcDbEntity
  8
SUNPOU
 62
     1
100
AcDbLine
 10
-1577.5
 20
1805.0
 30
0.0
 11
-1596.806238258979
 21
1805.0
 31
0.0
  0
LINE
  5
13D83
330
138F3
100
AcDbEntity
  8
SUNPOU
 62
     1
100
AcDbLine
 10
-1596.306238258979
 20
1810.0
 30
0.0
 11
-1596.306238258979
 21
1813.0
 31
0.0
  0
LINE
  5
13D84
330
138F3
100
AcDbEntity
  8
SUNPOU
 62
     1
100
AcDbLine
 10
-1596.306238258979
 20
1802.0
 30
0.0
 11
-1596.306238258979
 21
1799.0
 31
0.0
  0
LINE
  5
13D85
330
138F3
100
AcDbEntity
  8
SUNPOU
 62
     1
100
AcDbLine
 10
-1596.306238258979
 20
1807.0
 30
0.0
 11
-1596.306238258979
 21
1805.0
 31
0.0
  0
SOLID
  5
13D86
330
138F3
100
AcDbEntity
  8
SUNPOU
 62
     1
100
AcDbTrace
 10
-1596.806238258979
 20
1810.0
 30
0.0
 11
-1595.806238258979
 21
1810.0
 31
0.0
 12
-1596.306238258979
 22
1807.0
 32
0.0
 13
-1596.306238258979
 23
1807.0
 33
0.0
  0
SOLID
  5
13D87
330
138F3
100
AcDbEntity
  8
SUNPOU
 62
     1
100
AcDbTrace
 10
-1596.806238258979
 20
1802.0
 30
0.0
 11
-1595.806238258979
 21
1802.0
 31
0.0
 12
-1596.306238258979
 22
1805.0
 32
0.0
 13
-1596.306238258979
 23
1805.0
 33
0.0
  0
MTEXT
  5
13D88
330
138F3
100
AcDbEntity
  8
SUNPOU
 62
     1
100
AcDbMText
 10
-1599.056238258979
 20
1805.999999999999
 30
0.0
 40
3.5
 41
0.0
 71
     5
 72
     1
  1
\A1;2
 11
0.0000000000000001
 21
1.0
 31
0.0
1001
ACAD
1000
MTEXTBEGIN
1070
    73
1070
     1
1070
    44
1040
1.0
1070
    74
1070
     0
1000
MTEXTEND
  0
POINT
  5
13D89
330
138F3
100
AcDbEntity
  8
DEFPOINTS
 62
     0
100
AcDbPoint
 10
-1587.0
 20
1807.0
 30
0.0
  0
POINT
  5
13D8A
330
138F3
100
AcDbEntity
  8
DEFPOINTS
 62
     0
100
AcDbPoint
 10
-1577.0
 20
1805.0
 30
0.0
  0
POINT
  5
13D8B
330
138F3
100
AcDbEntity
  8
DEFPOINTS
 62
     0
100
AcDbPoint
 10
-1596.306238258979
 20
1805.0
 30
0.0
  0
ENDBLK
  5
13900
330
138F3
100
AcDbEntity
  8
0
100
AcDbBlockEnd
  0
BLOCK
  5
1390C
330
13902
100
AcDbEntity
  8
0
100
AcDbBlockBegin
  2
*D9
 70
     1
 10
0.0
 20
0.0
 30
0.0
  3
*D9
  1

  0
LINE
  5
13E0F
330
13902
100
AcDbEntity
  8
SUNPOU
 62
     1
100
AcDbLine
 10
-1577.5
 20
1805.0
 30
0.0
 11
-1596.806238258979
 21
1805.0
 31
0.0
  0
LINE
  5
13E10
330
13902
100
AcDbEntity
  8
SUNPOU
 62
     1
100
AcDbLine
 10
-1577.5
 20
1752.0
 30
0.0
 11
-1596.806238258979
 21
1752.0
 31
0.0
  0
LINE
  5
13E11
330
13902
100
AcDbEntity
  8
SUNPOU
 62
     1
100
AcDbLine
 10
-1596.306238258979
 20
1802.0
 30
0.0
 11
-1596.306238258979
 21
1755.0
 31
0.0
  0
SOLID
  5
13E12
330
13902
100
AcDbEntity
  8
SUNPOU
 62
     1
100
AcDbTrace
 10
-1596.806238258979
 20
1802.0
 30
0.0
 11
-1595.806238258979
 21
1802.0
 31
0.0
 12
-1596.306238258979
 22
1805.0
 32
0.0
 13
-1596.306238258979
 23
1805.0
 33
0.0
  0
SOLID
  5
13E13
330
13902
100
AcDbEntity
  8
SUNPOU
 62
     1
100
AcDbTrace
 10
-1596.806238258979
 20
1755.0
 30
0.0
 11
-1595.806238258979
 21
1755.0
 31
0.0
 12
-1596.306238258979
 22
1752.0
 32
0.0
 13
-1596.306238258979
 23
1752.0
 33
0.0
  0
MTEXT
  5
13E14
330
13902
100
AcDbEntity
  8
SUNPOU
 62
     1
100
AcDbMText
 10
-1599.05623825898
 20
1778.499999999999
 30
0.0
 40
3.5
 41
0.0
 71
     5
 72
     1
  1
\A1;53
 11
0.0000000000000001
 21
1.0
 31
0.0
  0
POINT
  5
13E15
330
13902
100
AcDbEntity
  8
DEFPOINTS
 62
     0
100
AcDbPoint
 10
-1577.0
 20
1805.0
 30
0.0
  0
POINT
  5
13E16
330
13902
100
AcDbEntity
  8
DEFPOINTS
 62
     0
100
AcDbPoint
 10
-1577.0
 20
1752.0
 30
0.0
  0
POINT
  5
13E17
330
13902
100
AcDbEntity
  8
DEFPOINTS
 62
     0
100
AcDbPoint
 10
-1596.306238258979
 20
1752.0
 30
0.0
  0
ENDBLK
  5
1390D
330
13902
100
AcDbEntity
  8
0
100
AcDbBlockEnd
  0
BLOCK
  5
1391B
330
1390F
100
AcDbEntity
  8
0
100
AcDbBlockBegin
  2
*D10
 70
     1
 10
0.0
 20
0.0
 30
0.0
  3
*D10
  1

  0
LINE
  5
13E18
330
1390F
100
AcDbEntity
  8
SUNPOU
 62
     1
100
AcDbLine
 10
-1577.5
 20
1752.0
 30
0.0
 11
-1596.806238258979
 21
1752.0
 31
0.0
  0
LINE
  5
13E19
330
1390F
100
AcDbEntity
  8
SUNPOU
 62
     1
100
AcDbLine
 10
-1587.499999999999
 20
1750.0
 30
0.0
 11
-1596.806238258979
 21
1750.0
 31
0.0
  0
LINE
  5
13E1A
330
1390F
100
AcDbEntity
  8
SUNPOU
 62
     1
100
AcDbLine
 10
-1596.306238258979
 20
1755.0
 30
0.0
 11
-1596.306238258979
 21
1758.0
 31
0.0
  0
LINE
  5
13E1B
330
1390F
100
AcDbEntity
  8
SUNPOU
 62
     1
100
AcDbLine
 10
-1596.306238258979
 20
1747.0
 30
0.0
 11
-1596.306238258979
 21
1744.0
 31
0.0
  0
MTEXT
  5
13E1C
330
1390F
100
AcDbEntity
  8
SUNPOU
 62
     1
100
AcDbMText
 10
-1599.556238258979
 20
1747.0
 30
0.0
 40
3.5
 41
0.0
 71
     5
 72
     1
  1
\A1;2
 11
0.0000000000000001
 21
1.0
 31
0.0
  0
LINE
  5
13E1D
330
1390F
100
AcDbEntity
  8
SUNPOU
 62
     1
100
AcDbLine
 10
-1596.306238258979
 20
1752.0
 30
0.0
 11
-1596.306238258979
 21
1750.0
 31
0.0
  0
SOLID
  5
13E1E
330
1390F
100
AcDbEntity
  8
SUNPOU
 62
     1
100
AcDbTrace
 10
-1596.806238258979
 20
1755.0
 30
0.0
 11
-1595.806238258979
 21
1755.0
 31
0.0
 12
-1596.306238258979
 22
1752.0
 32
0.0
 13
-1596.306238258979
 23
1752.0
 33
0.0
  0
SOLID
  5
13E1F
330
1390F
100
AcDbEntity
  8
SUNPOU
 62
     1
100
AcDbTrace
 10
-1596.806238258979
 20
1747.0
 30
0.0
 11
-1595.806238258979
 21
1747.0
 31
0.0
 12
-1596.306238258979
 22
1750.0
 32
0.0
 13
-1596.306238258979
 23
1750.0
 33
0.0
  0
POINT
  5
13E20
330
1390F
100
AcDbEntity
  8
DEFPOINTS
 62
     0
100
AcDbPoint
 10
-1577.0
 20
1752.0
 30
0.0
  0
POINT
  5
13E21
330
1390F
100
AcDbEntity
  8
DEFPOINTS
 62
     0
100
AcDbPoint
 10
-1586.999999999999
 20
1750.0
 30
0.0
  0
POINT
  5
13E22
330
1390F
100
AcDbEntity
  8
DEFPOINTS
 62
     0
100
AcDbPoint
 10
-1596.306238258979
 20
1750.0
 30
0.0
  0
ENDBLK
  5
1391C
330
1390F
100
AcDbEntity
  8
0
100
AcDbBlockEnd
  0
BLOCK
  5
139BB
330
139B1
100
AcDbEntity
  8
0
100
AcDbBlockBegin
  2
*D11
 70
     1
 10
0.0
 20
0.0
 30
0.0
  3
*D11
  1

  0
LINE
  5
13DC8
330
139B1
100
AcDbEntity
  8
SUNPOU
 62
     1
100
AcDbLine
 10
-1703.0
 20
1668.499999999999
 30
0.0
 11
-1703.0
 21
1656.816511750814
 31
0.0
  0
LINE
  5
13DC9
330
139B1
100
AcDbEntity
  8
SUNPOU
 62
     1
100
AcDbLine
 10
-1638.0
 20
1665.5
 30
0.0
 11
-1638.0
 21
1656.816511750814
 31
0.0
  0
LINE
  5
13DCA
330
139B1
100
AcDbEntity
  8
SUNPOU
 62
     1
100
AcDbLine
 10
-1700.0
 20
1657.316511750814
 30
0.0
 11
-1641.0
 21
1657.316511750814
 31
0.0
  0
SOLID
  5
13DCB
330
139B1
100
AcDbEntity
  8
SUNPOU
 62
     1
100
AcDbTrace
 10
-1700.0
 20
1657.816511750814
 30
0.0
 11
-1700.0
 21
1656.816511750814
 31
0.0
 12
-1703.0
 22
1657.316511750814
 32
0.0
 13
-1703.0
 23
1657.316511750814
 33
0.0
  0
SOLID
  5
13DCC
330
139B1
100
AcDbEntity
  8
SUNPOU
 62
     1
100
AcDbTrace
 10
-1641.0
 20
1657.816511750814
 30
0.0
 11
-1641.0
 21
1656.816511750814
 31
0.0
 12
-1638.0
 22
1657.316511750814
 32
0.0
 13
-1638.0
 23
1657.316511750814
 33
0.0
  0
MTEXT
  5
13DCD
330
139B1
100
AcDbEntity
  8
SUNPOU
 62
     1
100
AcDbMText
 10
-1670.5
 20
1660.066511750814
 30
0.0
 40
3.5
 41
0.0
 71
     5
 72
     1
  1
\A1;65
1001
ACAD
1000
MTEXTBEGIN
1070
    73
1070
     1
1070
    44
1040
1.0
1070
    74
1070
     0
1000
MTEXTEND
  0
POINT
  5
13DCE
330
139B1
100
AcDbEntity
  8
DEFPOINTS
 62
     0
100
AcDbPoint
 10
-1703.0
 20
1669.0
 30
0.0
  0
POINT
  5
13DCF
330
139B1
100
AcDbEntity
  8
DEFPOINTS
 62
     0
100
AcDbPoint
 10
-1638.0
 20
1666.0
 30
0.0
  0
POINT
  5
13DD0
330
139B1
100
AcDbEntity
  8
DEFPOINTS
 62
     0
100
AcDbPoint
 10
-1638.0
 20
1657.316511750814
 30
0.0
  0
ENDBLK
  5
139BC
330
139B1
100
AcDbEntity
  8
0
100
AcDbBlockEnd
  0
BLOCK
  5
139CA
330
139BE
100
AcDbEntity
  8
0
100
AcDbBlockBegin
  2
*D12
 70
     1
 10
0.0
 20
0.0
 30
0.0
  3
*D12
  1

  0
LINE
  5
13DBD
330
139BE
100
AcDbEntity
  8
SUNPOU
 62
     1
100
AcDbLine
 10
-1703.0
 20
1695.5
 30
0.0
 11
-1703.0
 21
1701.117567150397
 31
0.0
  0
LINE
  5
13DBE
330
139BE
100
AcDbEntity
  8
SUNPOU
 62
     1
100
AcDbLine
 10
-1700.0
 20
1695.5
 30
0.0
 11
-1700.0
 21
1701.117567150397
 31
0.0
  0
LINE
  5
13DBF
330
139BE
100
AcDbEntity
  8
SUNPOU
 62
     1
100
AcDbLine
 10
-1706.0
 20
1700.617567150397
 30
0.0
 11
-1709.0
 21
1700.617567150397
 31
0.0
  0
LINE
  5
13DC0
330
139BE
100
AcDbEntity
  8
SUNPOU
 62
     1
100
AcDbLine
 10
-1697.0
 20
1700.617567150397
 30
0.0
 11
-1689.666666666666
 21
1700.617567150397
 31
0.0
  0
LINE
  5
13DC1
330
139BE
100
AcDbEntity
  8
SUNPOU
 62
     1
100
AcDbLine
 10
-1703.0
 20
1700.617567150397
 30
0.0
 11
-1700.0
 21
1700.617567150397
 31
0.0
  0
SOLID
  5
13DC2
330
139BE
100
AcDbEntity
  8
SUNPOU
 62
     1
100
AcDbTrace
 10
-1706.0
 20
1701.117567150397
 30
0.0
 11
-1706.0
 21
1700.117567150397
 31
0.0
 12
-1703.0
 22
1700.617567150397
 32
0.0
 13
-1703.0
 23
1700.617567150397
 33
0.0
  0
SOLID
  5
13DC3
330
139BE
100
AcDbEntity
  8
SUNPOU
 62
     1
100
AcDbTrace
 10
-1697.0
 20
1701.117567150397
 30
0.0
 11
-1697.0
 21
1700.117567150397
 31
0.0
 12
-1700.0
 22
1700.617567150397
 32
0.0
 13
-1700.0
 23
1700.617567150397
 33
0.0
  0
MTEXT
  5
13DC4
330
139BE
100
AcDbEntity
  8
SUNPOU
 62
     1
100
AcDbMText
 10
-1691.833333333333
 20
1703.367567150397
 30
0.0
 40
3.5
 41
0.0
 71
     5
 72
     1
  1
\A1;3
1001
ACAD
1000
MTEXTBEGIN
1070
    73
1070
     1
1070
    44
1040
1.0
1070
    74
1070
     0
1000
MTEXTEND
  0
POINT
  5
13DC5
330
139BE
100
AcDbEntity
  8
DEFPOINTS
 62
     0
100
AcDbPoint
 10
-1703.0
 20
1695.0
 30
0.0
  0
POINT
  5
13DC6
330
139BE
100
AcDbEntity
  8
DEFPOINTS
 62
     0
100
AcDbPoint
 10
-1700.0
 20
1695.0
 30
0.0
  0
POINT
  5
13DC7
330
139BE
100
AcDbEntity
  8
DEFPOINTS
 62
     0
100
AcDbPoint
 10
-1700.0
 20
1700.617567150397
 30
0.0
  0
ENDBLK
  5
139CB
330
139BE
100
AcDbEntity
  8
0
100
AcDbBlockEnd
  0
BLOCK
  5
13A79
330
13A6F
100
AcDbEntity
  8
0
100
AcDbBlockBegin
  2
*D13
 70
     1
 10
0.0
 20
0.0
 30
0.0
  3
*D13
  1

  0
LINE
  5
13D97
330
13A6F
100
AcDbEntity
  8
SUNPOU
 62
     1
100
AcDbLine
 10
-1560.0
 20
1749.5
 30
0.0
 11
-1560.0
 21
1741.902508341842
 31
0.0
  0
LINE
  5
13D98
330
13A6F
100
AcDbEntity
  8
SUNPOU
 62
     1
100
AcDbLine
 10
-1577.0
 20
1751.5
 30
0.0
 11
-1577.0
 21
1741.902508341842
 31
0.0
  0
LINE
  5
13D99
330
13A6F
100
AcDbEntity
  8
SUNPOU
 62
     1
100
AcDbLine
 10
-1563.0
 20
1742.402508341842
 30
0.0
 11
-1574.0
 21
1742.402508341842
 31
0.0
  0
SOLID
  5
13D9A
330
13A6F
100
AcDbEntity
  8
SUNPOU
 62
     1
100
AcDbTrace
 10
-1563.0
 20
1742.902508341842
 30
0.0
 11
-1563.0
 21
1741.902508341842
 31
0.0
 12
-1560.0
 22
1742.402508341842
 32
0.0
 13
-1560.0
 23
1742.402508341842
 33
0.0
  0
SOLID
  5
13D9B
330
13A6F
100
AcDbEntity
  8
SUNPOU
 62
     1
100
AcDbTrace
 10
-1574.0
 20
1742.902508341842
 30
0.0
 11
-1574.0
 21
1741.902508341842
 31
0.0
 12
-1577.0
 22
1742.402508341842
 32
0.0
 13
-1577.0
 23
1742.402508341842
 33
0.0
  0
MTEXT
  5
13D9C
330
13A6F
100
AcDbEntity
  8
SUNPOU
 62
     1
100
AcDbMText
 10
-1568.5
 20
1745.152508341842
 30
0.0
 40
3.5
 41
0.0
 71
     5
 72
     1
  1
\A1;17
1001
ACAD
1000
MTEXTBEGIN
1070
    73
1070
     1
1070
    44
1040
1.0
1070
    74
1070
     0
1000
MTEXTEND
  0
POINT
  5
13D9D
330
13A6F
100
AcDbEntity
  8
DEFPOINTS
 62
     0
100
AcDbPoint
 10
-1560.0
 20
1750.0
 30
0.0
  0
POINT
  5
13D9E
330
13A6F
100
AcDbEntity
  8
DEFPOINTS
 62
     0
100
AcDbPoint
 10
-1577.0
 20
1752.0
 30
0.0
  0
POINT
  5
13D9F
330
13A6F
100
AcDbEntity
  8
DEFPOINTS
 62
     0
100
AcDbPoint
 10
-1577.0
 20
1742.402508341842
 30
0.0
  0
ENDBLK
  5
13A7A
330
13A6F
100
AcDbEntity
  8
0
100
AcDbBlockEnd
  0
BLOCK
  5
13C0B
330
13C01
100
AcDbEntity
  8
0
100
AcDbBlockBegin
  2
*D14
 70
     1
 10
0.0
 20
0.0
 30
0.0
  3
*D14
  1

  0
LINE
  5
13DB4
330
13C01
100
AcDbEntity
  8
SUNPOU
 62
     1
100
AcDbLine
 10
-1637.5
 20
1695.0
 30
0.0
 11
-1625.045651561172
 21
1695.0
 31
0.0
  0
LINE
  5
13DB5
330
13C01
100
AcDbEntity
  8
SUNPOU
 62
     1
100
AcDbLine
 10
-1637.5
 20
1666.0
 30
0.0
 11
-1625.045651561172
 21
1666.0
 31
0.0
  0
LINE
  5
13DB6
330
13C01
100
AcDbEntity
  8
SUNPOU
 62
     1
100
AcDbLine
 10
-1625.545651561172
 20
1692.0
 30
0.0
 11
-1625.545651561172
 21
1669.0
 31
0.0
  0
SOLID
  5
13DB7
330
13C01
100
AcDbEntity
  8
SUNPOU
 62
     1
100
AcDbTrace
 10
-1626.045651561172
 20
1692.0
 30
0.0
 11
-1625.045651561172
 21
1692.0
 31
0.0
 12
-1625.545651561172
 22
1695.0
 32
0.0
 13
-1625.545651561172
 23
1695.0
 33
0.0
  0
SOLID
  5
13DB8
330
13C01
100
AcDbEntity
  8
SUNPOU
 62
     1
100
AcDbTrace
 10
-1626.045651561172
 20
1669.0
 30
0.0
 11
-1625.045651561172
 21
1669.0
 31
0.0
 12
-1625.545651561172
 22
1666.0
 32
0.0
 13
-1625.545651561172
 23
1666.0
 33
0.0
  0
MTEXT
  5
13DB9
330
13C01
100
AcDbEntity
  8
SUNPOU
 62
     1
100
AcDbMText
 10
-1628.295651561173
 20
1680.499999999999
 30
0.0
 40
3.5
 41
0.0
 71
     5
 72
     1
  1
\A1;29
 11
0.0000000000000001
 21
1.0
 31
0.0
1001
ACAD
1000
MTEXTBEGIN
1070
    73
1070
     1
1070
    44
1040
1.0
1070
    74
1070
     0
1000
MTEXTEND
  0
POINT
  5
13DBA
330
13C01
100
AcDbEntity
  8
DEFPOINTS
 62
     0
100
AcDbPoint
 10
-1638.0
 20
1695.0
 30
0.0
  0
POINT
  5
13DBB
330
13C01
100
AcDbEntity
  8
DEFPOINTS
 62
     0
100
AcDbPoint
 10
-1638.0
 20
1666.0
 30
0.0
  0
POINT
  5
13DBC
330
13C01
100
AcDbEntity
  8
DEFPOINTS
 62
     0
100
AcDbPoint
 10
-1625.545651561172
 20
1666.0
 30
0.0
  0
ENDBLK
  5
13C0C
330
13C01
100
AcDbEntity
  8
0
100
AcDbBlockEnd
  0
ENDSEC
  0
SECTION
  2
ENTITIES
  0
MTEXT
  5
5084
330
1A
100
AcDbEntity
  8
0
100
AcDbMText
 10
1985.239088685434
 20
-948.5420423450428
 30
0.0
 40
8.0
 41
0.0
 71
     7
 72
     5
  1

1001
ACAD
1000
MTEXTBEGIN
1070
    73
1070
     1
1070
    44
1040
1.0
1070
    74
1070
     0
1000
MTEXTEND
1000
MTEXTBEGIN
1070
    73
1070
     1
1070
    44
1040
1.0
1070
    74
1070
     0
1000
MTEXTEND
1000
MTEXTBEGIN
1070
    73
1070
     1
1070
    44
1040
1.0
1070
    74
1070
     0
1000
MTEXTEND
  0
MTEXT
  5
5085
330
1A
100
AcDbEntity
  8
0
100
AcDbMText
 10
4270.596778580329
 20
22.24825240601647
 30
0.0
 40
8.0
 41
0.0
 71
     7
 72
     5
  1

1001
ACAD
1000
MTEXTBEGIN
1070
    73
1070
     1
1070
    44
1040
1.0
1070
    74
1070
     0
1000
MTEXTEND
1000
MTEXTBEGIN
1070
    73
1070
     1
1070
    44
1040
1.0
1070
    74
1070
     0
1000
MTEXTEND
1000
MTEXTBEGIN
1070
    73
1070
     1
1070
    44
1040
1.0
1070
    74
1070
     0
1000
MTEXTEND
  0
MTEXT
  5
5343
330
1A
100
AcDbEntity
  8
SUNPOU
100
AcDbMText
 10
6936.493799262471
 20
9534.359644781137
 30
0.0
 40
10.5
 41
0.0
 71
     1
 72
     5
  1

1001
ACAD
1000
MTEXTBEGIN
1070
    73
1070
     1
1070
    44
1040
1.0
1070
    74
1070
     0
1000
MTEXTEND
1000
MTEXTBEGIN
1070
    73
1070
     1
1070
    44
1040
1.0
1070
    74
1070
     0
1000
MTEXTEND
1000
MTEXTBEGIN
1070
    73
1070
     1
1070
    44
1040
1.0
1070
    74
1070
     0
1000
MTEXTEND
  0
MTEXT
  5
544F
330
1A
100
AcDbEntity
  8
0
100
AcDbMText
 10
16317.2832773148
 20
12833.35428897674
 30
0.0
 40
8.0
 41
0.0
 71
     7
 72
     5
  1

1001
ACAD
1000
MTEXTBEGIN
1070
    73
1070
     1
1070
    44
1040
1.0
1070
    74
1070
     0
1000
MTEXTEND
1000
MTEXTBEGIN
1070
    73
1070
     1
1070
    44
1040
1.0
1070
    74
1070
     0
1000
MTEXTEND
1000
MTEXTBEGIN
1070
    73
1070
     1
1070
    44
1040
1.0
1070
    74
1070
     0
1000
MTEXTEND
  0
MTEXT
  5
5450
330
1A
100
AcDbEntity
  8
0
100
AcDbMText
 10
18602.64096720968
 20
13804.1445837278
 30
0.0
 40
8.0
 41
0.0
 71
     7
 72
     5
  1

1001
ACAD
1000
MTEXTBEGIN
1070
    73
1070
     1
1070
    44
1040
1.0
1070
    74
1070
     0
1000
MTEXTEND
1000
MTEXTBEGIN
1070
    73
1070
     1
1070
    44
1040
1.0
1070
    74
1070
     0
1000
MTEXTEND
1000
MTEXTBEGIN
1070
    73
1070
     1
1070
    44
1040
1.0
1070
    74
1070
     0
1000
MTEXTEND
  0
MTEXT
  5
5451
330
1A
100
AcDbEntity
  8
SUNPOU
100
AcDbMText
 10
21268.53798789184
 20
23316.25597610292
 30
0.0
 40
10.5
 41
0.0
 71
     1
 72
     5
  1

1001
ACAD
1000
MTEXTBEGIN
1070
    73
1070
     1
1070
    44
1040
1.0
1070
    74
1070
     0
1000
MTEXTEND
1000
MTEXTBEGIN
1070
    73
1070
     1
1070
    44
1040
1.0
1070
    74
1070
     0
1000
MTEXTEND
1000
MTEXTBEGIN
1070
    73
1070
     1
1070
    44
1040
1.0
1070
    74
1070
     0
1000
MTEXTEND
  0
MTEXT
  5
5452
330
1A
100
AcDbEntity
  8
SUNPOU
100
AcDbMText
 10
13337.6147919559
 20
22369.46284218996
 30
0.0
 40
10.5
 41
0.0
 71
     7
 72
     5
  1

1001
ACAD
1000
MTEXTBEGIN
1070
    73
1070
     1
1070
    44
1040
1.0
1070
    74
1070
     0
1000
MTEXTEND
1000
MTEXTBEGIN
1070
    73
1070
     1
1070
    44
1040
1.0
1070
    74
1070
     0
1000
MTEXTEND
1000
MTEXTBEGIN
1070
    73
1070
     1
1070
    44
1040
1.0
1070
    74
1070
     0
1000
MTEXTEND
  0
MTEXT
  5
5453
330
1A
100
AcDbEntity
  8
SUNPOU
100
AcDbMText
 10
16286.59845646867
 20
27270.13891403279
 30
0.0
 40
10.5
 41
0.0
 71
     7
 72
     5
  1

1001
ACAD
1000
MTEXTBEGIN
1070
    73
1070
     1
1070
    44
1040
1.0
1070
    74
1070
     0
1000
MTEXTEND
1000
MTEXTBEGIN
1070
    73
1070
     1
1070
    44
1040
1.0
1070
    74
1070
     0
1000
MTEXTEND
1000
MTEXTBEGIN
1070
    73
1070
     1
1070
    44
1040
1.0
1070
    74
1070
     0
1000
MTEXTEND
  0
MTEXT
  5
5454
330
1A
100
AcDbEntity
  8
SUNPOU
100
AcDbMText
 10
20795.67658441924
 20
29706.43966165288
 30
0.0
 40
10.5
 41
0.0
 71
     7
 72
     5
  1

1001
ACAD
1000
MTEXTBEGIN
1070
    73
1070
     1
1070
    44
1040
1.0
1070
    74
1070
     0
1000
MTEXTEND
1000
MTEXTBEGIN
1070
    73
1070
     1
1070
    44
1040
1.0
1070
    74
1070
     0
1000
MTEXTEND
1000
MTEXTBEGIN
1070
    73
1070
     1
1070
    44
1040
1.0
1070
    74
1070
     0
1000
MTEXTEND
  0
MTEXT
  5
5455
330
1A
100
AcDbEntity
  8
0
100
AcDbMText
 10
16611.93789220313
 20
14707.52144344448
 30
0.0
 40
8.0
 41
0.0
 71
     7
 72
     5
  1

1001
ACAD
1000
MTEXTBEGIN
1070
    73
1070
     1
1070
    44
1040
1.0
1070
    74
1070
     0
1000
MTEXTEND
1000
MTEXTBEGIN
1070
    73
1070
     1
1070
    44
1040
1.0
1070
    74
1070
     0
1000
MTEXTEND
1000
MTEXTBEGIN
1070
    73
1070
     1
1070
    44
1040
1.0
1070
    74
1070
     0
1000
MTEXTEND
  0
MTEXT
  5
5456
330
1A
100
AcDbEntity
  8
0
100
AcDbMText
 10
18897.29558209803
 20
15678.31173819554
 30
0.0
 40
8.0
 41
0.0
 71
     7
 72
     5
  1

1001
ACAD
1000
MTEXTBEGIN
1070
    73
1070
     1
1070
    44
1040
1.0
1070
    74
1070
     0
1000
MTEXTEND
1000
MTEXTBEGIN
1070
    73
1070
     1
1070
    44
1040
1.0
1070
    74
1070
     0
1000
MTEXTEND
1000
MTEXTBEGIN
1070
    73
1070
     1
1070
    44
1040
1.0
1070
    74
1070
     0
1000
MTEXTEND
  0
MTEXT
  5
5457
330
1A
100
AcDbEntity
  8
SUNPOU
100
AcDbMText
 10
21563.19260278019
 20
25190.42313057066
 30
0.0
 40
10.5
 41
0.0
 71
     1
 72
     5
  1

1001
ACAD
1000
MTEXTBEGIN
1070
    73
1070
     1
1070
    44
1040
1.0
1070
    74
1070
     0
1000
MTEXTEND
1000
MTEXTBEGIN
1070
    73
1070
     1
1070
    44
1040
1.0
1070
    74
1070
     0
1000
MTEXTEND
1000
MTEXTBEGIN
1070
    73
1070
     1
1070
    44
1040
1.0
1070
    74
1070
     0
1000
MTEXTEND
  0
MTEXT
  5
5458
330
1A
100
AcDbEntity
  8
SUNPOU
100
AcDbMText
 10
13632.26940684425
 20
24243.6299966577
 30
0.0
 40
10.5
 41
0.0
 71
     7
 72
     5
  1

1001
ACAD
1000
MTEXTBEGIN
1070
    73
1070
     1
1070
    44
1040
1.0
1070
    74
1070
     0
1000
MTEXTEND
1000
MTEXTBEGIN
1070
    73
1070
     1
1070
    44
1040
1.0
1070
    74
1070
     0
1000
MTEXTEND
1000
MTEXTBEGIN
1070
    73
1070
     1
1070
    44
1040
1.0
1070
    74
1070
     0
1000
MTEXTEND
  0
MTEXT
  5
5459
330
1A
100
AcDbEntity
  8
SUNPOU
100
AcDbMText
 10
16581.25307135702
 20
29144.30606850055
 30
0.0
 40
10.5
 41
0.0
 71
     7
 72
     5
  1

1001
ACAD
1000
MTEXTBEGIN
1070
    73
1070
     1
1070
    44
1040
1.0
1070
    74
1070
     0
1000
MTEXTEND
1000
MTEXTBEGIN
1070
    73
1070
     1
1070
    44
1040
1.0
1070
    74
1070
     0
1000
MTEXTEND
1000
MTEXTBEGIN
1070
    73
1070
     1
1070
    44
1040
1.0
1070
    74
1070
     0
1000
MTEXTEND
  0
MTEXT
  5
545A
330
1A
100
AcDbEntity
  8
SUNPOU
100
AcDbMText
 10
21090.33119930759
 20
31580.60681612062
 30
0.0
 40
10.5
 41
0.0
 71
     7
 72
     5
  1

1001
ACAD
1000
MTEXTBEGIN
1070
    73
1070
     1
1070
    44
1040
1.0
1070
    74
1070
     0
1000
MTEXTEND
1000
MTEXTBEGIN
1070
    73
1070
     1
1070
    44
1040
1.0
1070
    74
1070
     0
1000
MTEXTEND
1000
MTEXTBEGIN
1070
    73
1070
     1
1070
    44
1040
1.0
1070
    74
1070
     0
1000
MTEXTEND
  0
MTEXT
  5
545B
330
1A
100
AcDbEntity
  8
0
100
AcDbMText
 10
22871.60517627166
 20
23974.88367124799
 30
0.0
 40
8.0
 41
0.0
 71
     7
 72
     5
  1

1001
ACAD
1000
MTEXTBEGIN
1070
    73
1070
     1
1070
    44
1040
1.0
1070
    74
1070
     0
1000
MTEXTEND
1000
MTEXTBEGIN
1070
    73
1070
     1
1070
    44
1040
1.0
1070
    74
1070
     0
1000
MTEXTEND
1000
MTEXTBEGIN
1070
    73
1070
     1
1070
    44
1040
1.0
1070
    74
1070
     0
1000
MTEXTEND
  0
MTEXT
  5
545C
330
1A
100
AcDbEntity
  8
0
100
AcDbMText
 10
25156.96286616655
 20
24945.67396599904
 30
0.0
 40
8.0
 41
0.0
 71
     7
 72
     5
  1

1001
ACAD
1000
MTEXTBEGIN
1070
    73
1070
     1
1070
    44
1040
1.0
1070
    74
1070
     0
1000
MTEXTEND
1000
MTEXTBEGIN
1070
    73
1070
     1
1070
    44
1040
1.0
1070
    74
1070
     0
1000
MTEXTEND
1000
MTEXTBEGIN
1070
    73
1070
     1
1070
    44
1040
1.0
1070
    74
1070
     0
1000
MTEXTEND
  0
MTEXT
  5
545D
330
1A
100
AcDbEntity
  8
SUNPOU
100
AcDbMText
 10
27822.85988684871
 20
34457.78535837418
 30
0.0
 40
10.5
 41
0.0
 71
     1
 72
     5
  1

1001
ACAD
1000
MTEXTBEGIN
1070
    73
1070
     1
1070
    44
1040
1.0
1070
    74
1070
     0
1000
MTEXTEND
1000
MTEXTBEGIN
1070
    73
1070
     1
1070
    44
1040
1.0
1070
    74
1070
     0
1000
MTEXTEND
1000
MTEXTBEGIN
1070
    73
1070
     1
1070
    44
1040
1.0
1070
    74
1070
     0
1000
MTEXTEND
  0
MTEXT
  5
545E
330
1A
100
AcDbEntity
  8
SUNPOU
100
AcDbMText
 10
19891.93669091278
 20
33510.99222446122
 30
0.0
 40
10.5
 41
0.0
 71
     7
 72
     5
  1

1001
ACAD
1000
MTEXTBEGIN
1070
    73
1070
     1
1070
    44
1040
1.0
1070
    74
1070
     0
1000
MTEXTEND
1000
MTEXTBEGIN
1070
    73
1070
     1
1070
    44
1040
1.0
1070
    74
1070
     0
1000
MTEXTEND
1000
MTEXTBEGIN
1070
    73
1070
     1
1070
    44
1040
1.0
1070
    74
1070
     0
1000
MTEXTEND
  0
MTEXT
  5
545F
330
1A
100
AcDbEntity
  8
SUNPOU
100
AcDbMText
 10
22840.92035542555
 20
38411.66829630406
 30
0.0
 40
10.5
 41
0.0
 71
     7
 72
     5
  1

1001
ACAD
1000
MTEXTBEGIN
1070
    73
1070
     1
1070
    44
1040
1.0
1070
    74
1070
     0
1000
MTEXTEND
1000
MTEXTBEGIN
1070
    73
1070
     1
1070
    44
1040
1.0
1070
    74
1070
     0
1000
MTEXTEND
1000
MTEXTBEGIN
1070
    73
1070
     1
1070
    44
1040
1.0
1070
    74
1070
     0
1000
MTEXTEND
  0
MTEXT
  5
5460
330
1A
100
AcDbEntity
  8
SUNPOU
100
AcDbMText
 10
27349.99848337611
 20
40847.96904392415
 30
0.0
 40
10.5
 41
0.0
 71
     7
 72
     5
  1

1001
ACAD
1000
MTEXTBEGIN
1070
    73
1070
     1
1070
    44
1040
1.0
1070
    74
1070
     0
1000
MTEXTEND
1000
MTEXTBEGIN
1070
    73
1070
     1
1070
    44
1040
1.0
1070
    74
1070
     0
1000
MTEXTEND
1000
MTEXTBEGIN
1070
    73
1070
     1
1070
    44
1040
1.0
1070
    74
1070
     0
1000
MTEXTEND
  0
MTEXT
  5
55B7
330
1A
100
AcDbEntity
  8
SUNPOU
100
AcDbMText
 10
67424.23923338197
 20
64463.86602884816
 30
0.0
 40
10.5
 41
0.0
 71
     9
 72
     5
  1

1001
ACAD
1000
MTEXTBEGIN
1070
    73
1070
     1
1070
    44
1040
1.0
1070
    74
1070
     0
1000
MTEXTEND
1000
MTEXTBEGIN
1070
    73
1070
     1
1070
    44
1040
1.0
1070
    74
1070
     0
1000
MTEXTEND
1000
MTEXTBEGIN
1070
    73
1070
     1
1070
    44
1040
1.0
1070
    74
1070
     0
1000
MTEXTEND
  0
MTEXT
  5
55B8
330
1A
100
AcDbEntity
  8
SUNPOU
100
AcDbMText
 10
76146.40679929998
 20
71879.70056038563
 30
0.0
 40
10.5
 41
0.0
 71
     9
 72
     5
  1

1001
ACAD
1000
MTEXTBEGIN
1070
    73
1070
     1
1070
    44
1040
1.0
1070
    74
1070
     0
1000
MTEXTEND
1000
MTEXTBEGIN
1070
    73
1070
     1
1070
    44
1040
1.0
1070
    74
1070
     0
1000
MTEXTEND
1000
MTEXTBEGIN
1070
    73
1070
     1
1070
    44
1040
1.0
1070
    74
1070
     0
1000
MTEXTEND
  0
MTEXT
  5
55B9
330
1A
100
AcDbEntity
  8
SUNPOU
100
AcDbMText
 10
95100.16551662994
 20
89346.27661287766
 30
0.0
 40
10.5
 41
0.0
 71
     9
 72
     5
  1

1001
ACAD
1000
MTEXTBEGIN
1070
    73
1070
     1
1070
    44
1040
1.0
1070
    74
1070
     0
1000
MTEXTEND
1000
MTEXTBEGIN
1070
    73
1070
     1
1070
    44
1040
1.0
1070
    74
1070
     0
1000
MTEXTEND
1000
MTEXTBEGIN
1070
    73
1070
     1
1070
    44
1040
1.0
1070
    74
1070
     0
1000
MTEXTEND
  0
MTEXT
  5
55BA
330
1A
100
AcDbEntity
  8
SUNPOU
100
AcDbMText
 10
97043.57276333935
 20
87545.22753299966
 30
0.0
 40
3.5
 41
0.0
 71
     9
 72
     5
  1

1001
ACAD
1000
MTEXTBEGIN
1070
    73
1070
     1
1070
    44
1040
1.0
1070
    74
1070
     0
1000
MTEXTEND
1000
MTEXTBEGIN
1070
    73
1070
     1
1070
    44
1040
1.0
1070
    74
1070
     0
1000
MTEXTEND
1000
MTEXTBEGIN
1070
    73
1070
     1
1070
    44
1040
1.0
1070
    74
1070
     0
1000
MTEXTEND
  0
MTEXT
  5
55BB
330
1A
100
AcDbEntity
  8
SUNPOU
100
AcDbMText
 10
128169.7525959589
 20
130040.1732006569
 30
0.0
 40
10.5
 41
0.0
 71
     9
 72
     5
  1

1001
ACAD
1000
MTEXTBEGIN
1070
    73
1070
     1
1070
    44
1040
1.0
1070
    74
1070
     0
1000
MTEXTEND
1000
MTEXTBEGIN
1070
    73
1070
     1
1070
    44
1040
1.0
1070
    74
1070
     0
1000
MTEXTEND
1000
MTEXTBEGIN
1070
    73
1070
     1
1070
    44
1040
1.0
1070
    74
1070
     0
1000
MTEXTEND
  0
MTEXT
  5
55BC
330
1A
100
AcDbEntity
  8
SUNPOU
100
AcDbMText
 10
130113.1598426684
 20
128239.1241207789
 30
0.0
 40
3.5
 41
0.0
 71
     9
 72
     5
  1

1001
ACAD
1000
MTEXTBEGIN
1070
    73
1070
     1
1070
    44
1040
1.0
1070
    74
1070
     0
1000
MTEXTEND
1000
MTEXTBEGIN
1070
    73
1070
     1
1070
    44
1040
1.0
1070
    74
1070
     0
1000
MTEXTEND
1000
MTEXTBEGIN
1070
    73
1070
     1
1070
    44
1040
1.0
1070
    74
1070
     0
1000
MTEXTEND
  0
MTEXT
  5
55BD
330
1A
100
AcDbEntity
  8
SUNPOU
100
AcDbMText
 10
78610.02030175463
 20
75873.33835563206
 30
0.0
 40
10.5
 41
0.0
 71
     9
 72
     5
  1

1001
ACAD
1000
MTEXTBEGIN
1070
    73
1070
     1
1070
    44
1040
1.0
1070
    74
1070
     0
1000
MTEXTEND
1000
MTEXTBEGIN
1070
    73
1070
     1
1070
    44
1040
1.0
1070
    74
1070
     0
1000
MTEXTEND
1000
MTEXTBEGIN
1070
    73
1070
     1
1070
    44
1040
1.0
1070
    74
1070
     0
1000
MTEXTEND
  0
MTEXT
  5
55BE
330
1A
100
AcDbEntity
  8
SUNPOU
100
AcDbMText
 10
64662.02020137862
 20
56700.93921651987
 30
0.0
 40
3.5
 41
0.0
 71
     7
 72
     5
  1

1001
ACAD
1000
MTEXTBEGIN
1070
    73
1070
     1
1070
    44
1040
1.0
1070
    74
1070
     0
1000
MTEXTEND
1000
MTEXTBEGIN
1070
    73
1070
     1
1070
    44
1040
1.0
1070
    74
1070
     0
1000
MTEXTEND
1000
MTEXTBEGIN
1070
    73
1070
     1
1070
    44
1040
1.0
1070
    74
1070
     0
1000
MTEXTEND
  0
MTEXT
  5
55BF
330
1A
100
AcDbEntity
  8
SUNPOU
100
AcDbMText
 10
45647.18959837176
 20
44463.08794733806
 30
0.0
 40
10.5
 41
0.0
 71
     7
 72
     5
  1

1001
ACAD
1000
MTEXTBEGIN
1070
    73
1070
     1
1070
    44
1040
1.0
1070
    74
1070
     0
1000
MTEXTEND
1000
MTEXTBEGIN
1070
    73
1070
     1
1070
    44
1040
1.0
1070
    74
1070
     0
1000
MTEXTEND
1000
MTEXTBEGIN
1070
    73
1070
     1
1070
    44
1040
1.0
1070
    74
1070
     0
1000
MTEXTEND
  0
MTEXT
  5
55C0
330
1A
100
AcDbEntity
  8
SUNPOU
100
AcDbMText
 10
33189.96133342368
 20
28618.15636923965
 30
0.0
 40
35.0
 41
0.0
 71
     9
 72
     5
  1

1001
ACAD
1000
MTEXTBEGIN
1070
    73
1070
     1
1070
    44
1040
1.0
1070
    74
1070
     0
1000
MTEXTEND
1000
MTEXTBEGIN
1070
    73
1070
     1
1070
    44
1040
1.0
1070
    74
1070
     0
1000
MTEXTEND
1000
MTEXTBEGIN
1070
    73
1070
     1
1070
    44
1040
1.0
1070
    74
1070
     0
1000
MTEXTEND
  0
MTEXT
  5
55C1
330
1A
100
AcDbEntity
  8
SUNPOU
100
AcDbMText
 10
32098.44639099864
 20
29226.93177928834
 30
0.0
 40
350.0000004171781
 41
0.0
 71
     7
 72
     5
  1

1001
ACAD
1000
MTEXTBEGIN
1070
    73
1070
     1
1070
    44
1040
1.0
1070
    74
1070
     0
1000
MTEXTEND
1000
MTEXTBEGIN
1070
    73
1070
     1
1070
    44
1040
1.0
1070
    74
1070
     0
1000
MTEXTEND
1000
MTEXTBEGIN
1070
    73
1070
     1
1070
    44
1040
1.0
1070
    74
1070
     0
1000
MTEXTEND
  0
MTEXT
  5
55C2
330
1A
100
AcDbEntity
  8
0
100
AcDbMText
 10
38142.39714894154
 20
27206.85414142458
 30
0.0
 40
8.0
 41
0.0
 71
     7
 72
     5
  1

1001
ACAD
1000
MTEXTBEGIN
1070
    73
1070
     1
1070
    44
1040
1.0
1070
    74
1070
     0
1000
MTEXTEND
1000
MTEXTBEGIN
1070
    73
1070
     1
1070
    44
1040
1.0
1070
    74
1070
     0
1000
MTEXTEND
1000
MTEXTBEGIN
1070
    73
1070
     1
1070
    44
1040
1.0
1070
    74
1070
     0
1000
MTEXTEND
  0
MTEXT
  5
55C3
330
1A
100
AcDbEntity
  8
0
100
AcDbMText
 10
40427.75483883644
 20
28177.64443617564
 30
0.0
 40
8.0
 41
0.0
 71
     7
 72
     5
  1

1001
ACAD
1000
MTEXTBEGIN
1070
    73
1070
     1
1070
    44
1040
1.0
1070
    74
1070
     0
1000
MTEXTEND
1000
MTEXTBEGIN
1070
    73
1070
     1
1070
    44
1040
1.0
1070
    74
1070
     0
1000
MTEXTEND
1000
MTEXTBEGIN
1070
    73
1070
     1
1070
    44
1040
1.0
1070
    74
1070
     0
1000
MTEXTEND
  0
MTEXT
  5
55C4
330
1A
100
AcDbEntity
  8
SUNPOU
100
AcDbMText
 10
43093.65185951858
 20
37689.75582855077
 30
0.0
 40
10.5
 41
0.0
 71
     1
 72
     5
  1

1001
ACAD
1000
MTEXTBEGIN
1070
    73
1070
     1
1070
    44
1040
1.0
1070
    74
1070
     0
1000
MTEXTEND
1000
MTEXTBEGIN
1070
    73
1070
     1
1070
    44
1040
1.0
1070
    74
1070
     0
1000
MTEXTEND
1000
MTEXTBEGIN
1070
    73
1070
     1
1070
    44
1040
1.0
1070
    74
1070
     0
1000
MTEXTEND
  0
MTEXT
  5
55C5
330
1A
100
AcDbEntity
  8
SUNPOU
100
AcDbMText
 10
35162.72866358265
 20
36742.96269463781
 30
0.0
 40
10.5
 41
0.0
 71
     7
 72
     5
  1

1001
ACAD
1000
MTEXTBEGIN
1070
    73
1070
     1
1070
    44
1040
1.0
1070
    74
1070
     0
1000
MTEXTEND
1000
MTEXTBEGIN
1070
    73
1070
     1
1070
    44
1040
1.0
1070
    74
1070
     0
1000
MTEXTEND
1000
MTEXTBEGIN
1070
    73
1070
     1
1070
    44
1040
1.0
1070
    74
1070
     0
1000
MTEXTEND
  0
MTEXT
  5
55C6
330
1A
100
AcDbEntity
  8
SUNPOU
100
AcDbMText
 10
38111.71232809542
 20
41643.63876648065
 30
0.0
 40
10.5
 41
0.0
 71
     7
 72
     5
  1

1001
ACAD
1000
MTEXTBEGIN
1070
    73
1070
     1
1070
    44
1040
1.0
1070
    74
1070
     0
1000
MTEXTEND
1000
MTEXTBEGIN
1070
    73
1070
     1
1070
    44
1040
1.0
1070
    74
1070
     0
1000
MTEXTEND
1000
MTEXTBEGIN
1070
    73
1070
     1
1070
    44
1040
1.0
1070
    74
1070
     0
1000
MTEXTEND
  0
MTEXT
  5
55C7
330
1A
100
AcDbEntity
  8
SUNPOU
100
AcDbMText
 10
42620.79045604596
 20
44079.93951410074
 30
0.0
 40
10.5
 41
0.0
 71
     7
 72
     5
  1

1001
ACAD
1000
MTEXTBEGIN
1070
    73
1070
     1
1070
    44
1040
1.0
1070
    74
1070
     0
1000
MTEXTEND
1000
MTEXTBEGIN
1070
    73
1070
     1
1070
    44
1040
1.0
1070
    74
1070
     0
1000
MTEXTEND
1000
MTEXTBEGIN
1070
    73
1070
     1
1070
    44
1040
1.0
1070
    74
1070
     0
1000
MTEXTEND
  0
MTEXT
  5
55C8
330
1A
100
AcDbEntity
  8
SUNPOU
100
AcDbMText
 10
26221.62834281429
 20
23077.53566448964
 30
0.0
 40
10.5
 41
0.0
 71
     7
 72
     5
  1

1001
ACAD
1000
MTEXTBEGIN
1070
    73
1070
     1
1070
    44
1040
1.0
1070
    74
1070
     0
1000
MTEXTEND
1000
MTEXTBEGIN
1070
    73
1070
     1
1070
    44
1040
1.0
1070
    74
1070
     0
1000
MTEXTEND
1000
MTEXTBEGIN
1070
    73
1070
     1
1070
    44
1040
1.0
1070
    74
1070
     0
1000
MTEXTEND
  0
MTEXT
  5
55C9
330
1A
100
AcDbEntity
  8
SUNPOU
100
AcDbMText
 10
77413.14677671455
 20
68750.51622813789
 30
0.0
 40
10.5
 41
0.0
 71
     9
 72
     5
  1

1001
ACAD
1000
MTEXTBEGIN
1070
    73
1070
     1
1070
    44
1040
1.0
1070
    74
1070
     0
1000
MTEXTEND
1000
MTEXTBEGIN
1070
    73
1070
     1
1070
    44
1040
1.0
1070
    74
1070
     0
1000
MTEXTEND
1000
MTEXTBEGIN
1070
    73
1070
     1
1070
    44
1040
1.0
1070
    74
1070
     0
1000
MTEXTEND
  0
MTEXT
  5
55CA
330
1A
100
AcDbEntity
  8
SUNPOU
100
AcDbMText
 10
86135.31434263256
 20
76166.35075967536
 30
0.0
 40
10.5
 41
0.0
 71
     9
 72
     5
  1

1001
ACAD
1000
MTEXTBEGIN
1070
    73
1070
     1
1070
    44
1040
1.0
1070
    74
1070
     0
1000
MTEXTEND
1000
MTEXTBEGIN
1070
    73
1070
     1
1070
    44
1040
1.0
1070
    74
1070
     0
1000
MTEXTEND
1000
MTEXTBEGIN
1070
    73
1070
     1
1070
    44
1040
1.0
1070
    74
1070
     0
1000
MTEXTEND
  0
MTEXT
  5
55CB
330
1A
100
AcDbEntity
  8
SUNPOU
100
AcDbMText
 10
105089.0730599624
 20
93632.92681216739
 30
0.0
 40
10.5
 41
0.0
 71
     9
 72
     5
  1

1001
ACAD
1000
MTEXTBEGIN
1070
    73
1070
     1
1070
    44
1040
1.0
1070
    74
1070
     0
1000
MTEXTEND
1000
MTEXTBEGIN
1070
    73
1070
     1
1070
    44
1040
1.0
1070
    74
1070
     0
1000
MTEXTEND
1000
MTEXTBEGIN
1070
    73
1070
     1
1070
    44
1040
1.0
1070
    74
1070
     0
1000
MTEXTEND
  0
MTEXT
  5
55CC
330
1A
100
AcDbEntity
  8
SUNPOU
100
AcDbMText
 10
107032.4803066718
 20
91831.87773228937
 30
0.0
 40
3.5
 41
0.0
 71
     9
 72
     5
  1

1001
ACAD
1000
MTEXTBEGIN
1070
    73
1070
     1
1070
    44
1040
1.0
1070
    74
1070
     0
1000
MTEXTEND
1000
MTEXTBEGIN
1070
    73
1070
     1
1070
    44
1040
1.0
1070
    74
1070
     0
1000
MTEXTEND
1000
MTEXTBEGIN
1070
    73
1070
     1
1070
    44
1040
1.0
1070
    74
1070
     0
1000
MTEXTEND
  0
MTEXT
  5
55CD
330
1A
100
AcDbEntity
  8
SUNPOU
100
AcDbMText
 10
138158.6601392916
 20
134326.8233999467
 30
0.0
 40
10.5
 41
0.0
 71
     9
 72
     5
  1

1001
ACAD
1000
MTEXTBEGIN
1070
    73
1070
     1
1070
    44
1040
1.0
1070
    74
1070
     0
1000
MTEXTEND
1000
MTEXTBEGIN
1070
    73
1070
     1
1070
    44
1040
1.0
1070
    74
1070
     0
1000
MTEXTEND
1000
MTEXTBEGIN
1070
    73
1070
     1
1070
    44
1040
1.0
1070
    74
1070
     0
1000
MTEXTEND
  0
MTEXT
  5
55CE
330
1A
100
AcDbEntity
  8
SUNPOU
100
AcDbMText
 10
140102.067386001
 20
132525.7743200686
 30
0.0
 40
3.5
 41
0.0
 71
     9
 72
     5
  1

1001
ACAD
1000
MTEXTBEGIN
1070
    73
1070
     1
1070
    44
1040
1.0
1070
    74
1070
     0
1000
MTEXTEND
1000
MTEXTBEGIN
1070
    73
1070
     1
1070
    44
1040
1.0
1070
    74
1070
     0
1000
MTEXTEND
1000
MTEXTBEGIN
1070
    73
1070
     1
1070
    44
1040
1.0
1070
    74
1070
     0
1000
MTEXTEND
  0
MTEXT
  5
55CF
330
1A
100
AcDbEntity
  8
SUNPOU
100
AcDbMText
 10
88598.92784508721
 20
80159.98855492179
 30
0.0
 40
10.5
 41
0.0
 71
     9
 72
     5
  1

1001
ACAD
1000
MTEXTBEGIN
1070
    73
1070
     1
1070
    44
1040
1.0
1070
    74
1070
     0
1000
MTEXTEND
1000
MTEXTBEGIN
1070
    73
1070
     1
1070
    44
1040
1.0
1070
    74
1070
     0
1000
MTEXTEND
1000
MTEXTBEGIN
1070
    73
1070
     1
1070
    44
1040
1.0
1070
    74
1070
     0
1000
MTEXTEND
  0
MTEXT
  5
55D0
330
1A
100
AcDbEntity
  8
SUNPOU
100
AcDbMText
 10
74650.92774471121
 20
60987.58941580959
 30
0.0
 40
3.5
 41
0.0
 71
     7
 72
     5
  1

1001
ACAD
1000
MTEXTBEGIN
1070
    73
1070
     1
1070
    44
1040
1.0
1070
    74
1070
     0
1000
MTEXTEND
1000
MTEXTBEGIN
1070
    73
1070
     1
1070
    44
1040
1.0
1070
    74
1070
     0
1000
MTEXTEND
1000
MTEXTBEGIN
1070
    73
1070
     1
1070
    44
1040
1.0
1070
    74
1070
     0
1000
MTEXTEND
  0
MTEXT
  5
55D1
330
1A
100
AcDbEntity
  8
SUNPOU
100
AcDbMText
 10
55636.09714170436
 20
48749.73814662781
 30
0.0
 40
10.5
 41
0.0
 71
     7
 72
     5
  1

1001
ACAD
1000
MTEXTBEGIN
1070
    73
1070
     1
1070
    44
1040
1.0
1070
    74
1070
     0
1000
MTEXTEND
1000
MTEXTBEGIN
1070
    73
1070
     1
1070
    44
1040
1.0
1070
    74
1070
     0
1000
MTEXTEND
1000
MTEXTBEGIN
1070
    73
1070
     1
1070
    44
1040
1.0
1070
    74
1070
     0
1000
MTEXTEND
  0
MTEXT
  5
55D2
330
1A
100
AcDbEntity
  8
SUNPOU
100
AcDbMText
 10
43178.86887675626
 20
32904.80656852937
 30
0.0
 40
35.0
 41
0.0
 71
     9
 72
     5
  1

1001
ACAD
1000
MTEXTBEGIN
1070
    73
1070
     1
1070
    44
1040
1.0
1070
    74
1070
     0
1000
MTEXTEND
1000
MTEXTBEGIN
1070
    73
1070
     1
1070
    44
1040
1.0
1070
    74
1070
     0
1000
MTEXTEND
1000
MTEXTBEGIN
1070
    73
1070
     1
1070
    44
1040
1.0
1070
    74
1070
     0
1000
MTEXTEND
  0
MTEXT
  5
55D3
330
1A
100
AcDbEntity
  8
SUNPOU
100
AcDbMText
 10
42087.3539343312
 20
33513.58197857808
 30
0.0
 40
350.0000004171781
 41
0.0
 71
     7
 72
     5
  1

1001
ACAD
1000
MTEXTBEGIN
1070
    73
1070
     1
1070
    44
1040
1.0
1070
    74
1070
     0
1000
MTEXTEND
1000
MTEXTBEGIN
1070
    73
1070
     1
1070
    44
1040
1.0
1070
    74
1070
     0
1000
MTEXTEND
1000
MTEXTBEGIN
1070
    73
1070
     1
1070
    44
1040
1.0
1070
    74
1070
     0
1000
MTEXTEND
  0
MTEXT
  5
55D4
330
1A
100
AcDbEntity
  8
0
100
AcDbMText
 10
48131.30469227412
 20
31493.50434071431
 30
0.0
 40
8.0
 41
0.0
 71
     7
 72
     5
  1

1001
ACAD
1000
MTEXTBEGIN
1070
    73
1070
     1
1070
    44
1040
1.0
1070
    74
1070
     0
1000
MTEXTEND
1000
MTEXTBEGIN
1070
    73
1070
     1
1070
    44
1040
1.0
1070
    74
1070
     0
1000
MTEXTEND
1000
MTEXTBEGIN
1070
    73
1070
     1
1070
    44
1040
1.0
1070
    74
1070
     0
1000
MTEXTEND
  0
MTEXT
  5
55D5
330
1A
100
AcDbEntity
  8
0
100
AcDbMText
 10
50416.66238216901
 20
32464.29463546537
 30
0.0
 40
8.0
 41
0.0
 71
     7
 72
     5
  1

1001
ACAD
1000
MTEXTBEGIN
1070
    73
1070
     1
1070
    44
1040
1.0
1070
    74
1070
     0
1000
MTEXTEND
1000
MTEXTBEGIN
1070
    73
1070
     1
1070
    44
1040
1.0
1070
    74
1070
     0
1000
MTEXTEND
1000
MTEXTBEGIN
1070
    73
1070
     1
1070
    44
1040
1.0
1070
    74
1070
     0
1000
MTEXTEND
  0
MTEXT
  5
55D6
330
1A
100
AcDbEntity
  8
SUNPOU
100
AcDbMText
 10
53082.55940285115
 20
41976.4060278405
 30
0.0
 40
10.5
 41
0.0
 71
     1
 72
     5
  1

1001
ACAD
1000
MTEXTBEGIN
1070
    73
1070
     1
1070
    44
1040
1.0
1070
    74
1070
     0
1000
MTEXTEND
1000
MTEXTBEGIN
1070
    73
1070
     1
1070
    44
1040
1.0
1070
    74
1070
     0
1000
MTEXTEND
1000
MTEXTBEGIN
1070
    73
1070
     1
1070
    44
1040
1.0
1070
    74
1070
     0
1000
MTEXTEND
  0
MTEXT
  5
55D7
330
1A
100
AcDbEntity
  8
SUNPOU
100
AcDbMText
 10
45151.63620691521
 20
41029.61289392755
 30
0.0
 40
10.5
 41
0.0
 71
     7
 72
     5
  1

1001
ACAD
1000
MTEXTBEGIN
1070
    73
1070
     1
1070
    44
1040
1.0
1070
    74
1070
     0
1000
MTEXTEND
1000
MTEXTBEGIN
1070
    73
1070
     1
1070
    44
1040
1.0
1070
    74
1070
     0
1000
MTEXTEND
1000
MTEXTBEGIN
1070
    73
1070
     1
1070
    44
1040
1.0
1070
    74
1070
     0
1000
MTEXTEND
  0
MTEXT
  5
55D8
330
1A
100
AcDbEntity
  8
SUNPOU
100
AcDbMText
 10
48100.61987142798
 20
45930.28896577039
 30
0.0
 40
10.5
 41
0.0
 71
     7
 72
     5
  1

1001
ACAD
1000
MTEXTBEGIN
1070
    73
1070
     1
1070
    44
1040
1.0
1070
    74
1070
     0
1000
MTEXTEND
1000
MTEXTBEGIN
1070
    73
1070
     1
1070
    44
1040
1.0
1070
    74
1070
     0
1000
MTEXTEND
1000
MTEXTBEGIN
1070
    73
1070
     1
1070
    44
1040
1.0
1070
    74
1070
     0
1000
MTEXTEND
  0
MTEXT
  5
55D9
330
1A
100
AcDbEntity
  8
SUNPOU
100
AcDbMText
 10
52609.69799937853
 20
48366.58971339046
 30
0.0
 40
10.5
 41
0.0
 71
     7
 72
     5
  1

1001
ACAD
1000
MTEXTBEGIN
1070
    73
1070
     1
1070
    44
1040
1.0
1070
    74
1070
     0
1000
MTEXTEND
1000
MTEXTBEGIN
1070
    73
1070
     1
1070
    44
1040
1.0
1070
    74
1070
     0
1000
MTEXTEND
1000
MTEXTBEGIN
1070
    73
1070
     1
1070
    44
1040
1.0
1070
    74
1070
     0
1000
MTEXTEND
  0
MTEXT
  5
55DA
330
1A
100
AcDbEntity
  8
SUNPOU
100
AcDbMText
 10
36210.53588614687
 20
27364.18586377937
 30
0.0
 40
10.5
 41
0.0
 71
     7
 72
     5
  1

1001
ACAD
1000
MTEXTBEGIN
1070
    73
1070
     1
1070
    44
1040
1.0
1070
    74
1070
     0
1000
MTEXTEND
1000
MTEXTBEGIN
1070
    73
1070
     1
1070
    44
1040
1.0
1070
    74
1070
     0
1000
MTEXTEND
1000
MTEXTBEGIN
1070
    73
1070
     1
1070
    44
1040
1.0
1070
    74
1070
     0
1000
MTEXTEND
  0
MTEXT
  5
55DB
330
1A
100
AcDbEntity
  8
SUNPOU
100
AcDbMText
 10
38021.29879752181
 20
33691.59985125794
 30
0.0
 40
10.5
 41
0.0
 71
     9
 72
     5
  1

1001
ACAD
1000
MTEXTBEGIN
1070
    73
1070
     1
1070
    44
1040
1.0
1070
    74
1070
     0
1000
MTEXTEND
1000
MTEXTBEGIN
1070
    73
1070
     1
1070
    44
1040
1.0
1070
    74
1070
     0
1000
MTEXTEND
1000
MTEXTBEGIN
1070
    73
1070
     1
1070
    44
1040
1.0
1070
    74
1070
     0
1000
MTEXTEND
  0
MTEXT
  5
55DC
330
1A
100
AcDbEntity
  8
SUNPOU
100
AcDbMText
 10
46743.46636343979
 20
41107.4343827954
 30
0.0
 40
10.5
 41
0.0
 71
     9
 72
     5
  1

1001
ACAD
1000
MTEXTBEGIN
1070
    73
1070
     1
1070
    44
1040
1.0
1070
    74
1070
     0
1000
MTEXTEND
1000
MTEXTBEGIN
1070
    73
1070
     1
1070
    44
1040
1.0
1070
    74
1070
     0
1000
MTEXTEND
1000
MTEXTBEGIN
1070
    73
1070
     1
1070
    44
1040
1.0
1070
    74
1070
     0
1000
MTEXTEND
  0
MTEXT
  5
55DD
330
1A
100
AcDbEntity
  8
SUNPOU
100
AcDbMText
 10
65697.22508076974
 20
58574.01043528746
 30
0.0
 40
10.5
 41
0.0
 71
     9
 72
     5
  1

1001
ACAD
1000
MTEXTBEGIN
1070
    73
1070
     1
1070
    44
1040
1.0
1070
    74
1070
     0
1000
MTEXTEND
1000
MTEXTBEGIN
1070
    73
1070
     1
1070
    44
1040
1.0
1070
    74
1070
     0
1000
MTEXTEND
1000
MTEXTBEGIN
1070
    73
1070
     1
1070
    44
1040
1.0
1070
    74
1070
     0
1000
MTEXTEND
  0
MTEXT
  5
55DE
330
1A
100
AcDbEntity
  8
SUNPOU
100
AcDbMText
 10
67640.63232747917
 20
56772.96135540945
 30
0.0
 40
3.5
 41
0.0
 71
     9
 72
     5
  1

1001
ACAD
1000
MTEXTBEGIN
1070
    73
1070
     1
1070
    44
1040
1.0
1070
    74
1070
     0
1000
MTEXTEND
1000
MTEXTBEGIN
1070
    73
1070
     1
1070
    44
1040
1.0
1070
    74
1070
     0
1000
MTEXTEND
1000
MTEXTBEGIN
1070
    73
1070
     1
1070
    44
1040
1.0
1070
    74
1070
     0
1000
MTEXTEND
  0
MTEXT
  5
55DF
330
1A
100
AcDbEntity
  8
SUNPOU
100
AcDbMText
 10
98766.81216009886
 20
99267.9070230668
 30
0.0
 40
10.5
 41
0.0
 71
     9
 72
     5
  1

1001
ACAD
1000
MTEXTBEGIN
1070
    73
1070
     1
1070
    44
1040
1.0
1070
    74
1070
     0
1000
MTEXTEND
1000
MTEXTBEGIN
1070
    73
1070
     1
1070
    44
1040
1.0
1070
    74
1070
     0
1000
MTEXTEND
1000
MTEXTBEGIN
1070
    73
1070
     1
1070
    44
1040
1.0
1070
    74
1070
     0
1000
MTEXTEND
  0
MTEXT
  5
55E0
330
1A
100
AcDbEntity
  8
SUNPOU
100
AcDbMText
 10
100710.2194068083
 20
97466.85794318876
 30
0.0
 40
3.5
 41
0.0
 71
     9
 72
     5
  1

1001
ACAD
1000
MTEXTBEGIN
1070
    73
1070
     1
1070
    44
1040
1.0
1070
    74
1070
     0
1000
MTEXTEND
1000
MTEXTBEGIN
1070
    73
1070
     1
1070
    44
1040
1.0
1070
    74
1070
     0
1000
MTEXTEND
1000
MTEXTBEGIN
1070
    73
1070
     1
1070
    44
1040
1.0
1070
    74
1070
     0
1000
MTEXTEND
  0
MTEXT
  5
55E1
330
1A
100
AcDbEntity
  8
SUNPOU
100
AcDbMText
 10
49207.07986589443
 20
45101.07217804184
 30
0.0
 40
10.5
 41
0.0
 71
     9
 72
     5
  1

1001
ACAD
1000
MTEXTBEGIN
1070
    73
1070
     1
1070
    44
1040
1.0
1070
    74
1070
     0
1000
MTEXTEND
1000
MTEXTBEGIN
1070
    73
1070
     1
1070
    44
1040
1.0
1070
    74
1070
     0
1000
MTEXTEND
1000
MTEXTBEGIN
1070
    73
1070
     1
1070
    44
1040
1.0
1070
    74
1070
     0
1000
MTEXTEND
  0
MTEXT
  5
55E2
330
1A
100
AcDbEntity
  8
SUNPOU
100
AcDbMText
 10
35259.07976551845
 20
25928.67303892964
 30
0.0
 40
3.5
 41
0.0
 71
     7
 72
     5
  1

1001
ACAD
1000
MTEXTBEGIN
1070
    73
1070
     1
1070
    44
1040
1.0
1070
    74
1070
     0
1000
MTEXTEND
1000
MTEXTBEGIN
1070
    73
1070
     1
1070
    44
1040
1.0
1070
    74
1070
     0
1000
MTEXTEND
1000
MTEXTBEGIN
1070
    73
1070
     1
1070
    44
1040
1.0
1070
    74
1070
     0
1000
MTEXTEND
  0
MTEXT
  5
55E3
330
1A
100
AcDbEntity
  8
SUNPOU
100
AcDbMText
 10
48951.43044828905
 20
35287.73625995099
 30
0.0
 40
10.5
 41
0.0
 71
     9
 72
     5
  1

1001
ACAD
1000
MTEXTBEGIN
1070
    73
1070
     1
1070
    44
1040
1.0
1070
    74
1070
     0
1000
MTEXTEND
1000
MTEXTBEGIN
1070
    73
1070
     1
1070
    44
1040
1.0
1070
    74
1070
     0
1000
MTEXTEND
1000
MTEXTBEGIN
1070
    73
1070
     1
1070
    44
1040
1.0
1070
    74
1070
     0
1000
MTEXTEND
  0
MTEXT
  5
55E4
330
1A
100
AcDbEntity
  8
SUNPOU
100
AcDbMText
 10
57673.59801420702
 20
42703.57079148847
 30
0.0
 40
10.5
 41
0.0
 71
     9
 72
     5
  1

1001
ACAD
1000
MTEXTBEGIN
1070
    73
1070
     1
1070
    44
1040
1.0
1070
    74
1070
     0
1000
MTEXTEND
1000
MTEXTBEGIN
1070
    73
1070
     1
1070
    44
1040
1.0
1070
    74
1070
     0
1000
MTEXTEND
1000
MTEXTBEGIN
1070
    73
1070
     1
1070
    44
1040
1.0
1070
    74
1070
     0
1000
MTEXTEND
  0
MTEXT
  5
55E5
330
1A
100
AcDbEntity
  8
SUNPOU
100
AcDbMText
 10
76627.35673153699
 20
60170.14684398051
 30
0.0
 40
10.5
 41
0.0
 71
     9
 72
     5
  1

1001
ACAD
1000
MTEXTBEGIN
1070
    73
1070
     1
1070
    44
1040
1.0
1070
    74
1070
     0
1000
MTEXTEND
1000
MTEXTBEGIN
1070
    73
1070
     1
1070
    44
1040
1.0
1070
    74
1070
     0
1000
MTEXTEND
1000
MTEXTBEGIN
1070
    73
1070
     1
1070
    44
1040
1.0
1070
    74
1070
     0
1000
MTEXTEND
  0
MTEXT
  5
55E6
330
1A
100
AcDbEntity
  8
SUNPOU
100
AcDbMText
 10
78570.76397824641
 20
58369.09776410251
 30
0.0
 40
3.5
 41
0.0
 71
     9
 72
     5
  1

1001
ACAD
1000
MTEXTBEGIN
1070
    73
1070
     1
1070
    44
1040
1.0
1070
    74
1070
     0
1000
MTEXTEND
1000
MTEXTBEGIN
1070
    73
1070
     1
1070
    44
1040
1.0
1070
    74
1070
     0
1000
MTEXTEND
1000
MTEXTBEGIN
1070
    73
1070
     1
1070
    44
1040
1.0
1070
    74
1070
     0
1000
MTEXTEND
  0
MTEXT
  5
55E7
330
1A
100
AcDbEntity
  8
SUNPOU
100
AcDbMText
 10
109696.943810866
 20
100864.0434317598
 30
0.0
 40
10.5
 41
0.0
 71
     9
 72
     5
  1

1001
ACAD
1000
MTEXTBEGIN
1070
    73
1070
     1
1070
    44
1040
1.0
1070
    74
1070
     0
1000
MTEXTEND
1000
MTEXTBEGIN
1070
    73
1070
     1
1070
    44
1040
1.0
1070
    74
1070
     0
1000
MTEXTEND
1000
MTEXTBEGIN
1070
    73
1070
     1
1070
    44
1040
1.0
1070
    74
1070
     0
1000
MTEXTEND
  0
MTEXT
  5
55E8
330
1A
100
AcDbEntity
  8
SUNPOU
100
AcDbMText
 10
111640.3510575755
 20
99062.99435188183
 30
0.0
 40
3.5
 41
0.0
 71
     9
 72
     5
  1

1001
ACAD
1000
MTEXTBEGIN
1070
    73
1070
     1
1070
    44
1040
1.0
1070
    74
1070
     0
1000
MTEXTEND
1000
MTEXTBEGIN
1070
    73
1070
     1
1070
    44
1040
1.0
1070
    74
1070
     0
1000
MTEXTEND
1000
MTEXTBEGIN
1070
    73
1070
     1
1070
    44
1040
1.0
1070
    74
1070
     0
1000
MTEXTEND
  0
MTEXT
  5
55E9
330
1A
100
AcDbEntity
  8
SUNPOU
100
AcDbMText
 10
60137.21151666167
 20
46697.20858673491
 30
0.0
 40
10.5
 41
0.0
 71
     9
 72
     5
  1

1001
ACAD
1000
MTEXTBEGIN
1070
    73
1070
     1
1070
    44
1040
1.0
1070
    74
1070
     0
1000
MTEXTEND
1000
MTEXTBEGIN
1070
    73
1070
     1
1070
    44
1040
1.0
1070
    74
1070
     0
1000
MTEXTEND
1000
MTEXTBEGIN
1070
    73
1070
     1
1070
    44
1040
1.0
1070
    74
1070
     0
1000
MTEXTEND
  0
MTEXT
  5
55EA
330
1A
100
AcDbEntity
  8
SUNPOU
100
AcDbMText
 10
46189.21141628568
 20
27524.80944762269
 30
0.0
 40
3.5
 41
0.0
 71
     7
 72
     5
  1

1001
ACAD
1000
MTEXTBEGIN
1070
    73
1070
     1
1070
    44
1040
1.0
1070
    74
1070
     0
1000
MTEXTEND
1000
MTEXTBEGIN
1070
    73
1070
     1
1070
    44
1040
1.0
1070
    74
1070
     0
1000
MTEXTEND
1000
MTEXTBEGIN
1070
    73
1070
     1
1070
    44
1040
1.0
1070
    74
1070
     0
1000
MTEXTEND
  0
MTEXT
  5
55EB
330
1A
100
AcDbEntity
  8
SUNPOU
100
AcDbMText
 10
45007.68847015541
 20
38269.57947701873
 30
0.0
 40
10.5
 41
0.0
 71
     9
 72
     5
  1

1001
ACAD
1000
MTEXTBEGIN
1070
    73
1070
     1
1070
    44
1040
1.0
1070
    74
1070
     0
1000
MTEXTEND
1000
MTEXTBEGIN
1070
    73
1070
     1
1070
    44
1040
1.0
1070
    74
1070
     0
1000
MTEXTEND
1000
MTEXTBEGIN
1070
    73
1070
     1
1070
    44
1040
1.0
1070
    74
1070
     0
1000
MTEXTEND
  0
MTEXT
  5
55EC
330
1A
100
AcDbEntity
  8
SUNPOU
100
AcDbMText
 10
63961.44718748539
 20
55736.15552951081
 30
0.0
 40
10.5
 41
0.0
 71
     9
 72
     5
  1

1001
ACAD
1000
MTEXTBEGIN
1070
    73
1070
     1
1070
    44
1040
1.0
1070
    74
1070
     0
1000
MTEXTEND
1000
MTEXTBEGIN
1070
    73
1070
     1
1070
    44
1040
1.0
1070
    74
1070
     0
1000
MTEXTEND
1000
MTEXTBEGIN
1070
    73
1070
     1
1070
    44
1040
1.0
1070
    74
1070
     0
1000
MTEXTEND
  0
MTEXT
  5
55ED
330
1A
100
AcDbEntity
  8
SUNPOU
100
AcDbMText
 10
65904.85443419479
 20
53935.10644963278
 30
0.0
 40
3.5
 41
0.0
 71
     9
 72
     5
  1

1001
ACAD
1000
MTEXTBEGIN
1070
    73
1070
     1
1070
    44
1040
1.0
1070
    74
1070
     0
1000
MTEXTEND
1000
MTEXTBEGIN
1070
    73
1070
     1
1070
    44
1040
1.0
1070
    74
1070
     0
1000
MTEXTEND
1000
MTEXTBEGIN
1070
    73
1070
     1
1070
    44
1040
1.0
1070
    74
1070
     0
1000
MTEXTEND
  0
MTEXT
  5
55EE
330
1A
100
AcDbEntity
  8
SUNPOU
100
AcDbMText
 10
97031.03426681453
 20
96430.05211729015
 30
0.0
 40
10.5
 41
0.0
 71
     9
 72
     5
  1

1001
ACAD
1000
MTEXTBEGIN
1070
    73
1070
     1
1070
    44
1040
1.0
1070
    74
1070
     0
1000
MTEXTEND
1000
MTEXTBEGIN
1070
    73
1070
     1
1070
    44
1040
1.0
1070
    74
1070
     0
1000
MTEXTEND
1000
MTEXTBEGIN
1070
    73
1070
     1
1070
    44
1040
1.0
1070
    74
1070
     0
1000
MTEXTEND
  0
MTEXT
  5
55EF
330
1A
100
AcDbEntity
  8
SUNPOU
100
AcDbMText
 10
98974.44151352393
 20
94629.00303741212
 30
0.0
 40
3.5
 41
0.0
 71
     9
 72
     5
  1

1001
ACAD
1000
MTEXTBEGIN
1070
    73
1070
     1
1070
    44
1040
1.0
1070
    74
1070
     0
1000
MTEXTEND
1000
MTEXTBEGIN
1070
    73
1070
     1
1070
    44
1040
1.0
1070
    74
1070
     0
1000
MTEXTEND
1000
MTEXTBEGIN
1070
    73
1070
     1
1070
    44
1040
1.0
1070
    74
1070
     0
1000
MTEXTEND
  0
MTEXT
  5
55F0
330
1A
100
AcDbEntity
  8
SUNPOU
100
AcDbMText
 10
47471.30197261006
 20
42263.21727226519
 30
0.0
 40
10.5
 41
0.0
 71
     9
 72
     5
  1

1001
ACAD
1000
MTEXTBEGIN
1070
    73
1070
     1
1070
    44
1040
1.0
1070
    74
1070
     0
1000
MTEXTEND
1000
MTEXTBEGIN
1070
    73
1070
     1
1070
    44
1040
1.0
1070
    74
1070
     0
1000
MTEXTEND
1000
MTEXTBEGIN
1070
    73
1070
     1
1070
    44
1040
1.0
1070
    74
1070
     0
1000
MTEXTEND
  0
MTEXT
  5
55F1
330
1A
100
AcDbEntity
  8
SUNPOU
100
AcDbMText
 10
33523.30187223408
 20
23090.81813315298
 30
0.0
 40
3.5
 41
0.0
 71
     7
 72
     5
  1

1001
ACAD
1000
MTEXTBEGIN
1070
    73
1070
     1
1070
    44
1040
1.0
1070
    74
1070
     0
1000
MTEXTEND
1000
MTEXTBEGIN
1070
    73
1070
     1
1070
    44
1040
1.0
1070
    74
1070
     0
1000
MTEXTEND
1000
MTEXTBEGIN
1070
    73
1070
     1
1070
    44
1040
1.0
1070
    74
1070
     0
1000
MTEXTEND
  0
MTEXT
  5
55F2
330
1A
100
AcDbEntity
  8
SUNPOU
100
AcDbMText
 10
57959.46254102503
 20
50038.08111611014
 30
0.0
 40
10.5
 41
0.0
 71
     9
 72
     5
  1

1001
ACAD
1000
MTEXTBEGIN
1070
    73
1070
     1
1070
    44
1040
1.0
1070
    74
1070
     0
1000
MTEXTEND
1000
MTEXTBEGIN
1070
    73
1070
     1
1070
    44
1040
1.0
1070
    74
1070
     0
1000
MTEXTEND
1000
MTEXTBEGIN
1070
    73
1070
     1
1070
    44
1040
1.0
1070
    74
1070
     0
1000
MTEXTEND
  0
MTEXT
  5
55F3
330
1A
100
AcDbEntity
  8
SUNPOU
100
AcDbMText
 10
76913.22125835503
 20
67504.65716860222
 30
0.0
 40
10.5
 41
0.0
 71
     9
 72
     5
  1

1001
ACAD
1000
MTEXTBEGIN
1070
    73
1070
     1
1070
    44
1040
1.0
1070
    74
1070
     0
1000
MTEXTEND
1000
MTEXTBEGIN
1070
    73
1070
     1
1070
    44
1040
1.0
1070
    74
1070
     0
1000
MTEXTEND
1000
MTEXTBEGIN
1070
    73
1070
     1
1070
    44
1040
1.0
1070
    74
1070
     0
1000
MTEXTEND
  0
MTEXT
  5
55F4
330
1A
100
AcDbEntity
  8
SUNPOU
100
AcDbMText
 10
78856.62850506443
 20
65703.6080887242
 30
0.0
 40
3.5
 41
0.0
 71
     9
 72
     5
  1

1001
ACAD
1000
MTEXTBEGIN
1070
    73
1070
     1
1070
    44
1040
1.0
1070
    74
1070
     0
1000
MTEXTEND
1000
MTEXTBEGIN
1070
    73
1070
     1
1070
    44
1040
1.0
1070
    74
1070
     0
1000
MTEXTEND
1000
MTEXTBEGIN
1070
    73
1070
     1
1070
    44
1040
1.0
1070
    74
1070
     0
1000
MTEXTEND
  0
MTEXT
  5
55F5
330
1A
100
AcDbEntity
  8
SUNPOU
100
AcDbMText
 10
109982.8083376841
 20
108198.5537563815
 30
0.0
 40
10.5
 41
0.0
 71
     9
 72
     5
  1

1001
ACAD
1000
MTEXTBEGIN
1070
    73
1070
     1
1070
    44
1040
1.0
1070
    74
1070
     0
1000
MTEXTEND
1000
MTEXTBEGIN
1070
    73
1070
     1
1070
    44
1040
1.0
1070
    74
1070
     0
1000
MTEXTEND
1000
MTEXTBEGIN
1070
    73
1070
     1
1070
    44
1040
1.0
1070
    74
1070
     0
1000
MTEXTEND
  0
MTEXT
  5
55F6
330
1A
100
AcDbEntity
  8
SUNPOU
100
AcDbMText
 10
111926.2155843933
 20
106397.5046765035
 30
0.0
 40
3.5
 41
0.0
 71
     9
 72
     5
  1

1001
ACAD
1000
MTEXTBEGIN
1070
    73
1070
     1
1070
    44
1040
1.0
1070
    74
1070
     0
1000
MTEXTEND
1000
MTEXTBEGIN
1070
    73
1070
     1
1070
    44
1040
1.0
1070
    74
1070
     0
1000
MTEXTEND
1000
MTEXTBEGIN
1070
    73
1070
     1
1070
    44
1040
1.0
1070
    74
1070
     0
1000
MTEXTEND
  0
MTEXT
  5
55F7
330
1A
100
AcDbEntity
  8
SUNPOU
100
AcDbMText
 10
60423.07604347968
 20
54031.71891135658
 30
0.0
 40
10.5
 41
0.0
 71
     9
 72
     5
  1

1001
ACAD
1000
MTEXTBEGIN
1070
    73
1070
     1
1070
    44
1040
1.0
1070
    74
1070
     0
1000
MTEXTEND
1000
MTEXTBEGIN
1070
    73
1070
     1
1070
    44
1040
1.0
1070
    74
1070
     0
1000
MTEXTEND
1000
MTEXTBEGIN
1070
    73
1070
     1
1070
    44
1040
1.0
1070
    74
1070
     0
1000
MTEXTEND
  0
MTEXT
  5
55F8
330
1A
100
AcDbEntity
  8
SUNPOU
100
AcDbMText
 10
46475.07594310369
 20
34859.3197722444
 30
0.0
 40
3.5
 41
0.0
 71
     7
 72
     5
  1

1001
ACAD
1000
MTEXTBEGIN
1070
    73
1070
     1
1070
    44
1040
1.0
1070
    74
1070
     0
1000
MTEXTEND
1000
MTEXTBEGIN
1070
    73
1070
     1
1070
    44
1040
1.0
1070
    74
1070
     0
1000
MTEXTEND
1000
MTEXTBEGIN
1070
    73
1070
     1
1070
    44
1040
1.0
1070
    74
1070
     0
1000
MTEXTEND
  0
MTEXT
  5
55F9
330
1A
100
AcDbEntity
  8
SUNPOU
100
AcDbMText
 10
74027.35402123588
 20
68370.58278833383
 30
0.0
 40
10.5
 41
0.0
 71
     9
 72
     5
  1

1001
ACAD
1000
MTEXTBEGIN
1070
    73
1070
     1
1070
    44
1040
1.0
1070
    74
1070
     0
1000
MTEXTEND
1000
MTEXTBEGIN
1070
    73
1070
     1
1070
    44
1040
1.0
1070
    74
1070
     0
1000
MTEXTEND
1000
MTEXTBEGIN
1070
    73
1070
     1
1070
    44
1040
1.0
1070
    74
1070
     0
1000
MTEXTEND
  0
MTEXT
  5
55FA
330
1A
100
AcDbEntity
  8
SUNPOU
100
AcDbMText
 10
75970.7612679453
 20
66569.53370845583
 30
0.0
 40
3.5
 41
0.0
 71
     9
 72
     5
  1

1001
ACAD
1000
MTEXTBEGIN
1070
    73
1070
     1
1070
    44
1040
1.0
1070
    74
1070
     0
1000
MTEXTEND
1000
MTEXTBEGIN
1070
    73
1070
     1
1070
    44
1040
1.0
1070
    74
1070
     0
1000
MTEXTEND
1000
MTEXTBEGIN
1070
    73
1070
     1
1070
    44
1040
1.0
1070
    74
1070
     0
1000
MTEXTEND
  0
MTEXT
  5
55FB
330
1A
100
AcDbEntity
  8
SUNPOU
100
AcDbMText
 10
107096.941100565
 20
109064.4793761132
 30
0.0
 40
10.5
 41
0.0
 71
     9
 72
     5
  1

1001
ACAD
1000
MTEXTBEGIN
1070
    73
1070
     1
1070
    44
1040
1.0
1070
    74
1070
     0
1000
MTEXTEND
1000
MTEXTBEGIN
1070
    73
1070
     1
1070
    44
1040
1.0
1070
    74
1070
     0
1000
MTEXTEND
1000
MTEXTBEGIN
1070
    73
1070
     1
1070
    44
1040
1.0
1070
    74
1070
     0
1000
MTEXTEND
  0
MTEXT
  5
55FC
330
1A
100
AcDbEntity
  8
SUNPOU
100
AcDbMText
 10
109040.3483472744
 20
107263.430296235
 30
0.0
 40
3.5
 41
0.0
 71
     9
 72
     5
  1

1001
ACAD
1000
MTEXTBEGIN
1070
    73
1070
     1
1070
    44
1040
1.0
1070
    74
1070
     0
1000
MTEXTEND
1000
MTEXTBEGIN
1070
    73
1070
     1
1070
    44
1040
1.0
1070
    74
1070
     0
1000
MTEXTEND
1000
MTEXTBEGIN
1070
    73
1070
     1
1070
    44
1040
1.0
1070
    74
1070
     0
1000
MTEXTEND
  0
MTEXT
  5
55FD
330
1A
100
AcDbEntity
  8
SUNPOU
100
AcDbMText
 10
105709.1709283621
 20
108141.3777665285
 30
0.0
 40
10.5
 41
0.0
 71
     9
 72
     5
  1

1001
ACAD
1000
MTEXTBEGIN
1070
    73
1070
     1
1070
    44
1040
1.0
1070
    74
1070
     0
1000
MTEXTEND
1000
MTEXTBEGIN
1070
    73
1070
     1
1070
    44
1040
1.0
1070
    74
1070
     0
1000
MTEXTEND
1000
MTEXTBEGIN
1070
    73
1070
     1
1070
    44
1040
1.0
1070
    74
1070
     0
1000
MTEXTEND
  0
MTEXT
  5
55FE
330
1A
100
AcDbEntity
  8
SUNPOU
100
AcDbMText
 10
107652.5781750715
 20
106340.3286866505
 30
0.0
 40
3.5
 41
0.0
 71
     9
 72
     5
  1

1001
ACAD
1000
MTEXTBEGIN
1070
    73
1070
     1
1070
    44
1040
1.0
1070
    74
1070
     0
1000
MTEXTEND
1000
MTEXTBEGIN
1070
    73
1070
     1
1070
    44
1040
1.0
1070
    74
1070
     0
1000
MTEXTEND
1000
MTEXTBEGIN
1070
    73
1070
     1
1070
    44
1040
1.0
1070
    74
1070
     0
1000
MTEXTEND
  0
MTEXT
  5
55FF
330
1A
100
AcDbEntity
  8
SUNPOU
100
AcDbMText
 10
73193.09268743351
 20
66158.78082845057
 30
0.0
 40
10.5
 41
0.0
 71
     9
 72
     5
  1

1001
ACAD
1000
MTEXTBEGIN
1070
    73
1070
     1
1070
    44
1040
1.0
1070
    74
1070
     0
1000
MTEXTEND
1000
MTEXTBEGIN
1070
    73
1070
     1
1070
    44
1040
1.0
1070
    74
1070
     0
1000
MTEXTEND
1000
MTEXTBEGIN
1070
    73
1070
     1
1070
    44
1040
1.0
1070
    74
1070
     0
1000
MTEXTEND
  0
MTEXT
  5
5600
330
1A
100
AcDbEntity
  8
SUNPOU
100
AcDbMText
 10
75916.39889159807
 20
66563.46252003162
 30
0.0
 40
3.5
 41
0.0
 71
     9
 72
     5
  1

1001
ACAD
1000
MTEXTBEGIN
1070
    73
1070
     1
1070
    44
1040
1.0
1070
    74
1070
     0
1000
MTEXTEND
1000
MTEXTBEGIN
1070
    73
1070
     1
1070
    44
1040
1.0
1070
    74
1070
     0
1000
MTEXTEND
1000
MTEXTBEGIN
1070
    73
1070
     1
1070
    44
1040
1.0
1070
    74
1070
     0
1000
MTEXTEND
  0
MTEXT
  5
5601
330
1A
100
AcDbEntity
  8
SUNPOU
100
AcDbMText
 10
75124.04436649058
 20
63402.1566819768
 30
0.0
 40
10.5
 41
0.0
 71
     9
 72
     5
  1

1001
ACAD
1000
MTEXTBEGIN
1070
    73
1070
     1
1070
    44
1040
1.0
1070
    74
1070
     0
1000
MTEXTEND
1000
MTEXTBEGIN
1070
    73
1070
     1
1070
    44
1040
1.0
1070
    74
1070
     0
1000
MTEXTEND
1000
MTEXTBEGIN
1070
    73
1070
     1
1070
    44
1040
1.0
1070
    74
1070
     0
1000
MTEXTEND
  0
MTEXT
  5
5602
330
1A
100
AcDbEntity
  8
SUNPOU
100
AcDbMText
 10
77067.4516132
 20
61601.1076020988
 30
0.0
 40
3.5
 41
0.0
 71
     9
 72
     5
  1

1001
ACAD
1000
MTEXTBEGIN
1070
    73
1070
     1
1070
    44
1040
1.0
1070
    74
1070
     0
1000
MTEXTEND
1000
MTEXTBEGIN
1070
    73
1070
     1
1070
    44
1040
1.0
1070
    74
1070
     0
1000
MTEXTEND
1000
MTEXTBEGIN
1070
    73
1070
     1
1070
    44
1040
1.0
1070
    74
1070
     0
1000
MTEXTEND
  0
MTEXT
  5
5603
330
1A
100
AcDbEntity
  8
SUNPOU
100
AcDbMText
 10
77012.54710378659
 20
61488.33571981449
 30
0.0
 40
3.5
 41
0.0
 71
     9
 72
     5
  1

1001
ACAD
1000
MTEXTBEGIN
1070
    73
1070
     1
1070
    44
1040
1.0
1070
    74
1070
     0
1000
MTEXTEND
1000
MTEXTBEGIN
1070
    73
1070
     1
1070
    44
1040
1.0
1070
    74
1070
     0
1000
MTEXTEND
1000
MTEXTBEGIN
1070
    73
1070
     1
1070
    44
1040
1.0
1070
    74
1070
     0
1000
MTEXTEND
  0
MTEXT
  5
5604
330
1A
100
AcDbEntity
  8
SUNPOU
100
AcDbMText
 10
76376.61896736668
 20
60677.01447874798
 30
0.0
 40
3.5
 41
0.0
 71
     9
 72
     5
  1

1001
ACAD
1000
MTEXTBEGIN
1070
    73
1070
     1
1070
    44
1040
1.0
1070
    74
1070
     0
1000
MTEXTEND
1000
MTEXTBEGIN
1070
    73
1070
     1
1070
    44
1040
1.0
1070
    74
1070
     0
1000
MTEXTEND
1000
MTEXTBEGIN
1070
    73
1070
     1
1070
    44
1040
1.0
1070
    74
1070
     0
1000
MTEXTEND
  0
MTEXT
  5
5605
330
1A
100
AcDbEntity
  8
SUNPOU
100
AcDbMText
 10
76375.37854794595
 20
60676.76650181048
 30
0.0
 40
10.5
 41
0.0
 71
     9
 72
     5
  1

1001
ACAD
1000
MTEXTBEGIN
1070
    73
1070
     1
1070
    44
1040
1.0
1070
    74
1070
     0
1000
MTEXTEND
1000
MTEXTBEGIN
1070
    73
1070
     1
1070
    44
1040
1.0
1070
    74
1070
     0
1000
MTEXTEND
1000
MTEXTBEGIN
1070
    73
1070
     1
1070
    44
1040
1.0
1070
    74
1070
     0
1000
MTEXTEND
  0
MTEXT
  5
5606
330
1A
100
AcDbEntity
  8
SUNPOU
100
AcDbMText
 10
84709.93991079748
 20
78034.0328293557
 30
0.0
 40
10.5
 41
0.0
 71
     9
 72
     5
  1

1001
ACAD
1000
MTEXTBEGIN
1070
    73
1070
     1
1070
    44
1040
1.0
1070
    74
1070
     0
1000
MTEXTEND
1000
MTEXTBEGIN
1070
    73
1070
     1
1070
    44
1040
1.0
1070
    74
1070
     0
1000
MTEXTEND
1000
MTEXTBEGIN
1070
    73
1070
     1
1070
    44
1040
1.0
1070
    74
1070
     0
1000
MTEXTEND
  0
MTEXT
  5
5607
330
1A
100
AcDbEntity
  8
SUNPOU
100
AcDbMText
 10
93432.10747671546
 20
85449.86736089315
 30
0.0
 40
10.5
 41
0.0
 71
     9
 72
     5
  1

1001
ACAD
1000
MTEXTBEGIN
1070
    73
1070
     1
1070
    44
1040
1.0
1070
    74
1070
     0
1000
MTEXTEND
1000
MTEXTBEGIN
1070
    73
1070
     1
1070
    44
1040
1.0
1070
    74
1070
     0
1000
MTEXTEND
1000
MTEXTBEGIN
1070
    73
1070
     1
1070
    44
1040
1.0
1070
    74
1070
     0
1000
MTEXTEND
  0
MTEXT
  5
5608
330
1A
100
AcDbEntity
  8
SUNPOU
100
AcDbMText
 10
112385.8661940454
 20
102916.4434133851
 30
0.0
 40
10.5
 41
0.0
 71
     9
 72
     5
  1

1001
ACAD
1000
MTEXTBEGIN
1070
    73
1070
     1
1070
    44
1040
1.0
1070
    74
1070
     0
1000
MTEXTEND
1000
MTEXTBEGIN
1070
    73
1070
     1
1070
    44
1040
1.0
1070
    74
1070
     0
1000
MTEXTEND
1000
MTEXTBEGIN
1070
    73
1070
     1
1070
    44
1040
1.0
1070
    74
1070
     0
1000
MTEXTEND
  0
MTEXT
  5
5609
330
1A
100
AcDbEntity
  8
SUNPOU
100
AcDbMText
 10
114329.2734407548
 20
101115.3943335072
 30
0.0
 40
3.5
 41
0.0
 71
     9
 72
     5
  1

1001
ACAD
1000
MTEXTBEGIN
1070
    73
1070
     1
1070
    44
1040
1.0
1070
    74
1070
     0
1000
MTEXTEND
1000
MTEXTBEGIN
1070
    73
1070
     1
1070
    44
1040
1.0
1070
    74
1070
     0
1000
MTEXTEND
1000
MTEXTBEGIN
1070
    73
1070
     1
1070
    44
1040
1.0
1070
    74
1070
     0
1000
MTEXTEND
  0
MTEXT
  5
560A
330
1A
100
AcDbEntity
  8
SUNPOU
100
AcDbMText
 10
145455.4532733745
 20
143610.3400011645
 30
0.0
 40
10.5
 41
0.0
 71
     9
 72
     5
  1

1001
ACAD
1000
MTEXTBEGIN
1070
    73
1070
     1
1070
    44
1040
1.0
1070
    74
1070
     0
1000
MTEXTEND
1000
MTEXTBEGIN
1070
    73
1070
     1
1070
    44
1040
1.0
1070
    74
1070
     0
1000
MTEXTEND
1000
MTEXTBEGIN
1070
    73
1070
     1
1070
    44
1040
1.0
1070
    74
1070
     0
1000
MTEXTEND
  0
MTEXT
  5
560B
330
1A
100
AcDbEntity
  8
SUNPOU
100
AcDbMText
 10
147398.8605200839
 20
141809.2909212864
 30
0.0
 40
3.5
 41
0.0
 71
     9
 72
     5
  1

1001
ACAD
1000
MTEXTBEGIN
1070
    73
1070
     1
1070
    44
1040
1.0
1070
    74
1070
     0
1000
MTEXTEND
1000
MTEXTBEGIN
1070
    73
1070
     1
1070
    44
1040
1.0
1070
    74
1070
     0
1000
MTEXTEND
1000
MTEXTBEGIN
1070
    73
1070
     1
1070
    44
1040
1.0
1070
    74
1070
     0
1000
MTEXTEND
  0
MTEXT
  5
560C
330
1A
100
AcDbEntity
  8
SUNPOU
100
AcDbMText
 10
95895.72097917011
 20
89443.50515613962
 30
0.0
 40
10.5
 41
0.0
 71
     9
 72
     5
  1

1001
ACAD
1000
MTEXTBEGIN
1070
    73
1070
     1
1070
    44
1040
1.0
1070
    74
1070
     0
1000
MTEXTEND
1000
MTEXTBEGIN
1070
    73
1070
     1
1070
    44
1040
1.0
1070
    74
1070
     0
1000
MTEXTEND
1000
MTEXTBEGIN
1070
    73
1070
     1
1070
    44
1040
1.0
1070
    74
1070
     0
1000
MTEXTEND
  0
MTEXT
  5
560D
330
1A
100
AcDbEntity
  8
SUNPOU
100
AcDbMText
 10
81947.72087879414
 20
70271.1060170274
 30
0.0
 40
3.5
 41
0.0
 71
     7
 72
     5
  1

1001
ACAD
1000
MTEXTBEGIN
1070
    73
1070
     1
1070
    44
1040
1.0
1070
    74
1070
     0
1000
MTEXTEND
1000
MTEXTBEGIN
1070
    73
1070
     1
1070
    44
1040
1.0
1070
    74
1070
     0
1000
MTEXTEND
1000
MTEXTBEGIN
1070
    73
1070
     1
1070
    44
1040
1.0
1070
    74
1070
     0
1000
MTEXTEND
  0
MTEXT
  5
560E
330
1A
100
AcDbEntity
  8
SUNPOU
100
AcDbMText
 10
62932.89027578729
 20
58033.25474784561
 30
0.0
 40
10.5
 41
0.0
 71
     7
 72
     5
  1

1001
ACAD
1000
MTEXTBEGIN
1070
    73
1070
     1
1070
    44
1040
1.0
1070
    74
1070
     0
1000
MTEXTEND
1000
MTEXTBEGIN
1070
    73
1070
     1
1070
    44
1040
1.0
1070
    74
1070
     0
1000
MTEXTEND
1000
MTEXTBEGIN
1070
    73
1070
     1
1070
    44
1040
1.0
1070
    74
1070
     0
1000
MTEXTEND
  0
MTEXT
  5
560F
330
1A
100
AcDbEntity
  8
SUNPOU
100
AcDbMText
 10
50475.66201083918
 20
42188.32316974718
 30
0.0
 40
35.0
 41
0.0
 71
     9
 72
     5
  1

1001
ACAD
1000
MTEXTBEGIN
1070
    73
1070
     1
1070
    44
1040
1.0
1070
    74
1070
     0
1000
MTEXTEND
1000
MTEXTBEGIN
1070
    73
1070
     1
1070
    44
1040
1.0
1070
    74
1070
     0
1000
MTEXTEND
1000
MTEXTBEGIN
1070
    73
1070
     1
1070
    44
1040
1.0
1070
    74
1070
     0
1000
MTEXTEND
  0
MTEXT
  5
5610
330
1A
100
AcDbEntity
  8
SUNPOU
100
AcDbMText
 10
49384.14706841413
 20
42797.0985797959
 30
0.0
 40
350.0000004171781
 41
0.0
 71
     7
 72
     5
  1

1001
ACAD
1000
MTEXTBEGIN
1070
    73
1070
     1
1070
    44
1040
1.0
1070
    74
1070
     0
1000
MTEXTEND
1000
MTEXTBEGIN
1070
    73
1070
     1
1070
    44
1040
1.0
1070
    74
1070
     0
1000
MTEXTEND
1000
MTEXTBEGIN
1070
    73
1070
     1
1070
    44
1040
1.0
1070
    74
1070
     0
1000
MTEXTEND
  0
MTEXT
  5
5611
330
1A
100
AcDbEntity
  8
0
100
AcDbMText
 10
55428.09782635704
 20
40777.0209419321
 30
0.0
 40
8.0
 41
0.0
 71
     7
 72
     5
  1

1001
ACAD
1000
MTEXTBEGIN
1070
    73
1070
     1
1070
    44
1040
1.0
1070
    74
1070
     0
1000
MTEXTEND
1000
MTEXTBEGIN
1070
    73
1070
     1
1070
    44
1040
1.0
1070
    74
1070
     0
1000
MTEXTEND
1000
MTEXTBEGIN
1070
    73
1070
     1
1070
    44
1040
1.0
1070
    74
1070
     0
1000
MTEXTEND
  0
MTEXT
  5
5612
330
1A
100
AcDbEntity
  8
0
100
AcDbMText
 10
57713.45551625192
 20
41747.81123668316
 30
0.0
 40
8.0
 41
0.0
 71
     7
 72
     5
  1

1001
ACAD
1000
MTEXTBEGIN
1070
    73
1070
     1
1070
    44
1040
1.0
1070
    74
1070
     0
1000
MTEXTEND
1000
MTEXTBEGIN
1070
    73
1070
     1
1070
    44
1040
1.0
1070
    74
1070
     0
1000
MTEXTEND
1000
MTEXTBEGIN
1070
    73
1070
     1
1070
    44
1040
1.0
1070
    74
1070
     0
1000
MTEXTEND
  0
MTEXT
  5
5613
330
1A
100
AcDbEntity
  8
SUNPOU
100
AcDbMText
 10
60379.35253693407
 20
51259.9226290583
 30
0.0
 40
10.5
 41
0.0
 71
     1
 72
     5
  1

1001
ACAD
1000
MTEXTBEGIN
1070
    73
1070
     1
1070
    44
1040
1.0
1070
    74
1070
     0
1000
MTEXTEND
1000
MTEXTBEGIN
1070
    73
1070
     1
1070
    44
1040
1.0
1070
    74
1070
     0
1000
MTEXTEND
1000
MTEXTBEGIN
1070
    73
1070
     1
1070
    44
1040
1.0
1070
    74
1070
     0
1000
MTEXTEND
  0
MTEXT
  5
5614
330
1A
100
AcDbEntity
  8
SUNPOU
100
AcDbMText
 10
52448.42934099813
 20
50313.12949514535
 30
0.0
 40
10.5
 41
0.0
 71
     7
 72
     5
  1

1001
ACAD
1000
MTEXTBEGIN
1070
    73
1070
     1
1070
    44
1040
1.0
1070
    74
1070
     0
1000
MTEXTEND
1000
MTEXTBEGIN
1070
    73
1070
     1
1070
    44
1040
1.0
1070
    74
1070
     0
1000
MTEXTEND
1000
MTEXTBEGIN
1070
    73
1070
     1
1070
    44
1040
1.0
1070
    74
1070
     0
1000
MTEXTEND
  0
MTEXT
  5
5615
330
1A
100
AcDbEntity
  8
SUNPOU
100
AcDbMText
 10
55397.4130055109
 20
55213.80556698819
 30
0.0
 40
10.5
 41
0.0
 71
     7
 72
     5
  1

1001
ACAD
1000
MTEXTBEGIN
1070
    73
1070
     1
1070
    44
1040
1.0
1070
    74
1070
     0
1000
MTEXTEND
1000
MTEXTBEGIN
1070
    73
1070
     1
1070
    44
1040
1.0
1070
    74
1070
     0
1000
MTEXTEND
1000
MTEXTBEGIN
1070
    73
1070
     1
1070
    44
1040
1.0
1070
    74
1070
     0
1000
MTEXTEND
  0
MTEXT
  5
5616
330
1A
100
AcDbEntity
  8
SUNPOU
100
AcDbMText
 10
59906.49113346147
 20
57650.10631460826
 30
0.0
 40
10.5
 41
0.0
 71
     7
 72
     5
  1

1001
ACAD
1000
MTEXTBEGIN
1070
    73
1070
     1
1070
    44
1040
1.0
1070
    74
1070
     0
1000
MTEXTEND
1000
MTEXTBEGIN
1070
    73
1070
     1
1070
    44
1040
1.0
1070
    74
1070
     0
1000
MTEXTEND
1000
MTEXTBEGIN
1070
    73
1070
     1
1070
    44
1040
1.0
1070
    74
1070
     0
1000
MTEXTEND
  0
MTEXT
  5
5617
330
1A
100
AcDbEntity
  8
SUNPOU
100
AcDbMText
 10
43507.32902022977
 20
36647.70246499718
 30
0.0
 40
10.5
 41
0.0
 71
     7
 72
     5
  1

1001
ACAD
1000
MTEXTBEGIN
1070
    73
1070
     1
1070
    44
1040
1.0
1070
    74
1070
     0
1000
MTEXTEND
1000
MTEXTBEGIN
1070
    73
1070
     1
1070
    44
1040
1.0
1070
    74
1070
     0
1000
MTEXTEND
1000
MTEXTBEGIN
1070
    73
1070
     1
1070
    44
1040
1.0
1070
    74
1070
     0
1000
MTEXTEND
  0
MTEXT
  5
5618
330
1A
100
AcDbEntity
  8
SUNPOU
100
AcDbMText
 10
94698.84745413006
 20
82320.68302864544
 30
0.0
 40
10.5
 41
0.0
 71
     9
 72
     5
  1

1001
ACAD
1000
MTEXTBEGIN
1070
    73
1070
     1
1070
    44
1040
1.0
1070
    74
1070
     0
1000
MTEXTEND
1000
MTEXTBEGIN
1070
    73
1070
     1
1070
    44
1040
1.0
1070
    74
1070
     0
1000
MTEXTEND
1000
MTEXTBEGIN
1070
    73
1070
     1
1070
    44
1040
1.0
1070
    74
1070
     0
1000
MTEXTEND
  0
MTEXT
  5
5619
330
1A
100
AcDbEntity
  8
SUNPOU
100
AcDbMText
 10
103421.015020048
 20
89736.5175601829
 30
0.0
 40
10.5
 41
0.0
 71
     9
 72
     5
  1

1001
ACAD
1000
MTEXTBEGIN
1070
    73
1070
     1
1070
    44
1040
1.0
1070
    74
1070
     0
1000
MTEXTEND
1000
MTEXTBEGIN
1070
    73
1070
     1
1070
    44
1040
1.0
1070
    74
1070
     0
1000
MTEXTEND
1000
MTEXTBEGIN
1070
    73
1070
     1
1070
    44
1040
1.0
1070
    74
1070
     0
1000
MTEXTEND
  0
MTEXT
  5
561A
330
1A
100
AcDbEntity
  8
SUNPOU
100
AcDbMText
 10
122374.773737378
 20
107203.0936126749
 30
0.0
 40
10.5
 41
0.0
 71
     9
 72
     5
  1

1001
ACAD
1000
MTEXTBEGIN
1070
    73
1070
     1
1070
    44
1040
1.0
1070
    74
1070
     0
1000
MTEXTEND
1000
MTEXTBEGIN
1070
    73
1070
     1
1070
    44
1040
1.0
1070
    74
1070
     0
1000
MTEXTEND
1000
MTEXTBEGIN
1070
    73
1070
     1
1070
    44
1040
1.0
1070
    74
1070
     0
1000
MTEXTEND
  0
MTEXT
  5
561B
330
1A
100
AcDbEntity
  8
SUNPOU
100
AcDbMText
 10
124318.1809840874
 20
105402.0445327969
 30
0.0
 40
3.5
 41
0.0
 71
     9
 72
     5
  1

1001
ACAD
1000
MTEXTBEGIN
1070
    73
1070
     1
1070
    44
1040
1.0
1070
    74
1070
     0
1000
MTEXTEND
1000
MTEXTBEGIN
1070
    73
1070
     1
1070
    44
1040
1.0
1070
    74
1070
     0
1000
MTEXTEND
1000
MTEXTBEGIN
1070
    73
1070
     1
1070
    44
1040
1.0
1070
    74
1070
     0
1000
MTEXTEND
  0
MTEXT
  5
561C
330
1A
100
AcDbEntity
  8
SUNPOU
100
AcDbMText
 10
155444.3608167071
 20
147896.9902004542
 30
0.0
 40
10.5
 41
0.0
 71
     9
 72
     5
  1

1001
ACAD
1000
MTEXTBEGIN
1070
    73
1070
     1
1070
    44
1040
1.0
1070
    74
1070
     0
1000
MTEXTEND
1000
MTEXTBEGIN
1070
    73
1070
     1
1070
    44
1040
1.0
1070
    74
1070
     0
1000
MTEXTEND
1000
MTEXTBEGIN
1070
    73
1070
     1
1070
    44
1040
1.0
1070
    74
1070
     0
1000
MTEXTEND
  0
MTEXT
  5
561D
330
1A
100
AcDbEntity
  8
SUNPOU
100
AcDbMText
 10
157387.7680634165
 20
146095.9411205762
 30
0.0
 40
3.5
 41
0.0
 71
     9
 72
     5
  1

1001
ACAD
1000
MTEXTBEGIN
1070
    73
1070
     1
1070
    44
1040
1.0
1070
    74
1070
     0
1000
MTEXTEND
1000
MTEXTBEGIN
1070
    73
1070
     1
1070
    44
1040
1.0
1070
    74
1070
     0
1000
MTEXTEND
1000
MTEXTBEGIN
1070
    73
1070
     1
1070
    44
1040
1.0
1070
    74
1070
     0
1000
MTEXTEND
  0
MTEXT
  5
561E
330
1A
100
AcDbEntity
  8
SUNPOU
100
AcDbMText
 10
105884.6285225027
 20
93730.15535542933
 30
0.0
 40
10.5
 41
0.0
 71
     9
 72
     5
  1

1001
ACAD
1000
MTEXTBEGIN
1070
    73
1070
     1
1070
    44
1040
1.0
1070
    74
1070
     0
1000
MTEXTEND
1000
MTEXTBEGIN
1070
    73
1070
     1
1070
    44
1040
1.0
1070
    74
1070
     0
1000
MTEXTEND
1000
MTEXTBEGIN
1070
    73
1070
     1
1070
    44
1040
1.0
1070
    74
1070
     0
1000
MTEXTEND
  0
MTEXT
  5
561F
330
1A
100
AcDbEntity
  8
SUNPOU
100
AcDbMText
 10
91936.6284221267
 20
74557.75621631714
 30
0.0
 40
3.5
 41
0.0
 71
     7
 72
     5
  1

1001
ACAD
1000
MTEXTBEGIN
1070
    73
1070
     1
1070
    44
1040
1.0
1070
    74
1070
     0
1000
MTEXTEND
1000
MTEXTBEGIN
1070
    73
1070
     1
1070
    44
1040
1.0
1070
    74
1070
     0
1000
MTEXTEND
1000
MTEXTBEGIN
1070
    73
1070
     1
1070
    44
1040
1.0
1070
    74
1070
     0
1000
MTEXTEND
  0
MTEXT
  5
5620
330
1A
100
AcDbEntity
  8
SUNPOU
100
AcDbMText
 10
72921.79781911986
 20
62319.90494713532
 30
0.0
 40
10.5
 41
0.0
 71
     7
 72
     5
  1

1001
ACAD
1000
MTEXTBEGIN
1070
    73
1070
     1
1070
    44
1040
1.0
1070
    74
1070
     0
1000
MTEXTEND
1000
MTEXTBEGIN
1070
    73
1070
     1
1070
    44
1040
1.0
1070
    74
1070
     0
1000
MTEXTEND
1000
MTEXTBEGIN
1070
    73
1070
     1
1070
    44
1040
1.0
1070
    74
1070
     0
1000
MTEXTEND
  0
MTEXT
  5
5621
330
1A
100
AcDbEntity
  8
SUNPOU
100
AcDbMText
 10
60464.56955417175
 20
46474.97336903692
 30
0.0
 40
35.0
 41
0.0
 71
     9
 72
     5
  1

1001
ACAD
1000
MTEXTBEGIN
1070
    73
1070
     1
1070
    44
1040
1.0
1070
    74
1070
     0
1000
MTEXTEND
1000
MTEXTBEGIN
1070
    73
1070
     1
1070
    44
1040
1.0
1070
    74
1070
     0
1000
MTEXTEND
1000
MTEXTBEGIN
1070
    73
1070
     1
1070
    44
1040
1.0
1070
    74
1070
     0
1000
MTEXTEND
  0
MTEXT
  5
5622
330
1A
100
AcDbEntity
  8
SUNPOU
100
AcDbMText
 10
59373.05461174673
 20
47083.74877908561
 30
0.0
 40
350.0000004171781
 41
0.0
 71
     7
 72
     5
  1

1001
ACAD
1000
MTEXTBEGIN
1070
    73
1070
     1
1070
    44
1040
1.0
1070
    74
1070
     0
1000
MTEXTEND
1000
MTEXTBEGIN
1070
    73
1070
     1
1070
    44
1040
1.0
1070
    74
1070
     0
1000
MTEXTEND
1000
MTEXTBEGIN
1070
    73
1070
     1
1070
    44
1040
1.0
1070
    74
1070
     0
1000
MTEXTEND
  0
MTEXT
  5
5623
330
1A
100
AcDbEntity
  8
0
100
AcDbMText
 10
65417.00536968963
 20
45063.67114122186
 30
0.0
 40
8.0
 41
0.0
 71
     7
 72
     5
  1

1001
ACAD
1000
MTEXTBEGIN
1070
    73
1070
     1
1070
    44
1040
1.0
1070
    74
1070
     0
1000
MTEXTEND
1000
MTEXTBEGIN
1070
    73
1070
     1
1070
    44
1040
1.0
1070
    74
1070
     0
1000
MTEXTEND
1000
MTEXTBEGIN
1070
    73
1070
     1
1070
    44
1040
1.0
1070
    74
1070
     0
1000
MTEXTEND
  0
MTEXT
  5
5624
330
1A
100
AcDbEntity
  8
0
100
AcDbMText
 10
67702.36305958452
 20
46034.46143597292
 30
0.0
 40
8.0
 41
0.0
 71
     7
 72
     5
  1

1001
ACAD
1000
MTEXTBEGIN
1070
    73
1070
     1
1070
    44
1040
1.0
1070
    74
1070
     0
1000
MTEXTEND
1000
MTEXTBEGIN
1070
    73
1070
     1
1070
    44
1040
1.0
1070
    74
1070
     0
1000
MTEXTEND
1000
MTEXTBEGIN
1070
    73
1070
     1
1070
    44
1040
1.0
1070
    74
1070
     0
1000
MTEXTEND
  0
MTEXT
  5
5625
330
1A
100
AcDbEntity
  8
SUNPOU
100
AcDbMText
 10
70368.26008026666
 20
55546.57282834803
 30
0.0
 40
10.5
 41
0.0
 71
     1
 72
     5
  1

1001
ACAD
1000
MTEXTBEGIN
1070
    73
1070
     1
1070
    44
1040
1.0
1070
    74
1070
     0
1000
MTEXTEND
1000
MTEXTBEGIN
1070
    73
1070
     1
1070
    44
1040
1.0
1070
    74
1070
     0
1000
MTEXTEND
1000
MTEXTBEGIN
1070
    73
1070
     1
1070
    44
1040
1.0
1070
    74
1070
     0
1000
MTEXTEND
  0
MTEXT
  5
5626
330
1A
100
AcDbEntity
  8
SUNPOU
100
AcDbMText
 10
62437.33688433072
 20
54599.77969443507
 30
0.0
 40
10.5
 41
0.0
 71
     7
 72
     5
  1

1001
ACAD
1000
MTEXTBEGIN
1070
    73
1070
     1
1070
    44
1040
1.0
1070
    74
1070
     0
1000
MTEXTEND
1000
MTEXTBEGIN
1070
    73
1070
     1
1070
    44
1040
1.0
1070
    74
1070
     0
1000
MTEXTEND
1000
MTEXTBEGIN
1070
    73
1070
     1
1070
    44
1040
1.0
1070
    74
1070
     0
1000
MTEXTEND
  0
MTEXT
  5
5627
330
1A
100
AcDbEntity
  8
SUNPOU
100
AcDbMText
 10
65386.32054884347
 20
59500.45576627792
 30
0.0
 40
10.5
 41
0.0
 71
     7
 72
     5
  1

1001
ACAD
1000
MTEXTBEGIN
1070
    73
1070
     1
1070
    44
1040
1.0
1070
    74
1070
     0
1000
MTEXTEND
1000
MTEXTBEGIN
1070
    73
1070
     1
1070
    44
1040
1.0
1070
    74
1070
     0
1000
MTEXTEND
1000
MTEXTBEGIN
1070
    73
1070
     1
1070
    44
1040
1.0
1070
    74
1070
     0
1000
MTEXTEND
  0
MTEXT
  5
5628
330
1A
100
AcDbEntity
  8
SUNPOU
100
AcDbMText
 10
69895.39867679405
 20
61936.756513898
 30
0.0
 40
10.5
 41
0.0
 71
     7
 72
     5
  1

1001
ACAD
1000
MTEXTBEGIN
1070
    73
1070
     1
1070
    44
1040
1.0
1070
    74
1070
     0
1000
MTEXTEND
1000
MTEXTBEGIN
1070
    73
1070
     1
1070
    44
1040
1.0
1070
    74
1070
     0
1000
MTEXTEND
1000
MTEXTBEGIN
1070
    73
1070
     1
1070
    44
1040
1.0
1070
    74
1070
     0
1000
MTEXTEND
  0
MTEXT
  5
5629
330
1A
100
AcDbEntity
  8
SUNPOU
100
AcDbMText
 10
53496.23656356237
 20
40934.35266428691
 30
0.0
 40
10.5
 41
0.0
 71
     7
 72
     5
  1

1001
ACAD
1000
MTEXTBEGIN
1070
    73
1070
     1
1070
    44
1040
1.0
1070
    74
1070
     0
1000
MTEXTEND
1000
MTEXTBEGIN
1070
    73
1070
     1
1070
    44
1040
1.0
1070
    74
1070
     0
1000
MTEXTEND
1000
MTEXTBEGIN
1070
    73
1070
     1
1070
    44
1040
1.0
1070
    74
1070
     0
1000
MTEXTEND
  0
MTEXT
  5
562A
330
1A
100
AcDbEntity
  8
SUNPOU
100
AcDbMText
 10
55306.99947493731
 20
47261.76665176546
 30
0.0
 40
10.5
 41
0.0
 71
     9
 72
     5
  1

1001
ACAD
1000
MTEXTBEGIN
1070
    73
1070
     1
1070
    44
1040
1.0
1070
    74
1070
     0
1000
MTEXTEND
1000
MTEXTBEGIN
1070
    73
1070
     1
1070
    44
1040
1.0
1070
    74
1070
     0
1000
MTEXTEND
1000
MTEXTBEGIN
1070
    73
1070
     1
1070
    44
1040
1.0
1070
    74
1070
     0
1000
MTEXTEND
  0
MTEXT
  5
562B
330
1A
100
AcDbEntity
  8
SUNPOU
100
AcDbMText
 10
64029.16704085527
 20
54677.60118330295
 30
0.0
 40
10.5
 41
0.0
 71
     9
 72
     5
  1

1001
ACAD
1000
MTEXTBEGIN
1070
    73
1070
     1
1070
    44
1040
1.0
1070
    74
1070
     0
1000
MTEXTEND
1000
MTEXTBEGIN
1070
    73
1070
     1
1070
    44
1040
1.0
1070
    74
1070
     0
1000
MTEXTEND
1000
MTEXTBEGIN
1070
    73
1070
     1
1070
    44
1040
1.0
1070
    74
1070
     0
1000
MTEXTEND
  0
MTEXT
  5
562C
330
1A
100
AcDbEntity
  8
SUNPOU
100
AcDbMText
 10
82982.92575818527
 20
72144.17723579499
 30
0.0
 40
10.5
 41
0.0
 71
     9
 72
     5
  1

1001
ACAD
1000
MTEXTBEGIN
1070
    73
1070
     1
1070
    44
1040
1.0
1070
    74
1070
     0
1000
MTEXTEND
1000
MTEXTBEGIN
1070
    73
1070
     1
1070
    44
1040
1.0
1070
    74
1070
     0
1000
MTEXTEND
1000
MTEXTBEGIN
1070
    73
1070
     1
1070
    44
1040
1.0
1070
    74
1070
     0
1000
MTEXTEND
  0
MTEXT
  5
562D
330
1A
100
AcDbEntity
  8
SUNPOU
100
AcDbMText
 10
84926.33300489467
 20
70343.12815591697
 30
0.0
 40
3.5
 41
0.0
 71
     9
 72
     5
  1

1001
ACAD
1000
MTEXTBEGIN
1070
    73
1070
     1
1070
    44
1040
1.0
1070
    74
1070
     0
1000
MTEXTEND
1000
MTEXTBEGIN
1070
    73
1070
     1
1070
    44
1040
1.0
1070
    74
1070
     0
1000
MTEXTEND
1000
MTEXTBEGIN
1070
    73
1070
     1
1070
    44
1040
1.0
1070
    74
1070
     0
1000
MTEXTEND
  0
MTEXT
  5
562E
330
1A
100
AcDbEntity
  8
SUNPOU
100
AcDbMText
 10
116052.5128375142
 20
112838.0738235742
 30
0.0
 40
10.5
 41
0.0
 71
     9
 72
     5
  1

1001
ACAD
1000
MTEXTBEGIN
1070
    73
1070
     1
1070
    44
1040
1.0
1070
    74
1070
     0
1000
MTEXTEND
1000
MTEXTBEGIN
1070
    73
1070
     1
1070
    44
1040
1.0
1070
    74
1070
     0
1000
MTEXTEND
1000
MTEXTBEGIN
1070
    73
1070
     1
1070
    44
1040
1.0
1070
    74
1070
     0
1000
MTEXTEND
  0
MTEXT
  5
562F
330
1A
100
AcDbEntity
  8
SUNPOU
100
AcDbMText
 10
117995.9200842238
 20
111037.0247436963
 30
0.0
 40
3.5
 41
0.0
 71
     9
 72
     5
  1

1001
ACAD
1000
MTEXTBEGIN
1070
    73
1070
     1
1070
    44
1040
1.0
1070
    74
1070
     0
1000
MTEXTEND
1000
MTEXTBEGIN
1070
    73
1070
     1
1070
    44
1040
1.0
1070
    74
1070
     0
1000
MTEXTEND
1000
MTEXTBEGIN
1070
    73
1070
     1
1070
    44
1040
1.0
1070
    74
1070
     0
1000
MTEXTEND
  0
MTEXT
  5
5630
330
1A
100
AcDbEntity
  8
SUNPOU
100
AcDbMText
 10
66492.78054330994
 20
58671.23897854939
 30
0.0
 40
10.5
 41
0.0
 71
     9
 72
     5
  1

1001
ACAD
1000
MTEXTBEGIN
1070
    73
1070
     1
1070
    44
1040
1.0
1070
    74
1070
     0
1000
MTEXTEND
1000
MTEXTBEGIN
1070
    73
1070
     1
1070
    44
1040
1.0
1070
    74
1070
     0
1000
MTEXTEND
1000
MTEXTBEGIN
1070
    73
1070
     1
1070
    44
1040
1.0
1070
    74
1070
     0
1000
MTEXTEND
  0
MTEXT
  5
5631
330
1A
100
AcDbEntity
  8
SUNPOU
100
AcDbMText
 10
52544.78044293397
 20
39498.83983943717
 30
0.0
 40
3.5
 41
0.0
 71
     7
 72
     5
  1

1001
ACAD
1000
MTEXTBEGIN
1070
    73
1070
     1
1070
    44
1040
1.0
1070
    74
1070
     0
1000
MTEXTEND
1000
MTEXTBEGIN
1070
    73
1070
     1
1070
    44
1040
1.0
1070
    74
1070
     0
1000
MTEXTEND
1000
MTEXTBEGIN
1070
    73
1070
     1
1070
    44
1040
1.0
1070
    74
1070
     0
1000
MTEXTEND
  0
MTEXT
  5
5632
330
1A
100
AcDbEntity
  8
SUNPOU
100
AcDbMText
 10
66237.13112570454
 20
48857.90306045851
 30
0.0
 40
10.5
 41
0.0
 71
     9
 72
     5
  1

1001
ACAD
1000
MTEXTBEGIN
1070
    73
1070
     1
1070
    44
1040
1.0
1070
    74
1070
     0
1000
MTEXTEND
1000
MTEXTBEGIN
1070
    73
1070
     1
1070
    44
1040
1.0
1070
    74
1070
     0
1000
MTEXTEND
1000
MTEXTBEGIN
1070
    73
1070
     1
1070
    44
1040
1.0
1070
    74
1070
     0
1000
MTEXTEND
  0
MTEXT
  5
5633
330
1A
100
AcDbEntity
  8
SUNPOU
100
AcDbMText
 10
74959.29869162253
 20
56273.73759199597
 30
0.0
 40
10.5
 41
0.0
 71
     9
 72
     5
  1

1001
ACAD
1000
MTEXTBEGIN
1070
    73
1070
     1
1070
    44
1040
1.0
1070
    74
1070
     0
1000
MTEXTEND
1000
MTEXTBEGIN
1070
    73
1070
     1
1070
    44
1040
1.0
1070
    74
1070
     0
1000
MTEXTEND
1000
MTEXTBEGIN
1070
    73
1070
     1
1070
    44
1040
1.0
1070
    74
1070
     0
1000
MTEXTEND
  0
MTEXT
  5
5634
330
1A
100
AcDbEntity
  8
SUNPOU
100
AcDbMText
 10
93913.0574089525
 20
73740.31364448805
 30
0.0
 40
10.5
 41
0.0
 71
     9
 72
     5
  1

1001
ACAD
1000
MTEXTBEGIN
1070
    73
1070
     1
1070
    44
1040
1.0
1070
    74
1070
     0
1000
MTEXTEND
1000
MTEXTBEGIN
1070
    73
1070
     1
1070
    44
1040
1.0
1070
    74
1070
     0
1000
MTEXTEND
1000
MTEXTBEGIN
1070
    73
1070
     1
1070
    44
1040
1.0
1070
    74
1070
     0
1000
MTEXTEND
  0
MTEXT
  5
5635
330
1A
100
AcDbEntity
  8
SUNPOU
100
AcDbMText
 10
95856.46465566192
 20
71939.26456461004
 30
0.0
 40
3.5
 41
0.0
 71
     9
 72
     5
  1

1001
ACAD
1000
MTEXTBEGIN
1070
    73
1070
     1
1070
    44
1040
1.0
1070
    74
1070
     0
1000
MTEXTEND
1000
MTEXTBEGIN
1070
    73
1070
     1
1070
    44
1040
1.0
1070
    74
1070
     0
1000
MTEXTEND
1000
MTEXTBEGIN
1070
    73
1070
     1
1070
    44
1040
1.0
1070
    74
1070
     0
1000
MTEXTEND
  0
MTEXT
  5
5636
330
1A
100
AcDbEntity
  8
SUNPOU
100
AcDbMText
 10
126982.6444882816
 20
114434.2102322673
 30
0.0
 40
10.5
 41
0.0
 71
     9
 72
     5
  1

1001
ACAD
1000
MTEXTBEGIN
1070
    73
1070
     1
1070
    44
1040
1.0
1070
    74
1070
     0
1000
MTEXTEND
1000
MTEXTBEGIN
1070
    73
1070
     1
1070
    44
1040
1.0
1070
    74
1070
     0
1000
MTEXTEND
1000
MTEXTBEGIN
1070
    73
1070
     1
1070
    44
1040
1.0
1070
    74
1070
     0
1000
MTEXTEND
  0
MTEXT
  5
5637
330
1A
100
AcDbEntity
  8
SUNPOU
100
AcDbMText
 10
128926.051734991
 20
112633.1611523893
 30
0.0
 40
3.5
 41
0.0
 71
     9
 72
     5
  1

1001
ACAD
1000
MTEXTBEGIN
1070
    73
1070
     1
1070
    44
1040
1.0
1070
    74
1070
     0
1000
MTEXTEND
1000
MTEXTBEGIN
1070
    73
1070
     1
1070
    44
1040
1.0
1070
    74
1070
     0
1000
MTEXTEND
1000
MTEXTBEGIN
1070
    73
1070
     1
1070
    44
1040
1.0
1070
    74
1070
     0
1000
MTEXTEND
  0
MTEXT
  5
5638
330
1A
100
AcDbEntity
  8
SUNPOU
100
AcDbMText
 10
77422.91219407717
 20
60267.37538724244
 30
0.0
 40
10.5
 41
0.0
 71
     9
 72
     5
  1

1001
ACAD
1000
MTEXTBEGIN
1070
    73
1070
     1
1070
    44
1040
1.0
1070
    74
1070
     0
1000
MTEXTEND
1000
MTEXTBEGIN
1070
    73
1070
     1
1070
    44
1040
1.0
1070
    74
1070
     0
1000
MTEXTEND
1000
MTEXTBEGIN
1070
    73
1070
     1
1070
    44
1040
1.0
1070
    74
1070
     0
1000
MTEXTEND
  0
MTEXT
  5
5639
330
1A
100
AcDbEntity
  8
SUNPOU
100
AcDbMText
 10
63474.91209370119
 20
41094.97624813023
 30
0.0
 40
3.5
 41
0.0
 71
     7
 72
     5
  1

1001
ACAD
1000
MTEXTBEGIN
1070
    73
1070
     1
1070
    44
1040
1.0
1070
    74
1070
     0
1000
MTEXTEND
1000
MTEXTBEGIN
1070
    73
1070
     1
1070
    44
1040
1.0
1070
    74
1070
     0
1000
MTEXTEND
1000
MTEXTBEGIN
1070
    73
1070
     1
1070
    44
1040
1.0
1070
    74
1070
     0
1000
MTEXTEND
  0
MTEXT
  5
563A
330
1A
100
AcDbEntity
  8
SUNPOU
100
AcDbMText
 10
48117.65086229006
 20
40806.11043916631
 30
0.0
 40
10.5
 41
0.0
 71
     9
 72
     5
  1

1001
ACAD
1000
MTEXTBEGIN
1070
    73
1070
     1
1070
    44
1040
1.0
1070
    74
1070
     0
1000
MTEXTEND
1000
MTEXTBEGIN
1070
    73
1070
     1
1070
    44
1040
1.0
1070
    74
1070
     0
1000
MTEXTEND
1000
MTEXTBEGIN
1070
    73
1070
     1
1070
    44
1040
1.0
1070
    74
1070
     0
1000
MTEXTEND
  0
MTEXT
  5
563B
330
1A
100
AcDbEntity
  8
SUNPOU
100
AcDbMText
 10
67071.40957962004
 20
58272.68649165838
 30
0.0
 40
10.5
 41
0.0
 71
     9
 72
     5
  1

1001
ACAD
1000
MTEXTBEGIN
1070
    73
1070
     1
1070
    44
1040
1.0
1070
    74
1070
     0
1000
MTEXTEND
1000
MTEXTBEGIN
1070
    73
1070
     1
1070
    44
1040
1.0
1070
    74
1070
     0
1000
MTEXTEND
1000
MTEXTBEGIN
1070
    73
1070
     1
1070
    44
1040
1.0
1070
    74
1070
     0
1000
MTEXTEND
  0
MTEXT
  5
563C
330
1A
100
AcDbEntity
  8
SUNPOU
100
AcDbMText
 10
69014.81682632945
 20
56471.63741178035
 30
0.0
 40
3.5
 41
0.0
 71
     9
 72
     5
  1

1001
ACAD
1000
MTEXTBEGIN
1070
    73
1070
     1
1070
    44
1040
1.0
1070
    74
1070
     0
1000
MTEXTEND
1000
MTEXTBEGIN
1070
    73
1070
     1
1070
    44
1040
1.0
1070
    74
1070
     0
1000
MTEXTEND
1000
MTEXTBEGIN
1070
    73
1070
     1
1070
    44
1040
1.0
1070
    74
1070
     0
1000
MTEXTEND
  0
MTEXT
  5
563D
330
1A
100
AcDbEntity
  8
SUNPOU
100
AcDbMText
 10
100140.9966589491
 20
98966.58307943773
 30
0.0
 40
10.5
 41
0.0
 71
     9
 72
     5
  1

1001
ACAD
1000
MTEXTBEGIN
1070
    73
1070
     1
1070
    44
1040
1.0
1070
    74
1070
     0
1000
MTEXTEND
1000
MTEXTBEGIN
1070
    73
1070
     1
1070
    44
1040
1.0
1070
    74
1070
     0
1000
MTEXTEND
1000
MTEXTBEGIN
1070
    73
1070
     1
1070
    44
1040
1.0
1070
    74
1070
     0
1000
MTEXTEND
  0
MTEXT
  5
563E
330
1A
100
AcDbEntity
  8
SUNPOU
100
AcDbMText
 10
102084.4039056586
 20
97165.53399955968
 30
0.0
 40
3.5
 41
0.0
 71
     9
 72
     5
  1

1001
ACAD
1000
MTEXTBEGIN
1070
    73
1070
     1
1070
    44
1040
1.0
1070
    74
1070
     0
1000
MTEXTEND
1000
MTEXTBEGIN
1070
    73
1070
     1
1070
    44
1040
1.0
1070
    74
1070
     0
1000
MTEXTEND
1000
MTEXTBEGIN
1070
    73
1070
     1
1070
    44
1040
1.0
1070
    74
1070
     0
1000
MTEXTEND
  0
MTEXT
  5
563F
330
1A
100
AcDbEntity
  8
SUNPOU
100
AcDbMText
 10
50581.26436474472
 20
44799.74823441275
 30
0.0
 40
10.5
 41
0.0
 71
     9
 72
     5
  1

1001
ACAD
1000
MTEXTBEGIN
1070
    73
1070
     1
1070
    44
1040
1.0
1070
    74
1070
     0
1000
MTEXTEND
1000
MTEXTBEGIN
1070
    73
1070
     1
1070
    44
1040
1.0
1070
    74
1070
     0
1000
MTEXTEND
1000
MTEXTBEGIN
1070
    73
1070
     1
1070
    44
1040
1.0
1070
    74
1070
     0
1000
MTEXTEND
  0
MTEXT
  5
5640
330
1A
100
AcDbEntity
  8
SUNPOU
100
AcDbMText
 10
36633.26426436873
 20
25627.34909530054
 30
0.0
 40
3.5
 41
0.0
 71
     7
 72
     5
  1

1001
ACAD
1000
MTEXTBEGIN
1070
    73
1070
     1
1070
    44
1040
1.0
1070
    74
1070
     0
1000
MTEXTEND
1000
MTEXTBEGIN
1070
    73
1070
     1
1070
    44
1040
1.0
1070
    74
1070
     0
1000
MTEXTEND
1000
MTEXTBEGIN
1070
    73
1070
     1
1070
    44
1040
1.0
1070
    74
1070
     0
1000
MTEXTEND
  0
MTEXT
  5
5641
330
1A
100
AcDbEntity
  8
SUNPOU
100
AcDbMText
 10
61069.42493315968
 20
52574.61207825771
 30
0.0
 40
10.5
 41
0.0
 71
     9
 72
     5
  1

1001
ACAD
1000
MTEXTBEGIN
1070
    73
1070
     1
1070
    44
1040
1.0
1070
    74
1070
     0
1000
MTEXTEND
1000
MTEXTBEGIN
1070
    73
1070
     1
1070
    44
1040
1.0
1070
    74
1070
     0
1000
MTEXTEND
1000
MTEXTBEGIN
1070
    73
1070
     1
1070
    44
1040
1.0
1070
    74
1070
     0
1000
MTEXTEND
  0
MTEXT
  5
5642
330
1A
100
AcDbEntity
  8
SUNPOU
100
AcDbMText
 10
80023.18365048967
 20
70041.18813074978
 30
0.0
 40
10.5
 41
0.0
 71
     9
 72
     5
  1

1001
ACAD
1000
MTEXTBEGIN
1070
    73
1070
     1
1070
    44
1040
1.0
1070
    74
1070
     0
1000
MTEXTEND
1000
MTEXTBEGIN
1070
    73
1070
     1
1070
    44
1040
1.0
1070
    74
1070
     0
1000
MTEXTEND
1000
MTEXTBEGIN
1070
    73
1070
     1
1070
    44
1040
1.0
1070
    74
1070
     0
1000
MTEXTEND
  0
MTEXT
  5
5643
330
1A
100
AcDbEntity
  8
SUNPOU
100
AcDbMText
 10
81966.59089719908
 20
68240.13905087176
 30
0.0
 40
3.5
 41
0.0
 71
     9
 72
     5
  1

1001
ACAD
1000
MTEXTBEGIN
1070
    73
1070
     1
1070
    44
1040
1.0
1070
    74
1070
     0
1000
MTEXTEND
1000
MTEXTBEGIN
1070
    73
1070
     1
1070
    44
1040
1.0
1070
    74
1070
     0
1000
MTEXTEND
1000
MTEXTBEGIN
1070
    73
1070
     1
1070
    44
1040
1.0
1070
    74
1070
     0
1000
MTEXTEND
  0
MTEXT
  5
5644
330
1A
100
AcDbEntity
  8
SUNPOU
100
AcDbMText
 10
113092.7707298186
 20
110735.0847185291
 30
0.0
 40
10.5
 41
0.0
 71
     9
 72
     5
  1

1001
ACAD
1000
MTEXTBEGIN
1070
    73
1070
     1
1070
    44
1040
1.0
1070
    74
1070
     0
1000
MTEXTEND
1000
MTEXTBEGIN
1070
    73
1070
     1
1070
    44
1040
1.0
1070
    74
1070
     0
1000
MTEXTEND
1000
MTEXTBEGIN
1070
    73
1070
     1
1070
    44
1040
1.0
1070
    74
1070
     0
1000
MTEXTEND
  0
MTEXT
  5
5645
330
1A
100
AcDbEntity
  8
SUNPOU
100
AcDbMText
 10
115036.1779765282
 20
108934.0356386511
 30
0.0
 40
3.5
 41
0.0
 71
     9
 72
     5
  1

1001
ACAD
1000
MTEXTBEGIN
1070
    73
1070
     1
1070
    44
1040
1.0
1070
    74
1070
     0
1000
MTEXTEND
1000
MTEXTBEGIN
1070
    73
1070
     1
1070
    44
1040
1.0
1070
    74
1070
     0
1000
MTEXTEND
1000
MTEXTBEGIN
1070
    73
1070
     1
1070
    44
1040
1.0
1070
    74
1070
     0
1000
MTEXTEND
  0
MTEXT
  5
5646
330
1A
100
AcDbEntity
  8
SUNPOU
100
AcDbMText
 10
63533.03843561432
 20
56568.24987350415
 30
0.0
 40
10.5
 41
0.0
 71
     9
 72
     5
  1

1001
ACAD
1000
MTEXTBEGIN
1070
    73
1070
     1
1070
    44
1040
1.0
1070
    74
1070
     0
1000
MTEXTEND
1000
MTEXTBEGIN
1070
    73
1070
     1
1070
    44
1040
1.0
1070
    74
1070
     0
1000
MTEXTEND
1000
MTEXTBEGIN
1070
    73
1070
     1
1070
    44
1040
1.0
1070
    74
1070
     0
1000
MTEXTEND
  0
MTEXT
  5
5647
330
1A
100
AcDbEntity
  8
SUNPOU
100
AcDbMText
 10
49585.03833523835
 20
37395.85073439196
 30
0.0
 40
3.5
 41
0.0
 71
     7
 72
     5
  1

1001
ACAD
1000
MTEXTBEGIN
1070
    73
1070
     1
1070
    44
1040
1.0
1070
    74
1070
     0
1000
MTEXTEND
1000
MTEXTBEGIN
1070
    73
1070
     1
1070
    44
1040
1.0
1070
    74
1070
     0
1000
MTEXTEND
1000
MTEXTBEGIN
1070
    73
1070
     1
1070
    44
1040
1.0
1070
    74
1070
     0
1000
MTEXTEND
  0
MTEXT
  5
5648
330
1A
100
AcDbEntity
  8
SUNPOU
100
AcDbMText
 10
77137.31641337052
 20
70907.11375048141
 30
0.0
 40
10.5
 41
0.0
 71
     9
 72
     5
  1

1001
ACAD
1000
MTEXTBEGIN
1070
    73
1070
     1
1070
    44
1040
1.0
1070
    74
1070
     0
1000
MTEXTEND
1000
MTEXTBEGIN
1070
    73
1070
     1
1070
    44
1040
1.0
1070
    74
1070
     0
1000
MTEXTEND
1000
MTEXTBEGIN
1070
    73
1070
     1
1070
    44
1040
1.0
1070
    74
1070
     0
1000
MTEXTEND
  0
MTEXT
  5
5649
330
1A
100
AcDbEntity
  8
SUNPOU
100
AcDbMText
 10
79080.72366007995
 20
69106.06467060339
 30
0.0
 40
3.5
 41
0.0
 71
     9
 72
     5
  1

1001
ACAD
1000
MTEXTBEGIN
1070
    73
1070
     1
1070
    44
1040
1.0
1070
    74
1070
     0
1000
MTEXTEND
1000
MTEXTBEGIN
1070
    73
1070
     1
1070
    44
1040
1.0
1070
    74
1070
     0
1000
MTEXTEND
1000
MTEXTBEGIN
1070
    73
1070
     1
1070
    44
1040
1.0
1070
    74
1070
     0
1000
MTEXTEND
  0
MTEXT
  5
564A
330
1A
100
AcDbEntity
  8
SUNPOU
100
AcDbMText
 10
110206.9034926996
 20
111601.0103382607
 30
0.0
 40
10.5
 41
0.0
 71
     9
 72
     5
  1

1001
ACAD
1000
MTEXTBEGIN
1070
    73
1070
     1
1070
    44
1040
1.0
1070
    74
1070
     0
1000
MTEXTEND
1000
MTEXTBEGIN
1070
    73
1070
     1
1070
    44
1040
1.0
1070
    74
1070
     0
1000
MTEXTEND
1000
MTEXTBEGIN
1070
    73
1070
     1
1070
    44
1040
1.0
1070
    74
1070
     0
1000
MTEXTEND
  0
MTEXT
  5
564B
330
1A
100
AcDbEntity
  8
SUNPOU
100
AcDbMText
 10
112150.310739409
 20
109799.9612583826
 30
0.0
 40
3.5
 41
0.0
 71
     9
 72
     5
  1

1001
ACAD
1000
MTEXTBEGIN
1070
    73
1070
     1
1070
    44
1040
1.0
1070
    74
1070
     0
1000
MTEXTEND
1000
MTEXTBEGIN
1070
    73
1070
     1
1070
    44
1040
1.0
1070
    74
1070
     0
1000
MTEXTEND
1000
MTEXTBEGIN
1070
    73
1070
     1
1070
    44
1040
1.0
1070
    74
1070
     0
1000
MTEXTEND
  0
MTEXT
  5
564C
330
1A
100
AcDbEntity
  8
SUNPOU
100
AcDbMText
 10
108819.1333204967
 20
110677.9087286761
 30
0.0
 40
10.5
 41
0.0
 71
     9
 72
     5
  1

1001
ACAD
1000
MTEXTBEGIN
1070
    73
1070
     1
1070
    44
1040
1.0
1070
    74
1070
     0
1000
MTEXTEND
1000
MTEXTBEGIN
1070
    73
1070
     1
1070
    44
1040
1.0
1070
    74
1070
     0
1000
MTEXTEND
1000
MTEXTBEGIN
1070
    73
1070
     1
1070
    44
1040
1.0
1070
    74
1070
     0
1000
MTEXTEND
  0
MTEXT
  5
564D
330
1A
100
AcDbEntity
  8
SUNPOU
100
AcDbMText
 10
110762.5405672062
 20
108876.8596487981
 30
0.0
 40
3.5
 41
0.0
 71
     9
 72
     5
  1

1001
ACAD
1000
MTEXTBEGIN
1070
    73
1070
     1
1070
    44
1040
1.0
1070
    74
1070
     0
1000
MTEXTEND
1000
MTEXTBEGIN
1070
    73
1070
     1
1070
    44
1040
1.0
1070
    74
1070
     0
1000
MTEXTEND
1000
MTEXTBEGIN
1070
    73
1070
     1
1070
    44
1040
1.0
1070
    74
1070
     0
1000
MTEXTEND
  0
MTEXT
  5
564E
330
1A
100
AcDbEntity
  8
SUNPOU
100
AcDbMText
 10
76303.05507956816
 20
68695.31179059812
 30
0.0
 40
10.5
 41
0.0
 71
     9
 72
     5
  1

1001
ACAD
1000
MTEXTBEGIN
1070
    73
1070
     1
1070
    44
1040
1.0
1070
    74
1070
     0
1000
MTEXTEND
1000
MTEXTBEGIN
1070
    73
1070
     1
1070
    44
1040
1.0
1070
    74
1070
     0
1000
MTEXTEND
1000
MTEXTBEGIN
1070
    73
1070
     1
1070
    44
1040
1.0
1070
    74
1070
     0
1000
MTEXTEND
  0
MTEXT
  5
564F
330
1A
100
AcDbEntity
  8
SUNPOU
100
AcDbMText
 10
79026.36128373271
 20
69099.99348217918
 30
0.0
 40
3.5
 41
0.0
 71
     9
 72
     5
  1

1001
ACAD
1000
MTEXTBEGIN
1070
    73
1070
     1
1070
    44
1040
1.0
1070
    74
1070
     0
1000
MTEXTEND
1000
MTEXTBEGIN
1070
    73
1070
     1
1070
    44
1040
1.0
1070
    74
1070
     0
1000
MTEXTEND
1000
MTEXTBEGIN
1070
    73
1070
     1
1070
    44
1040
1.0
1070
    74
1070
     0
1000
MTEXTEND
  0
MTEXT
  5
5650
330
1A
100
AcDbEntity
  8
SUNPOU
100
AcDbMText
 10
78234.00675862522
 20
65938.68764412436
 30
0.0
 40
10.5
 41
0.0
 71
     9
 72
     5
  1

1001
ACAD
1000
MTEXTBEGIN
1070
    73
1070
     1
1070
    44
1040
1.0
1070
    74
1070
     0
1000
MTEXTEND
1000
MTEXTBEGIN
1070
    73
1070
     1
1070
    44
1040
1.0
1070
    74
1070
     0
1000
MTEXTEND
1000
MTEXTBEGIN
1070
    73
1070
     1
1070
    44
1040
1.0
1070
    74
1070
     0
1000
MTEXTEND
  0
MTEXT
  5
5651
330
1A
100
AcDbEntity
  8
SUNPOU
100
AcDbMText
 10
80177.41400533465
 20
64137.63856424636
 30
0.0
 40
3.5
 41
0.0
 71
     9
 72
     5
  1

1001
ACAD
1000
MTEXTBEGIN
1070
    73
1070
     1
1070
    44
1040
1.0
1070
    74
1070
     0
1000
MTEXTEND
1000
MTEXTBEGIN
1070
    73
1070
     1
1070
    44
1040
1.0
1070
    74
1070
     0
1000
MTEXTEND
1000
MTEXTBEGIN
1070
    73
1070
     1
1070
    44
1040
1.0
1070
    74
1070
     0
1000
MTEXTEND
  0
MTEXT
  5
5652
330
1A
100
AcDbEntity
  8
SUNPOU
100
AcDbMText
 10
80122.50949592122
 20
64024.86668196204
 30
0.0
 40
3.5
 41
0.0
 71
     9
 72
     5
  1

1001
ACAD
1000
MTEXTBEGIN
1070
    73
1070
     1
1070
    44
1040
1.0
1070
    74
1070
     0
1000
MTEXTEND
1000
MTEXTBEGIN
1070
    73
1070
     1
1070
    44
1040
1.0
1070
    74
1070
     0
1000
MTEXTEND
1000
MTEXTBEGIN
1070
    73
1070
     1
1070
    44
1040
1.0
1070
    74
1070
     0
1000
MTEXTEND
  0
MTEXT
  5
5653
330
1A
100
AcDbEntity
  8
SUNPOU
100
AcDbMText
 10
79486.58135950133
 20
63213.54544089553
 30
0.0
 40
3.5
 41
0.0
 71
     9
 72
     5
  1

1001
ACAD
1000
MTEXTBEGIN
1070
    73
1070
     1
1070
    44
1040
1.0
1070
    74
1070
     0
1000
MTEXTEND
1000
MTEXTBEGIN
1070
    73
1070
     1
1070
    44
1040
1.0
1070
    74
1070
     0
1000
MTEXTEND
1000
MTEXTBEGIN
1070
    73
1070
     1
1070
    44
1040
1.0
1070
    74
1070
     0
1000
MTEXTEND
  0
MTEXT
  5
5654
330
1A
100
AcDbEntity
  8
SUNPOU
100
AcDbMText
 10
79485.3409400806
 20
63213.29746395804
 30
0.0
 40
10.5
 41
0.0
 71
     9
 72
     5
  1

1001
ACAD
1000
MTEXTBEGIN
1070
    73
1070
     1
1070
    44
1040
1.0
1070
    74
1070
     0
1000
MTEXTEND
1000
MTEXTBEGIN
1070
    73
1070
     1
1070
    44
1040
1.0
1070
    74
1070
     0
1000
MTEXTEND
1000
MTEXTBEGIN
1070
    73
1070
     1
1070
    44
1040
1.0
1070
    74
1070
     0
1000
MTEXTEND
  0
MTEXT
  5
5655
330
1A
100
AcDbEntity
  8
SUNPOU
100
AcDbMText
 10
85473.63363627567
 20
80747.76348077064
 30
0.0
 40
10.5
 41
0.0
 71
     9
 72
     5
  1

1001
ACAD
1000
MTEXTBEGIN
1070
    73
1070
     1
1070
    44
1040
1.0
1070
    74
1070
     0
1000
MTEXTEND
1000
MTEXTBEGIN
1070
    73
1070
     1
1070
    44
1040
1.0
1070
    74
1070
     0
1000
MTEXTEND
1000
MTEXTBEGIN
1070
    73
1070
     1
1070
    44
1040
1.0
1070
    74
1070
     0
1000
MTEXTEND
  0
MTEXT
  5
5656
330
1A
100
AcDbEntity
  8
SUNPOU
100
AcDbMText
 10
94195.80120219368
 20
88163.59801230806
 30
0.0
 40
10.5
 41
0.0
 71
     9
 72
     5
  1

1001
ACAD
1000
MTEXTBEGIN
1070
    73
1070
     1
1070
    44
1040
1.0
1070
    74
1070
     0
1000
MTEXTEND
1000
MTEXTBEGIN
1070
    73
1070
     1
1070
    44
1040
1.0
1070
    74
1070
     0
1000
MTEXTEND
1000
MTEXTBEGIN
1070
    73
1070
     1
1070
    44
1040
1.0
1070
    74
1070
     0
1000
MTEXTEND
  0
MTEXT
  5
5657
330
1A
100
AcDbEntity
  8
SUNPOU
100
AcDbMText
 10
113149.5599195236
 20
105630.1740648001
 30
0.0
 40
10.5
 41
0.0
 71
     9
 72
     5
  1

1001
ACAD
1000
MTEXTBEGIN
1070
    73
1070
     1
1070
    44
1040
1.0
1070
    74
1070
     0
1000
MTEXTEND
1000
MTEXTBEGIN
1070
    73
1070
     1
1070
    44
1040
1.0
1070
    74
1070
     0
1000
MTEXTEND
1000
MTEXTBEGIN
1070
    73
1070
     1
1070
    44
1040
1.0
1070
    74
1070
     0
1000
MTEXTEND
  0
MTEXT
  5
5658
330
1A
100
AcDbEntity
  8
SUNPOU
100
AcDbMText
 10
115092.967166233
 20
103829.1249849221
 30
0.0
 40
3.5
 41
0.0
 71
     9
 72
     5
  1

1001
ACAD
1000
MTEXTBEGIN
1070
    73
1070
     1
1070
    44
1040
1.0
1070
    74
1070
     0
1000
MTEXTEND
1000
MTEXTBEGIN
1070
    73
1070
     1
1070
    44
1040
1.0
1070
    74
1070
     0
1000
MTEXTEND
1000
MTEXTBEGIN
1070
    73
1070
     1
1070
    44
1040
1.0
1070
    74
1070
     0
1000
MTEXTEND
  0
MTEXT
  5
5659
330
1A
100
AcDbEntity
  8
SUNPOU
100
AcDbMText
 10
146219.1469988527
 20
146324.0706525794
 30
0.0
 40
10.5
 41
0.0
 71
     9
 72
     5
  1

1001
ACAD
1000
MTEXTBEGIN
1070
    73
1070
     1
1070
    44
1040
1.0
1070
    74
1070
     0
1000
MTEXTEND
1000
MTEXTBEGIN
1070
    73
1070
     1
1070
    44
1040
1.0
1070
    74
1070
     0
1000
MTEXTEND
1000
MTEXTBEGIN
1070
    73
1070
     1
1070
    44
1040
1.0
1070
    74
1070
     0
1000
MTEXTEND
  0
MTEXT
  5
565A
330
1A
100
AcDbEntity
  8
SUNPOU
100
AcDbMText
 10
148162.5542455621
 20
144523.0215727014
 30
0.0
 40
3.5
 41
0.0
 71
     9
 72
     5
  1

1001
ACAD
1000
MTEXTBEGIN
1070
    73
1070
     1
1070
    44
1040
1.0
1070
    74
1070
     0
1000
MTEXTEND
1000
MTEXTBEGIN
1070
    73
1070
     1
1070
    44
1040
1.0
1070
    74
1070
     0
1000
MTEXTEND
1000
MTEXTBEGIN
1070
    73
1070
     1
1070
    44
1040
1.0
1070
    74
1070
     0
1000
MTEXTEND
  0
MTEXT
  5
565B
330
1A
100
AcDbEntity
  8
SUNPOU
100
AcDbMText
 10
96659.41470464833
 20
92157.23580755453
 30
0.0
 40
10.5
 41
0.0
 71
     9
 72
     5
  1

1001
ACAD
1000
MTEXTBEGIN
1070
    73
1070
     1
1070
    44
1040
1.0
1070
    74
1070
     0
1000
MTEXTEND
1000
MTEXTBEGIN
1070
    73
1070
     1
1070
    44
1040
1.0
1070
    74
1070
     0
1000
MTEXTEND
1000
MTEXTBEGIN
1070
    73
1070
     1
1070
    44
1040
1.0
1070
    74
1070
     0
1000
MTEXTEND
  0
MTEXT
  5
565C
330
1A
100
AcDbEntity
  8
SUNPOU
100
AcDbMText
 10
82711.41460427234
 20
72984.83666844234
 30
0.0
 40
3.5
 41
0.0
 71
     7
 72
     5
  1

1001
ACAD
1000
MTEXTBEGIN
1070
    73
1070
     1
1070
    44
1040
1.0
1070
    74
1070
     0
1000
MTEXTEND
1000
MTEXTBEGIN
1070
    73
1070
     1
1070
    44
1040
1.0
1070
    74
1070
     0
1000
MTEXTEND
1000
MTEXTBEGIN
1070
    73
1070
     1
1070
    44
1040
1.0
1070
    74
1070
     0
1000
MTEXTEND
  0
MTEXT
  5
565D
330
1A
100
AcDbEntity
  8
SUNPOU
100
AcDbMText
 10
63696.58400126548
 20
60746.98539926055
 30
0.0
 40
10.5
 41
0.0
 71
     7
 72
     5
  1

1001
ACAD
1000
MTEXTBEGIN
1070
    73
1070
     1
1070
    44
1040
1.0
1070
    74
1070
     0
1000
MTEXTEND
1000
MTEXTBEGIN
1070
    73
1070
     1
1070
    44
1040
1.0
1070
    74
1070
     0
1000
MTEXTEND
1000
MTEXTBEGIN
1070
    73
1070
     1
1070
    44
1040
1.0
1070
    74
1070
     0
1000
MTEXTEND
  0
MTEXT
  5
565E
330
1A
100
AcDbEntity
  8
SUNPOU
100
AcDbMText
 10
51239.35573631738
 20
44902.05382116213
 30
0.0
 40
35.0
 41
0.0
 71
     9
 72
     5
  1

1001
ACAD
1000
MTEXTBEGIN
1070
    73
1070
     1
1070
    44
1040
1.0
1070
    74
1070
     0
1000
MTEXTEND
1000
MTEXTBEGIN
1070
    73
1070
     1
1070
    44
1040
1.0
1070
    74
1070
     0
1000
MTEXTEND
1000
MTEXTBEGIN
1070
    73
1070
     1
1070
    44
1040
1.0
1070
    74
1070
     0
1000
MTEXTEND
  0
MTEXT
  5
565F
330
1A
100
AcDbEntity
  8
SUNPOU
100
AcDbMText
 10
50147.84079389233
 20
45510.82923121084
 30
0.0
 40
350.0000004171781
 41
0.0
 71
     7
 72
     5
  1

1001
ACAD
1000
MTEXTBEGIN
1070
    73
1070
     1
1070
    44
1040
1.0
1070
    74
1070
     0
1000
MTEXTEND
1000
MTEXTBEGIN
1070
    73
1070
     1
1070
    44
1040
1.0
1070
    74
1070
     0
1000
MTEXTEND
1000
MTEXTBEGIN
1070
    73
1070
     1
1070
    44
1040
1.0
1070
    74
1070
     0
1000
MTEXTEND
  0
MTEXT
  5
5660
330
1A
100
AcDbEntity
  8
0
100
AcDbMText
 10
56191.79155183523
 20
43490.75159334705
 30
0.0
 40
8.0
 41
0.0
 71
     7
 72
     5
  1

1001
ACAD
1000
MTEXTBEGIN
1070
    73
1070
     1
1070
    44
1040
1.0
1070
    74
1070
     0
1000
MTEXTEND
1000
MTEXTBEGIN
1070
    73
1070
     1
1070
    44
1040
1.0
1070
    74
1070
     0
1000
MTEXTEND
1000
MTEXTBEGIN
1070
    73
1070
     1
1070
    44
1040
1.0
1070
    74
1070
     0
1000
MTEXTEND
  0
MTEXT
  5
5661
330
1A
100
AcDbEntity
  8
0
100
AcDbMText
 10
58477.14924173012
 20
44461.54188809812
 30
0.0
 40
8.0
 41
0.0
 71
     7
 72
     5
  1

1001
ACAD
1000
MTEXTBEGIN
1070
    73
1070
     1
1070
    44
1040
1.0
1070
    74
1070
     0
1000
MTEXTEND
1000
MTEXTBEGIN
1070
    73
1070
     1
1070
    44
1040
1.0
1070
    74
1070
     0
1000
MTEXTEND
1000
MTEXTBEGIN
1070
    73
1070
     1
1070
    44
1040
1.0
1070
    74
1070
     0
1000
MTEXTEND
  0
MTEXT
  5
5662
330
1A
100
AcDbEntity
  8
SUNPOU
100
AcDbMText
 10
61143.04626241227
 20
53973.65328047324
 30
0.0
 40
10.5
 41
0.0
 71
     1
 72
     5
  1

1001
ACAD
1000
MTEXTBEGIN
1070
    73
1070
     1
1070
    44
1040
1.0
1070
    74
1070
     0
1000
MTEXTEND
1000
MTEXTBEGIN
1070
    73
1070
     1
1070
    44
1040
1.0
1070
    74
1070
     0
1000
MTEXTEND
1000
MTEXTBEGIN
1070
    73
1070
     1
1070
    44
1040
1.0
1070
    74
1070
     0
1000
MTEXTEND
  0
MTEXT
  5
5663
330
1A
100
AcDbEntity
  8
SUNPOU
100
AcDbMText
 10
53212.12306647632
 20
53026.86014656028
 30
0.0
 40
10.5
 41
0.0
 71
     7
 72
     5
  1

1001
ACAD
1000
MTEXTBEGIN
1070
    73
1070
     1
1070
    44
1040
1.0
1070
    74
1070
     0
1000
MTEXTEND
1000
MTEXTBEGIN
1070
    73
1070
     1
1070
    44
1040
1.0
1070
    74
1070
     0
1000
MTEXTEND
1000
MTEXTBEGIN
1070
    73
1070
     1
1070
    44
1040
1.0
1070
    74
1070
     0
1000
MTEXTEND
  0
MTEXT
  5
5664
330
1A
100
AcDbEntity
  8
SUNPOU
100
AcDbMText
 10
56161.10673098909
 20
57927.53621840312
 30
0.0
 40
10.5
 41
0.0
 71
     7
 72
     5
  1

1001
ACAD
1000
MTEXTBEGIN
1070
    73
1070
     1
1070
    44
1040
1.0
1070
    74
1070
     0
1000
MTEXTEND
1000
MTEXTBEGIN
1070
    73
1070
     1
1070
    44
1040
1.0
1070
    74
1070
     0
1000
MTEXTEND
1000
MTEXTBEGIN
1070
    73
1070
     1
1070
    44
1040
1.0
1070
    74
1070
     0
1000
MTEXTEND
  0
MTEXT
  5
5665
330
1A
100
AcDbEntity
  8
SUNPOU
100
AcDbMText
 10
60670.18485893966
 20
60363.8369660232
 30
0.0
 40
10.5
 41
0.0
 71
     7
 72
     5
  1

1001
ACAD
1000
MTEXTBEGIN
1070
    73
1070
     1
1070
    44
1040
1.0
1070
    74
1070
     0
1000
MTEXTEND
1000
MTEXTBEGIN
1070
    73
1070
     1
1070
    44
1040
1.0
1070
    74
1070
     0
1000
MTEXTEND
1000
MTEXTBEGIN
1070
    73
1070
     1
1070
    44
1040
1.0
1070
    74
1070
     0
1000
MTEXTEND
  0
MTEXT
  5
5666
330
1A
100
AcDbEntity
  8
SUNPOU
100
AcDbMText
 10
44271.02274570799
 20
39361.43311641211
 30
0.0
 40
10.5
 41
0.0
 71
     7
 72
     5
  1

1001
ACAD
1000
MTEXTBEGIN
1070
    73
1070
     1
1070
    44
1040
1.0
1070
    74
1070
     0
1000
MTEXTEND
1000
MTEXTBEGIN
1070
    73
1070
     1
1070
    44
1040
1.0
1070
    74
1070
     0
1000
MTEXTEND
1000
MTEXTBEGIN
1070
    73
1070
     1
1070
    44
1040
1.0
1070
    74
1070
     0
1000
MTEXTEND
  0
MTEXT
  5
5667
330
1A
100
AcDbEntity
  8
SUNPOU
100
AcDbMText
 10
95462.54117960824
 20
85034.41368006038
 30
0.0
 40
10.5
 41
0.0
 71
     9
 72
     5
  1

1001
ACAD
1000
MTEXTBEGIN
1070
    73
1070
     1
1070
    44
1040
1.0
1070
    74
1070
     0
1000
MTEXTEND
1000
MTEXTBEGIN
1070
    73
1070
     1
1070
    44
1040
1.0
1070
    74
1070
     0
1000
MTEXTEND
1000
MTEXTBEGIN
1070
    73
1070
     1
1070
    44
1040
1.0
1070
    74
1070
     0
1000
MTEXTEND
  0
MTEXT
  5
5668
330
1A
100
AcDbEntity
  8
SUNPOU
100
AcDbMText
 10
104184.7087455262
 20
92450.24821159784
 30
0.0
 40
10.5
 41
0.0
 71
     9
 72
     5
  1

1001
ACAD
1000
MTEXTBEGIN
1070
    73
1070
     1
1070
    44
1040
1.0
1070
    74
1070
     0
1000
MTEXTEND
1000
MTEXTBEGIN
1070
    73
1070
     1
1070
    44
1040
1.0
1070
    74
1070
     0
1000
MTEXTEND
1000
MTEXTBEGIN
1070
    73
1070
     1
1070
    44
1040
1.0
1070
    74
1070
     0
1000
MTEXTEND
  0
MTEXT
  5
5669
330
1A
100
AcDbEntity
  8
SUNPOU
100
AcDbMText
 10
123138.4674628562
 20
109916.8242640898
 30
0.0
 40
10.5
 41
0.0
 71
     9
 72
     5
  1

1001
ACAD
1000
MTEXTBEGIN
1070
    73
1070
     1
1070
    44
1040
1.0
1070
    74
1070
     0
1000
MTEXTEND
1000
MTEXTBEGIN
1070
    73
1070
     1
1070
    44
1040
1.0
1070
    74
1070
     0
1000
MTEXTEND
1000
MTEXTBEGIN
1070
    73
1070
     1
1070
    44
1040
1.0
1070
    74
1070
     0
1000
MTEXTEND
  0
MTEXT
  5
566A
330
1A
100
AcDbEntity
  8
SUNPOU
100
AcDbMText
 10
125081.8747095656
 20
108115.7751842118
 30
0.0
 40
3.5
 41
0.0
 71
     9
 72
     5
  1

1001
ACAD
1000
MTEXTBEGIN
1070
    73
1070
     1
1070
    44
1040
1.0
1070
    74
1070
     0
1000
MTEXTEND
1000
MTEXTBEGIN
1070
    73
1070
     1
1070
    44
1040
1.0
1070
    74
1070
     0
1000
MTEXTEND
1000
MTEXTBEGIN
1070
    73
1070
     1
1070
    44
1040
1.0
1070
    74
1070
     0
1000
MTEXTEND
  0
MTEXT
  5
566B
330
1A
100
AcDbEntity
  8
SUNPOU
100
AcDbMText
 10
156208.0545421853
 20
150610.7208518691
 30
0.0
 40
10.5
 41
0.0
 71
     9
 72
     5
  1

1001
ACAD
1000
MTEXTBEGIN
1070
    73
1070
     1
1070
    44
1040
1.0
1070
    74
1070
     0
1000
MTEXTEND
1000
MTEXTBEGIN
1070
    73
1070
     1
1070
    44
1040
1.0
1070
    74
1070
     0
1000
MTEXTEND
1000
MTEXTBEGIN
1070
    73
1070
     1
1070
    44
1040
1.0
1070
    74
1070
     0
1000
MTEXTEND
  0
MTEXT
  5
566C
330
1A
100
AcDbEntity
  8
SUNPOU
100
AcDbMText
 10
158151.4617888947
 20
148809.6717719911
 30
0.0
 40
3.5
 41
0.0
 71
     9
 72
     5
  1

1001
ACAD
1000
MTEXTBEGIN
1070
    73
1070
     1
1070
    44
1040
1.0
1070
    74
1070
     0
1000
MTEXTEND
1000
MTEXTBEGIN
1070
    73
1070
     1
1070
    44
1040
1.0
1070
    74
1070
     0
1000
MTEXTEND
1000
MTEXTBEGIN
1070
    73
1070
     1
1070
    44
1040
1.0
1070
    74
1070
     0
1000
MTEXTEND
  0
MTEXT
  5
566D
330
1A
100
AcDbEntity
  8
SUNPOU
100
AcDbMText
 10
106648.3222479809
 20
96443.88600684427
 30
0.0
 40
10.5
 41
0.0
 71
     9
 72
     5
  1

1001
ACAD
1000
MTEXTBEGIN
1070
    73
1070
     1
1070
    44
1040
1.0
1070
    74
1070
     0
1000
MTEXTEND
1000
MTEXTBEGIN
1070
    73
1070
     1
1070
    44
1040
1.0
1070
    74
1070
     0
1000
MTEXTEND
1000
MTEXTBEGIN
1070
    73
1070
     1
1070
    44
1040
1.0
1070
    74
1070
     0
1000
MTEXTEND
  0
MTEXT
  5
566E
330
1A
100
AcDbEntity
  8
SUNPOU
100
AcDbMText
 10
92700.3221476049
 20
77271.48686773207
 30
0.0
 40
3.5
 41
0.0
 71
     7
 72
     5
  1

1001
ACAD
1000
MTEXTBEGIN
1070
    73
1070
     1
1070
    44
1040
1.0
1070
    74
1070
     0
1000
MTEXTEND
1000
MTEXTBEGIN
1070
    73
1070
     1
1070
    44
1040
1.0
1070
    74
1070
     0
1000
MTEXTEND
1000
MTEXTBEGIN
1070
    73
1070
     1
1070
    44
1040
1.0
1070
    74
1070
     0
1000
MTEXTEND
  0
MTEXT
  5
566F
330
1A
100
AcDbEntity
  8
SUNPOU
100
AcDbMText
 10
73685.49154459807
 20
65033.63559855027
 30
0.0
 40
10.5
 41
0.0
 71
     7
 72
     5
  1

1001
ACAD
1000
MTEXTBEGIN
1070
    73
1070
     1
1070
    44
1040
1.0
1070
    74
1070
     0
1000
MTEXTEND
1000
MTEXTBEGIN
1070
    73
1070
     1
1070
    44
1040
1.0
1070
    74
1070
     0
1000
MTEXTEND
1000
MTEXTBEGIN
1070
    73
1070
     1
1070
    44
1040
1.0
1070
    74
1070
     0
1000
MTEXTEND
  0
MTEXT
  5
5670
330
1A
100
AcDbEntity
  8
SUNPOU
100
AcDbMText
 10
61228.26327964995
 20
49188.70402045183
 30
0.0
 40
35.0
 41
0.0
 71
     9
 72
     5
  1

1001
ACAD
1000
MTEXTBEGIN
1070
    73
1070
     1
1070
    44
1040
1.0
1070
    74
1070
     0
1000
MTEXTEND
1000
MTEXTBEGIN
1070
    73
1070
     1
1070
    44
1040
1.0
1070
    74
1070
     0
1000
MTEXTEND
1000
MTEXTBEGIN
1070
    73
1070
     1
1070
    44
1040
1.0
1070
    74
1070
     0
1000
MTEXTEND
  0
MTEXT
  5
5671
330
1A
100
AcDbEntity
  8
SUNPOU
100
AcDbMText
 10
60136.74833722491
 20
49797.47943050056
 30
0.0
 40
350.0000004171781
 41
0.0
 71
     7
 72
     5
  1

1001
ACAD
1000
MTEXTBEGIN
1070
    73
1070
     1
1070
    44
1040
1.0
1070
    74
1070
     0
1000
MTEXTEND
1000
MTEXTBEGIN
1070
    73
1070
     1
1070
    44
1040
1.0
1070
    74
1070
     0
1000
MTEXTEND
1000
MTEXTBEGIN
1070
    73
1070
     1
1070
    44
1040
1.0
1070
    74
1070
     0
1000
MTEXTEND
  0
MTEXT
  5
5672
330
1A
100
AcDbEntity
  8
0
100
AcDbMText
 10
66180.69909516782
 20
47777.40179263677
 30
0.0
 40
8.0
 41
0.0
 71
     7
 72
     5
  1

1001
ACAD
1000
MTEXTBEGIN
1070
    73
1070
     1
1070
    44
1040
1.0
1070
    74
1070
     0
1000
MTEXTEND
1000
MTEXTBEGIN
1070
    73
1070
     1
1070
    44
1040
1.0
1070
    74
1070
     0
1000
MTEXTEND
1000
MTEXTBEGIN
1070
    73
1070
     1
1070
    44
1040
1.0
1070
    74
1070
     0
1000
MTEXTEND
  0
MTEXT
  5
5673
330
1A
100
AcDbEntity
  8
0
100
AcDbMText
 10
68466.05678506271
 20
48748.19208738784
 30
0.0
 40
8.0
 41
0.0
 71
     7
 72
     5
  1

1001
ACAD
1000
MTEXTBEGIN
1070
    73
1070
     1
1070
    44
1040
1.0
1070
    74
1070
     0
1000
MTEXTEND
1000
MTEXTBEGIN
1070
    73
1070
     1
1070
    44
1040
1.0
1070
    74
1070
     0
1000
MTEXTEND
1000
MTEXTBEGIN
1070
    73
1070
     1
1070
    44
1040
1.0
1070
    74
1070
     0
1000
MTEXTEND
  0
MTEXT
  5
5674
330
1A
100
AcDbEntity
  8
SUNPOU
100
AcDbMText
 10
71131.95380574485
 20
58260.30347976296
 30
0.0
 40
10.5
 41
0.0
 71
     1
 72
     5
  1

1001
ACAD
1000
MTEXTBEGIN
1070
    73
1070
     1
1070
    44
1040
1.0
1070
    74
1070
     0
1000
MTEXTEND
1000
MTEXTBEGIN
1070
    73
1070
     1
1070
    44
1040
1.0
1070
    74
1070
     0
1000
MTEXTEND
1000
MTEXTBEGIN
1070
    73
1070
     1
1070
    44
1040
1.0
1070
    74
1070
     0
1000
MTEXTEND
  0
MTEXT
  5
5675
330
1A
100
AcDbEntity
  8
SUNPOU
100
AcDbMText
 10
63201.03060980891
 20
57313.51034585003
 30
0.0
 40
10.5
 41
0.0
 71
     7
 72
     5
  1

1001
ACAD
1000
MTEXTBEGIN
1070
    73
1070
     1
1070
    44
1040
1.0
1070
    74
1070
     0
1000
MTEXTEND
1000
MTEXTBEGIN
1070
    73
1070
     1
1070
    44
1040
1.0
1070
    74
1070
     0
1000
MTEXTEND
1000
MTEXTBEGIN
1070
    73
1070
     1
1070
    44
1040
1.0
1070
    74
1070
     0
1000
MTEXTEND
  0
MTEXT
  5
5676
330
1A
100
AcDbEntity
  8
SUNPOU
100
AcDbMText
 10
66150.01427432169
 20
62214.18641769286
 30
0.0
 40
10.5
 41
0.0
 71
     7
 72
     5
  1

1001
ACAD
1000
MTEXTBEGIN
1070
    73
1070
     1
1070
    44
1040
1.0
1070
    74
1070
     0
1000
MTEXTEND
1000
MTEXTBEGIN
1070
    73
1070
     1
1070
    44
1040
1.0
1070
    74
1070
     0
1000
MTEXTEND
1000
MTEXTBEGIN
1070
    73
1070
     1
1070
    44
1040
1.0
1070
    74
1070
     0
1000
MTEXTEND
  0
MTEXT
  5
5677
330
1A
100
AcDbEntity
  8
SUNPOU
100
AcDbMText
 10
70659.09240227225
 20
64650.48716531294
 30
0.0
 40
10.5
 41
0.0
 71
     7
 72
     5
  1

1001
ACAD
1000
MTEXTBEGIN
1070
    73
1070
     1
1070
    44
1040
1.0
1070
    74
1070
     0
1000
MTEXTEND
1000
MTEXTBEGIN
1070
    73
1070
     1
1070
    44
1040
1.0
1070
    74
1070
     0
1000
MTEXTEND
1000
MTEXTBEGIN
1070
    73
1070
     1
1070
    44
1040
1.0
1070
    74
1070
     0
1000
MTEXTEND
  0
MTEXT
  5
5678
330
1A
100
AcDbEntity
  8
SUNPOU
100
AcDbMText
 10
54259.93028904056
 20
43648.08331570185
 30
0.0
 40
10.5
 41
0.0
 71
     7
 72
     5
  1

1001
ACAD
1000
MTEXTBEGIN
1070
    73
1070
     1
1070
    44
1040
1.0
1070
    74
1070
     0
1000
MTEXTEND
1000
MTEXTBEGIN
1070
    73
1070
     1
1070
    44
1040
1.0
1070
    74
1070
     0
1000
MTEXTEND
1000
MTEXTBEGIN
1070
    73
1070
     1
1070
    44
1040
1.0
1070
    74
1070
     0
1000
MTEXTEND
  0
MTEXT
  5
5679
330
1A
100
AcDbEntity
  8
SUNPOU
100
AcDbMText
 10
56070.69320041551
 20
49975.4973031804
 30
0.0
 40
10.5
 41
0.0
 71
     9
 72
     5
  1

1001
ACAD
1000
MTEXTBEGIN
1070
    73
1070
     1
1070
    44
1040
1.0
1070
    74
1070
     0
1000
MTEXTEND
1000
MTEXTBEGIN
1070
    73
1070
     1
1070
    44
1040
1.0
1070
    74
1070
     0
1000
MTEXTEND
1000
MTEXTBEGIN
1070
    73
1070
     1
1070
    44
1040
1.0
1070
    74
1070
     0
1000
MTEXTEND
  0
MTEXT
  5
567A
330
1A
100
AcDbEntity
  8
SUNPOU
100
AcDbMText
 10
64792.86076633347
 20
57391.33183471787
 30
0.0
 40
10.5
 41
0.0
 71
     9
 72
     5
  1

1001
ACAD
1000
MTEXTBEGIN
1070
    73
1070
     1
1070
    44
1040
1.0
1070
    74
1070
     0
1000
MTEXTEND
1000
MTEXTBEGIN
1070
    73
1070
     1
1070
    44
1040
1.0
1070
    74
1070
     0
1000
MTEXTEND
1000
MTEXTBEGIN
1070
    73
1070
     1
1070
    44
1040
1.0
1070
    74
1070
     0
1000
MTEXTEND
  0
MTEXT
  5
567B
330
1A
100
AcDbEntity
  8
SUNPOU
100
AcDbMText
 10
83746.61948366345
 20
74857.90788720994
 30
0.0
 40
10.5
 41
0.0
 71
     9
 72
     5
  1

1001
ACAD
1000
MTEXTBEGIN
1070
    73
1070
     1
1070
    44
1040
1.0
1070
    74
1070
     0
1000
MTEXTEND
1000
MTEXTBEGIN
1070
    73
1070
     1
1070
    44
1040
1.0
1070
    74
1070
     0
1000
MTEXTEND
1000
MTEXTBEGIN
1070
    73
1070
     1
1070
    44
1040
1.0
1070
    74
1070
     0
1000
MTEXTEND
  0
MTEXT
  5
567C
330
1A
100
AcDbEntity
  8
SUNPOU
100
AcDbMText
 10
85690.02673037287
 20
73056.85880733192
 30
0.0
 40
3.5
 41
0.0
 71
     9
 72
     5
  1

1001
ACAD
1000
MTEXTBEGIN
1070
    73
1070
     1
1070
    44
1040
1.0
1070
    74
1070
     0
1000
MTEXTEND
1000
MTEXTBEGIN
1070
    73
1070
     1
1070
    44
1040
1.0
1070
    74
1070
     0
1000
MTEXTEND
1000
MTEXTBEGIN
1070
    73
1070
     1
1070
    44
1040
1.0
1070
    74
1070
     0
1000
MTEXTEND
  0
MTEXT
  5
567D
330
1A
100
AcDbEntity
  8
SUNPOU
100
AcDbMText
 10
116816.2065629925
 20
115551.8044749892
 30
0.0
 40
10.5
 41
0.0
 71
     9
 72
     5
  1

1001
ACAD
1000
MTEXTBEGIN
1070
    73
1070
     1
1070
    44
1040
1.0
1070
    74
1070
     0
1000
MTEXTEND
1000
MTEXTBEGIN
1070
    73
1070
     1
1070
    44
1040
1.0
1070
    74
1070
     0
1000
MTEXTEND
1000
MTEXTBEGIN
1070
    73
1070
     1
1070
    44
1040
1.0
1070
    74
1070
     0
1000
MTEXTEND
  0
MTEXT
  5
567E
330
1A
100
AcDbEntity
  8
SUNPOU
100
AcDbMText
 10
118759.6138097019
 20
113750.7553951111
 30
0.0
 40
3.5
 41
0.0
 71
     9
 72
     5
  1

1001
ACAD
1000
MTEXTBEGIN
1070
    73
1070
     1
1070
    44
1040
1.0
1070
    74
1070
     0
1000
MTEXTEND
1000
MTEXTBEGIN
1070
    73
1070
     1
1070
    44
1040
1.0
1070
    74
1070
     0
1000
MTEXTEND
1000
MTEXTBEGIN
1070
    73
1070
     1
1070
    44
1040
1.0
1070
    74
1070
     0
1000
MTEXTEND
  0
MTEXT
  5
567F
330
1A
100
AcDbEntity
  8
SUNPOU
100
AcDbMText
 10
67256.47426878814
 20
61384.96962996432
 30
0.0
 40
10.5
 41
0.0
 71
     9
 72
     5
  1

1001
ACAD
1000
MTEXTBEGIN
1070
    73
1070
     1
1070
    44
1040
1.0
1070
    74
1070
     0
1000
MTEXTEND
1000
MTEXTBEGIN
1070
    73
1070
     1
1070
    44
1040
1.0
1070
    74
1070
     0
1000
MTEXTEND
1000
MTEXTBEGIN
1070
    73
1070
     1
1070
    44
1040
1.0
1070
    74
1070
     0
1000
MTEXTEND
  0
MTEXT
  5
5680
330
1A
100
AcDbEntity
  8
SUNPOU
100
AcDbMText
 10
53308.47416841216
 20
42212.57049085211
 30
0.0
 40
3.5
 41
0.0
 71
     7
 72
     5
  1

1001
ACAD
1000
MTEXTBEGIN
1070
    73
1070
     1
1070
    44
1040
1.0
1070
    74
1070
     0
1000
MTEXTEND
1000
MTEXTBEGIN
1070
    73
1070
     1
1070
    44
1040
1.0
1070
    74
1070
     0
1000
MTEXTEND
1000
MTEXTBEGIN
1070
    73
1070
     1
1070
    44
1040
1.0
1070
    74
1070
     0
1000
MTEXTEND
  0
MTEXT
  5
5681
330
1A
100
AcDbEntity
  8
SUNPOU
100
AcDbMText
 10
67000.82485118274
 20
51571.63371187342
 30
0.0
 40
10.5
 41
0.0
 71
     9
 72
     5
  1

1001
ACAD
1000
MTEXTBEGIN
1070
    73
1070
     1
1070
    44
1040
1.0
1070
    74
1070
     0
1000
MTEXTEND
1000
MTEXTBEGIN
1070
    73
1070
     1
1070
    44
1040
1.0
1070
    74
1070
     0
1000
MTEXTEND
1000
MTEXTBEGIN
1070
    73
1070
     1
1070
    44
1040
1.0
1070
    74
1070
     0
1000
MTEXTEND
  0
MTEXT
  5
5682
330
1A
100
AcDbEntity
  8
SUNPOU
100
AcDbMText
 10
75722.99241710071
 20
58987.46824341094
 30
0.0
 40
10.5
 41
0.0
 71
     9
 72
     5
  1

1001
ACAD
1000
MTEXTBEGIN
1070
    73
1070
     1
1070
    44
1040
1.0
1070
    74
1070
     0
1000
MTEXTEND
1000
MTEXTBEGIN
1070
    73
1070
     1
1070
    44
1040
1.0
1070
    74
1070
     0
1000
MTEXTEND
1000
MTEXTBEGIN
1070
    73
1070
     1
1070
    44
1040
1.0
1070
    74
1070
     0
1000
MTEXTEND
  0
MTEXT
  5
5683
330
1A
100
AcDbEntity
  8
SUNPOU
100
AcDbMText
 10
94676.75113443068
 20
76454.04429590299
 30
0.0
 40
10.5
 41
0.0
 71
     9
 72
     5
  1

1001
ACAD
1000
MTEXTBEGIN
1070
    73
1070
     1
1070
    44
1040
1.0
1070
    74
1070
     0
1000
MTEXTEND
1000
MTEXTBEGIN
1070
    73
1070
     1
1070
    44
1040
1.0
1070
    74
1070
     0
1000
MTEXTEND
1000
MTEXTBEGIN
1070
    73
1070
     1
1070
    44
1040
1.0
1070
    74
1070
     0
1000
MTEXTEND
  0
MTEXT
  5
5684
330
1A
100
AcDbEntity
  8
SUNPOU
100
AcDbMText
 10
96620.1583811401
 20
74652.99521602497
 30
0.0
 40
3.5
 41
0.0
 71
     9
 72
     5
  1

1001
ACAD
1000
MTEXTBEGIN
1070
    73
1070
     1
1070
    44
1040
1.0
1070
    74
1070
     0
1000
MTEXTEND
1000
MTEXTBEGIN
1070
    73
1070
     1
1070
    44
1040
1.0
1070
    74
1070
     0
1000
MTEXTEND
1000
MTEXTBEGIN
1070
    73
1070
     1
1070
    44
1040
1.0
1070
    74
1070
     0
1000
MTEXTEND
  0
MTEXT
  5
5685
330
1A
100
AcDbEntity
  8
SUNPOU
100
AcDbMText
 10
127746.3382137598
 20
117147.9408836822
 30
0.0
 40
10.5
 41
0.0
 71
     9
 72
     5
  1

1001
ACAD
1000
MTEXTBEGIN
1070
    73
1070
     1
1070
    44
1040
1.0
1070
    74
1070
     0
1000
MTEXTEND
1000
MTEXTBEGIN
1070
    73
1070
     1
1070
    44
1040
1.0
1070
    74
1070
     0
1000
MTEXTEND
1000
MTEXTBEGIN
1070
    73
1070
     1
1070
    44
1040
1.0
1070
    74
1070
     0
1000
MTEXTEND
  0
MTEXT
  5
5686
330
1A
100
AcDbEntity
  8
SUNPOU
100
AcDbMText
 10
129689.7454604692
 20
115346.8918038041
 30
0.0
 40
3.5
 41
0.0
 71
     9
 72
     5
  1

1001
ACAD
1000
MTEXTBEGIN
1070
    73
1070
     1
1070
    44
1040
1.0
1070
    74
1070
     0
1000
MTEXTEND
1000
MTEXTBEGIN
1070
    73
1070
     1
1070
    44
1040
1.0
1070
    74
1070
     0
1000
MTEXTEND
1000
MTEXTBEGIN
1070
    73
1070
     1
1070
    44
1040
1.0
1070
    74
1070
     0
1000
MTEXTEND
  0
MTEXT
  5
5687
330
1A
100
AcDbEntity
  8
SUNPOU
100
AcDbMText
 10
78186.60591955537
 20
62981.10603865737
 30
0.0
 40
10.5
 41
0.0
 71
     9
 72
     5
  1

1001
ACAD
1000
MTEXTBEGIN
1070
    73
1070
     1
1070
    44
1040
1.0
1070
    74
1070
     0
1000
MTEXTEND
1000
MTEXTBEGIN
1070
    73
1070
     1
1070
    44
1040
1.0
1070
    74
1070
     0
1000
MTEXTEND
1000
MTEXTBEGIN
1070
    73
1070
     1
1070
    44
1040
1.0
1070
    74
1070
     0
1000
MTEXTEND
  0
MTEXT
  5
5688
330
1A
100
AcDbEntity
  8
SUNPOU
100
AcDbMText
 10
64238.60581917939
 20
43808.70689954517
 30
0.0
 40
3.5
 41
0.0
 71
     7
 72
     5
  1

1001
ACAD
1000
MTEXTBEGIN
1070
    73
1070
     1
1070
    44
1040
1.0
1070
    74
1070
     0
1000
MTEXTEND
1000
MTEXTBEGIN
1070
    73
1070
     1
1070
    44
1040
1.0
1070
    74
1070
     0
1000
MTEXTEND
1000
MTEXTBEGIN
1070
    73
1070
     1
1070
    44
1040
1.0
1070
    74
1070
     0
1000
MTEXTEND
  0
MTEXT
  5
5689
330
1A
100
AcDbEntity
  8
SUNPOU
100
AcDbMText
 10
33428.13481137435
 20
32770.04710035563
 30
0.0
 40
10.5
 41
0.0
 71
     9
 72
     5
  1

1001
ACAD
1000
MTEXTBEGIN
1070
    73
1070
     1
1070
    44
1040
1.0
1070
    74
1070
     0
1000
MTEXTEND
1000
MTEXTBEGIN
1070
    73
1070
     1
1070
    44
1040
1.0
1070
    74
1070
     0
1000
MTEXTEND
1000
MTEXTBEGIN
1070
    73
1070
     1
1070
    44
1040
1.0
1070
    74
1070
     0
1000
MTEXTEND
  0
MTEXT
  5
568A
330
1A
100
AcDbEntity
  8
SUNPOU
100
AcDbMText
 10
52381.89352870431
 20
50236.62315284768
 30
0.0
 40
10.5
 41
0.0
 71
     9
 72
     5
  1

1001
ACAD
1000
MTEXTBEGIN
1070
    73
1070
     1
1070
    44
1040
1.0
1070
    74
1070
     0
1000
MTEXTEND
1000
MTEXTBEGIN
1070
    73
1070
     1
1070
    44
1040
1.0
1070
    74
1070
     0
1000
MTEXTEND
1000
MTEXTBEGIN
1070
    73
1070
     1
1070
    44
1040
1.0
1070
    74
1070
     0
1000
MTEXTEND
  0
MTEXT
  5
568B
330
1A
100
AcDbEntity
  8
SUNPOU
100
AcDbMText
 10
54325.30077541374
 20
48435.57407296968
 30
0.0
 40
3.5
 41
0.0
 71
     9
 72
     5
  1

1001
ACAD
1000
MTEXTBEGIN
1070
    73
1070
     1
1070
    44
1040
1.0
1070
    74
1070
     0
1000
MTEXTEND
1000
MTEXTBEGIN
1070
    73
1070
     1
1070
    44
1040
1.0
1070
    74
1070
     0
1000
MTEXTEND
1000
MTEXTBEGIN
1070
    73
1070
     1
1070
    44
1040
1.0
1070
    74
1070
     0
1000
MTEXTEND
  0
MTEXT
  5
568C
330
1A
100
AcDbEntity
  8
SUNPOU
100
AcDbMText
 10
85451.48060803342
 20
90930.51974062703
 30
0.0
 40
10.5
 41
0.0
 71
     9
 72
     5
  1

1001
ACAD
1000
MTEXTBEGIN
1070
    73
1070
     1
1070
    44
1040
1.0
1070
    74
1070
     0
1000
MTEXTEND
1000
MTEXTBEGIN
1070
    73
1070
     1
1070
    44
1040
1.0
1070
    74
1070
     0
1000
MTEXTEND
1000
MTEXTBEGIN
1070
    73
1070
     1
1070
    44
1040
1.0
1070
    74
1070
     0
1000
MTEXTEND
  0
MTEXT
  5
568D
330
1A
100
AcDbEntity
  8
SUNPOU
100
AcDbMText
 10
87394.88785474286
 20
89129.47066074901
 30
0.0
 40
3.5
 41
0.0
 71
     9
 72
     5
  1

1001
ACAD
1000
MTEXTBEGIN
1070
    73
1070
     1
1070
    44
1040
1.0
1070
    74
1070
     0
1000
MTEXTEND
1000
MTEXTBEGIN
1070
    73
1070
     1
1070
    44
1040
1.0
1070
    74
1070
     0
1000
MTEXTEND
1000
MTEXTBEGIN
1070
    73
1070
     1
1070
    44
1040
1.0
1070
    74
1070
     0
1000
MTEXTEND
  0
MTEXT
  5
568E
330
1A
100
AcDbEntity
  8
SUNPOU
100
AcDbMText
 10
35891.74831382901
 20
36763.68489560208
 30
0.0
 40
10.5
 41
0.0
 71
     9
 72
     5
  1

1001
ACAD
1000
MTEXTBEGIN
1070
    73
1070
     1
1070
    44
1040
1.0
1070
    74
1070
     0
1000
MTEXTEND
1000
MTEXTBEGIN
1070
    73
1070
     1
1070
    44
1040
1.0
1070
    74
1070
     0
1000
MTEXTEND
1000
MTEXTBEGIN
1070
    73
1070
     1
1070
    44
1040
1.0
1070
    74
1070
     0
1000
MTEXTEND
  0
MTEXT
  5
568F
330
1A
100
AcDbEntity
  8
SUNPOU
100
AcDbMText
 10
21943.74821345303
 20
17591.28575648985
 30
0.0
 40
3.5
 41
0.0
 71
     7
 72
     5
  1

1001
ACAD
1000
MTEXTBEGIN
1070
    73
1070
     1
1070
    44
1040
1.0
1070
    74
1070
     0
1000
MTEXTEND
1000
MTEXTBEGIN
1070
    73
1070
     1
1070
    44
1040
1.0
1070
    74
1070
     0
1000
MTEXTEND
1000
MTEXTBEGIN
1070
    73
1070
     1
1070
    44
1040
1.0
1070
    74
1070
     0
1000
MTEXTEND
  0
MTEXT
  5
123A9
330
1A
100
AcDbEntity
  8
ZISSEN1
100
AcDbMText
 10
-1707.187619529359
 20
1835.705541599433
 30
0.0
 40
5.0
 41
108.3598999999999
 71
     1
 72
     5
  1
ADB-5F40  No.SS0001f58
1001
ACAD
1000
MTEXTBEGIN
1070
    73
1070
     1
1070
    44
1040
1.0
1070
    74
1070
     0
1000
MTEXTEND
1000
MTEXTBEGIN
1070
    73
1070
     1
1070
    44
1040
1.0
1070
    74
1070
     0
1000
MTEXTEND
1000
MTEXTBEGIN
1070
    73
1070
     1
1070
    44
1040
1.0
1070
    74
1070
     0
1000
MTEXTEND
  0
LINE
  5
1296A
330
1A
100
AcDbEntity
  8
CL1
100
AcDbLine
 10
-1577.0
 20
1748.0
 30
0.0
 11
-1577.0
 21
1756.0
 31
0.0
  0
LINE
  5
1296E
330
1A
100
AcDbEntity
  8
CL1
100
AcDbLine
 10
-1580.0
 20
1752.0
 30
0.0
 11
-1574.0
 21
1752.0
 31
0.0
  0
LINE
  5
129A9
330
1A
100
AcDbEntity
  8
CL1
100
AcDbLine
 10
-1577.0
 20
1802.0
 30
0.0
 11
-1577.0
 21
1808.0
 31
0.0
  0
LINE
  5
129AF
330
1A
100
AcDbEntity
  8
CL1
100
AcDbLine
 10
-1580.0
 20
1805.0
 30
0.0
 11
-1574.0
 21
1805.0
 31
0.0
  0
LINE
  5
13598
330
1A
100
AcDbEntity
  8
ZISSEN1
100
AcDbLine
 10
-1690.5
 20
1806.5
 30
0.0
 11
-1639.0
 21
1806.5
 31
0.0
  0
LINE
  5
13599
330
1A
100
AcDbEntity
  8
ZISSEN1
100
AcDbLine
 10
-1647.5
 20
1750.499999999999
 30
0.0
 11
-1699.5
 21
1750.499999999999
 31
0.0
  0
ARC
  5
1359A
330
1A
100
AcDbEntity
  8
ZISSEN1
100
AcDbCircle
 10
-1647.5
 20
1750.499999999999
 30
0.0
 40
1.0
100
AcDbArc
 50
90.0
 51
180.0
  0
LINE
  5
1359B
330
1A
100
AcDbEntity
  8
ZISSEN1
100
AcDbLine
 10
-1693.247899514553
 20
1807.0
 30
0.0
 11
-1638.999999999999
 21
1807.0
 31
0.0
  0
LINE
  5
1359C
330
1A
100
AcDbEntity
  8
ZISSEN1
100
AcDbLine
 10
-1644.752168945866
 20
1750.0
 30
0.0
 11
-1659.3
 21
1750.0
 31
0.0
  0
LINE
  5
1359D
330
1A
100
AcDbEntity
  8
ZISSEN1
100
AcDbLine
 10
-1692.0
 20
1801.0
 30
0.0
 11
-1669.6
 21
1801.0
 31
0.0
  0
LINE
  5
1359E
330
1A
100
AcDbEntity
  8
ZISSEN1
100
AcDbLine
 10
-1669.6
 20
1793.4
 30
0.0
 11
-1692.0
 21
1793.4
 31
0.0
  0
LINE
  5
1359F
330
1A
100
AcDbEntity
  8
ZISSEN1
100
AcDbLine
 10
-1690.5
 20
1801.0
 30
0.0
 11
-1690.5
 21
1806.5
 31
0.0
  0
LINE
  5
135A0
330
1A
100
AcDbEntity
  8
ZISSEN1
100
AcDbLine
 10
-1692.0
 20
1801.0
 30
0.0
 11
-1692.0
 21
1793.4
 31
0.0
  0
LINE
  5
135A1
330
1A
100
AcDbEntity
  8
ZISSEN1
100
AcDbLine
 10
-1692.0
 20
1801.0
 30
0.0
 11
-1699.5
 21
1801.0
 31
0.0
  0
LINE
  5
135A2
330
1A
100
AcDbEntity
  8
ZISSEN1
100
AcDbLine
 10
-1692.0
 20
1801.0
 30
0.0
 11
-1695.0
 21
1801.0
 31
0.0
  0
ARC
  5
135A3
330
1A
100
AcDbEntity
  8
ZISSEN1
100
AcDbCircle
 10
-1690.5
 20
1806.5
 30
0.0
 40
1.0
100
AcDbArc
 50
270.0
 51
0.0
  0
LINE
  5
135A4
330
1A
100
AcDbEntity
  8
ZISSEN1
100
AcDbLine
 10
-1699.5
 20
1750.499999999999
 30
0.0
 11
-1699.5
 21
1756.0
 31
0.0
  0
LINE
  5
135A5
330
1A
100
AcDbEntity
  8
ZISSEN1
100
AcDbLine
 10
-1699.5
 20
1801.0
 30
0.0
 11
-1699.5
 21
1756.0
 31
0.0
  0
LINE
  5
135A6
330
1A
100
AcDbEntity
  8
ZISSEN1
100
AcDbLine
 10
-1700.0
 20
1807.0
 30
0.0
 11
-1700.0
 21
1750.0
 31
0.0
  0
LINE
  5
135A7
330
1A
100
AcDbEntity
  8
ZISSEN1
100
AcDbLine
 10
-1703.0
 20
1807.0
 30
0.0
 11
-1703.0
 21
1750.0
 31
0.0
  0
LINE
  5
135A8
330
1A
100
AcDbEntity
  8
ZISSEN1
100
AcDbLine
 10
-1703.0
 20
1752.0
 30
0.0
 11
-1700.0
 21
1752.0
 31
0.0
  0
LINE
  5
135A9
330
1A
100
AcDbEntity
  8
ZISSEN1
100
AcDbLine
 10
-1699.0
 20
1807.0
 30
0.0
 11
-1700.0
 21
1806.0
 31
0.0
  0
LINE
  5
135AA
330
1A
100
AcDbEntity
  8
ZISSEN1
100
AcDbLine
 10
-1693.247899514553
 20
1807.0
 30
0.0
 11
-1693.247899514553
 21
1804.0
 31
0.0
  0
LINE
  5
135AB
330
1A
100
AcDbEntity
  8
ZISSEN1
100
AcDbLine
 10
-1696.747899514553
 20
1807.0
 30
0.0
 11
-1696.747899514553
 21
1804.0
 31
0.0
  0
LINE
  5
135AC
330
1A
100
AcDbEntity
  8
CL1
100
AcDbLine
 10
-1695.0
 20
1808.5
 30
0.0
 11
-1695.0
 21
1801.5
 31
0.0
  0
LINE
  5
135AD
330
1A
100
AcDbEntity
  8
ZISSEN1
100
AcDbLine
 10
-1696.747899514553
 20
1807.0
 30
0.0
 11
-1699.0
 21
1807.0
 31
0.0
  0
LINE
  5
135AE
330
1A
100
AcDbEntity
  8
ZISSEN1
100
AcDbLine
 10
-1703.0
 20
1807.0
 30
0.0
 11
-1700.0
 21
1807.0
 31
0.0
  0
LINE
  5
135AF
330
1A
100
AcDbEntity
  8
ZISSEN1
100
AcDbLine
 10
-1703.0
 20
1805.0
 30
0.0
 11
-1700.0
 21
1805.0
 31
0.0
  0
ARC
  5
135B1
330
1A
100
AcDbEntity
  8
ZISSEN1
100
AcDbCircle
 10
-1694.997899514554
 20
1804.0
 30
0.0
 40
1.749999999999772
100
AcDbArc
 50
180.0
 51
0.0
  0
LINE
  5
135B2
330
1A
100
AcDbEntity
  8
CL1
100
AcDbLine
 10
-1692.0
 20
1805.0
 30
0.0
 11
-1698.0
 21
1805.0
 31
0.0
  0
LINE
  5
135B3
330
1A
100
AcDbEntity
  8
ZISSEN1
100
AcDbLine
 10
-1700.0
 20
1806.0
 30
0.0
 11
-1700.0
 21
1801.0
 31
0.0
  0
LINE
  5
135B4
330
1A
100
AcDbEntity
  8
ZISSEN1
100
AcDbLine
 10
-1703.0
 20
1750.0
 30
0.0
 11
-1700.0
 21
1750.0
 31
0.0
  0
LINE
  5
135B5
330
1A
100
AcDbEntity
  8
ZISSEN1
100
AcDbLine
 10
-1659.3
 20
1750.5
 30
0.0
 11
-1659.3
 21
1750.0
 31
0.0
  0
LINE
  5
135B7
330
1A
100
AcDbEntity
  8
ZISSEN1
100
AcDbLine
 10
-1669.6
 20
1801.0
 30
0.0
 11
-1669.6
 21
1793.4
 31
0.0
  0
LINE
  5
135B8
330
1A
100
AcDbEntity
  8
ZISSEN1
100
AcDbLine
 10
-1657.32
 20
1801.0
 30
0.0
 11
-1657.32
 21
1796.0
 31
0.0
  0
LINE
  5
135B9
330
1A
100
AcDbEntity
  8
ZISSEN1
100
AcDbLine
 10
-1657.32
 20
1796.0
 30
0.0
 11
-1661.819999999999
 21
1796.0
 31
0.0
  0
LINE
  5
135BA
330
1A
100
AcDbEntity
  8
ZISSEN1
100
AcDbLine
 10
-1661.819999999999
 20
1796.0
 30
0.0
 11
-1661.819999999999
 21
1801.0
 31
0.0
  0
LINE
  5
135BB
330
1A
100
AcDbEntity
  8
ZISSEN1
100
AcDbLine
 10
-1661.819999999999
 20
1801.0
 30
0.0
 11
-1657.32
 21
1801.0
 31
0.0
  0
LINE
  5
135C0
330
1A
100
AcDbEntity
  8
ZISSEN1
100
AcDbLine
 10
-1647.5
 20
1756.0
 30
0.0
 11
-1647.5
 21
1750.499999999999
 31
0.0
  0
LINE
  5
135C1
330
1A
100
AcDbEntity
  8
ZISSEN1
100
AcDbLine
 10
-1647.4
 20
1762.249999999999
 30
0.0
 11
-1647.4
 21
1771.349999999999
 31
0.0
  0
LINE
  5
135C2
330
1A
100
AcDbEntity
  8
ZISSEN1
100
AcDbLine
 10
-1638.0
 20
1771.25
 30
0.0
 11
-1638.0
 21
1762.15
 31
0.0
  0
LINE
  5
135C4
330
1A
100
AcDbEntity
  8
ZISSEN1
100
AcDbLine
 10
-1638.0
 20
1762.249999999999
 30
0.0
 11
-1647.4
 21
1762.249999999999
 31
0.0
  0
LINE
  5
135C6
330
1A
100
AcDbEntity
  8
ZISSEN1
100
AcDbLine
 10
-1647.4
 20
1771.349999999999
 30
0.0
 11
-1638.0
 21
1771.349999999999
 31
0.0
  0
LINE
  5
135C8
330
1A
100
AcDbEntity
  8
ZISSEN1
100
AcDbLine
 10
-1647.399999999999
 20
1772.9
 30
0.0
 11
-1647.399999999999
 21
1792.5
 31
0.0
  0
LINE
  5
135C9
330
1A
100
AcDbEntity
  8
ZISSEN1
100
AcDbLine
 10
-1647.399999999999
 20
1772.9
 30
0.0
 11
-1638.0
 21
1772.9
 31
0.0
  0
LINE
  5
135CC
330
1A
100
AcDbEntity
  8
ZISSEN1
100
AcDbLine
 10
-1647.399999999999
 20
1792.5
 30
0.0
 11
-1638.0
 21
1792.5
 31
0.0
  0
LINE
  5
135D4
330
1A
100
AcDbEntity
  8
ZISSEN1
100
AcDbLine
 10
-1638.0
 20
1772.895905957013
 30
0.0
 11
-1638.0
 21
1792.495905957014
 31
0.0
  0
LINE
  5
135D6
330
1A
100
AcDbEntity
  8
ZISSEN1
100
AcDbLine
 10
-1637.999999999999
 20
1806.0
 30
0.0
 11
-1638.0
 21
1794.1
 31
0.0
  0
LINE
  5
135D7
330
1A
100
AcDbEntity
  8
ZISSEN1
100
AcDbLine
 10
-1647.899999999999
 20
1794.1
 30
0.0
 11
-1647.899999999999
 21
1772.1
 31
0.0
  0
LINE
  5
135DA
330
1A
100
AcDbEntity
  8
ZISSEN1
100
AcDbLine
 10
-1642.23
 20
1797.7
 30
0.0
 11
-1640.23
 21
1797.7
 31
0.0
  0
LINE
  5
135DC
330
1A
100
AcDbEntity
  8
ZISSEN1
100
AcDbLine
 10
-1642.23
 20
1796.64
 30
0.0
 11
-1640.23
 21
1796.64
 31
0.0
  0
LINE
  5
135DD
330
1A
100
AcDbEntity
  8
ZISSEN1
100
AcDbLine
 10
-1640.23
 20
1795.39
 30
0.0
 11
-1640.529999999999
 21
1795.39
 31
0.0
  0
LINE
  5
135DE
330
1A
100
AcDbEntity
  8
ZISSEN1
100
AcDbLine
 10
-1642.23
 20
1795.39
 30
0.0
 11
-1641.93
 21
1795.39
 31
0.0
  0
LINE
  5
135DF
330
1A
100
AcDbEntity
  8
ZISSEN1
100
AcDbLine
 10
-1642.23
 20
1796.64
 30
0.0
 11
-1642.23
 21
1795.39
 31
0.0
  0
LINE
  5
135E0
330
1A
100
AcDbEntity
  8
ZISSEN1
100
AcDbLine
 10
-1640.23
 20
1796.64
 30
0.0
 11
-1642.23
 21
1796.64
 31
0.0
  0
LINE
  5
135E1
330
1A
100
AcDbEntity
  8
ZISSEN1
100
AcDbLine
 10
-1640.23
 20
1795.39
 30
0.0
 11
-1640.23
 21
1796.64
 31
0.0
  0
LINE
  5
135E2
330
1A
100
AcDbEntity
  8
ZISSEN1
100
AcDbLine
 10
-1642.23
 20
1795.39
 30
0.0
 11
-1640.23
 21
1795.39
 31
0.0
  0
LINE
  5
135E3
330
1A
100
AcDbEntity
  8
ZISSEN1
100
AcDbLine
 10
-1638.0
 20
1794.1
 30
0.0
 11
-1647.899999999999
 21
1794.1
 31
0.0
  0
LINE
  5
135E4
330
1A
100
AcDbEntity
  8
ZISSEN1
100
AcDbLine
 10
-1642.23
 20
1798.95
 30
0.0
 11
-1640.23
 21
1798.95
 31
0.0
  0
LINE
  5
135E6
330
1A
100
AcDbEntity
  8
ZISSEN1
100
AcDbLine
 10
-1642.23
 20
1797.7
 30
0.0
 11
-1642.23
 21
1798.95
 31
0.0
  0
LINE
  5
135E7
330
1A
100
AcDbEntity
  8
ZISSEN1
100
AcDbLine
 10
-1642.23
 20
1798.951984928802
 30
0.0
 11
-1642.23
 21
1797.701984928802
 31
0.0
  0
LINE
  5
135E8
330
1A
100
AcDbEntity
  8
ZISSEN1
100
AcDbLine
 10
-1640.23
 20
1797.7
 30
0.0
 11
-1640.23
 21
1798.95
 31
0.0
  0
LINE
  5
135E9
330
1A
100
AcDbEntity
  8
ZISSEN1
100
AcDbLine
 10
-1647.899999999999
 20
1772.1
 30
0.0
 11
-1638.0
 21
1772.1
 31
0.0
  0
ARC
  5
135EA
330
1A
100
AcDbEntity
  8
ZISSEN1
100
AcDbCircle
 10
-1638.0
 20
1806.5
 30
0.0
 40
1.0
100
AcDbArc
 50
180.0
 51
270.0
  0
LINE
  5
135EB
330
1A
100
AcDbEntity
  8
ZISSEN1
100
AcDbLine
 10
-1647.5
 20
1756.0
 30
0.0
 11
-1638.999999999999
 21
1756.0
 31
0.0
  0
ARC
  5
135EC
330
1A
100
AcDbEntity
  8
ZISSEN1
100
AcDbCircle
 10
-1637.999999999999
 20
1756.0
 30
0.0
 40
1.0
100
AcDbArc
 50
90.0
 51
180.0
  0
LINE
  5
135ED
330
1A
100
AcDbEntity
  8
ZISSEN1
100
AcDbLine
 10
-1638.0
 20
1772.095905957013
 30
0.0
 11
-1637.999999999999
 21
1757.0
 31
0.0
  0
ARC
  5
135EE
330
1A
100
AcDbEntity
  8
ZISSEN1
100
AcDbCircle
 10
-1643.002168945866
 20
1753.0
 30
0.0
 40
1.749999999999772
100
AcDbArc
 50
0.0
 51
180.0
  0
LINE
  5
135EF
330
1A
100
AcDbEntity
  8
CL1
100
AcDbLine
 10
-1641.0
 20
1752.0
 30
0.0
 11
-1645.0
 21
1752.0
 31
0.0
  0
LINE
  5
135F1
330
1A
100
AcDbEntity
  8
CL1
100
AcDbLine
 10
-1643.0
 20
1749.0
 30
0.0
 11
-1643.0
 21
1755.0
 31
0.0
  0
LINE
  5
135F2
330
1A
100
AcDbEntity
  8
ZISSEN1
100
AcDbLine
 10
-1644.752168945866
 20
1750.0
 30
0.0
 11
-1644.752168945866
 21
1753.0
 31
0.0
  0
LINE
  5
135F3
330
1A
100
AcDbEntity
  8
ZISSEN1
100
AcDbLine
 10
-1638.0
 20
1751.0
 30
0.0
 11
-1639.0
 21
1750.0
 31
0.0
  0
LINE
  5
135F4
330
1A
100
AcDbEntity
  8
ZISSEN1
100
AcDbLine
 10
-1639.0
 20
1750.0
 30
0.0
 11
-1641.252168945866
 21
1750.0
 31
0.0
  0
LINE
  5
135F5
330
1A
100
AcDbEntity
  8
ZISSEN1
100
AcDbLine
 10
-1638.0
 20
1794.095905957013
 30
0.0
 11
-1638.0
 21
1751.0
 31
0.0
  0
LINE
  5
135F6
330
1A
100
AcDbEntity
  8
ZISSEN1
100
AcDbLine
 10
-1641.252168945866
 20
1750.0
 30
0.0
 11
-1641.252168945866
 21
1753.0
 31
0.0
  0
LINE
  5
135F7
330
1A
100
AcDbEntity
  8
ZISSEN1
100
AcDbLine
 10
-1638.999999999999
 20
1807.0
 30
0.0
 11
-1637.999999999999
 21
1806.0
 31
0.0
  0
LINE
  5
136B2
330
1A
100
AcDbEntity
  8
ZISSEN1
100
AcDbLine
 10
-1589.0
 20
1805.0
 30
0.0
 11
-1588.999999999999
 21
1752.0
 31
0.0
  0
LINE
  5
136B4
330
1A
100
AcDbEntity
  8
ZISSEN1
 48
0.3
100
AcDbLine
 10
-1563.3
 20
1750.499999999999
 30
0.0
 11
-1563.3
 21
1806.5
 31
0.0
  0
LINE
  5
136B5
330
1A
100
AcDbEntity
  8
ZISSEN1
 48
0.3
100
AcDbLine
 10
-1564.9
 20
1750.499999999999
 30
0.0
 11
-1564.9
 21
1806.5
 31
0.0
  0
DIMENSION
  5
136B7
330
1A
100
AcDbEntity
  8
SUNPOU
100
AcDbDimension
  2
*D0
 10
-1560.0
 20
1733.727330832896
 30
0.0
 11
-1574.499999999999
 21
1736.477330832896
 31
0.0
 70
    32
  3
標準スタイル
100
AcDbAlignedDimension
 13
-1588.999999999999
 23
1752.0
 33
0.0
 14
-1560.0
 24
1750.0
 34
0.0
100
AcDbRotatedDimension
1001
ACAD
1000
DSTYLE
1002
{
1070
   340
1005
10
1070
    40
1040
1.0
1002
}
  0
LINE
  5
136BA
330
1A
100
AcDbEntity
  8
ZISSEN1
100
AcDbLine
 10
-1578.75
 20
1750.0
 30
0.0
 11
-1578.75
 21
1753.0
 31
0.0
  0
LINE
  5
136BB
330
1A
100
AcDbEntity
  8
ZISSEN1
100
AcDbLine
 10
-1575.25
 20
1750.0
 30
0.0
 11
-1575.25
 21
1753.0
 31
0.0
  0
LINE
  5
136BC
330
1A
100
AcDbEntity
  8
ZISSEN1
 48
0.3
100
AcDbLine
 10
-1570.9
 20
1750.499999999999
 30
0.0
 11
-1570.9
 21
1772.899999999999
 31
0.0
  0
LINE
  5
136BD
330
1A
100
AcDbEntity
  8
ZISSEN1
100
AcDbLine
 10
-1572.499999999999
 20
1750.499999999999
 30
0.0
 11
-1572.499999999999
 21
1770.399999999999
 31
0.0
  0
LINE
  5
136BE
330
1A
100
AcDbEntity
  8
ZISSEN1
 48
0.3
100
AcDbLine
 10
-1572.499999999999
 20
1772.899999999999
 30
0.0
 11
-1572.499999999999
 21
1756.0
 31
0.0
  0
LINE
  5
136BF
330
1A
100
AcDbEntity
  8
ZISSEN1
100
AcDbLine
 10
-1588.999999999999
 20
1771.349999999999
 30
0.0
 11
-1588.999999999999
 21
1762.249999999999
 31
0.0
  0
LINE
  5
136C0
330
1A
100
AcDbEntity
  8
ZISSEN1
100
AcDbLine
 10
-1563.0
 20
1772.399999999999
 30
0.0
 11
-1560.0
 21
1772.399999999999
 31
0.0
  0
LINE
  5
136C1
330
1A
100
AcDbEntity
  8
ZISSEN1
100
AcDbLine
 10
-1572.499999999999
 20
1772.1
 30
0.0
 11
-1570.9
 21
1772.1
 31
0.0
  0
LINE
  5
136C2
330
1A
100
AcDbEntity
  8
ZISSEN1
100
AcDbLine
 10
-1564.9
 20
1771.2
 30
0.0
 11
-1564.9
 21
1772.199999999999
 31
0.0
  0
LINE
  5
136C3
330
1A
100
AcDbEntity
  8
ZISSEN1
100
AcDbLine
 10
-1589.0
 20
1771.349999999999
 30
0.0
 11
-1572.499999999999
 21
1771.349999999999
 31
0.0
  0
LINE
  5
136C4
330
1A
100
AcDbEntity
  8
ZISSEN1
100
AcDbLine
 10
-1564.9
 20
1772.899999999999
 30
0.0
 11
-1581.4
 21
1772.899999999999
 31
0.0
  0
LINE
  5
136C5
330
1A
100
AcDbEntity
  8
ZISSEN1
 48
0.3
100
AcDbLine
 10
-1570.9
 20
1759.0
 30
0.0
 11
-1570.9
 21
1761.5
 31
0.0
  0
LINE
  5
136C6
330
1A
100
AcDbEntity
  8
ZISSEN1
 48
0.3
100
AcDbLine
 10
-1564.9
 20
1761.5
 30
0.0
 11
-1564.9
 21
1756.5
 31
0.0
  0
LINE
  5
136C7
330
1A
100
AcDbEntity
  8
ZISSEN1
100
AcDbLine
 10
-1572.499999999999
 20
1756.25
 30
0.0
 11
-1572.499999999999
 21
1761.75
 31
0.0
  0
LINE
  5
136C8
330
1A
100
AcDbEntity
  8
ZISSEN1
100
AcDbLine
 10
-1572.499999999999
 20
1756.25
 30
0.0
 11
-1572.499999999999
 21
1763.25
 31
0.0
  0
LINE
  5
136C9
330
1A
100
AcDbEntity
  8
ZISSEN1
100
AcDbLine
 10
-1572.499999999999
 20
1756.0
 30
0.0
 11
-1572.499999999999
 21
1763.0
 31
0.0
  0
LINE
  5
136CA
330
1A
100
AcDbEntity
  8
ZISSEN1
100
AcDbLine
 10
-1572.5
 20
1761.38
 30
0.0
 11
-1572.5
 21
1759.38
 31
0.0
  0
LINE
  5
136CB
330
1A
100
AcDbEntity
  8
ZISSEN1
100
AcDbLine
 10
-1572.499999999999
 20
1756.0
 30
0.0
 11
-1572.499999999999
 21
1761.0
 31
0.0
  0
LINE
  5
136CC
330
1A
100
AcDbEntity
  8
ZISSEN1
 48
0.3
100
AcDbLine
 10
-1570.9
 20
1761.5
 30
0.0
 11
-1564.9
 21
1761.5
 31
0.0
  0
LINE
  5
136CE
330
1A
100
AcDbEntity
  8
ZISSEN1
100
AcDbLine
 10
-1572.499999999999
 20
1762.95
 30
0.0
 11
-1572.499999999999
 21
1763.949999999999
 31
0.0
  0
LINE
  5
136CF
330
1A
100
AcDbEntity
  8
ZISSEN1
100
AcDbLine
 10
-1572.499999999999
 20
1762.449999999999
 30
0.0
 11
-1572.499999999999
 21
1763.449999999999
 31
0.0
  0
LINE
  5
136D0
330
1A
100
AcDbEntity
  8
ZISSEN1
100
AcDbLine
 10
-1572.499999999999
 20
1765.8
 30
0.0
 11
-1572.499999999999
 21
1766.8
 31
0.0
  0
LINE
  5
136D1
330
1A
100
AcDbEntity
  8
ZISSEN1
100
AcDbLine
 10
-1572.499999999999
 20
1766.8
 30
0.0
 11
-1572.499999999999
 21
1767.8
 31
0.0
  0
LINE
  5
136D2
330
1A
100
AcDbEntity
  8
ZISSEN1
100
AcDbLine
 10
-1572.499999999999
 20
1769.849999999999
 30
0.0
 11
-1572.499999999999
 21
1768.85
 31
0.0
  0
LINE
  5
136D3
330
1A
100
AcDbEntity
  8
ZISSEN1
100
AcDbLine
 10
-1589.0
 20
1762.249999999999
 30
0.0
 11
-1572.499999999999
 21
1762.249999999999
 31
0.0
  0
ARC
  5
136D4
330
1A
100
AcDbEntity
  8
ZISSEN1
100
AcDbCircle
 10
-1576.999999999999
 20
1753.0
 30
0.0
 40
1.749999999999772
100
AcDbArc
 50
0.0
 51
180.0
  0
LINE
  5
136D6
330
1A
100
AcDbEntity
  8
ZISSEN1
 48
0.3
100
AcDbLine
 10
-1563.3
 20
1756.0
 30
0.0
 11
-1564.9
 21
1756.0
 31
0.0
  0
LINE
  5
136D7
330
1A
100
AcDbEntity
  8
ZISSEN1
 48
0.3
100
AcDbLine
 10
-1564.9
 20
1756.5
 30
0.0
 11
-1570.9
 21
1756.5
 31
0.0
  0
LINE
  5
136D9
330
1A
100
AcDbEntity
  8
ZISSEN1
 48
0.3
100
AcDbLine
 10
-1570.9
 20
1756.5
 30
0.0
 11
-1570.9
 21
1759.0
 31
0.0
  0
LINE
  5
136DA
330
1A
100
AcDbEntity
  8
ZISSEN1
100
AcDbLine
 10
-1564.9
 20
1760.3
 30
0.0
 11
-1564.9
 21
1757.699999999999
 31
0.0
  0
LINE
  5
136DB
330
1A
100
AcDbEntity
  8
ZISSEN1
100
AcDbLine
 10
-1572.499999999999
 20
1756.0
 30
0.0
 11
-1572.499999999999
 21
1760.38
 31
0.0
  0
LINE
  5
136DC
330
1A
100
AcDbEntity
  8
ZISSEN1
100
AcDbLine
 10
-1572.499999999999
 20
1756.0
 30
0.0
 11
-1570.9
 21
1756.0
 31
0.0
  0
LINE
  5
136DD
330
1A
100
AcDbEntity
  8
ZISSEN1
100
AcDbLine
 10
-1572.499999999999
 20
1758.35
 30
0.0
 11
-1572.499999999999
 21
1760.35
 31
0.0
  0
LINE
  5
136E3
330
1A
100
AcDbEntity
  8
ZISSEN1
100
AcDbLine
 10
-1586.999999999999
 20
1750.0
 30
0.0
 11
-1578.75
 21
1750.0
 31
0.0
  0
LINE
  5
136E4
330
1A
100
AcDbEntity
  8
ZISSEN1
 48
0.3
100
AcDbLine
 10
-1572.499999999999
 20
1750.499999999999
 30
0.0
 11
-1570.9
 21
1750.499999999999
 31
0.0
  0
LINE
  5
136E5
330
1A
100
AcDbEntity
  8
ZISSEN1
100
AcDbLine
 10
-1575.25
 20
1750.0
 30
0.0
 11
-1565.0
 21
1750.0
 31
0.0
  0
LINE
  5
136E6
330
1A
100
AcDbEntity
  8
ZISSEN1
100
AcDbLine
 10
-1563.0
 20
1750.0
 30
0.0
 11
-1560.0
 21
1750.0
 31
0.0
  0
LINE
  5
136E7
330
1A
100
AcDbEntity
  8
ZISSEN1
100
AcDbLine
 10
-1565.0
 20
1750.0
 30
0.0
 11
-1564.5
 21
1750.499999999999
 31
0.0
  0
LINE
  5
136E8
330
1A
100
AcDbEntity
  8
ZISSEN1
100
AcDbLine
 10
-1563.0
 20
1751.0
 30
0.0
 11
-1560.0
 21
1751.0
 31
0.0
  0
LINE
  5
136E9
330
1A
100
AcDbEntity
  8
ZISSEN1
 48
0.3
100
AcDbLine
 10
-1563.3
 20
1750.499999999999
 30
0.0
 11
-1564.9
 21
1750.499999999999
 31
0.0
  0
LINE
  5
136EF
330
1A
100
AcDbEntity
  8
ZISSEN1
100
AcDbLine
 10
-1589.0
 20
1770.55
 30
0.0
 11
-1589.0
 21
1763.05
 31
0.0
  0
LINE
  5
136F0
330
1A
100
AcDbEntity
  8
ZISSEN1
100
AcDbLine
 10
-1588.999999999999
 20
1752.0
 30
0.0
 11
-1586.999999999999
 21
1750.0
 31
0.0
  0
DIMENSION
  5
136F5
330
1A
100
AcDbEntity
  8
SUNPOU
100
AcDbDimension
  2
*D1
 10
-1575.249999999999
 20
1814.366933658183
 30
0.0
 11
-1564.749999999999
 21
1817.116933658183
 31
0.0
 70
    32
  3
標準スタイル
100
AcDbAlignedDimension
 13
-1578.749999999999
 23
1807.0
 33
0.0
 14
-1575.249999999999
 24
1807.0
 34
0.0
100
AcDbRotatedDimension
1001
ACAD
1000
DSTYLE
1002
{
1070
   340
1005
10
1070
    40
1040
1.0
1002
}
  0
LINE
  5
136F6
330
1A
100
AcDbEntity
  8
ZISSEN1
100
AcDbLine
 10
-1575.0
 20
1793.9
 30
0.0
 11
-1572.5
 21
1793.9
 31
0.0
  0
LINE
  5
136F7
330
1A
100
AcDbEntity
  8
ZISSEN1
100
AcDbLine
 10
-1575.0
 20
1792.5
 30
0.0
 11
-1575.0
 21
1793.9
 31
0.0
  0
LINE
  5
136F8
330
1A
100
AcDbEntity
  8
ZISSEN1
100
AcDbLine
 10
-1575.0
 20
1801.0
 30
0.0
 11
-1573.604108121883
 21
1801.0
 31
0.0
  0
LINE
  5
136F9
330
1A
100
AcDbEntity
  8
ZISSEN1
100
AcDbLine
 10
-1575.0
 20
1794.4
 30
0.0
 11
-1575.0
 21
1801.0
 31
0.0
  0
LINE
  5
136FA
330
1A
100
AcDbEntity
  8
ZISSEN1
100
AcDbLine
 10
-1572.5
 20
1794.4
 30
0.0
 11
-1575.0
 21
1794.4
 31
0.0
  0
LINE
  5
136FC
330
1A
100
AcDbEntity
  8
ZISSEN1
100
AcDbLine
 10
-1581.4
 20
1792.5
 30
0.0
 11
-1581.4
 21
1772.899999999999
 31
0.0
  0
LINE
  5
136FD
330
1A
100
AcDbEntity
  8
ZISSEN1
100
AcDbLine
 10
-1578.749999999999
 20
1807.0
 30
0.0
 11
-1587.0
 21
1807.0
 31
0.0
  0
LINE
  5
136FF
330
1A
100
AcDbEntity
  8
ZISSEN1
 48
0.3
100
AcDbLine
 10
-1572.499999999999
 20
1801.0
 30
0.0
 11
-1572.5
 21
1792.5
 31
0.0
  0
LINE
  5
13701
330
1A
100
AcDbEntity
  8
ZISSEN1
 48
0.3
100
AcDbLine
 10
-1570.9
 20
1792.5
 30
0.0
 11
-1570.9
 21
1801.0
 31
0.0
  0
LINE
  5
13702
330
1A
100
AcDbEntity
  8
ZISSEN1
100
AcDbLine
 10
-1570.9
 20
1801.0
 30
0.0
 11
-1570.9
 21
1794.0
 31
0.0
  0
LINE
  5
13703
330
1A
100
AcDbEntity
  8
ZISSEN1
100
AcDbLine
 10
-1572.499999999999
 20
1800.75
 30
0.0
 11
-1572.5
 21
1794.0
 31
0.0
  0
LINE
  5
13704
330
1A
100
AcDbEntity
  8
ZISSEN1
 48
0.3
100
AcDbLine
 10
-1570.9
 20
1798.0
 30
0.0
 11
-1570.9
 21
1800.499999999999
 31
0.0
  0
LINE
  5
13705
330
1A
100
AcDbEntity
  8
ZISSEN1
100
AcDbLine
 10
-1572.499999999999
 20
1795.25
 30
0.0
 11
-1572.499999999999
 21
1800.75
 31
0.0
  0
LINE
  5
13706
330
1A
100
AcDbEntity
  8
ZISSEN1
100
AcDbLine
 10
-1564.9
 20
1799.3
 30
0.0
 11
-1564.9
 21
1796.699999999999
 31
0.0
  0
LINE
  5
13707
330
1A
100
AcDbEntity
  8
ZISSEN1
 48
0.3
100
AcDbLine
 10
-1570.9
 20
1801.0
 30
0.0
 11
-1564.9
 21
1801.0
 31
0.0
  0
LINE
  5
13709
330
1A
100
AcDbEntity
  8
ZISSEN1
 48
0.3
100
AcDbLine
 10
-1570.9
 20
1806.5
 30
0.0
 11
-1572.499999999999
 21
1806.5
 31
0.0
  0
LINE
  5
1370A
330
1A
100
AcDbEntity
  8
ZISSEN1
 48
0.3
100
AcDbLine
 10
-1570.9
 20
1806.0
 30
0.0
 11
-1564.9
 21
1806.0
 31
0.0
  0
LINE
  5
1370B
330
1A
100
AcDbEntity
  8
ZISSEN1
 48
0.3
100
AcDbLine
 10
-1570.9
 20
1803.5
 30
0.0
 11
-1570.9
 21
1806.0
 31
0.0
  0
LINE
  5
1370C
330
1A
100
AcDbEntity
  8
ZISSEN1
 48
0.3
100
AcDbLine
 10
-1564.9
 20
1806.5
 30
0.0
 11
-1563.3
 21
1806.5
 31
0.0
  0
LINE
  5
1370D
330
1A
100
AcDbEntity
  8
ZISSEN1
 48
0.3
100
AcDbLine
 10
-1563.3
 20
1806.5
 30
0.0
 11
-1563.0
 21
1806.5
 31
0.0
  0
LINE
  5
1370E
330
1A
100
AcDbEntity
  8
ZISSEN1
100
AcDbLine
 10
-1564.9
 20
1804.8
 30
0.0
 11
-1564.9
 21
1802.2
 31
0.0
  0
LINE
  5
1370F
330
1A
100
AcDbEntity
  8
ZISSEN1
100
AcDbLine
 10
-1572.499999999999
 20
1800.75
 30
0.0
 11
-1572.499999999999
 21
1806.25
 31
0.0
  0
LINE
  5
13710
330
1A
100
AcDbEntity
  8
ZISSEN1
 48
0.3
100
AcDbLine
 10
-1570.9
 20
1803.5
 30
0.0
 11
-1570.9
 21
1801.0
 31
0.0
  0
LINE
  5
13711
330
1A
100
AcDbEntity
  8
ZISSEN1
100
AcDbLine
 10
-1572.499999999999
 20
1806.25
 30
0.0
 11
-1572.5
 21
1799.5
 31
0.0
  0
LINE
  5
13712
330
1A
100
AcDbEntity
  8
ZISSEN1
100
AcDbLine
 10
-1570.9
 20
1806.5
 30
0.0
 11
-1570.9
 21
1799.5
 31
0.0
  0
LINE
  5
13713
330
1A
100
AcDbEntity
  8
ZISSEN1
 48
0.3
100
AcDbLine
 10
-1570.9
 20
1799.5
 30
0.0
 11
-1570.9
 21
1806.5
 31
0.0
  0
LINE
  5
13714
330
1A
100
AcDbEntity
  8
ZISSEN1
 48
0.3
100
AcDbLine
 10
-1572.499999999999
 20
1806.5
 30
0.0
 11
-1572.499999999999
 21
1799.5
 31
0.0
  0
LINE
  5
13715
330
1A
100
AcDbEntity
  8
ZISSEN1
100
AcDbLine
 10
-1572.499999999999
 20
1801.0
 30
0.0
 11
-1584.0
 21
1801.0
 31
0.0
  0
ARC
  5
13716
330
1A
100
AcDbEntity
  8
ZISSEN1
100
AcDbCircle
 10
-1576.999999999999
 20
1804.0
 30
0.0
 40
1.749999999999772
100
AcDbArc
 50
180.0
 51
0.0
  0
LINE
  5
13718
330
1A
100
AcDbEntity
  8
ZISSEN1
100
AcDbLine
 10
-1584.0
 20
1801.0
 30
0.0
 11
-1584.0
 21
1793.4
 31
0.0
  0
LINE
  5
13719
330
1A
100
AcDbEntity
  8
ZISSEN1
 48
0.3
100
AcDbLine
 10
-1570.9
 20
1800.499999999999
 30
0.0
 11
-1564.9
 21
1800.499999999999
 31
0.0
  0
LINE
  5
1371B
330
1A
100
AcDbEntity
  8
ZISSEN1
100
AcDbLine
 10
-1563.0
 20
1806.0
 30
0.0
 11
-1560.0
 21
1806.0
 31
0.0
  0
LINE
  5
1371C
330
1A
100
AcDbEntity
  8
ZISSEN1
100
AcDbLine
 10
-1575.249999999999
 20
1807.0
 30
0.0
 11
-1565.0
 21
1807.0
 31
0.0
  0
LINE
  5
1371D
330
1A
100
AcDbEntity
  8
ZISSEN1
100
AcDbLine
 10
-1563.0
 20
1807.0
 30
0.0
 11
-1560.0
 21
1807.0
 31
0.0
  0
LINE
  5
1371E
330
1A
100
AcDbEntity
  8
ZISSEN1
100
AcDbLine
 10
-1578.749999999999
 20
1807.0
 30
0.0
 11
-1578.749999999999
 21
1804.0
 31
0.0
  0
LINE
  5
1371F
330
1A
100
AcDbEntity
  8
ZISSEN1
100
AcDbLine
 10
-1563.0
 20
1750.0
 30
0.0
 11
-1563.0
 21
1807.0
 31
0.0
  0
LINE
  5
13720
330
1A
100
AcDbEntity
  8
ZISSEN1
100
AcDbLine
 10
-1560.0
 20
1750.0
 30
0.0
 11
-1560.0
 21
1807.0
 31
0.0
  0
LINE
  5
13721
330
1A
100
AcDbEntity
  8
ZISSEN1
100
AcDbLine
 10
-1575.249999999999
 20
1807.0
 30
0.0
 11
-1575.249999999999
 21
1804.0
 31
0.0
  0
LINE
  5
13722
330
1A
100
AcDbEntity
  8
ZISSEN1
100
AcDbLine
 10
-1565.0
 20
1807.0
 30
0.0
 11
-1564.499999999999
 21
1806.5
 31
0.0
  0
LINE
  5
13723
330
1A
100
AcDbEntity
  8
ZISSEN1
 48
0.3
100
AcDbLine
 10
-1570.9
 20
1798.0
 30
0.0
 11
-1570.9
 21
1795.5
 31
0.0
  0
LINE
  5
13724
330
1A
100
AcDbEntity
  8
ZISSEN1
 48
0.3
100
AcDbLine
 10
-1570.9
 20
1795.5
 30
0.0
 11
-1564.9
 21
1795.5
 31
0.0
  0
LINE
  5
13725
330
1A
100
AcDbEntity
  8
ZISSEN1
100
AcDbLine
 10
-1584.0
 20
1793.4
 30
0.0
 11
-1575.0
 21
1793.4
 31
0.0
  0
LINE
  5
13726
330
1A
100
AcDbEntity
  8
ZISSEN1
100
AcDbLine
 10
-1572.499999999999
 20
1794.1
 30
0.0
 11
-1570.9
 21
1794.1
 31
0.0
  0
LINE
  5
13727
330
1A
100
AcDbEntity
  8
ZISSEN1
100
AcDbLine
 10
-1560.0
 20
1793.0
 30
0.0
 11
-1563.0
 21
1793.0
 31
0.0
  0
LINE
  5
13728
330
1A
100
AcDbEntity
  8
ZISSEN1
100
AcDbLine
 10
-1564.9
 20
1792.5
 30
0.0
 11
-1581.4
 21
1792.5
 31
0.0
  0
LINE
  5
13729
330
1A
100
AcDbEntity
  8
ZISSEN1
100
AcDbLine
 10
-1564.9
 20
1786.1
 30
0.0
 11
-1564.9
 21
1785.099999999999
 31
0.0
  0
LINE
  5
13731
330
1A
100
AcDbEntity
  8
ZISSEN1
100
AcDbLine
 10
-1587.0
 20
1807.0
 30
0.0
 11
-1589.0
 21
1805.0
 31
0.0
  0
DIMENSION
  5
13792
330
1A
100
AcDbEntity
  8
SUNPOU
100
AcDbDimension
  2
*D2
 10
-1623.998228857368
 20
1752.0
 30
0.0
 11
-1626.748228857368
 21
1778.499999999999
 31
0.0
 70
    32
  3
標準スタイル
100
AcDbAlignedDimension
 13
-1695.0
 23
1805.0
 33
0.0
 14
-1643.0
 24
1752.0
 34
0.0
 50
90.0
100
AcDbRotatedDimension
1001
ACAD
1000
DSTYLE
1002
{
1070
   340
1005
10
1070
    40
1040
1.0
1002
}
  0
DIMENSION
  5
137AC
330
1A
100
AcDbEntity
  8
SUNPOU
100
AcDbDimension
  2
*D3
 10
-1623.998228857366
 20
1750.0
 30
0.0
 11
-1623.998228857367
 21
1741.833333333333
 31
0.0
 70
   160
  3
標準スタイル
100
AcDbAlignedDimension
 13
-1643.0
 23
1752.0
 33
0.0
 14
-1639.0
 24
1750.0
 34
0.0
 50
90.0
100
AcDbRotatedDimension
1001
ACAD
1000
DSTYLE
1002
{
1070
   340
1005
10
1070
   172
1070
     1
1070
   140
1040
3.5
1070
   279
1070
     0
1070
    40
1040
1.0
1002
}
  0
DIMENSION
  5
1389C
330
1A
100
AcDbEntity
  8
SUNPOU
100
AcDbDimension
  2
*D4
 10
-1695.0
 20
1741.214134335036
 30
0.0
 11
-1699.0
 21
1743.964134335036
 31
0.0
 70
    32
  3
標準スタイル
100
AcDbAlignedDimension
 13
-1703.0
 23
1750.0
 33
0.0
 14
-1695.0
 24
1805.0
 34
0.0
100
AcDbRotatedDimension
1001
ACAD
1000
DSTYLE
1002
{
1070
   340
1005
10
1070
    40
1040
1.0
1002
}
  0
DIMENSION
  5
138AB
330
1A
100
AcDbEntity
  8
SUNPOU
100
AcDbDimension
  2
*D5
 10
-1643.0
 20
1741.214134335036
 30
0.0
 11
-1669.0
 21
1743.964134335036
 31
0.0
 70
    32
  3
標準スタイル
100
AcDbAlignedDimension
 13
-1695.0
 23
1805.0
 33
0.0
 14
-1643.0
 24
1752.0
 34
0.0
100
AcDbRotatedDimension
1001
ACAD
1000
DSTYLE
1002
{
1070
   287
1070
     4
1070
   340
1005
10
1070
    40
1040
1.0
1070
   279
1070
     1
1002
}
  0
DIMENSION
  5
138B8
330
1A
100
AcDbEntity
  8
SUNPOU
100
AcDbDimension
  2
*D6
 10
-1638.0
 20
1741.214134335036
 30
0.0
 11
-1640.5
 21
1743.964134335036
 31
0.0
 70
    32
  3
標準スタイル
100
AcDbAlignedDimension
 13
-1643.0
 23
1752.0
 33
0.0
 14
-1638.0
 24
1751.0
 34
0.0
100
AcDbRotatedDimension
1001
ACAD
1000
DSTYLE
1002
{
1070
   287
1070
     4
1070
   340
1005
10
1070
    40
1040
1.0
1070
   279
1070
     1
1002
}
  0
DIMENSION
  5
138C7
330
1A
100
AcDbEntity
  8
SUNPOU
100
AcDbDimension
  2
*D7
 10
-1712.53213769882
 20
1750.0
 30
0.0
 11
-1715.28213769882
 21
1778.499999999999
 31
0.0
 70
    32
  3
標準スタイル
100
AcDbAlignedDimension
 13
-1703.0
 23
1807.0
 33
0.0
 14
-1703.0
 24
1750.0
 34
0.0
 50
90.0
100
AcDbRotatedDimension
1001
ACAD
1000
DSTYLE
1002
{
1070
   340
1005
10
1070
    40
1040
1.0
1002
}
  0
DIMENSION
  5
138F2
330
1A
100
AcDbEntity
  8
SUNPOU
100
AcDbDimension
  2
*D8
 10
-1596.306238258979
 20
1805.0
 30
0.0
 11
-1596.306238258979
 21
1805.999999999999
 31
0.0
 70
   160
  3
標準スタイル
100
AcDbAlignedDimension
 13
-1587.0
 23
1807.0
 33
0.0
 14
-1577.0
 24
1805.0
 34
0.0
 50
90.0
100
AcDbRotatedDimension
1001
ACAD
1000
DSTYLE
1002
{
1070
   340
1005
10
1070
    40
1040
1.0
1002
}
  0
DIMENSION
  5
13901
330
1A
100
AcDbEntity
  8
SUNPOU
100
AcDbDimension
  2
*D9
 10
-1596.306238258979
 20
1752.0
 30
0.0
 11
-1599.05623825898
 21
1778.499999999999
 31
0.0
 70
    32
  3
標準スタイル
100
AcDbAlignedDimension
 13
-1577.0
 23
1805.0
 33
0.0
 14
-1577.0
 24
1752.0
 34
0.0
 50
90.0
100
AcDbRotatedDimension
1001
ACAD
1000
DSTYLE
1002
{
1070
   287
1070
     4
1070
   340
1005
10
1070
    40
1040
1.0
1070
   279
1070
     1
1002
}
  0
DIMENSION
  5
1390E
330
1A
100
AcDbEntity
  8
SUNPOU
100
AcDbDimension
  2
*D10
 10
-1596.306238258979
 20
1750.0
 30
0.0
 11
-1596.806238258979
 21
1747.0
 31
0.0
 70
   160
  3
標準スタイル
100
AcDbAlignedDimension
 13
-1577.0
 23
1752.0
 33
0.0
 14
-1586.999999999999
 24
1750.0
 34
0.0
 50
90.0
100
AcDbRotatedDimension
1001
ACAD
1000
DSTYLE
1002
{
1070
   287
1070
     4
1070
   340
1005
10
1070
    40
1040
1.0
1070
   279
1070
     1
1002
}
  0
LINE
  5
13987
330
1A
100
AcDbEntity
  8
ZISSEN1
100
AcDbLine
 10
-1638.0
 20
1695.0
 30
0.0
 11
-1638.0
 21
1678.5
 31
0.0
  0
LINE
  5
13988
330
1A
100
AcDbEntity
  8
ZISSEN1
100
AcDbLine
 10
-1647.4
 20
1678.5
 30
0.0
 11
-1647.399999999999
 21
1695.0
 31
0.0
  0
LINE
  5
13989
330
1A
100
AcDbEntity
  8
ZISSEN1
100
AcDbLine
 10
-1700.0
 20
1695.0
 30
0.0
 11
-1700.0
 21
1669.0
 31
0.0
  0
LINE
  5
1398A
330
1A
100
AcDbEntity
  8
ZISSEN1
100
AcDbLine
 10
-1703.0
 20
1695.0
 30
0.0
 11
-1703.0
 21
1669.0
 31
0.0
  0
LINE
  5
1398B
330
1A
100
AcDbEntity
  8
ZISSEN1
100
AcDbLine
 10
-1691.610000000001
 20
1669.000000000002
 30
0.0
 11
-1638.0
 21
1669.0
 31
0.0
  0
LINE
  5
1398C
330
1A
100
AcDbEntity
  8
ZISSEN1
100
AcDbLine
 10
-1700.0
 20
1666.0
 30
0.0
 11
-1638.0
 21
1666.0
 31
0.0
  0
LINE
  5
1398E
330
1A
100
AcDbEntity
  8
ZISSEN1
100
AcDbLine
 10
-1699.0
 20
1670.899999999999
 30
0.0
 11
-1638.0
 21
1670.899999999999
 31
0.0
  0
LINE
  5
1398F
330
1A
100
AcDbEntity
  8
ZISSEN1
100
AcDbLine
 10
-1658.5
 20
1669.299999999999
 30
0.0
 11
-1699.2
 21
1669.299999999999
 31
0.0
  0
LINE
  5
13990
330
1A
100
AcDbEntity
  8
ZISSEN1
100
AcDbLine
 10
-1703.0
 20
1671.0
 30
0.0
 11
-1700.0
 21
1671.0
 31
0.0
  0
ARC
  5
13991
330
1A
100
AcDbEntity
  8
ZISSEN1
100
AcDbCircle
 10
-1700.0
 20
1669.0
 30
0.0
 40
3.0
100
AcDbArc
 50
180.0
 51
270.0
  0
LINE
  5
13992
330
1A
100
AcDbEntity
  8
ZISSEN1
100
AcDbLine
 10
-1703.0
 20
1669.0
 30
0.0
 11
-1700.0
 21
1669.0
 31
0.0
  0
LINE
  5
13993
330
1A
100
AcDbEntity
  8
ZISSEN1
100
AcDbLine
 10
-1700.0
 20
1693.0
 30
0.0
 11
-1703.0
 21
1693.0
 31
0.0
  0
LWPOLYLINE
  5
13994
330
1A
100
AcDbEntity
  8
ZISSEN1
100
AcDbPolyline
 90
        4
 70
     1
 43
0.0
 10
-1700.0
 20
1684.75
 10
-1700.0
 20
1681.25
 10
-1703.0
 20
1681.25
 10
-1703.0
 20
1684.75
  0
LINE
  5
13995
330
1A
100
AcDbEntity
  8
ZISSEN1
100
AcDbLine
 10
-1699.0
 20
1669.299999999999
 30
0.0
 11
-1699.0
 21
1670.899999999999
 31
0.0
  0
LINE
  5
13996
330
1A
100
AcDbEntity
  8
ZISSEN1
100
AcDbLine
 10
-1699.2
 20
1669.0
 30
0.0
 11
-1691.610000000001
 21
1669.000000000002
 31
0.0
  0
LINE
  5
13997
330
1A
100
AcDbEntity
  8
ZISSEN1
100
AcDbLine
 10
-1699.2
 20
1669.299999999999
 30
0.0
 11
-1699.2
 21
1669.0
 31
0.0
  0
LINE
  5
13998
330
1A
100
AcDbEntity
  8
ZISSEN1
100
AcDbLine
 10
-1699.2
 20
1669.0
 30
0.0
 11
-1700.0
 21
1669.0
 31
0.0
  0
LINE
  5
13999
330
1A
100
AcDbEntity
  8
ZISSEN1
100
AcDbLine
 10
-1669.599999999999
 20
1690.0
 30
0.0
 11
-1669.599999999999
 21
1678.5
 31
0.0
  0
LINE
  5
1399A
330
1A
100
AcDbEntity
  8
ZISSEN1
100
AcDbLine
 10
-1692.0
 20
1690.0
 30
0.0
 11
-1692.0
 21
1678.5
 31
0.0
  0
LINE
  5
1399B
330
1A
100
AcDbEntity
  8
ZISSEN1
100
AcDbLine
 10
-1692.0
 20
1690.0
 30
0.0
 11
-1669.599999999999
 21
1690.0
 31
0.0
  0
LINE
  5
1399C
330
1A
100
AcDbEntity
  8
ZISSEN1
100
AcDbLine
 10
-1700.0
 20
1681.25
 30
0.0
 11
-1700.0
 21
1683.0
 31
0.0
  0
LINE
  5
1399D
330
1A
100
AcDbEntity
  8
ZISSEN1
 48
0.4
100
AcDbLine
 10
-1696.5
 20
1678.5
 30
0.0
 11
-1699.25
 21
1678.5
 31
0.0
  0
LINE
  5
1399E
330
1A
100
AcDbEntity
  8
ZISSEN1
100
AcDbLine
 10
-1699.0
 20
1676.899999999999
 30
0.0
 11
-1699.0
 21
1670.899999999999
 31
0.0
  0
LINE
  5
1399F
330
1A
100
AcDbEntity
  8
ZISSEN1
100
AcDbLine
 10
-1694.0
 20
1676.899999999999
 30
0.0
 11
-1694.0
 21
1670.899999999999
 31
0.0
  0
LINE
  5
139A0
330
1A
100
AcDbEntity
  8
ZISSEN1
100
AcDbLine
 10
-1658.5
 20
1669.299999999999
 30
0.0
 11
-1638.0
 21
1669.299999999999
 31
0.0
  0
LINE
  5
139A1
330
1A
100
AcDbEntity
  8
ZISSEN1
100
AcDbLine
 10
-1638.0
 20
1669.299999999999
 30
0.0
 11
-1638.0
 21
1670.899999999999
 31
0.0
  0
LINE
  5
139A2
330
1A
100
AcDbEntity
  8
ZISSEN1
100
AcDbLine
 10
-1647.5
 20
1670.899999999999
 30
0.0
 11
-1647.5
 21
1669.299999999999
 31
0.0
  0
LINE
  5
139A3
330
1A
100
AcDbEntity
  8
ZISSEN1
 48
0.4
100
AcDbLine
 10
-1641.252168945866
 20
1669.0
 30
0.0
 11
-1641.252168945866
 21
1666.0
 31
0.0
  0
LINE
  5
139A4
330
1A
100
AcDbEntity
  8
ZISSEN1
100
AcDbLine
 10
-1638.0
 20
1669.0
 30
0.0
 11
-1638.0
 21
1666.0
 31
0.0
  0
LINE
  5
139A5
330
1A
100
AcDbEntity
  8
ZISSEN1
100
AcDbLine
 10
-1639.0
 20
1669.0
 30
0.0
 11
-1639.0
 21
1666.0
 31
0.0
  0
LINE
  5
139A6
330
1A
100
AcDbEntity
  8
ZISSEN1
100
AcDbLine
 10
-1638.3
 20
1669.299999999999
 30
0.0
 11
-1638.3
 21
1669.0
 31
0.0
  0
LINE
  5
139A7
330
1A
100
AcDbEntity
  8
ZISSEN1
100
AcDbLine
 10
-1659.300000000001
 20
1669.0
 30
0.0
 11
-1659.300000000001
 21
1666.0
 31
0.0
  0
LINE
  5
139A8
330
1A
100
AcDbEntity
  8
ZISSEN1
100
AcDbLine
 10
-1644.752168945866
 20
1669.0
 30
0.0
 11
-1644.752168945866
 21
1666.0
 31
0.0
  0
LINE
  5
139A9
330
1A
100
AcDbEntity
  8
ZISSEN1
100
AcDbLine
 10
-1647.5
 20
1678.5
 30
0.0
 11
-1647.5
 21
1676.899999999999
 31
0.0
  0
LINE
  5
139AA
330
1A
100
AcDbEntity
  8
ZISSEN1
100
AcDbLine
 10
-1647.4
 20
1676.899999999999
 30
0.0
 11
-1647.4
 21
1670.899999999999
 31
0.0
  0
LINE
  5
139AB
330
1A
100
AcDbEntity
  8
ZISSEN1
100
AcDbLine
 10
-1638.5
 20
1676.899999999999
 30
0.0
 11
-1638.5
 21
1670.899999999999
 31
0.0
  0
LINE
  5
139AC
330
1A
100
AcDbEntity
  8
ZISSEN1
100
AcDbLine
 10
-1643.5
 20
1676.899999999999
 30
0.0
 11
-1643.5
 21
1670.899999999999
 31
0.0
  0
LINE
  5
139AD
330
1A
100
AcDbEntity
  8
ZISSEN1
100
AcDbLine
 10
-1700.0
 20
1695.0
 30
0.0
 11
-1703.0
 21
1695.0
 31
0.0
  0
LINE
  5
139AE
330
1A
100
AcDbEntity
  8
ZISSEN1
100
AcDbLine
 10
-1638.0
 20
1695.0
 30
0.0
 11
-1647.399999999999
 21
1695.0
 31
0.0
  0
LINE
  5
139AF
330
1A
100
AcDbEntity
  8
ZISSEN1
100
AcDbLine
 10
-1646.75006791584
 20
1694.998851331913
 30
0.0
 11
-1647.399999999999
 21
1694.998851331913
 31
0.0
  0
DIMENSION
  5
139B0
330
1A
100
AcDbEntity
  8
SUNPOU
100
AcDbDimension
  2
*D11
 10
-1638.0
 20
1657.316511750814
 30
0.0
 11
-1670.5
 21
1660.066511750814
 31
0.0
 70
    32
  3
標準スタイル
100
AcDbAlignedDimension
 13
-1703.0
 23
1669.0
 33
0.0
 14
-1638.0
 24
1666.0
 34
0.0
100
AcDbRotatedDimension
1001
ACAD
1000
DSTYLE
1002
{
1070
   340
1005
10
1070
    40
1040
1.0
1002
}
  0
DIMENSION
  5
139BD
330
1A
100
AcDbEntity
  8
SUNPOU
100
AcDbDimension
  2
*D12
 10
-1700.0
 20
1700.617567150397
 30
0.0
 11
-1691.833333333333
 21
1703.367567150397
 31
0.0
 70
    32
  3
標準スタイル
100
AcDbAlignedDimension
 13
-1703.0
 23
1695.0
 33
0.0
 14
-1700.0
 24
1695.0
 34
0.0
100
AcDbRotatedDimension
1001
ACAD
1000
DSTYLE
1002
{
1070
   340
1005
10
1070
    40
1040
1.0
1002
}
  0
LINE
  5
139D9
330
1A
100
AcDbEntity
  8
ZISSEN1
100
AcDbLine
 10
-1638.0
 20
1676.899999999999
 30
0.0
 11
-1638.0
 21
1678.5
 31
0.0
  0
LINE
  5
139DA
330
1A
100
AcDbEntity
  8
ZISSEN1
100
AcDbLine
 10
-1638.0
 20
1678.5
 30
0.0
 11
-1699.5
 21
1678.5
 31
0.0
  0
LINE
  5
139DB
330
1A
100
AcDbEntity
  8
ZISSEN1
100
AcDbLine
 10
-1699.5
 20
1678.5
 30
0.0
 11
-1699.5
 21
1676.899999999999
 31
0.0
  0
LINE
  5
139DC
330
1A
100
AcDbEntity
  8
ZISSEN1
100
AcDbLine
 10
-1699.5
 20
1676.899999999999
 30
0.0
 11
-1638.0
 21
1676.899999999999
 31
0.0
  0
DIMENSION
  5
13A6E
330
1A
100
AcDbEntity
  8
SUNPOU
100
AcDbDimension
  2
*D13
 10
-1577.0
 20
1742.402508341842
 30
0.0
 11
-1568.5
 21
1742.402508341842
 31
0.0
 70
   160
  3
標準スタイル
100
AcDbAlignedDimension
 13
-1560.0
 23
1750.0
 33
0.0
 14
-1577.0
 24
1752.0
 34
0.0
100
AcDbRotatedDimension
1001
ACAD
1000
DSTYLE
1002
{
1070
   340
1005
10
1070
    40
1040
1.0
1002
}
  0
LINE
  5
13AA4
330
1A
100
AcDbEntity
  8
ZISSEN1
100
AcDbLine
 10
-1654.939999999999
 20
1801.0
 30
0.0
 11
-1654.939999999999
 21
1794.4
 31
0.0
  0
LINE
  5
13AA5
330
1A
100
AcDbEntity
  8
ZISSEN1
100
AcDbLine
 10
-1654.939999999999
 20
1794.4
 30
0.0
 11
-1649.539999999999
 21
1794.4
 31
0.0
  0
LINE
  5
13AA6
330
1A
100
AcDbEntity
  8
ZISSEN1
100
AcDbLine
 10
-1649.539999999999
 20
1794.4
 30
0.0
 11
-1649.539999999999
 21
1801.0
 31
0.0
  0
LINE
  5
13AA7
330
1A
100
AcDbEntity
  8
ZISSEN1
100
AcDbLine
 10
-1649.539999999999
 20
1801.0
 30
0.0
 11
-1654.939999999999
 21
1801.0
 31
0.0
  0
LINE
  5
13AA8
330
1A
100
AcDbEntity
  8
ZISSEN1
100
AcDbLine
 10
-1654.939999999999
 20
1793.9
 30
0.0
 11
-1654.939999999999
 21
1787.3
 31
0.0
  0
LINE
  5
13AA9
330
1A
100
AcDbEntity
  8
ZISSEN1
100
AcDbLine
 10
-1654.939999999999
 20
1787.3
 30
0.0
 11
-1649.539999999999
 21
1787.3
 31
0.0
  0
LINE
  5
13AAA
330
1A
100
AcDbEntity
  8
ZISSEN1
100
AcDbLine
 10
-1649.539999999999
 20
1787.3
 30
0.0
 11
-1649.539999999999
 21
1793.9
 31
0.0
  0
LINE
  5
13AAB
330
1A
100
AcDbEntity
  8
ZISSEN1
100
AcDbLine
 10
-1649.539999999999
 20
1793.9
 30
0.0
 11
-1654.939999999999
 21
1793.9
 31
0.0
  0
DIMENSION
  5
13C00
330
1A
100
AcDbEntity
  8
SUNPOU
100
AcDbDimension
  2
*D14
 10
-1625.545651561172
 20
1666.0
 30
0.0
 11
-1628.295651561173
 21
1680.499999999999
 31
0.0
 70
    32
  3
標準スタイル
100
AcDbAlignedDimension
 13
-1638.0
 23
1695.0
 33
0.0
 14
-1638.0
 24
1666.0
 34
0.0
 50
90.0
100
AcDbRotatedDimension
1001
ACAD
1000
DSTYLE
1002
{
1070
   340
1005
10
1070
    40
1040
1.0
1002
}
  0
LINE
  5
13C3F
330
1A
100
AcDbEntity
  8
ZISSEN1
100
AcDbLine
 10
-1654.934443351006
 20
1681.000000391056
 30
0.0
 11
-1649.539999999999
 21
1681.000000391056
 31
0.0
  0
LINE
  5
13C40
330
1A
100
AcDbEntity
  8
ZISSEN1
100
AcDbLine
 10
-1654.934443011512
 20
1681.000000391056
 30
0.0
 11
-1654.934443011512
 21
1678.500000327575
 31
0.0
  0
LINE
  5
13C41
330
1A
100
AcDbEntity
  8
ZISSEN1
100
AcDbLine
 10
-1656.620000737523
 20
1680.950000327574
 30
0.0
 11
-1656.620000737523
 21
1678.500000327575
 31
0.0
  0
LINE
  5
13C42
330
1A
100
AcDbEntity
  8
ZISSEN1
100
AcDbLine
 10
-1661.820000398029
 20
1680.950000391056
 30
0.0
 11
-1656.620000737523
 21
1680.950000327574
 31
0.0
  0
LINE
  5
13C43
330
1A
100
AcDbEntity
  8
ZISSEN1
100
AcDbLine
 10
-1661.820000398029
 20
1680.950000391056
 30
0.0
 11
-1661.820000398029
 21
1678.500000391056
 31
0.0
  0
LINE
  5
13C44
330
1A
100
AcDbEntity
  8
ZISSEN1
100
AcDbLine
 10
-1649.539999999999
 20
1681.000000391056
 30
0.0
 11
-1649.539999999999
 21
1678.5
 31
0.0
  0
LINE
  5
13CCD
330
1A
100
AcDbEntity
  8
CL1
100
AcDbLine
 10
-1704.262181040689
 20
1683.0
 30
0.0
 11
-1698.697193943348
 21
1683.0
 31
0.0
  0
LINE
  5
13CD0
330
1A
100
AcDbEntity
  8
CL1
100
AcDbLine
 10
-1643.0
 20
1664.888897470185
 30
0.0
 11
-1643.0
 21
1670.248151362047
 31
0.0
  0
VIEWPORT
  5
5D8F
330
5D8E
100
AcDbEntity
 67
     1
  8
0
100
AcDbViewport
 10
249.3231834503399
 20
161.3724110111243
 30
0.0
 40
620.5186700647165
 41
304.0665339339079
 68
     1
 69
     1
1001
ACAD
1000
MVIEW
1002
{
1070
    16
1010
0.0
1020
0.0
1030
0.0
1010
0.0
1020
0.0
1030
1.0
1040
0.0
1040
304.0665339339079
1040
249.3231834503399
1040
161.3724110111243
1040
50.0
1040
0.0
1040
0.0
1070
     0
1070
   100
1070
     1
1070
     0
1070
     0
1070
     0
1070
     0
1070
     0
1040
0.0
1040
0.0
1040
0.0
1040
1.0
1040
1.0
1040
10.0
1040
10.0
1070
     0
1002
{
1002
}
1002
}
  0
VIEWPORT
  5
6001
330
5D8E
100
AcDbEntity
 67
     1
  8
ZISSEN1
100
AcDbViewport
 10
221.786195552541
 20
157.6960273330388
 30
0.0
 40
385.4999999999997
 41
259.9999999999999
 68
     2
 69
     2
1001
ACAD
1000
MVIEW
1002
{
1070
    16
1010
0.0
1020
0.0
1030
0.0
1010
0.0
1020
0.0
1030
1.0
1040
0.0
1040
259.9999999999999
1040
-1606.242628316909
1040
1744.298871305532
1040
50.0
1040
0.0
1040
0.0
1070
     0
1070
   100
1070
     1
1070
     0
1070
     0
1070
     0
1070
     0
1070
     0
1040
0.0
1040
0.0
1040
0.0
1040
1.0
1040
1.0
1040
10.0
1040
10.0
1070
     0
1002
{
1002
}
1002
}
  0
TEXT
  5
12C0E
330
5D8E
100
AcDbEntity
 67
     1
  8
SUNPOU
 62
     0
100
AcDbText
 10
290.5039362607401
 20
66.16618469264903
 30
0.0
 40
3.5
  1
縮尺 1/1
  7
ゴシック体
100
AcDbText
  0
ENDSEC
  0
SECTION
  2
OBJECTS
  0
DICTIONARY
  5
C
330
0
100
AcDbDictionary
  3
ACAD_GROUP
350
D
  3
ACAD_LAYOUT
350
5C7D
  3
ACAD_MLINESTYLE
350
E
  3
ACAD_PLOTSETTINGS
350
5C7E
  3
ACAD_PLOTSTYLENAME
350
5C7B
  3
ACDBVARIABLEDICTIONARY
350
12CBC
  3
DWGPROPS
350
13DD8
  3
ACDBHEADERROUNDTRIPXREC
350
13DD9
  0
DICTIONARY
  5
12CF1
330
1A
100
AcDbDictionary
280
     1
  3
ACAD_LAYOUTSELFREF
360
13DF9
  0
DICTIONARY
  5
12CF3
330
5D8E
100
AcDbDictionary
280
     1
  3
ACAD_LAYOUTSELFREF
360
13DFA
  0
DICTIONARY
  5
D
102
{ACAD_REACTORS
330
C
102
}
330
C
100
AcDbDictionary
  3
*A1
350
477D
  3
*A2
350
4C14
  3
*A3
350
4C15
  3
*A4
350
4C16
  3
*A5
350
4C17
  3
*A6
350
477E
  3
*A7
350
477F
  3
*A8
350
4780
  3
*A9
350
4781
  3
*A10
350
4C0E
  3
*A11
350
4C0F
  3
*A12
350
4C10
  3
*A13
350
4C11
  3
*A14
350
4C12
  3
*A15
350
4C13
  0
DICTIONARY
  5
5C7D
102
{ACAD_REACTORS
330
C
102
}
330
C
100
AcDbDictionary
  0
DICTIONARY
  5
E
102
{ACAD_REACTORS
330
C
102
}
330
C
100
AcDbDictionary
  3
STANDARD
350
13
  0
DICTIONARY
  5
5C7E
102
{ACAD_REACTORS
330
C
102
}
330
C
100
AcDbDictionary
  0
ACDBDICTIONARYWDFLT
  5
5C7B
102
{ACAD_REACTORS
330
C
102
}
330
C
100
AcDbDictionary
281
     1
  3
Normal
350
5C7C
100
AcDbDictionaryWithDefault
340
5C7C
  0
DICTIONARY
  5
12CBC
102
{ACAD_REACTORS
330
C
102
}
330
C
100
AcDbDictionary
  3
INDEXCTL
350
12CBD
  0
XRECORD
  5
13DD8
102
{ACAD_REACTORS
330
C
102
}
330
C
100
AcDbXrecord
  1
DWGPROPS COOKIE
  2

  3

  4

  6

  7

  8

  9

300
=
301
=
302
=
303
=
304
=
305
=
306
=
307
=
308
=
309
=
 40
2.417204004629629
 41
2450495.493631365
 42
2454488.635581088
  1

 90
        0
  0
DICTIONARY
  5
13DD9
102
{ACAD_REACTORS
330
C
102
}
330
C
100
AcDbDictionary
  3
TSTACKALIGN
350
13DDA
  3
TSTACKSIZE
350
13DDB
  3
HYPERLINKBASE
350
13DDC
  3
STYLESHEET
350
13DDD
  3
LAYOUTDICT
350
13DDE
  3
PLOTSETDICT
350
13DDF
  3
PLOTSTYLNAMDICT
350
13DE0
  3
LWETCUNION
350
13DE1
  3
INSUNITS
350
13DE2
  3
CEPSNTYPE
350
13DE3
  3
FINGERPRINTGUID
350
13DE4
  3
VERSIONGUID
350
13DE5
  3
PSVPSCALE
350
13DE6
  3
PUCSORTHOREF
350
13DE7
  3
PUCSORTHOVIEW
350
13DE8
  3
PUCSBASE
350
13DE9
  3
PUCSORGTOP
350
13DEA
  3
PUCSORGBOTTOM
350
13DEB
  3
PUCSORGLEFT
350
13DEC
  3
PUCSORGRIGHT
350
13DED
  3
PUCSORGFRONT
350
13DEE
  3
PUCSORGBACK
350
13DEF
  3
UCSORTHOREF
350
13DF0
  3
UCSORTHOVIEW
350
13DF1
  3
UCSBASE
350
13DF2
  3
UCSORGTOP
350
13DF3
  3
UCSORGBOTTOM
350
13DF4
  3
UCSORGLEFT
350
13DF5
  3
UCSORGRIGHT
350
13DF6
  3
UCSORGFRONT
350
13DF7
  3
UCSORGBACK
350
13DF8
  0
XRECORD
  5
13DF9
102
{ACAD_REACTORS
330
12CF1
102
}
330
12CF1
100
AcDbXrecord
340
1A
  0
XRECORD
  5
13DFA
102
{ACAD_REACTORS
330
12CF3
102
}
330
12CF3
100
AcDbXrecord
340
5D8E
  0
GROUP
  5
477D
102
{ACAD_REACTORS
330
D
102
}
330
D
100
AcDbGroup
300

 70
     1
 71
     1
  0
GROUP
  5
4C14
102
{ACAD_REACTORS
330
D
102
}
330
D
100
AcDbGroup
300

 70
     1
 71
     1
  0
GROUP
  5
4C15
102
{ACAD_REACTORS
330
D
102
}
330
D
100
AcDbGroup
300

 70
     1
 71
     1
  0
GROUP
  5
4C16
102
{ACAD_REACTORS
330
D
102
}
330
D
100
AcDbGroup
300

 70
     1
 71
     1
  0
GROUP
  5
4C17
102
{ACAD_REACTORS
330
D
102
}
330
D
100
AcDbGroup
300

 70
     1
 71
     1
  0
GROUP
  5
477E
102
{ACAD_REACTORS
330
D
102
}
330
D
100
AcDbGroup
300

 70
     1
 71
     1
  0
GROUP
  5
477F
102
{ACAD_REACTORS
330
D
102
}
330
D
100
AcDbGroup
300

 70
     1
 71
     1
  0
GROUP
  5
4780
102
{ACAD_REACTORS
330
D
102
}
330
D
100
AcDbGroup
300

 70
     1
 71
     1
  0
GROUP
  5
4781
102
{ACAD_REACTORS
330
D
102
}
330
D
100
AcDbGroup
300

 70
     1
 71
     1
  0
GROUP
  5
4C0E
102
{ACAD_REACTORS
330
D
102
}
330
D
100
AcDbGroup
300

 70
     1
 71
     1
  0
GROUP
  5
4C0F
102
{ACAD_REACTORS
330
D
102
}
330
D
100
AcDbGroup
300

 70
     1
 71
     1
  0
GROUP
  5
4C10
102
{ACAD_REACTORS
330
D
102
}
330
D
100
AcDbGroup
300

 70
     1
 71
     1
  0
GROUP
  5
4C11
102
{ACAD_REACTORS
330
D
102
}
330
D
100
AcDbGroup
300

 70
     1
 71
     1
  0
GROUP
  5
4C12
102
{ACAD_REACTORS
330
D
102
}
330
D
100
AcDbGroup
300

 70
     1
 71
     1
  0
GROUP
  5
4C13
102
{ACAD_REACTORS
330
D
102
}
330
D
100
AcDbGroup
300

 70
     1
 71
     1
  0
MLINESTYLE
  5
13
102
{ACAD_REACTORS
330
E
102
}
330
E
100
AcDbMlineStyle
  2
STANDARD
 70
     0
  3

 62
     0
 51
90.0
 52
90.0
 71
     2
 49
0.5
 62
   256
  6
BYLAYER
 49
-0.5
 62
   256
  6
BYLAYER
  0
ACDBPLACEHOLDER
  5
5C7C
102
{ACAD_REACTORS
330
5C7B
102
}
330
5C7B
100
AcDbPlaceHolder
280
     0
  0
DICTIONARYVAR
  5
12CBD
102
{ACAD_REACTORS
330
12CBC
102
}
330
12CBC
100
DictionaryVariables
280
     0
  1
-1
  0
XRECORD
  5
13DDA
102
{ACAD_REACTORS
330
13DD9
102
}
330
13DD9
100
AcDbXrecord
 90
        1
  0
XRECORD
  5
13DDB
102
{ACAD_REACTORS
330
13DD9
102
}
330
13DD9
100
AcDbXrecord
 90
       70
  0
XRECORD
  5
13DDC
102
{ACAD_REACTORS
330
13DD9
102
}
330
13DD9
100
AcDbXrecord
  1

  0
XRECORD
  5
13DDD
102
{ACAD_REACTORS
330
13DD9
102
}
330
13DD9
100
AcDbXrecord
  1

  0
XRECORD
  5
13DDE
102
{ACAD_REACTORS
330
13DD9
102
}
330
13DD9
100
AcDbXrecord
340
5C7D
  0
XRECORD
  5
13DDF
102
{ACAD_REACTORS
330
13DD9
102
}
330
13DD9
100
AcDbXrecord
340
5C7E
  0
XRECORD
  5
13DE0
102
{ACAD_REACTORS
330
13DD9
102
}
330
13DD9
100
AcDbXrecord
340
5C7B
  0
XRECORD
  5
13DE1
102
{ACAD_REACTORS
330
13DD9
102
}
330
13DD9
100
AcDbXrecord
 90
    10781
  0
XRECORD
  5
13DE2
102
{ACAD_REACTORS
330
13DD9
102
}
330
13DD9
100
AcDbXrecord
 90
        0
  0
XRECORD
  5
13DE3
102
{ACAD_REACTORS
330
13DD9
102
}
330
13DD9
100
AcDbXrecord
 90
        0
  0
XRECORD
  5
13DE4
102
{ACAD_REACTORS
330
13DD9
102
}
330
13DD9
100
AcDbXrecord
  1
{225A7F0D-DA29-11D8-946A-0000E2416295}
  0
XRECORD
  5
13DE5
102
{ACAD_REACTORS
330
13DD9
102
}
330
13DD9
100
AcDbXrecord
  1
{392FBA2B-B807-4069-B19A-887BBA09F471}
  0
XRECORD
  5
13DE6
102
{ACAD_REACTORS
330
13DD9
102
}
330
13DD9
100
AcDbXrecord
 40
0.0
  0
XRECORD
  5
13DE7
102
{ACAD_REACTORS
330
13DD9
102
}
330
13DD9
100
AcDbXrecord
340
0
  0
XRECORD
  5
13DE8
102
{ACAD_REACTORS
330
13DD9
102
}
330
13DD9
100
AcDbXrecord
 70
     0
  0
XRECORD
  5
13DE9
102
{ACAD_REACTORS
330
13DD9
102
}
330
13DD9
100
AcDbXrecord
340
0
  0
XRECORD
  5
13DEA
102
{ACAD_REACTORS
330
13DD9
102
}
330
13DD9
100
AcDbXrecord
 10
0.0
 20
0.0
 30
0.0
  0
XRECORD
  5
13DEB
102
{ACAD_REACTORS
330
13DD9
102
}
330
13DD9
100
AcDbXrecord
 10
0.0
 20
0.0
 30
0.0
  0
XRECORD
  5
13DEC
102
{ACAD_REACTORS
330
13DD9
102
}
330
13DD9
100
AcDbXrecord
 10
0.0
 20
0.0
 30
0.0
  0
XRECORD
  5
13DED
102
{ACAD_REACTORS
330
13DD9
102
}
330
13DD9
100
AcDbXrecord
 10
0.0
 20
0.0
 30
0.0
  0
XRECORD
  5
13DEE
102
{ACAD_REACTORS
330
13DD9
102
}
330
13DD9
100
AcDbXrecord
 10
0.0
 20
0.0
 30
0.0
  0
XRECORD
  5
13DEF
102
{ACAD_REACTORS
330
13DD9
102
}
330
13DD9
100
AcDbXrecord
 10
0.0
 20
0.0
 30
0.0
  0
XRECORD
  5
13DF0
102
{ACAD_REACTORS
330
13DD9
102
}
330
13DD9
100
AcDbXrecord
340
0
  0
XRECORD
  5
13DF1
102
{ACAD_REACTORS
330
13DD9
102
}
330
13DD9
100
AcDbXrecord
 70
     0
  0
XRECORD
  5
13DF2
102
{ACAD_REACTORS
330
13DD9
102
}
330
13DD9
100
AcDbXrecord
340
0
  0
XRECORD
  5
13DF3
102
{ACAD_REACTORS
330
13DD9
102
}
330
13DD9
100
AcDbXrecord
 10
0.0
 20
0.0
 30
0.0
  0
XRECORD
  5
13DF4
102
{ACAD_REACTORS
330
13DD9
102
}
330
13DD9
100
AcDbXrecord
 10
0.0
 20
0.0
 30
0.0
  0
XRECORD
  5
13DF5
102
{ACAD_REACTORS
330
13DD9
102
}
330
13DD9
100
AcDbXrecord
 10
0.0
 20
0.0
 30
0.0
  0
XRECORD
  5
13DF6
102
{ACAD_REACTORS
330
13DD9
102
}
330
13DD9
100
AcDbXrecord
 10
0.0
 20
0.0
 30
0.0
  0
XRECORD
  5
13DF7
102
{ACAD_REACTORS
330
13DD9
102
}
330
13DD9
100
AcDbXrecord
 10
0.0
 20
0.0
 30
0.0
  0
XRECORD
  5
13DF8
102
{ACAD_REACTORS
330
13DD9
102
}
330
13DD9
100
AcDbXrecord
 10
0.0
 20
0.0
 30
0.0
  0
ENDSEC
  0
EOF
