  0
SECTION
  2
HEADER
  9
$ACADVER
  1
AC1014
  9
$ACADMAINTVER
 70
     9
  9
$DWGCODEPAGE
  3
ANSI_932
  9
$INSBASE
 10
0.0
 20
0.0
 30
0.0
  9
$EXTMIN
 10
-1290.676863784039
 20
1754.280949657875
 30
0.0
  9
$EXTMAX
 10
-1110.197102551196
 20
1933.196076459468
 30
0.0
  9
$LIMMIN
 10
0.0
 20
0.0
  9
$LIMMAX
 10
420.0
 20
297.0
  9
$ORTHOMODE
 70
     1
  9
$REGENMODE
 70
     1
  9
$FILLMODE
 70
     1
  9
$QTEXTMODE
 70
     0
  9
$MIRRTEXT
 70
     1
  9
$DRAGMODE
 70
     2
  9
$LTSCALE
 40
1.0
  9
$OSMODE
 70
    37
  9
$ATTMODE
 70
     1
  9
$TEXTSIZE
 40
2.5
  9
$TRACEWID
 40
1.0
  9
$TEXTSTYLE
  7
ゴシック体
  9
$CLAYER
  8
CL1
  9
$CELTYPE
  6
BYLAYER
  9
$CECOLOR
 62
   256
  9
$CELTSCALE
 40
1.0
  9
$DELOBJ
 70
     1
  9
$DISPSILH
 70
     0
  9
$DIMSCALE
 40
0.0
  9
$DIMASZ
 40
3.0
  9
$DIMEXO
 40
0.5
  9
$DIMDLI
 40
0.5
  9
$DIMRND
 40
0.0
  9
$DIMDLE
 40
0.0
  9
$DIMEXE
 40
0.5
  9
$DIMTP
 40
0.0
  9
$DIMTM
 40
0.0
  9
$DIMTXT
 40
3.5
  9
$DIMCEN
 40
0.0
  9
$DIMTSZ
 40
0.0
  9
$DIMTOL
 70
     0
  9
$DIMLIM
 70
     0
  9
$DIMTIH
 70
     0
  9
$DIMTOH
 70
     0
  9
$DIMSE1
 70
     0
  9
$DIMSE2
 70
     0
  9
$DIMTAD
 70
     1
  9
$DIMZIN
 70
     8
  9
$DIMBLK
  1

  9
$DIMASO
 70
     1
  9
$DIMSHO
 70
     1
  9
$DIMPOST
  1

  9
$DIMAPOST
  1

  9
$DIMALT
 70
     0
  9
$DIMALTD
 70
     2
  9
$DIMALTF
 40
25.4
  9
$DIMLFAC
 40
1.0
  9
$DIMTOFL
 70
     1
  9
$DIMTVP
 40
0.0
  9
$DIMTIX
 70
     0
  9
$DIMSOXD
 70
     0
  9
$DIMSAH
 70
     0
  9
$DIMBLK1
  1

  9
$DIMBLK2
  1

  9
$DIMSTYLE
  2
標準スタイル
  9
$DIMCLRD
 70
     1
  9
$DIMCLRE
 70
     1
  9
$DIMCLRT
 70
     1
  9
$DIMTFAC
 40
1.0
  9
$DIMGAP
 40
1.0
  9
$DIMJUST
 70
     0
  9
$DIMSD1
 70
     0
  9
$DIMSD2
 70
     0
  9
$DIMTOLJ
 70
     1
  9
$DIMTZIN
 70
     8
  9
$DIMALTZ
 70
     0
  9
$DIMALTTZ
 70
     0
  9
$DIMFIT
 70
     3
  9
$DIMUPT
 70
     0
  9
$DIMUNIT
 70
     2
  9
$DIMDEC
 70
     2
  9
$DIMTDEC
 70
     2
  9
$DIMALTU
 70
     2
  9
$DIMALTTD
 70
     2
  9
$DIMTXSTY
  7
ゴシック体
  9
$DIMAUNIT
 70
     0
  9
$LUNITS
 70
     2
  9
$LUPREC
 70
     4
  9
$SKETCHINC
 40
1.0
  9
$FILLETRAD
 40
1.0
  9
$AUNITS
 70
     0
  9
$AUPREC
 70
     0
  9
$MENU
  1
.
  9
$ELEVATION
 40
0.0
  9
$PELEVATION
 40
0.0
  9
$THICKNESS
 40
0.0
  9
$LIMCHECK
 70
     0
  9
$BLIPMODE
 70
     0
  9
$CHAMFERA
 40
1.0
  9
$CHAMFERB
 40
1.0
  9
$CHAMFERC
 40
2.0
  9
$CHAMFERD
 40
0.7853981633974483
  9
$SKPOLY
 70
     0
  9
$TDCREATE
 40
2450495.493631365
  9
$TDUPDATE
 40
2458872.626135903
  9
$TDINDWG
 40
2.7967640625
  9
$TDUSRTIMER
 40
2.7967640625
  9
$USRTIMER
 70
     1
  9
$ANGBASE
 50
0.0
  9
$ANGDIR
 70
     0
  9
$PDMODE
 70
    99
  9
$PDSIZE
 40
0.0
  9
$PLINEWID
 40
0.0
  9
$COORDS
 70
     0
  9
$SPLFRAME
 70
     0
  9
$SPLINETYPE
 70
     6
  9
$SPLINESEGS
 70
     8
  9
$ATTDIA
 70
     0
  9
$ATTREQ
 70
     1
  9
$HANDLING
 70
 10241
  9
$HANDSEED
  5
174F1
  9
$SURFTAB1
 70
     6
  9
$SURFTAB2
 70
     6
  9
$SURFTYPE
 70
     6
  9
$SURFU
 70
     6
  9
$SURFV
 70
     6
  9
$UCSNAME
  2

  9
$UCSORG
 10
0.0
 20
0.0
 30
0.0
  9
$UCSXDIR
 10
1.0
 20
0.0
 30
0.0
  9
$UCSYDIR
 10
0.0
 20
1.0
 30
0.0
  9
$PUCSNAME
  2

  9
$PUCSORG
 10
0.0
 20
0.0
 30
0.0
  9
$PUCSXDIR
 10
1.0
 20
0.0
 30
0.0
  9
$PUCSYDIR
 10
0.0
 20
1.0
 30
0.0
  9
$USERI1
 70
     0
  9
$USERI2
 70
     0
  9
$USERI3
 70
     0
  9
$USERI4
 70
     0
  9
$USERI5
 70
     0
  9
$USERR1
 40
0.0
  9
$USERR2
 40
0.0
  9
$USERR3
 40
0.0
  9
$USERR4
 40
0.0
  9
$USERR5
 40
0.0
  9
$WORLDVIEW
 70
     1
  9
$SHADEDGE
 70
     3
  9
$SHADEDIF
 70
    70
  9
$TILEMODE
 70
     0
  9
$MAXACTVP
 70
    16
  9
$PINSBASE
 10
0.0
 20
0.0
 30
0.0
  9
$PLIMCHECK
 70
     0
  9
$PEXTMIN
 10
29.03619555254135
 20
27.69602733303884
 30
0.0
  9
$PEXTMAX
 10
414.5361955525411
 20
287.6960273330388
 30
0.0
  9
$PLIMMIN
 10
15.15433780389673
 20
13.80781516542163
  9
$PLIMMAX
 10
435.1009930773342
 20
310.8184658001872
  9
$UNITMODE
 70
     0
  9
$VISRETAIN
 70
     0
  9
$PLINEGEN
 70
     0
  9
$PSLTSCALE
 70
     1
  9
$TREEDEPTH
 70
  3020
  9
$PICKSTYLE
 70
     1
  9
$CMLSTYLE
  2
STANDARD
  9
$CMLJUST
 70
     0
  9
$CMLSCALE
 40
1.0
  9
$PROXYGRAPHICS
 70
     1
  9
$MEASUREMENT
 70
     0
  0
ENDSEC
  0
SECTION
  2
CLASSES
  0
CLASS
  1
LWPOLYLINE
  2
AcDbPolyline
  3
AutoCAD 2000
 90
        0
280
     0
281
     1
  0
CLASS
  1
HATCH
  2
AcDbHatch
  3
AutoCAD 2000
 90
        0
280
     0
281
     1
  0
CLASS
  1
ACDBDICTIONARYWDFLT
  2
AcDbDictionaryWithDefault
  3
AutoCAD 2000
 90
        0
280
     0
281
     0
  0
CLASS
  1
ACDBPLACEHOLDER
  2
AcDbPlaceHolder
  3
AutoCAD 2000
 90
        0
280
     0
281
     0
  0
CLASS
  1
LAYOUT
  2
AcDbLayout
  3
AutoCAD 2000
 90
        0
280
     0
281
     0
  0
CLASS
  1
DICTIONARYVAR
  2
AcDbDictionaryVar
  3
AutoCAD 2000
 90
        0
280
     0
281
     0
  0
CLASS
  1
LONG_TRANSACTION
  2
AcDbLongTransaction
  3
AutoCAD 2000
 90
        0
280
     0
281
     0
  0
CLASS
  1
LWPOLYLINE
  2
AcDbPolyline
  3
AutoCAD 2000
 90
        0
280
     0
281
     1
  0
CLASS
  1
HATCH
  2
AcDbHatch
  3
AutoCAD 2000
 90
        0
280
     0
281
     1
  0
CLASS
  1
XRECORD
  2
AcDbXrecord
  3
AutoCAD 2000
 90
        0
280
     0
281
     0
  0
ENDSEC
  0
SECTION
  2
TABLES
  0
TABLE
  2
VPORT
  5
8
330
0
100
AcDbSymbolTable
 70
     3
  0
VPORT
  5
17479
330
8
100
AcDbSymbolTableRecord
100
AcDbViewportTableRecord
  2
*ACTIVE
 70
     0
 10
0.0
 20
0.0
 11
1.0
 21
1.0
 12
-1200.413179738275
 22
1843.727946912357
 13
0.0
 23
0.0
 14
5.0
 24
5.0
 15
0.0
 25
0.0
 16
0.0
 26
0.0
 36
1.0
 17
0.0
 27
0.0
 37
0.0
 40
181.1005954327656
 41
1.778625954198473
 42
50.0
 43
0.0
 44
0.0
 50
0.0
 51
0.0
 71
     0
 72
   100
 73
     1
 74
     0
 75
     0
 76
     0
 77
     0
 78
     0
  0
ENDTAB
  0
TABLE
  2
LTYPE
  5
5
330
0
100
AcDbSymbolTable
 70
     2
  0
LTYPE
  5
14
330
5
100
AcDbSymbolTableRecord
100
AcDbLinetypeTableRecord
  2
BYBLOCK
 70
     0
  3

 72
    65
 73
     0
 40
0.0
  0
LTYPE
  5
15
330
5
100
AcDbSymbolTableRecord
100
AcDbLinetypeTableRecord
  2
BYLAYER
 70
     0
  3

 72
    65
 73
     0
 40
0.0
  0
LTYPE
  5
16
330
5
100
AcDbSymbolTableRecord
100
AcDbLinetypeTableRecord
  2
CONTINUOUS
 70
     0
  3
Solid line
 72
    65
 73
     0
 40
0.0
  0
LTYPE
  5
1956
330
5
100
AcDbSymbolTableRecord
100
AcDbLinetypeTableRecord
  2
CENTERX2
 70
     0
  3
________  __  ________  __  ________  __  _____
 72
    65
 73
     4
 40
4.0
 49
2.5
 74
     0
 49
-0.5
 74
     0
 49
0.5
 74
     0
 49
-0.5
 74
     0
  0
ENDTAB
  0
TABLE
  2
LAYER
  5
2
330
0
100
AcDbSymbolTable
 70
     6
  0
LAYER
  5
F
330
2
100
AcDbSymbolTableRecord
100
AcDbLayerTableRecord
  2
0
 70
     0
 62
     7
  6
CONTINUOUS
  0
LAYER
  5
18F
330
2
100
AcDbSymbolTableRecord
100
AcDbLayerTableRecord
  2
ZISSEN1
 70
     0
 62
     7
  6
CONTINUOUS
  0
LAYER
  5
529
330
2
100
AcDbSymbolTableRecord
100
AcDbLayerTableRecord
  2
SUNPOU
 70
     0
 62
     1
  6
CONTINUOUS
  0
LAYER
  5
195A
330
2
100
AcDbSymbolTableRecord
100
AcDbLayerTableRecord
  2
CL1
 70
     0
 62
   210
  6
CENTERX2
  0
LAYER
  5
3A9B
330
2
100
AcDbSymbolTableRecord
100
AcDbLayerTableRecord
  2
DEFPOINTS
 70
     0
 62
     7
  6
CONTINUOUS
  0
LAYER
  5
16B89
330
2
100
AcDbSymbolTableRecord
100
AcDbLayerTableRecord
  2
_2-4_PARTS
 70
     0
 62
     7
  6
CONTINUOUS
  0
ENDTAB
  0
TABLE
  2
STYLE
  5
3
330
0
100
AcDbSymbolTable
 70
     2
  0
STYLE
  5
10
330
3
100
AcDbSymbolTableRecord
100
AcDbTextStyleTableRecord
  2
STANDARD
 70
     0
 40
0.0
 41
1.0
 50
0.0
 71
     0
 42
3.0
  3
txt
  4
BigFont
  0
STYLE
  5
1960
330
3
100
AcDbSymbolTableRecord
100
AcDbTextStyleTableRecord
  2
ゴシック体
 70
     0
 40
0.0
 41
1.0
 50
0.0
 71
     0
 42
2.5
  3
MS Gothic.ttf
  4

1001
ACAD
1000
MS Gothic
1071
    32817
  0
ENDTAB
  0
TABLE
  2
VIEW
  5
6
330
0
100
AcDbSymbolTable
 70
     0
  0
ENDTAB
  0
TABLE
  2
UCS
  5
7
330
0
100
AcDbSymbolTable
 70
     0
  0
ENDTAB
  0
TABLE
  2
APPID
  5
9
330
0
100
AcDbSymbolTable
 70
     5
  0
APPID
  5
11
330
9
100
AcDbSymbolTableRecord
100
AcDbRegAppTableRecord
  2
ACAD
 70
     0
  0
APPID
  5
4005
330
9
100
AcDbSymbolTableRecord
100
AcDbRegAppTableRecord
  2
CONTENTTABDATA
 70
     0
  0
APPID
  5
4006
330
9
100
AcDbSymbolTableRecord
100
AcDbRegAppTableRecord
  2
CONTENTCURRENTTAB
 70
     0
  0
APPID
  5
477B
330
9
100
AcDbSymbolTableRecord
100
AcDbRegAppTableRecord
  2
CONTENTBLOCKDESCRIPTION
 70
     0
  0
APPID
  5
477C
330
9
100
AcDbSymbolTableRecord
100
AcDbRegAppTableRecord
  2
CONTENTBLOCKICON
 70
     0
  0
ENDTAB
  0
TABLE
  2
DIMSTYLE
  5
A
330
0
100
AcDbSymbolTable
 70
     2
  0
DIMSTYLE
105
1D
330
A
100
AcDbSymbolTableRecord
100
AcDbDimStyleTableRecord
  2
STANDARD
 70
     0
  3

  4

  5

  6

  7

 40
1.0
 41
0.18
 42
0.0625
 43
0.38
 44
0.18
 45
0.0
 46
0.0
 47
0.0
 48
0.0
140
0.18
141
0.09
142
0.0
143
25.4
144
1.0
145
0.0
146
1.0
147
0.09
 71
     0
 72
     0
 73
     1
 74
     1
 75
     0
 76
     0
 77
     0
 78
     0
170
     0
171
     2
172
     0
173
     0
174
     0
175
     0
176
     0
177
     0
178
     0
270
     2
271
     4
272
     4
273
     2
274
     2
340
10
275
     0
280
     0
281
     0
282
     0
283
     1
284
     0
285
     0
286
     0
287
     3
288
     0
  0
DIMSTYLE
105
52E
102
{ACAD_REACTORS
330
1723C
330
1725A
330
1728A
330
172A9
330
172B6
330
172D1
330
172E4
330
17310
330
17297
330
1727B
330
172C3
330
1724B
330
17267
330
172FF
102
}
330
A
100
AcDbSymbolTableRecord
100
AcDbDimStyleTableRecord
  2
標準スタイル
 70
     0
  3

  4

  5

  6

  7

 40
0.0
 41
3.0
 42
0.5
 43
0.5
 44
0.5
 45
0.0
 46
0.0
 47
0.0
 48
0.0
140
3.5
141
0.0
142
0.0
143
25.4
144
1.0
145
0.0
146
1.0
147
1.0
 71
     0
 72
     0
 73
     0
 74
     0
 75
     0
 76
     0
 77
     1
 78
     8
170
     0
171
     2
172
     1
173
     0
174
     0
175
     0
176
     1
177
     1
178
     1
270
     2
271
     2
272
     2
273
     2
274
     2
340
1960
275
     0
280
     0
281
     0
282
     0
283
     1
284
     8
285
     0
286
     0
287
     3
288
     0
  0
ENDTAB
  0
TABLE
  2
BLOCK_RECORD
  5
1
330
0
100
AcDbSymbolTable
 70
    16
  0
BLOCK_RECORD
  5
1A
102
{ACAD_XDICTIONARY
360
1749A
102
}
330
1
100
AcDbSymbolTableRecord
100
AcDbBlockTableRecord
  2
*MODEL_SPACE
  0
BLOCK_RECORD
  5
15176
102
{ACAD_XDICTIONARY
360
1749C
102
}
330
1
100
AcDbSymbolTableRecord
100
AcDbBlockTableRecord
  2
*PAPER_SPACE
  0
BLOCK_RECORD
  5
16B7B
330
1
100
AcDbSymbolTableRecord
100
AcDbBlockTableRecord
  2
-008-51067_C_1_
  0
BLOCK_RECORD
  5
1723D
330
1
100
AcDbSymbolTableRecord
100
AcDbBlockTableRecord
  2
*D1
  0
BLOCK_RECORD
  5
1724C
330
1
100
AcDbSymbolTableRecord
100
AcDbBlockTableRecord
  2
*D2
  0
BLOCK_RECORD
  5
1725B
330
1
100
AcDbSymbolTableRecord
100
AcDbBlockTableRecord
  2
*D3
  0
BLOCK_RECORD
  5
17268
330
1
100
AcDbSymbolTableRecord
100
AcDbBlockTableRecord
  2
*D4
  0
BLOCK_RECORD
  5
1727C
330
1
100
AcDbSymbolTableRecord
100
AcDbBlockTableRecord
  2
*D5
  0
BLOCK_RECORD
  5
1728B
330
1
100
AcDbSymbolTableRecord
100
AcDbBlockTableRecord
  2
*D6
  0
BLOCK_RECORD
  5
17298
330
1
100
AcDbSymbolTableRecord
100
AcDbBlockTableRecord
  2
*D7
  0
BLOCK_RECORD
  5
172AA
330
1
100
AcDbSymbolTableRecord
100
AcDbBlockTableRecord
  2
*D8
  0
BLOCK_RECORD
  5
172B7
330
1
100
AcDbSymbolTableRecord
100
AcDbBlockTableRecord
  2
*D9
  0
BLOCK_RECORD
  5
172C4
330
1
100
AcDbSymbolTableRecord
100
AcDbBlockTableRecord
  2
*D10
  0
BLOCK_RECORD
  5
172D2
330
1
100
AcDbSymbolTableRecord
100
AcDbBlockTableRecord
  2
*D11
  0
BLOCK_RECORD
  5
172E5
330
1
100
AcDbSymbolTableRecord
100
AcDbBlockTableRecord
  2
*D12
  0
BLOCK_RECORD
  5
17300
330
1
100
AcDbSymbolTableRecord
100
AcDbBlockTableRecord
  2
*D13
  0
BLOCK_RECORD
  5
17311
330
1
100
AcDbSymbolTableRecord
100
AcDbBlockTableRecord
  2
*D14
  0
ENDTAB
  0
ENDSEC
  0
SECTION
  2
BLOCKS
  0
BLOCK
  5
1B
330
1A
100
AcDbEntity
  8
0
100
AcDbBlockBegin
  2
*MODEL_SPACE
 70
     0
 10
0.0
 20
0.0
 30
0.0
  3
*MODEL_SPACE
  1

  0
ENDBLK
  5
1C
330
1A
100
AcDbEntity
  8
0
100
AcDbBlockEnd
  0
BLOCK
  5
1517A
330
15176
100
AcDbEntity
 67
     1
  8
0
100
AcDbBlockBegin
  2
*PAPER_SPACE
 70
     0
 10
0.0
 20
0.0
 30
0.0
  3
*PAPER_SPACE
  1

  0
ENDBLK
  5
1517B
330
15176
100
AcDbEntity
 67
     1
  8
0
100
AcDbBlockEnd
  0
BLOCK
  5
16B86
330
16B7B
100
AcDbEntity
  8
0
100
AcDbBlockBegin
  2
-008-51067_C_1_
 70
     0
 10
0.0
 20
0.0
 30
0.0
  3
-008-51067_C_1_
  1

  0
LINE
  5
16B7C
330
16B7B
100
AcDbEntity
  8
_2-4_PARTS
  6
CONTINUOUS
 62
     7
100
AcDbLine
 10
-0.3749999999999431
 20
2.0
 30
0.0
 11
-0.3749999999999431
 21
4.300000000000011
 31
0.0
  0
LINE
  5
16B7D
330
16B7B
100
AcDbEntity
  8
_2-4_PARTS
  6
CONTINUOUS
 62
     7
100
AcDbLine
 10
-0.3749999999999431
 20
4.300000000000011
 30
0.0
 11
0.6250000000000569
 21
4.300000000000011
 31
0.0
  0
LINE
  5
16B7E
330
16B7B
100
AcDbEntity
  8
_2-4_PARTS
  6
CONTINUOUS
 62
     7
100
AcDbLine
 10
0.6250000000000569
 20
4.300000000000011
 30
0.0
 11
0.6250000000000569
 21
3.800000000000011
 31
0.0
  0
LINE
  5
16B7F
330
16B7B
100
AcDbEntity
  8
_2-4_PARTS
  6
CONTINUOUS
 62
     7
100
AcDbLine
 10
0.6250000000000569
 20
-5.099999999999993
 30
0.0
 11
0.6250000000000569
 21
-4.599999999999993
 31
0.0
  0
LINE
  5
16B80
330
16B7B
100
AcDbEntity
  8
_2-4_PARTS
  6
CONTINUOUS
 62
     7
100
AcDbLine
 10
-0.8749999999999429
 20
-5.099999999999993
 30
0.0
 11
0.6250000000000569
 21
-5.099999999999993
 31
0.0
  0
LINE
  5
16B81
330
16B7B
100
AcDbEntity
  8
_2-4_PARTS
  6
CONTINUOUS
 62
     7
100
AcDbLine
 10
-0.8749999999999429
 20
-5.099999999999993
 30
0.0
 11
-0.8749999999999429
 21
2.0
 31
0.0
  0
LINE
  5
16B82
330
16B7B
100
AcDbEntity
  8
_2-4_PARTS
  6
CONTINUOUS
 62
     7
100
AcDbLine
 10
0.6250000000000569
 20
-4.599999999999993
 30
0.0
 11
5.125000000000056
 21
-4.599999999999993
 31
0.0
  0
LINE
  5
16B83
330
16B7B
100
AcDbEntity
  8
_2-4_PARTS
  6
CONTINUOUS
 62
     7
100
AcDbLine
 10
5.125000000000056
 20
2.0
 30
0.0
 11
-0.8749999999999429
 21
2.0
 31
0.0
  0
LINE
  5
16B84
330
16B7B
100
AcDbEntity
  8
_2-4_PARTS
  6
CONTINUOUS
 62
     7
100
AcDbLine
 10
0.6250000000000569
 20
3.800000000000011
 30
0.0
 11
9.625000000000056
 21
3.800000000000011
 31
0.0
  0
LINE
  5
16B85
330
16B7B
100
AcDbEntity
  8
_2-4_PARTS
  6
CONTINUOUS
 62
     7
100
AcDbLine
 10
9.625000000000056
 20
3.800000000000011
 30
0.0
 11
11.62500000000005
 21
2.5
 31
0.0
  0
ENDBLK
  5
16B87
330
16B7B
100
AcDbEntity
  8
0
100
AcDbBlockEnd
  0
BLOCK
  5
17247
330
1723D
100
AcDbEntity
  8
0
100
AcDbBlockBegin
  2
*D1
 70
     1
 10
0.0
 20
0.0
 30
0.0
  3
*D1
  1

  0
LINE
  5
1736D
330
1723D
100
AcDbEntity
  8
SUNPOU
 62
     1
100
AcDbLine
 10
-1262.660675197518
 20
1779.780136099817
 30
0.0
 11
-1286.676863784038
 21
1779.780136099817
 31
0.0
  0
LINE
  5
1736E
330
1723D
100
AcDbEntity
  8
SUNPOU
 62
     1
100
AcDbLine
 10
-1262.660675197518
 20
1862.780136099817
 30
0.0
 11
-1286.676863784038
 21
1862.780136099817
 31
0.0
  0
LINE
  5
1736F
330
1723D
100
AcDbEntity
  8
SUNPOU
 62
     1
100
AcDbLine
 10
-1286.176863784039
 20
1782.780136099817
 30
0.0
 11
-1286.176863784039
 21
1859.780136099817
 31
0.0
  0
SOLID
  5
17370
330
1723D
100
AcDbEntity
  8
SUNPOU
 62
     1
100
AcDbTrace
 10
-1286.676863784038
 20
1782.780136099817
 30
0.0
 11
-1285.676863784039
 21
1782.780136099817
 31
0.0
 12
-1286.176863784039
 22
1779.780136099817
 32
0.0
 13
-1286.176863784039
 23
1779.780136099817
 33
0.0
  0
SOLID
  5
17371
330
1723D
100
AcDbEntity
  8
SUNPOU
 62
     1
100
AcDbTrace
 10
-1286.676863784038
 20
1859.780136099817
 30
0.0
 11
-1285.676863784039
 21
1859.780136099817
 31
0.0
 12
-1286.176863784039
 22
1862.780136099817
 32
0.0
 13
-1286.176863784039
 23
1862.780136099817
 33
0.0
  0
MTEXT
  5
17372
330
1723D
100
AcDbEntity
  8
SUNPOU
 62
     1
100
AcDbMText
 10
-1288.926863784039
 20
1821.280136099817
 30
0.0
 40
3.5
 41
0.0
 71
     5
 72
     1
  1
\A1;83
 11
0.0000000000000001
 21
1.0
 31
0.0
1001
ACAD
1000
MTEXTBEGIN
1070
    73
1070
     1
1070
    44
1040
1.0
1070
    74
1070
     0
1000
MTEXTEND
  0
POINT
  5
17373
330
1723D
100
AcDbEntity
  8
DEFPOINTS
 62
     0
100
AcDbPoint
 10
-1262.160675197518
 20
1779.780136099817
 30
0.0
  0
POINT
  5
17374
330
1723D
100
AcDbEntity
  8
DEFPOINTS
 62
     0
100
AcDbPoint
 10
-1262.160675197518
 20
1862.780136099817
 30
0.0
  0
POINT
  5
17375
330
1723D
100
AcDbEntity
  8
DEFPOINTS
 62
     0
100
AcDbPoint
 10
-1286.176863784039
 20
1862.780136099817
 30
0.0
  0
ENDBLK
  5
17248
330
1723D
100
AcDbEntity
  8
0
100
AcDbBlockEnd
  0
BLOCK
  5
17258
330
1724C
100
AcDbEntity
  8
0
100
AcDbBlockBegin
  2
*D2
 70
     1
 10
0.0
 20
0.0
 30
0.0
  3
*D2
  1

  0
LINE
  5
1749E
330
1724C
100
AcDbEntity
  8
SUNPOU
 62
     1
100
AcDbLine
 10
-1262.660675197518
 20
1779.780136099817
 30
0.0
 11
-1276.571490431499
 21
1779.780136099817
 31
0.0
  0
LINE
  5
1749F
330
1724C
100
AcDbEntity
  8
SUNPOU
 62
     1
100
AcDbLine
 10
-1261.910675197518
 20
1783.280136099817
 30
0.0
 11
-1276.571490431499
 21
1783.280136099817
 31
0.0
  0
LINE
  5
174A0
330
1724C
100
AcDbEntity
  8
SUNPOU
 62
     1
100
AcDbLine
 10
-1276.071490431499
 20
1776.780136099817
 30
0.0
 11
-1276.071490431499
 21
1773.780136099817
 31
0.0
  0
LINE
  5
174A1
330
1724C
100
AcDbEntity
  8
SUNPOU
 62
     1
100
AcDbLine
 10
-1276.071490431499
 20
1786.280136099817
 30
0.0
 11
-1276.071490431499
 21
1789.280136099817
 31
0.0
  0
MTEXT
  5
174A2
330
1724C
100
AcDbEntity
  8
SUNPOU
 62
     1
100
AcDbMText
 10
-1279.439461777358
 20
1773.880000785555
 30
0.0
 40
3.5
 41
0.0
 71
     5
 72
     1
  1
\A1;3.5
 11
0.0000000000000001
 21
1.0
 31
0.0
  0
LINE
  5
174A3
330
1724C
100
AcDbEntity
  8
SUNPOU
 62
     1
100
AcDbLine
 10
-1276.071490431499
 20
1779.780136099817
 30
0.0
 11
-1276.071490431499
 21
1783.280136099817
 31
0.0
  0
SOLID
  5
174A4
330
1724C
100
AcDbEntity
  8
SUNPOU
 62
     1
100
AcDbTrace
 10
-1276.571490431499
 20
1776.780136099817
 30
0.0
 11
-1275.5714904315
 21
1776.780136099817
 31
0.0
 12
-1276.071490431499
 22
1779.780136099817
 32
0.0
 13
-1276.071490431499
 23
1779.780136099817
 33
0.0
  0
SOLID
  5
174A5
330
1724C
100
AcDbEntity
  8
SUNPOU
 62
     1
100
AcDbTrace
 10
-1276.571490431499
 20
1786.280136099817
 30
0.0
 11
-1275.5714904315
 21
1786.280136099817
 31
0.0
 12
-1276.071490431499
 22
1783.280136099817
 32
0.0
 13
-1276.071490431499
 23
1783.280136099817
 33
0.0
  0
POINT
  5
174A6
330
1724C
100
AcDbEntity
  8
DEFPOINTS
 62
     0
100
AcDbPoint
 10
-1262.160675197518
 20
1779.780136099817
 30
0.0
  0
POINT
  5
174A7
330
1724C
100
AcDbEntity
  8
DEFPOINTS
 62
     0
100
AcDbPoint
 10
-1261.410675197518
 20
1783.280136099817
 30
0.0
  0
POINT
  5
174A8
330
1724C
100
AcDbEntity
  8
DEFPOINTS
 62
     0
100
AcDbPoint
 10
-1276.071490431499
 20
1783.280136099817
 30
0.0
  0
ENDBLK
  5
17259
330
1724C
100
AcDbEntity
  8
0
100
AcDbBlockEnd
  0
BLOCK
  5
17265
330
1725B
100
AcDbEntity
  8
0
100
AcDbBlockBegin
  2
*D3
 70
     1
 10
0.0
 20
0.0
 30
0.0
  3
*D3
  1

  0
LINE
  5
174A9
330
1725B
100
AcDbEntity
  8
SUNPOU
 62
     1
100
AcDbLine
 10
-1261.910675197518
 20
1783.280136099817
 30
0.0
 11
-1276.571490431499
 21
1783.280136099817
 31
0.0
  0
LINE
  5
174AA
330
1725B
100
AcDbEntity
  8
SUNPOU
 62
     1
100
AcDbLine
 10
-1261.910675197518
 20
1859.280136099817
 30
0.0
 11
-1276.571490431499
 21
1859.280136099817
 31
0.0
  0
LINE
  5
174AB
330
1725B
100
AcDbEntity
  8
SUNPOU
 62
     1
100
AcDbLine
 10
-1276.071490431499
 20
1786.280136099817
 30
0.0
 11
-1276.071490431499
 21
1856.280136099817
 31
0.0
  0
SOLID
  5
174AC
330
1725B
100
AcDbEntity
  8
SUNPOU
 62
     1
100
AcDbTrace
 10
-1276.571490431499
 20
1786.280136099817
 30
0.0
 11
-1275.5714904315
 21
1786.280136099817
 31
0.0
 12
-1276.071490431499
 22
1783.280136099817
 32
0.0
 13
-1276.071490431499
 23
1783.280136099817
 33
0.0
  0
SOLID
  5
174AD
330
1725B
100
AcDbEntity
  8
SUNPOU
 62
     1
100
AcDbTrace
 10
-1276.571490431499
 20
1856.280136099817
 30
0.0
 11
-1275.5714904315
 21
1856.280136099817
 31
0.0
 12
-1276.071490431499
 22
1859.280136099817
 32
0.0
 13
-1276.071490431499
 23
1859.280136099817
 33
0.0
  0
MTEXT
  5
174AE
330
1725B
100
AcDbEntity
  8
SUNPOU
 62
     1
100
AcDbMText
 10
-1278.8214904315
 20
1821.280136099817
 30
0.0
 40
3.5
 41
0.0
 71
     5
 72
     1
  1
\A1;76
 11
0.0000000000000001
 21
1.0
 31
0.0
  0
POINT
  5
174AF
330
1725B
100
AcDbEntity
  8
DEFPOINTS
 62
     0
100
AcDbPoint
 10
-1261.410675197518
 20
1783.280136099817
 30
0.0
  0
POINT
  5
174B0
330
1725B
100
AcDbEntity
  8
DEFPOINTS
 62
     0
100
AcDbPoint
 10
-1261.410675197518
 20
1859.280136099817
 30
0.0
  0
POINT
  5
174B1
330
1725B
100
AcDbEntity
  8
DEFPOINTS
 62
     0
100
AcDbPoint
 10
-1276.071490431499
 20
1859.280136099817
 30
0.0
  0
ENDBLK
  5
17266
330
1725B
100
AcDbEntity
  8
0
100
AcDbBlockEnd
  0
BLOCK
  5
17274
330
17268
100
AcDbEntity
  8
0
100
AcDbBlockBegin
  2
*D4
 70
     1
 10
0.0
 20
0.0
 30
0.0
  3
*D4
  1

  0
LINE
  5
174B2
330
17268
100
AcDbEntity
  8
SUNPOU
 62
     1
100
AcDbLine
 10
-1261.910675197518
 20
1859.280136099817
 30
0.0
 11
-1276.571490431499
 21
1859.280136099817
 31
0.0
  0
LINE
  5
174B3
330
17268
100
AcDbEntity
  8
SUNPOU
 62
     1
100
AcDbLine
 10
-1262.660675197518
 20
1862.780136099817
 30
0.0
 11
-1276.571490431499
 21
1862.780136099817
 31
0.0
  0
LINE
  5
174B4
330
17268
100
AcDbEntity
  8
SUNPOU
 62
     1
100
AcDbLine
 10
-1276.071490431499
 20
1856.280136099817
 30
0.0
 11
-1276.071490431499
 21
1853.280136099817
 31
0.0
  0
LINE
  5
174B5
330
17268
100
AcDbEntity
  8
SUNPOU
 62
     1
100
AcDbLine
 10
-1276.071490431499
 20
1865.780136099817
 30
0.0
 11
-1276.071490431499
 21
1868.780136099817
 31
0.0
  0
MTEXT
  5
174B6
330
17268
100
AcDbEntity
  8
SUNPOU
 62
     1
100
AcDbMText
 10
-1279.432873329145
 20
1869.061522973023
 30
0.0
 40
3.5
 41
0.0
 71
     5
 72
     1
  1
\A1;3.5
 11
0.0000000000000001
 21
1.0
 31
0.0
  0
LINE
  5
174B7
330
17268
100
AcDbEntity
  8
SUNPOU
 62
     1
100
AcDbLine
 10
-1276.071490431499
 20
1859.280136099817
 30
0.0
 11
-1276.071490431499
 21
1862.780136099817
 31
0.0
  0
SOLID
  5
174B8
330
17268
100
AcDbEntity
  8
SUNPOU
 62
     1
100
AcDbTrace
 10
-1276.571490431499
 20
1856.280136099817
 30
0.0
 11
-1275.5714904315
 21
1856.280136099817
 31
0.0
 12
-1276.071490431499
 22
1859.280136099817
 32
0.0
 13
-1276.071490431499
 23
1859.280136099817
 33
0.0
  0
SOLID
  5
174B9
330
17268
100
AcDbEntity
  8
SUNPOU
 62
     1
100
AcDbTrace
 10
-1276.571490431499
 20
1865.780136099817
 30
0.0
 11
-1275.5714904315
 21
1865.780136099817
 31
0.0
 12
-1276.071490431499
 22
1862.780136099817
 32
0.0
 13
-1276.071490431499
 23
1862.780136099817
 33
0.0
  0
POINT
  5
174BA
330
17268
100
AcDbEntity
  8
DEFPOINTS
 62
     0
100
AcDbPoint
 10
-1261.410675197518
 20
1859.280136099817
 30
0.0
  0
POINT
  5
174BB
330
17268
100
AcDbEntity
  8
DEFPOINTS
 62
     0
100
AcDbPoint
 10
-1262.160675197518
 20
1862.780136099817
 30
0.0
  0
POINT
  5
174BC
330
17268
100
AcDbEntity
  8
DEFPOINTS
 62
     0
100
AcDbPoint
 10
-1276.071490431499
 20
1862.780136099817
 30
0.0
  0
ENDBLK
  5
17275
330
17268
100
AcDbEntity
  8
0
100
AcDbBlockEnd
  0
BLOCK
  5
17288
330
1727C
100
AcDbEntity
  8
0
100
AcDbBlockBegin
  2
*D5
 70
     1
 10
0.0
 20
0.0
 30
0.0
  3
*D5
  1

  0
LINE
  5
174BD
330
1727C
100
AcDbEntity
  8
SUNPOU
 62
     1
100
AcDbLine
 10
-1263.160659511195
 20
1780.280136099694
 30
0.0
 11
-1263.160659511195
 21
1765.72872396176
 31
0.0
  0
LINE
  5
174BE
330
1727C
100
AcDbEntity
  8
SUNPOU
 62
     1
100
AcDbLine
 10
-1259.660675197518
 20
1781.030136099817
 30
0.0
 11
-1259.660675197518
 21
1765.72872396176
 31
0.0
  0
LINE
  5
174BF
330
1727C
100
AcDbEntity
  8
SUNPOU
 62
     1
100
AcDbLine
 10
-1266.160659511194
 20
1766.228723961759
 30
0.0
 11
-1269.160659511195
 21
1766.228723961759
 31
0.0
  0
LINE
  5
174C0
330
1727C
100
AcDbEntity
  8
SUNPOU
 62
     1
100
AcDbLine
 10
-1256.660675197518
 20
1766.228723961759
 30
0.0
 11
-1253.660675197518
 21
1766.228723961759
 31
0.0
  0
MTEXT
  5
174C1
330
1727C
100
AcDbEntity
  8
SUNPOU
 62
     1
100
AcDbMText
 10
-1269.323748819453
 20
1769.099657437092
 30
0.0
 40
3.5
 41
0.0
 71
     5
 72
     1
  1
\A1;3.5
  0
LINE
  5
174C2
330
1727C
100
AcDbEntity
  8
SUNPOU
 62
     1
100
AcDbLine
 10
-1263.160659511195
 20
1766.228723961759
 30
0.0
 11
-1259.660675197518
 21
1766.228723961759
 31
0.0
  0
SOLID
  5
174C3
330
1727C
100
AcDbEntity
  8
SUNPOU
 62
     1
100
AcDbTrace
 10
-1266.160659511194
 20
1766.72872396176
 30
0.0
 11
-1266.160659511194
 21
1765.72872396176
 31
0.0
 12
-1263.160659511195
 22
1766.228723961759
 32
0.0
 13
-1263.160659511195
 23
1766.228723961759
 33
0.0
  0
SOLID
  5
174C4
330
1727C
100
AcDbEntity
  8
SUNPOU
 62
     1
100
AcDbTrace
 10
-1256.660675197518
 20
1766.72872396176
 30
0.0
 11
-1256.660675197518
 21
1765.72872396176
 31
0.0
 12
-1259.660675197518
 22
1766.228723961759
 32
0.0
 13
-1259.660675197518
 23
1766.228723961759
 33
0.0
  0
POINT
  5
174C5
330
1727C
100
AcDbEntity
  8
DEFPOINTS
 62
     0
100
AcDbPoint
 10
-1263.160659511195
 20
1780.780136099694
 30
0.0
  0
POINT
  5
174C6
330
1727C
100
AcDbEntity
  8
DEFPOINTS
 62
     0
100
AcDbPoint
 10
-1259.660675197518
 20
1781.530136099817
 30
0.0
  0
POINT
  5
174C7
330
1727C
100
AcDbEntity
  8
DEFPOINTS
 62
     0
100
AcDbPoint
 10
-1259.660675197518
 20
1766.228723961759
 30
0.0
  0
ENDBLK
  5
17289
330
1727C
100
AcDbEntity
  8
0
100
AcDbBlockEnd
  0
BLOCK
  5
17295
330
1728B
100
AcDbEntity
  8
0
100
AcDbBlockBegin
  2
*D6
 70
     1
 10
0.0
 20
0.0
 30
0.0
  3
*D6
  1

  0
LINE
  5
174C8
330
1728B
100
AcDbEntity
  8
SUNPOU
 62
     1
100
AcDbLine
 10
-1259.660675197518
 20
1781.030136099817
 30
0.0
 11
-1259.660675197518
 21
1765.72872396176
 31
0.0
  0
LINE
  5
174C9
330
1728B
100
AcDbEntity
  8
SUNPOU
 62
     1
100
AcDbLine
 10
-1183.660675197518
 20
1781.030136099817
 30
0.0
 11
-1183.660675197518
 21
1765.72872396176
 31
0.0
  0
LINE
  5
174CA
330
1728B
100
AcDbEntity
  8
SUNPOU
 62
     1
100
AcDbLine
 10
-1256.660675197518
 20
1766.228723961759
 30
0.0
 11
-1186.660675197517
 21
1766.228723961759
 31
0.0
  0
SOLID
  5
174CB
330
1728B
100
AcDbEntity
  8
SUNPOU
 62
     1
100
AcDbTrace
 10
-1256.660675197518
 20
1766.72872396176
 30
0.0
 11
-1256.660675197518
 21
1765.72872396176
 31
0.0
 12
-1259.660675197518
 22
1766.228723961759
 32
0.0
 13
-1259.660675197518
 23
1766.228723961759
 33
0.0
  0
SOLID
  5
174CC
330
1728B
100
AcDbEntity
  8
SUNPOU
 62
     1
100
AcDbTrace
 10
-1186.660675197517
 20
1766.72872396176
 30
0.0
 11
-1186.660675197517
 21
1765.72872396176
 31
0.0
 12
-1183.660675197518
 22
1766.228723961759
 32
0.0
 13
-1183.660675197518
 23
1766.228723961759
 33
0.0
  0
MTEXT
  5
174CD
330
1728B
100
AcDbEntity
  8
SUNPOU
 62
     1
100
AcDbMText
 10
-1221.660675197518
 20
1768.978723961759
 30
0.0
 40
3.5
 41
0.0
 71
     5
 72
     1
  1
\A1;76
  0
POINT
  5
174CE
330
1728B
100
AcDbEntity
  8
DEFPOINTS
 62
     0
100
AcDbPoint
 10
-1259.660675197518
 20
1781.530136099817
 30
0.0
  0
POINT
  5
174CF
330
1728B
100
AcDbEntity
  8
DEFPOINTS
 62
     0
100
AcDbPoint
 10
-1183.660675197518
 20
1781.530136099817
 30
0.0
  0
POINT
  5
174D0
330
1728B
100
AcDbEntity
  8
DEFPOINTS
 62
     0
100
AcDbPoint
 10
-1183.660675197518
 20
1766.228723961759
 30
0.0
  0
ENDBLK
  5
17296
330
1728B
100
AcDbEntity
  8
0
100
AcDbBlockEnd
  0
BLOCK
  5
172A7
330
17298
100
AcDbEntity
  8
0
100
AcDbBlockBegin
  2
*D7
 70
     1
 10
0.0
 20
0.0
 30
0.0
  3
*D7
  1

  0
LINE
  5
174D1
330
17298
100
AcDbEntity
  8
SUNPOU
 62
     1
100
AcDbLine
 10
-1183.660675197518
 20
1781.030136099817
 30
0.0
 11
-1183.660675197518
 21
1765.72872396176
 31
0.0
  0
LINE
  5
174D2
330
17298
100
AcDbEntity
  8
SUNPOU
 62
     1
100
AcDbLine
 10
-1180.160675197518
 20
1780.280136099817
 30
0.0
 11
-1180.160675197518
 21
1765.72872396176
 31
0.0
  0
LINE
  5
174D3
330
17298
100
AcDbEntity
  8
SUNPOU
 62
     1
100
AcDbLine
 10
-1186.660675197517
 20
1766.228723961759
 30
0.0
 11
-1189.660675197518
 21
1766.228723961759
 31
0.0
  0
LINE
  5
174D4
330
17298
100
AcDbEntity
  8
SUNPOU
 62
     1
100
AcDbLine
 10
-1177.160675197518
 20
1766.228723961759
 30
0.0
 11
-1174.160675197517
 21
1766.228723961759
 31
0.0
  0
MTEXT
  5
174D5
330
17298
100
AcDbEntity
  8
SUNPOU
 62
     1
100
AcDbMText
 10
-1174.231603999163
 20
1769.113721627975
 30
0.0
 40
3.5
 41
0.0
 71
     5
 72
     1
  1
\A1;3.5
  0
LINE
  5
174D6
330
17298
100
AcDbEntity
  8
SUNPOU
 62
     1
100
AcDbLine
 10
-1183.660675197518
 20
1766.228723961759
 30
0.0
 11
-1180.160675197518
 21
1766.228723961759
 31
0.0
  0
SOLID
  5
174D7
330
17298
100
AcDbEntity
  8
SUNPOU
 62
     1
100
AcDbTrace
 10
-1186.660675197517
 20
1766.72872396176
 30
0.0
 11
-1186.660675197517
 21
1765.72872396176
 31
0.0
 12
-1183.660675197518
 22
1766.228723961759
 32
0.0
 13
-1183.660675197518
 23
1766.228723961759
 33
0.0
  0
SOLID
  5
174D8
330
17298
100
AcDbEntity
  8
SUNPOU
 62
     1
100
AcDbTrace
 10
-1177.160675197518
 20
1766.72872396176
 30
0.0
 11
-1177.160675197518
 21
1765.72872396176
 31
0.0
 12
-1180.160675197518
 22
1766.228723961759
 32
0.0
 13
-1180.160675197518
 23
1766.228723961759
 33
0.0
  0
POINT
  5
174D9
330
17298
100
AcDbEntity
  8
DEFPOINTS
 62
     0
100
AcDbPoint
 10
-1183.660675197518
 20
1781.530136099817
 30
0.0
  0
POINT
  5
174DA
330
17298
100
AcDbEntity
  8
DEFPOINTS
 62
     0
100
AcDbPoint
 10
-1180.160675197518
 20
1780.780136099817
 30
0.0
  0
POINT
  5
174DB
330
17298
100
AcDbEntity
  8
DEFPOINTS
 62
     0
100
AcDbPoint
 10
-1180.160675197518
 20
1766.228723961759
 30
0.0
  0
ENDBLK
  5
172A8
330
17298
100
AcDbEntity
  8
0
100
AcDbBlockEnd
  0
BLOCK
  5
172B4
330
172AA
100
AcDbEntity
  8
0
100
AcDbBlockBegin
  2
*D8
 70
     1
 10
0.0
 20
0.0
 30
0.0
  3
*D8
  1

  0
LINE
  5
17350
330
172AA
100
AcDbEntity
  8
SUNPOU
 62
     1
100
AcDbLine
 10
-1263.160659511195
 20
1780.280136099694
 30
0.0
 11
-1263.160659511195
 21
1754.280949657875
 31
0.0
  0
LINE
  5
17351
330
172AA
100
AcDbEntity
  8
SUNPOU
 62
     1
100
AcDbLine
 10
-1180.160675197518
 20
1780.280136099817
 30
0.0
 11
-1180.160675197518
 21
1754.280949657875
 31
0.0
  0
LINE
  5
17352
330
172AA
100
AcDbEntity
  8
SUNPOU
 62
     1
100
AcDbLine
 10
-1260.160659511194
 20
1754.780949657875
 30
0.0
 11
-1183.160675197518
 21
1754.780949657875
 31
0.0
  0
SOLID
  5
17353
330
172AA
100
AcDbEntity
  8
SUNPOU
 62
     1
100
AcDbTrace
 10
-1260.160659511194
 20
1755.280949657875
 30
0.0
 11
-1260.160659511194
 21
1754.280949657875
 31
0.0
 12
-1263.160659511195
 22
1754.780949657875
 32
0.0
 13
-1263.160659511195
 23
1754.780949657875
 33
0.0
  0
SOLID
  5
17354
330
172AA
100
AcDbEntity
  8
SUNPOU
 62
     1
100
AcDbTrace
 10
-1183.160675197518
 20
1755.280949657875
 30
0.0
 11
-1183.160675197518
 21
1754.280949657875
 31
0.0
 12
-1180.160675197518
 22
1754.780949657875
 32
0.0
 13
-1180.160675197518
 23
1754.780949657875
 33
0.0
  0
MTEXT
  5
17355
330
172AA
100
AcDbEntity
  8
SUNPOU
 62
     1
100
AcDbMText
 10
-1221.660667354356
 20
1757.530949657875
 30
0.0
 40
3.5
 41
0.0
 71
     5
 72
     1
  1
\A1;83
1001
ACAD
1000
MTEXTBEGIN
1070
    73
1070
     1
1070
    44
1040
1.0
1070
    74
1070
     0
1000
MTEXTEND
  0
POINT
  5
17356
330
172AA
100
AcDbEntity
  8
DEFPOINTS
 62
     0
100
AcDbPoint
 10
-1263.160659511195
 20
1780.780136099694
 30
0.0
  0
POINT
  5
17357
330
172AA
100
AcDbEntity
  8
DEFPOINTS
 62
     0
100
AcDbPoint
 10
-1180.160675197518
 20
1780.780136099817
 30
0.0
  0
POINT
  5
17358
330
172AA
100
AcDbEntity
  8
DEFPOINTS
 62
     0
100
AcDbPoint
 10
-1180.160675197518
 20
1754.780949657875
 30
0.0
  0
ENDBLK
  5
172B5
330
172AA
100
AcDbEntity
  8
0
100
AcDbBlockEnd
  0
BLOCK
  5
172C1
330
172B7
100
AcDbEntity
  8
0
100
AcDbBlockBegin
  2
*D9
 70
     1
 10
0.0
 20
0.0
 30
0.0
  3
*D9
  1

  0
LINE
  5
17326
330
172B7
100
AcDbEntity
  8
SUNPOU
 62
     1
100
AcDbLine
 10
-1144.160675197518
 20
1859.260136099817
 30
0.0
 11
-1144.160675197518
 21
1873.404038317795
 31
0.0
  0
LINE
  5
17327
330
172B7
100
AcDbEntity
  8
SUNPOU
 62
     1
100
AcDbLine
 10
-1126.060675197518
 20
1863.280136099817
 30
0.0
 11
-1126.060675197518
 21
1873.404038317795
 31
0.0
  0
LINE
  5
17328
330
172B7
100
AcDbEntity
  8
SUNPOU
 62
     1
100
AcDbLine
 10
-1141.160675197518
 20
1872.904038317795
 30
0.0
 11
-1129.060675197518
 21
1872.904038317795
 31
0.0
  0
SOLID
  5
17329
330
172B7
100
AcDbEntity
  8
SUNPOU
 62
     1
100
AcDbTrace
 10
-1141.160675197518
 20
1873.404038317795
 30
0.0
 11
-1141.160675197518
 21
1872.404038317795
 31
0.0
 12
-1144.160675197518
 22
1872.904038317795
 32
0.0
 13
-1144.160675197518
 23
1872.904038317795
 33
0.0
  0
SOLID
  5
1732A
330
172B7
100
AcDbEntity
  8
SUNPOU
 62
     1
100
AcDbTrace
 10
-1129.060675197518
 20
1873.404038317795
 30
0.0
 11
-1129.060675197518
 21
1872.404038317795
 31
0.0
 12
-1126.060675197518
 22
1872.904038317795
 32
0.0
 13
-1126.060675197518
 23
1872.904038317795
 33
0.0
  0
MTEXT
  5
1732B
330
172B7
100
AcDbEntity
  8
SUNPOU
 62
     1
100
AcDbMText
 10
-1135.110675197518
 20
1875.654038317795
 30
0.0
 40
3.5
 41
0.0
 71
     5
 72
     1
  1
\A1;18.1
1001
ACAD
1000
MTEXTBEGIN
1070
    73
1070
     1
1070
    44
1040
1.0
1070
    74
1070
     0
1000
MTEXTEND
  0
POINT
  5
1732C
330
172B7
100
AcDbEntity
  8
DEFPOINTS
 62
     0
100
AcDbPoint
 10
-1144.160675197518
 20
1858.760136099817
 30
0.0
  0
POINT
  5
1732D
330
172B7
100
AcDbEntity
  8
DEFPOINTS
 62
     0
100
AcDbPoint
 10
-1126.060675197518
 20
1862.780136099817
 30
0.0
  0
POINT
  5
1732E
330
172B7
100
AcDbEntity
  8
DEFPOINTS
 62
     0
100
AcDbPoint
 10
-1126.060675197518
 20
1872.904038317795
 30
0.0
  0
ENDBLK
  5
172C2
330
172B7
100
AcDbEntity
  8
0
100
AcDbBlockEnd
  0
BLOCK
  5
172CF
330
172C4
100
AcDbEntity
  8
0
100
AcDbBlockBegin
  2
*D10
 70
     1
 10
0.0
 20
0.0
 30
0.0
  3
*D10
  1

  0
LINE
  5
174DC
330
172C4
100
AcDbEntity
  8
SUNPOU
 62
     1
100
AcDbLine
 10
-1126.060675197518
 20
1863.280136099817
 30
0.0
 11
-1126.060675197518
 21
1873.404038317795
 31
0.0
  0
LINE
  5
174DD
330
172C4
100
AcDbEntity
  8
SUNPOU
 62
     1
100
AcDbLine
 10
-1129.060675197518
 20
1872.904038317795
 30
0.0
 11
-1132.060675197518
 21
1872.904038317795
 31
0.0
  0
LINE
  5
174DE
330
172C4
100
AcDbEntity
  8
SUNPOU
 62
     1
100
AcDbLine
 10
-1121.160675197518
 20
1872.904038317795
 30
0.0
 11
-1118.160675197517
 21
1872.904038317795
 31
0.0
  0
MTEXT
  5
174DF
330
172C4
100
AcDbEntity
  8
SUNPOU
 62
     1
100
AcDbMText
 10
-1116.03043588453
 20
1875.609541365035
 30
0.0
 40
3.5
 41
0.0
 71
     5
 72
     1
  1
\A1;(2.9)
  0
LINE
  5
174E0
330
172C4
100
AcDbEntity
  8
SUNPOU
 62
     1
100
AcDbLine
 10
-1126.060675197518
 20
1872.904038317795
 30
0.0
 11
-1124.160675197517
 21
1872.904038317795
 31
0.0
  0
SOLID
  5
174E1
330
172C4
100
AcDbEntity
  8
SUNPOU
 62
     1
100
AcDbTrace
 10
-1129.060675197518
 20
1873.404038317795
 30
0.0
 11
-1129.060675197518
 21
1872.404038317795
 31
0.0
 12
-1126.060675197518
 22
1872.904038317795
 32
0.0
 13
-1126.060675197518
 23
1872.904038317795
 33
0.0
  0
SOLID
  5
174E2
330
172C4
100
AcDbEntity
  8
SUNPOU
 62
     1
100
AcDbTrace
 10
-1121.160675197518
 20
1873.404038317795
 30
0.0
 11
-1121.160675197518
 21
1872.404038317795
 31
0.0
 12
-1124.160675197517
 22
1872.904038317795
 32
0.0
 13
-1124.160675197517
 23
1872.904038317795
 33
0.0
  0
POINT
  5
174E3
330
172C4
100
AcDbEntity
  8
DEFPOINTS
 62
     0
100
AcDbPoint
 10
-1126.060675197518
 20
1862.780136099817
 30
0.0
  0
POINT
  5
174E4
330
172C4
100
AcDbEntity
  8
DEFPOINTS
 62
     0
100
AcDbPoint
 10
-1124.160675197517
 20
1872.904038317795
 30
0.0
  0
POINT
  5
174E5
330
172C4
100
AcDbEntity
  8
DEFPOINTS
 62
     0
100
AcDbPoint
 10
-1124.160675197517
 20
1872.904038317795
 30
0.0
  0
ENDBLK
  5
172D0
330
172C4
100
AcDbEntity
  8
0
100
AcDbBlockEnd
  0
BLOCK
  5
172DC
330
172D2
100
AcDbEntity
  8
0
100
AcDbBlockBegin
  2
*D11
 70
     1
 10
0.0
 20
0.0
 30
0.0
  3
*D11
  1

  0
LINE
  5
17420
330
172D2
100
AcDbEntity
  8
SUNPOU
 62
     1
100
AcDbLine
 10
-1144.160675197518
 20
1859.260136099817
 30
0.0
 11
-1144.160675197518
 21
1882.873043462373
 31
0.0
  0
LINE
  5
17421
330
172D2
100
AcDbEntity
  8
SUNPOU
 62
     1
100
AcDbLine
 10
-1124.160675197517
 20
1855.280136099817
 30
0.0
 11
-1124.160675197517
 21
1882.873043462373
 31
0.0
  0
LINE
  5
17422
330
172D2
100
AcDbEntity
  8
SUNPOU
 62
     1
100
AcDbLine
 10
-1141.160675197518
 20
1882.373043462373
 30
0.0
 11
-1127.160675197518
 21
1882.373043462373
 31
0.0
  0
SOLID
  5
17423
330
172D2
100
AcDbEntity
  8
SUNPOU
 62
     1
100
AcDbTrace
 10
-1141.160675197518
 20
1882.873043462373
 30
0.0
 11
-1141.160675197518
 21
1881.873043462372
 31
0.0
 12
-1144.160675197518
 22
1882.373043462373
 32
0.0
 13
-1144.160675197518
 23
1882.373043462373
 33
0.0
  0
SOLID
  5
17424
330
172D2
100
AcDbEntity
  8
SUNPOU
 62
     1
100
AcDbTrace
 10
-1127.160675197518
 20
1882.873043462373
 30
0.0
 11
-1127.160675197518
 21
1881.873043462372
 31
0.0
 12
-1124.160675197517
 22
1882.373043462373
 32
0.0
 13
-1124.160675197517
 23
1882.373043462373
 33
0.0
  0
MTEXT
  5
17425
330
172D2
100
AcDbEntity
  8
SUNPOU
 62
     1
100
AcDbMText
 10
-1134.160675197517
 20
1885.123043462373
 30
0.0
 40
3.5
 41
0.0
 71
     5
 72
     1
  1
\A1;(21)
1001
ACAD
1000
MTEXTBEGIN
1070
    73
1070
     1
1070
    44
1040
1.0
1070
    74
1070
     0
1000
MTEXTEND
  0
POINT
  5
17426
330
172D2
100
AcDbEntity
  8
DEFPOINTS
 62
     0
100
AcDbPoint
 10
-1144.160675197518
 20
1858.760136099817
 30
0.0
  0
POINT
  5
17427
330
172D2
100
AcDbEntity
  8
DEFPOINTS
 62
     0
100
AcDbPoint
 10
-1124.160675197517
 20
1854.780136099817
 30
0.0
  0
POINT
  5
17428
330
172D2
100
AcDbEntity
  8
DEFPOINTS
 62
     0
100
AcDbPoint
 10
-1124.160675197517
 20
1882.373043462373
 30
0.0
  0
ENDBLK
  5
172DD
330
172D2
100
AcDbEntity
  8
0
100
AcDbBlockEnd
  0
BLOCK
  5
172EF
330
172E5
100
AcDbEntity
  8
0
100
AcDbBlockBegin
  2
*D12
 70
     1
 10
0.0
 20
0.0
 30
0.0
  3
*D12
  1

  0
LINE
  5
17397
330
172E5
100
AcDbEntity
  8
CL1
 62
     1
100
AcDbLine
 10
-1260.760675197517
 20
1890.780136099817
 30
0.0
 11
-1276.571490431499
 21
1890.780136099817
 31
0.0
  0
LINE
  5
17398
330
172E5
100
AcDbEntity
  8
CL1
 62
     1
100
AcDbLine
 10
-1263.660675197518
 20
1903.880136099817
 30
0.0
 11
-1276.571490431499
 21
1903.880136099817
 31
0.0
  0
LINE
  5
17399
330
172E5
100
AcDbEntity
  8
CL1
 62
     1
100
AcDbLine
 10
-1276.071490431499
 20
1893.780136099817
 30
0.0
 11
-1276.071490431499
 21
1900.880136099817
 31
0.0
  0
SOLID
  5
1739A
330
172E5
100
AcDbEntity
  8
CL1
 62
     1
100
AcDbTrace
 10
-1276.571490431499
 20
1893.780136099817
 30
0.0
 11
-1275.5714904315
 21
1893.780136099817
 31
0.0
 12
-1276.071490431499
 22
1890.780136099817
 32
0.0
 13
-1276.071490431499
 23
1890.780136099817
 33
0.0
  0
SOLID
  5
1739B
330
172E5
100
AcDbEntity
  8
CL1
 62
     1
100
AcDbTrace
 10
-1276.571490431499
 20
1900.880136099817
 30
0.0
 11
-1275.5714904315
 21
1900.880136099817
 31
0.0
 12
-1276.071490431499
 22
1903.880136099817
 32
0.0
 13
-1276.071490431499
 23
1903.880136099817
 33
0.0
  0
MTEXT
  5
1739C
330
172E5
100
AcDbEntity
  8
CL1
 62
     1
100
AcDbMText
 10
-1278.8214904315
 20
1897.330136099816
 30
0.0
 40
3.5
 41
0.0
 71
     5
 72
     1
  1
\A1;13.1
 11
0.0000000000000001
 21
1.0
 31
0.0
1001
ACAD
1000
MTEXTBEGIN
1070
    73
1070
     1
1070
    44
1040
1.0
1070
    74
1070
     0
1000
MTEXTEND
  0
POINT
  5
1739D
330
172E5
100
AcDbEntity
  8
DEFPOINTS
 62
     0
100
AcDbPoint
 10
-1260.260675197518
 20
1890.780136099817
 30
0.0
  0
POINT
  5
1739E
330
172E5
100
AcDbEntity
  8
DEFPOINTS
 62
     0
100
AcDbPoint
 10
-1263.160675197518
 20
1903.880136099817
 30
0.0
  0
POINT
  5
1739F
330
172E5
100
AcDbEntity
  8
DEFPOINTS
 62
     0
100
AcDbPoint
 10
-1276.071490431499
 20
1903.880136099817
 30
0.0
  0
ENDBLK
  5
172F0
330
172E5
100
AcDbEntity
  8
0
100
AcDbBlockEnd
  0
BLOCK
  5
1730C
330
17300
100
AcDbEntity
  8
0
100
AcDbBlockBegin
  2
*D13
 70
     1
 10
0.0
 20
0.0
 30
0.0
  3
*D13
  1

  0
LINE
  5
174E6
330
17300
100
AcDbEntity
  8
CL1
 62
     1
100
AcDbLine
 10
-1263.660659511194
 20
1903.880136099817
 30
0.0
 11
-1276.571490431499
 21
1903.880136099817
 31
0.0
  0
LINE
  5
174E7
330
17300
100
AcDbEntity
  8
CL1
 62
     1
100
AcDbLine
 10
-1257.510675197518
 20
1905.680136099817
 30
0.0
 11
-1276.571490431499
 21
1905.680136099817
 31
0.0
  0
LINE
  5
174E8
330
17300
100
AcDbEntity
  8
CL1
 62
     1
100
AcDbLine
 10
-1276.071490431499
 20
1900.880136099817
 30
0.0
 11
-1276.071490431499
 21
1897.880136099817
 31
0.0
  0
LINE
  5
174E9
330
17300
100
AcDbEntity
  8
CL1
 62
     1
100
AcDbLine
 10
-1276.071490431499
 20
1908.680136099817
 30
0.0
 11
-1276.071490431499
 21
1911.680136099817
 31
0.0
  0
MTEXT
  5
174EA
330
17300
100
AcDbEntity
  8
CL1
 62
     1
100
AcDbMText
 10
-1278.870665461137
 20
1914.313862965386
 30
0.0
 40
3.5
 41
0.0
 71
     5
 72
     1
  1
\A1;(2.9)
 11
0.0000000000000001
 21
1.0
 31
0.0
  0
LINE
  5
174EB
330
17300
100
AcDbEntity
  8
CL1
 62
     1
100
AcDbLine
 10
-1276.071490431499
 20
1903.880136099817
 30
0.0
 11
-1276.071490431499
 21
1905.680136099817
 31
0.0
  0
SOLID
  5
174EC
330
17300
100
AcDbEntity
  8
CL1
 62
     1
100
AcDbTrace
 10
-1276.571490431499
 20
1900.880136099817
 30
0.0
 11
-1275.5714904315
 21
1900.880136099817
 31
0.0
 12
-1276.071490431499
 22
1903.880136099817
 32
0.0
 13
-1276.071490431499
 23
1903.880136099817
 33
0.0
  0
SOLID
  5
174ED
330
17300
100
AcDbEntity
  8
CL1
 62
     1
100
AcDbTrace
 10
-1276.571490431499
 20
1908.680136099817
 30
0.0
 11
-1275.5714904315
 21
1908.680136099817
 31
0.0
 12
-1276.071490431499
 22
1905.680136099817
 32
0.0
 13
-1276.071490431499
 23
1905.680136099817
 33
0.0
  0
POINT
  5
174EE
330
17300
100
AcDbEntity
  8
DEFPOINTS
 62
     0
100
AcDbPoint
 10
-1263.160659511195
 20
1903.880136099817
 30
0.0
  0
POINT
  5
174EF
330
17300
100
AcDbEntity
  8
DEFPOINTS
 62
     0
100
AcDbPoint
 10
-1257.010675197518
 20
1905.680136099817
 30
0.0
  0
POINT
  5
174F0
330
17300
100
AcDbEntity
  8
DEFPOINTS
 62
     0
100
AcDbPoint
 10
-1276.071490431499
 20
1905.680136099817
 30
0.0
  0
ENDBLK
  5
1730D
330
17300
100
AcDbEntity
  8
0
100
AcDbBlockEnd
  0
BLOCK
  5
1731B
330
17311
100
AcDbEntity
  8
0
100
AcDbBlockBegin
  2
*D14
 70
     1
 10
0.0
 20
0.0
 30
0.0
  3
*D14
  1

  0
LINE
  5
17460
330
17311
100
AcDbEntity
  8
CL1
 62
     1
100
AcDbLine
 10
-1260.760675197517
 20
1890.780136099817
 30
0.0
 11
-1286.676863784038
 21
1890.780136099817
 31
0.0
  0
LINE
  5
17461
330
17311
100
AcDbEntity
  8
CL1
 62
     1
100
AcDbLine
 10
-1257.210675197518
 20
1905.680136099817
 30
0.0
 11
-1286.676863784038
 21
1905.680136099817
 31
0.0
  0
LINE
  5
17462
330
17311
100
AcDbEntity
  8
CL1
 62
     1
100
AcDbLine
 10
-1286.176863784039
 20
1893.780136099817
 30
0.0
 11
-1286.176863784039
 21
1902.680136099817
 31
0.0
  0
SOLID
  5
17463
330
17311
100
AcDbEntity
  8
CL1
 62
     1
100
AcDbTrace
 10
-1286.676863784038
 20
1893.780136099817
 30
0.0
 11
-1285.676863784039
 21
1893.780136099817
 31
0.0
 12
-1286.176863784039
 22
1890.780136099817
 32
0.0
 13
-1286.176863784039
 23
1890.780136099817
 33
0.0
  0
SOLID
  5
17464
330
17311
100
AcDbEntity
  8
CL1
 62
     1
100
AcDbTrace
 10
-1286.676863784038
 20
1902.680136099817
 30
0.0
 11
-1285.676863784039
 21
1902.680136099817
 31
0.0
 12
-1286.176863784039
 22
1905.680136099817
 32
0.0
 13
-1286.176863784039
 23
1905.680136099817
 33
0.0
  0
MTEXT
  5
17465
330
17311
100
AcDbEntity
  8
CL1
 62
     1
100
AcDbMText
 10
-1288.926863784039
 20
1898.230136099816
 30
0.0
 40
3.5
 41
0.0
 71
     5
 72
     1
  1
\A1;(16)
 11
0.0000000000000001
 21
1.0
 31
0.0
1001
ACAD
1000
MTEXTBEGIN
1070
    73
1070
     1
1070
    44
1040
1.0
1070
    74
1070
     0
1000
MTEXTEND
  0
POINT
  5
17466
330
17311
100
AcDbEntity
  8
DEFPOINTS
 62
     0
100
AcDbPoint
 10
-1260.260675197518
 20
1890.780136099817
 30
0.0
  0
POINT
  5
17467
330
17311
100
AcDbEntity
  8
DEFPOINTS
 62
     0
100
AcDbPoint
 10
-1256.710675197518
 20
1905.680136099817
 30
0.0
  0
POINT
  5
17468
330
17311
100
AcDbEntity
  8
DEFPOINTS
 62
     0
100
AcDbPoint
 10
-1286.176863784039
 20
1905.680136099817
 30
0.0
  0
ENDBLK
  5
1731C
330
17311
100
AcDbEntity
  8
0
100
AcDbBlockEnd
  0
ENDSEC
  0
SECTION
  2
ENTITIES
  0
MTEXT
  5
5084
330
1A
100
AcDbEntity
  8
0
100
AcDbMText
 10
1985.239088685435
 20
-948.5420423450428
 30
0.0
 40
8.0
 41
0.0
 71
     7
 72
     5
  1

1001
ACAD
1000
MTEXTBEGIN
1070
    73
1070
     1
1070
    44
1040
1.0
1070
    74
1070
     0
1000
MTEXTEND
  0
MTEXT
  5
5085
330
1A
100
AcDbEntity
  8
0
100
AcDbMText
 10
4270.596778580329
 20
22.24825240601649
 30
0.0
 40
8.0
 41
0.0
 71
     7
 72
     5
  1

1001
ACAD
1000
MTEXTBEGIN
1070
    73
1070
     1
1070
    44
1040
1.0
1070
    74
1070
     0
1000
MTEXTEND
  0
MTEXT
  5
5343
330
1A
100
AcDbEntity
  8
SUNPOU
100
AcDbMText
 10
6936.493799262471
 20
9534.359644781135
 30
0.0
 40
10.5
 41
0.0
 71
     1
 72
     5
  1

1001
ACAD
1000
MTEXTBEGIN
1070
    73
1070
     1
1070
    44
1040
1.0
1070
    74
1070
     0
1000
MTEXTEND
  0
MTEXT
  5
544F
330
1A
100
AcDbEntity
  8
0
100
AcDbMText
 10
16317.2832773148
 20
12833.35428897674
 30
0.0
 40
8.0
 41
0.0
 71
     7
 72
     5
  1

1001
ACAD
1000
MTEXTBEGIN
1070
    73
1070
     1
1070
    44
1040
1.0
1070
    74
1070
     0
1000
MTEXTEND
  0
MTEXT
  5
5450
330
1A
100
AcDbEntity
  8
0
100
AcDbMText
 10
18602.64096720969
 20
13804.1445837278
 30
0.0
 40
8.0
 41
0.0
 71
     7
 72
     5
  1

1001
ACAD
1000
MTEXTBEGIN
1070
    73
1070
     1
1070
    44
1040
1.0
1070
    74
1070
     0
1000
MTEXTEND
  0
MTEXT
  5
5451
330
1A
100
AcDbEntity
  8
SUNPOU
100
AcDbMText
 10
21268.53798789184
 20
23316.25597610292
 30
0.0
 40
10.5
 41
0.0
 71
     1
 72
     5
  1

1001
ACAD
1000
MTEXTBEGIN
1070
    73
1070
     1
1070
    44
1040
1.0
1070
    74
1070
     0
1000
MTEXTEND
  0
MTEXT
  5
5452
330
1A
100
AcDbEntity
  8
SUNPOU
100
AcDbMText
 10
13337.6147919559
 20
22369.46284218996
 30
0.0
 40
10.5
 41
0.0
 71
     7
 72
     5
  1

1001
ACAD
1000
MTEXTBEGIN
1070
    73
1070
     1
1070
    44
1040
1.0
1070
    74
1070
     0
1000
MTEXTEND
  0
MTEXT
  5
5453
330
1A
100
AcDbEntity
  8
SUNPOU
100
AcDbMText
 10
16286.59845646867
 20
27270.13891403281
 30
0.0
 40
10.5
 41
0.0
 71
     7
 72
     5
  1

1001
ACAD
1000
MTEXTBEGIN
1070
    73
1070
     1
1070
    44
1040
1.0
1070
    74
1070
     0
1000
MTEXTEND
  0
MTEXT
  5
5454
330
1A
100
AcDbEntity
  8
SUNPOU
100
AcDbMText
 10
20795.67658441924
 20
29706.43966165288
 30
0.0
 40
10.5
 41
0.0
 71
     7
 72
     5
  1

1001
ACAD
1000
MTEXTBEGIN
1070
    73
1070
     1
1070
    44
1040
1.0
1070
    74
1070
     0
1000
MTEXTEND
  0
MTEXT
  5
5455
330
1A
100
AcDbEntity
  8
0
100
AcDbMText
 10
16611.93789220314
 20
14707.52144344448
 30
0.0
 40
8.0
 41
0.0
 71
     7
 72
     5
  1

1001
ACAD
1000
MTEXTBEGIN
1070
    73
1070
     1
1070
    44
1040
1.0
1070
    74
1070
     0
1000
MTEXTEND
  0
MTEXT
  5
5456
330
1A
100
AcDbEntity
  8
0
100
AcDbMText
 10
18897.29558209804
 20
15678.31173819554
 30
0.0
 40
8.0
 41
0.0
 71
     7
 72
     5
  1

1001
ACAD
1000
MTEXTBEGIN
1070
    73
1070
     1
1070
    44
1040
1.0
1070
    74
1070
     0
1000
MTEXTEND
  0
MTEXT
  5
5457
330
1A
100
AcDbEntity
  8
SUNPOU
100
AcDbMText
 10
21563.19260278019
 20
25190.42313057066
 30
0.0
 40
10.5
 41
0.0
 71
     1
 72
     5
  1

1001
ACAD
1000
MTEXTBEGIN
1070
    73
1070
     1
1070
    44
1040
1.0
1070
    74
1070
     0
1000
MTEXTEND
  0
MTEXT
  5
5458
330
1A
100
AcDbEntity
  8
SUNPOU
100
AcDbMText
 10
13632.26940684426
 20
24243.6299966577
 30
0.0
 40
10.5
 41
0.0
 71
     7
 72
     5
  1

1001
ACAD
1000
MTEXTBEGIN
1070
    73
1070
     1
1070
    44
1040
1.0
1070
    74
1070
     0
1000
MTEXTEND
  0
MTEXT
  5
5459
330
1A
100
AcDbEntity
  8
SUNPOU
100
AcDbMText
 10
16581.25307135702
 20
29144.30606850055
 30
0.0
 40
10.5
 41
0.0
 71
     7
 72
     5
  1

1001
ACAD
1000
MTEXTBEGIN
1070
    73
1070
     1
1070
    44
1040
1.0
1070
    74
1070
     0
1000
MTEXTEND
  0
MTEXT
  5
545A
330
1A
100
AcDbEntity
  8
SUNPOU
100
AcDbMText
 10
21090.33119930759
 20
31580.60681612062
 30
0.0
 40
10.5
 41
0.0
 71
     7
 72
     5
  1

1001
ACAD
1000
MTEXTBEGIN
1070
    73
1070
     1
1070
    44
1040
1.0
1070
    74
1070
     0
1000
MTEXTEND
  0
MTEXT
  5
545B
330
1A
100
AcDbEntity
  8
0
100
AcDbMText
 10
22871.60517627167
 20
23974.88367124799
 30
0.0
 40
8.0
 41
0.0
 71
     7
 72
     5
  1

1001
ACAD
1000
MTEXTBEGIN
1070
    73
1070
     1
1070
    44
1040
1.0
1070
    74
1070
     0
1000
MTEXTEND
  0
MTEXT
  5
545C
330
1A
100
AcDbEntity
  8
0
100
AcDbMText
 10
25156.96286616657
 20
24945.67396599906
 30
0.0
 40
8.0
 41
0.0
 71
     7
 72
     5
  1

1001
ACAD
1000
MTEXTBEGIN
1070
    73
1070
     1
1070
    44
1040
1.0
1070
    74
1070
     0
1000
MTEXTEND
  0
MTEXT
  5
545D
330
1A
100
AcDbEntity
  8
SUNPOU
100
AcDbMText
 10
27822.85988684871
 20
34457.78535837418
 30
0.0
 40
10.5
 41
0.0
 71
     1
 72
     5
  1

1001
ACAD
1000
MTEXTBEGIN
1070
    73
1070
     1
1070
    44
1040
1.0
1070
    74
1070
     0
1000
MTEXTEND
  0
MTEXT
  5
545E
330
1A
100
AcDbEntity
  8
SUNPOU
100
AcDbMText
 10
19891.93669091278
 20
33510.99222446122
 30
0.0
 40
10.5
 41
0.0
 71
     7
 72
     5
  1

1001
ACAD
1000
MTEXTBEGIN
1070
    73
1070
     1
1070
    44
1040
1.0
1070
    74
1070
     0
1000
MTEXTEND
  0
MTEXT
  5
545F
330
1A
100
AcDbEntity
  8
SUNPOU
100
AcDbMText
 10
22840.92035542555
 20
38411.66829630407
 30
0.0
 40
10.5
 41
0.0
 71
     7
 72
     5
  1

1001
ACAD
1000
MTEXTBEGIN
1070
    73
1070
     1
1070
    44
1040
1.0
1070
    74
1070
     0
1000
MTEXTEND
  0
MTEXT
  5
5460
330
1A
100
AcDbEntity
  8
SUNPOU
100
AcDbMText
 10
27349.99848337611
 20
40847.96904392415
 30
0.0
 40
10.5
 41
0.0
 71
     7
 72
     5
  1

1001
ACAD
1000
MTEXTBEGIN
1070
    73
1070
     1
1070
    44
1040
1.0
1070
    74
1070
     0
1000
MTEXTEND
  0
MTEXT
  5
55B7
330
1A
100
AcDbEntity
  8
SUNPOU
100
AcDbMText
 10
67424.23923338197
 20
64463.86602884816
 30
0.0
 40
10.5
 41
0.0
 71
     9
 72
     5
  1

1001
ACAD
1000
MTEXTBEGIN
1070
    73
1070
     1
1070
    44
1040
1.0
1070
    74
1070
     0
1000
MTEXTEND
  0
MTEXT
  5
55B8
330
1A
100
AcDbEntity
  8
SUNPOU
100
AcDbMText
 10
76146.40679929998
 20
71879.70056038563
 30
0.0
 40
10.5
 41
0.0
 71
     9
 72
     5
  1

1001
ACAD
1000
MTEXTBEGIN
1070
    73
1070
     1
1070
    44
1040
1.0
1070
    74
1070
     0
1000
MTEXTEND
  0
MTEXT
  5
55B9
330
1A
100
AcDbEntity
  8
SUNPOU
100
AcDbMText
 10
95100.16551662994
 20
89346.27661287766
 30
0.0
 40
10.5
 41
0.0
 71
     9
 72
     5
  1

1001
ACAD
1000
MTEXTBEGIN
1070
    73
1070
     1
1070
    44
1040
1.0
1070
    74
1070
     0
1000
MTEXTEND
  0
MTEXT
  5
55BA
330
1A
100
AcDbEntity
  8
SUNPOU
100
AcDbMText
 10
97043.57276333936
 20
87545.22753299966
 30
0.0
 40
3.5
 41
0.0
 71
     9
 72
     5
  1

1001
ACAD
1000
MTEXTBEGIN
1070
    73
1070
     1
1070
    44
1040
1.0
1070
    74
1070
     0
1000
MTEXTEND
  0
MTEXT
  5
55BB
330
1A
100
AcDbEntity
  8
SUNPOU
100
AcDbMText
 10
128169.752595959
 20
130040.1732006569
 30
0.0
 40
10.5
 41
0.0
 71
     9
 72
     5
  1

1001
ACAD
1000
MTEXTBEGIN
1070
    73
1070
     1
1070
    44
1040
1.0
1070
    74
1070
     0
1000
MTEXTEND
  0
MTEXT
  5
55BC
330
1A
100
AcDbEntity
  8
SUNPOU
100
AcDbMText
 10
130113.1598426684
 20
128239.1241207789
 30
0.0
 40
3.5
 41
0.0
 71
     9
 72
     5
  1

1001
ACAD
1000
MTEXTBEGIN
1070
    73
1070
     1
1070
    44
1040
1.0
1070
    74
1070
     0
1000
MTEXTEND
  0
MTEXT
  5
55BD
330
1A
100
AcDbEntity
  8
SUNPOU
100
AcDbMText
 10
78610.02030175463
 20
75873.33835563206
 30
0.0
 40
10.5
 41
0.0
 71
     9
 72
     5
  1

1001
ACAD
1000
MTEXTBEGIN
1070
    73
1070
     1
1070
    44
1040
1.0
1070
    74
1070
     0
1000
MTEXTEND
  0
MTEXT
  5
55BE
330
1A
100
AcDbEntity
  8
SUNPOU
100
AcDbMText
 10
64662.02020137863
 20
56700.93921651987
 30
0.0
 40
3.5
 41
0.0
 71
     7
 72
     5
  1

1001
ACAD
1000
MTEXTBEGIN
1070
    73
1070
     1
1070
    44
1040
1.0
1070
    74
1070
     0
1000
MTEXTEND
  0
MTEXT
  5
55BF
330
1A
100
AcDbEntity
  8
SUNPOU
100
AcDbMText
 10
45647.18959837178
 20
44463.08794733807
 30
0.0
 40
10.5
 41
0.0
 71
     7
 72
     5
  1

1001
ACAD
1000
MTEXTBEGIN
1070
    73
1070
     1
1070
    44
1040
1.0
1070
    74
1070
     0
1000
MTEXTEND
  0
MTEXT
  5
55C0
330
1A
100
AcDbEntity
  8
SUNPOU
100
AcDbMText
 10
33189.96133342368
 20
28618.15636923965
 30
0.0
 40
35.0
 41
0.0
 71
     9
 72
     5
  1

1001
ACAD
1000
MTEXTBEGIN
1070
    73
1070
     1
1070
    44
1040
1.0
1070
    74
1070
     0
1000
MTEXTEND
  0
MTEXT
  5
55C1
330
1A
100
AcDbEntity
  8
SUNPOU
100
AcDbMText
 10
32098.44639099864
 20
29226.93177928835
 30
0.0
 40
350.0000004171781
 41
0.0
 71
     7
 72
     5
  1

1001
ACAD
1000
MTEXTBEGIN
1070
    73
1070
     1
1070
    44
1040
1.0
1070
    74
1070
     0
1000
MTEXTEND
  0
MTEXT
  5
55C2
330
1A
100
AcDbEntity
  8
0
100
AcDbMText
 10
38142.39714894154
 20
27206.85414142458
 30
0.0
 40
8.0
 41
0.0
 71
     7
 72
     5
  1

1001
ACAD
1000
MTEXTBEGIN
1070
    73
1070
     1
1070
    44
1040
1.0
1070
    74
1070
     0
1000
MTEXTEND
  0
MTEXT
  5
55C3
330
1A
100
AcDbEntity
  8
0
100
AcDbMText
 10
40427.75483883644
 20
28177.64443617564
 30
0.0
 40
8.0
 41
0.0
 71
     7
 72
     5
  1

1001
ACAD
1000
MTEXTBEGIN
1070
    73
1070
     1
1070
    44
1040
1.0
1070
    74
1070
     0
1000
MTEXTEND
  0
MTEXT
  5
55C4
330
1A
100
AcDbEntity
  8
SUNPOU
100
AcDbMText
 10
43093.65185951858
 20
37689.75582855077
 30
0.0
 40
10.5
 41
0.0
 71
     1
 72
     5
  1

1001
ACAD
1000
MTEXTBEGIN
1070
    73
1070
     1
1070
    44
1040
1.0
1070
    74
1070
     0
1000
MTEXTEND
  0
MTEXT
  5
55C5
330
1A
100
AcDbEntity
  8
SUNPOU
100
AcDbMText
 10
35162.72866358265
 20
36742.96269463781
 30
0.0
 40
10.5
 41
0.0
 71
     7
 72
     5
  1

1001
ACAD
1000
MTEXTBEGIN
1070
    73
1070
     1
1070
    44
1040
1.0
1070
    74
1070
     0
1000
MTEXTEND
  0
MTEXT
  5
55C6
330
1A
100
AcDbEntity
  8
SUNPOU
100
AcDbMText
 10
38111.71232809542
 20
41643.63876648066
 30
0.0
 40
10.5
 41
0.0
 71
     7
 72
     5
  1

1001
ACAD
1000
MTEXTBEGIN
1070
    73
1070
     1
1070
    44
1040
1.0
1070
    74
1070
     0
1000
MTEXTEND
  0
MTEXT
  5
55C7
330
1A
100
AcDbEntity
  8
SUNPOU
100
AcDbMText
 10
42620.79045604597
 20
44079.93951410074
 30
0.0
 40
10.5
 41
0.0
 71
     7
 72
     5
  1

1001
ACAD
1000
MTEXTBEGIN
1070
    73
1070
     1
1070
    44
1040
1.0
1070
    74
1070
     0
1000
MTEXTEND
  0
MTEXT
  5
55C8
330
1A
100
AcDbEntity
  8
SUNPOU
100
AcDbMText
 10
26221.62834281429
 20
23077.53566448964
 30
0.0
 40
10.5
 41
0.0
 71
     7
 72
     5
  1

1001
ACAD
1000
MTEXTBEGIN
1070
    73
1070
     1
1070
    44
1040
1.0
1070
    74
1070
     0
1000
MTEXTEND
  0
MTEXT
  5
55C9
330
1A
100
AcDbEntity
  8
SUNPOU
100
AcDbMText
 10
77413.14677671455
 20
68750.51622813789
 30
0.0
 40
10.5
 41
0.0
 71
     9
 72
     5
  1

1001
ACAD
1000
MTEXTBEGIN
1070
    73
1070
     1
1070
    44
1040
1.0
1070
    74
1070
     0
1000
MTEXTEND
  0
MTEXT
  5
55CA
330
1A
100
AcDbEntity
  8
SUNPOU
100
AcDbMText
 10
86135.31434263256
 20
76166.35075967536
 30
0.0
 40
10.5
 41
0.0
 71
     9
 72
     5
  1

1001
ACAD
1000
MTEXTBEGIN
1070
    73
1070
     1
1070
    44
1040
1.0
1070
    74
1070
     0
1000
MTEXTEND
  0
MTEXT
  5
55CB
330
1A
100
AcDbEntity
  8
SUNPOU
100
AcDbMText
 10
105089.0730599625
 20
93632.92681216739
 30
0.0
 40
10.5
 41
0.0
 71
     9
 72
     5
  1

1001
ACAD
1000
MTEXTBEGIN
1070
    73
1070
     1
1070
    44
1040
1.0
1070
    74
1070
     0
1000
MTEXTEND
  0
MTEXT
  5
55CC
330
1A
100
AcDbEntity
  8
SUNPOU
100
AcDbMText
 10
107032.4803066719
 20
91831.8777322894
 30
0.0
 40
3.5
 41
0.0
 71
     9
 72
     5
  1

1001
ACAD
1000
MTEXTBEGIN
1070
    73
1070
     1
1070
    44
1040
1.0
1070
    74
1070
     0
1000
MTEXTEND
  0
MTEXT
  5
55CD
330
1A
100
AcDbEntity
  8
SUNPOU
100
AcDbMText
 10
138158.6601392916
 20
134326.8233999467
 30
0.0
 40
10.5
 41
0.0
 71
     9
 72
     5
  1

1001
ACAD
1000
MTEXTBEGIN
1070
    73
1070
     1
1070
    44
1040
1.0
1070
    74
1070
     0
1000
MTEXTEND
  0
MTEXT
  5
55CE
330
1A
100
AcDbEntity
  8
SUNPOU
100
AcDbMText
 10
140102.067386001
 20
132525.7743200686
 30
0.0
 40
3.5
 41
0.0
 71
     9
 72
     5
  1

1001
ACAD
1000
MTEXTBEGIN
1070
    73
1070
     1
1070
    44
1040
1.0
1070
    74
1070
     0
1000
MTEXTEND
  0
MTEXT
  5
55CF
330
1A
100
AcDbEntity
  8
SUNPOU
100
AcDbMText
 10
88598.92784508721
 20
80159.98855492179
 30
0.0
 40
10.5
 41
0.0
 71
     9
 72
     5
  1

1001
ACAD
1000
MTEXTBEGIN
1070
    73
1070
     1
1070
    44
1040
1.0
1070
    74
1070
     0
1000
MTEXTEND
  0
MTEXT
  5
55D0
330
1A
100
AcDbEntity
  8
SUNPOU
100
AcDbMText
 10
74650.92774471121
 20
60987.5894158096
 30
0.0
 40
3.5
 41
0.0
 71
     7
 72
     5
  1

1001
ACAD
1000
MTEXTBEGIN
1070
    73
1070
     1
1070
    44
1040
1.0
1070
    74
1070
     0
1000
MTEXTEND
  0
MTEXT
  5
55D1
330
1A
100
AcDbEntity
  8
SUNPOU
100
AcDbMText
 10
55636.09714170436
 20
48749.73814662781
 30
0.0
 40
10.5
 41
0.0
 71
     7
 72
     5
  1

1001
ACAD
1000
MTEXTBEGIN
1070
    73
1070
     1
1070
    44
1040
1.0
1070
    74
1070
     0
1000
MTEXTEND
  0
MTEXT
  5
55D2
330
1A
100
AcDbEntity
  8
SUNPOU
100
AcDbMText
 10
43178.86887675626
 20
32904.80656852938
 30
0.0
 40
35.0
 41
0.0
 71
     9
 72
     5
  1

1001
ACAD
1000
MTEXTBEGIN
1070
    73
1070
     1
1070
    44
1040
1.0
1070
    74
1070
     0
1000
MTEXTEND
  0
MTEXT
  5
55D3
330
1A
100
AcDbEntity
  8
SUNPOU
100
AcDbMText
 10
42087.35393433121
 20
33513.58197857809
 30
0.0
 40
350.0000004171781
 41
0.0
 71
     7
 72
     5
  1

1001
ACAD
1000
MTEXTBEGIN
1070
    73
1070
     1
1070
    44
1040
1.0
1070
    74
1070
     0
1000
MTEXTEND
  0
MTEXT
  5
55D4
330
1A
100
AcDbEntity
  8
0
100
AcDbMText
 10
48131.30469227412
 20
31493.50434071431
 30
0.0
 40
8.0
 41
0.0
 71
     7
 72
     5
  1

1001
ACAD
1000
MTEXTBEGIN
1070
    73
1070
     1
1070
    44
1040
1.0
1070
    74
1070
     0
1000
MTEXTEND
  0
MTEXT
  5
55D5
330
1A
100
AcDbEntity
  8
0
100
AcDbMText
 10
50416.66238216901
 20
32464.29463546537
 30
0.0
 40
8.0
 41
0.0
 71
     7
 72
     5
  1

1001
ACAD
1000
MTEXTBEGIN
1070
    73
1070
     1
1070
    44
1040
1.0
1070
    74
1070
     0
1000
MTEXTEND
  0
MTEXT
  5
55D6
330
1A
100
AcDbEntity
  8
SUNPOU
100
AcDbMText
 10
53082.55940285115
 20
41976.4060278405
 30
0.0
 40
10.5
 41
0.0
 71
     1
 72
     5
  1

1001
ACAD
1000
MTEXTBEGIN
1070
    73
1070
     1
1070
    44
1040
1.0
1070
    74
1070
     0
1000
MTEXTEND
  0
MTEXT
  5
55D7
330
1A
100
AcDbEntity
  8
SUNPOU
100
AcDbMText
 10
45151.63620691522
 20
41029.61289392755
 30
0.0
 40
10.5
 41
0.0
 71
     7
 72
     5
  1

1001
ACAD
1000
MTEXTBEGIN
1070
    73
1070
     1
1070
    44
1040
1.0
1070
    74
1070
     0
1000
MTEXTEND
  0
MTEXT
  5
55D8
330
1A
100
AcDbEntity
  8
SUNPOU
100
AcDbMText
 10
48100.61987142798
 20
45930.28896577039
 30
0.0
 40
10.5
 41
0.0
 71
     7
 72
     5
  1

1001
ACAD
1000
MTEXTBEGIN
1070
    73
1070
     1
1070
    44
1040
1.0
1070
    74
1070
     0
1000
MTEXTEND
  0
MTEXT
  5
55D9
330
1A
100
AcDbEntity
  8
SUNPOU
100
AcDbMText
 10
52609.69799937854
 20
48366.58971339046
 30
0.0
 40
10.5
 41
0.0
 71
     7
 72
     5
  1

1001
ACAD
1000
MTEXTBEGIN
1070
    73
1070
     1
1070
    44
1040
1.0
1070
    74
1070
     0
1000
MTEXTEND
  0
MTEXT
  5
55DA
330
1A
100
AcDbEntity
  8
SUNPOU
100
AcDbMText
 10
36210.53588614687
 20
27364.18586377937
 30
0.0
 40
10.5
 41
0.0
 71
     7
 72
     5
  1

1001
ACAD
1000
MTEXTBEGIN
1070
    73
1070
     1
1070
    44
1040
1.0
1070
    74
1070
     0
1000
MTEXTEND
  0
MTEXT
  5
55DB
330
1A
100
AcDbEntity
  8
SUNPOU
100
AcDbMText
 10
38021.29879752181
 20
33691.59985125794
 30
0.0
 40
10.5
 41
0.0
 71
     9
 72
     5
  1

1001
ACAD
1000
MTEXTBEGIN
1070
    73
1070
     1
1070
    44
1040
1.0
1070
    74
1070
     0
1000
MTEXTEND
  0
MTEXT
  5
55DC
330
1A
100
AcDbEntity
  8
SUNPOU
100
AcDbMText
 10
46743.46636343979
 20
41107.43438279541
 30
0.0
 40
10.5
 41
0.0
 71
     9
 72
     5
  1

1001
ACAD
1000
MTEXTBEGIN
1070
    73
1070
     1
1070
    44
1040
1.0
1070
    74
1070
     0
1000
MTEXTEND
  0
MTEXT
  5
55DD
330
1A
100
AcDbEntity
  8
SUNPOU
100
AcDbMText
 10
65697.22508076975
 20
58574.01043528746
 30
0.0
 40
10.5
 41
0.0
 71
     9
 72
     5
  1

1001
ACAD
1000
MTEXTBEGIN
1070
    73
1070
     1
1070
    44
1040
1.0
1070
    74
1070
     0
1000
MTEXTEND
  0
MTEXT
  5
55DE
330
1A
100
AcDbEntity
  8
SUNPOU
100
AcDbMText
 10
67640.63232747917
 20
56772.96135540945
 30
0.0
 40
3.5
 41
0.0
 71
     9
 72
     5
  1

1001
ACAD
1000
MTEXTBEGIN
1070
    73
1070
     1
1070
    44
1040
1.0
1070
    74
1070
     0
1000
MTEXTEND
  0
MTEXT
  5
55DF
330
1A
100
AcDbEntity
  8
SUNPOU
100
AcDbMText
 10
98766.81216009888
 20
99267.9070230668
 30
0.0
 40
10.5
 41
0.0
 71
     9
 72
     5
  1

1001
ACAD
1000
MTEXTBEGIN
1070
    73
1070
     1
1070
    44
1040
1.0
1070
    74
1070
     0
1000
MTEXTEND
  0
MTEXT
  5
55E0
330
1A
100
AcDbEntity
  8
SUNPOU
100
AcDbMText
 10
100710.2194068083
 20
97466.85794318878
 30
0.0
 40
3.5
 41
0.0
 71
     9
 72
     5
  1

1001
ACAD
1000
MTEXTBEGIN
1070
    73
1070
     1
1070
    44
1040
1.0
1070
    74
1070
     0
1000
MTEXTEND
  0
MTEXT
  5
55E1
330
1A
100
AcDbEntity
  8
SUNPOU
100
AcDbMText
 10
49207.07986589444
 20
45101.07217804185
 30
0.0
 40
10.5
 41
0.0
 71
     9
 72
     5
  1

1001
ACAD
1000
MTEXTBEGIN
1070
    73
1070
     1
1070
    44
1040
1.0
1070
    74
1070
     0
1000
MTEXTEND
  0
MTEXT
  5
55E2
330
1A
100
AcDbEntity
  8
SUNPOU
100
AcDbMText
 10
35259.07976551845
 20
25928.67303892964
 30
0.0
 40
3.5
 41
0.0
 71
     7
 72
     5
  1

1001
ACAD
1000
MTEXTBEGIN
1070
    73
1070
     1
1070
    44
1040
1.0
1070
    74
1070
     0
1000
MTEXTEND
  0
MTEXT
  5
55E3
330
1A
100
AcDbEntity
  8
SUNPOU
100
AcDbMText
 10
48951.43044828905
 20
35287.73625995099
 30
0.0
 40
10.5
 41
0.0
 71
     9
 72
     5
  1

1001
ACAD
1000
MTEXTBEGIN
1070
    73
1070
     1
1070
    44
1040
1.0
1070
    74
1070
     0
1000
MTEXTEND
  0
MTEXT
  5
55E4
330
1A
100
AcDbEntity
  8
SUNPOU
100
AcDbMText
 10
57673.59801420702
 20
42703.57079148847
 30
0.0
 40
10.5
 41
0.0
 71
     9
 72
     5
  1

1001
ACAD
1000
MTEXTBEGIN
1070
    73
1070
     1
1070
    44
1040
1.0
1070
    74
1070
     0
1000
MTEXTEND
  0
MTEXT
  5
55E5
330
1A
100
AcDbEntity
  8
SUNPOU
100
AcDbMText
 10
76627.35673153699
 20
60170.14684398051
 30
0.0
 40
10.5
 41
0.0
 71
     9
 72
     5
  1

1001
ACAD
1000
MTEXTBEGIN
1070
    73
1070
     1
1070
    44
1040
1.0
1070
    74
1070
     0
1000
MTEXTEND
  0
MTEXT
  5
55E6
330
1A
100
AcDbEntity
  8
SUNPOU
100
AcDbMText
 10
78570.76397824641
 20
58369.09776410251
 30
0.0
 40
3.5
 41
0.0
 71
     9
 72
     5
  1

1001
ACAD
1000
MTEXTBEGIN
1070
    73
1070
     1
1070
    44
1040
1.0
1070
    74
1070
     0
1000
MTEXTEND
  0
MTEXT
  5
55E7
330
1A
100
AcDbEntity
  8
SUNPOU
100
AcDbMText
 10
109696.9438108661
 20
100864.0434317598
 30
0.0
 40
10.5
 41
0.0
 71
     9
 72
     5
  1

1001
ACAD
1000
MTEXTBEGIN
1070
    73
1070
     1
1070
    44
1040
1.0
1070
    74
1070
     0
1000
MTEXTEND
  0
MTEXT
  5
55E8
330
1A
100
AcDbEntity
  8
SUNPOU
100
AcDbMText
 10
111640.3510575755
 20
99062.99435188183
 30
0.0
 40
3.5
 41
0.0
 71
     9
 72
     5
  1

1001
ACAD
1000
MTEXTBEGIN
1070
    73
1070
     1
1070
    44
1040
1.0
1070
    74
1070
     0
1000
MTEXTEND
  0
MTEXT
  5
55E9
330
1A
100
AcDbEntity
  8
SUNPOU
100
AcDbMText
 10
60137.21151666167
 20
46697.20858673491
 30
0.0
 40
10.5
 41
0.0
 71
     9
 72
     5
  1

1001
ACAD
1000
MTEXTBEGIN
1070
    73
1070
     1
1070
    44
1040
1.0
1070
    74
1070
     0
1000
MTEXTEND
  0
MTEXT
  5
55EA
330
1A
100
AcDbEntity
  8
SUNPOU
100
AcDbMText
 10
46189.21141628568
 20
27524.80944762269
 30
0.0
 40
3.5
 41
0.0
 71
     7
 72
     5
  1

1001
ACAD
1000
MTEXTBEGIN
1070
    73
1070
     1
1070
    44
1040
1.0
1070
    74
1070
     0
1000
MTEXTEND
  0
MTEXT
  5
55EB
330
1A
100
AcDbEntity
  8
SUNPOU
100
AcDbMText
 10
45007.68847015541
 20
38269.57947701874
 30
0.0
 40
10.5
 41
0.0
 71
     9
 72
     5
  1

1001
ACAD
1000
MTEXTBEGIN
1070
    73
1070
     1
1070
    44
1040
1.0
1070
    74
1070
     0
1000
MTEXTEND
  0
MTEXT
  5
55EC
330
1A
100
AcDbEntity
  8
SUNPOU
100
AcDbMText
 10
63961.44718748539
 20
55736.15552951081
 30
0.0
 40
10.5
 41
0.0
 71
     9
 72
     5
  1

1001
ACAD
1000
MTEXTBEGIN
1070
    73
1070
     1
1070
    44
1040
1.0
1070
    74
1070
     0
1000
MTEXTEND
  0
MTEXT
  5
55ED
330
1A
100
AcDbEntity
  8
SUNPOU
100
AcDbMText
 10
65904.85443419479
 20
53935.10644963279
 30
0.0
 40
3.5
 41
0.0
 71
     9
 72
     5
  1

1001
ACAD
1000
MTEXTBEGIN
1070
    73
1070
     1
1070
    44
1040
1.0
1070
    74
1070
     0
1000
MTEXTEND
  0
MTEXT
  5
55EE
330
1A
100
AcDbEntity
  8
SUNPOU
100
AcDbMText
 10
97031.03426681451
 20
96430.05211729015
 30
0.0
 40
10.5
 41
0.0
 71
     9
 72
     5
  1

1001
ACAD
1000
MTEXTBEGIN
1070
    73
1070
     1
1070
    44
1040
1.0
1070
    74
1070
     0
1000
MTEXTEND
  0
MTEXT
  5
55EF
330
1A
100
AcDbEntity
  8
SUNPOU
100
AcDbMText
 10
98974.44151352393
 20
94629.00303741212
 30
0.0
 40
3.5
 41
0.0
 71
     9
 72
     5
  1

1001
ACAD
1000
MTEXTBEGIN
1070
    73
1070
     1
1070
    44
1040
1.0
1070
    74
1070
     0
1000
MTEXTEND
  0
MTEXT
  5
55F0
330
1A
100
AcDbEntity
  8
SUNPOU
100
AcDbMText
 10
47471.30197261006
 20
42263.21727226519
 30
0.0
 40
10.5
 41
0.0
 71
     9
 72
     5
  1

1001
ACAD
1000
MTEXTBEGIN
1070
    73
1070
     1
1070
    44
1040
1.0
1070
    74
1070
     0
1000
MTEXTEND
  0
MTEXT
  5
55F1
330
1A
100
AcDbEntity
  8
SUNPOU
100
AcDbMText
 10
33523.30187223408
 20
23090.81813315298
 30
0.0
 40
3.5
 41
0.0
 71
     7
 72
     5
  1

1001
ACAD
1000
MTEXTBEGIN
1070
    73
1070
     1
1070
    44
1040
1.0
1070
    74
1070
     0
1000
MTEXTEND
  0
MTEXT
  5
55F2
330
1A
100
AcDbEntity
  8
SUNPOU
100
AcDbMText
 10
57959.46254102503
 20
50038.08111611015
 30
0.0
 40
10.5
 41
0.0
 71
     9
 72
     5
  1

1001
ACAD
1000
MTEXTBEGIN
1070
    73
1070
     1
1070
    44
1040
1.0
1070
    74
1070
     0
1000
MTEXTEND
  0
MTEXT
  5
55F3
330
1A
100
AcDbEntity
  8
SUNPOU
100
AcDbMText
 10
76913.22125835503
 20
67504.65716860222
 30
0.0
 40
10.5
 41
0.0
 71
     9
 72
     5
  1

1001
ACAD
1000
MTEXTBEGIN
1070
    73
1070
     1
1070
    44
1040
1.0
1070
    74
1070
     0
1000
MTEXTEND
  0
MTEXT
  5
55F4
330
1A
100
AcDbEntity
  8
SUNPOU
100
AcDbMText
 10
78856.62850506443
 20
65703.6080887242
 30
0.0
 40
3.5
 41
0.0
 71
     9
 72
     5
  1

1001
ACAD
1000
MTEXTBEGIN
1070
    73
1070
     1
1070
    44
1040
1.0
1070
    74
1070
     0
1000
MTEXTEND
  0
MTEXT
  5
55F5
330
1A
100
AcDbEntity
  8
SUNPOU
100
AcDbMText
 10
109982.8083376841
 20
108198.5537563815
 30
0.0
 40
10.5
 41
0.0
 71
     9
 72
     5
  1

1001
ACAD
1000
MTEXTBEGIN
1070
    73
1070
     1
1070
    44
1040
1.0
1070
    74
1070
     0
1000
MTEXTEND
  0
MTEXT
  5
55F6
330
1A
100
AcDbEntity
  8
SUNPOU
100
AcDbMText
 10
111926.2155843935
 20
106397.5046765035
 30
0.0
 40
3.5
 41
0.0
 71
     9
 72
     5
  1

1001
ACAD
1000
MTEXTBEGIN
1070
    73
1070
     1
1070
    44
1040
1.0
1070
    74
1070
     0
1000
MTEXTEND
  0
MTEXT
  5
55F7
330
1A
100
AcDbEntity
  8
SUNPOU
100
AcDbMText
 10
60423.07604347968
 20
54031.71891135659
 30
0.0
 40
10.5
 41
0.0
 71
     9
 72
     5
  1

1001
ACAD
1000
MTEXTBEGIN
1070
    73
1070
     1
1070
    44
1040
1.0
1070
    74
1070
     0
1000
MTEXTEND
  0
MTEXT
  5
55F8
330
1A
100
AcDbEntity
  8
SUNPOU
100
AcDbMText
 10
46475.07594310369
 20
34859.3197722444
 30
0.0
 40
3.5
 41
0.0
 71
     7
 72
     5
  1

1001
ACAD
1000
MTEXTBEGIN
1070
    73
1070
     1
1070
    44
1040
1.0
1070
    74
1070
     0
1000
MTEXTEND
  0
MTEXT
  5
55F9
330
1A
100
AcDbEntity
  8
SUNPOU
100
AcDbMText
 10
74027.35402123588
 20
68370.58278833383
 30
0.0
 40
10.5
 41
0.0
 71
     9
 72
     5
  1

1001
ACAD
1000
MTEXTBEGIN
1070
    73
1070
     1
1070
    44
1040
1.0
1070
    74
1070
     0
1000
MTEXTEND
  0
MTEXT
  5
55FA
330
1A
100
AcDbEntity
  8
SUNPOU
100
AcDbMText
 10
75970.7612679453
 20
66569.53370845583
 30
0.0
 40
3.5
 41
0.0
 71
     9
 72
     5
  1

1001
ACAD
1000
MTEXTBEGIN
1070
    73
1070
     1
1070
    44
1040
1.0
1070
    74
1070
     0
1000
MTEXTEND
  0
MTEXT
  5
55FB
330
1A
100
AcDbEntity
  8
SUNPOU
100
AcDbMText
 10
107096.941100565
 20
109064.4793761132
 30
0.0
 40
10.5
 41
0.0
 71
     9
 72
     5
  1

1001
ACAD
1000
MTEXTBEGIN
1070
    73
1070
     1
1070
    44
1040
1.0
1070
    74
1070
     0
1000
MTEXTEND
  0
MTEXT
  5
55FC
330
1A
100
AcDbEntity
  8
SUNPOU
100
AcDbMText
 10
109040.3483472744
 20
107263.4302962351
 30
0.0
 40
3.5
 41
0.0
 71
     9
 72
     5
  1

1001
ACAD
1000
MTEXTBEGIN
1070
    73
1070
     1
1070
    44
1040
1.0
1070
    74
1070
     0
1000
MTEXTEND
  0
MTEXT
  5
55FD
330
1A
100
AcDbEntity
  8
SUNPOU
100
AcDbMText
 10
105709.1709283621
 20
108141.3777665285
 30
0.0
 40
10.5
 41
0.0
 71
     9
 72
     5
  1

1001
ACAD
1000
MTEXTBEGIN
1070
    73
1070
     1
1070
    44
1040
1.0
1070
    74
1070
     0
1000
MTEXTEND
  0
MTEXT
  5
55FE
330
1A
100
AcDbEntity
  8
SUNPOU
100
AcDbMText
 10
107652.5781750715
 20
106340.3286866505
 30
0.0
 40
3.5
 41
0.0
 71
     9
 72
     5
  1

1001
ACAD
1000
MTEXTBEGIN
1070
    73
1070
     1
1070
    44
1040
1.0
1070
    74
1070
     0
1000
MTEXTEND
  0
MTEXT
  5
55FF
330
1A
100
AcDbEntity
  8
SUNPOU
100
AcDbMText
 10
73193.09268743351
 20
66158.78082845056
 30
0.0
 40
10.5
 41
0.0
 71
     9
 72
     5
  1

1001
ACAD
1000
MTEXTBEGIN
1070
    73
1070
     1
1070
    44
1040
1.0
1070
    74
1070
     0
1000
MTEXTEND
  0
MTEXT
  5
5600
330
1A
100
AcDbEntity
  8
SUNPOU
100
AcDbMText
 10
75916.39889159806
 20
66563.46252003162
 30
0.0
 40
3.5
 41
0.0
 71
     9
 72
     5
  1

1001
ACAD
1000
MTEXTBEGIN
1070
    73
1070
     1
1070
    44
1040
1.0
1070
    74
1070
     0
1000
MTEXTEND
  0
MTEXT
  5
5601
330
1A
100
AcDbEntity
  8
SUNPOU
100
AcDbMText
 10
75124.04436649058
 20
63402.1566819768
 30
0.0
 40
10.5
 41
0.0
 71
     9
 72
     5
  1

1001
ACAD
1000
MTEXTBEGIN
1070
    73
1070
     1
1070
    44
1040
1.0
1070
    74
1070
     0
1000
MTEXTEND
  0
MTEXT
  5
5602
330
1A
100
AcDbEntity
  8
SUNPOU
100
AcDbMText
 10
77067.4516132
 20
61601.1076020988
 30
0.0
 40
3.5
 41
0.0
 71
     9
 72
     5
  1

1001
ACAD
1000
MTEXTBEGIN
1070
    73
1070
     1
1070
    44
1040
1.0
1070
    74
1070
     0
1000
MTEXTEND
  0
MTEXT
  5
5603
330
1A
100
AcDbEntity
  8
SUNPOU
100
AcDbMText
 10
77012.54710378659
 20
61488.33571981449
 30
0.0
 40
3.5
 41
0.0
 71
     9
 72
     5
  1

1001
ACAD
1000
MTEXTBEGIN
1070
    73
1070
     1
1070
    44
1040
1.0
1070
    74
1070
     0
1000
MTEXTEND
  0
MTEXT
  5
5604
330
1A
100
AcDbEntity
  8
SUNPOU
100
AcDbMText
 10
76376.61896736668
 20
60677.01447874797
 30
0.0
 40
3.5
 41
0.0
 71
     9
 72
     5
  1

1001
ACAD
1000
MTEXTBEGIN
1070
    73
1070
     1
1070
    44
1040
1.0
1070
    74
1070
     0
1000
MTEXTEND
  0
MTEXT
  5
5605
330
1A
100
AcDbEntity
  8
SUNPOU
100
AcDbMText
 10
76375.37854794595
 20
60676.76650181047
 30
0.0
 40
10.5
 41
0.0
 71
     9
 72
     5
  1

1001
ACAD
1000
MTEXTBEGIN
1070
    73
1070
     1
1070
    44
1040
1.0
1070
    74
1070
     0
1000
MTEXTEND
  0
MTEXT
  5
5606
330
1A
100
AcDbEntity
  8
SUNPOU
100
AcDbMText
 10
84709.93991079748
 20
78034.0328293557
 30
0.0
 40
10.5
 41
0.0
 71
     9
 72
     5
  1

1001
ACAD
1000
MTEXTBEGIN
1070
    73
1070
     1
1070
    44
1040
1.0
1070
    74
1070
     0
1000
MTEXTEND
  0
MTEXT
  5
5607
330
1A
100
AcDbEntity
  8
SUNPOU
100
AcDbMText
 10
93432.10747671548
 20
85449.86736089315
 30
0.0
 40
10.5
 41
0.0
 71
     9
 72
     5
  1

1001
ACAD
1000
MTEXTBEGIN
1070
    73
1070
     1
1070
    44
1040
1.0
1070
    74
1070
     0
1000
MTEXTEND
  0
MTEXT
  5
5608
330
1A
100
AcDbEntity
  8
SUNPOU
100
AcDbMText
 10
112385.8661940454
 20
102916.4434133851
 30
0.0
 40
10.5
 41
0.0
 71
     9
 72
     5
  1

1001
ACAD
1000
MTEXTBEGIN
1070
    73
1070
     1
1070
    44
1040
1.0
1070
    74
1070
     0
1000
MTEXTEND
  0
MTEXT
  5
5609
330
1A
100
AcDbEntity
  8
SUNPOU
100
AcDbMText
 10
114329.2734407548
 20
101115.3943335072
 30
0.0
 40
3.5
 41
0.0
 71
     9
 72
     5
  1

1001
ACAD
1000
MTEXTBEGIN
1070
    73
1070
     1
1070
    44
1040
1.0
1070
    74
1070
     0
1000
MTEXTEND
  0
MTEXT
  5
560A
330
1A
100
AcDbEntity
  8
SUNPOU
100
AcDbMText
 10
145455.4532733745
 20
143610.3400011645
 30
0.0
 40
10.5
 41
0.0
 71
     9
 72
     5
  1

1001
ACAD
1000
MTEXTBEGIN
1070
    73
1070
     1
1070
    44
1040
1.0
1070
    74
1070
     0
1000
MTEXTEND
  0
MTEXT
  5
560B
330
1A
100
AcDbEntity
  8
SUNPOU
100
AcDbMText
 10
147398.8605200839
 20
141809.2909212864
 30
0.0
 40
3.5
 41
0.0
 71
     9
 72
     5
  1

1001
ACAD
1000
MTEXTBEGIN
1070
    73
1070
     1
1070
    44
1040
1.0
1070
    74
1070
     0
1000
MTEXTEND
  0
MTEXT
  5
560C
330
1A
100
AcDbEntity
  8
SUNPOU
100
AcDbMText
 10
95895.72097917013
 20
89443.5051561396
 30
0.0
 40
10.5
 41
0.0
 71
     9
 72
     5
  1

1001
ACAD
1000
MTEXTBEGIN
1070
    73
1070
     1
1070
    44
1040
1.0
1070
    74
1070
     0
1000
MTEXTEND
  0
MTEXT
  5
560D
330
1A
100
AcDbEntity
  8
SUNPOU
100
AcDbMText
 10
81947.72087879414
 20
70271.1060170274
 30
0.0
 40
3.5
 41
0.0
 71
     7
 72
     5
  1

1001
ACAD
1000
MTEXTBEGIN
1070
    73
1070
     1
1070
    44
1040
1.0
1070
    74
1070
     0
1000
MTEXTEND
  0
MTEXT
  5
560E
330
1A
100
AcDbEntity
  8
SUNPOU
100
AcDbMText
 10
62932.89027578729
 20
58033.25474784561
 30
0.0
 40
10.5
 41
0.0
 71
     7
 72
     5
  1

1001
ACAD
1000
MTEXTBEGIN
1070
    73
1070
     1
1070
    44
1040
1.0
1070
    74
1070
     0
1000
MTEXTEND
  0
MTEXT
  5
560F
330
1A
100
AcDbEntity
  8
SUNPOU
100
AcDbMText
 10
50475.66201083918
 20
42188.32316974719
 30
0.0
 40
35.0
 41
0.0
 71
     9
 72
     5
  1

1001
ACAD
1000
MTEXTBEGIN
1070
    73
1070
     1
1070
    44
1040
1.0
1070
    74
1070
     0
1000
MTEXTEND
  0
MTEXT
  5
5610
330
1A
100
AcDbEntity
  8
SUNPOU
100
AcDbMText
 10
49384.14706841413
 20
42797.0985797959
 30
0.0
 40
350.0000004171781
 41
0.0
 71
     7
 72
     5
  1

1001
ACAD
1000
MTEXTBEGIN
1070
    73
1070
     1
1070
    44
1040
1.0
1070
    74
1070
     0
1000
MTEXTEND
  0
MTEXT
  5
5611
330
1A
100
AcDbEntity
  8
0
100
AcDbMText
 10
55428.09782635704
 20
40777.02094193211
 30
0.0
 40
8.0
 41
0.0
 71
     7
 72
     5
  1

1001
ACAD
1000
MTEXTBEGIN
1070
    73
1070
     1
1070
    44
1040
1.0
1070
    74
1070
     0
1000
MTEXTEND
  0
MTEXT
  5
5612
330
1A
100
AcDbEntity
  8
0
100
AcDbMText
 10
57713.45551625194
 20
41747.81123668317
 30
0.0
 40
8.0
 41
0.0
 71
     7
 72
     5
  1

1001
ACAD
1000
MTEXTBEGIN
1070
    73
1070
     1
1070
    44
1040
1.0
1070
    74
1070
     0
1000
MTEXTEND
  0
MTEXT
  5
5613
330
1A
100
AcDbEntity
  8
SUNPOU
100
AcDbMText
 10
60379.35253693408
 20
51259.9226290583
 30
0.0
 40
10.5
 41
0.0
 71
     1
 72
     5
  1

1001
ACAD
1000
MTEXTBEGIN
1070
    73
1070
     1
1070
    44
1040
1.0
1070
    74
1070
     0
1000
MTEXTEND
  0
MTEXT
  5
5614
330
1A
100
AcDbEntity
  8
SUNPOU
100
AcDbMText
 10
52448.42934099814
 20
50313.12949514535
 30
0.0
 40
10.5
 41
0.0
 71
     7
 72
     5
  1

1001
ACAD
1000
MTEXTBEGIN
1070
    73
1070
     1
1070
    44
1040
1.0
1070
    74
1070
     0
1000
MTEXTEND
  0
MTEXT
  5
5615
330
1A
100
AcDbEntity
  8
SUNPOU
100
AcDbMText
 10
55397.41300551091
 20
55213.80556698819
 30
0.0
 40
10.5
 41
0.0
 71
     7
 72
     5
  1

1001
ACAD
1000
MTEXTBEGIN
1070
    73
1070
     1
1070
    44
1040
1.0
1070
    74
1070
     0
1000
MTEXTEND
  0
MTEXT
  5
5616
330
1A
100
AcDbEntity
  8
SUNPOU
100
AcDbMText
 10
59906.49113346147
 20
57650.10631460826
 30
0.0
 40
10.5
 41
0.0
 71
     7
 72
     5
  1

1001
ACAD
1000
MTEXTBEGIN
1070
    73
1070
     1
1070
    44
1040
1.0
1070
    74
1070
     0
1000
MTEXTEND
  0
MTEXT
  5
5617
330
1A
100
AcDbEntity
  8
SUNPOU
100
AcDbMText
 10
43507.32902022979
 20
36647.70246499718
 30
0.0
 40
10.5
 41
0.0
 71
     7
 72
     5
  1

1001
ACAD
1000
MTEXTBEGIN
1070
    73
1070
     1
1070
    44
1040
1.0
1070
    74
1070
     0
1000
MTEXTEND
  0
MTEXT
  5
5618
330
1A
100
AcDbEntity
  8
SUNPOU
100
AcDbMText
 10
94698.84745413006
 20
82320.68302864542
 30
0.0
 40
10.5
 41
0.0
 71
     9
 72
     5
  1

1001
ACAD
1000
MTEXTBEGIN
1070
    73
1070
     1
1070
    44
1040
1.0
1070
    74
1070
     0
1000
MTEXTEND
  0
MTEXT
  5
5619
330
1A
100
AcDbEntity
  8
SUNPOU
100
AcDbMText
 10
103421.015020048
 20
89736.5175601829
 30
0.0
 40
10.5
 41
0.0
 71
     9
 72
     5
  1

1001
ACAD
1000
MTEXTBEGIN
1070
    73
1070
     1
1070
    44
1040
1.0
1070
    74
1070
     0
1000
MTEXTEND
  0
MTEXT
  5
561A
330
1A
100
AcDbEntity
  8
SUNPOU
100
AcDbMText
 10
122374.773737378
 20
107203.0936126749
 30
0.0
 40
10.5
 41
0.0
 71
     9
 72
     5
  1

1001
ACAD
1000
MTEXTBEGIN
1070
    73
1070
     1
1070
    44
1040
1.0
1070
    74
1070
     0
1000
MTEXTEND
  0
MTEXT
  5
561B
330
1A
100
AcDbEntity
  8
SUNPOU
100
AcDbMText
 10
124318.1809840874
 20
105402.0445327969
 30
0.0
 40
3.5
 41
0.0
 71
     9
 72
     5
  1

1001
ACAD
1000
MTEXTBEGIN
1070
    73
1070
     1
1070
    44
1040
1.0
1070
    74
1070
     0
1000
MTEXTEND
  0
MTEXT
  5
561C
330
1A
100
AcDbEntity
  8
SUNPOU
100
AcDbMText
 10
155444.3608167071
 20
147896.9902004542
 30
0.0
 40
10.5
 41
0.0
 71
     9
 72
     5
  1

1001
ACAD
1000
MTEXTBEGIN
1070
    73
1070
     1
1070
    44
1040
1.0
1070
    74
1070
     0
1000
MTEXTEND
  0
MTEXT
  5
561D
330
1A
100
AcDbEntity
  8
SUNPOU
100
AcDbMText
 10
157387.7680634165
 20
146095.9411205762
 30
0.0
 40
3.5
 41
0.0
 71
     9
 72
     5
  1

1001
ACAD
1000
MTEXTBEGIN
1070
    73
1070
     1
1070
    44
1040
1.0
1070
    74
1070
     0
1000
MTEXTEND
  0
MTEXT
  5
561E
330
1A
100
AcDbEntity
  8
SUNPOU
100
AcDbMText
 10
105884.6285225027
 20
93730.15535542933
 30
0.0
 40
10.5
 41
0.0
 71
     9
 72
     5
  1

1001
ACAD
1000
MTEXTBEGIN
1070
    73
1070
     1
1070
    44
1040
1.0
1070
    74
1070
     0
1000
MTEXTEND
  0
MTEXT
  5
561F
330
1A
100
AcDbEntity
  8
SUNPOU
100
AcDbMText
 10
91936.6284221267
 20
74557.75621631714
 30
0.0
 40
3.5
 41
0.0
 71
     7
 72
     5
  1

1001
ACAD
1000
MTEXTBEGIN
1070
    73
1070
     1
1070
    44
1040
1.0
1070
    74
1070
     0
1000
MTEXTEND
  0
MTEXT
  5
5620
330
1A
100
AcDbEntity
  8
SUNPOU
100
AcDbMText
 10
72921.79781911986
 20
62319.90494713533
 30
0.0
 40
10.5
 41
0.0
 71
     7
 72
     5
  1

1001
ACAD
1000
MTEXTBEGIN
1070
    73
1070
     1
1070
    44
1040
1.0
1070
    74
1070
     0
1000
MTEXTEND
  0
MTEXT
  5
5621
330
1A
100
AcDbEntity
  8
SUNPOU
100
AcDbMText
 10
60464.56955417175
 20
46474.97336903692
 30
0.0
 40
35.0
 41
0.0
 71
     9
 72
     5
  1

1001
ACAD
1000
MTEXTBEGIN
1070
    73
1070
     1
1070
    44
1040
1.0
1070
    74
1070
     0
1000
MTEXTEND
  0
MTEXT
  5
5622
330
1A
100
AcDbEntity
  8
SUNPOU
100
AcDbMText
 10
59373.05461174672
 20
47083.74877908562
 30
0.0
 40
350.0000004171781
 41
0.0
 71
     7
 72
     5
  1

1001
ACAD
1000
MTEXTBEGIN
1070
    73
1070
     1
1070
    44
1040
1.0
1070
    74
1070
     0
1000
MTEXTEND
  0
MTEXT
  5
5623
330
1A
100
AcDbEntity
  8
0
100
AcDbMText
 10
65417.00536968962
 20
45063.67114122186
 30
0.0
 40
8.0
 41
0.0
 71
     7
 72
     5
  1

1001
ACAD
1000
MTEXTBEGIN
1070
    73
1070
     1
1070
    44
1040
1.0
1070
    74
1070
     0
1000
MTEXTEND
  0
MTEXT
  5
5624
330
1A
100
AcDbEntity
  8
0
100
AcDbMText
 10
67702.36305958452
 20
46034.46143597292
 30
0.0
 40
8.0
 41
0.0
 71
     7
 72
     5
  1

1001
ACAD
1000
MTEXTBEGIN
1070
    73
1070
     1
1070
    44
1040
1.0
1070
    74
1070
     0
1000
MTEXTEND
  0
MTEXT
  5
5625
330
1A
100
AcDbEntity
  8
SUNPOU
100
AcDbMText
 10
70368.26008026666
 20
55546.57282834803
 30
0.0
 40
10.5
 41
0.0
 71
     1
 72
     5
  1

1001
ACAD
1000
MTEXTBEGIN
1070
    73
1070
     1
1070
    44
1040
1.0
1070
    74
1070
     0
1000
MTEXTEND
  0
MTEXT
  5
5626
330
1A
100
AcDbEntity
  8
SUNPOU
100
AcDbMText
 10
62437.33688433072
 20
54599.77969443508
 30
0.0
 40
10.5
 41
0.0
 71
     7
 72
     5
  1

1001
ACAD
1000
MTEXTBEGIN
1070
    73
1070
     1
1070
    44
1040
1.0
1070
    74
1070
     0
1000
MTEXTEND
  0
MTEXT
  5
5627
330
1A
100
AcDbEntity
  8
SUNPOU
100
AcDbMText
 10
65386.32054884349
 20
59500.45576627792
 30
0.0
 40
10.5
 41
0.0
 71
     7
 72
     5
  1

1001
ACAD
1000
MTEXTBEGIN
1070
    73
1070
     1
1070
    44
1040
1.0
1070
    74
1070
     0
1000
MTEXTEND
  0
MTEXT
  5
5628
330
1A
100
AcDbEntity
  8
SUNPOU
100
AcDbMText
 10
69895.39867679405
 20
61936.756513898
 30
0.0
 40
10.5
 41
0.0
 71
     7
 72
     5
  1

1001
ACAD
1000
MTEXTBEGIN
1070
    73
1070
     1
1070
    44
1040
1.0
1070
    74
1070
     0
1000
MTEXTEND
  0
MTEXT
  5
5629
330
1A
100
AcDbEntity
  8
SUNPOU
100
AcDbMText
 10
53496.23656356237
 20
40934.35266428691
 30
0.0
 40
10.5
 41
0.0
 71
     7
 72
     5
  1

1001
ACAD
1000
MTEXTBEGIN
1070
    73
1070
     1
1070
    44
1040
1.0
1070
    74
1070
     0
1000
MTEXTEND
  0
MTEXT
  5
562A
330
1A
100
AcDbEntity
  8
SUNPOU
100
AcDbMText
 10
55306.99947493731
 20
47261.76665176547
 30
0.0
 40
10.5
 41
0.0
 71
     9
 72
     5
  1

1001
ACAD
1000
MTEXTBEGIN
1070
    73
1070
     1
1070
    44
1040
1.0
1070
    74
1070
     0
1000
MTEXTEND
  0
MTEXT
  5
562B
330
1A
100
AcDbEntity
  8
SUNPOU
100
AcDbMText
 10
64029.16704085528
 20
54677.60118330295
 30
0.0
 40
10.5
 41
0.0
 71
     9
 72
     5
  1

1001
ACAD
1000
MTEXTBEGIN
1070
    73
1070
     1
1070
    44
1040
1.0
1070
    74
1070
     0
1000
MTEXTEND
  0
MTEXT
  5
562C
330
1A
100
AcDbEntity
  8
SUNPOU
100
AcDbMText
 10
82982.92575818527
 20
72144.17723579499
 30
0.0
 40
10.5
 41
0.0
 71
     9
 72
     5
  1

1001
ACAD
1000
MTEXTBEGIN
1070
    73
1070
     1
1070
    44
1040
1.0
1070
    74
1070
     0
1000
MTEXTEND
  0
MTEXT
  5
562D
330
1A
100
AcDbEntity
  8
SUNPOU
100
AcDbMText
 10
84926.33300489467
 20
70343.12815591698
 30
0.0
 40
3.5
 41
0.0
 71
     9
 72
     5
  1

1001
ACAD
1000
MTEXTBEGIN
1070
    73
1070
     1
1070
    44
1040
1.0
1070
    74
1070
     0
1000
MTEXTEND
  0
MTEXT
  5
562E
330
1A
100
AcDbEntity
  8
SUNPOU
100
AcDbMText
 10
116052.5128375143
 20
112838.0738235743
 30
0.0
 40
10.5
 41
0.0
 71
     9
 72
     5
  1

1001
ACAD
1000
MTEXTBEGIN
1070
    73
1070
     1
1070
    44
1040
1.0
1070
    74
1070
     0
1000
MTEXTEND
  0
MTEXT
  5
562F
330
1A
100
AcDbEntity
  8
SUNPOU
100
AcDbMText
 10
117995.9200842238
 20
111037.0247436963
 30
0.0
 40
3.5
 41
0.0
 71
     9
 72
     5
  1

1001
ACAD
1000
MTEXTBEGIN
1070
    73
1070
     1
1070
    44
1040
1.0
1070
    74
1070
     0
1000
MTEXTEND
  0
MTEXT
  5
5630
330
1A
100
AcDbEntity
  8
SUNPOU
100
AcDbMText
 10
66492.78054330994
 20
58671.23897854939
 30
0.0
 40
10.5
 41
0.0
 71
     9
 72
     5
  1

1001
ACAD
1000
MTEXTBEGIN
1070
    73
1070
     1
1070
    44
1040
1.0
1070
    74
1070
     0
1000
MTEXTEND
  0
MTEXT
  5
5631
330
1A
100
AcDbEntity
  8
SUNPOU
100
AcDbMText
 10
52544.78044293396
 20
39498.83983943717
 30
0.0
 40
3.5
 41
0.0
 71
     7
 72
     5
  1

1001
ACAD
1000
MTEXTBEGIN
1070
    73
1070
     1
1070
    44
1040
1.0
1070
    74
1070
     0
1000
MTEXTEND
  0
MTEXT
  5
5632
330
1A
100
AcDbEntity
  8
SUNPOU
100
AcDbMText
 10
66237.13112570454
 20
48857.90306045851
 30
0.0
 40
10.5
 41
0.0
 71
     9
 72
     5
  1

1001
ACAD
1000
MTEXTBEGIN
1070
    73
1070
     1
1070
    44
1040
1.0
1070
    74
1070
     0
1000
MTEXTEND
  0
MTEXT
  5
5633
330
1A
100
AcDbEntity
  8
SUNPOU
100
AcDbMText
 10
74959.29869162252
 20
56273.737591996
 30
0.0
 40
10.5
 41
0.0
 71
     9
 72
     5
  1

1001
ACAD
1000
MTEXTBEGIN
1070
    73
1070
     1
1070
    44
1040
1.0
1070
    74
1070
     0
1000
MTEXTEND
  0
MTEXT
  5
5634
330
1A
100
AcDbEntity
  8
SUNPOU
100
AcDbMText
 10
93913.0574089525
 20
73740.31364448805
 30
0.0
 40
10.5
 41
0.0
 71
     9
 72
     5
  1

1001
ACAD
1000
MTEXTBEGIN
1070
    73
1070
     1
1070
    44
1040
1.0
1070
    74
1070
     0
1000
MTEXTEND
  0
MTEXT
  5
5635
330
1A
100
AcDbEntity
  8
SUNPOU
100
AcDbMText
 10
95856.46465566192
 20
71939.26456461004
 30
0.0
 40
3.5
 41
0.0
 71
     9
 72
     5
  1

1001
ACAD
1000
MTEXTBEGIN
1070
    73
1070
     1
1070
    44
1040
1.0
1070
    74
1070
     0
1000
MTEXTEND
  0
MTEXT
  5
5636
330
1A
100
AcDbEntity
  8
SUNPOU
100
AcDbMText
 10
126982.6444882816
 20
114434.2102322673
 30
0.0
 40
10.5
 41
0.0
 71
     9
 72
     5
  1

1001
ACAD
1000
MTEXTBEGIN
1070
    73
1070
     1
1070
    44
1040
1.0
1070
    74
1070
     0
1000
MTEXTEND
  0
MTEXT
  5
5637
330
1A
100
AcDbEntity
  8
SUNPOU
100
AcDbMText
 10
128926.051734991
 20
112633.1611523893
 30
0.0
 40
3.5
 41
0.0
 71
     9
 72
     5
  1

1001
ACAD
1000
MTEXTBEGIN
1070
    73
1070
     1
1070
    44
1040
1.0
1070
    74
1070
     0
1000
MTEXTEND
  0
MTEXT
  5
5638
330
1A
100
AcDbEntity
  8
SUNPOU
100
AcDbMText
 10
77422.91219407717
 20
60267.37538724244
 30
0.0
 40
10.5
 41
0.0
 71
     9
 72
     5
  1

1001
ACAD
1000
MTEXTBEGIN
1070
    73
1070
     1
1070
    44
1040
1.0
1070
    74
1070
     0
1000
MTEXTEND
  0
MTEXT
  5
5639
330
1A
100
AcDbEntity
  8
SUNPOU
100
AcDbMText
 10
63474.91209370119
 20
41094.97624813023
 30
0.0
 40
3.5
 41
0.0
 71
     7
 72
     5
  1

1001
ACAD
1000
MTEXTBEGIN
1070
    73
1070
     1
1070
    44
1040
1.0
1070
    74
1070
     0
1000
MTEXTEND
  0
MTEXT
  5
563A
330
1A
100
AcDbEntity
  8
SUNPOU
100
AcDbMText
 10
48117.65086229006
 20
40806.11043916631
 30
0.0
 40
10.5
 41
0.0
 71
     9
 72
     5
  1

1001
ACAD
1000
MTEXTBEGIN
1070
    73
1070
     1
1070
    44
1040
1.0
1070
    74
1070
     0
1000
MTEXTEND
  0
MTEXT
  5
563B
330
1A
100
AcDbEntity
  8
SUNPOU
100
AcDbMText
 10
67071.40957962004
 20
58272.68649165837
 30
0.0
 40
10.5
 41
0.0
 71
     9
 72
     5
  1

1001
ACAD
1000
MTEXTBEGIN
1070
    73
1070
     1
1070
    44
1040
1.0
1070
    74
1070
     0
1000
MTEXTEND
  0
MTEXT
  5
563C
330
1A
100
AcDbEntity
  8
SUNPOU
100
AcDbMText
 10
69014.81682632945
 20
56471.63741178035
 30
0.0
 40
3.5
 41
0.0
 71
     9
 72
     5
  1

1001
ACAD
1000
MTEXTBEGIN
1070
    73
1070
     1
1070
    44
1040
1.0
1070
    74
1070
     0
1000
MTEXTEND
  0
MTEXT
  5
563D
330
1A
100
AcDbEntity
  8
SUNPOU
100
AcDbMText
 10
100140.9966589491
 20
98966.58307943772
 30
0.0
 40
10.5
 41
0.0
 71
     9
 72
     5
  1

1001
ACAD
1000
MTEXTBEGIN
1070
    73
1070
     1
1070
    44
1040
1.0
1070
    74
1070
     0
1000
MTEXTEND
  0
MTEXT
  5
563E
330
1A
100
AcDbEntity
  8
SUNPOU
100
AcDbMText
 10
102084.4039056586
 20
97165.53399955969
 30
0.0
 40
3.5
 41
0.0
 71
     9
 72
     5
  1

1001
ACAD
1000
MTEXTBEGIN
1070
    73
1070
     1
1070
    44
1040
1.0
1070
    74
1070
     0
1000
MTEXTEND
  0
MTEXT
  5
563F
330
1A
100
AcDbEntity
  8
SUNPOU
100
AcDbMText
 10
50581.26436474472
 20
44799.74823441275
 30
0.0
 40
10.5
 41
0.0
 71
     9
 72
     5
  1

1001
ACAD
1000
MTEXTBEGIN
1070
    73
1070
     1
1070
    44
1040
1.0
1070
    74
1070
     0
1000
MTEXTEND
  0
MTEXT
  5
5640
330
1A
100
AcDbEntity
  8
SUNPOU
100
AcDbMText
 10
36633.26426436873
 20
25627.34909530054
 30
0.0
 40
3.5
 41
0.0
 71
     7
 72
     5
  1

1001
ACAD
1000
MTEXTBEGIN
1070
    73
1070
     1
1070
    44
1040
1.0
1070
    74
1070
     0
1000
MTEXTEND
  0
MTEXT
  5
5641
330
1A
100
AcDbEntity
  8
SUNPOU
100
AcDbMText
 10
61069.42493315968
 20
52574.61207825771
 30
0.0
 40
10.5
 41
0.0
 71
     9
 72
     5
  1

1001
ACAD
1000
MTEXTBEGIN
1070
    73
1070
     1
1070
    44
1040
1.0
1070
    74
1070
     0
1000
MTEXTEND
  0
MTEXT
  5
5642
330
1A
100
AcDbEntity
  8
SUNPOU
100
AcDbMText
 10
80023.18365048967
 20
70041.18813074978
 30
0.0
 40
10.5
 41
0.0
 71
     9
 72
     5
  1

1001
ACAD
1000
MTEXTBEGIN
1070
    73
1070
     1
1070
    44
1040
1.0
1070
    74
1070
     0
1000
MTEXTEND
  0
MTEXT
  5
5643
330
1A
100
AcDbEntity
  8
SUNPOU
100
AcDbMText
 10
81966.59089719908
 20
68240.13905087176
 30
0.0
 40
3.5
 41
0.0
 71
     9
 72
     5
  1

1001
ACAD
1000
MTEXTBEGIN
1070
    73
1070
     1
1070
    44
1040
1.0
1070
    74
1070
     0
1000
MTEXTEND
  0
MTEXT
  5
5644
330
1A
100
AcDbEntity
  8
SUNPOU
100
AcDbMText
 10
113092.7707298187
 20
110735.0847185291
 30
0.0
 40
10.5
 41
0.0
 71
     9
 72
     5
  1

1001
ACAD
1000
MTEXTBEGIN
1070
    73
1070
     1
1070
    44
1040
1.0
1070
    74
1070
     0
1000
MTEXTEND
  0
MTEXT
  5
5645
330
1A
100
AcDbEntity
  8
SUNPOU
100
AcDbMText
 10
115036.1779765282
 20
108934.0356386511
 30
0.0
 40
3.5
 41
0.0
 71
     9
 72
     5
  1

1001
ACAD
1000
MTEXTBEGIN
1070
    73
1070
     1
1070
    44
1040
1.0
1070
    74
1070
     0
1000
MTEXTEND
  0
MTEXT
  5
5646
330
1A
100
AcDbEntity
  8
SUNPOU
100
AcDbMText
 10
63533.03843561433
 20
56568.24987350415
 30
0.0
 40
10.5
 41
0.0
 71
     9
 72
     5
  1

1001
ACAD
1000
MTEXTBEGIN
1070
    73
1070
     1
1070
    44
1040
1.0
1070
    74
1070
     0
1000
MTEXTEND
  0
MTEXT
  5
5647
330
1A
100
AcDbEntity
  8
SUNPOU
100
AcDbMText
 10
49585.03833523835
 20
37395.85073439196
 30
0.0
 40
3.5
 41
0.0
 71
     7
 72
     5
  1

1001
ACAD
1000
MTEXTBEGIN
1070
    73
1070
     1
1070
    44
1040
1.0
1070
    74
1070
     0
1000
MTEXTEND
  0
MTEXT
  5
5648
330
1A
100
AcDbEntity
  8
SUNPOU
100
AcDbMText
 10
77137.31641337052
 20
70907.11375048141
 30
0.0
 40
10.5
 41
0.0
 71
     9
 72
     5
  1

1001
ACAD
1000
MTEXTBEGIN
1070
    73
1070
     1
1070
    44
1040
1.0
1070
    74
1070
     0
1000
MTEXTEND
  0
MTEXT
  5
5649
330
1A
100
AcDbEntity
  8
SUNPOU
100
AcDbMText
 10
79080.72366007995
 20
69106.06467060339
 30
0.0
 40
3.5
 41
0.0
 71
     9
 72
     5
  1

1001
ACAD
1000
MTEXTBEGIN
1070
    73
1070
     1
1070
    44
1040
1.0
1070
    74
1070
     0
1000
MTEXTEND
  0
MTEXT
  5
564A
330
1A
100
AcDbEntity
  8
SUNPOU
100
AcDbMText
 10
110206.9034926996
 20
111601.0103382607
 30
0.0
 40
10.5
 41
0.0
 71
     9
 72
     5
  1

1001
ACAD
1000
MTEXTBEGIN
1070
    73
1070
     1
1070
    44
1040
1.0
1070
    74
1070
     0
1000
MTEXTEND
  0
MTEXT
  5
564B
330
1A
100
AcDbEntity
  8
SUNPOU
100
AcDbMText
 10
112150.310739409
 20
109799.9612583827
 30
0.0
 40
3.5
 41
0.0
 71
     9
 72
     5
  1

1001
ACAD
1000
MTEXTBEGIN
1070
    73
1070
     1
1070
    44
1040
1.0
1070
    74
1070
     0
1000
MTEXTEND
  0
MTEXT
  5
564C
330
1A
100
AcDbEntity
  8
SUNPOU
100
AcDbMText
 10
108819.1333204968
 20
110677.9087286761
 30
0.0
 40
10.5
 41
0.0
 71
     9
 72
     5
  1

1001
ACAD
1000
MTEXTBEGIN
1070
    73
1070
     1
1070
    44
1040
1.0
1070
    74
1070
     0
1000
MTEXTEND
  0
MTEXT
  5
564D
330
1A
100
AcDbEntity
  8
SUNPOU
100
AcDbMText
 10
110762.5405672062
 20
108876.8596487981
 30
0.0
 40
3.5
 41
0.0
 71
     9
 72
     5
  1

1001
ACAD
1000
MTEXTBEGIN
1070
    73
1070
     1
1070
    44
1040
1.0
1070
    74
1070
     0
1000
MTEXTEND
  0
MTEXT
  5
564E
330
1A
100
AcDbEntity
  8
SUNPOU
100
AcDbMText
 10
76303.05507956816
 20
68695.31179059812
 30
0.0
 40
10.5
 41
0.0
 71
     9
 72
     5
  1

1001
ACAD
1000
MTEXTBEGIN
1070
    73
1070
     1
1070
    44
1040
1.0
1070
    74
1070
     0
1000
MTEXTEND
  0
MTEXT
  5
564F
330
1A
100
AcDbEntity
  8
SUNPOU
100
AcDbMText
 10
79026.36128373271
 20
69099.99348217918
 30
0.0
 40
3.5
 41
0.0
 71
     9
 72
     5
  1

1001
ACAD
1000
MTEXTBEGIN
1070
    73
1070
     1
1070
    44
1040
1.0
1070
    74
1070
     0
1000
MTEXTEND
  0
MTEXT
  5
5650
330
1A
100
AcDbEntity
  8
SUNPOU
100
AcDbMText
 10
78234.00675862522
 20
65938.68764412436
 30
0.0
 40
10.5
 41
0.0
 71
     9
 72
     5
  1

1001
ACAD
1000
MTEXTBEGIN
1070
    73
1070
     1
1070
    44
1040
1.0
1070
    74
1070
     0
1000
MTEXTEND
  0
MTEXT
  5
5651
330
1A
100
AcDbEntity
  8
SUNPOU
100
AcDbMText
 10
80177.41400533465
 20
64137.63856424636
 30
0.0
 40
3.5
 41
0.0
 71
     9
 72
     5
  1

1001
ACAD
1000
MTEXTBEGIN
1070
    73
1070
     1
1070
    44
1040
1.0
1070
    74
1070
     0
1000
MTEXTEND
  0
MTEXT
  5
5652
330
1A
100
AcDbEntity
  8
SUNPOU
100
AcDbMText
 10
80122.50949592123
 20
64024.86668196205
 30
0.0
 40
3.5
 41
0.0
 71
     9
 72
     5
  1

1001
ACAD
1000
MTEXTBEGIN
1070
    73
1070
     1
1070
    44
1040
1.0
1070
    74
1070
     0
1000
MTEXTEND
  0
MTEXT
  5
5653
330
1A
100
AcDbEntity
  8
SUNPOU
100
AcDbMText
 10
79486.58135950133
 20
63213.54544089553
 30
0.0
 40
3.5
 41
0.0
 71
     9
 72
     5
  1

1001
ACAD
1000
MTEXTBEGIN
1070
    73
1070
     1
1070
    44
1040
1.0
1070
    74
1070
     0
1000
MTEXTEND
  0
MTEXT
  5
5654
330
1A
100
AcDbEntity
  8
SUNPOU
100
AcDbMText
 10
79485.3409400806
 20
63213.29746395804
 30
0.0
 40
10.5
 41
0.0
 71
     9
 72
     5
  1

1001
ACAD
1000
MTEXTBEGIN
1070
    73
1070
     1
1070
    44
1040
1.0
1070
    74
1070
     0
1000
MTEXTEND
  0
MTEXT
  5
5655
330
1A
100
AcDbEntity
  8
SUNPOU
100
AcDbMText
 10
85473.63363627567
 20
80747.76348077064
 30
0.0
 40
10.5
 41
0.0
 71
     9
 72
     5
  1

1001
ACAD
1000
MTEXTBEGIN
1070
    73
1070
     1
1070
    44
1040
1.0
1070
    74
1070
     0
1000
MTEXTEND
  0
MTEXT
  5
5656
330
1A
100
AcDbEntity
  8
SUNPOU
100
AcDbMText
 10
94195.80120219368
 20
88163.59801230809
 30
0.0
 40
10.5
 41
0.0
 71
     9
 72
     5
  1

1001
ACAD
1000
MTEXTBEGIN
1070
    73
1070
     1
1070
    44
1040
1.0
1070
    74
1070
     0
1000
MTEXTEND
  0
MTEXT
  5
5657
330
1A
100
AcDbEntity
  8
SUNPOU
100
AcDbMText
 10
113149.5599195236
 20
105630.1740648001
 30
0.0
 40
10.5
 41
0.0
 71
     9
 72
     5
  1

1001
ACAD
1000
MTEXTBEGIN
1070
    73
1070
     1
1070
    44
1040
1.0
1070
    74
1070
     0
1000
MTEXTEND
  0
MTEXT
  5
5658
330
1A
100
AcDbEntity
  8
SUNPOU
100
AcDbMText
 10
115092.967166233
 20
103829.1249849221
 30
0.0
 40
3.5
 41
0.0
 71
     9
 72
     5
  1

1001
ACAD
1000
MTEXTBEGIN
1070
    73
1070
     1
1070
    44
1040
1.0
1070
    74
1070
     0
1000
MTEXTEND
  0
MTEXT
  5
5659
330
1A
100
AcDbEntity
  8
SUNPOU
100
AcDbMText
 10
146219.1469988527
 20
146324.0706525794
 30
0.0
 40
10.5
 41
0.0
 71
     9
 72
     5
  1

1001
ACAD
1000
MTEXTBEGIN
1070
    73
1070
     1
1070
    44
1040
1.0
1070
    74
1070
     0
1000
MTEXTEND
  0
MTEXT
  5
565A
330
1A
100
AcDbEntity
  8
SUNPOU
100
AcDbMText
 10
148162.5542455621
 20
144523.0215727014
 30
0.0
 40
3.5
 41
0.0
 71
     9
 72
     5
  1

1001
ACAD
1000
MTEXTBEGIN
1070
    73
1070
     1
1070
    44
1040
1.0
1070
    74
1070
     0
1000
MTEXTEND
  0
MTEXT
  5
565B
330
1A
100
AcDbEntity
  8
SUNPOU
100
AcDbMText
 10
96659.41470464833
 20
92157.23580755453
 30
0.0
 40
10.5
 41
0.0
 71
     9
 72
     5
  1

1001
ACAD
1000
MTEXTBEGIN
1070
    73
1070
     1
1070
    44
1040
1.0
1070
    74
1070
     0
1000
MTEXTEND
  0
MTEXT
  5
565C
330
1A
100
AcDbEntity
  8
SUNPOU
100
AcDbMText
 10
82711.41460427234
 20
72984.83666844234
 30
0.0
 40
3.5
 41
0.0
 71
     7
 72
     5
  1

1001
ACAD
1000
MTEXTBEGIN
1070
    73
1070
     1
1070
    44
1040
1.0
1070
    74
1070
     0
1000
MTEXTEND
  0
MTEXT
  5
565D
330
1A
100
AcDbEntity
  8
SUNPOU
100
AcDbMText
 10
63696.58400126548
 20
60746.98539926055
 30
0.0
 40
10.5
 41
0.0
 71
     7
 72
     5
  1

1001
ACAD
1000
MTEXTBEGIN
1070
    73
1070
     1
1070
    44
1040
1.0
1070
    74
1070
     0
1000
MTEXTEND
  0
MTEXT
  5
565E
330
1A
100
AcDbEntity
  8
SUNPOU
100
AcDbMText
 10
51239.35573631738
 20
44902.05382116213
 30
0.0
 40
35.0
 41
0.0
 71
     9
 72
     5
  1

1001
ACAD
1000
MTEXTBEGIN
1070
    73
1070
     1
1070
    44
1040
1.0
1070
    74
1070
     0
1000
MTEXTEND
  0
MTEXT
  5
565F
330
1A
100
AcDbEntity
  8
SUNPOU
100
AcDbMText
 10
50147.84079389233
 20
45510.82923121084
 30
0.0
 40
350.0000004171781
 41
0.0
 71
     7
 72
     5
  1

1001
ACAD
1000
MTEXTBEGIN
1070
    73
1070
     1
1070
    44
1040
1.0
1070
    74
1070
     0
1000
MTEXTEND
  0
MTEXT
  5
5660
330
1A
100
AcDbEntity
  8
0
100
AcDbMText
 10
56191.79155183523
 20
43490.75159334705
 30
0.0
 40
8.0
 41
0.0
 71
     7
 72
     5
  1

1001
ACAD
1000
MTEXTBEGIN
1070
    73
1070
     1
1070
    44
1040
1.0
1070
    74
1070
     0
1000
MTEXTEND
  0
MTEXT
  5
5661
330
1A
100
AcDbEntity
  8
0
100
AcDbMText
 10
58477.14924173013
 20
44461.54188809812
 30
0.0
 40
8.0
 41
0.0
 71
     7
 72
     5
  1

1001
ACAD
1000
MTEXTBEGIN
1070
    73
1070
     1
1070
    44
1040
1.0
1070
    74
1070
     0
1000
MTEXTEND
  0
MTEXT
  5
5662
330
1A
100
AcDbEntity
  8
SUNPOU
100
AcDbMText
 10
61143.04626241227
 20
53973.65328047324
 30
0.0
 40
10.5
 41
0.0
 71
     1
 72
     5
  1

1001
ACAD
1000
MTEXTBEGIN
1070
    73
1070
     1
1070
    44
1040
1.0
1070
    74
1070
     0
1000
MTEXTEND
  0
MTEXT
  5
5663
330
1A
100
AcDbEntity
  8
SUNPOU
100
AcDbMText
 10
53212.12306647634
 20
53026.86014656028
 30
0.0
 40
10.5
 41
0.0
 71
     7
 72
     5
  1

1001
ACAD
1000
MTEXTBEGIN
1070
    73
1070
     1
1070
    44
1040
1.0
1070
    74
1070
     0
1000
MTEXTEND
  0
MTEXT
  5
5664
330
1A
100
AcDbEntity
  8
SUNPOU
100
AcDbMText
 10
56161.1067309891
 20
57927.53621840312
 30
0.0
 40
10.5
 41
0.0
 71
     7
 72
     5
  1

1001
ACAD
1000
MTEXTBEGIN
1070
    73
1070
     1
1070
    44
1040
1.0
1070
    74
1070
     0
1000
MTEXTEND
  0
MTEXT
  5
5665
330
1A
100
AcDbEntity
  8
SUNPOU
100
AcDbMText
 10
60670.18485893966
 20
60363.8369660232
 30
0.0
 40
10.5
 41
0.0
 71
     7
 72
     5
  1

1001
ACAD
1000
MTEXTBEGIN
1070
    73
1070
     1
1070
    44
1040
1.0
1070
    74
1070
     0
1000
MTEXTEND
  0
MTEXT
  5
5666
330
1A
100
AcDbEntity
  8
SUNPOU
100
AcDbMText
 10
44271.02274570799
 20
39361.43311641212
 30
0.0
 40
10.5
 41
0.0
 71
     7
 72
     5
  1

1001
ACAD
1000
MTEXTBEGIN
1070
    73
1070
     1
1070
    44
1040
1.0
1070
    74
1070
     0
1000
MTEXTEND
  0
MTEXT
  5
5667
330
1A
100
AcDbEntity
  8
SUNPOU
100
AcDbMText
 10
95462.54117960824
 20
85034.41368006038
 30
0.0
 40
10.5
 41
0.0
 71
     9
 72
     5
  1

1001
ACAD
1000
MTEXTBEGIN
1070
    73
1070
     1
1070
    44
1040
1.0
1070
    74
1070
     0
1000
MTEXTEND
  0
MTEXT
  5
5668
330
1A
100
AcDbEntity
  8
SUNPOU
100
AcDbMText
 10
104184.7087455262
 20
92450.24821159784
 30
0.0
 40
10.5
 41
0.0
 71
     9
 72
     5
  1

1001
ACAD
1000
MTEXTBEGIN
1070
    73
1070
     1
1070
    44
1040
1.0
1070
    74
1070
     0
1000
MTEXTEND
  0
MTEXT
  5
5669
330
1A
100
AcDbEntity
  8
SUNPOU
100
AcDbMText
 10
123138.4674628562
 20
109916.8242640898
 30
0.0
 40
10.5
 41
0.0
 71
     9
 72
     5
  1

1001
ACAD
1000
MTEXTBEGIN
1070
    73
1070
     1
1070
    44
1040
1.0
1070
    74
1070
     0
1000
MTEXTEND
  0
MTEXT
  5
566A
330
1A
100
AcDbEntity
  8
SUNPOU
100
AcDbMText
 10
125081.8747095656
 20
108115.7751842118
 30
0.0
 40
3.5
 41
0.0
 71
     9
 72
     5
  1

1001
ACAD
1000
MTEXTBEGIN
1070
    73
1070
     1
1070
    44
1040
1.0
1070
    74
1070
     0
1000
MTEXTEND
  0
MTEXT
  5
566B
330
1A
100
AcDbEntity
  8
SUNPOU
100
AcDbMText
 10
156208.0545421853
 20
150610.7208518691
 30
0.0
 40
10.5
 41
0.0
 71
     9
 72
     5
  1

1001
ACAD
1000
MTEXTBEGIN
1070
    73
1070
     1
1070
    44
1040
1.0
1070
    74
1070
     0
1000
MTEXTEND
  0
MTEXT
  5
566C
330
1A
100
AcDbEntity
  8
SUNPOU
100
AcDbMText
 10
158151.4617888947
 20
148809.6717719911
 30
0.0
 40
3.5
 41
0.0
 71
     9
 72
     5
  1

1001
ACAD
1000
MTEXTBEGIN
1070
    73
1070
     1
1070
    44
1040
1.0
1070
    74
1070
     0
1000
MTEXTEND
  0
MTEXT
  5
566D
330
1A
100
AcDbEntity
  8
SUNPOU
100
AcDbMText
 10
106648.3222479809
 20
96443.88600684427
 30
0.0
 40
10.5
 41
0.0
 71
     9
 72
     5
  1

1001
ACAD
1000
MTEXTBEGIN
1070
    73
1070
     1
1070
    44
1040
1.0
1070
    74
1070
     0
1000
MTEXTEND
  0
MTEXT
  5
566E
330
1A
100
AcDbEntity
  8
SUNPOU
100
AcDbMText
 10
92700.3221476049
 20
77271.48686773207
 30
0.0
 40
3.5
 41
0.0
 71
     7
 72
     5
  1

1001
ACAD
1000
MTEXTBEGIN
1070
    73
1070
     1
1070
    44
1040
1.0
1070
    74
1070
     0
1000
MTEXTEND
  0
MTEXT
  5
566F
330
1A
100
AcDbEntity
  8
SUNPOU
100
AcDbMText
 10
73685.49154459806
 20
65033.63559855027
 30
0.0
 40
10.5
 41
0.0
 71
     7
 72
     5
  1

1001
ACAD
1000
MTEXTBEGIN
1070
    73
1070
     1
1070
    44
1040
1.0
1070
    74
1070
     0
1000
MTEXTEND
  0
MTEXT
  5
5670
330
1A
100
AcDbEntity
  8
SUNPOU
100
AcDbMText
 10
61228.26327964995
 20
49188.70402045185
 30
0.0
 40
35.0
 41
0.0
 71
     9
 72
     5
  1

1001
ACAD
1000
MTEXTBEGIN
1070
    73
1070
     1
1070
    44
1040
1.0
1070
    74
1070
     0
1000
MTEXTEND
  0
MTEXT
  5
5671
330
1A
100
AcDbEntity
  8
SUNPOU
100
AcDbMText
 10
60136.74833722491
 20
49797.47943050056
 30
0.0
 40
350.0000004171781
 41
0.0
 71
     7
 72
     5
  1

1001
ACAD
1000
MTEXTBEGIN
1070
    73
1070
     1
1070
    44
1040
1.0
1070
    74
1070
     0
1000
MTEXTEND
  0
MTEXT
  5
5672
330
1A
100
AcDbEntity
  8
0
100
AcDbMText
 10
66180.69909516782
 20
47777.40179263678
 30
0.0
 40
8.0
 41
0.0
 71
     7
 72
     5
  1

1001
ACAD
1000
MTEXTBEGIN
1070
    73
1070
     1
1070
    44
1040
1.0
1070
    74
1070
     0
1000
MTEXTEND
  0
MTEXT
  5
5673
330
1A
100
AcDbEntity
  8
0
100
AcDbMText
 10
68466.05678506271
 20
48748.19208738784
 30
0.0
 40
8.0
 41
0.0
 71
     7
 72
     5
  1

1001
ACAD
1000
MTEXTBEGIN
1070
    73
1070
     1
1070
    44
1040
1.0
1070
    74
1070
     0
1000
MTEXTEND
  0
MTEXT
  5
5674
330
1A
100
AcDbEntity
  8
SUNPOU
100
AcDbMText
 10
71131.95380574485
 20
58260.30347976296
 30
0.0
 40
10.5
 41
0.0
 71
     1
 72
     5
  1

1001
ACAD
1000
MTEXTBEGIN
1070
    73
1070
     1
1070
    44
1040
1.0
1070
    74
1070
     0
1000
MTEXTEND
  0
MTEXT
  5
5675
330
1A
100
AcDbEntity
  8
SUNPOU
100
AcDbMText
 10
63201.03060980891
 20
57313.51034585002
 30
0.0
 40
10.5
 41
0.0
 71
     7
 72
     5
  1

1001
ACAD
1000
MTEXTBEGIN
1070
    73
1070
     1
1070
    44
1040
1.0
1070
    74
1070
     0
1000
MTEXTEND
  0
MTEXT
  5
5676
330
1A
100
AcDbEntity
  8
SUNPOU
100
AcDbMText
 10
66150.01427432169
 20
62214.18641769286
 30
0.0
 40
10.5
 41
0.0
 71
     7
 72
     5
  1

1001
ACAD
1000
MTEXTBEGIN
1070
    73
1070
     1
1070
    44
1040
1.0
1070
    74
1070
     0
1000
MTEXTEND
  0
MTEXT
  5
5677
330
1A
100
AcDbEntity
  8
SUNPOU
100
AcDbMText
 10
70659.09240227225
 20
64650.48716531294
 30
0.0
 40
10.5
 41
0.0
 71
     7
 72
     5
  1

1001
ACAD
1000
MTEXTBEGIN
1070
    73
1070
     1
1070
    44
1040
1.0
1070
    74
1070
     0
1000
MTEXTEND
  0
MTEXT
  5
5678
330
1A
100
AcDbEntity
  8
SUNPOU
100
AcDbMText
 10
54259.93028904056
 20
43648.08331570185
 30
0.0
 40
10.5
 41
0.0
 71
     7
 72
     5
  1

1001
ACAD
1000
MTEXTBEGIN
1070
    73
1070
     1
1070
    44
1040
1.0
1070
    74
1070
     0
1000
MTEXTEND
  0
MTEXT
  5
5679
330
1A
100
AcDbEntity
  8
SUNPOU
100
AcDbMText
 10
56070.69320041551
 20
49975.4973031804
 30
0.0
 40
10.5
 41
0.0
 71
     9
 72
     5
  1

1001
ACAD
1000
MTEXTBEGIN
1070
    73
1070
     1
1070
    44
1040
1.0
1070
    74
1070
     0
1000
MTEXTEND
  0
MTEXT
  5
567A
330
1A
100
AcDbEntity
  8
SUNPOU
100
AcDbMText
 10
64792.86076633348
 20
57391.33183471788
 30
0.0
 40
10.5
 41
0.0
 71
     9
 72
     5
  1

1001
ACAD
1000
MTEXTBEGIN
1070
    73
1070
     1
1070
    44
1040
1.0
1070
    74
1070
     0
1000
MTEXTEND
  0
MTEXT
  5
567B
330
1A
100
AcDbEntity
  8
SUNPOU
100
AcDbMText
 10
83746.61948366345
 20
74857.90788720994
 30
0.0
 40
10.5
 41
0.0
 71
     9
 72
     5
  1

1001
ACAD
1000
MTEXTBEGIN
1070
    73
1070
     1
1070
    44
1040
1.0
1070
    74
1070
     0
1000
MTEXTEND
  0
MTEXT
  5
567C
330
1A
100
AcDbEntity
  8
SUNPOU
100
AcDbMText
 10
85690.02673037287
 20
73056.85880733192
 30
0.0
 40
3.5
 41
0.0
 71
     9
 72
     5
  1

1001
ACAD
1000
MTEXTBEGIN
1070
    73
1070
     1
1070
    44
1040
1.0
1070
    74
1070
     0
1000
MTEXTEND
  0
MTEXT
  5
567D
330
1A
100
AcDbEntity
  8
SUNPOU
100
AcDbMText
 10
116816.2065629925
 20
115551.8044749892
 30
0.0
 40
10.5
 41
0.0
 71
     9
 72
     5
  1

1001
ACAD
1000
MTEXTBEGIN
1070
    73
1070
     1
1070
    44
1040
1.0
1070
    74
1070
     0
1000
MTEXTEND
  0
MTEXT
  5
567E
330
1A
100
AcDbEntity
  8
SUNPOU
100
AcDbMText
 10
118759.613809702
 20
113750.7553951112
 30
0.0
 40
3.5
 41
0.0
 71
     9
 72
     5
  1

1001
ACAD
1000
MTEXTBEGIN
1070
    73
1070
     1
1070
    44
1040
1.0
1070
    74
1070
     0
1000
MTEXTEND
  0
MTEXT
  5
567F
330
1A
100
AcDbEntity
  8
SUNPOU
100
AcDbMText
 10
67256.47426878814
 20
61384.96962996432
 30
0.0
 40
10.5
 41
0.0
 71
     9
 72
     5
  1

1001
ACAD
1000
MTEXTBEGIN
1070
    73
1070
     1
1070
    44
1040
1.0
1070
    74
1070
     0
1000
MTEXTEND
  0
MTEXT
  5
5680
330
1A
100
AcDbEntity
  8
SUNPOU
100
AcDbMText
 10
53308.47416841216
 20
42212.57049085211
 30
0.0
 40
3.5
 41
0.0
 71
     7
 72
     5
  1

1001
ACAD
1000
MTEXTBEGIN
1070
    73
1070
     1
1070
    44
1040
1.0
1070
    74
1070
     0
1000
MTEXTEND
  0
MTEXT
  5
5681
330
1A
100
AcDbEntity
  8
SUNPOU
100
AcDbMText
 10
67000.82485118274
 20
51571.63371187345
 30
0.0
 40
10.5
 41
0.0
 71
     9
 72
     5
  1

1001
ACAD
1000
MTEXTBEGIN
1070
    73
1070
     1
1070
    44
1040
1.0
1070
    74
1070
     0
1000
MTEXTEND
  0
MTEXT
  5
5682
330
1A
100
AcDbEntity
  8
SUNPOU
100
AcDbMText
 10
75722.99241710071
 20
58987.46824341094
 30
0.0
 40
10.5
 41
0.0
 71
     9
 72
     5
  1

1001
ACAD
1000
MTEXTBEGIN
1070
    73
1070
     1
1070
    44
1040
1.0
1070
    74
1070
     0
1000
MTEXTEND
  0
MTEXT
  5
5683
330
1A
100
AcDbEntity
  8
SUNPOU
100
AcDbMText
 10
94676.75113443068
 20
76454.04429590299
 30
0.0
 40
10.5
 41
0.0
 71
     9
 72
     5
  1

1001
ACAD
1000
MTEXTBEGIN
1070
    73
1070
     1
1070
    44
1040
1.0
1070
    74
1070
     0
1000
MTEXTEND
  0
MTEXT
  5
5684
330
1A
100
AcDbEntity
  8
SUNPOU
100
AcDbMText
 10
96620.1583811401
 20
74652.99521602498
 30
0.0
 40
3.5
 41
0.0
 71
     9
 72
     5
  1

1001
ACAD
1000
MTEXTBEGIN
1070
    73
1070
     1
1070
    44
1040
1.0
1070
    74
1070
     0
1000
MTEXTEND
  0
MTEXT
  5
5685
330
1A
100
AcDbEntity
  8
SUNPOU
100
AcDbMText
 10
127746.3382137598
 20
117147.9408836823
 30
0.0
 40
10.5
 41
0.0
 71
     9
 72
     5
  1

1001
ACAD
1000
MTEXTBEGIN
1070
    73
1070
     1
1070
    44
1040
1.0
1070
    74
1070
     0
1000
MTEXTEND
  0
MTEXT
  5
5686
330
1A
100
AcDbEntity
  8
SUNPOU
100
AcDbMText
 10
129689.7454604692
 20
115346.8918038043
 30
0.0
 40
3.5
 41
0.0
 71
     9
 72
     5
  1

1001
ACAD
1000
MTEXTBEGIN
1070
    73
1070
     1
1070
    44
1040
1.0
1070
    74
1070
     0
1000
MTEXTEND
  0
MTEXT
  5
5687
330
1A
100
AcDbEntity
  8
SUNPOU
100
AcDbMText
 10
78186.60591955537
 20
62981.10603865738
 30
0.0
 40
10.5
 41
0.0
 71
     9
 72
     5
  1

1001
ACAD
1000
MTEXTBEGIN
1070
    73
1070
     1
1070
    44
1040
1.0
1070
    74
1070
     0
1000
MTEXTEND
  0
MTEXT
  5
5688
330
1A
100
AcDbEntity
  8
SUNPOU
100
AcDbMText
 10
64238.60581917939
 20
43808.70689954517
 30
0.0
 40
3.5
 41
0.0
 71
     7
 72
     5
  1

1001
ACAD
1000
MTEXTBEGIN
1070
    73
1070
     1
1070
    44
1040
1.0
1070
    74
1070
     0
1000
MTEXTEND
  0
MTEXT
  5
5689
330
1A
100
AcDbEntity
  8
SUNPOU
100
AcDbMText
 10
33428.13481137435
 20
32770.04710035564
 30
0.0
 40
10.5
 41
0.0
 71
     9
 72
     5
  1

1001
ACAD
1000
MTEXTBEGIN
1070
    73
1070
     1
1070
    44
1040
1.0
1070
    74
1070
     0
1000
MTEXTEND
  0
MTEXT
  5
568A
330
1A
100
AcDbEntity
  8
SUNPOU
100
AcDbMText
 10
52381.89352870432
 20
50236.62315284769
 30
0.0
 40
10.5
 41
0.0
 71
     9
 72
     5
  1

1001
ACAD
1000
MTEXTBEGIN
1070
    73
1070
     1
1070
    44
1040
1.0
1070
    74
1070
     0
1000
MTEXTEND
  0
MTEXT
  5
568B
330
1A
100
AcDbEntity
  8
SUNPOU
100
AcDbMText
 10
54325.30077541374
 20
48435.57407296968
 30
0.0
 40
3.5
 41
0.0
 71
     9
 72
     5
  1

1001
ACAD
1000
MTEXTBEGIN
1070
    73
1070
     1
1070
    44
1040
1.0
1070
    74
1070
     0
1000
MTEXTEND
  0
MTEXT
  5
568C
330
1A
100
AcDbEntity
  8
SUNPOU
100
AcDbMText
 10
85451.48060803343
 20
90930.51974062703
 30
0.0
 40
10.5
 41
0.0
 71
     9
 72
     5
  1

1001
ACAD
1000
MTEXTBEGIN
1070
    73
1070
     1
1070
    44
1040
1.0
1070
    74
1070
     0
1000
MTEXTEND
  0
MTEXT
  5
568D
330
1A
100
AcDbEntity
  8
SUNPOU
100
AcDbMText
 10
87394.88785474286
 20
89129.47066074901
 30
0.0
 40
3.5
 41
0.0
 71
     9
 72
     5
  1

1001
ACAD
1000
MTEXTBEGIN
1070
    73
1070
     1
1070
    44
1040
1.0
1070
    74
1070
     0
1000
MTEXTEND
  0
MTEXT
  5
568E
330
1A
100
AcDbEntity
  8
SUNPOU
100
AcDbMText
 10
35891.74831382901
 20
36763.68489560208
 30
0.0
 40
10.5
 41
0.0
 71
     9
 72
     5
  1

1001
ACAD
1000
MTEXTBEGIN
1070
    73
1070
     1
1070
    44
1040
1.0
1070
    74
1070
     0
1000
MTEXTEND
  0
MTEXT
  5
568F
330
1A
100
AcDbEntity
  8
SUNPOU
100
AcDbMText
 10
21943.74821345303
 20
17591.28575648986
 30
0.0
 40
3.5
 41
0.0
 71
     7
 72
     5
  1

1001
ACAD
1000
MTEXTBEGIN
1070
    73
1070
     1
1070
    44
1040
1.0
1070
    74
1070
     0
1000
MTEXTEND
  0
MTEXT
  5
15AD5
330
1A
100
AcDbEntity
  8
ZISSEN1
100
AcDbMText
 10
-1260.830020478989
 20
1933.196076459468
 30
0.0
 40
5.0
 41
76.2713
 71
     1
 72
     5
  1
QDB-MS140X2　　No.SS0001f142
1001
ACAD
1000
MTEXTBEGIN
1070
    73
1070
     1
1070
    44
1040
1.0
1070
    74
1070
     0
1000
MTEXTEND
  0
LINE
  5
16EE0
330
1A
100
AcDbEntity
  8
_2-4_PARTS
  6
CONTINUOUS
100
AcDbLine
 10
-1222.355675197517
 20
1787.480136099817
 30
0.0
 11
-1228.965675197517
 21
1787.480136099817
 31
0.0
  0
LINE
  5
16EE1
330
1A
100
AcDbEntity
  8
_2-4_PARTS
  6
CONTINUOUS
100
AcDbLine
 10
-1222.355675197517
 20
1782.080136099817
 30
0.0
 11
-1228.965675197517
 21
1782.080136099817
 31
0.0
  0
LINE
  5
16EE2
330
1A
100
AcDbEntity
  8
ZISSEN1
100
AcDbLine
 10
-1180.161174658465
 20
1903.880136099817
 30
0.0
 11
-1263.160675197518
 21
1903.880136099817
 31
0.0
  0
LINE
  5
16EE3
330
1A
100
AcDbEntity
  8
ZISSEN1
100
AcDbLine
 10
-1180.161174658465
 20
1902.280136099816
 30
0.0
 11
-1263.160675197518
 21
1902.280136099816
 31
0.0
  0
LINE
  5
16EE4
330
1A
100
AcDbEntity
  8
ZISSEN1
100
AcDbLine
 10
-1262.160675197518
 20
1779.780136099817
 30
0.0
 11
-1181.160675197518
 21
1779.780136099817
 31
0.0
  0
LINE
  5
16EE5
330
1A
100
AcDbEntity
  8
ZISSEN1
100
AcDbLine
 10
-1181.160675197518
 20
1862.780136099817
 30
0.0
 11
-1262.160675197518
 21
1862.780136099817
 31
0.0
  0
LINE
  5
16EE6
330
1A
100
AcDbEntity
  8
_2-4_PARTS
  6
CONTINUOUS
100
AcDbLine
 10
-1258.760675197517
 20
1890.780136099817
 30
0.0
 11
-1258.260675197518
 21
1891.280136099816
 31
0.0
  0
LINE
  5
16EE7
330
1A
100
AcDbEntity
  8
_2-4_PARTS
  6
CONTINUOUS
100
AcDbLine
 10
-1260.260675197518
 20
1902.280136099816
 30
0.0
 11
-1253.460675197517
 21
1902.280136099816
 31
0.0
  0
LINE
  5
16EE9
330
1A
100
AcDbEntity
  8
_2-4_PARTS
  6
CONTINUOUS
100
AcDbLine
 10
-1259.860675197518
 20
1829.155136099817
 30
0.0
 11
-1257.860675197518
 21
1829.155136099817
 31
0.0
  0
LINE
  5
16EEA
330
1A
100
AcDbEntity
  8
_2-4_PARTS
  6
CONTINUOUS
100
AcDbLine
 10
-1259.860675197518
 20
1830.405136099817
 30
0.0
 11
-1257.860675197518
 21
1830.405136099817
 31
0.0
  0
LINE
  5
16EEB
330
1A
100
AcDbEntity
  8
_2-4_PARTS
  6
CONTINUOUS
100
AcDbLine
 10
-1259.860675197518
 20
1825.655136099816
 30
0.0
 11
-1257.860675197518
 21
1825.655136099816
 31
0.0
  0
LINE
  5
16EEC
330
1A
100
AcDbEntity
  8
_2-4_PARTS
  6
CONTINUOUS
100
AcDbLine
 10
-1259.860675197518
 20
1826.905136099817
 30
0.0
 11
-1257.860675197518
 21
1826.905136099817
 31
0.0
  0
LINE
  5
16EED
330
1A
100
AcDbEntity
  8
_2-4_PARTS
  6
CONTINUOUS
100
AcDbLine
 10
-1259.560675197517
 20
1820.130136099816
 30
0.0
 11
-1254.260675197518
 21
1820.130136099816
 31
0.0
  0
LINE
  5
16EEE
330
1A
100
AcDbEntity
  8
_2-4_PARTS
  6
CONTINUOUS
100
AcDbLine
 10
-1253.560675197517
 20
1820.980136099817
 30
0.0
 11
-1260.260675197518
 21
1820.980136099817
 31
0.0
  0
CIRCLE
  5
16EEF
330
1A
100
AcDbEntity
  8
ZISSEN1
100
AcDbCircle
 10
-1259.660675197518
 20
1859.280136099817
 30
0.0
 40
1.75
  0
LINE
  5
16EF1
330
1A
100
AcDbEntity
  8
_2-4_PARTS
  6
CONTINUOUS
100
AcDbLine
 10
-1259.560675197517
 20
1789.430136099817
 30
0.0
 11
-1254.260675197518
 21
1789.430136099817
 31
0.0
  0
LINE
  5
16EF2
330
1A
100
AcDbEntity
  8
_2-4_PARTS
  6
CONTINUOUS
100
AcDbLine
 10
-1253.560675197517
 20
1788.580136099817
 30
0.0
 11
-1260.260675197518
 21
1788.580136099817
 31
0.0
  0
CIRCLE
  5
16EF3
330
1A
100
AcDbEntity
  8
ZISSEN1
100
AcDbCircle
 10
-1259.660675197518
 20
1783.280136099817
 30
0.0
 40
1.75
  0
ARC
  5
16EF4
330
1A
100
AcDbEntity
  8
ZISSEN1
100
AcDbCircle
 10
-1263.160675197518
 20
1862.780136099817
 30
0.0
 40
1.0
100
AcDbArc
 50
270.0
 51
0.0
  0
ARC
  5
16EF5
330
1A
100
AcDbEntity
  8
ZISSEN1
100
AcDbCircle
 10
-1263.160675197518
 20
1779.780136099817
 30
0.0
 40
1.0
100
AcDbArc
 50
0.0
 51
90.0
  0
LINE
  5
16EF6
330
1A
100
AcDbEntity
  8
ZISSEN1
100
AcDbLine
 10
-1263.160675197518
 20
1903.880136099817
 30
0.0
 11
-1263.160675197518
 21
1902.280136099816
 31
0.0
  0
LINE
  5
16EF7
330
1A
100
AcDbEntity
  8
ZISSEN1
100
AcDbLine
 10
-1263.160675197518
 20
1780.780136099817
 30
0.0
 11
-1263.160675197518
 21
1861.780136099817
 31
0.0
  0
LINE
  5
16EF8
330
1A
100
AcDbEntity
  8
ZISSEN1
100
AcDbLine
 10
-1262.160675197518
 20
1903.880136099817
 30
0.0
 11
-1262.160675197518
 21
1902.280136099816
 31
0.0
  0
LINE
  5
16EF9
330
1A
100
AcDbEntity
  8
_2-4_PARTS
  6
CONTINUOUS
100
AcDbLine
 10
-1258.760675197517
 20
1890.780136099817
 30
0.0
 11
-1260.260675197518
 21
1890.780136099817
 31
0.0
  0
LINE
  5
16EFA
330
1A
100
AcDbEntity
  8
_2-4_PARTS
  6
CONTINUOUS
100
AcDbLine
 10
-1260.260675197518
 20
1890.780136099817
 30
0.0
 11
-1260.260675197518
 21
1902.280136099816
 31
0.0
  0
LINE
  5
16EFC
330
1A
100
AcDbEntity
  8
CL1
100
AcDbLine
 10
-1257.660675197518
 20
1859.280136099817
 30
0.0
 11
-1261.660675197518
 21
1859.280136099817
 31
0.0
  0
LINE
  5
16EFD
330
1A
100
AcDbEntity
  8
CL1
100
AcDbLine
 10
-1259.660675197518
 20
1857.280136099817
 30
0.0
 11
-1259.660675197518
 21
1861.280136099817
 31
0.0
  0
LINE
  5
16EFE
330
1A
100
AcDbEntity
  8
_2-4_PARTS
  6
CONTINUOUS
100
AcDbLine
 10
-1259.460675197518
 20
1830.405136099817
 30
0.0
 11
-1259.460675197518
 21
1829.155136099817
 31
0.0
  0
LINE
  5
16EFF
330
1A
100
AcDbEntity
  8
_2-4_PARTS
  6
CONTINUOUS
100
AcDbLine
 10
-1259.860675197518
 20
1830.405136099817
 30
0.0
 11
-1259.860675197518
 21
1829.155136099817
 31
0.0
  0
LINE
  5
16F00
330
1A
100
AcDbEntity
  8
_2-4_PARTS
  6
CONTINUOUS
100
AcDbLine
 10
-1259.960675197518
 20
1820.980136099817
 30
0.0
 11
-1260.260675197518
 21
1820.980136099817
 31
0.0
  0
LINE
  5
16F01
330
1A
100
AcDbEntity
  8
_2-4_PARTS
  6
CONTINUOUS
100
AcDbLine
 10
-1259.460675197518
 20
1826.905136099817
 30
0.0
 11
-1259.460675197518
 21
1825.655136099816
 31
0.0
  0
LINE
  5
16F02
330
1A
100
AcDbEntity
  8
_2-4_PARTS
  6
CONTINUOUS
100
AcDbLine
 10
-1259.860675197518
 20
1826.905136099817
 30
0.0
 11
-1259.860675197518
 21
1825.655136099816
 31
0.0
  0
LINE
  5
16F03
330
1A
100
AcDbEntity
  8
CL1
100
AcDbLine
 10
-1259.660675197518
 20
1781.280136099817
 30
0.0
 11
-1259.660675197518
 21
1785.280136099817
 31
0.0
  0
LINE
  5
16F05
330
1A
100
AcDbEntity
  8
CL1
100
AcDbLine
 10
-1257.660675197518
 20
1783.280136099817
 30
0.0
 11
-1261.660675197518
 21
1783.280136099817
 31
0.0
  0
LINE
  5
16F06
330
1A
100
AcDbEntity
  8
_2-4_PARTS
  6
CONTINUOUS
100
AcDbLine
 10
-1259.560675197517
 20
1789.430136099817
 30
0.0
 11
-1259.560675197517
 21
1820.130136099816
 31
0.0
  0
LINE
  5
16F07
330
1A
100
AcDbEntity
  8
_2-4_PARTS
  6
CONTINUOUS
100
AcDbLine
 10
-1260.260675197518
 20
1820.980136099817
 30
0.0
 11
-1260.260675197518
 21
1788.580136099817
 31
0.0
  0
LINE
  5
16F08
330
1A
100
AcDbEntity
  8
_2-4_PARTS
  6
CONTINUOUS
100
AcDbLine
 10
-1247.610675197518
 20
1892.780136099817
 30
0.0
 11
-1238.710675197517
 21
1892.780136099817
 31
0.0
  0
LINE
  5
16F09
330
1A
100
AcDbEntity
  8
_2-4_PARTS
  6
CONTINUOUS
100
AcDbLine
 10
-1241.410675197517
 20
1902.280136099816
 30
0.0
 11
-1242.410675197517
 21
1902.280136099816
 31
0.0
  0
LINE
  5
16F0A
330
1A
100
AcDbEntity
  8
_2-4_PARTS
  6
CONTINUOUS
100
AcDbLine
 10
-1240.610675197518
 20
1851.180136099817
 30
0.0
 11
-1245.710675197518
 21
1851.180136099817
 31
0.0
  0
LINE
  5
16F0B
330
1A
100
AcDbEntity
  8
_2-4_PARTS
  6
CONTINUOUS
100
AcDbLine
 10
-1249.760675197518
 20
1857.180136099817
 30
0.0
 11
-1236.560675197518
 21
1857.180136099817
 31
0.0
  0
LINE
  5
16F0C
330
1A
100
AcDbEntity
  8
_2-4_PARTS
  6
CONTINUOUS
100
AcDbLine
 10
-1238.060675197518
 20
1852.080136099817
 30
0.0
 11
-1248.260675197518
 21
1852.080136099817
 31
0.0
  0
LINE
  5
16F0D
330
1A
100
AcDbEntity
  8
_2-4_PARTS
  6
CONTINUOUS
100
AcDbLine
 10
-1237.560675197518
 20
1852.580136099817
 30
0.0
 11
-1248.760675197517
 21
1852.580136099817
 31
0.0
  0
LINE
  5
16F0E
330
1A
100
AcDbEntity
  8
_2-4_PARTS
  6
CONTINUOUS
100
AcDbLine
 10
-1235.710675197518
 20
1857.880136099817
 30
0.0
 11
-1250.610675197518
 21
1857.880136099817
 31
0.0
  0
LINE
  5
16F0F
330
1A
100
AcDbEntity
  8
_2-4_PARTS
  6
CONTINUOUS
100
AcDbLine
 10
-1248.910675197517
 20
1902.280136099816
 30
0.0
 11
-1250.610675197517
 21
1902.280136099816
 31
0.0
  0
LINE
  5
16F10
330
1A
100
AcDbEntity
  8
_2-4_PARTS
  6
CONTINUOUS
100
AcDbLine
 10
-1248.610675197517
 20
1890.780136099817
 30
0.0
 11
-1250.610675197517
 21
1890.780136099817
 31
0.0
  0
LINE
  5
16F11
330
1A
100
AcDbEntity
  8
_2-4_PARTS
  6
CONTINUOUS
100
AcDbLine
 10
-1250.610675197518
 20
1851.180136099817
 30
0.0
 11
-1247.610675197518
 21
1851.180136099817
 31
0.0
  0
LINE
  5
16F12
330
1A
100
AcDbEntity
  8
_2-4_PARTS
  6
CONTINUOUS
100
AcDbLine
 10
-1258.260675197518
 20
1893.780136099817
 30
0.0
 11
-1253.460675197517
 21
1893.780136099817
 31
0.0
  0
LINE
  5
16F13
330
1A
100
AcDbEntity
  8
_2-4_PARTS
  6
CONTINUOUS
100
AcDbLine
 10
-1254.460675197518
 20
1818.630136099817
 30
0.0
 11
-1253.560675197517
 21
1818.630136099817
 31
0.0
  0
LINE
  5
16F14
330
1A
100
AcDbEntity
  8
_2-4_PARTS
  6
CONTINUOUS
100
AcDbLine
 10
-1254.960675197517
 20
1819.130136099817
 30
0.0
 11
-1254.260675197518
 21
1819.130136099817
 31
0.0
  0
LINE
  5
16F15
330
1A
100
AcDbEntity
  8
_2-4_PARTS
  6
CONTINUOUS
100
AcDbLine
 10
-1254.460675197518
 20
1809.230136099817
 30
0.0
 11
-1253.560675197517
 21
1809.230136099817
 31
0.0
  0
LINE
  5
16F16
330
1A
100
AcDbEntity
  8
_2-4_PARTS
  6
CONTINUOUS
100
AcDbLine
 10
-1254.460675197518
 20
1807.330136099817
 30
0.0
 11
-1253.560675197517
 21
1807.330136099817
 31
0.0
  0
LINE
  5
16F17
330
1A
100
AcDbEntity
  8
_2-4_PARTS
  6
CONTINUOUS
100
AcDbLine
 10
-1254.460675197518
 20
1807.530136099817
 30
0.0
 11
-1253.860675197518
 21
1807.530136099817
 31
0.0
  0
LINE
  5
16F18
330
1A
100
AcDbEntity
  8
_2-4_PARTS
  6
CONTINUOUS
100
AcDbLine
 10
-1254.460675197518
 20
1809.030136099817
 30
0.0
 11
-1253.860675197518
 21
1809.030136099817
 31
0.0
  0
LINE
  5
16F19
330
1A
100
AcDbEntity
  8
_2-4_PARTS
  6
CONTINUOUS
100
AcDbLine
 10
-1254.460675197518
 20
1802.230136099817
 30
0.0
 11
-1253.560675197517
 21
1802.230136099817
 31
0.0
  0
LINE
  5
16F1A
330
1A
100
AcDbEntity
  8
_2-4_PARTS
  6
CONTINUOUS
100
AcDbLine
 10
-1254.460675197518
 20
1800.330136099817
 30
0.0
 11
-1253.560675197517
 21
1800.330136099817
 31
0.0
  0
LINE
  5
16F1B
330
1A
100
AcDbEntity
  8
_2-4_PARTS
  6
CONTINUOUS
100
AcDbLine
 10
-1254.460675197518
 20
1800.530136099817
 30
0.0
 11
-1253.860675197518
 21
1800.530136099817
 31
0.0
  0
LINE
  5
16F1C
330
1A
100
AcDbEntity
  8
_2-4_PARTS
  6
CONTINUOUS
100
AcDbLine
 10
-1254.460675197518
 20
1802.030136099817
 30
0.0
 11
-1253.860675197518
 21
1802.030136099817
 31
0.0
  0
LINE
  5
16F1D
330
1A
100
AcDbEntity
  8
_2-4_PARTS
  6
CONTINUOUS
100
AcDbLine
 10
-1253.560675197517
 20
1790.930136099817
 30
0.0
 11
-1254.460675197518
 21
1790.930136099817
 31
0.0
  0
LINE
  5
16F1E
330
1A
100
AcDbEntity
  8
_2-4_PARTS
  6
CONTINUOUS
100
AcDbLine
 10
-1254.960675197517
 20
1790.430136099817
 30
0.0
 11
-1254.260675197518
 21
1790.430136099817
 31
0.0
  0
LINE
  5
16F1F
330
1A
100
AcDbEntity
  8
_2-4_PARTS
  6
CONTINUOUS
100
AcDbLine
 10
-1256.560675197518
 20
1903.880136099817
 30
0.0
 11
-1256.560675197518
 21
1905.180136099817
 31
0.0
  0
LINE
  5
16F20
330
1A
100
AcDbEntity
  8
_2-4_PARTS
  6
CONTINUOUS
100
AcDbLine
 10
-1257.160675197518
 20
1903.880136099817
 30
0.0
 11
-1257.160675197518
 21
1905.180136099817
 31
0.0
  0
LINE
  5
16F21
330
1A
100
AcDbEntity
  8
_2-4_PARTS
  6
CONTINUOUS
100
AcDbLine
 10
-1256.710675197518
 20
1905.680136099817
 30
0.0
 11
-1256.560675197518
 21
1905.180136099817
 31
0.0
  0
LINE
  5
16F22
330
1A
100
AcDbEntity
  8
_2-4_PARTS
  6
CONTINUOUS
100
AcDbLine
 10
-1257.010675197518
 20
1905.680136099817
 30
0.0
 11
-1257.160675197518
 21
1905.180136099817
 31
0.0
  0
LINE
  5
16F23
330
1A
100
AcDbEntity
  8
_2-4_PARTS
  6
CONTINUOUS
100
AcDbLine
 10
-1257.010675197518
 20
1905.680136099817
 30
0.0
 11
-1256.710675197518
 21
1905.680136099817
 31
0.0
  0
LINE
  5
16F24
330
1A
100
AcDbEntity
  8
_2-4_PARTS
  6
CONTINUOUS
100
AcDbLine
 10
-1258.260675197518
 20
1891.280136099816
 30
0.0
 11
-1258.260675197518
 21
1893.780136099817
 31
0.0
  0
LINE
  5
16F25
330
1A
100
AcDbEntity
  8
_2-4_PARTS
  6
CONTINUOUS
100
AcDbLine
 10
-1258.260675197518
 20
1830.405136099817
 30
0.0
 11
-1258.260675197518
 21
1829.155136099817
 31
0.0
  0
LINE
  5
16F26
330
1A
100
AcDbEntity
  8
_2-4_PARTS
  6
CONTINUOUS
100
AcDbLine
 10
-1257.860675197518
 20
1830.405136099817
 30
0.0
 11
-1257.860675197518
 21
1829.155136099817
 31
0.0
  0
CIRCLE
  5
16F27
330
1A
100
AcDbEntity
  8
_2-4_PARTS
  6
CONTINUOUS
100
AcDbCircle
 10
-1256.860675197518
 20
1816.030136099817
 30
0.0
 40
0.25
  0
CIRCLE
  5
16F28
330
1A
100
AcDbEntity
  8
_2-4_PARTS
  6
CONTINUOUS
100
AcDbCircle
 10
-1256.860675197518
 20
1818.530136099817
 30
0.0
 40
0.25
  0
LINE
  5
16F29
330
1A
100
AcDbEntity
  8
_2-4_PARTS
  6
CONTINUOUS
100
AcDbLine
 10
-1258.260675197518
 20
1826.905136099817
 30
0.0
 11
-1258.260675197518
 21
1825.655136099816
 31
0.0
  0
LINE
  5
16F2A
330
1A
100
AcDbEntity
  8
_2-4_PARTS
  6
CONTINUOUS
100
AcDbLine
 10
-1257.860675197518
 20
1826.905136099817
 30
0.0
 11
-1257.860675197518
 21
1825.655136099816
 31
0.0
  0
CIRCLE
  5
16F2B
330
1A
100
AcDbEntity
  8
_2-4_PARTS
  6
CONTINUOUS
100
AcDbCircle
 10
-1256.860675197518
 20
1813.530136099817
 30
0.0
 40
0.25
  0
CIRCLE
  5
16F2C
330
1A
100
AcDbEntity
  8
_2-4_PARTS
  6
CONTINUOUS
100
AcDbCircle
 10
-1256.860675197518
 20
1811.030136099817
 30
0.0
 40
0.25
  0
CIRCLE
  5
16F2D
330
1A
100
AcDbEntity
  8
_2-4_PARTS
  6
CONTINUOUS
100
AcDbCircle
 10
-1256.860675197518
 20
1803.530136099817
 30
0.0
 40
0.25
  0
CIRCLE
  5
16F2E
330
1A
100
AcDbEntity
  8
_2-4_PARTS
  6
CONTINUOUS
100
AcDbCircle
 10
-1256.860675197518
 20
1806.030136099817
 30
0.0
 40
0.25
  0
CIRCLE
  5
16F2F
330
1A
100
AcDbEntity
  8
_2-4_PARTS
  6
CONTINUOUS
100
AcDbCircle
 10
-1256.860675197518
 20
1808.530136099817
 30
0.0
 40
0.25
  0
CIRCLE
  5
16F30
330
1A
100
AcDbEntity
  8
_2-4_PARTS
  6
CONTINUOUS
100
AcDbCircle
 10
-1256.860675197518
 20
1798.530136099817
 30
0.0
 40
0.25
  0
CIRCLE
  5
16F31
330
1A
100
AcDbEntity
  8
_2-4_PARTS
  6
CONTINUOUS
100
AcDbCircle
 10
-1256.860675197518
 20
1801.030136099817
 30
0.0
 40
0.25
  0
CIRCLE
  5
16F32
330
1A
100
AcDbEntity
  8
_2-4_PARTS
  6
CONTINUOUS
100
AcDbCircle
 10
-1256.860675197518
 20
1793.530136099817
 30
0.0
 40
0.25
  0
CIRCLE
  5
16F33
330
1A
100
AcDbEntity
  8
_2-4_PARTS
  6
CONTINUOUS
100
AcDbCircle
 10
-1256.860675197518
 20
1796.030136099817
 30
0.0
 40
0.25
  0
CIRCLE
  5
16F34
330
1A
100
AcDbEntity
  8
_2-4_PARTS
  6
CONTINUOUS
100
AcDbCircle
 10
-1256.860675197518
 20
1791.030136099817
 30
0.0
 40
0.25
  0
LINE
  5
16F35
330
1A
100
AcDbEntity
  8
_2-4_PARTS
  6
CONTINUOUS
100
AcDbLine
 10
-1254.460675197518
 20
1818.630136099817
 30
0.0
 11
-1254.460675197518
 21
1790.930136099817
 31
0.0
  0
LINE
  5
16F36
330
1A
100
AcDbEntity
  8
_2-4_PARTS
  6
CONTINUOUS
100
AcDbLine
 10
-1254.960675197517
 20
1819.130136099817
 30
0.0
 11
-1254.960675197517
 21
1790.430136099817
 31
0.0
  0
LINE
  5
16F37
330
1A
100
AcDbEntity
  8
_2-4_PARTS
  6
CONTINUOUS
100
AcDbLine
 10
-1250.610675197517
 20
1890.780136099817
 30
0.0
 11
-1250.610675197517
 21
1902.280136099816
 31
0.0
  0
LINE
  5
16F38
330
1A
100
AcDbEntity
  8
_2-4_PARTS
  6
CONTINUOUS
100
AcDbLine
 10
-1253.460675197517
 20
1893.780136099817
 30
0.0
 11
-1253.460675197517
 21
1902.280136099816
 31
0.0
  0
LINE
  5
16F39
330
1A
100
AcDbEntity
  8
_2-4_PARTS
  6
CONTINUOUS
100
AcDbLine
 10
-1250.610675197518
 20
1851.180136099817
 30
0.0
 11
-1250.610675197518
 21
1857.880136099817
 31
0.0
  0
LINE
  5
16F3A
330
1A
100
AcDbEntity
  8
_2-4_PARTS
  6
CONTINUOUS
100
AcDbLine
 10
-1254.260675197518
 20
1820.130136099816
 30
0.0
 11
-1254.260675197518
 21
1818.630136099817
 31
0.0
  0
LINE
  5
16F3B
330
1A
100
AcDbEntity
  8
_2-4_PARTS
  6
CONTINUOUS
100
AcDbLine
 10
-1253.860675197518
 20
1809.030136099817
 30
0.0
 11
-1253.860675197518
 21
1807.530136099817
 31
0.0
  0
LINE
  5
16F3C
330
1A
100
AcDbEntity
  8
_2-4_PARTS
  6
CONTINUOUS
100
AcDbLine
 10
-1253.860675197518
 20
1802.030136099817
 30
0.0
 11
-1253.860675197518
 21
1800.530136099817
 31
0.0
  0
LINE
  5
16F3D
330
1A
100
AcDbEntity
  8
_2-4_PARTS
  6
CONTINUOUS
100
AcDbLine
 10
-1253.560675197517
 20
1807.330136099817
 30
0.0
 11
-1253.560675197517
 21
1802.230136099817
 31
0.0
  0
LINE
  5
16F3E
330
1A
100
AcDbEntity
  8
_2-4_PARTS
  6
CONTINUOUS
100
AcDbLine
 10
-1254.260675197518
 20
1789.430136099817
 30
0.0
 11
-1254.260675197518
 21
1790.930136099817
 31
0.0
  0
LINE
  5
16F3F
330
1A
100
AcDbEntity
  8
_2-4_PARTS
  6
CONTINUOUS
100
AcDbLine
 10
-1253.560675197517
 20
1788.580136099817
 30
0.0
 11
-1253.560675197517
 21
1800.330136099817
 31
0.0
  0
LINE
  5
16F40
330
1A
100
AcDbEntity
  8
_2-4_PARTS
  6
CONTINUOUS
100
AcDbLine
 10
-1253.560675197517
 20
1820.980136099817
 30
0.0
 11
-1253.560675197517
 21
1809.230136099817
 31
0.0
  0
LINE
  5
16F41
330
1A
100
AcDbEntity
  8
_2-4_PARTS
  6
CONTINUOUS
100
AcDbLine
 10
-1244.910675197517
 20
1901.980136099816
 30
0.0
 11
-1246.410675197517
 21
1901.980136099816
 31
0.0
  0
LINE
  5
16F42
330
1A
100
AcDbEntity
  8
_2-4_PARTS
  6
CONTINUOUS
100
AcDbLine
 10
-1244.910675197517
 20
1901.180136099817
 30
0.0
 11
-1246.410675197517
 21
1901.180136099817
 31
0.0
  0
LINE
  5
16F43
330
1A
100
AcDbEntity
  8
_2-4_PARTS
  6
CONTINUOUS
100
AcDbLine
 10
-1245.910675197518
 20
1851.480136099817
 30
0.0
 11
-1247.410675197518
 21
1851.480136099817
 31
0.0
  0
LINE
  5
16F44
330
1A
100
AcDbEntity
  8
_2-4_PARTS
  6
CONTINUOUS
100
AcDbLine
 10
-1247.860675197517
 20
1903.880136099817
 30
0.0
 11
-1247.860675197517
 21
1905.180136099817
 31
0.0
  0
LINE
  5
16F45
330
1A
100
AcDbEntity
  8
_2-4_PARTS
  6
CONTINUOUS
100
AcDbLine
 10
-1248.460675197518
 20
1903.880136099817
 30
0.0
 11
-1248.460675197518
 21
1905.180136099817
 31
0.0
  0
LINE
  5
16F46
330
1A
100
AcDbEntity
  8
_2-4_PARTS
  6
CONTINUOUS
100
AcDbLine
 10
-1247.410675197517
 20
1901.980136099816
 30
0.0
 11
-1248.910675197517
 21
1901.980136099816
 31
0.0
  0
LINE
  5
16F47
330
1A
100
AcDbEntity
  8
_2-4_PARTS
  6
CONTINUOUS
100
AcDbLine
 10
-1246.410675197517
 20
1902.280136099816
 30
0.0
 11
-1247.410675197517
 21
1902.280136099816
 31
0.0
  0
LINE
  5
16F48
330
1A
100
AcDbEntity
  8
_2-4_PARTS
  6
CONTINUOUS
100
AcDbLine
 10
-1248.310675197517
 20
1905.680136099817
 30
0.0
 11
-1248.460675197518
 21
1905.180136099817
 31
0.0
  0
LINE
  5
16F49
330
1A
100
AcDbEntity
  8
_2-4_PARTS
  6
CONTINUOUS
100
AcDbLine
 10
-1248.010675197517
 20
1905.680136099817
 30
0.0
 11
-1247.860675197517
 21
1905.180136099817
 31
0.0
  0
LINE
  5
16F4A
330
1A
100
AcDbEntity
  8
_2-4_PARTS
  6
CONTINUOUS
100
AcDbLine
 10
-1248.010675197517
 20
1905.680136099817
 30
0.0
 11
-1248.310675197517
 21
1905.680136099817
 31
0.0
  0
LINE
  5
16F4B
330
1A
100
AcDbEntity
  8
_2-4_PARTS
  6
CONTINUOUS
100
AcDbLine
 10
-1247.410675197517
 20
1901.180136099817
 30
0.0
 11
-1248.910675197517
 21
1901.180136099817
 31
0.0
  0
LINE
  5
16F4C
330
1A
100
AcDbEntity
  8
_2-4_PARTS
  6
CONTINUOUS
100
AcDbLine
 10
-1247.410675197517
 20
1902.280136099816
 30
0.0
 11
-1247.410675197517
 21
1901.180136099817
 31
0.0
  0
LINE
  5
16F4D
330
1A
100
AcDbEntity
  8
_2-4_PARTS
  6
CONTINUOUS
100
AcDbLine
 10
-1246.410675197517
 20
1902.280136099816
 30
0.0
 11
-1246.410675197517
 21
1901.180136099817
 31
0.0
  0
LINE
  5
16F4E
330
1A
100
AcDbEntity
  8
_2-4_PARTS
  6
CONTINUOUS
100
AcDbLine
 10
-1248.910675197517
 20
1901.180136099817
 30
0.0
 11
-1248.910675197517
 21
1902.280136099816
 31
0.0
  0
ARC
  5
16F4F
330
1A
100
AcDbEntity
  8
_2-4_PARTS
  6
CONTINUOUS
100
AcDbCircle
 10
-1247.610675197518
 20
1892.280136099816
 30
0.0
 40
0.5
100
AcDbArc
 50
90.0
 51
180.0
  0
LINE
  5
16F50
330
1A
100
AcDbEntity
  8
_2-4_PARTS
  6
CONTINUOUS
100
AcDbLine
 10
-1248.110675197517
 20
1892.280136099816
 30
0.0
 11
-1248.110675197517
 21
1891.280136099816
 31
0.0
  0
LINE
  5
16F51
330
1A
100
AcDbEntity
  8
_2-4_PARTS
  6
CONTINUOUS
100
AcDbLine
 10
-1248.110675197517
 20
1891.280136099816
 30
0.0
 11
-1248.610675197517
 21
1890.780136099817
 31
0.0
  0
LINE
  5
16F52
330
1A
100
AcDbEntity
  8
_2-4_PARTS
  6
CONTINUOUS
100
AcDbLine
 10
-1247.610675197518
 20
1852.080136099817
 30
0.0
 11
-1247.610675197518
 21
1851.180136099817
 31
0.0
  0
LINE
  5
16F53
330
1A
100
AcDbEntity
  8
_2-4_PARTS
  6
CONTINUOUS
100
AcDbLine
 10
-1247.410675197518
 20
1852.080136099817
 30
0.0
 11
-1247.410675197518
 21
1851.480136099817
 31
0.0
  0
CIRCLE
  5
16F54
330
1A
100
AcDbEntity
  8
_2-4_PARTS
  6
CONTINUOUS
100
AcDbCircle
 10
-1248.160675197518
 20
1854.480136099817
 30
0.0
 40
0.25
  0
LINE
  5
16F55
330
1A
100
AcDbEntity
  8
_2-4_PARTS
  6
CONTINUOUS
100
AcDbLine
 10
-1248.260675197518
 20
1851.180136099817
 30
0.0
 11
-1248.260675197518
 21
1852.080136099817
 31
0.0
  0
LINE
  5
16F56
330
1A
100
AcDbEntity
  8
_2-4_PARTS
  6
CONTINUOUS
100
AcDbLine
 10
-1248.760675197517
 20
1852.580136099817
 30
0.0
 11
-1248.760675197517
 21
1851.880136099817
 31
0.0
  0
LINE
  5
16F57
330
1A
100
AcDbEntity
  8
_2-4_PARTS
  6
CONTINUOUS
100
AcDbLine
 10
-1249.760675197518
 20
1851.880136099817
 30
0.0
 11
-1248.260675197518
 21
1851.880136099817
 31
0.0
  0
LINE
  5
16F58
330
1A
100
AcDbEntity
  8
_2-4_PARTS
  6
CONTINUOUS
100
AcDbLine
 10
-1249.760675197518
 20
1857.180136099817
 30
0.0
 11
-1249.760675197518
 21
1851.880136099817
 31
0.0
  0
LINE
  5
16F59
330
1A
100
AcDbEntity
  8
_2-4_PARTS
  6
CONTINUOUS
100
AcDbLine
 10
-1242.860675197517
 20
1903.880136099817
 30
0.0
 11
-1242.860675197517
 21
1905.180136099817
 31
0.0
  0
LINE
  5
16F5A
330
1A
100
AcDbEntity
  8
_2-4_PARTS
  6
CONTINUOUS
100
AcDbLine
 10
-1243.460675197517
 20
1903.880136099817
 30
0.0
 11
-1243.460675197517
 21
1905.180136099817
 31
0.0
  0
LINE
  5
16F5B
330
1A
100
AcDbEntity
  8
_2-4_PARTS
  6
CONTINUOUS
100
AcDbLine
 10
-1245.360675197517
 20
1903.880136099817
 30
0.0
 11
-1245.360675197517
 21
1905.180136099817
 31
0.0
  0
LINE
  5
16F5C
330
1A
100
AcDbEntity
  8
_2-4_PARTS
  6
CONTINUOUS
100
AcDbLine
 10
-1245.960675197517
 20
1903.880136099817
 30
0.0
 11
-1245.960675197517
 21
1905.180136099817
 31
0.0
  0
LINE
  5
16F5D
330
1A
100
AcDbEntity
  8
_2-4_PARTS
  6
CONTINUOUS
100
AcDbLine
 10
-1242.410675197517
 20
1901.980136099816
 30
0.0
 11
-1243.910675197517
 21
1901.980136099816
 31
0.0
  0
LINE
  5
16F5E
330
1A
100
AcDbEntity
  8
_2-4_PARTS
  6
CONTINUOUS
100
AcDbLine
 10
-1243.910675197517
 20
1902.280136099816
 30
0.0
 11
-1244.910675197517
 21
1902.280136099816
 31
0.0
  0
LINE
  5
16F5F
330
1A
100
AcDbEntity
  8
_2-4_PARTS
  6
CONTINUOUS
100
AcDbLine
 10
-1245.810675197517
 20
1905.680136099817
 30
0.0
 11
-1245.960675197517
 21
1905.180136099817
 31
0.0
  0
LINE
  5
16F60
330
1A
100
AcDbEntity
  8
_2-4_PARTS
  6
CONTINUOUS
100
AcDbLine
 10
-1245.510675197517
 20
1905.680136099817
 30
0.0
 11
-1245.360675197517
 21
1905.180136099817
 31
0.0
  0
LINE
  5
16F61
330
1A
100
AcDbEntity
  8
_2-4_PARTS
  6
CONTINUOUS
100
AcDbLine
 10
-1245.510675197517
 20
1905.680136099817
 30
0.0
 11
-1245.810675197517
 21
1905.680136099817
 31
0.0
  0
LINE
  5
16F62
330
1A
100
AcDbEntity
  8
_2-4_PARTS
  6
CONTINUOUS
100
AcDbLine
 10
-1243.310675197518
 20
1905.680136099817
 30
0.0
 11
-1243.460675197517
 21
1905.180136099817
 31
0.0
  0
LINE
  5
16F63
330
1A
100
AcDbEntity
  8
_2-4_PARTS
  6
CONTINUOUS
100
AcDbLine
 10
-1243.010675197517
 20
1905.680136099817
 30
0.0
 11
-1242.860675197517
 21
1905.180136099817
 31
0.0
  0
LINE
  5
16F64
330
1A
100
AcDbEntity
  8
_2-4_PARTS
  6
CONTINUOUS
100
AcDbLine
 10
-1243.010675197517
 20
1905.680136099817
 30
0.0
 11
-1243.310675197518
 21
1905.680136099817
 31
0.0
  0
LINE
  5
16F65
330
1A
100
AcDbEntity
  8
_2-4_PARTS
  6
CONTINUOUS
100
AcDbLine
 10
-1242.410675197517
 20
1901.180136099817
 30
0.0
 11
-1243.910675197517
 21
1901.180136099817
 31
0.0
  0
LINE
  5
16F66
330
1A
100
AcDbEntity
  8
_2-4_PARTS
  6
CONTINUOUS
100
AcDbLine
 10
-1244.910675197517
 20
1902.280136099816
 30
0.0
 11
-1244.910675197517
 21
1901.180136099817
 31
0.0
  0
LINE
  5
16F67
330
1A
100
AcDbEntity
  8
_2-4_PARTS
  6
CONTINUOUS
100
AcDbLine
 10
-1243.910675197517
 20
1902.280136099816
 30
0.0
 11
-1243.910675197517
 21
1901.180136099817
 31
0.0
  0
LINE
  5
16F68
330
1A
100
AcDbEntity
  8
_2-4_PARTS
  6
CONTINUOUS
100
AcDbLine
 10
-1242.410675197517
 20
1902.280136099816
 30
0.0
 11
-1242.410675197517
 21
1901.180136099817
 31
0.0
  0
LINE
  5
16F69
330
1A
100
AcDbEntity
  8
_2-4_PARTS
  6
CONTINUOUS
100
AcDbLine
 10
-1245.710675197518
 20
1852.080136099817
 30
0.0
 11
-1245.710675197518
 21
1851.180136099817
 31
0.0
  0
LINE
  5
16F6A
330
1A
100
AcDbEntity
  8
_2-4_PARTS
  6
CONTINUOUS
100
AcDbLine
 10
-1245.910675197518
 20
1852.080136099817
 30
0.0
 11
-1245.910675197518
 21
1851.480136099817
 31
0.0
  0
CIRCLE
  5
16F6B
330
1A
100
AcDbEntity
  8
_2-4_PARTS
  6
CONTINUOUS
100
AcDbCircle
 10
-1245.660675197518
 20
1854.480136099817
 30
0.0
 40
0.25
  0
CIRCLE
  5
16F6C
330
1A
100
AcDbEntity
  8
_2-4_PARTS
  6
CONTINUOUS
100
AcDbCircle
 10
-1243.160675197518
 20
1854.480136099817
 30
0.0
 40
0.25
  0
LINE
  5
16F6D
330
1A
100
AcDbEntity
  8
_2-4_PARTS
  6
CONTINUOUS
100
AcDbLine
 10
-1236.965675197517
 20
1782.080136099817
 30
0.0
 11
-1230.355675197517
 21
1782.080136099817
 31
0.0
  0
LINE
  5
16F6E
330
1A
100
AcDbEntity
  8
_2-4_PARTS
  6
CONTINUOUS
100
AcDbLine
 10
-1236.965675197517
 20
1787.480136099817
 30
0.0
 11
-1230.355675197517
 21
1787.480136099817
 31
0.0
  0
LINE
  5
16F6F
330
1A
100
AcDbEntity
  8
_2-4_PARTS
  6
CONTINUOUS
100
AcDbLine
 10
-1238.910675197517
 20
1901.980136099816
 30
0.0
 11
-1237.410675197518
 21
1901.980136099816
 31
0.0
  0
LINE
  5
16F70
330
1A
100
AcDbEntity
  8
_2-4_PARTS
  6
CONTINUOUS
100
AcDbLine
 10
-1238.010675197517
 20
1905.680136099817
 30
0.0
 11
-1238.310675197517
 21
1905.680136099817
 31
0.0
  0
LINE
  5
16F71
330
1A
100
AcDbEntity
  8
_2-4_PARTS
  6
CONTINUOUS
100
AcDbLine
 10
-1237.410675197518
 20
1901.180136099817
 30
0.0
 11
-1238.910675197517
 21
1901.180136099817
 31
0.0
  0
LINE
  5
16F72
330
1A
100
AcDbEntity
  8
_2-4_PARTS
  6
CONTINUOUS
100
AcDbLine
 10
-1237.710675197517
 20
1890.780136099817
 30
0.0
 11
-1238.210675197517
 21
1891.280136099816
 31
0.0
  0
LINE
  5
16F73
330
1A
100
AcDbEntity
  8
_2-4_PARTS
  6
CONTINUOUS
100
AcDbLine
 10
-1235.710675197518
 20
1851.180136099817
 30
0.0
 11
-1238.710675197518
 21
1851.180136099817
 31
0.0
  0
CIRCLE
  5
16F74
330
1A
100
AcDbEntity
  8
_2-4_PARTS
  6
CONTINUOUS
100
AcDbCircle
 10
-1238.160675197518
 20
1854.480136099817
 30
0.0
 40
0.25
  0
LINE
  5
16F75
330
1A
100
AcDbEntity
  8
_2-4_PARTS
  6
CONTINUOUS
100
AcDbLine
 10
-1236.560675197518
 20
1851.880136099817
 30
0.0
 11
-1238.060675197518
 21
1851.880136099817
 31
0.0
  0
LINE
  5
16F76
330
1A
100
AcDbEntity
  8
_2-4_PARTS
  6
CONTINUOUS
100
AcDbLine
 10
-1238.460675197517
 20
1903.880136099817
 30
0.0
 11
-1238.460675197517
 21
1905.180136099817
 31
0.0
  0
LINE
  5
16F77
330
1A
100
AcDbEntity
  8
_2-4_PARTS
  6
CONTINUOUS
100
AcDbLine
 10
-1240.360675197518
 20
1903.880136099817
 30
0.0
 11
-1240.360675197518
 21
1905.180136099817
 31
0.0
  0
LINE
  5
16F78
330
1A
100
AcDbEntity
  8
_2-4_PARTS
  6
CONTINUOUS
100
AcDbLine
 10
-1240.960675197517
 20
1903.880136099817
 30
0.0
 11
-1240.960675197517
 21
1905.180136099817
 31
0.0
  0
LINE
  5
16F79
330
1A
100
AcDbEntity
  8
_2-4_PARTS
  6
CONTINUOUS
100
AcDbLine
 10
-1239.910675197517
 20
1901.980136099816
 30
0.0
 11
-1241.410675197517
 21
1901.980136099816
 31
0.0
  0
LINE
  5
16F7A
330
1A
100
AcDbEntity
  8
_2-4_PARTS
  6
CONTINUOUS
100
AcDbLine
 10
-1238.910675197517
 20
1902.280136099816
 30
0.0
 11
-1239.910675197517
 21
1902.280136099816
 31
0.0
  0
LINE
  5
16F7B
330
1A
100
AcDbEntity
  8
_2-4_PARTS
  6
CONTINUOUS
100
AcDbLine
 10
-1240.810675197518
 20
1905.680136099817
 30
0.0
 11
-1240.960675197517
 21
1905.180136099817
 31
0.0
  0
LINE
  5
16F7C
330
1A
100
AcDbEntity
  8
_2-4_PARTS
  6
CONTINUOUS
100
AcDbLine
 10
-1240.510675197517
 20
1905.680136099817
 30
0.0
 11
-1240.360675197518
 21
1905.180136099817
 31
0.0
  0
LINE
  5
16F7D
330
1A
100
AcDbEntity
  8
_2-4_PARTS
  6
CONTINUOUS
100
AcDbLine
 10
-1240.510675197517
 20
1905.680136099817
 30
0.0
 11
-1240.810675197518
 21
1905.680136099817
 31
0.0
  0
LINE
  5
16F7E
330
1A
100
AcDbEntity
  8
_2-4_PARTS
  6
CONTINUOUS
100
AcDbLine
 10
-1238.310675197517
 20
1905.680136099817
 30
0.0
 11
-1238.460675197517
 21
1905.180136099817
 31
0.0
  0
LINE
  5
16F7F
330
1A
100
AcDbEntity
  8
_2-4_PARTS
  6
CONTINUOUS
100
AcDbLine
 10
-1239.910675197517
 20
1901.180136099817
 30
0.0
 11
-1241.410675197517
 21
1901.180136099817
 31
0.0
  0
LINE
  5
16F80
330
1A
100
AcDbEntity
  8
_2-4_PARTS
  6
CONTINUOUS
100
AcDbLine
 10
-1241.410675197517
 20
1902.280136099816
 30
0.0
 11
-1241.410675197517
 21
1901.180136099817
 31
0.0
  0
LINE
  5
16F81
330
1A
100
AcDbEntity
  8
_2-4_PARTS
  6
CONTINUOUS
100
AcDbLine
 10
-1239.910675197517
 20
1902.280136099816
 30
0.0
 11
-1239.910675197517
 21
1901.180136099817
 31
0.0
  0
LINE
  5
16F82
330
1A
100
AcDbEntity
  8
_2-4_PARTS
  6
CONTINUOUS
100
AcDbLine
 10
-1238.910675197517
 20
1902.280136099816
 30
0.0
 11
-1238.910675197517
 21
1901.180136099817
 31
0.0
  0
ARC
  5
16F83
330
1A
100
AcDbEntity
  8
_2-4_PARTS
  6
CONTINUOUS
100
AcDbCircle
 10
-1238.710675197517
 20
1892.280136099816
 30
0.0
 40
0.5
100
AcDbArc
 50
0.0
 51
90.0
  0
LINE
  5
16F84
330
1A
100
AcDbEntity
  8
_2-4_PARTS
  6
CONTINUOUS
100
AcDbLine
 10
-1238.210675197517
 20
1892.280136099816
 30
0.0
 11
-1238.210675197517
 21
1891.280136099816
 31
0.0
  0
LINE
  5
16F85
330
1A
100
AcDbEntity
  8
_2-4_PARTS
  6
CONTINUOUS
100
AcDbLine
 10
-1238.710675197518
 20
1852.080136099817
 30
0.0
 11
-1238.710675197518
 21
1851.180136099817
 31
0.0
  0
LINE
  5
16F86
330
1A
100
AcDbEntity
  8
_2-4_PARTS
  6
CONTINUOUS
100
AcDbLine
 10
-1240.610675197518
 20
1852.080136099817
 30
0.0
 11
-1240.610675197518
 21
1851.180136099817
 31
0.0
  0
LINE
  5
16F87
330
1A
100
AcDbEntity
  8
_2-4_PARTS
  6
CONTINUOUS
100
AcDbLine
 10
-1240.410675197518
 20
1852.080136099817
 30
0.0
 11
-1240.410675197518
 21
1851.480136099817
 31
0.0
  0
LINE
  5
16F88
330
1A
100
AcDbEntity
  8
_2-4_PARTS
  6
CONTINUOUS
100
AcDbLine
 10
-1238.910675197518
 20
1852.080136099817
 30
0.0
 11
-1238.910675197518
 21
1851.480136099817
 31
0.0
  0
LINE
  5
16F89
330
1A
100
AcDbEntity
  8
_2-4_PARTS
  6
CONTINUOUS
100
AcDbLine
 10
-1238.910675197518
 20
1851.480136099817
 30
0.0
 11
-1240.410675197518
 21
1851.480136099817
 31
0.0
  0
CIRCLE
  5
16F8A
330
1A
100
AcDbEntity
  8
_2-4_PARTS
  6
CONTINUOUS
100
AcDbCircle
 10
-1240.660675197518
 20
1854.480136099817
 30
0.0
 40
0.25
  0
LINE
  5
16F8B
330
1A
100
AcDbEntity
  8
_2-4_PARTS
  6
CONTINUOUS
100
AcDbLine
 10
-1238.060675197518
 20
1852.080136099817
 30
0.0
 11
-1238.060675197518
 21
1851.180136099817
 31
0.0
  0
LINE
  5
16F8C
330
1A
100
AcDbEntity
  8
_2-4_PARTS
  6
CONTINUOUS
100
AcDbLine
 10
-1237.860675197517
 20
1903.880136099817
 30
0.0
 11
-1237.860675197517
 21
1905.180136099817
 31
0.0
  0
LINE
  5
16F8D
330
1A
100
AcDbEntity
  8
_2-4_PARTS
  6
CONTINUOUS
100
AcDbLine
 10
-1236.260675197517
 20
1902.280136099816
 30
0.0
 11
-1237.410675197518
 21
1902.280136099816
 31
0.0
  0
LINE
  5
16F8E
330
1A
100
AcDbEntity
  8
_2-4_PARTS
  6
CONTINUOUS
100
AcDbLine
 10
-1238.010675197517
 20
1905.680136099817
 30
0.0
 11
-1237.860675197517
 21
1905.180136099817
 31
0.0
  0
LINE
  5
16F8F
330
1A
100
AcDbEntity
  8
_2-4_PARTS
  6
CONTINUOUS
100
AcDbLine
 10
-1235.710675197517
 20
1902.280136099816
 30
0.0
 11
-1236.710675197517
 21
1902.280136099816
 31
0.0
  0
LINE
  5
16F90
330
1A
100
AcDbEntity
  8
_2-4_PARTS
  6
CONTINUOUS
100
AcDbLine
 10
-1237.410675197518
 20
1901.180136099817
 30
0.0
 11
-1237.410675197518
 21
1902.280136099816
 31
0.0
  0
LINE
  5
16F91
330
1A
100
AcDbEntity
  8
_2-4_PARTS
  6
CONTINUOUS
100
AcDbLine
 10
-1237.710675197517
 20
1890.780136099817
 30
0.0
 11
-1235.710675197517
 21
1890.780136099817
 31
0.0
  0
LINE
  5
16F92
330
1A
100
AcDbEntity
  8
_2-4_PARTS
  6
CONTINUOUS
100
AcDbLine
 10
-1235.710675197517
 20
1890.780136099817
 30
0.0
 11
-1235.710675197517
 21
1902.280136099816
 31
0.0
  0
LINE
  5
16F93
330
1A
100
AcDbEntity
  8
_2-4_PARTS
  6
CONTINUOUS
100
AcDbLine
 10
-1235.710675197518
 20
1857.580136099817
 30
0.0
 11
-1235.710675197518
 21
1857.880136099817
 31
0.0
  0
LINE
  5
16F94
330
1A
100
AcDbEntity
  8
_2-4_PARTS
  6
CONTINUOUS
100
AcDbLine
 10
-1237.560675197518
 20
1852.580136099817
 30
0.0
 11
-1237.560675197518
 21
1851.880136099817
 31
0.0
  0
LINE
  5
16F95
330
1A
100
AcDbEntity
  8
_2-4_PARTS
  6
CONTINUOUS
100
AcDbLine
 10
-1236.560675197518
 20
1857.180136099817
 30
0.0
 11
-1236.560675197518
 21
1851.880136099817
 31
0.0
  0
LINE
  5
16F96
330
1A
100
AcDbEntity
  8
_2-4_PARTS
  6
CONTINUOUS
100
AcDbLine
 10
-1235.710675197518
 20
1851.180136099817
 30
0.0
 11
-1235.710675197518
 21
1857.880136099817
 31
0.0
  0
LINE
  5
16F97
330
1A
100
AcDbEntity
  8
_2-4_PARTS
  6
CONTINUOUS
100
AcDbLine
 10
-1234.595675197518
 20
1786.280136099817
 30
0.0
 11
-1233.995675197517
 21
1786.280136099817
 31
0.0
  0
LINE
  5
16F98
330
1A
100
AcDbEntity
  8
_2-4_PARTS
  6
CONTINUOUS
100
AcDbLine
 10
-1235.865675197517
 20
1786.280136099817
 30
0.0
 11
-1235.265675197517
 21
1786.280136099817
 31
0.0
  0
LINE
  5
16F99
330
1A
100
AcDbEntity
  8
_2-4_PARTS
  6
CONTINUOUS
100
AcDbLine
 10
-1234.495675197518
 20
1787.580136099817
 30
0.0
 11
-1234.095675197518
 21
1787.580136099817
 31
0.0
  0
LINE
  5
16F9A
330
1A
100
AcDbEntity
  8
_2-4_PARTS
  6
CONTINUOUS
100
AcDbLine
 10
-1234.095675197518
 20
1787.480136099817
 30
0.0
 11
-1234.095675197518
 21
1787.580136099817
 31
0.0
  0
LINE
  5
16F9B
330
1A
100
AcDbEntity
  8
_2-4_PARTS
  6
CONTINUOUS
100
AcDbLine
 10
-1234.495675197518
 20
1787.580136099817
 30
0.0
 11
-1234.495675197518
 21
1787.480136099817
 31
0.0
  0
LINE
  5
16F9C
330
1A
100
AcDbEntity
  8
_2-4_PARTS
  6
CONTINUOUS
100
AcDbLine
 10
-1235.765675197517
 20
1787.580136099817
 30
0.0
 11
-1235.365675197518
 21
1787.580136099817
 31
0.0
  0
LINE
  5
16F9D
330
1A
100
AcDbEntity
  8
_2-4_PARTS
  6
CONTINUOUS
100
AcDbLine
 10
-1235.365675197518
 20
1787.480136099817
 30
0.0
 11
-1235.365675197518
 21
1787.580136099817
 31
0.0
  0
LINE
  5
16F9E
330
1A
100
AcDbEntity
  8
_2-4_PARTS
  6
CONTINUOUS
100
AcDbLine
 10
-1235.765675197517
 20
1787.580136099817
 30
0.0
 11
-1235.765675197517
 21
1787.480136099817
 31
0.0
  0
LINE
  5
16F9F
330
1A
100
AcDbEntity
  8
_2-4_PARTS
  6
CONTINUOUS
100
AcDbLine
 10
-1234.595675197518
 20
1783.280136099817
 30
0.0
 11
-1233.995675197517
 21
1783.280136099817
 31
0.0
  0
LINE
  5
16FA0
330
1A
100
AcDbEntity
  8
_2-4_PARTS
  6
CONTINUOUS
100
AcDbLine
 10
-1235.865675197517
 20
1783.280136099817
 30
0.0
 11
-1235.265675197517
 21
1783.280136099817
 31
0.0
  0
LINE
  5
16FA1
330
1A
100
AcDbEntity
  8
_2-4_PARTS
  6
CONTINUOUS
100
AcDbLine
 10
-1234.095675197518
 20
1781.980136099817
 30
0.0
 11
-1234.095675197518
 21
1782.080136099817
 31
0.0
  0
LINE
  5
16FA2
330
1A
100
AcDbEntity
  8
_2-4_PARTS
  6
CONTINUOUS
100
AcDbLine
 10
-1234.495675197518
 20
1781.980136099817
 30
0.0
 11
-1234.095675197518
 21
1781.980136099817
 31
0.0
  0
LINE
  5
16FA3
330
1A
100
AcDbEntity
  8
_2-4_PARTS
  6
CONTINUOUS
100
AcDbLine
 10
-1234.495675197518
 20
1782.080136099817
 30
0.0
 11
-1234.495675197518
 21
1781.980136099817
 31
0.0
  0
LINE
  5
16FA4
330
1A
100
AcDbEntity
  8
_2-4_PARTS
  6
CONTINUOUS
100
AcDbLine
 10
-1235.365675197518
 20
1781.980136099817
 30
0.0
 11
-1235.365675197518
 21
1782.080136099817
 31
0.0
  0
LINE
  5
16FA5
330
1A
100
AcDbEntity
  8
_2-4_PARTS
  6
CONTINUOUS
100
AcDbLine
 10
-1235.765675197517
 20
1781.980136099817
 30
0.0
 11
-1235.365675197518
 21
1781.980136099817
 31
0.0
  0
LINE
  5
16FA6
330
1A
100
AcDbEntity
  8
_2-4_PARTS
  6
CONTINUOUS
100
AcDbLine
 10
-1235.765675197517
 20
1782.080136099817
 30
0.0
 11
-1235.765675197517
 21
1781.980136099817
 31
0.0
  0
LINE
  5
16FA7
330
1A
100
AcDbEntity
  8
_2-4_PARTS
  6
CONTINUOUS
100
AcDbLine
 10
-1233.995675197517
 20
1783.280136099817
 30
0.0
 11
-1233.995675197517
 21
1786.280136099817
 31
0.0
  0
LINE
  5
16FA8
330
1A
100
AcDbEntity
  8
_2-4_PARTS
  6
CONTINUOUS
100
AcDbLine
 10
-1234.595675197518
 20
1783.280136099817
 30
0.0
 11
-1234.595675197518
 21
1786.280136099817
 31
0.0
  0
LINE
  5
16FA9
330
1A
100
AcDbEntity
  8
_2-4_PARTS
  6
CONTINUOUS
100
AcDbLine
 10
-1235.265675197517
 20
1783.280136099817
 30
0.0
 11
-1235.265675197517
 21
1786.280136099817
 31
0.0
  0
LINE
  5
16FAA
330
1A
100
AcDbEntity
  8
_2-4_PARTS
  6
CONTINUOUS
100
AcDbLine
 10
-1235.865675197517
 20
1783.280136099817
 30
0.0
 11
-1235.865675197517
 21
1786.280136099817
 31
0.0
  0
LINE
  5
16FAB
330
1A
100
AcDbEntity
  8
_2-4_PARTS
  6
CONTINUOUS
100
AcDbLine
 10
-1236.965675197517
 20
1787.480136099817
 30
0.0
 11
-1236.965675197517
 21
1782.080136099817
 31
0.0
  0
LINE
  5
16FAC
330
1A
100
AcDbEntity
  8
_2-4_PARTS
  6
CONTINUOUS
100
AcDbLine
 10
-1232.055675197517
 20
1786.280136099817
 30
0.0
 11
-1231.455675197517
 21
1786.280136099817
 31
0.0
  0
LINE
  5
16FAD
330
1A
100
AcDbEntity
  8
_2-4_PARTS
  6
CONTINUOUS
100
AcDbLine
 10
-1233.325675197518
 20
1786.280136099817
 30
0.0
 11
-1232.725675197517
 21
1786.280136099817
 31
0.0
  0
LINE
  5
16FAE
330
1A
100
AcDbEntity
  8
_2-4_PARTS
  6
CONTINUOUS
100
AcDbLine
 10
-1231.955675197518
 20
1787.580136099817
 30
0.0
 11
-1231.555675197517
 21
1787.580136099817
 31
0.0
  0
LINE
  5
16FAF
330
1A
100
AcDbEntity
  8
_2-4_PARTS
  6
CONTINUOUS
100
AcDbLine
 10
-1231.555675197517
 20
1787.480136099817
 30
0.0
 11
-1231.555675197517
 21
1787.580136099817
 31
0.0
  0
LINE
  5
16FB0
330
1A
100
AcDbEntity
  8
_2-4_PARTS
  6
CONTINUOUS
100
AcDbLine
 10
-1231.955675197518
 20
1787.580136099817
 30
0.0
 11
-1231.955675197518
 21
1787.480136099817
 31
0.0
  0
LINE
  5
16FB1
330
1A
100
AcDbEntity
  8
_2-4_PARTS
  6
CONTINUOUS
100
AcDbLine
 10
-1233.225675197517
 20
1787.580136099817
 30
0.0
 11
-1232.825675197518
 21
1787.580136099817
 31
0.0
  0
LINE
  5
16FB2
330
1A
100
AcDbEntity
  8
_2-4_PARTS
  6
CONTINUOUS
100
AcDbLine
 10
-1232.825675197518
 20
1787.480136099817
 30
0.0
 11
-1232.825675197518
 21
1787.580136099817
 31
0.0
  0
LINE
  5
16FB3
330
1A
100
AcDbEntity
  8
_2-4_PARTS
  6
CONTINUOUS
100
AcDbLine
 10
-1233.225675197517
 20
1787.580136099817
 30
0.0
 11
-1233.225675197517
 21
1787.480136099817
 31
0.0
  0
LINE
  5
16FB4
330
1A
100
AcDbEntity
  8
_2-4_PARTS
  6
CONTINUOUS
100
AcDbLine
 10
-1232.055675197517
 20
1783.280136099817
 30
0.0
 11
-1231.455675197517
 21
1783.280136099817
 31
0.0
  0
LINE
  5
16FB5
330
1A
100
AcDbEntity
  8
_2-4_PARTS
  6
CONTINUOUS
100
AcDbLine
 10
-1233.325675197518
 20
1783.280136099817
 30
0.0
 11
-1232.725675197517
 21
1783.280136099817
 31
0.0
  0
LINE
  5
16FB6
330
1A
100
AcDbEntity
  8
_2-4_PARTS
  6
CONTINUOUS
100
AcDbLine
 10
-1231.555675197517
 20
1781.980136099817
 30
0.0
 11
-1231.555675197517
 21
1782.080136099817
 31
0.0
  0
LINE
  5
16FB7
330
1A
100
AcDbEntity
  8
_2-4_PARTS
  6
CONTINUOUS
100
AcDbLine
 10
-1231.955675197518
 20
1781.980136099817
 30
0.0
 11
-1231.555675197517
 21
1781.980136099817
 31
0.0
  0
LINE
  5
16FB8
330
1A
100
AcDbEntity
  8
_2-4_PARTS
  6
CONTINUOUS
100
AcDbLine
 10
-1231.955675197518
 20
1782.080136099817
 30
0.0
 11
-1231.955675197518
 21
1781.980136099817
 31
0.0
  0
LINE
  5
16FB9
330
1A
100
AcDbEntity
  8
_2-4_PARTS
  6
CONTINUOUS
100
AcDbLine
 10
-1232.825675197518
 20
1781.980136099817
 30
0.0
 11
-1232.825675197518
 21
1782.080136099817
 31
0.0
  0
LINE
  5
16FBA
330
1A
100
AcDbEntity
  8
_2-4_PARTS
  6
CONTINUOUS
100
AcDbLine
 10
-1233.225675197517
 20
1781.980136099817
 30
0.0
 11
-1232.825675197518
 21
1781.980136099817
 31
0.0
  0
LINE
  5
16FBB
330
1A
100
AcDbEntity
  8
_2-4_PARTS
  6
CONTINUOUS
100
AcDbLine
 10
-1233.225675197517
 20
1782.080136099817
 30
0.0
 11
-1233.225675197517
 21
1781.980136099817
 31
0.0
  0
LINE
  5
16FBC
330
1A
100
AcDbEntity
  8
_2-4_PARTS
  6
CONTINUOUS
100
AcDbLine
 10
-1231.455675197517
 20
1783.280136099817
 30
0.0
 11
-1231.455675197517
 21
1786.280136099817
 31
0.0
  0
LINE
  5
16FBD
330
1A
100
AcDbEntity
  8
_2-4_PARTS
  6
CONTINUOUS
100
AcDbLine
 10
-1232.055675197517
 20
1783.280136099817
 30
0.0
 11
-1232.055675197517
 21
1786.280136099817
 31
0.0
  0
LINE
  5
16FBE
330
1A
100
AcDbEntity
  8
_2-4_PARTS
  6
CONTINUOUS
100
AcDbLine
 10
-1232.725675197517
 20
1783.280136099817
 30
0.0
 11
-1232.725675197517
 21
1786.280136099817
 31
0.0
  0
LINE
  5
16FBF
330
1A
100
AcDbEntity
  8
_2-4_PARTS
  6
CONTINUOUS
100
AcDbLine
 10
-1233.325675197518
 20
1783.280136099817
 30
0.0
 11
-1233.325675197518
 21
1786.280136099817
 31
0.0
  0
LINE
  5
16FC0
330
1A
100
AcDbEntity
  8
_2-4_PARTS
  6
CONTINUOUS
100
AcDbLine
 10
-1230.355675197517
 20
1787.480136099817
 30
0.0
 11
-1230.355675197517
 21
1782.080136099817
 31
0.0
  0
LINE
  5
16FC1
330
1A
100
AcDbEntity
  8
_2-4_PARTS
  6
CONTINUOUS
100
AcDbLine
 10
-1227.265675197517
 20
1786.280136099817
 30
0.0
 11
-1227.865675197517
 21
1786.280136099817
 31
0.0
  0
LINE
  5
16FC2
330
1A
100
AcDbEntity
  8
_2-4_PARTS
  6
CONTINUOUS
100
AcDbLine
 10
-1225.995675197517
 20
1786.280136099817
 30
0.0
 11
-1226.595675197517
 21
1786.280136099817
 31
0.0
  0
LINE
  5
16FC3
330
1A
100
AcDbEntity
  8
_2-4_PARTS
  6
CONTINUOUS
100
AcDbLine
 10
-1227.765675197517
 20
1787.580136099817
 30
0.0
 11
-1227.765675197517
 21
1787.480136099817
 31
0.0
  0
LINE
  5
16FC4
330
1A
100
AcDbEntity
  8
_2-4_PARTS
  6
CONTINUOUS
100
AcDbLine
 10
-1227.365675197518
 20
1787.580136099817
 30
0.0
 11
-1227.765675197517
 21
1787.580136099817
 31
0.0
  0
LINE
  5
16FC5
330
1A
100
AcDbEntity
  8
_2-4_PARTS
  6
CONTINUOUS
100
AcDbLine
 10
-1227.365675197518
 20
1787.480136099817
 30
0.0
 11
-1227.365675197518
 21
1787.580136099817
 31
0.0
  0
LINE
  5
16FC6
330
1A
100
AcDbEntity
  8
_2-4_PARTS
  6
CONTINUOUS
100
AcDbLine
 10
-1226.495675197518
 20
1787.580136099817
 30
0.0
 11
-1226.495675197518
 21
1787.480136099817
 31
0.0
  0
LINE
  5
16FC7
330
1A
100
AcDbEntity
  8
_2-4_PARTS
  6
CONTINUOUS
100
AcDbLine
 10
-1226.095675197518
 20
1787.580136099817
 30
0.0
 11
-1226.495675197518
 21
1787.580136099817
 31
0.0
  0
LINE
  5
16FC8
330
1A
100
AcDbEntity
  8
_2-4_PARTS
  6
CONTINUOUS
100
AcDbLine
 10
-1226.095675197518
 20
1787.480136099817
 30
0.0
 11
-1226.095675197518
 21
1787.580136099817
 31
0.0
  0
LINE
  5
16FC9
330
1A
100
AcDbEntity
  8
_2-4_PARTS
  6
CONTINUOUS
100
AcDbLine
 10
-1227.265675197517
 20
1783.280136099817
 30
0.0
 11
-1227.865675197517
 21
1783.280136099817
 31
0.0
  0
LINE
  5
16FCA
330
1A
100
AcDbEntity
  8
_2-4_PARTS
  6
CONTINUOUS
100
AcDbLine
 10
-1225.995675197517
 20
1783.280136099817
 30
0.0
 11
-1226.595675197517
 21
1783.280136099817
 31
0.0
  0
LINE
  5
16FCB
330
1A
100
AcDbEntity
  8
_2-4_PARTS
  6
CONTINUOUS
100
AcDbLine
 10
-1227.365675197518
 20
1781.980136099817
 30
0.0
 11
-1227.765675197517
 21
1781.980136099817
 31
0.0
  0
LINE
  5
16FCC
330
1A
100
AcDbEntity
  8
_2-4_PARTS
  6
CONTINUOUS
100
AcDbLine
 10
-1227.765675197517
 20
1782.080136099817
 30
0.0
 11
-1227.765675197517
 21
1781.980136099817
 31
0.0
  0
LINE
  5
16FCD
330
1A
100
AcDbEntity
  8
_2-4_PARTS
  6
CONTINUOUS
100
AcDbLine
 10
-1227.365675197518
 20
1781.980136099817
 30
0.0
 11
-1227.365675197518
 21
1782.080136099817
 31
0.0
  0
LINE
  5
16FCE
330
1A
100
AcDbEntity
  8
_2-4_PARTS
  6
CONTINUOUS
100
AcDbLine
 10
-1226.095675197518
 20
1781.980136099817
 30
0.0
 11
-1226.495675197518
 21
1781.980136099817
 31
0.0
  0
LINE
  5
16FCF
330
1A
100
AcDbEntity
  8
_2-4_PARTS
  6
CONTINUOUS
100
AcDbLine
 10
-1226.495675197518
 20
1782.080136099817
 30
0.0
 11
-1226.495675197518
 21
1781.980136099817
 31
0.0
  0
LINE
  5
16FD0
330
1A
100
AcDbEntity
  8
_2-4_PARTS
  6
CONTINUOUS
100
AcDbLine
 10
-1226.095675197518
 20
1781.980136099817
 30
0.0
 11
-1226.095675197518
 21
1782.080136099817
 31
0.0
  0
LINE
  5
16FD1
330
1A
100
AcDbEntity
  8
_2-4_PARTS
  6
CONTINUOUS
100
AcDbLine
 10
-1227.865675197517
 20
1786.280136099817
 30
0.0
 11
-1227.865675197517
 21
1783.280136099817
 31
0.0
  0
LINE
  5
16FD2
330
1A
100
AcDbEntity
  8
_2-4_PARTS
  6
CONTINUOUS
100
AcDbLine
 10
-1227.265675197517
 20
1786.280136099817
 30
0.0
 11
-1227.265675197517
 21
1783.280136099817
 31
0.0
  0
LINE
  5
16FD3
330
1A
100
AcDbEntity
  8
_2-4_PARTS
  6
CONTINUOUS
100
AcDbLine
 10
-1226.595675197517
 20
1786.280136099817
 30
0.0
 11
-1226.595675197517
 21
1783.280136099817
 31
0.0
  0
LINE
  5
16FD4
330
1A
100
AcDbEntity
  8
_2-4_PARTS
  6
CONTINUOUS
100
AcDbLine
 10
-1225.995675197517
 20
1786.280136099817
 30
0.0
 11
-1225.995675197517
 21
1783.280136099817
 31
0.0
  0
LINE
  5
16FD5
330
1A
100
AcDbEntity
  8
_2-4_PARTS
  6
CONTINUOUS
100
AcDbLine
 10
-1228.965675197517
 20
1782.080136099817
 30
0.0
 11
-1228.965675197517
 21
1787.480136099817
 31
0.0
  0
LINE
  5
16FD6
330
1A
100
AcDbEntity
  8
_2-4_PARTS
  6
CONTINUOUS
100
AcDbLine
 10
-1197.710675197517
 20
1891.780136099816
 30
0.0
 11
-1188.610675197518
 21
1891.780136099816
 31
0.0
  0
LINE
  5
16FD7
330
1A
100
AcDbEntity
  8
_2-4_PARTS
  6
CONTINUOUS
100
AcDbLine
 10
-1194.210675197518
 20
1902.280136099816
 30
0.0
 11
-1192.110675197517
 21
1902.280136099816
 31
0.0
  0
LINE
  5
16FD8
330
1A
100
AcDbEntity
  8
_2-4_PARTS
  6
CONTINUOUS
100
AcDbLine
 10
-1192.560674750417
 20
1819.705136099817
 30
0.0
 11
-1193.560674750417
 21
1818.705136099817
 31
0.0
  0
LINE
  5
16FD9
330
1A
100
AcDbEntity
  8
_2-4_PARTS
  6
CONTINUOUS
100
AcDbLine
 10
-1193.560674750417
 20
1821.705136099817
 30
0.0
 11
-1192.560674750417
 21
1820.705136099817
 31
0.0
  0
LINE
  5
16FDA
330
1A
100
AcDbEntity
  8
_2-4_PARTS
  6
CONTINUOUS
100
AcDbLine
 10
-1192.560674750417
 20
1831.005136099816
 30
0.0
 11
-1193.560674750417
 21
1830.005136099817
 31
0.0
  0
CIRCLE
  5
16FDB
330
1A
100
AcDbEntity
  8
_2-4_PARTS
  6
CONTINUOUS
100
AcDbCircle
 10
-1188.410674750417
 20
1825.855136099816
 30
0.0
 40
5.0
  0
LINE
  5
16FDC
330
1A
100
AcDbEntity
  8
_2-4_PARTS
  6
CONTINUOUS
100
AcDbLine
 10
-1191.960675197518
 20
1850.520136099817
 30
0.0
 11
-1194.360675197517
 21
1850.520136099817
 31
0.0
  0
LINE
  5
16FDD
330
1A
100
AcDbEntity
  8
_2-4_PARTS
  6
CONTINUOUS
100
AcDbLine
 10
-1197.010675197518
 20
1858.160136099817
 30
0.0
 11
-1189.310675197517
 21
1858.160136099817
 31
0.0
  0
LINE
  5
16FDE
330
1A
100
AcDbEntity
  8
_2-4_PARTS
  6
CONTINUOUS
100
AcDbLine
 10
-1189.310675197517
 20
1851.760136099817
 30
0.0
 11
-1197.010675197518
 21
1851.760136099817
 31
0.0
  0
LINE
  5
16FDF
330
1A
100
AcDbEntity
  8
_2-4_PARTS
  6
CONTINUOUS
100
AcDbLine
 10
-1188.610675197517
 20
1851.160136099817
 30
0.0
 11
-1197.710675197517
 21
1851.160136099817
 31
0.0
  0
LINE
  5
16FE0
330
1A
100
AcDbEntity
  8
_2-4_PARTS
  6
CONTINUOUS
100
AcDbLine
 10
-1197.710675197517
 20
1858.760136099817
 30
0.0
 11
-1188.610675197517
 21
1858.760136099817
 31
0.0
  0
LINE
  5
16FE1
330
1A
100
AcDbEntity
  8
_2-4_PARTS
  6
CONTINUOUS
100
AcDbLine
 10
-1195.965675197518
 20
1782.080136099817
 30
0.0
 11
-1189.355675197518
 21
1782.080136099817
 31
0.0
  0
LINE
  5
16FE2
330
1A
100
AcDbEntity
  8
_2-4_PARTS
  6
CONTINUOUS
100
AcDbLine
 10
-1195.965675197518
 20
1787.480136099817
 30
0.0
 11
-1189.355675197518
 21
1787.480136099817
 31
0.0
  0
LINE
  5
16FE3
330
1A
100
AcDbEntity
  8
_2-4_PARTS
  6
CONTINUOUS
100
AcDbLine
 10
-1193.560674750417
 20
1799.105136099817
 30
0.0
 11
-1192.560674750417
 21
1798.105136099817
 31
0.0
  0
LINE
  5
16FE4
330
1A
100
AcDbEntity
  8
_2-4_PARTS
  6
CONTINUOUS
100
AcDbLine
 10
-1192.560674750417
 20
1808.405136099817
 30
0.0
 11
-1193.560674750417
 21
1807.405136099817
 31
0.0
  0
CIRCLE
  5
16FE5
330
1A
100
AcDbEntity
  8
_2-4_PARTS
  6
CONTINUOUS
100
AcDbCircle
 10
-1188.410674750417
 20
1803.255136099816
 30
0.0
 40
5.0
  0
LINE
  5
16FE6
330
1A
100
AcDbEntity
  8
_2-4_PARTS
  6
CONTINUOUS
100
AcDbLine
 10
-1193.560674750417
 20
1810.405136099817
 30
0.0
 11
-1192.560674750417
 21
1809.405136099817
 31
0.0
  0
CIRCLE
  5
16FE7
330
1A
100
AcDbEntity
  8
_2-4_PARTS
  6
CONTINUOUS
100
AcDbCircle
 10
-1188.410674750417
 20
1814.555136099817
 30
0.0
 40
5.0
  0
LINE
  5
16FE8
330
1A
100
AcDbEntity
  8
_2-4_PARTS
  6
CONTINUOUS
100
AcDbLine
 10
-1209.710675197517
 20
1890.780136099817
 30
0.0
 11
-1207.710675197517
 21
1890.780136099817
 31
0.0
  0
LINE
  5
16FE9
330
1A
100
AcDbEntity
  8
_2-4_PARTS
  6
CONTINUOUS
100
AcDbLine
 10
-1208.260675197517
 20
1902.280136099816
 30
0.0
 11
-1209.410675197517
 21
1902.280136099816
 31
0.0
  0
LINE
  5
16FEA
330
1A
100
AcDbEntity
  8
_2-4_PARTS
  6
CONTINUOUS
100
AcDbLine
 10
-1207.710675197517
 20
1851.180136099817
 30
0.0
 11
-1210.710675197518
 21
1851.180136099817
 31
0.0
  0
LINE
  5
16FEB
330
1A
100
AcDbEntity
  8
_2-4_PARTS
  6
CONTINUOUS
100
AcDbLine
 10
-1221.760675197518
 20
1857.180136099817
 30
0.0
 11
-1208.560675197518
 21
1857.180136099817
 31
0.0
  0
LINE
  5
16FEC
330
1A
100
AcDbEntity
  8
_2-4_PARTS
  6
CONTINUOUS
100
AcDbLine
 10
-1208.560675197518
 20
1851.880136099817
 30
0.0
 11
-1210.060675197518
 21
1851.880136099817
 31
0.0
  0
LINE
  5
16FED
330
1A
100
AcDbEntity
  8
_2-4_PARTS
  6
CONTINUOUS
100
AcDbLine
 10
-1207.710675197517
 20
1857.880136099817
 30
0.0
 11
-1222.610675197518
 21
1857.880136099817
 31
0.0
  0
LINE
  5
16FEE
330
1A
100
AcDbEntity
  8
_2-4_PARTS
  6
CONTINUOUS
100
AcDbLine
 10
-1208.995675197517
 20
1783.280136099817
 30
0.0
 11
-1209.595675197518
 21
1783.280136099817
 31
0.0
  0
LINE
  5
16FEF
330
1A
100
AcDbEntity
  8
_2-4_PARTS
  6
CONTINUOUS
100
AcDbLine
 10
-1208.995675197517
 20
1786.280136099817
 30
0.0
 11
-1209.595675197518
 21
1786.280136099817
 31
0.0
  0
LINE
  5
16FF0
330
1A
100
AcDbEntity
  8
_2-4_PARTS
  6
CONTINUOUS
100
AcDbLine
 10
-1209.095675197517
 20
1781.980136099817
 30
0.0
 11
-1209.495675197517
 21
1781.980136099817
 31
0.0
  0
LINE
  5
16FF1
330
1A
100
AcDbEntity
  8
_2-4_PARTS
  6
CONTINUOUS
100
AcDbLine
 10
-1209.095675197517
 20
1787.580136099817
 30
0.0
 11
-1209.495675197517
 21
1787.580136099817
 31
0.0
  0
LINE
  5
16FF2
330
1A
100
AcDbEntity
  8
_2-4_PARTS
  6
CONTINUOUS
100
AcDbLine
 10
-1205.355675197518
 20
1787.480136099817
 30
0.0
 11
-1211.965675197517
 21
1787.480136099817
 31
0.0
  0
LINE
  5
16FF3
330
1A
100
AcDbEntity
  8
_2-4_PARTS
  6
CONTINUOUS
100
AcDbLine
 10
-1205.355675197518
 20
1782.080136099817
 30
0.0
 11
-1211.965675197517
 21
1782.080136099817
 31
0.0
  0
LINE
  5
16FF4
330
1A
100
AcDbEntity
  8
_2-4_PARTS
  6
CONTINUOUS
100
AcDbLine
 10
-1216.910675197517
 20
1901.180136099817
 30
0.0
 11
-1218.410675197517
 21
1901.180136099817
 31
0.0
  0
LINE
  5
16FF5
330
1A
100
AcDbEntity
  8
_2-4_PARTS
  6
CONTINUOUS
100
AcDbLine
 10
-1216.910675197517
 20
1901.980136099816
 30
0.0
 11
-1218.410675197517
 21
1901.980136099816
 31
0.0
  0
LINE
  5
16FF6
330
1A
100
AcDbEntity
  8
_2-4_PARTS
  6
CONTINUOUS
100
AcDbLine
 10
-1217.510675197517
 20
1905.680136099817
 30
0.0
 11
-1217.810675197517
 21
1905.680136099817
 31
0.0
  0
LINE
  5
16FF7
330
1A
100
AcDbEntity
  8
_2-4_PARTS
  6
CONTINUOUS
100
AcDbLine
 10
-1219.610675197517
 20
1892.780136099817
 30
0.0
 11
-1210.710675197517
 21
1892.780136099817
 31
0.0
  0
LINE
  5
16FF8
330
1A
100
AcDbEntity
  8
_2-4_PARTS
  6
CONTINUOUS
100
AcDbLine
 10
-1212.610675197518
 20
1851.180136099817
 30
0.0
 11
-1217.710675197517
 21
1851.180136099817
 31
0.0
  0
CIRCLE
  5
16FF9
330
1A
100
AcDbEntity
  8
_2-4_PARTS
  6
CONTINUOUS
100
AcDbCircle
 10
-1217.660675197518
 20
1854.480136099817
 30
0.0
 40
0.25
  0
LINE
  5
16FFA
330
1A
100
AcDbEntity
  8
_2-4_PARTS
  6
CONTINUOUS
100
AcDbLine
 10
-1210.060675197518
 20
1852.080136099817
 30
0.0
 11
-1220.260675197518
 21
1852.080136099817
 31
0.0
  0
LINE
  5
16FFB
330
1A
100
AcDbEntity
  8
_2-4_PARTS
  6
CONTINUOUS
100
AcDbLine
 10
-1209.560675197518
 20
1852.580136099817
 30
0.0
 11
-1220.760675197517
 21
1852.580136099817
 31
0.0
  0
LINE
  5
16FFC
330
1A
100
AcDbEntity
  8
_2-4_PARTS
  6
CONTINUOUS
100
AcDbLine
 10
-1214.355675197517
 20
1787.480136099817
 30
0.0
 11
-1220.965675197517
 21
1787.480136099817
 31
0.0
  0
LINE
  5
16FFD
330
1A
100
AcDbEntity
  8
_2-4_PARTS
  6
CONTINUOUS
100
AcDbLine
 10
-1214.355675197517
 20
1782.080136099817
 30
0.0
 11
-1220.965675197517
 21
1782.080136099817
 31
0.0
  0
LINE
  5
16FFE
330
1A
100
AcDbEntity
  8
_2-4_PARTS
  6
CONTINUOUS
100
AcDbLine
 10
-1220.910675197517
 20
1902.280136099816
 30
0.0
 11
-1222.610675197517
 21
1902.280136099816
 31
0.0
  0
LINE
  5
16FFF
330
1A
100
AcDbEntity
  8
_2-4_PARTS
  6
CONTINUOUS
100
AcDbLine
 10
-1220.610675197518
 20
1890.780136099817
 30
0.0
 11
-1222.610675197517
 21
1890.780136099817
 31
0.0
  0
LINE
  5
17000
330
1A
100
AcDbEntity
  8
_2-4_PARTS
  6
CONTINUOUS
100
AcDbLine
 10
-1222.610675197518
 20
1851.180136099817
 30
0.0
 11
-1219.610675197518
 21
1851.180136099817
 31
0.0
  0
LINE
  5
17001
330
1A
100
AcDbEntity
  8
_2-4_PARTS
  6
CONTINUOUS
100
AcDbLine
 10
-1221.760675197518
 20
1851.880136099817
 30
0.0
 11
-1220.260675197518
 21
1851.880136099817
 31
0.0
  0
LINE
  5
17002
330
1A
100
AcDbEntity
  8
_2-4_PARTS
  6
CONTINUOUS
100
AcDbLine
 10
-1222.610675197517
 20
1890.780136099817
 30
0.0
 11
-1222.610675197517
 21
1902.280136099816
 31
0.0
  0
LINE
  5
17003
330
1A
100
AcDbEntity
  8
_2-4_PARTS
  6
CONTINUOUS
100
AcDbLine
 10
-1221.760675197518
 20
1857.180136099817
 30
0.0
 11
-1221.760675197518
 21
1851.880136099817
 31
0.0
  0
LINE
  5
17004
330
1A
100
AcDbEntity
  8
_2-4_PARTS
  6
CONTINUOUS
100
AcDbLine
 10
-1222.610675197518
 20
1851.180136099817
 30
0.0
 11
-1222.610675197518
 21
1857.880136099817
 31
0.0
  0
LINE
  5
17005
330
1A
100
AcDbEntity
  8
_2-4_PARTS
  6
CONTINUOUS
100
AcDbLine
 10
-1224.725675197517
 20
1786.280136099817
 30
0.0
 11
-1225.325675197518
 21
1786.280136099817
 31
0.0
  0
LINE
  5
17006
330
1A
100
AcDbEntity
  8
_2-4_PARTS
  6
CONTINUOUS
100
AcDbLine
 10
-1223.455675197517
 20
1786.280136099817
 30
0.0
 11
-1224.055675197517
 21
1786.280136099817
 31
0.0
  0
LINE
  5
17007
330
1A
100
AcDbEntity
  8
_2-4_PARTS
  6
CONTINUOUS
100
AcDbLine
 10
-1225.225675197517
 20
1787.580136099817
 30
0.0
 11
-1225.225675197517
 21
1787.480136099817
 31
0.0
  0
LINE
  5
17008
330
1A
100
AcDbEntity
  8
_2-4_PARTS
  6
CONTINUOUS
100
AcDbLine
 10
-1224.825675197518
 20
1787.580136099817
 30
0.0
 11
-1225.225675197517
 21
1787.580136099817
 31
0.0
  0
LINE
  5
17009
330
1A
100
AcDbEntity
  8
_2-4_PARTS
  6
CONTINUOUS
100
AcDbLine
 10
-1224.825675197518
 20
1787.480136099817
 30
0.0
 11
-1224.825675197518
 21
1787.580136099817
 31
0.0
  0
LINE
  5
1700A
330
1A
100
AcDbEntity
  8
_2-4_PARTS
  6
CONTINUOUS
100
AcDbLine
 10
-1223.955675197518
 20
1787.580136099817
 30
0.0
 11
-1223.955675197518
 21
1787.480136099817
 31
0.0
  0
LINE
  5
1700B
330
1A
100
AcDbEntity
  8
_2-4_PARTS
  6
CONTINUOUS
100
AcDbLine
 10
-1223.555675197517
 20
1787.580136099817
 30
0.0
 11
-1223.955675197518
 21
1787.580136099817
 31
0.0
  0
LINE
  5
1700C
330
1A
100
AcDbEntity
  8
_2-4_PARTS
  6
CONTINUOUS
100
AcDbLine
 10
-1223.555675197517
 20
1787.480136099817
 30
0.0
 11
-1223.555675197517
 21
1787.580136099817
 31
0.0
  0
LINE
  5
1700D
330
1A
100
AcDbEntity
  8
_2-4_PARTS
  6
CONTINUOUS
100
AcDbLine
 10
-1224.725675197517
 20
1783.280136099817
 30
0.0
 11
-1225.325675197518
 21
1783.280136099817
 31
0.0
  0
LINE
  5
1700E
330
1A
100
AcDbEntity
  8
_2-4_PARTS
  6
CONTINUOUS
100
AcDbLine
 10
-1223.455675197517
 20
1783.280136099817
 30
0.0
 11
-1224.055675197517
 21
1783.280136099817
 31
0.0
  0
LINE
  5
1700F
330
1A
100
AcDbEntity
  8
_2-4_PARTS
  6
CONTINUOUS
100
AcDbLine
 10
-1224.825675197518
 20
1781.980136099817
 30
0.0
 11
-1225.225675197517
 21
1781.980136099817
 31
0.0
  0
LINE
  5
17010
330
1A
100
AcDbEntity
  8
_2-4_PARTS
  6
CONTINUOUS
100
AcDbLine
 10
-1225.225675197517
 20
1782.080136099817
 30
0.0
 11
-1225.225675197517
 21
1781.980136099817
 31
0.0
  0
LINE
  5
17011
330
1A
100
AcDbEntity
  8
_2-4_PARTS
  6
CONTINUOUS
100
AcDbLine
 10
-1224.825675197518
 20
1781.980136099817
 30
0.0
 11
-1224.825675197518
 21
1782.080136099817
 31
0.0
  0
LINE
  5
17012
330
1A
100
AcDbEntity
  8
_2-4_PARTS
  6
CONTINUOUS
100
AcDbLine
 10
-1223.555675197517
 20
1781.980136099817
 30
0.0
 11
-1223.955675197518
 21
1781.980136099817
 31
0.0
  0
LINE
  5
17013
330
1A
100
AcDbEntity
  8
_2-4_PARTS
  6
CONTINUOUS
100
AcDbLine
 10
-1223.955675197518
 20
1782.080136099817
 30
0.0
 11
-1223.955675197518
 21
1781.980136099817
 31
0.0
  0
LINE
  5
17014
330
1A
100
AcDbEntity
  8
_2-4_PARTS
  6
CONTINUOUS
100
AcDbLine
 10
-1223.555675197517
 20
1781.980136099817
 30
0.0
 11
-1223.555675197517
 21
1782.080136099817
 31
0.0
  0
LINE
  5
17015
330
1A
100
AcDbEntity
  8
_2-4_PARTS
  6
CONTINUOUS
100
AcDbLine
 10
-1225.325675197518
 20
1786.280136099817
 30
0.0
 11
-1225.325675197518
 21
1783.280136099817
 31
0.0
  0
LINE
  5
17016
330
1A
100
AcDbEntity
  8
_2-4_PARTS
  6
CONTINUOUS
100
AcDbLine
 10
-1224.725675197517
 20
1786.280136099817
 30
0.0
 11
-1224.725675197517
 21
1783.280136099817
 31
0.0
  0
LINE
  5
17017
330
1A
100
AcDbEntity
  8
_2-4_PARTS
  6
CONTINUOUS
100
AcDbLine
 10
-1224.055675197517
 20
1786.280136099817
 30
0.0
 11
-1224.055675197517
 21
1783.280136099817
 31
0.0
  0
LINE
  5
17018
330
1A
100
AcDbEntity
  8
_2-4_PARTS
  6
CONTINUOUS
100
AcDbLine
 10
-1223.455675197517
 20
1786.280136099817
 30
0.0
 11
-1223.455675197517
 21
1783.280136099817
 31
0.0
  0
LINE
  5
17019
330
1A
100
AcDbEntity
  8
_2-4_PARTS
  6
CONTINUOUS
100
AcDbLine
 10
-1222.355675197517
 20
1782.080136099817
 30
0.0
 11
-1222.355675197517
 21
1787.480136099817
 31
0.0
  0
LINE
  5
1701A
330
1A
100
AcDbEntity
  8
_2-4_PARTS
  6
CONTINUOUS
100
AcDbLine
 10
-1217.960675197517
 20
1903.880136099817
 30
0.0
 11
-1217.960675197517
 21
1905.180136099817
 31
0.0
  0
LINE
  5
1701B
330
1A
100
AcDbEntity
  8
_2-4_PARTS
  6
CONTINUOUS
100
AcDbLine
 10
-1219.860675197518
 20
1903.880136099817
 30
0.0
 11
-1219.860675197518
 21
1905.180136099817
 31
0.0
  0
LINE
  5
1701C
330
1A
100
AcDbEntity
  8
_2-4_PARTS
  6
CONTINUOUS
100
AcDbLine
 10
-1220.460675197517
 20
1903.880136099817
 30
0.0
 11
-1220.460675197517
 21
1905.180136099817
 31
0.0
  0
LINE
  5
1701D
330
1A
100
AcDbEntity
  8
_2-4_PARTS
  6
CONTINUOUS
100
AcDbLine
 10
-1219.410675197518
 20
1901.980136099816
 30
0.0
 11
-1220.910675197517
 21
1901.980136099816
 31
0.0
  0
LINE
  5
1701E
330
1A
100
AcDbEntity
  8
_2-4_PARTS
  6
CONTINUOUS
100
AcDbLine
 10
-1218.410675197517
 20
1902.280136099816
 30
0.0
 11
-1219.410675197518
 21
1902.280136099816
 31
0.0
  0
LINE
  5
1701F
330
1A
100
AcDbEntity
  8
_2-4_PARTS
  6
CONTINUOUS
100
AcDbLine
 10
-1220.310675197517
 20
1905.680136099817
 30
0.0
 11
-1220.460675197517
 21
1905.180136099817
 31
0.0
  0
LINE
  5
17020
330
1A
100
AcDbEntity
  8
_2-4_PARTS
  6
CONTINUOUS
100
AcDbLine
 10
-1220.010675197517
 20
1905.680136099817
 30
0.0
 11
-1219.860675197518
 21
1905.180136099817
 31
0.0
  0
LINE
  5
17021
330
1A
100
AcDbEntity
  8
_2-4_PARTS
  6
CONTINUOUS
100
AcDbLine
 10
-1220.010675197517
 20
1905.680136099817
 30
0.0
 11
-1220.310675197517
 21
1905.680136099817
 31
0.0
  0
LINE
  5
17022
330
1A
100
AcDbEntity
  8
_2-4_PARTS
  6
CONTINUOUS
100
AcDbLine
 10
-1217.810675197517
 20
1905.680136099817
 30
0.0
 11
-1217.960675197517
 21
1905.180136099817
 31
0.0
  0
LINE
  5
17023
330
1A
100
AcDbEntity
  8
_2-4_PARTS
  6
CONTINUOUS
100
AcDbLine
 10
-1219.410675197518
 20
1901.180136099817
 30
0.0
 11
-1220.910675197517
 21
1901.180136099817
 31
0.0
  0
LINE
  5
17024
330
1A
100
AcDbEntity
  8
_2-4_PARTS
  6
CONTINUOUS
100
AcDbLine
 10
-1219.410675197518
 20
1902.280136099816
 30
0.0
 11
-1219.410675197518
 21
1901.180136099817
 31
0.0
  0
LINE
  5
17025
330
1A
100
AcDbEntity
  8
_2-4_PARTS
  6
CONTINUOUS
100
AcDbLine
 10
-1218.410675197517
 20
1902.280136099816
 30
0.0
 11
-1218.410675197517
 21
1901.180136099817
 31
0.0
  0
LINE
  5
17026
330
1A
100
AcDbEntity
  8
_2-4_PARTS
  6
CONTINUOUS
100
AcDbLine
 10
-1220.910675197517
 20
1901.180136099817
 30
0.0
 11
-1220.910675197517
 21
1902.280136099816
 31
0.0
  0
ARC
  5
17027
330
1A
100
AcDbEntity
  8
_2-4_PARTS
  6
CONTINUOUS
100
AcDbCircle
 10
-1219.610675197517
 20
1892.280136099816
 30
0.0
 40
0.5
100
AcDbArc
 50
90.0
 51
180.0
  0
LINE
  5
17028
330
1A
100
AcDbEntity
  8
_2-4_PARTS
  6
CONTINUOUS
100
AcDbLine
 10
-1220.110675197517
 20
1892.280136099816
 30
0.0
 11
-1220.110675197517
 21
1891.280136099816
 31
0.0
  0
LINE
  5
17029
330
1A
100
AcDbEntity
  8
_2-4_PARTS
  6
CONTINUOUS
100
AcDbLine
 10
-1220.110675197517
 20
1891.280136099816
 30
0.0
 11
-1220.610675197518
 21
1890.780136099817
 31
0.0
  0
LINE
  5
1702A
330
1A
100
AcDbEntity
  8
_2-4_PARTS
  6
CONTINUOUS
100
AcDbLine
 10
-1217.910675197518
 20
1851.480136099817
 30
0.0
 11
-1219.410675197518
 21
1851.480136099817
 31
0.0
  0
LINE
  5
1702B
330
1A
100
AcDbEntity
  8
_2-4_PARTS
  6
CONTINUOUS
100
AcDbLine
 10
-1217.710675197517
 20
1852.080136099817
 30
0.0
 11
-1217.710675197517
 21
1851.180136099817
 31
0.0
  0
LINE
  5
1702C
330
1A
100
AcDbEntity
  8
_2-4_PARTS
  6
CONTINUOUS
100
AcDbLine
 10
-1219.610675197518
 20
1852.080136099817
 30
0.0
 11
-1219.610675197518
 21
1851.180136099817
 31
0.0
  0
LINE
  5
1702D
330
1A
100
AcDbEntity
  8
_2-4_PARTS
  6
CONTINUOUS
100
AcDbLine
 10
-1219.410675197518
 20
1852.080136099817
 30
0.0
 11
-1219.410675197518
 21
1851.480136099817
 31
0.0
  0
LINE
  5
1702E
330
1A
100
AcDbEntity
  8
_2-4_PARTS
  6
CONTINUOUS
100
AcDbLine
 10
-1217.910675197518
 20
1852.080136099817
 30
0.0
 11
-1217.910675197518
 21
1851.480136099817
 31
0.0
  0
CIRCLE
  5
1702F
330
1A
100
AcDbEntity
  8
_2-4_PARTS
  6
CONTINUOUS
100
AcDbCircle
 10
-1220.160675197518
 20
1854.480136099817
 30
0.0
 40
0.25
  0
LINE
  5
17030
330
1A
100
AcDbEntity
  8
_2-4_PARTS
  6
CONTINUOUS
100
AcDbLine
 10
-1220.260675197518
 20
1851.180136099817
 30
0.0
 11
-1220.260675197518
 21
1852.080136099817
 31
0.0
  0
LINE
  5
17031
330
1A
100
AcDbEntity
  8
_2-4_PARTS
  6
CONTINUOUS
100
AcDbLine
 10
-1220.760675197517
 20
1852.580136099817
 30
0.0
 11
-1220.760675197517
 21
1851.880136099817
 31
0.0
  0
LINE
  5
17032
330
1A
100
AcDbEntity
  8
_2-4_PARTS
  6
CONTINUOUS
100
AcDbLine
 10
-1219.265675197517
 20
1786.280136099817
 30
0.0
 11
-1219.865675197517
 21
1786.280136099817
 31
0.0
  0
LINE
  5
17033
330
1A
100
AcDbEntity
  8
_2-4_PARTS
  6
CONTINUOUS
100
AcDbLine
 10
-1217.995675197517
 20
1786.280136099817
 30
0.0
 11
-1218.595675197517
 21
1786.280136099817
 31
0.0
  0
LINE
  5
17034
330
1A
100
AcDbEntity
  8
_2-4_PARTS
  6
CONTINUOUS
100
AcDbLine
 10
-1219.765675197517
 20
1787.580136099817
 30
0.0
 11
-1219.765675197517
 21
1787.480136099817
 31
0.0
  0
LINE
  5
17035
330
1A
100
AcDbEntity
  8
_2-4_PARTS
  6
CONTINUOUS
100
AcDbLine
 10
-1219.365675197518
 20
1787.580136099817
 30
0.0
 11
-1219.765675197517
 21
1787.580136099817
 31
0.0
  0
LINE
  5
17036
330
1A
100
AcDbEntity
  8
_2-4_PARTS
  6
CONTINUOUS
100
AcDbLine
 10
-1219.365675197518
 20
1787.480136099817
 30
0.0
 11
-1219.365675197518
 21
1787.580136099817
 31
0.0
  0
LINE
  5
17037
330
1A
100
AcDbEntity
  8
_2-4_PARTS
  6
CONTINUOUS
100
AcDbLine
 10
-1218.495675197518
 20
1787.580136099817
 30
0.0
 11
-1218.495675197518
 21
1787.480136099817
 31
0.0
  0
LINE
  5
17038
330
1A
100
AcDbEntity
  8
_2-4_PARTS
  6
CONTINUOUS
100
AcDbLine
 10
-1218.095675197518
 20
1787.580136099817
 30
0.0
 11
-1218.495675197518
 21
1787.580136099817
 31
0.0
  0
LINE
  5
17039
330
1A
100
AcDbEntity
  8
_2-4_PARTS
  6
CONTINUOUS
100
AcDbLine
 10
-1218.095675197518
 20
1787.480136099817
 30
0.0
 11
-1218.095675197518
 21
1787.580136099817
 31
0.0
  0
LINE
  5
1703A
330
1A
100
AcDbEntity
  8
_2-4_PARTS
  6
CONTINUOUS
100
AcDbLine
 10
-1219.265675197517
 20
1783.280136099817
 30
0.0
 11
-1219.865675197517
 21
1783.280136099817
 31
0.0
  0
LINE
  5
1703B
330
1A
100
AcDbEntity
  8
_2-4_PARTS
  6
CONTINUOUS
100
AcDbLine
 10
-1217.995675197517
 20
1783.280136099817
 30
0.0
 11
-1218.595675197517
 21
1783.280136099817
 31
0.0
  0
LINE
  5
1703C
330
1A
100
AcDbEntity
  8
_2-4_PARTS
  6
CONTINUOUS
100
AcDbLine
 10
-1219.365675197518
 20
1781.980136099817
 30
0.0
 11
-1219.765675197517
 21
1781.980136099817
 31
0.0
  0
LINE
  5
1703D
330
1A
100
AcDbEntity
  8
_2-4_PARTS
  6
CONTINUOUS
100
AcDbLine
 10
-1219.765675197517
 20
1782.080136099817
 30
0.0
 11
-1219.765675197517
 21
1781.980136099817
 31
0.0
  0
LINE
  5
1703E
330
1A
100
AcDbEntity
  8
_2-4_PARTS
  6
CONTINUOUS
100
AcDbLine
 10
-1219.365675197518
 20
1781.980136099817
 30
0.0
 11
-1219.365675197518
 21
1782.080136099817
 31
0.0
  0
LINE
  5
1703F
330
1A
100
AcDbEntity
  8
_2-4_PARTS
  6
CONTINUOUS
100
AcDbLine
 10
-1218.095675197518
 20
1781.980136099817
 30
0.0
 11
-1218.495675197518
 21
1781.980136099817
 31
0.0
  0
LINE
  5
17040
330
1A
100
AcDbEntity
  8
_2-4_PARTS
  6
CONTINUOUS
100
AcDbLine
 10
-1218.495675197518
 20
1782.080136099817
 30
0.0
 11
-1218.495675197518
 21
1781.980136099817
 31
0.0
  0
LINE
  5
17041
330
1A
100
AcDbEntity
  8
_2-4_PARTS
  6
CONTINUOUS
100
AcDbLine
 10
-1218.095675197518
 20
1781.980136099817
 30
0.0
 11
-1218.095675197518
 21
1782.080136099817
 31
0.0
  0
LINE
  5
17042
330
1A
100
AcDbEntity
  8
_2-4_PARTS
  6
CONTINUOUS
100
AcDbLine
 10
-1219.865675197517
 20
1786.280136099817
 30
0.0
 11
-1219.865675197517
 21
1783.280136099817
 31
0.0
  0
LINE
  5
17043
330
1A
100
AcDbEntity
  8
_2-4_PARTS
  6
CONTINUOUS
100
AcDbLine
 10
-1219.265675197517
 20
1786.280136099817
 30
0.0
 11
-1219.265675197517
 21
1783.280136099817
 31
0.0
  0
LINE
  5
17044
330
1A
100
AcDbEntity
  8
_2-4_PARTS
  6
CONTINUOUS
100
AcDbLine
 10
-1218.595675197517
 20
1786.280136099817
 30
0.0
 11
-1218.595675197517
 21
1783.280136099817
 31
0.0
  0
LINE
  5
17045
330
1A
100
AcDbEntity
  8
_2-4_PARTS
  6
CONTINUOUS
100
AcDbLine
 10
-1217.995675197517
 20
1786.280136099817
 30
0.0
 11
-1217.995675197517
 21
1783.280136099817
 31
0.0
  0
LINE
  5
17046
330
1A
100
AcDbEntity
  8
_2-4_PARTS
  6
CONTINUOUS
100
AcDbLine
 10
-1220.965675197517
 20
1782.080136099817
 30
0.0
 11
-1220.965675197517
 21
1787.480136099817
 31
0.0
  0
LINE
  5
17047
330
1A
100
AcDbEntity
  8
_2-4_PARTS
  6
CONTINUOUS
100
AcDbLine
 10
-1213.410675197517
 20
1902.280136099816
 30
0.0
 11
-1214.410675197517
 21
1902.280136099816
 31
0.0
  0
LINE
  5
17048
330
1A
100
AcDbEntity
  8
_2-4_PARTS
  6
CONTINUOUS
100
AcDbLine
 10
-1214.860675197517
 20
1903.880136099817
 30
0.0
 11
-1214.860675197517
 21
1905.180136099817
 31
0.0
  0
LINE
  5
17049
330
1A
100
AcDbEntity
  8
_2-4_PARTS
  6
CONTINUOUS
100
AcDbLine
 10
-1215.460675197517
 20
1903.880136099817
 30
0.0
 11
-1215.460675197517
 21
1905.180136099817
 31
0.0
  0
LINE
  5
1704A
330
1A
100
AcDbEntity
  8
_2-4_PARTS
  6
CONTINUOUS
100
AcDbLine
 10
-1217.360675197517
 20
1903.880136099817
 30
0.0
 11
-1217.360675197517
 21
1905.180136099817
 31
0.0
  0
LINE
  5
1704B
330
1A
100
AcDbEntity
  8
_2-4_PARTS
  6
CONTINUOUS
100
AcDbLine
 10
-1214.410675197517
 20
1901.980136099816
 30
0.0
 11
-1215.910675197517
 21
1901.980136099816
 31
0.0
  0
LINE
  5
1704C
330
1A
100
AcDbEntity
  8
_2-4_PARTS
  6
CONTINUOUS
100
AcDbLine
 10
-1215.910675197517
 20
1902.280136099816
 30
0.0
 11
-1216.910675197517
 21
1902.280136099816
 31
0.0
  0
LINE
  5
1704D
330
1A
100
AcDbEntity
  8
_2-4_PARTS
  6
CONTINUOUS
100
AcDbLine
 10
-1217.510675197517
 20
1905.680136099817
 30
0.0
 11
-1217.360675197517
 21
1905.180136099817
 31
0.0
  0
LINE
  5
1704E
330
1A
100
AcDbEntity
  8
_2-4_PARTS
  6
CONTINUOUS
100
AcDbLine
 10
-1215.310675197518
 20
1905.680136099817
 30
0.0
 11
-1215.460675197517
 21
1905.180136099817
 31
0.0
  0
LINE
  5
1704F
330
1A
100
AcDbEntity
  8
_2-4_PARTS
  6
CONTINUOUS
100
AcDbLine
 10
-1215.010675197517
 20
1905.680136099817
 30
0.0
 11
-1214.860675197517
 21
1905.180136099817
 31
0.0
  0
LINE
  5
17050
330
1A
100
AcDbEntity
  8
_2-4_PARTS
  6
CONTINUOUS
100
AcDbLine
 10
-1215.010675197517
 20
1905.680136099817
 30
0.0
 11
-1215.310675197518
 21
1905.680136099817
 31
0.0
  0
LINE
  5
17051
330
1A
100
AcDbEntity
  8
_2-4_PARTS
  6
CONTINUOUS
100
AcDbLine
 10
-1214.410675197517
 20
1901.180136099817
 30
0.0
 11
-1215.910675197517
 21
1901.180136099817
 31
0.0
  0
LINE
  5
17052
330
1A
100
AcDbEntity
  8
_2-4_PARTS
  6
CONTINUOUS
100
AcDbLine
 10
-1216.910675197517
 20
1902.280136099816
 30
0.0
 11
-1216.910675197517
 21
1901.180136099817
 31
0.0
  0
LINE
  5
17053
330
1A
100
AcDbEntity
  8
_2-4_PARTS
  6
CONTINUOUS
100
AcDbLine
 10
-1215.910675197517
 20
1902.280136099816
 30
0.0
 11
-1215.910675197517
 21
1901.180136099817
 31
0.0
  0
LINE
  5
17054
330
1A
100
AcDbEntity
  8
_2-4_PARTS
  6
CONTINUOUS
100
AcDbLine
 10
-1214.410675197517
 20
1902.280136099816
 30
0.0
 11
-1214.410675197517
 21
1901.180136099817
 31
0.0
  0
CIRCLE
  5
17055
330
1A
100
AcDbEntity
  8
_2-4_PARTS
  6
CONTINUOUS
100
AcDbCircle
 10
-1215.160675197518
 20
1854.480136099817
 30
0.0
 40
0.25
  0
LINE
  5
17056
330
1A
100
AcDbEntity
  8
_2-4_PARTS
  6
CONTINUOUS
100
AcDbLine
 10
-1216.725675197517
 20
1786.280136099817
 30
0.0
 11
-1217.325675197518
 21
1786.280136099817
 31
0.0
  0
LINE
  5
17057
330
1A
100
AcDbEntity
  8
_2-4_PARTS
  6
CONTINUOUS
100
AcDbLine
 10
-1215.455675197517
 20
1786.280136099817
 30
0.0
 11
-1216.055675197518
 21
1786.280136099817
 31
0.0
  0
LINE
  5
17058
330
1A
100
AcDbEntity
  8
_2-4_PARTS
  6
CONTINUOUS
100
AcDbLine
 10
-1217.225675197517
 20
1787.580136099817
 30
0.0
 11
-1217.225675197517
 21
1787.480136099817
 31
0.0
  0
LINE
  5
17059
330
1A
100
AcDbEntity
  8
_2-4_PARTS
  6
CONTINUOUS
100
AcDbLine
 10
-1216.825675197518
 20
1787.580136099817
 30
0.0
 11
-1217.225675197517
 21
1787.580136099817
 31
0.0
  0
LINE
  5
1705A
330
1A
100
AcDbEntity
  8
_2-4_PARTS
  6
CONTINUOUS
100
AcDbLine
 10
-1216.825675197518
 20
1787.480136099817
 30
0.0
 11
-1216.825675197518
 21
1787.580136099817
 31
0.0
  0
LINE
  5
1705B
330
1A
100
AcDbEntity
  8
_2-4_PARTS
  6
CONTINUOUS
100
AcDbLine
 10
-1215.955675197518
 20
1787.580136099817
 30
0.0
 11
-1215.955675197518
 21
1787.480136099817
 31
0.0
  0
LINE
  5
1705C
330
1A
100
AcDbEntity
  8
_2-4_PARTS
  6
CONTINUOUS
100
AcDbLine
 10
-1215.555675197517
 20
1787.580136099817
 30
0.0
 11
-1215.955675197518
 21
1787.580136099817
 31
0.0
  0
LINE
  5
1705D
330
1A
100
AcDbEntity
  8
_2-4_PARTS
  6
CONTINUOUS
100
AcDbLine
 10
-1215.555675197517
 20
1787.480136099817
 30
0.0
 11
-1215.555675197517
 21
1787.580136099817
 31
0.0
  0
LINE
  5
1705E
330
1A
100
AcDbEntity
  8
_2-4_PARTS
  6
CONTINUOUS
100
AcDbLine
 10
-1216.725675197517
 20
1783.280136099817
 30
0.0
 11
-1217.325675197518
 21
1783.280136099817
 31
0.0
  0
LINE
  5
1705F
330
1A
100
AcDbEntity
  8
_2-4_PARTS
  6
CONTINUOUS
100
AcDbLine
 10
-1215.455675197517
 20
1783.280136099817
 30
0.0
 11
-1216.055675197518
 21
1783.280136099817
 31
0.0
  0
LINE
  5
17060
330
1A
100
AcDbEntity
  8
_2-4_PARTS
  6
CONTINUOUS
100
AcDbLine
 10
-1216.825675197518
 20
1781.980136099817
 30
0.0
 11
-1217.225675197517
 21
1781.980136099817
 31
0.0
  0
LINE
  5
17061
330
1A
100
AcDbEntity
  8
_2-4_PARTS
  6
CONTINUOUS
100
AcDbLine
 10
-1217.225675197517
 20
1782.080136099817
 30
0.0
 11
-1217.225675197517
 21
1781.980136099817
 31
0.0
  0
LINE
  5
17062
330
1A
100
AcDbEntity
  8
_2-4_PARTS
  6
CONTINUOUS
100
AcDbLine
 10
-1216.825675197518
 20
1781.980136099817
 30
0.0
 11
-1216.825675197518
 21
1782.080136099817
 31
0.0
  0
LINE
  5
17063
330
1A
100
AcDbEntity
  8
_2-4_PARTS
  6
CONTINUOUS
100
AcDbLine
 10
-1215.555675197517
 20
1781.980136099817
 30
0.0
 11
-1215.955675197518
 21
1781.980136099817
 31
0.0
  0
LINE
  5
17064
330
1A
100
AcDbEntity
  8
_2-4_PARTS
  6
CONTINUOUS
100
AcDbLine
 10
-1215.955675197518
 20
1782.080136099817
 30
0.0
 11
-1215.955675197518
 21
1781.980136099817
 31
0.0
  0
LINE
  5
17065
330
1A
100
AcDbEntity
  8
_2-4_PARTS
  6
CONTINUOUS
100
AcDbLine
 10
-1215.555675197517
 20
1781.980136099817
 30
0.0
 11
-1215.555675197517
 21
1782.080136099817
 31
0.0
  0
LINE
  5
17066
330
1A
100
AcDbEntity
  8
_2-4_PARTS
  6
CONTINUOUS
100
AcDbLine
 10
-1217.325675197518
 20
1786.280136099817
 30
0.0
 11
-1217.325675197518
 21
1783.280136099817
 31
0.0
  0
LINE
  5
17067
330
1A
100
AcDbEntity
  8
_2-4_PARTS
  6
CONTINUOUS
100
AcDbLine
 10
-1216.725675197517
 20
1786.280136099817
 30
0.0
 11
-1216.725675197517
 21
1783.280136099817
 31
0.0
  0
LINE
  5
17068
330
1A
100
AcDbEntity
  8
_2-4_PARTS
  6
CONTINUOUS
100
AcDbLine
 10
-1216.055675197518
 20
1786.280136099817
 30
0.0
 11
-1216.055675197518
 21
1783.280136099817
 31
0.0
  0
LINE
  5
17069
330
1A
100
AcDbEntity
  8
_2-4_PARTS
  6
CONTINUOUS
100
AcDbLine
 10
-1215.455675197517
 20
1786.280136099817
 30
0.0
 11
-1215.455675197517
 21
1783.280136099817
 31
0.0
  0
LINE
  5
1706A
330
1A
100
AcDbEntity
  8
_2-4_PARTS
  6
CONTINUOUS
100
AcDbLine
 10
-1214.355675197517
 20
1782.080136099817
 30
0.0
 11
-1214.355675197517
 21
1787.480136099817
 31
0.0
  0
LINE
  5
1706B
330
1A
100
AcDbEntity
  8
_2-4_PARTS
  6
CONTINUOUS
100
AcDbLine
 10
-1209.860675197518
 20
1903.880136099817
 30
0.0
 11
-1209.860675197518
 21
1905.180136099817
 31
0.0
  0
LINE
  5
1706C
330
1A
100
AcDbEntity
  8
_2-4_PARTS
  6
CONTINUOUS
100
AcDbLine
 10
-1210.460675197517
 20
1903.880136099817
 30
0.0
 11
-1210.460675197517
 21
1905.180136099817
 31
0.0
  0
LINE
  5
1706D
330
1A
100
AcDbEntity
  8
_2-4_PARTS
  6
CONTINUOUS
100
AcDbLine
 10
-1212.360675197517
 20
1903.880136099817
 30
0.0
 11
-1212.360675197517
 21
1905.180136099817
 31
0.0
  0
LINE
  5
1706E
330
1A
100
AcDbEntity
  8
_2-4_PARTS
  6
CONTINUOUS
100
AcDbLine
 10
-1212.960675197517
 20
1903.880136099817
 30
0.0
 11
-1212.960675197517
 21
1905.180136099817
 31
0.0
  0
LINE
  5
1706F
330
1A
100
AcDbEntity
  8
_2-4_PARTS
  6
CONTINUOUS
100
AcDbLine
 10
-1211.910675197517
 20
1901.980136099816
 30
0.0
 11
-1213.410675197517
 21
1901.980136099816
 31
0.0
  0
LINE
  5
17070
330
1A
100
AcDbEntity
  8
_2-4_PARTS
  6
CONTINUOUS
100
AcDbLine
 10
-1210.910675197517
 20
1901.980136099816
 30
0.0
 11
-1209.410675197517
 21
1901.980136099816
 31
0.0
  0
LINE
  5
17071
330
1A
100
AcDbEntity
  8
_2-4_PARTS
  6
CONTINUOUS
100
AcDbLine
 10
-1210.910675197517
 20
1902.280136099816
 30
0.0
 11
-1211.910675197517
 21
1902.280136099816
 31
0.0
  0
LINE
  5
17072
330
1A
100
AcDbEntity
  8
_2-4_PARTS
  6
CONTINUOUS
100
AcDbLine
 10
-1212.810675197518
 20
1905.680136099817
 30
0.0
 11
-1212.960675197517
 21
1905.180136099817
 31
0.0
  0
LINE
  5
17073
330
1A
100
AcDbEntity
  8
_2-4_PARTS
  6
CONTINUOUS
100
AcDbLine
 10
-1212.510675197517
 20
1905.680136099817
 30
0.0
 11
-1212.360675197517
 21
1905.180136099817
 31
0.0
  0
LINE
  5
17074
330
1A
100
AcDbEntity
  8
_2-4_PARTS
  6
CONTINUOUS
100
AcDbLine
 10
-1212.510675197517
 20
1905.680136099817
 30
0.0
 11
-1212.810675197518
 21
1905.680136099817
 31
0.0
  0
LINE
  5
17075
330
1A
100
AcDbEntity
  8
_2-4_PARTS
  6
CONTINUOUS
100
AcDbLine
 10
-1210.310675197518
 20
1905.680136099817
 30
0.0
 11
-1210.460675197517
 21
1905.180136099817
 31
0.0
  0
LINE
  5
17076
330
1A
100
AcDbEntity
  8
_2-4_PARTS
  6
CONTINUOUS
100
AcDbLine
 10
-1210.010675197517
 20
1905.680136099817
 30
0.0
 11
-1209.860675197518
 21
1905.180136099817
 31
0.0
  0
LINE
  5
17077
330
1A
100
AcDbEntity
  8
_2-4_PARTS
  6
CONTINUOUS
100
AcDbLine
 10
-1210.010675197517
 20
1905.680136099817
 30
0.0
 11
-1210.310675197518
 21
1905.680136099817
 31
0.0
  0
LINE
  5
17078
330
1A
100
AcDbEntity
  8
_2-4_PARTS
  6
CONTINUOUS
100
AcDbLine
 10
-1211.910675197517
 20
1901.180136099817
 30
0.0
 11
-1213.410675197517
 21
1901.180136099817
 31
0.0
  0
LINE
  5
17079
330
1A
100
AcDbEntity
  8
_2-4_PARTS
  6
CONTINUOUS
100
AcDbLine
 10
-1209.410675197517
 20
1901.180136099817
 30
0.0
 11
-1210.910675197517
 21
1901.180136099817
 31
0.0
  0
LINE
  5
1707A
330
1A
100
AcDbEntity
  8
_2-4_PARTS
  6
CONTINUOUS
100
AcDbLine
 10
-1213.410675197517
 20
1902.280136099816
 30
0.0
 11
-1213.410675197517
 21
1901.180136099817
 31
0.0
  0
LINE
  5
1707B
330
1A
100
AcDbEntity
  8
_2-4_PARTS
  6
CONTINUOUS
100
AcDbLine
 10
-1211.910675197517
 20
1902.280136099816
 30
0.0
 11
-1211.910675197517
 21
1901.180136099817
 31
0.0
  0
LINE
  5
1707C
330
1A
100
AcDbEntity
  8
_2-4_PARTS
  6
CONTINUOUS
100
AcDbLine
 10
-1210.910675197517
 20
1902.280136099816
 30
0.0
 11
-1210.910675197517
 21
1901.180136099817
 31
0.0
  0
LINE
  5
1707D
330
1A
100
AcDbEntity
  8
_2-4_PARTS
  6
CONTINUOUS
100
AcDbLine
 10
-1209.410675197517
 20
1901.180136099817
 30
0.0
 11
-1209.410675197517
 21
1902.280136099816
 31
0.0
  0
ARC
  5
1707E
330
1A
100
AcDbEntity
  8
_2-4_PARTS
  6
CONTINUOUS
100
AcDbCircle
 10
-1210.710675197517
 20
1892.280136099816
 30
0.0
 40
0.5
100
AcDbArc
 50
0.0
 51
90.0
  0
LINE
  5
1707F
330
1A
100
AcDbEntity
  8
_2-4_PARTS
  6
CONTINUOUS
100
AcDbLine
 10
-1210.210675197517
 20
1892.280136099816
 30
0.0
 11
-1210.210675197517
 21
1891.280136099816
 31
0.0
  0
LINE
  5
17080
330
1A
100
AcDbEntity
  8
_2-4_PARTS
  6
CONTINUOUS
100
AcDbLine
 10
-1209.710675197517
 20
1890.780136099817
 30
0.0
 11
-1210.210675197517
 21
1891.280136099816
 31
0.0
  0
LINE
  5
17081
330
1A
100
AcDbEntity
  8
_2-4_PARTS
  6
CONTINUOUS
100
AcDbLine
 10
-1210.710675197518
 20
1852.080136099817
 30
0.0
 11
-1210.710675197518
 21
1851.180136099817
 31
0.0
  0
LINE
  5
17082
330
1A
100
AcDbEntity
  8
_2-4_PARTS
  6
CONTINUOUS
100
AcDbLine
 10
-1212.610675197518
 20
1852.080136099817
 30
0.0
 11
-1212.610675197518
 21
1851.180136099817
 31
0.0
  0
LINE
  5
17083
330
1A
100
AcDbEntity
  8
_2-4_PARTS
  6
CONTINUOUS
100
AcDbLine
 10
-1212.410675197518
 20
1852.080136099817
 30
0.0
 11
-1212.410675197518
 21
1851.480136099817
 31
0.0
  0
LINE
  5
17084
330
1A
100
AcDbEntity
  8
_2-4_PARTS
  6
CONTINUOUS
100
AcDbLine
 10
-1210.910675197518
 20
1852.080136099817
 30
0.0
 11
-1210.910675197518
 21
1851.480136099817
 31
0.0
  0
LINE
  5
17085
330
1A
100
AcDbEntity
  8
_2-4_PARTS
  6
CONTINUOUS
100
AcDbLine
 10
-1210.910675197518
 20
1851.480136099817
 30
0.0
 11
-1212.410675197518
 21
1851.480136099817
 31
0.0
  0
CIRCLE
  5
17086
330
1A
100
AcDbEntity
  8
_2-4_PARTS
  6
CONTINUOUS
100
AcDbCircle
 10
-1212.660675197517
 20
1854.480136099817
 30
0.0
 40
0.25
  0
CIRCLE
  5
17087
330
1A
100
AcDbEntity
  8
_2-4_PARTS
  6
CONTINUOUS
100
AcDbCircle
 10
-1210.160675197518
 20
1854.480136099817
 30
0.0
 40
0.25
  0
LINE
  5
17088
330
1A
100
AcDbEntity
  8
_2-4_PARTS
  6
CONTINUOUS
100
AcDbLine
 10
-1210.060675197518
 20
1852.080136099817
 30
0.0
 11
-1210.060675197518
 21
1851.180136099817
 31
0.0
  0
LINE
  5
17089
330
1A
100
AcDbEntity
  8
_2-4_PARTS
  6
CONTINUOUS
100
AcDbLine
 10
-1209.560675197518
 20
1852.580136099817
 30
0.0
 11
-1209.560675197518
 21
1851.880136099817
 31
0.0
  0
LINE
  5
1708A
330
1A
100
AcDbEntity
  8
_2-4_PARTS
  6
CONTINUOUS
100
AcDbLine
 10
-1210.265675197518
 20
1786.280136099817
 30
0.0
 11
-1210.865675197517
 21
1786.280136099817
 31
0.0
  0
LINE
  5
1708B
330
1A
100
AcDbEntity
  8
_2-4_PARTS
  6
CONTINUOUS
100
AcDbLine
 10
-1210.765675197517
 20
1787.580136099817
 30
0.0
 11
-1210.765675197517
 21
1787.480136099817
 31
0.0
  0
LINE
  5
1708C
330
1A
100
AcDbEntity
  8
_2-4_PARTS
  6
CONTINUOUS
100
AcDbLine
 10
-1210.365675197518
 20
1787.580136099817
 30
0.0
 11
-1210.765675197517
 21
1787.580136099817
 31
0.0
  0
LINE
  5
1708D
330
1A
100
AcDbEntity
  8
_2-4_PARTS
  6
CONTINUOUS
100
AcDbLine
 10
-1210.365675197518
 20
1787.480136099817
 30
0.0
 11
-1210.365675197518
 21
1787.580136099817
 31
0.0
  0
LINE
  5
1708E
330
1A
100
AcDbEntity
  8
_2-4_PARTS
  6
CONTINUOUS
100
AcDbLine
 10
-1209.495675197517
 20
1787.580136099817
 30
0.0
 11
-1209.495675197517
 21
1787.480136099817
 31
0.0
  0
LINE
  5
1708F
330
1A
100
AcDbEntity
  8
_2-4_PARTS
  6
CONTINUOUS
100
AcDbLine
 10
-1210.265675197518
 20
1783.280136099817
 30
0.0
 11
-1210.865675197517
 21
1783.280136099817
 31
0.0
  0
LINE
  5
17090
330
1A
100
AcDbEntity
  8
_2-4_PARTS
  6
CONTINUOUS
100
AcDbLine
 10
-1210.365675197518
 20
1781.980136099817
 30
0.0
 11
-1210.765675197517
 21
1781.980136099817
 31
0.0
  0
LINE
  5
17091
330
1A
100
AcDbEntity
  8
_2-4_PARTS
  6
CONTINUOUS
100
AcDbLine
 10
-1210.765675197517
 20
1782.080136099817
 30
0.0
 11
-1210.765675197517
 21
1781.980136099817
 31
0.0
  0
LINE
  5
17092
330
1A
100
AcDbEntity
  8
_2-4_PARTS
  6
CONTINUOUS
100
AcDbLine
 10
-1210.365675197518
 20
1781.980136099817
 30
0.0
 11
-1210.365675197518
 21
1782.080136099817
 31
0.0
  0
LINE
  5
17093
330
1A
100
AcDbEntity
  8
_2-4_PARTS
  6
CONTINUOUS
100
AcDbLine
 10
-1209.495675197517
 20
1782.080136099817
 30
0.0
 11
-1209.495675197517
 21
1781.980136099817
 31
0.0
  0
LINE
  5
17094
330
1A
100
AcDbEntity
  8
_2-4_PARTS
  6
CONTINUOUS
100
AcDbLine
 10
-1210.865675197517
 20
1786.280136099817
 30
0.0
 11
-1210.865675197517
 21
1783.280136099817
 31
0.0
  0
LINE
  5
17095
330
1A
100
AcDbEntity
  8
_2-4_PARTS
  6
CONTINUOUS
100
AcDbLine
 10
-1210.265675197518
 20
1786.280136099817
 30
0.0
 11
-1210.265675197518
 21
1783.280136099817
 31
0.0
  0
LINE
  5
17096
330
1A
100
AcDbEntity
  8
_2-4_PARTS
  6
CONTINUOUS
100
AcDbLine
 10
-1209.595675197518
 20
1786.280136099817
 30
0.0
 11
-1209.595675197518
 21
1783.280136099817
 31
0.0
  0
LINE
  5
17097
330
1A
100
AcDbEntity
  8
_2-4_PARTS
  6
CONTINUOUS
100
AcDbLine
 10
-1211.965675197517
 20
1782.080136099817
 30
0.0
 11
-1211.965675197517
 21
1787.480136099817
 31
0.0
  0
LINE
  5
17098
330
1A
100
AcDbEntity
  8
_2-4_PARTS
  6
CONTINUOUS
100
AcDbLine
 10
-1200.995675197517
 20
1783.280136099817
 30
0.0
 11
-1201.595675197518
 21
1783.280136099817
 31
0.0
  0
LINE
  5
17099
330
1A
100
AcDbEntity
  8
_2-4_PARTS
  6
CONTINUOUS
100
AcDbLine
 10
-1200.995675197517
 20
1786.280136099817
 30
0.0
 11
-1201.595675197518
 21
1786.280136099817
 31
0.0
  0
LINE
  5
1709A
330
1A
100
AcDbEntity
  8
_2-4_PARTS
  6
CONTINUOUS
100
AcDbLine
 10
-1201.095675197517
 20
1781.980136099817
 30
0.0
 11
-1201.495675197517
 21
1781.980136099817
 31
0.0
  0
LINE
  5
1709B
330
1A
100
AcDbEntity
  8
_2-4_PARTS
  6
CONTINUOUS
100
AcDbLine
 10
-1201.095675197517
 20
1787.580136099817
 30
0.0
 11
-1201.495675197517
 21
1787.580136099817
 31
0.0
  0
LINE
  5
1709C
330
1A
100
AcDbEntity
  8
_2-4_PARTS
  6
CONTINUOUS
100
AcDbLine
 10
-1197.355675197518
 20
1787.480136099817
 30
0.0
 11
-1203.965675197517
 21
1787.480136099817
 31
0.0
  0
LINE
  5
1709D
330
1A
100
AcDbEntity
  8
_2-4_PARTS
  6
CONTINUOUS
100
AcDbLine
 10
-1197.355675197518
 20
1782.080136099817
 30
0.0
 11
-1203.965675197517
 21
1782.080136099817
 31
0.0
  0
LINE
  5
1709E
330
1A
100
AcDbEntity
  8
_2-4_PARTS
  6
CONTINUOUS
100
AcDbLine
 10
-1207.710675197517
 20
1902.280136099816
 30
0.0
 11
-1208.710675197517
 21
1902.280136099816
 31
0.0
  0
LINE
  5
1709F
330
1A
100
AcDbEntity
  8
_2-4_PARTS
  6
CONTINUOUS
100
AcDbLine
 10
-1207.710675197517
 20
1890.780136099817
 30
0.0
 11
-1207.710675197517
 21
1902.280136099816
 31
0.0
  0
LINE
  5
170A0
330
1A
100
AcDbEntity
  8
_2-4_PARTS
  6
CONTINUOUS
100
AcDbLine
 10
-1207.710675197517
 20
1857.580136099817
 30
0.0
 11
-1207.710675197517
 21
1857.880136099817
 31
0.0
  0
LINE
  5
170A1
330
1A
100
AcDbEntity
  8
_2-4_PARTS
  6
CONTINUOUS
100
AcDbLine
 10
-1208.560675197518
 20
1857.180136099817
 30
0.0
 11
-1208.560675197518
 21
1851.880136099817
 31
0.0
  0
LINE
  5
170A2
330
1A
100
AcDbEntity
  8
_2-4_PARTS
  6
CONTINUOUS
100
AcDbLine
 10
-1207.710675197517
 20
1851.180136099817
 30
0.0
 11
-1207.710675197517
 21
1857.880136099817
 31
0.0
  0
LINE
  5
170A3
330
1A
100
AcDbEntity
  8
_2-4_PARTS
  6
CONTINUOUS
100
AcDbLine
 10
-1207.725675197518
 20
1786.280136099817
 30
0.0
 11
-1208.325675197517
 21
1786.280136099817
 31
0.0
  0
LINE
  5
170A4
330
1A
100
AcDbEntity
  8
_2-4_PARTS
  6
CONTINUOUS
100
AcDbLine
 10
-1206.455675197517
 20
1786.280136099817
 30
0.0
 11
-1207.055675197517
 21
1786.280136099817
 31
0.0
  0
LINE
  5
170A5
330
1A
100
AcDbEntity
  8
_2-4_PARTS
  6
CONTINUOUS
100
AcDbLine
 10
-1209.095675197517
 20
1787.480136099817
 30
0.0
 11
-1209.095675197517
 21
1787.580136099817
 31
0.0
  0
LINE
  5
170A6
330
1A
100
AcDbEntity
  8
_2-4_PARTS
  6
CONTINUOUS
100
AcDbLine
 10
-1208.225675197518
 20
1787.580136099817
 30
0.0
 11
-1208.225675197518
 21
1787.480136099817
 31
0.0
  0
LINE
  5
170A7
330
1A
100
AcDbEntity
  8
_2-4_PARTS
  6
CONTINUOUS
100
AcDbLine
 10
-1207.825675197518
 20
1787.580136099817
 30
0.0
 11
-1208.225675197518
 21
1787.580136099817
 31
0.0
  0
LINE
  5
170A8
330
1A
100
AcDbEntity
  8
_2-4_PARTS
  6
CONTINUOUS
100
AcDbLine
 10
-1207.825675197518
 20
1787.480136099817
 30
0.0
 11
-1207.825675197518
 21
1787.580136099817
 31
0.0
  0
LINE
  5
170A9
330
1A
100
AcDbEntity
  8
_2-4_PARTS
  6
CONTINUOUS
100
AcDbLine
 10
-1206.955675197518
 20
1787.580136099817
 30
0.0
 11
-1206.955675197518
 21
1787.480136099817
 31
0.0
  0
LINE
  5
170AA
330
1A
100
AcDbEntity
  8
_2-4_PARTS
  6
CONTINUOUS
100
AcDbLine
 10
-1206.555675197517
 20
1787.580136099817
 30
0.0
 11
-1206.955675197518
 21
1787.580136099817
 31
0.0
  0
LINE
  5
170AB
330
1A
100
AcDbEntity
  8
_2-4_PARTS
  6
CONTINUOUS
100
AcDbLine
 10
-1206.555675197517
 20
1787.480136099817
 30
0.0
 11
-1206.555675197517
 21
1787.580136099817
 31
0.0
  0
LINE
  5
170AC
330
1A
100
AcDbEntity
  8
_2-4_PARTS
  6
CONTINUOUS
100
AcDbLine
 10
-1207.725675197518
 20
1783.280136099817
 30
0.0
 11
-1208.325675197517
 21
1783.280136099817
 31
0.0
  0
LINE
  5
170AD
330
1A
100
AcDbEntity
  8
_2-4_PARTS
  6
CONTINUOUS
100
AcDbLine
 10
-1206.455675197517
 20
1783.280136099817
 30
0.0
 11
-1207.055675197517
 21
1783.280136099817
 31
0.0
  0
LINE
  5
170AE
330
1A
100
AcDbEntity
  8
_2-4_PARTS
  6
CONTINUOUS
100
AcDbLine
 10
-1209.095675197517
 20
1781.980136099817
 30
0.0
 11
-1209.095675197517
 21
1782.080136099817
 31
0.0
  0
LINE
  5
170AF
330
1A
100
AcDbEntity
  8
_2-4_PARTS
  6
CONTINUOUS
100
AcDbLine
 10
-1207.825675197518
 20
1781.980136099817
 30
0.0
 11
-1208.225675197518
 21
1781.980136099817
 31
0.0
  0
LINE
  5
170B0
330
1A
100
AcDbEntity
  8
_2-4_PARTS
  6
CONTINUOUS
100
AcDbLine
 10
-1208.225675197518
 20
1782.080136099817
 30
0.0
 11
-1208.225675197518
 21
1781.980136099817
 31
0.0
  0
LINE
  5
170B1
330
1A
100
AcDbEntity
  8
_2-4_PARTS
  6
CONTINUOUS
100
AcDbLine
 10
-1207.825675197518
 20
1781.980136099817
 30
0.0
 11
-1207.825675197518
 21
1782.080136099817
 31
0.0
  0
LINE
  5
170B2
330
1A
100
AcDbEntity
  8
_2-4_PARTS
  6
CONTINUOUS
100
AcDbLine
 10
-1206.555675197517
 20
1781.980136099817
 30
0.0
 11
-1206.955675197518
 21
1781.980136099817
 31
0.0
  0
LINE
  5
170B3
330
1A
100
AcDbEntity
  8
_2-4_PARTS
  6
CONTINUOUS
100
AcDbLine
 10
-1206.955675197518
 20
1782.080136099817
 30
0.0
 11
-1206.955675197518
 21
1781.980136099817
 31
0.0
  0
LINE
  5
170B4
330
1A
100
AcDbEntity
  8
_2-4_PARTS
  6
CONTINUOUS
100
AcDbLine
 10
-1206.555675197517
 20
1781.980136099817
 30
0.0
 11
-1206.555675197517
 21
1782.080136099817
 31
0.0
  0
LINE
  5
170B5
330
1A
100
AcDbEntity
  8
_2-4_PARTS
  6
CONTINUOUS
100
AcDbLine
 10
-1208.995675197517
 20
1786.280136099817
 30
0.0
 11
-1208.995675197517
 21
1783.280136099817
 31
0.0
  0
LINE
  5
170B6
330
1A
100
AcDbEntity
  8
_2-4_PARTS
  6
CONTINUOUS
100
AcDbLine
 10
-1208.325675197517
 20
1786.280136099817
 30
0.0
 11
-1208.325675197517
 21
1783.280136099817
 31
0.0
  0
LINE
  5
170B7
330
1A
100
AcDbEntity
  8
_2-4_PARTS
  6
CONTINUOUS
100
AcDbLine
 10
-1207.725675197518
 20
1786.280136099817
 30
0.0
 11
-1207.725675197518
 21
1783.280136099817
 31
0.0
  0
LINE
  5
170B8
330
1A
100
AcDbEntity
  8
_2-4_PARTS
  6
CONTINUOUS
100
AcDbLine
 10
-1207.055675197517
 20
1786.280136099817
 30
0.0
 11
-1207.055675197517
 21
1783.280136099817
 31
0.0
  0
LINE
  5
170B9
330
1A
100
AcDbEntity
  8
_2-4_PARTS
  6
CONTINUOUS
100
AcDbLine
 10
-1206.455675197517
 20
1786.280136099817
 30
0.0
 11
-1206.455675197517
 21
1783.280136099817
 31
0.0
  0
LINE
  5
170BA
330
1A
100
AcDbEntity
  8
_2-4_PARTS
  6
CONTINUOUS
100
AcDbLine
 10
-1205.355675197518
 20
1782.080136099817
 30
0.0
 11
-1205.355675197518
 21
1787.480136099817
 31
0.0
  0
LINE
  5
170BB
330
1A
100
AcDbEntity
  8
_2-4_PARTS
  6
CONTINUOUS
100
AcDbLine
 10
-1202.265675197518
 20
1786.280136099817
 30
0.0
 11
-1202.865675197517
 21
1786.280136099817
 31
0.0
  0
LINE
  5
170BC
330
1A
100
AcDbEntity
  8
_2-4_PARTS
  6
CONTINUOUS
100
AcDbLine
 10
-1202.765675197517
 20
1787.580136099817
 30
0.0
 11
-1202.765675197517
 21
1787.480136099817
 31
0.0
  0
LINE
  5
170BD
330
1A
100
AcDbEntity
  8
_2-4_PARTS
  6
CONTINUOUS
100
AcDbLine
 10
-1202.365675197518
 20
1787.580136099817
 30
0.0
 11
-1202.765675197517
 21
1787.580136099817
 31
0.0
  0
LINE
  5
170BE
330
1A
100
AcDbEntity
  8
_2-4_PARTS
  6
CONTINUOUS
100
AcDbLine
 10
-1202.365675197518
 20
1787.480136099817
 30
0.0
 11
-1202.365675197518
 21
1787.580136099817
 31
0.0
  0
LINE
  5
170BF
330
1A
100
AcDbEntity
  8
_2-4_PARTS
  6
CONTINUOUS
100
AcDbLine
 10
-1201.495675197517
 20
1787.580136099817
 30
0.0
 11
-1201.495675197517
 21
1787.480136099817
 31
0.0
  0
LINE
  5
170C0
330
1A
100
AcDbEntity
  8
_2-4_PARTS
  6
CONTINUOUS
100
AcDbLine
 10
-1202.265675197518
 20
1783.280136099817
 30
0.0
 11
-1202.865675197517
 21
1783.280136099817
 31
0.0
  0
LINE
  5
170C1
330
1A
100
AcDbEntity
  8
_2-4_PARTS
  6
CONTINUOUS
100
AcDbLine
 10
-1202.365675197518
 20
1781.980136099817
 30
0.0
 11
-1202.765675197517
 21
1781.980136099817
 31
0.0
  0
LINE
  5
170C2
330
1A
100
AcDbEntity
  8
_2-4_PARTS
  6
CONTINUOUS
100
AcDbLine
 10
-1202.765675197517
 20
1782.080136099817
 30
0.0
 11
-1202.765675197517
 21
1781.980136099817
 31
0.0
  0
LINE
  5
170C3
330
1A
100
AcDbEntity
  8
_2-4_PARTS
  6
CONTINUOUS
100
AcDbLine
 10
-1202.365675197518
 20
1781.980136099817
 30
0.0
 11
-1202.365675197518
 21
1782.080136099817
 31
0.0
  0
LINE
  5
170C4
330
1A
100
AcDbEntity
  8
_2-4_PARTS
  6
CONTINUOUS
100
AcDbLine
 10
-1201.495675197517
 20
1782.080136099817
 30
0.0
 11
-1201.495675197517
 21
1781.980136099817
 31
0.0
  0
LINE
  5
170C5
330
1A
100
AcDbEntity
  8
_2-4_PARTS
  6
CONTINUOUS
100
AcDbLine
 10
-1202.865675197517
 20
1786.280136099817
 30
0.0
 11
-1202.865675197517
 21
1783.280136099817
 31
0.0
  0
LINE
  5
170C6
330
1A
100
AcDbEntity
  8
_2-4_PARTS
  6
CONTINUOUS
100
AcDbLine
 10
-1202.265675197518
 20
1786.280136099817
 30
0.0
 11
-1202.265675197518
 21
1783.280136099817
 31
0.0
  0
LINE
  5
170C7
330
1A
100
AcDbEntity
  8
_2-4_PARTS
  6
CONTINUOUS
100
AcDbLine
 10
-1201.595675197518
 20
1786.280136099817
 30
0.0
 11
-1201.595675197518
 21
1783.280136099817
 31
0.0
  0
LINE
  5
170C8
330
1A
100
AcDbEntity
  8
_2-4_PARTS
  6
CONTINUOUS
100
AcDbLine
 10
-1203.965675197517
 20
1782.080136099817
 30
0.0
 11
-1203.965675197517
 21
1787.480136099817
 31
0.0
  0
LINE
  5
170C9
330
1A
100
AcDbEntity
  8
_2-4_PARTS
  6
CONTINUOUS
100
AcDbLine
 10
-1197.710675197517
 20
1902.280136099816
 30
0.0
 11
-1195.610675197517
 21
1902.280136099816
 31
0.0
  0
LINE
  5
170CA
330
1A
100
AcDbEntity
  8
_2-4_PARTS
  6
CONTINUOUS
100
AcDbLine
 10
-1197.710675197517
 20
1891.780136099816
 30
0.0
 11
-1197.710675197517
 21
1902.280136099816
 31
0.0
  0
LINE
  5
170CB
330
1A
100
AcDbEntity
  8
_2-4_PARTS
  6
CONTINUOUS
100
AcDbLine
 10
-1197.710675197517
 20
1851.160136099817
 30
0.0
 11
-1197.710675197517
 21
1858.760136099817
 31
0.0
  0
LINE
  5
170CC
330
1A
100
AcDbEntity
  8
_2-4_PARTS
  6
CONTINUOUS
100
AcDbLine
 10
-1199.725675197518
 20
1786.280136099817
 30
0.0
 11
-1200.325675197517
 21
1786.280136099817
 31
0.0
  0
LINE
  5
170CD
330
1A
100
AcDbEntity
  8
_2-4_PARTS
  6
CONTINUOUS
100
AcDbLine
 10
-1198.455675197517
 20
1786.280136099817
 30
0.0
 11
-1199.055675197517
 21
1786.280136099817
 31
0.0
  0
LINE
  5
170CE
330
1A
100
AcDbEntity
  8
_2-4_PARTS
  6
CONTINUOUS
100
AcDbLine
 10
-1201.095675197517
 20
1787.480136099817
 30
0.0
 11
-1201.095675197517
 21
1787.580136099817
 31
0.0
  0
LINE
  5
170CF
330
1A
100
AcDbEntity
  8
_2-4_PARTS
  6
CONTINUOUS
100
AcDbLine
 10
-1200.225675197517
 20
1787.580136099817
 30
0.0
 11
-1200.225675197517
 21
1787.480136099817
 31
0.0
  0
LINE
  5
170D0
330
1A
100
AcDbEntity
  8
_2-4_PARTS
  6
CONTINUOUS
100
AcDbLine
 10
-1199.825675197518
 20
1787.580136099817
 30
0.0
 11
-1200.225675197517
 21
1787.580136099817
 31
0.0
  0
LINE
  5
170D1
330
1A
100
AcDbEntity
  8
_2-4_PARTS
  6
CONTINUOUS
100
AcDbLine
 10
-1199.825675197518
 20
1787.480136099817
 30
0.0
 11
-1199.825675197518
 21
1787.580136099817
 31
0.0
  0
LINE
  5
170D2
330
1A
100
AcDbEntity
  8
_2-4_PARTS
  6
CONTINUOUS
100
AcDbLine
 10
-1198.955675197517
 20
1787.580136099817
 30
0.0
 11
-1198.955675197517
 21
1787.480136099817
 31
0.0
  0
LINE
  5
170D3
330
1A
100
AcDbEntity
  8
_2-4_PARTS
  6
CONTINUOUS
100
AcDbLine
 10
-1198.555675197517
 20
1787.580136099817
 30
0.0
 11
-1198.955675197517
 21
1787.580136099817
 31
0.0
  0
LINE
  5
170D4
330
1A
100
AcDbEntity
  8
_2-4_PARTS
  6
CONTINUOUS
100
AcDbLine
 10
-1198.555675197517
 20
1787.480136099817
 30
0.0
 11
-1198.555675197517
 21
1787.580136099817
 31
0.0
  0
LINE
  5
170D5
330
1A
100
AcDbEntity
  8
_2-4_PARTS
  6
CONTINUOUS
100
AcDbLine
 10
-1199.725675197518
 20
1783.280136099817
 30
0.0
 11
-1200.325675197517
 21
1783.280136099817
 31
0.0
  0
LINE
  5
170D6
330
1A
100
AcDbEntity
  8
_2-4_PARTS
  6
CONTINUOUS
100
AcDbLine
 10
-1198.455675197517
 20
1783.280136099817
 30
0.0
 11
-1199.055675197517
 21
1783.280136099817
 31
0.0
  0
LINE
  5
170D7
330
1A
100
AcDbEntity
  8
_2-4_PARTS
  6
CONTINUOUS
100
AcDbLine
 10
-1201.095675197517
 20
1781.980136099817
 30
0.0
 11
-1201.095675197517
 21
1782.080136099817
 31
0.0
  0
LINE
  5
170D8
330
1A
100
AcDbEntity
  8
_2-4_PARTS
  6
CONTINUOUS
100
AcDbLine
 10
-1199.825675197518
 20
1781.980136099817
 30
0.0
 11
-1200.225675197517
 21
1781.980136099817
 31
0.0
  0
LINE
  5
170D9
330
1A
100
AcDbEntity
  8
_2-4_PARTS
  6
CONTINUOUS
100
AcDbLine
 10
-1200.225675197517
 20
1782.080136099817
 30
0.0
 11
-1200.225675197517
 21
1781.980136099817
 31
0.0
  0
LINE
  5
170DA
330
1A
100
AcDbEntity
  8
_2-4_PARTS
  6
CONTINUOUS
100
AcDbLine
 10
-1199.825675197518
 20
1781.980136099817
 30
0.0
 11
-1199.825675197518
 21
1782.080136099817
 31
0.0
  0
LINE
  5
170DB
330
1A
100
AcDbEntity
  8
_2-4_PARTS
  6
CONTINUOUS
100
AcDbLine
 10
-1198.555675197517
 20
1781.980136099817
 30
0.0
 11
-1198.955675197517
 21
1781.980136099817
 31
0.0
  0
LINE
  5
170DC
330
1A
100
AcDbEntity
  8
_2-4_PARTS
  6
CONTINUOUS
100
AcDbLine
 10
-1198.955675197517
 20
1782.080136099817
 30
0.0
 11
-1198.955675197517
 21
1781.980136099817
 31
0.0
  0
LINE
  5
170DD
330
1A
100
AcDbEntity
  8
_2-4_PARTS
  6
CONTINUOUS
100
AcDbLine
 10
-1198.555675197517
 20
1781.980136099817
 30
0.0
 11
-1198.555675197517
 21
1782.080136099817
 31
0.0
  0
LINE
  5
170DE
330
1A
100
AcDbEntity
  8
_2-4_PARTS
  6
CONTINUOUS
100
AcDbLine
 10
-1200.995675197517
 20
1786.280136099817
 30
0.0
 11
-1200.995675197517
 21
1783.280136099817
 31
0.0
  0
LINE
  5
170DF
330
1A
100
AcDbEntity
  8
_2-4_PARTS
  6
CONTINUOUS
100
AcDbLine
 10
-1200.325675197517
 20
1786.280136099817
 30
0.0
 11
-1200.325675197517
 21
1783.280136099817
 31
0.0
  0
LINE
  5
170E0
330
1A
100
AcDbEntity
  8
_2-4_PARTS
  6
CONTINUOUS
100
AcDbLine
 10
-1199.725675197518
 20
1786.280136099817
 30
0.0
 11
-1199.725675197518
 21
1783.280136099817
 31
0.0
  0
LINE
  5
170E1
330
1A
100
AcDbEntity
  8
_2-4_PARTS
  6
CONTINUOUS
100
AcDbLine
 10
-1199.055675197517
 20
1786.280136099817
 30
0.0
 11
-1199.055675197517
 21
1783.280136099817
 31
0.0
  0
LINE
  5
170E2
330
1A
100
AcDbEntity
  8
_2-4_PARTS
  6
CONTINUOUS
100
AcDbLine
 10
-1198.455675197517
 20
1786.280136099817
 30
0.0
 11
-1198.455675197517
 21
1783.280136099817
 31
0.0
  0
LINE
  5
170E3
330
1A
100
AcDbEntity
  8
_2-4_PARTS
  6
CONTINUOUS
100
AcDbLine
 10
-1197.355675197518
 20
1782.080136099817
 30
0.0
 11
-1197.355675197518
 21
1787.480136099817
 31
0.0
  0
LINE
  5
170E4
330
1A
100
AcDbEntity
  8
_2-4_PARTS
  6
CONTINUOUS
100
AcDbLine
 10
-1194.310675197517
 20
1904.080136099817
 30
0.0
 11
-1194.310675197517
 21
1903.880136099817
 31
0.0
  0
LINE
  5
170E5
330
1A
100
AcDbEntity
  8
_2-4_PARTS
  6
CONTINUOUS
100
AcDbLine
 10
-1195.510675197517
 20
1904.080136099817
 30
0.0
 11
-1195.510675197517
 21
1903.880136099817
 31
0.0
  0
LINE
  5
170E6
330
1A
100
AcDbEntity
  8
_2-4_PARTS
  6
CONTINUOUS
100
AcDbLine
 10
-1195.610675197517
 20
1902.080136099817
 30
0.0
 11
-1194.210675197518
 21
1902.080136099817
 31
0.0
  0
LINE
  5
170E7
330
1A
100
AcDbEntity
  8
_2-4_PARTS
  6
CONTINUOUS
100
AcDbLine
 10
-1194.310675197517
 20
1904.080136099817
 30
0.0
 11
-1194.690675197517
 21
1905.780136099816
 31
0.0
  0
LINE
  5
170E8
330
1A
100
AcDbEntity
  8
_2-4_PARTS
  6
CONTINUOUS
100
AcDbLine
 10
-1195.510675197517
 20
1904.080136099817
 30
0.0
 11
-1195.130675197518
 21
1905.780136099816
 31
0.0
  0
LINE
  5
170E9
330
1A
100
AcDbEntity
  8
_2-4_PARTS
  6
CONTINUOUS
100
AcDbLine
 10
-1195.130675197518
 20
1905.780136099816
 30
0.0
 11
-1194.690675197517
 21
1905.780136099816
 31
0.0
  0
LINE
  5
170EA
330
1A
100
AcDbEntity
  8
_2-4_PARTS
  6
CONTINUOUS
100
AcDbLine
 10
-1195.610675197517
 20
1900.780136099816
 30
0.0
 11
-1194.210675197518
 21
1900.780136099816
 31
0.0
  0
LINE
  5
170EB
330
1A
100
AcDbEntity
  8
_2-4_PARTS
  6
CONTINUOUS
100
AcDbLine
 10
-1194.210675197518
 20
1902.280136099816
 30
0.0
 11
-1194.210675197518
 21
1900.780136099816
 31
0.0
  0
LINE
  5
170EC
330
1A
100
AcDbEntity
  8
_2-4_PARTS
  6
CONTINUOUS
100
AcDbLine
 10
-1195.610675197517
 20
1902.280136099816
 30
0.0
 11
-1195.610675197517
 21
1900.780136099816
 31
0.0
  0
LINE
  5
170ED
330
1A
100
AcDbEntity
  8
_2-4_PARTS
  6
CONTINUOUS
100
AcDbLine
 10
-1195.350675197517
 20
1854.550136099817
 30
0.0
 11
-1194.470675197518
 21
1854.550136099817
 31
0.0
  0
ARC
  5
170EE
330
1A
100
AcDbEntity
  8
_2-4_PARTS
  6
CONTINUOUS
100
AcDbCircle
 10
-1194.470675197518
 20
1854.350136099817
 30
0.0
 40
0.2
100
AcDbArc
 50
0.0
 51
90.0
  0
ARC
  5
170EF
330
1A
100
AcDbEntity
  8
_2-4_PARTS
  6
CONTINUOUS
100
AcDbCircle
 10
-1195.350675197517
 20
1854.350136099817
 30
0.0
 40
0.2
100
AcDbArc
 50
90.0
 51
180.0
  0
LINE
  5
170F0
330
1A
100
AcDbEntity
  8
_2-4_PARTS
  6
CONTINUOUS
100
AcDbLine
 10
-1194.750675197518
 20
1853.625691655372
 30
0.0
 11
-1194.750675197518
 21
1852.590136099817
 31
0.0
  0
LINE
  5
170F1
330
1A
100
AcDbEntity
  8
_2-4_PARTS
  6
CONTINUOUS
100
AcDbLine
 10
-1195.070675197517
 20
1852.590136099817
 30
0.0
 11
-1195.070675197517
 21
1853.625691655372
 31
0.0
  0
LINE
  5
170F2
330
1A
100
AcDbEntity
  8
_2-4_PARTS
  6
CONTINUOUS
100
AcDbLine
 10
-1195.270675197517
 20
1853.270136099817
 30
0.0
 11
-1195.550675197518
 21
1853.270136099817
 31
0.0
  0
LINE
  5
170F3
330
1A
100
AcDbEntity
  8
_2-4_PARTS
  6
CONTINUOUS
100
AcDbLine
 10
-1194.270675197517
 20
1853.270136099817
 30
0.0
 11
-1194.550675197517
 21
1853.270136099817
 31
0.0
  0
LINE
  5
170F4
330
1A
100
AcDbEntity
  8
_2-4_PARTS
  6
CONTINUOUS
100
AcDbLine
 10
-1194.550675197517
 20
1854.350136099817
 30
0.0
 11
-1194.270675197517
 21
1854.350136099817
 31
0.0
  0
LINE
  5
170F5
330
1A
100
AcDbEntity
  8
_2-4_PARTS
  6
CONTINUOUS
100
AcDbLine
 10
-1195.550675197518
 20
1854.350136099817
 30
0.0
 11
-1195.270675197517
 21
1854.350136099817
 31
0.0
  0
LINE
  5
170F6
330
1A
100
AcDbEntity
  8
_2-4_PARTS
  6
CONTINUOUS
100
AcDbLine
 10
-1194.550675197517
 20
1854.550136099817
 30
0.0
 11
-1194.550675197517
 21
1854.350136099817
 31
0.0
  0
LINE
  5
170F7
330
1A
100
AcDbEntity
  8
_2-4_PARTS
  6
CONTINUOUS
100
AcDbLine
 10
-1194.550675197517
 20
1853.270136099817
 30
0.0
 11
-1194.550675197517
 21
1852.790136099817
 31
0.0
  0
LINE
  5
170F8
330
1A
100
AcDbEntity
  8
_2-4_PARTS
  6
CONTINUOUS
100
AcDbLine
 10
-1195.270675197517
 20
1854.350136099817
 30
0.0
 11
-1195.270675197517
 21
1854.550136099817
 31
0.0
  0
LINE
  5
170F9
330
1A
100
AcDbEntity
  8
_2-4_PARTS
  6
CONTINUOUS
100
AcDbLine
 10
-1195.270675197517
 20
1852.790136099817
 30
0.0
 11
-1195.270675197517
 21
1853.270136099817
 31
0.0
  0
LINE
  5
170FA
330
1A
100
AcDbEntity
  8
_2-4_PARTS
  6
CONTINUOUS
100
AcDbLine
 10
-1195.550675197518
 20
1854.350136099817
 30
0.0
 11
-1194.910675197518
 21
1853.910136099817
 31
0.0
  0
LINE
  5
170FB
330
1A
100
AcDbEntity
  8
_2-4_PARTS
  6
CONTINUOUS
100
AcDbLine
 10
-1194.270675197517
 20
1854.350136099817
 30
0.0
 11
-1194.910675197518
 21
1853.910136099817
 31
0.0
  0
LINE
  5
170FC
330
1A
100
AcDbEntity
  8
_2-4_PARTS
  6
CONTINUOUS
100
AcDbLine
 10
-1194.550675197517
 20
1854.350136099817
 30
0.0
 11
-1194.910675197518
 21
1853.910136099817
 31
0.0
  0
LINE
  5
170FD
330
1A
100
AcDbEntity
  8
_2-4_PARTS
  6
CONTINUOUS
100
AcDbLine
 10
-1194.550675197517
 20
1854.550136099817
 30
0.0
 11
-1194.910675197518
 21
1853.910136099817
 31
0.0
  0
LINE
  5
170FE
330
1A
100
AcDbEntity
  8
_2-4_PARTS
  6
CONTINUOUS
100
AcDbLine
 10
-1194.910675197518
 20
1853.910136099817
 30
0.0
 11
-1195.270675197517
 21
1854.550136099817
 31
0.0
  0
LINE
  5
170FF
330
1A
100
AcDbEntity
  8
_2-4_PARTS
  6
CONTINUOUS
100
AcDbLine
 10
-1194.910675197518
 20
1853.910136099817
 30
0.0
 11
-1195.270675197517
 21
1854.350136099817
 31
0.0
  0
LINE
  5
17100
330
1A
100
AcDbEntity
  8
_2-4_PARTS
  6
CONTINUOUS
100
AcDbLine
 10
-1194.910675197518
 20
1853.910136099817
 30
0.0
 11
-1194.270675197517
 21
1853.270136099817
 31
0.0
  0
LINE
  5
17101
330
1A
100
AcDbEntity
  8
_2-4_PARTS
  6
CONTINUOUS
100
AcDbLine
 10
-1194.910675197518
 20
1853.910136099817
 30
0.0
 11
-1194.550675197517
 21
1853.270136099817
 31
0.0
  0
LINE
  5
17102
330
1A
100
AcDbEntity
  8
_2-4_PARTS
  6
CONTINUOUS
100
AcDbLine
 10
-1194.910675197518
 20
1853.910136099817
 30
0.0
 11
-1195.270675197517
 21
1853.270136099817
 31
0.0
  0
LINE
  5
17103
330
1A
100
AcDbEntity
  8
_2-4_PARTS
  6
CONTINUOUS
100
AcDbLine
 10
-1195.550675197518
 20
1853.270136099817
 30
0.0
 11
-1194.910675197518
 21
1853.910136099817
 31
0.0
  0
LINE
  5
17104
330
1A
100
AcDbEntity
  8
_2-4_PARTS
  6
CONTINUOUS
100
AcDbLine
 10
-1195.550675197518
 20
1853.270136099817
 30
0.0
 11
-1195.550675197518
 21
1854.550136099817
 31
0.0
  0
LINE
  5
17105
330
1A
100
AcDbEntity
  8
_2-4_PARTS
  6
CONTINUOUS
100
AcDbLine
 10
-1194.270675197517
 20
1854.550136099817
 30
0.0
 11
-1194.270675197517
 21
1853.270136099817
 31
0.0
  0
LINE
  5
17106
330
1A
100
AcDbEntity
  8
_2-4_PARTS
  6
CONTINUOUS
100
AcDbLine
 10
-1194.750675197518
 20
1852.590136099817
 30
0.0
 11
-1194.550675197517
 21
1852.790136099817
 31
0.0
  0
LINE
  5
17107
330
1A
100
AcDbEntity
  8
_2-4_PARTS
  6
CONTINUOUS
100
AcDbLine
 10
-1195.270675197517
 20
1852.790136099817
 30
0.0
 11
-1195.070675197517
 21
1852.590136099817
 31
0.0
  0
LINE
  5
17108
330
1A
100
AcDbEntity
  8
_2-4_PARTS
  6
CONTINUOUS
100
AcDbLine
 10
-1194.270675197517
 20
1852.790136099817
 30
0.0
 11
-1194.550675197517
 21
1852.790136099817
 31
0.0
  0
LINE
  5
17109
330
1A
100
AcDbEntity
  8
_2-4_PARTS
  6
CONTINUOUS
100
AcDbLine
 10
-1194.070675197518
 20
1852.590136099817
 30
0.0
 11
-1194.750675197518
 21
1852.590136099817
 31
0.0
  0
LINE
  5
1710A
330
1A
100
AcDbEntity
  8
_2-4_PARTS
  6
CONTINUOUS
100
AcDbLine
 10
-1195.070675197517
 20
1852.590136099817
 30
0.0
 11
-1195.750675197517
 21
1852.590136099817
 31
0.0
  0
LINE
  5
1710B
330
1A
100
AcDbEntity
  8
_2-4_PARTS
  6
CONTINUOUS
100
AcDbLine
 10
-1195.270675197517
 20
1852.790136099817
 30
0.0
 11
-1195.550675197518
 21
1852.790136099817
 31
0.0
  0
LINE
  5
1710C
330
1A
100
AcDbEntity
  8
_2-4_PARTS
  6
CONTINUOUS
100
AcDbLine
 10
-1194.270675197517
 20
1855.030136099817
 30
0.0
 11
-1194.070675197518
 21
1855.230136099817
 31
0.0
  0
LINE
  5
1710D
330
1A
100
AcDbEntity
  8
_2-4_PARTS
  6
CONTINUOUS
100
AcDbLine
 10
-1195.750675197517
 20
1855.230136099817
 30
0.0
 11
-1195.550675197518
 21
1855.030136099817
 31
0.0
  0
LINE
  5
1710E
330
1A
100
AcDbEntity
  8
_2-4_PARTS
  6
CONTINUOUS
100
AcDbLine
 10
-1194.270675197517
 20
1852.790136099817
 30
0.0
 11
-1194.070675197518
 21
1852.590136099817
 31
0.0
  0
LINE
  5
1710F
330
1A
100
AcDbEntity
  8
_2-4_PARTS
  6
CONTINUOUS
100
AcDbLine
 10
-1195.750675197517
 20
1852.590136099817
 30
0.0
 11
-1195.550675197518
 21
1852.790136099817
 31
0.0
  0
LINE
  5
17110
330
1A
100
AcDbEntity
  8
_2-4_PARTS
  6
CONTINUOUS
100
AcDbLine
 10
-1195.550675197518
 20
1852.790136099817
 30
0.0
 11
-1195.550675197518
 21
1855.030136099817
 31
0.0
  0
LINE
  5
17111
330
1A
100
AcDbEntity
  8
_2-4_PARTS
  6
CONTINUOUS
100
AcDbLine
 10
-1195.550675197518
 20
1855.030136099817
 30
0.0
 11
-1194.270675197517
 21
1855.030136099817
 31
0.0
  0
LINE
  5
17112
330
1A
100
AcDbEntity
  8
_2-4_PARTS
  6
CONTINUOUS
100
AcDbLine
 10
-1194.270675197517
 20
1855.030136099817
 30
0.0
 11
-1194.270675197517
 21
1852.790136099817
 31
0.0
  0
LINE
  5
17113
330
1A
100
AcDbEntity
  8
_2-4_PARTS
  6
CONTINUOUS
100
AcDbLine
 10
-1195.750675197517
 20
1852.590136099817
 30
0.0
 11
-1195.750675197517
 21
1855.230136099817
 31
0.0
  0
LINE
  5
17114
330
1A
100
AcDbEntity
  8
_2-4_PARTS
  6
CONTINUOUS
100
AcDbLine
 10
-1194.070675197518
 20
1855.230136099817
 30
0.0
 11
-1194.070675197518
 21
1852.590136099817
 31
0.0
  0
LINE
  5
17115
330
1A
100
AcDbEntity
  8
_2-4_PARTS
  6
CONTINUOUS
100
AcDbLine
 10
-1195.750675197517
 20
1855.230136099817
 30
0.0
 11
-1194.070675197518
 21
1855.230136099817
 31
0.0
  0
LINE
  5
17116
330
1A
100
AcDbEntity
  8
_2-4_PARTS
  6
CONTINUOUS
100
AcDbLine
 10
-1194.360675197517
 20
1850.520136099817
 30
0.0
 11
-1194.360675197517
 21
1851.160136099817
 31
0.0
  0
LINE
  5
17117
330
1A
100
AcDbEntity
  8
_2-4_PARTS
  6
CONTINUOUS
100
AcDbLine
 10
-1195.210675197517
 20
1851.160136099817
 30
0.0
 11
-1195.210675197517
 21
1851.760136099817
 31
0.0
  0
LINE
  5
17118
330
1A
100
AcDbEntity
  8
_2-4_PARTS
  6
CONTINUOUS
100
AcDbLine
 10
-1196.210675197517
 20
1851.160136099817
 30
0.0
 11
-1196.210675197517
 21
1851.760136099817
 31
0.0
  0
LINE
  5
17119
330
1A
100
AcDbEntity
  8
_2-4_PARTS
  6
CONTINUOUS
100
AcDbLine
 10
-1197.010675197518
 20
1851.760136099817
 30
0.0
 11
-1197.010675197518
 21
1858.160136099817
 31
0.0
  0
LINE
  5
1711A
330
1A
100
AcDbEntity
  8
_2-4_PARTS
  6
CONTINUOUS
100
AcDbLine
 10
-1193.910674750417
 20
1826.305136099817
 30
0.0
 11
-1193.910674750417
 21
1825.405136099817
 31
0.0
  0
LINE
  5
1711B
330
1A
100
AcDbEntity
  8
_2-4_PARTS
  6
CONTINUOUS
100
AcDbLine
 10
-1193.560674750417
 20
1826.305136099817
 30
0.0
 11
-1193.910674750417
 21
1826.305136099817
 31
0.0
  0
LINE
  5
1711C
330
1A
100
AcDbEntity
  8
_2-4_PARTS
  6
CONTINUOUS
100
AcDbLine
 10
-1193.560674750417
 20
1825.405136099817
 30
0.0
 11
-1193.910674750417
 21
1825.405136099817
 31
0.0
  0
LINE
  5
1711D
330
1A
100
AcDbEntity
  8
_2-4_PARTS
  6
CONTINUOUS
100
AcDbLine
 10
-1193.560674750417
 20
1815.005136099816
 30
0.0
 11
-1193.910674750417
 21
1815.005136099816
 31
0.0
  0
LINE
  5
1711E
330
1A
100
AcDbEntity
  8
_2-4_PARTS
  6
CONTINUOUS
100
AcDbLine
 10
-1193.560674750417
 20
1821.705136099817
 30
0.0
 11
-1193.560674750417
 21
1830.005136099817
 31
0.0
  0
LINE
  5
1711F
330
1A
100
AcDbEntity
  8
_2-4_PARTS
  6
CONTINUOUS
100
AcDbLine
 10
-1193.560674750417
 20
1814.105136099817
 30
0.0
 11
-1193.910674750417
 21
1814.105136099817
 31
0.0
  0
LINE
  5
17120
330
1A
100
AcDbEntity
  8
_2-4_PARTS
  6
CONTINUOUS
100
AcDbLine
 10
-1193.560674750417
 20
1803.705136099816
 30
0.0
 11
-1193.910674750417
 21
1803.705136099816
 31
0.0
  0
LINE
  5
17121
330
1A
100
AcDbEntity
  8
_2-4_PARTS
  6
CONTINUOUS
100
AcDbLine
 10
-1193.560674750417
 20
1802.805136099816
 30
0.0
 11
-1193.910674750417
 21
1802.805136099816
 31
0.0
  0
LINE
  5
17122
330
1A
100
AcDbEntity
  8
_2-4_PARTS
  6
CONTINUOUS
100
AcDbLine
 10
-1193.560674750417
 20
1799.105136099817
 30
0.0
 11
-1193.560674750417
 21
1807.405136099817
 31
0.0
  0
LINE
  5
17123
330
1A
100
AcDbEntity
  8
_2-4_PARTS
  6
CONTINUOUS
100
AcDbLine
 10
-1193.910674750417
 20
1803.705136099816
 30
0.0
 11
-1193.910674750417
 21
1802.805136099816
 31
0.0
  0
LINE
  5
17124
330
1A
100
AcDbEntity
  8
_2-4_PARTS
  6
CONTINUOUS
100
AcDbLine
 10
-1193.595675197518
 20
1786.280136099817
 30
0.0
 11
-1192.995675197517
 21
1786.280136099817
 31
0.0
  0
LINE
  5
17125
330
1A
100
AcDbEntity
  8
_2-4_PARTS
  6
CONTINUOUS
100
AcDbLine
 10
-1194.865675197517
 20
1786.280136099817
 30
0.0
 11
-1194.265675197517
 21
1786.280136099817
 31
0.0
  0
LINE
  5
17126
330
1A
100
AcDbEntity
  8
_2-4_PARTS
  6
CONTINUOUS
100
AcDbLine
 10
-1193.495675197517
 20
1787.580136099817
 30
0.0
 11
-1193.095675197517
 21
1787.580136099817
 31
0.0
  0
LINE
  5
17127
330
1A
100
AcDbEntity
  8
_2-4_PARTS
  6
CONTINUOUS
100
AcDbLine
 10
-1193.095675197517
 20
1787.480136099817
 30
0.0
 11
-1193.095675197517
 21
1787.580136099817
 31
0.0
  0
LINE
  5
17128
330
1A
100
AcDbEntity
  8
_2-4_PARTS
  6
CONTINUOUS
100
AcDbLine
 10
-1193.495675197517
 20
1787.580136099817
 30
0.0
 11
-1193.495675197517
 21
1787.480136099817
 31
0.0
  0
LINE
  5
17129
330
1A
100
AcDbEntity
  8
_2-4_PARTS
  6
CONTINUOUS
100
AcDbLine
 10
-1194.765675197517
 20
1787.580136099817
 30
0.0
 11
-1194.365675197518
 21
1787.580136099817
 31
0.0
  0
LINE
  5
1712A
330
1A
100
AcDbEntity
  8
_2-4_PARTS
  6
CONTINUOUS
100
AcDbLine
 10
-1194.365675197518
 20
1787.480136099817
 30
0.0
 11
-1194.365675197518
 21
1787.580136099817
 31
0.0
  0
LINE
  5
1712B
330
1A
100
AcDbEntity
  8
_2-4_PARTS
  6
CONTINUOUS
100
AcDbLine
 10
-1194.765675197517
 20
1787.580136099817
 30
0.0
 11
-1194.765675197517
 21
1787.480136099817
 31
0.0
  0
LINE
  5
1712C
330
1A
100
AcDbEntity
  8
_2-4_PARTS
  6
CONTINUOUS
100
AcDbLine
 10
-1193.595675197518
 20
1783.280136099817
 30
0.0
 11
-1192.995675197517
 21
1783.280136099817
 31
0.0
  0
LINE
  5
1712D
330
1A
100
AcDbEntity
  8
_2-4_PARTS
  6
CONTINUOUS
100
AcDbLine
 10
-1194.865675197517
 20
1783.280136099817
 30
0.0
 11
-1194.265675197517
 21
1783.280136099817
 31
0.0
  0
LINE
  5
1712E
330
1A
100
AcDbEntity
  8
_2-4_PARTS
  6
CONTINUOUS
100
AcDbLine
 10
-1193.095675197517
 20
1781.980136099817
 30
0.0
 11
-1193.095675197517
 21
1782.080136099817
 31
0.0
  0
LINE
  5
1712F
330
1A
100
AcDbEntity
  8
_2-4_PARTS
  6
CONTINUOUS
100
AcDbLine
 10
-1193.495675197517
 20
1781.980136099817
 30
0.0
 11
-1193.095675197517
 21
1781.980136099817
 31
0.0
  0
LINE
  5
17130
330
1A
100
AcDbEntity
  8
_2-4_PARTS
  6
CONTINUOUS
100
AcDbLine
 10
-1193.495675197517
 20
1782.080136099817
 30
0.0
 11
-1193.495675197517
 21
1781.980136099817
 31
0.0
  0
LINE
  5
17131
330
1A
100
AcDbEntity
  8
_2-4_PARTS
  6
CONTINUOUS
100
AcDbLine
 10
-1194.365675197518
 20
1781.980136099817
 30
0.0
 11
-1194.365675197518
 21
1782.080136099817
 31
0.0
  0
LINE
  5
17132
330
1A
100
AcDbEntity
  8
_2-4_PARTS
  6
CONTINUOUS
100
AcDbLine
 10
-1194.765675197517
 20
1781.980136099817
 30
0.0
 11
-1194.365675197518
 21
1781.980136099817
 31
0.0
  0
LINE
  5
17133
330
1A
100
AcDbEntity
  8
_2-4_PARTS
  6
CONTINUOUS
100
AcDbLine
 10
-1194.765675197517
 20
1782.080136099817
 30
0.0
 11
-1194.765675197517
 21
1781.980136099817
 31
0.0
  0
LINE
  5
17134
330
1A
100
AcDbEntity
  8
_2-4_PARTS
  6
CONTINUOUS
100
AcDbLine
 10
-1192.995675197517
 20
1783.280136099817
 30
0.0
 11
-1192.995675197517
 21
1786.280136099817
 31
0.0
  0
LINE
  5
17135
330
1A
100
AcDbEntity
  8
_2-4_PARTS
  6
CONTINUOUS
100
AcDbLine
 10
-1193.595675197518
 20
1783.280136099817
 30
0.0
 11
-1193.595675197518
 21
1786.280136099817
 31
0.0
  0
LINE
  5
17136
330
1A
100
AcDbEntity
  8
_2-4_PARTS
  6
CONTINUOUS
100
AcDbLine
 10
-1194.265675197517
 20
1783.280136099817
 30
0.0
 11
-1194.265675197517
 21
1786.280136099817
 31
0.0
  0
LINE
  5
17137
330
1A
100
AcDbEntity
  8
_2-4_PARTS
  6
CONTINUOUS
100
AcDbLine
 10
-1194.865675197517
 20
1783.280136099817
 30
0.0
 11
-1194.865675197517
 21
1786.280136099817
 31
0.0
  0
LINE
  5
17138
330
1A
100
AcDbEntity
  8
_2-4_PARTS
  6
CONTINUOUS
100
AcDbLine
 10
-1195.965675197518
 20
1787.480136099817
 30
0.0
 11
-1195.965675197518
 21
1782.080136099817
 31
0.0
  0
LINE
  5
17139
330
1A
100
AcDbEntity
  8
_2-4_PARTS
  6
CONTINUOUS
100
AcDbLine
 10
-1193.560674750417
 20
1810.405136099817
 30
0.0
 11
-1193.560674750417
 21
1818.705136099817
 31
0.0
  0
LINE
  5
1713A
330
1A
100
AcDbEntity
  8
_2-4_PARTS
  6
CONTINUOUS
100
AcDbLine
 10
-1193.910674750417
 20
1815.005136099816
 30
0.0
 11
-1193.910674750417
 21
1814.105136099817
 31
0.0
  0
LINE
  5
1713B
330
1A
100
AcDbEntity
  8
CL1
100
AcDbLine
 10
-1181.660675197518
 20
1859.280136099817
 30
0.0
 11
-1185.660675197518
 21
1859.280136099817
 31
0.0
  0
CIRCLE
  5
1713C
330
1A
100
AcDbEntity
  8
ZISSEN1
100
AcDbCircle
 10
-1183.660675197518
 20
1859.280136099817
 30
0.0
 40
1.75
  0
LINE
  5
1713D
330
1A
100
AcDbEntity
  8
_2-4_PARTS
  6
CONTINUOUS
100
AcDbLine
 10
-1192.560674750417
 20
1831.005136099816
 30
0.0
 11
-1183.260674750417
 21
1831.005136099816
 31
0.0
  0
LINE
  5
1713E
330
1A
100
AcDbEntity
  8
_2-4_PARTS
  6
CONTINUOUS
100
AcDbLine
 10
-1192.560674750417
 20
1819.705136099817
 30
0.0
 11
-1183.260674750417
 21
1819.705136099817
 31
0.0
  0
LINE
  5
1713F
330
1A
100
AcDbEntity
  8
_2-4_PARTS
  6
CONTINUOUS
100
AcDbLine
 10
-1192.560674750417
 20
1820.705136099817
 30
0.0
 11
-1183.260674750417
 21
1820.705136099817
 31
0.0
  0
LINE
  5
17140
330
1A
100
AcDbEntity
  8
_2-4_PARTS
  6
CONTINUOUS
100
AcDbLine
 10
-1192.560674750417
 20
1808.405136099817
 30
0.0
 11
-1183.260674750417
 21
1808.405136099817
 31
0.0
  0
LINE
  5
17141
330
1A
100
AcDbEntity
  8
_2-4_PARTS
  6
CONTINUOUS
100
AcDbLine
 10
-1192.560674750417
 20
1809.405136099817
 30
0.0
 11
-1183.260674750417
 21
1809.405136099817
 31
0.0
  0
LINE
  5
17142
330
1A
100
AcDbEntity
  8
_2-4_PARTS
  6
CONTINUOUS
100
AcDbLine
 10
-1183.660674750417
 20
1793.985136099817
 30
0.0
 11
-1186.660674750417
 21
1793.985136099817
 31
0.0
  0
LINE
  5
17143
330
1A
100
AcDbEntity
  8
_2-4_PARTS
  6
CONTINUOUS
100
AcDbLine
 10
-1183.660674750417
 20
1793.385136099817
 30
0.0
 11
-1186.660674750417
 21
1793.385136099817
 31
0.0
  0
LINE
  5
17144
330
1A
100
AcDbEntity
  8
_2-4_PARTS
  6
CONTINUOUS
100
AcDbLine
 10
-1183.660674750417
 20
1792.715136099817
 30
0.0
 11
-1186.660674750417
 21
1792.715136099817
 31
0.0
  0
LINE
  5
17145
330
1A
100
AcDbEntity
  8
_2-4_PARTS
  6
CONTINUOUS
100
AcDbLine
 10
-1183.660674750417
 20
1792.115136099817
 30
0.0
 11
-1186.660674750417
 21
1792.115136099817
 31
0.0
  0
LINE
  5
17146
330
1A
100
AcDbEntity
  8
_2-4_PARTS
  6
CONTINUOUS
100
AcDbLine
 10
-1187.860674750417
 20
1795.085136099817
 30
0.0
 11
-1182.460674750417
 21
1795.085136099817
 31
0.0
  0
LINE
  5
17147
330
1A
100
AcDbEntity
  8
_2-4_PARTS
  6
CONTINUOUS
100
AcDbLine
 10
-1192.560674750417
 20
1798.105136099817
 30
0.0
 11
-1183.260674750417
 21
1798.105136099817
 31
0.0
  0
LINE
  5
17148
330
1A
100
AcDbEntity
  8
CL1
100
AcDbLine
 10
-1181.660675197518
 20
1783.280136099817
 30
0.0
 11
-1185.660675197518
 21
1783.280136099817
 31
0.0
  0
LINE
  5
17149
330
1A
100
AcDbEntity
  8
_2-4_PARTS
  6
CONTINUOUS
100
AcDbLine
 10
-1183.660674750417
 20
1791.445136099817
 30
0.0
 11
-1186.660674750417
 21
1791.445136099817
 31
0.0
  0
LINE
  5
1714A
330
1A
100
AcDbEntity
  8
_2-4_PARTS
  6
CONTINUOUS
100
AcDbLine
 10
-1183.660674750417
 20
1790.845136099817
 30
0.0
 11
-1186.660674750417
 21
1790.845136099817
 31
0.0
  0
LINE
  5
1714B
330
1A
100
AcDbEntity
  8
_2-4_PARTS
  6
CONTINUOUS
100
AcDbLine
 10
-1183.660674750417
 20
1790.175136099817
 30
0.0
 11
-1186.660674750417
 21
1790.175136099817
 31
0.0
  0
LINE
  5
1714C
330
1A
100
AcDbEntity
  8
_2-4_PARTS
  6
CONTINUOUS
100
AcDbLine
 10
-1183.660674750417
 20
1789.575136099817
 30
0.0
 11
-1186.660674750417
 21
1789.575136099817
 31
0.0
  0
LINE
  5
1714D
330
1A
100
AcDbEntity
  8
_2-4_PARTS
  6
CONTINUOUS
100
AcDbLine
 10
-1187.860674750417
 20
1788.475136099816
 30
0.0
 11
-1182.460674750417
 21
1788.475136099816
 31
0.0
  0
CIRCLE
  5
1714E
330
1A
100
AcDbEntity
  8
ZISSEN1
100
AcDbCircle
 10
-1183.660675197518
 20
1783.280136099817
 30
0.0
 40
1.75
  0
LINE
  5
1714F
330
1A
100
AcDbEntity
  8
_2-4_PARTS
  6
CONTINUOUS
100
AcDbLine
 10
-1190.710675197518
 20
1902.280136099816
 30
0.0
 11
-1188.610675197518
 21
1902.280136099816
 31
0.0
  0
LINE
  5
17150
330
1A
100
AcDbEntity
  8
_2-4_PARTS
  6
CONTINUOUS
100
AcDbLine
 10
-1190.810675197518
 20
1904.080136099817
 30
0.0
 11
-1190.810675197518
 21
1903.880136099817
 31
0.0
  0
LINE
  5
17151
330
1A
100
AcDbEntity
  8
_2-4_PARTS
  6
CONTINUOUS
100
AcDbLine
 10
-1192.010675197517
 20
1904.080136099817
 30
0.0
 11
-1192.010675197517
 21
1903.880136099817
 31
0.0
  0
LINE
  5
17152
330
1A
100
AcDbEntity
  8
_2-4_PARTS
  6
CONTINUOUS
100
AcDbLine
 10
-1192.110675197517
 20
1902.080136099817
 30
0.0
 11
-1190.710675197518
 21
1902.080136099817
 31
0.0
  0
LINE
  5
17153
330
1A
100
AcDbEntity
  8
_2-4_PARTS
  6
CONTINUOUS
100
AcDbLine
 10
-1190.810675197518
 20
1904.080136099817
 30
0.0
 11
-1191.190675197517
 21
1905.780136099816
 31
0.0
  0
LINE
  5
17154
330
1A
100
AcDbEntity
  8
_2-4_PARTS
  6
CONTINUOUS
100
AcDbLine
 10
-1192.010675197517
 20
1904.080136099817
 30
0.0
 11
-1191.630675197518
 21
1905.780136099816
 31
0.0
  0
LINE
  5
17155
330
1A
100
AcDbEntity
  8
_2-4_PARTS
  6
CONTINUOUS
100
AcDbLine
 10
-1191.630675197518
 20
1905.780136099816
 30
0.0
 11
-1191.190675197517
 21
1905.780136099816
 31
0.0
  0
LINE
  5
17156
330
1A
100
AcDbEntity
  8
_2-4_PARTS
  6
CONTINUOUS
100
AcDbLine
 10
-1192.110675197517
 20
1900.780136099816
 30
0.0
 11
-1190.710675197518
 21
1900.780136099816
 31
0.0
  0
LINE
  5
17157
330
1A
100
AcDbEntity
  8
_2-4_PARTS
  6
CONTINUOUS
100
AcDbLine
 10
-1190.710675197518
 20
1902.280136099816
 30
0.0
 11
-1190.710675197518
 21
1900.780136099816
 31
0.0
  0
LINE
  5
17158
330
1A
100
AcDbEntity
  8
_2-4_PARTS
  6
CONTINUOUS
100
AcDbLine
 10
-1192.110675197517
 20
1902.280136099816
 30
0.0
 11
-1192.110675197517
 21
1900.780136099816
 31
0.0
  0
ARC
  5
17159
330
1A
100
AcDbEntity
  8
_2-4_PARTS
  6
CONTINUOUS
100
AcDbCircle
 10
-1190.970675197517
 20
1854.350136099817
 30
0.0
 40
0.2
100
AcDbArc
 50
0.0
 51
90.0
  0
LINE
  5
1715A
330
1A
100
AcDbEntity
  8
_2-4_PARTS
  6
CONTINUOUS
100
AcDbLine
 10
-1191.050675197517
 20
1853.270136099817
 30
0.0
 11
-1190.770675197518
 21
1853.270136099817
 31
0.0
  0
LINE
  5
1715B
330
1A
100
AcDbEntity
  8
_2-4_PARTS
  6
CONTINUOUS
100
AcDbLine
 10
-1190.770675197518
 20
1854.350136099817
 30
0.0
 11
-1191.050675197517
 21
1854.350136099817
 31
0.0
  0
LINE
  5
1715C
330
1A
100
AcDbEntity
  8
_2-4_PARTS
  6
CONTINUOUS
100
AcDbLine
 10
-1191.050675197517
 20
1854.350136099817
 30
0.0
 11
-1191.050675197517
 21
1854.550136099817
 31
0.0
  0
LINE
  5
1715D
330
1A
100
AcDbEntity
  8
_2-4_PARTS
  6
CONTINUOUS
100
AcDbLine
 10
-1191.050675197517
 20
1852.790136099817
 30
0.0
 11
-1191.050675197517
 21
1853.270136099817
 31
0.0
  0
LINE
  5
1715E
330
1A
100
AcDbEntity
  8
_2-4_PARTS
  6
CONTINUOUS
100
AcDbLine
 10
-1191.050675197517
 20
1852.790136099817
 30
0.0
 11
-1190.770675197518
 21
1852.790136099817
 31
0.0
  0
LINE
  5
1715F
330
1A
100
AcDbEntity
  8
_2-4_PARTS
  6
CONTINUOUS
100
AcDbLine
 10
-1190.570675197518
 20
1855.230136099817
 30
0.0
 11
-1190.770675197518
 21
1855.030136099817
 31
0.0
  0
LINE
  5
17160
330
1A
100
AcDbEntity
  8
_2-4_PARTS
  6
CONTINUOUS
100
AcDbLine
 10
-1190.570675197518
 20
1852.590136099817
 30
0.0
 11
-1190.770675197518
 21
1852.790136099817
 31
0.0
  0
LINE
  5
17161
330
1A
100
AcDbEntity
  8
_2-4_PARTS
  6
CONTINUOUS
100
AcDbLine
 10
-1190.770675197518
 20
1852.790136099817
 30
0.0
 11
-1190.770675197518
 21
1855.030136099817
 31
0.0
  0
LINE
  5
17162
330
1A
100
AcDbEntity
  8
_2-4_PARTS
  6
CONTINUOUS
100
AcDbLine
 10
-1190.570675197518
 20
1852.590136099817
 30
0.0
 11
-1190.570675197518
 21
1855.230136099817
 31
0.0
  0
LINE
  5
17163
330
1A
100
AcDbEntity
  8
_2-4_PARTS
  6
CONTINUOUS
100
AcDbLine
 10
-1191.110675197518
 20
1851.160136099817
 30
0.0
 11
-1191.110675197518
 21
1851.760136099817
 31
0.0
  0
LINE
  5
17164
330
1A
100
AcDbEntity
  8
_2-4_PARTS
  6
CONTINUOUS
100
AcDbLine
 10
-1190.110675197517
 20
1851.160136099817
 30
0.0
 11
-1190.110675197517
 21
1851.760136099817
 31
0.0
  0
LINE
  5
17165
330
1A
100
AcDbEntity
  8
_2-4_PARTS
  6
CONTINUOUS
100
AcDbLine
 10
-1190.970675197517
 20
1854.550136099817
 30
0.0
 11
-1191.850675197517
 21
1854.550136099817
 31
0.0
  0
ARC
  5
17166
330
1A
100
AcDbEntity
  8
_2-4_PARTS
  6
CONTINUOUS
100
AcDbCircle
 10
-1191.850675197517
 20
1854.350136099817
 30
0.0
 40
0.2
100
AcDbArc
 50
90.0
 51
180.0
  0
LINE
  5
17167
330
1A
100
AcDbEntity
  8
_2-4_PARTS
  6
CONTINUOUS
100
AcDbLine
 10
-1191.570675197517
 20
1853.625691655372
 30
0.0
 11
-1191.570675197517
 21
1852.590136099817
 31
0.0
  0
LINE
  5
17168
330
1A
100
AcDbEntity
  8
_2-4_PARTS
  6
CONTINUOUS
100
AcDbLine
 10
-1191.250675197518
 20
1852.590136099817
 30
0.0
 11
-1191.250675197518
 21
1853.625691655372
 31
0.0
  0
LINE
  5
17169
330
1A
100
AcDbEntity
  8
_2-4_PARTS
  6
CONTINUOUS
100
AcDbLine
 10
-1192.050675197517
 20
1853.270136099817
 30
0.0
 11
-1191.770675197518
 21
1853.270136099817
 31
0.0
  0
LINE
  5
1716A
330
1A
100
AcDbEntity
  8
_2-4_PARTS
  6
CONTINUOUS
100
AcDbLine
 10
-1191.770675197518
 20
1854.350136099817
 30
0.0
 11
-1192.050675197517
 21
1854.350136099817
 31
0.0
  0
LINE
  5
1716B
330
1A
100
AcDbEntity
  8
_2-4_PARTS
  6
CONTINUOUS
100
AcDbLine
 10
-1191.770675197518
 20
1854.550136099817
 30
0.0
 11
-1191.770675197518
 21
1854.350136099817
 31
0.0
  0
LINE
  5
1716C
330
1A
100
AcDbEntity
  8
_2-4_PARTS
  6
CONTINUOUS
100
AcDbLine
 10
-1191.770675197518
 20
1853.270136099817
 30
0.0
 11
-1191.770675197518
 21
1852.790136099817
 31
0.0
  0
LINE
  5
1716D
330
1A
100
AcDbEntity
  8
_2-4_PARTS
  6
CONTINUOUS
100
AcDbLine
 10
-1190.770675197518
 20
1854.350136099817
 30
0.0
 11
-1191.410675197518
 21
1853.910136099817
 31
0.0
  0
LINE
  5
1716E
330
1A
100
AcDbEntity
  8
_2-4_PARTS
  6
CONTINUOUS
100
AcDbLine
 10
-1192.050675197517
 20
1854.350136099817
 30
0.0
 11
-1191.410675197518
 21
1853.910136099817
 31
0.0
  0
LINE
  5
1716F
330
1A
100
AcDbEntity
  8
_2-4_PARTS
  6
CONTINUOUS
100
AcDbLine
 10
-1191.770675197518
 20
1854.350136099817
 30
0.0
 11
-1191.410675197518
 21
1853.910136099817
 31
0.0
  0
LINE
  5
17170
330
1A
100
AcDbEntity
  8
_2-4_PARTS
  6
CONTINUOUS
100
AcDbLine
 10
-1191.770675197518
 20
1854.550136099817
 30
0.0
 11
-1191.410675197518
 21
1853.910136099817
 31
0.0
  0
LINE
  5
17171
330
1A
100
AcDbEntity
  8
_2-4_PARTS
  6
CONTINUOUS
100
AcDbLine
 10
-1191.410675197518
 20
1853.910136099817
 30
0.0
 11
-1191.050675197517
 21
1854.550136099817
 31
0.0
  0
LINE
  5
17172
330
1A
100
AcDbEntity
  8
_2-4_PARTS
  6
CONTINUOUS
100
AcDbLine
 10
-1191.410675197518
 20
1853.910136099817
 30
0.0
 11
-1191.050675197517
 21
1854.350136099817
 31
0.0
  0
LINE
  5
17173
330
1A
100
AcDbEntity
  8
_2-4_PARTS
  6
CONTINUOUS
100
AcDbLine
 10
-1191.410675197518
 20
1853.910136099817
 30
0.0
 11
-1192.050675197517
 21
1853.270136099817
 31
0.0
  0
LINE
  5
17174
330
1A
100
AcDbEntity
  8
_2-4_PARTS
  6
CONTINUOUS
100
AcDbLine
 10
-1191.410675197518
 20
1853.910136099817
 30
0.0
 11
-1191.770675197518
 21
1853.270136099817
 31
0.0
  0
LINE
  5
17175
330
1A
100
AcDbEntity
  8
_2-4_PARTS
  6
CONTINUOUS
100
AcDbLine
 10
-1191.410675197518
 20
1853.910136099817
 30
0.0
 11
-1191.050675197517
 21
1853.270136099817
 31
0.0
  0
LINE
  5
17176
330
1A
100
AcDbEntity
  8
_2-4_PARTS
  6
CONTINUOUS
100
AcDbLine
 10
-1190.770675197518
 20
1853.270136099817
 30
0.0
 11
-1191.410675197518
 21
1853.910136099817
 31
0.0
  0
LINE
  5
17177
330
1A
100
AcDbEntity
  8
_2-4_PARTS
  6
CONTINUOUS
100
AcDbLine
 10
-1192.050675197517
 20
1854.550136099817
 30
0.0
 11
-1192.050675197517
 21
1853.270136099817
 31
0.0
  0
LINE
  5
17178
330
1A
100
AcDbEntity
  8
_2-4_PARTS
  6
CONTINUOUS
100
AcDbLine
 10
-1191.570675197517
 20
1852.590136099817
 30
0.0
 11
-1191.770675197518
 21
1852.790136099817
 31
0.0
  0
LINE
  5
17179
330
1A
100
AcDbEntity
  8
_2-4_PARTS
  6
CONTINUOUS
100
AcDbLine
 10
-1191.050675197517
 20
1852.790136099817
 30
0.0
 11
-1191.250675197518
 21
1852.590136099817
 31
0.0
  0
LINE
  5
1717A
330
1A
100
AcDbEntity
  8
_2-4_PARTS
  6
CONTINUOUS
100
AcDbLine
 10
-1192.050675197517
 20
1852.790136099817
 30
0.0
 11
-1191.770675197518
 21
1852.790136099817
 31
0.0
  0
LINE
  5
1717B
330
1A
100
AcDbEntity
  8
_2-4_PARTS
  6
CONTINUOUS
100
AcDbLine
 10
-1192.250675197517
 20
1852.590136099817
 30
0.0
 11
-1191.570675197517
 21
1852.590136099817
 31
0.0
  0
LINE
  5
1717C
330
1A
100
AcDbEntity
  8
_2-4_PARTS
  6
CONTINUOUS
100
AcDbLine
 10
-1191.250675197518
 20
1852.590136099817
 30
0.0
 11
-1190.570675197518
 21
1852.590136099817
 31
0.0
  0
LINE
  5
1717D
330
1A
100
AcDbEntity
  8
_2-4_PARTS
  6
CONTINUOUS
100
AcDbLine
 10
-1192.050675197517
 20
1855.030136099817
 30
0.0
 11
-1192.250675197517
 21
1855.230136099817
 31
0.0
  0
LINE
  5
1717E
330
1A
100
AcDbEntity
  8
_2-4_PARTS
  6
CONTINUOUS
100
AcDbLine
 10
-1192.050675197517
 20
1852.790136099817
 30
0.0
 11
-1192.250675197517
 21
1852.590136099817
 31
0.0
  0
LINE
  5
1717F
330
1A
100
AcDbEntity
  8
_2-4_PARTS
  6
CONTINUOUS
100
AcDbLine
 10
-1190.770675197518
 20
1855.030136099817
 30
0.0
 11
-1192.050675197517
 21
1855.030136099817
 31
0.0
  0
LINE
  5
17180
330
1A
100
AcDbEntity
  8
_2-4_PARTS
  6
CONTINUOUS
100
AcDbLine
 10
-1192.050675197517
 20
1855.030136099817
 30
0.0
 11
-1192.050675197517
 21
1852.790136099817
 31
0.0
  0
LINE
  5
17181
330
1A
100
AcDbEntity
  8
_2-4_PARTS
  6
CONTINUOUS
100
AcDbLine
 10
-1192.250675197517
 20
1855.230136099817
 30
0.0
 11
-1192.250675197517
 21
1852.590136099817
 31
0.0
  0
LINE
  5
17182
330
1A
100
AcDbEntity
  8
_2-4_PARTS
  6
CONTINUOUS
100
AcDbLine
 10
-1190.570675197518
 20
1855.230136099817
 30
0.0
 11
-1192.250675197517
 21
1855.230136099817
 31
0.0
  0
LINE
  5
17183
330
1A
100
AcDbEntity
  8
_2-4_PARTS
  6
CONTINUOUS
100
AcDbLine
 10
-1191.960675197518
 20
1850.520136099817
 30
0.0
 11
-1191.960675197518
 21
1851.160136099817
 31
0.0
  0
LINE
  5
17184
330
1A
100
AcDbEntity
  8
_2-4_PARTS
  6
CONTINUOUS
100
AcDbLine
 10
-1189.310675197517
 20
1858.160136099817
 30
0.0
 11
-1189.310675197517
 21
1851.760136099817
 31
0.0
  0
LINE
  5
17185
330
1A
100
AcDbEntity
  8
_2-4_PARTS
  6
CONTINUOUS
100
AcDbLine
 10
-1191.055675197518
 20
1786.280136099817
 30
0.0
 11
-1190.455675197517
 21
1786.280136099817
 31
0.0
  0
LINE
  5
17186
330
1A
100
AcDbEntity
  8
_2-4_PARTS
  6
CONTINUOUS
100
AcDbLine
 10
-1192.325675197517
 20
1786.280136099817
 30
0.0
 11
-1191.725675197518
 21
1786.280136099817
 31
0.0
  0
LINE
  5
17187
330
1A
100
AcDbEntity
  8
_2-4_PARTS
  6
CONTINUOUS
100
AcDbLine
 10
-1190.955675197518
 20
1787.580136099817
 30
0.0
 11
-1190.555675197517
 21
1787.580136099817
 31
0.0
  0
LINE
  5
17188
330
1A
100
AcDbEntity
  8
_2-4_PARTS
  6
CONTINUOUS
100
AcDbLine
 10
-1190.555675197517
 20
1787.480136099817
 30
0.0
 11
-1190.555675197517
 21
1787.580136099817
 31
0.0
  0
LINE
  5
17189
330
1A
100
AcDbEntity
  8
_2-4_PARTS
  6
CONTINUOUS
100
AcDbLine
 10
-1190.955675197518
 20
1787.580136099817
 30
0.0
 11
-1190.955675197518
 21
1787.480136099817
 31
0.0
  0
LINE
  5
1718A
330
1A
100
AcDbEntity
  8
_2-4_PARTS
  6
CONTINUOUS
100
AcDbLine
 10
-1192.225675197517
 20
1787.580136099817
 30
0.0
 11
-1191.825675197518
 21
1787.580136099817
 31
0.0
  0
LINE
  5
1718B
330
1A
100
AcDbEntity
  8
_2-4_PARTS
  6
CONTINUOUS
100
AcDbLine
 10
-1191.825675197518
 20
1787.480136099817
 30
0.0
 11
-1191.825675197518
 21
1787.580136099817
 31
0.0
  0
LINE
  5
1718C
330
1A
100
AcDbEntity
  8
_2-4_PARTS
  6
CONTINUOUS
100
AcDbLine
 10
-1192.225675197517
 20
1787.580136099817
 30
0.0
 11
-1192.225675197517
 21
1787.480136099817
 31
0.0
  0
LINE
  5
1718D
330
1A
100
AcDbEntity
  8
_2-4_PARTS
  6
CONTINUOUS
100
AcDbLine
 10
-1191.055675197518
 20
1783.280136099817
 30
0.0
 11
-1190.455675197517
 21
1783.280136099817
 31
0.0
  0
LINE
  5
1718E
330
1A
100
AcDbEntity
  8
_2-4_PARTS
  6
CONTINUOUS
100
AcDbLine
 10
-1192.325675197517
 20
1783.280136099817
 30
0.0
 11
-1191.725675197518
 21
1783.280136099817
 31
0.0
  0
LINE
  5
1718F
330
1A
100
AcDbEntity
  8
_2-4_PARTS
  6
CONTINUOUS
100
AcDbLine
 10
-1190.555675197517
 20
1781.980136099817
 30
0.0
 11
-1190.555675197517
 21
1782.080136099817
 31
0.0
  0
LINE
  5
17190
330
1A
100
AcDbEntity
  8
_2-4_PARTS
  6
CONTINUOUS
100
AcDbLine
 10
-1190.955675197518
 20
1781.980136099817
 30
0.0
 11
-1190.555675197517
 21
1781.980136099817
 31
0.0
  0
LINE
  5
17191
330
1A
100
AcDbEntity
  8
_2-4_PARTS
  6
CONTINUOUS
100
AcDbLine
 10
-1190.955675197518
 20
1782.080136099817
 30
0.0
 11
-1190.955675197518
 21
1781.980136099817
 31
0.0
  0
LINE
  5
17192
330
1A
100
AcDbEntity
  8
_2-4_PARTS
  6
CONTINUOUS
100
AcDbLine
 10
-1191.825675197518
 20
1781.980136099817
 30
0.0
 11
-1191.825675197518
 21
1782.080136099817
 31
0.0
  0
LINE
  5
17193
330
1A
100
AcDbEntity
  8
_2-4_PARTS
  6
CONTINUOUS
100
AcDbLine
 10
-1192.225675197517
 20
1781.980136099817
 30
0.0
 11
-1191.825675197518
 21
1781.980136099817
 31
0.0
  0
LINE
  5
17194
330
1A
100
AcDbEntity
  8
_2-4_PARTS
  6
CONTINUOUS
100
AcDbLine
 10
-1192.225675197517
 20
1782.080136099817
 30
0.0
 11
-1192.225675197517
 21
1781.980136099817
 31
0.0
  0
LINE
  5
17195
330
1A
100
AcDbEntity
  8
_2-4_PARTS
  6
CONTINUOUS
100
AcDbLine
 10
-1190.455675197517
 20
1783.280136099817
 30
0.0
 11
-1190.455675197517
 21
1786.280136099817
 31
0.0
  0
LINE
  5
17196
330
1A
100
AcDbEntity
  8
_2-4_PARTS
  6
CONTINUOUS
100
AcDbLine
 10
-1191.055675197518
 20
1783.280136099817
 30
0.0
 11
-1191.055675197518
 21
1786.280136099817
 31
0.0
  0
LINE
  5
17197
330
1A
100
AcDbEntity
  8
_2-4_PARTS
  6
CONTINUOUS
100
AcDbLine
 10
-1191.725675197518
 20
1783.280136099817
 30
0.0
 11
-1191.725675197518
 21
1786.280136099817
 31
0.0
  0
LINE
  5
17198
330
1A
100
AcDbEntity
  8
_2-4_PARTS
  6
CONTINUOUS
100
AcDbLine
 10
-1192.325675197517
 20
1783.280136099817
 30
0.0
 11
-1192.325675197517
 21
1786.280136099817
 31
0.0
  0
LINE
  5
17199
330
1A
100
AcDbEntity
  8
_2-4_PARTS
  6
CONTINUOUS
100
AcDbLine
 10
-1189.355675197518
 20
1787.480136099817
 30
0.0
 11
-1189.355675197518
 21
1782.080136099817
 31
0.0
  0
LINE
  5
1719A
330
1A
100
AcDbEntity
  8
_2-4_PARTS
  6
CONTINUOUS
100
AcDbLine
 10
-1188.610675197518
 20
1891.780136099816
 30
0.0
 11
-1188.610675197518
 21
1902.280136099816
 31
0.0
  0
LINE
  5
1719B
330
1A
100
AcDbEntity
  8
_2-4_PARTS
  6
CONTINUOUS
100
AcDbLine
 10
-1188.610675197517
 20
1858.760136099817
 30
0.0
 11
-1188.610675197517
 21
1851.160136099817
 31
0.0
  0
LINE
  5
1719C
330
1A
100
AcDbEntity
  8
_2-4_PARTS
  6
CONTINUOUS
100
AcDbLine
 10
-1186.660674750417
 20
1793.385136099817
 30
0.0
 11
-1186.660674750417
 21
1793.985136099817
 31
0.0
  0
LINE
  5
1719D
330
1A
100
AcDbEntity
  8
_2-4_PARTS
  6
CONTINUOUS
100
AcDbLine
 10
-1186.660674750417
 20
1792.115136099817
 30
0.0
 11
-1186.660674750417
 21
1792.715136099817
 31
0.0
  0
LINE
  5
1719E
330
1A
100
AcDbEntity
  8
_2-4_PARTS
  6
CONTINUOUS
100
AcDbLine
 10
-1187.960674750417
 20
1793.485136099817
 30
0.0
 11
-1187.960674750417
 21
1793.885136099817
 31
0.0
  0
LINE
  5
1719F
330
1A
100
AcDbEntity
  8
_2-4_PARTS
  6
CONTINUOUS
100
AcDbLine
 10
-1187.860674750417
 20
1793.885136099817
 30
0.0
 11
-1187.960674750417
 21
1793.885136099817
 31
0.0
  0
LINE
  5
171A0
330
1A
100
AcDbEntity
  8
_2-4_PARTS
  6
CONTINUOUS
100
AcDbLine
 10
-1187.960674750417
 20
1793.485136099817
 30
0.0
 11
-1187.860674750417
 21
1793.485136099817
 31
0.0
  0
LINE
  5
171A1
330
1A
100
AcDbEntity
  8
_2-4_PARTS
  6
CONTINUOUS
100
AcDbLine
 10
-1187.960674750417
 20
1792.215136099817
 30
0.0
 11
-1187.960674750417
 21
1792.615136099817
 31
0.0
  0
LINE
  5
171A2
330
1A
100
AcDbEntity
  8
_2-4_PARTS
  6
CONTINUOUS
100
AcDbLine
 10
-1187.860674750417
 20
1792.615136099817
 30
0.0
 11
-1187.960674750417
 21
1792.615136099817
 31
0.0
  0
LINE
  5
171A3
330
1A
100
AcDbEntity
  8
_2-4_PARTS
  6
CONTINUOUS
100
AcDbLine
 10
-1187.960674750417
 20
1792.215136099817
 30
0.0
 11
-1187.860674750417
 21
1792.215136099817
 31
0.0
  0
LINE
  5
171A4
330
1A
100
AcDbEntity
  8
_2-4_PARTS
  6
CONTINUOUS
100
AcDbLine
 10
-1186.660674750417
 20
1790.845136099817
 30
0.0
 11
-1186.660674750417
 21
1791.445136099817
 31
0.0
  0
LINE
  5
171A5
330
1A
100
AcDbEntity
  8
_2-4_PARTS
  6
CONTINUOUS
100
AcDbLine
 10
-1186.660674750417
 20
1789.575136099817
 30
0.0
 11
-1186.660674750417
 21
1790.175136099817
 31
0.0
  0
LINE
  5
171A6
330
1A
100
AcDbEntity
  8
_2-4_PARTS
  6
CONTINUOUS
100
AcDbLine
 10
-1187.960674750417
 20
1790.945136099817
 30
0.0
 11
-1187.960674750417
 21
1791.345136099817
 31
0.0
  0
LINE
  5
171A7
330
1A
100
AcDbEntity
  8
_2-4_PARTS
  6
CONTINUOUS
100
AcDbLine
 10
-1187.860674750417
 20
1791.345136099817
 30
0.0
 11
-1187.960674750417
 21
1791.345136099817
 31
0.0
  0
LINE
  5
171A8
330
1A
100
AcDbEntity
  8
_2-4_PARTS
  6
CONTINUOUS
100
AcDbLine
 10
-1187.960674750417
 20
1790.945136099817
 30
0.0
 11
-1187.860674750417
 21
1790.945136099817
 31
0.0
  0
LINE
  5
171A9
330
1A
100
AcDbEntity
  8
_2-4_PARTS
  6
CONTINUOUS
100
AcDbLine
 10
-1187.960674750417
 20
1789.675136099817
 30
0.0
 11
-1187.960674750417
 21
1790.075136099817
 31
0.0
  0
LINE
  5
171AA
330
1A
100
AcDbEntity
  8
_2-4_PARTS
  6
CONTINUOUS
100
AcDbLine
 10
-1187.860674750417
 20
1790.075136099817
 30
0.0
 11
-1187.960674750417
 21
1790.075136099817
 31
0.0
  0
LINE
  5
171AB
330
1A
100
AcDbEntity
  8
_2-4_PARTS
  6
CONTINUOUS
100
AcDbLine
 10
-1187.960674750417
 20
1789.675136099817
 30
0.0
 11
-1187.860674750417
 21
1789.675136099817
 31
0.0
  0
LINE
  5
171AC
330
1A
100
AcDbEntity
  8
_2-4_PARTS
  6
CONTINUOUS
100
AcDbLine
 10
-1187.860674750417
 20
1788.475136099816
 30
0.0
 11
-1187.860674750417
 21
1795.085136099817
 31
0.0
  0
ARC
  5
171AD
330
1A
100
AcDbEntity
  8
ZISSEN1
100
AcDbCircle
 10
-1180.160675197518
 20
1862.780136099817
 30
0.0
 40
1.0
100
AcDbArc
 50
180.0
 51
270.0
  0
ARC
  5
171AE
330
1A
100
AcDbEntity
  8
ZISSEN1
100
AcDbCircle
 10
-1180.160675197518
 20
1779.780136099817
 30
0.0
 40
1.0
100
AcDbArc
 50
90.0
 51
180.0
  0
LINE
  5
171AF
330
1A
100
AcDbEntity
  8
ZISSEN1
100
AcDbLine
 10
-1181.161174658465
 20
1903.880136099817
 30
0.0
 11
-1181.161174658465
 21
1902.280136099816
 31
0.0
  0
LINE
  5
171B0
330
1A
100
AcDbEntity
  8
ZISSEN1
100
AcDbLine
 10
-1181.161174658465
 20
1903.880136099817
 30
0.0
 11
-1181.161174658465
 21
1902.280136099816
 31
0.0
  0
LINE
  5
171B1
330
1A
100
AcDbEntity
  8
CL1
100
AcDbLine
 10
-1183.660675197518
 20
1857.280136099817
 30
0.0
 11
-1183.660675197518
 21
1861.280136099817
 31
0.0
  0
LINE
  5
171B4
330
1A
100
AcDbEntity
  8
_2-4_PARTS
  6
CONTINUOUS
100
AcDbLine
 10
-1182.910674750417
 20
1826.305136099817
 30
0.0
 11
-1182.910674750417
 21
1825.405136099817
 31
0.0
  0
LINE
  5
171B5
330
1A
100
AcDbEntity
  8
_2-4_PARTS
  6
CONTINUOUS
100
AcDbLine
 10
-1182.910674750417
 20
1826.305136099817
 30
0.0
 11
-1183.260674750417
 21
1826.305136099817
 31
0.0
  0
LINE
  5
171B6
330
1A
100
AcDbEntity
  8
_2-4_PARTS
  6
CONTINUOUS
100
AcDbLine
 10
-1182.910674750417
 20
1825.405136099817
 30
0.0
 11
-1183.260674750417
 21
1825.405136099817
 31
0.0
  0
LINE
  5
171B7
330
1A
100
AcDbEntity
  8
_2-4_PARTS
  6
CONTINUOUS
100
AcDbLine
 10
-1182.910674750417
 20
1815.005136099816
 30
0.0
 11
-1183.260674750417
 21
1815.005136099816
 31
0.0
  0
LINE
  5
171B8
330
1A
100
AcDbEntity
  8
_2-4_PARTS
  6
CONTINUOUS
100
AcDbLine
 10
-1183.260674750417
 20
1831.005136099816
 30
0.0
 11
-1183.260674750417
 21
1820.705136099817
 31
0.0
  0
LINE
  5
171B9
330
1A
100
AcDbEntity
  8
_2-4_PARTS
  6
CONTINUOUS
100
AcDbLine
 10
-1182.910674750417
 20
1814.105136099817
 30
0.0
 11
-1183.260674750417
 21
1814.105136099817
 31
0.0
  0
LINE
  5
171BA
330
1A
100
AcDbEntity
  8
_2-4_PARTS
  6
CONTINUOUS
100
AcDbLine
 10
-1182.910674750417
 20
1803.705136099816
 30
0.0
 11
-1183.260674750417
 21
1803.705136099816
 31
0.0
  0
LINE
  5
171BB
330
1A
100
AcDbEntity
  8
_2-4_PARTS
  6
CONTINUOUS
100
AcDbLine
 10
-1182.910674750417
 20
1802.805136099816
 30
0.0
 11
-1183.260674750417
 21
1802.805136099816
 31
0.0
  0
LINE
  5
171BC
330
1A
100
AcDbEntity
  8
_2-4_PARTS
  6
CONTINUOUS
100
AcDbLine
 10
-1183.660674750417
 20
1793.385136099817
 30
0.0
 11
-1183.660674750417
 21
1793.985136099817
 31
0.0
  0
LINE
  5
171BD
330
1A
100
AcDbEntity
  8
_2-4_PARTS
  6
CONTINUOUS
100
AcDbLine
 10
-1183.660674750417
 20
1792.115136099817
 30
0.0
 11
-1183.660674750417
 21
1792.715136099817
 31
0.0
  0
LINE
  5
171BE
330
1A
100
AcDbEntity
  8
_2-4_PARTS
  6
CONTINUOUS
100
AcDbLine
 10
-1182.360674750417
 20
1793.885136099817
 30
0.0
 11
-1182.460674750417
 21
1793.885136099817
 31
0.0
  0
LINE
  5
171BF
330
1A
100
AcDbEntity
  8
_2-4_PARTS
  6
CONTINUOUS
100
AcDbLine
 10
-1182.360674750417
 20
1793.485136099817
 30
0.0
 11
-1182.360674750417
 21
1793.885136099817
 31
0.0
  0
LINE
  5
171C0
330
1A
100
AcDbEntity
  8
_2-4_PARTS
  6
CONTINUOUS
100
AcDbLine
 10
-1182.460674750417
 20
1793.485136099817
 30
0.0
 11
-1182.360674750417
 21
1793.485136099817
 31
0.0
  0
LINE
  5
171C1
330
1A
100
AcDbEntity
  8
_2-4_PARTS
  6
CONTINUOUS
100
AcDbLine
 10
-1182.360674750417
 20
1792.615136099817
 30
0.0
 11
-1182.460674750417
 21
1792.615136099817
 31
0.0
  0
LINE
  5
171C2
330
1A
100
AcDbEntity
  8
_2-4_PARTS
  6
CONTINUOUS
100
AcDbLine
 10
-1182.360674750417
 20
1792.215136099817
 30
0.0
 11
-1182.360674750417
 21
1792.615136099817
 31
0.0
  0
LINE
  5
171C3
330
1A
100
AcDbEntity
  8
_2-4_PARTS
  6
CONTINUOUS
100
AcDbLine
 10
-1182.460674750417
 20
1792.215136099817
 30
0.0
 11
-1182.360674750417
 21
1792.215136099817
 31
0.0
  0
LINE
  5
171C4
330
1A
100
AcDbEntity
  8
_2-4_PARTS
  6
CONTINUOUS
100
AcDbLine
 10
-1182.910674750417
 20
1803.705136099816
 30
0.0
 11
-1182.910674750417
 21
1802.805136099816
 31
0.0
  0
LINE
  5
171C5
330
1A
100
AcDbEntity
  8
_2-4_PARTS
  6
CONTINUOUS
100
AcDbLine
 10
-1183.260674750417
 20
1808.405136099817
 30
0.0
 11
-1183.260674750417
 21
1798.105136099817
 31
0.0
  0
LINE
  5
171C6
330
1A
100
AcDbEntity
  8
_2-4_PARTS
  6
CONTINUOUS
100
AcDbLine
 10
-1183.660674750417
 20
1790.845136099817
 30
0.0
 11
-1183.660674750417
 21
1791.445136099817
 31
0.0
  0
LINE
  5
171C7
330
1A
100
AcDbEntity
  8
_2-4_PARTS
  6
CONTINUOUS
100
AcDbLine
 10
-1183.660674750417
 20
1789.575136099817
 30
0.0
 11
-1183.660674750417
 21
1790.175136099817
 31
0.0
  0
LINE
  5
171C8
330
1A
100
AcDbEntity
  8
_2-4_PARTS
  6
CONTINUOUS
100
AcDbLine
 10
-1182.360674750417
 20
1791.345136099817
 30
0.0
 11
-1182.460674750417
 21
1791.345136099817
 31
0.0
  0
LINE
  5
171C9
330
1A
100
AcDbEntity
  8
_2-4_PARTS
  6
CONTINUOUS
100
AcDbLine
 10
-1182.360674750417
 20
1790.945136099817
 30
0.0
 11
-1182.360674750417
 21
1791.345136099817
 31
0.0
  0
LINE
  5
171CA
330
1A
100
AcDbEntity
  8
_2-4_PARTS
  6
CONTINUOUS
100
AcDbLine
 10
-1182.460674750417
 20
1790.945136099817
 30
0.0
 11
-1182.360674750417
 21
1790.945136099817
 31
0.0
  0
LINE
  5
171CB
330
1A
100
AcDbEntity
  8
_2-4_PARTS
  6
CONTINUOUS
100
AcDbLine
 10
-1182.360674750417
 20
1790.075136099817
 30
0.0
 11
-1182.460674750417
 21
1790.075136099817
 31
0.0
  0
LINE
  5
171CC
330
1A
100
AcDbEntity
  8
_2-4_PARTS
  6
CONTINUOUS
100
AcDbLine
 10
-1182.360674750417
 20
1789.675136099817
 30
0.0
 11
-1182.360674750417
 21
1790.075136099817
 31
0.0
  0
LINE
  5
171CD
330
1A
100
AcDbEntity
  8
_2-4_PARTS
  6
CONTINUOUS
100
AcDbLine
 10
-1182.460674750417
 20
1789.675136099817
 30
0.0
 11
-1182.360674750417
 21
1789.675136099817
 31
0.0
  0
LINE
  5
171CE
330
1A
100
AcDbEntity
  8
CL1
100
AcDbLine
 10
-1183.660675197518
 20
1781.280136099817
 30
0.0
 11
-1183.660675197518
 21
1785.280136099817
 31
0.0
  0
LINE
  5
171D1
330
1A
100
AcDbEntity
  8
_2-4_PARTS
  6
CONTINUOUS
100
AcDbLine
 10
-1182.460674750417
 20
1788.475136099816
 30
0.0
 11
-1182.460674750417
 21
1795.085136099817
 31
0.0
  0
LINE
  5
171D2
330
1A
100
AcDbEntity
  8
_2-4_PARTS
  6
CONTINUOUS
100
AcDbLine
 10
-1182.910674750417
 20
1815.005136099816
 30
0.0
 11
-1182.910674750417
 21
1814.105136099817
 31
0.0
  0
LINE
  5
171D3
330
1A
100
AcDbEntity
  8
_2-4_PARTS
  6
CONTINUOUS
100
AcDbLine
 10
-1183.260674750417
 20
1819.705136099817
 30
0.0
 11
-1183.260674750417
 21
1809.405136099817
 31
0.0
  0
LINE
  5
171D4
330
1A
100
AcDbEntity
  8
ZISSEN1
100
AcDbLine
 10
-1180.161174658465
 20
1903.880136099817
 30
0.0
 11
-1180.161174658465
 21
1902.280136099816
 31
0.0
  0
LINE
  5
171D5
330
1A
100
AcDbEntity
  8
ZISSEN1
100
AcDbLine
 10
-1180.160675197518
 20
1780.780136099817
 30
0.0
 11
-1180.160675197518
 21
1861.780136099817
 31
0.0
  0
LINE
  5
171D6
330
1A
100
AcDbEntity
  8
ZISSEN1
100
AcDbLine
 10
-1126.060675197518
 20
1861.780136099817
 30
0.0
 11
-1127.660675197518
 21
1861.780136099817
 31
0.0
  0
LINE
  5
171D7
330
1A
100
AcDbEntity
  8
ZISSEN1
100
AcDbLine
 10
-1126.060675197518
 20
1862.780136099817
 30
0.0
 11
-1127.660675197518
 21
1862.780136099817
 31
0.0
  0
LINE
  5
171D8
330
1A
100
AcDbEntity
  8
ZISSEN1
100
AcDbLine
 10
-1127.660675197518
 20
1779.780136099817
 30
0.0
 11
-1126.060675197518
 21
1779.780136099817
 31
0.0
  0
LINE
  5
171D9
330
1A
100
AcDbEntity
  8
ZISSEN1
100
AcDbLine
 10
-1126.060675197518
 20
1780.780136099817
 30
0.0
 11
-1127.660675197518
 21
1780.780136099817
 31
0.0
  0
LINE
  5
171DA
330
1A
100
AcDbEntity
  8
ZISSEN1
100
AcDbLine
 10
-1127.660675197518
 20
1780.780136099817
 30
0.0
 11
-1126.060675197518
 21
1780.780136099817
 31
0.0
  0
INSERT
  5
171DB
330
1A
100
AcDbEntity
  8
_2-4_PARTS
100
AcDbBlockReference
  2
-008-51067_C_1_
 10
-1143.285675197518
 20
1853.660136099817
 30
0.0
 42
-1.0
  0
LINE
  5
171DC
330
1A
100
AcDbEntity
  8
_2-4_PARTS
  6
CONTINUOUS
100
AcDbLine
 10
-1138.160675197518
 20
1858.760136099817
 30
0.0
 11
-1127.660675197518
 21
1858.760136099817
 31
0.0
  0
LINE
  5
171DD
330
1A
100
AcDbEntity
  8
_2-4_PARTS
  6
CONTINUOUS
100
AcDbLine
 10
-1138.160675197518
 20
1851.160136099817
 30
0.0
 11
-1127.660675197518
 21
1851.160136099817
 31
0.0
  0
LINE
  5
171DE
330
1A
100
AcDbEntity
  8
_2-4_PARTS
  6
CONTINUOUS
100
AcDbLine
 10
-1135.160675197518
 20
1850.660136099817
 30
0.0
 11
-1135.660675197518
 21
1850.660136099817
 31
0.0
  0
LINE
  5
171DF
330
1A
100
AcDbEntity
  8
_2-4_PARTS
  6
CONTINUOUS
100
AcDbLine
 10
-1130.160675197518
 20
1830.855136099817
 30
0.0
 11
-1138.160675197518
 21
1830.855136099817
 31
0.0
  0
LINE
  5
171E0
330
1A
100
AcDbEntity
  8
_2-4_PARTS
  6
CONTINUOUS
100
AcDbLine
 10
-1130.160675197518
 20
1819.555136099817
 30
0.0
 11
-1138.160675197518
 21
1819.555136099817
 31
0.0
  0
LINE
  5
171E1
330
1A
100
AcDbEntity
  8
_2-4_PARTS
  6
CONTINUOUS
100
AcDbLine
 10
-1130.160675197518
 20
1820.855136099816
 30
0.0
 11
-1138.160675197518
 21
1820.855136099816
 31
0.0
  0
LINE
  5
171E2
330
1A
100
AcDbEntity
  8
_2-4_PARTS
  6
CONTINUOUS
100
AcDbLine
 10
-1130.160675197518
 20
1808.255136099817
 30
0.0
 11
-1138.160675197518
 21
1808.255136099817
 31
0.0
  0
LINE
  5
171E3
330
1A
100
AcDbEntity
  8
_2-4_PARTS
  6
CONTINUOUS
100
AcDbLine
 10
-1130.160675197518
 20
1809.555136099817
 30
0.0
 11
-1138.160675197518
 21
1809.555136099817
 31
0.0
  0
LINE
  5
171E4
330
1A
100
AcDbEntity
  8
_2-4_PARTS
  6
CONTINUOUS
100
AcDbLine
 10
-1130.160675197518
 20
1798.255136099816
 30
0.0
 11
-1138.160675197518
 21
1798.255136099816
 31
0.0
  0
LINE
  5
171E5
330
1A
100
AcDbEntity
  8
_2-4_PARTS
  6
CONTINUOUS
100
AcDbLine
 10
-1135.660675197518
 20
1850.660136099817
 30
0.0
 11
-1137.660675197518
 21
1851.160136099817
 31
0.0
  0
LINE
  5
171E6
330
1A
100
AcDbEntity
  8
_2-4_PARTS
  6
CONTINUOUS
100
AcDbLine
 10
-1138.160675197518
 20
1851.160136099817
 30
0.0
 11
-1138.160675197518
 21
1858.760136099817
 31
0.0
  0
LINE
  5
171E7
330
1A
100
AcDbEntity
  8
_2-4_PARTS
  6
CONTINUOUS
100
AcDbLine
 10
-1138.160675197518
 20
1820.855136099816
 30
0.0
 11
-1138.160675197518
 21
1830.855136099817
 31
0.0
  0
LINE
  5
171E8
330
1A
100
AcDbEntity
  8
_2-4_PARTS
  6
CONTINUOUS
100
AcDbLine
 10
-1138.160675197518
 20
1798.255136099816
 30
0.0
 11
-1138.160675197518
 21
1808.255136099817
 31
0.0
  0
LINE
  5
171E9
330
1A
100
AcDbEntity
  8
_2-4_PARTS
  6
CONTINUOUS
100
AcDbLine
 10
-1138.160675197518
 20
1809.555136099817
 30
0.0
 11
-1138.160675197518
 21
1819.555136099817
 31
0.0
  0
LINE
  5
171EA
330
1A
100
AcDbEntity
  8
_2-4_PARTS
  6
CONTINUOUS
100
AcDbLine
 10
-1135.160675197518
 20
1851.160136099817
 30
0.0
 11
-1135.160675197518
 21
1850.660136099817
 31
0.0
  0
LINE
  5
171EB
330
1A
100
AcDbEntity
  8
_2-4_PARTS
  6
CONTINUOUS
100
AcDbLine
 10
-1127.660675197518
 20
1851.160136099817
 30
0.0
 11
-1127.660675197518
 21
1858.760136099817
 31
0.0
  0
LINE
  5
171EC
330
1A
100
AcDbEntity
  8
_2-4_PARTS
  6
CONTINUOUS
100
AcDbLine
 10
-1128.160675197518
 20
1831.005136099816
 30
0.0
 11
-1130.160675197518
 21
1831.005136099816
 31
0.0
  0
LINE
  5
171ED
330
1A
100
AcDbEntity
  8
_2-4_PARTS
  6
CONTINUOUS
100
AcDbLine
 10
-1127.660675197518
 20
1826.305136099817
 30
0.0
 11
-1128.160675197518
 21
1826.305136099817
 31
0.0
  0
LINE
  5
171EE
330
1A
100
AcDbEntity
  8
_2-4_PARTS
  6
CONTINUOUS
100
AcDbLine
 10
-1127.660675197518
 20
1825.405136099817
 30
0.0
 11
-1128.160675197518
 21
1825.405136099817
 31
0.0
  0
LINE
  5
171EF
330
1A
100
AcDbEntity
  8
_2-4_PARTS
  6
CONTINUOUS
100
AcDbLine
 10
-1127.660675197518
 20
1825.405136099817
 30
0.0
 11
-1127.660675197518
 21
1826.305136099817
 31
0.0
  0
LINE
  5
171F0
330
1A
100
AcDbEntity
  8
_2-4_PARTS
  6
CONTINUOUS
100
AcDbLine
 10
-1128.160675197518
 20
1820.705136099817
 30
0.0
 11
-1130.160675197518
 21
1820.705136099817
 31
0.0
  0
LINE
  5
171F1
330
1A
100
AcDbEntity
  8
_2-4_PARTS
  6
CONTINUOUS
100
AcDbLine
 10
-1127.660675197518
 20
1815.005136099816
 30
0.0
 11
-1128.160675197518
 21
1815.005136099816
 31
0.0
  0
LINE
  5
171F2
330
1A
100
AcDbEntity
  8
_2-4_PARTS
  6
CONTINUOUS
100
AcDbLine
 10
-1128.160675197518
 20
1819.705136099817
 30
0.0
 11
-1130.160675197518
 21
1819.705136099817
 31
0.0
  0
LINE
  5
171F3
330
1A
100
AcDbEntity
  8
_2-4_PARTS
  6
CONTINUOUS
100
AcDbLine
 10
-1130.160675197518
 20
1820.705136099817
 30
0.0
 11
-1130.160675197518
 21
1831.005136099816
 31
0.0
  0
LINE
  5
171F4
330
1A
100
AcDbEntity
  8
_2-4_PARTS
  6
CONTINUOUS
100
AcDbLine
 10
-1128.160675197518
 20
1820.705136099817
 30
0.0
 11
-1128.160675197518
 21
1831.005136099816
 31
0.0
  0
LINE
  5
171F5
330
1A
100
AcDbEntity
  8
_2-4_PARTS
  6
CONTINUOUS
100
AcDbLine
 10
-1127.660675197518
 20
1814.105136099817
 30
0.0
 11
-1128.160675197518
 21
1814.105136099817
 31
0.0
  0
LINE
  5
171F6
330
1A
100
AcDbEntity
  8
_2-4_PARTS
  6
CONTINUOUS
100
AcDbLine
 10
-1128.160675197518
 20
1809.405136099817
 30
0.0
 11
-1130.160675197518
 21
1809.405136099817
 31
0.0
  0
LINE
  5
171F7
330
1A
100
AcDbEntity
  8
_2-4_PARTS
  6
CONTINUOUS
100
AcDbLine
 10
-1127.660675197518
 20
1803.705136099816
 30
0.0
 11
-1128.160675197518
 21
1803.705136099816
 31
0.0
  0
LINE
  5
171F8
330
1A
100
AcDbEntity
  8
_2-4_PARTS
  6
CONTINUOUS
100
AcDbLine
 10
-1128.160675197518
 20
1808.405136099817
 30
0.0
 11
-1130.160675197518
 21
1808.405136099817
 31
0.0
  0
LINE
  5
171F9
330
1A
100
AcDbEntity
  8
_2-4_PARTS
  6
CONTINUOUS
100
AcDbLine
 10
-1127.660675197518
 20
1802.805136099816
 30
0.0
 11
-1128.160675197518
 21
1802.805136099816
 31
0.0
  0
LINE
  5
171FA
330
1A
100
AcDbEntity
  8
_2-4_PARTS
  6
CONTINUOUS
100
AcDbLine
 10
-1128.160675197518
 20
1798.105136099817
 30
0.0
 11
-1130.160675197518
 21
1798.105136099817
 31
0.0
  0
LINE
  5
171FB
330
1A
100
AcDbEntity
  8
_2-4_PARTS
  6
CONTINUOUS
100
AcDbLine
 10
-1128.560675197518
 20
1793.885136099817
 30
0.0
 11
-1128.560675197518
 21
1795.085136099817
 31
0.0
  0
LINE
  5
171FC
330
1A
100
AcDbEntity
  8
_2-4_PARTS
  6
CONTINUOUS
100
AcDbLine
 10
-1128.560675197518
 20
1792.615136099817
 30
0.0
 11
-1128.560675197518
 21
1793.485136099817
 31
0.0
  0
LINE
  5
171FD
330
1A
100
AcDbEntity
  8
_2-4_PARTS
  6
CONTINUOUS
100
AcDbLine
 10
-1127.760675197517
 20
1793.885136099817
 30
0.0
 11
-1127.760675197517
 21
1795.085136099817
 31
0.0
  0
LINE
  5
171FE
330
1A
100
AcDbEntity
  8
_2-4_PARTS
  6
CONTINUOUS
100
AcDbLine
 10
-1127.760675197517
 20
1792.615136099817
 30
0.0
 11
-1127.760675197517
 21
1793.485136099817
 31
0.0
  0
LINE
  5
171FF
330
1A
100
AcDbEntity
  8
_2-4_PARTS
  6
CONTINUOUS
100
AcDbLine
 10
-1130.160675197518
 20
1795.085136099817
 30
0.0
 11
-1127.760675197517
 21
1795.085136099817
 31
0.0
  0
LINE
  5
17200
330
1A
100
AcDbEntity
  8
_2-4_PARTS
  6
CONTINUOUS
100
AcDbLine
 10
-1128.660675197518
 20
1793.485136099817
 30
0.0
 11
-1128.660675197518
 21
1793.885136099817
 31
0.0
  0
LINE
  5
17201
330
1A
100
AcDbEntity
  8
_2-4_PARTS
  6
CONTINUOUS
100
AcDbLine
 10
-1127.660675197518
 20
1793.885136099817
 30
0.0
 11
-1128.660675197518
 21
1793.885136099817
 31
0.0
  0
LINE
  5
17202
330
1A
100
AcDbEntity
  8
_2-4_PARTS
  6
CONTINUOUS
100
AcDbLine
 10
-1127.660675197518
 20
1793.485136099817
 30
0.0
 11
-1128.660675197518
 21
1793.485136099817
 31
0.0
  0
LINE
  5
17203
330
1A
100
AcDbEntity
  8
_2-4_PARTS
  6
CONTINUOUS
100
AcDbLine
 10
-1127.660675197518
 20
1793.485136099817
 30
0.0
 11
-1127.660675197518
 21
1793.885136099817
 31
0.0
  0
LINE
  5
17204
330
1A
100
AcDbEntity
  8
_2-4_PARTS
  6
CONTINUOUS
100
AcDbLine
 10
-1128.660675197518
 20
1792.215136099817
 30
0.0
 11
-1128.660675197518
 21
1792.615136099817
 31
0.0
  0
LINE
  5
17205
330
1A
100
AcDbEntity
  8
_2-4_PARTS
  6
CONTINUOUS
100
AcDbLine
 10
-1127.660675197518
 20
1792.615136099817
 30
0.0
 11
-1128.660675197518
 21
1792.615136099817
 31
0.0
  0
LINE
  5
17206
330
1A
100
AcDbEntity
  8
_2-4_PARTS
  6
CONTINUOUS
100
AcDbLine
 10
-1127.660675197518
 20
1792.215136099817
 30
0.0
 11
-1128.660675197518
 21
1792.215136099817
 31
0.0
  0
LINE
  5
17207
330
1A
100
AcDbEntity
  8
_2-4_PARTS
  6
CONTINUOUS
100
AcDbLine
 10
-1127.660675197518
 20
1792.215136099817
 30
0.0
 11
-1127.660675197518
 21
1792.615136099817
 31
0.0
  0
LINE
  5
17208
330
1A
100
AcDbEntity
  8
_2-4_PARTS
  6
CONTINUOUS
100
AcDbLine
 10
-1127.660675197518
 20
1802.805136099816
 30
0.0
 11
-1127.660675197518
 21
1803.705136099816
 31
0.0
  0
LINE
  5
17209
330
1A
100
AcDbEntity
  8
_2-4_PARTS
  6
CONTINUOUS
100
AcDbLine
 10
-1130.160675197518
 20
1798.105136099817
 30
0.0
 11
-1130.160675197518
 21
1808.405136099817
 31
0.0
  0
LINE
  5
1720A
330
1A
100
AcDbEntity
  8
_2-4_PARTS
  6
CONTINUOUS
100
AcDbLine
 10
-1128.160675197518
 20
1798.105136099817
 30
0.0
 11
-1128.160675197518
 21
1808.405136099817
 31
0.0
  0
LINE
  5
1720B
330
1A
100
AcDbEntity
  8
_2-4_PARTS
  6
CONTINUOUS
100
AcDbLine
 10
-1127.660675197518
 20
1786.680136099817
 30
0.0
 11
-1127.760675197518
 21
1786.680136099817
 31
0.0
  0
LINE
  5
1720C
330
1A
100
AcDbEntity
  8
_2-4_PARTS
  6
CONTINUOUS
100
AcDbLine
 10
-1128.660675197518
 20
1787.580136099817
 30
0.0
 11
-1128.660675197518
 21
1787.480136099817
 31
0.0
  0
LINE
  5
1720D
330
1A
100
AcDbEntity
  8
_2-4_PARTS
  6
CONTINUOUS
100
AcDbLine
 10
-1127.660675197518
 20
1787.580136099817
 30
0.0
 11
-1127.660675197518
 21
1786.680136099817
 31
0.0
  0
LINE
  5
1720E
330
1A
100
AcDbEntity
  8
_2-4_PARTS
  6
CONTINUOUS
100
AcDbLine
 10
-1127.660675197518
 20
1787.580136099817
 30
0.0
 11
-1128.660675197518
 21
1787.580136099817
 31
0.0
  0
LINE
  5
1720F
330
1A
100
AcDbEntity
  8
_2-4_PARTS
  6
CONTINUOUS
100
AcDbLine
 10
-1130.160675197518
 20
1787.480136099817
 30
0.0
 11
-1127.760675197518
 21
1787.480136099817
 31
0.0
  0
LINE
  5
17210
330
1A
100
AcDbEntity
  8
_2-4_PARTS
  6
CONTINUOUS
100
AcDbLine
 10
-1128.560675197518
 20
1790.075136099817
 30
0.0
 11
-1128.560675197518
 21
1790.945136099817
 31
0.0
  0
LINE
  5
17211
330
1A
100
AcDbEntity
  8
_2-4_PARTS
  6
CONTINUOUS
100
AcDbLine
 10
-1128.560675197518
 20
1788.475136099816
 30
0.0
 11
-1128.560675197518
 21
1789.675136099817
 31
0.0
  0
LINE
  5
17212
330
1A
100
AcDbEntity
  8
_2-4_PARTS
  6
CONTINUOUS
100
AcDbLine
 10
-1127.760675197517
 20
1790.075136099817
 30
0.0
 11
-1127.760675197517
 21
1790.945136099817
 31
0.0
  0
LINE
  5
17213
330
1A
100
AcDbEntity
  8
_2-4_PARTS
  6
CONTINUOUS
100
AcDbLine
 10
-1127.760675197517
 20
1788.475136099816
 30
0.0
 11
-1127.760675197517
 21
1789.675136099817
 31
0.0
  0
LINE
  5
17214
330
1A
100
AcDbEntity
  8
_2-4_PARTS
  6
CONTINUOUS
100
AcDbLine
 10
-1128.660675197518
 20
1790.945136099817
 30
0.0
 11
-1128.660675197518
 21
1791.345136099817
 31
0.0
  0
LINE
  5
17215
330
1A
100
AcDbEntity
  8
_2-4_PARTS
  6
CONTINUOUS
100
AcDbLine
 10
-1127.660675197518
 20
1791.345136099817
 30
0.0
 11
-1128.660675197518
 21
1791.345136099817
 31
0.0
  0
LINE
  5
17216
330
1A
100
AcDbEntity
  8
_2-4_PARTS
  6
CONTINUOUS
100
AcDbLine
 10
-1127.660675197518
 20
1790.945136099817
 30
0.0
 11
-1128.660675197518
 21
1790.945136099817
 31
0.0
  0
LINE
  5
17217
330
1A
100
AcDbEntity
  8
_2-4_PARTS
  6
CONTINUOUS
100
AcDbLine
 10
-1127.660675197518
 20
1790.945136099817
 30
0.0
 11
-1127.660675197518
 21
1791.345136099817
 31
0.0
  0
LINE
  5
17218
330
1A
100
AcDbEntity
  8
_2-4_PARTS
  6
CONTINUOUS
100
AcDbLine
 10
-1128.660675197518
 20
1789.675136099817
 30
0.0
 11
-1128.660675197518
 21
1790.075136099817
 31
0.0
  0
LINE
  5
17219
330
1A
100
AcDbEntity
  8
_2-4_PARTS
  6
CONTINUOUS
100
AcDbLine
 10
-1127.660675197518
 20
1790.075136099817
 30
0.0
 11
-1128.660675197518
 21
1790.075136099817
 31
0.0
  0
LINE
  5
1721A
330
1A
100
AcDbEntity
  8
_2-4_PARTS
  6
CONTINUOUS
100
AcDbLine
 10
-1127.660675197518
 20
1789.675136099817
 30
0.0
 11
-1128.660675197518
 21
1789.675136099817
 31
0.0
  0
LINE
  5
1721B
330
1A
100
AcDbEntity
  8
_2-4_PARTS
  6
CONTINUOUS
100
AcDbLine
 10
-1127.660675197518
 20
1789.675136099817
 30
0.0
 11
-1127.660675197518
 21
1790.075136099817
 31
0.0
  0
LINE
  5
1721C
330
1A
100
AcDbEntity
  8
_2-4_PARTS
  6
CONTINUOUS
100
AcDbLine
 10
-1130.160675197518
 20
1788.475136099816
 30
0.0
 11
-1127.760675197517
 21
1788.475136099816
 31
0.0
  0
LINE
  5
1721D
330
1A
100
AcDbEntity
  8
_2-4_PARTS
  6
CONTINUOUS
100
AcDbLine
 10
-1127.660675197518
 20
1782.880136099817
 30
0.0
 11
-1127.760675197518
 21
1782.880136099817
 31
0.0
  0
LINE
  5
1721E
330
1A
100
AcDbEntity
  8
_2-4_PARTS
  6
CONTINUOUS
100
AcDbLine
 10
-1127.660675197518
 20
1781.980136099817
 30
0.0
 11
-1127.660675197518
 21
1782.880136099817
 31
0.0
  0
LINE
  5
1721F
330
1A
100
AcDbEntity
  8
_2-4_PARTS
  6
CONTINUOUS
100
AcDbLine
 10
-1128.660675197518
 20
1781.980136099817
 30
0.0
 11
-1127.660675197518
 21
1781.980136099817
 31
0.0
  0
LINE
  5
17220
330
1A
100
AcDbEntity
  8
_2-4_PARTS
  6
CONTINUOUS
100
AcDbLine
 10
-1128.660675197518
 20
1782.080136099817
 30
0.0
 11
-1128.660675197518
 21
1781.980136099817
 31
0.0
  0
LINE
  5
17221
330
1A
100
AcDbEntity
  8
_2-4_PARTS
  6
CONTINUOUS
100
AcDbLine
 10
-1130.160675197518
 20
1782.080136099817
 30
0.0
 11
-1127.760675197518
 21
1782.080136099817
 31
0.0
  0
LINE
  5
17222
330
1A
100
AcDbEntity
  8
_2-4_PARTS
  6
CONTINUOUS
100
AcDbLine
 10
-1128.560675197518
 20
1787.480136099817
 30
0.0
 11
-1128.560675197518
 21
1782.080136099817
 31
0.0
  0
LINE
  5
17223
330
1A
100
AcDbEntity
  8
_2-4_PARTS
  6
CONTINUOUS
100
AcDbLine
 10
-1127.760675197518
 20
1782.080136099817
 30
0.0
 11
-1127.760675197518
 21
1787.480136099817
 31
0.0
  0
LINE
  5
17224
330
1A
100
AcDbEntity
  8
_2-4_PARTS
  6
CONTINUOUS
100
AcDbLine
 10
-1130.160675197518
 20
1782.080136099817
 30
0.0
 11
-1130.160675197518
 21
1787.480136099817
 31
0.0
  0
LINE
  5
17225
330
1A
100
AcDbEntity
  8
_2-4_PARTS
  6
CONTINUOUS
100
AcDbLine
 10
-1128.560675197518
 20
1791.345136099817
 30
0.0
 11
-1128.560675197518
 21
1792.215136099817
 31
0.0
  0
LINE
  5
17226
330
1A
100
AcDbEntity
  8
_2-4_PARTS
  6
CONTINUOUS
100
AcDbLine
 10
-1127.760675197517
 20
1791.345136099817
 30
0.0
 11
-1127.760675197517
 21
1792.215136099817
 31
0.0
  0
LINE
  5
17227
330
1A
100
AcDbEntity
  8
_2-4_PARTS
  6
CONTINUOUS
100
AcDbLine
 10
-1130.160675197518
 20
1788.475136099816
 30
0.0
 11
-1130.160675197518
 21
1795.085136099817
 31
0.0
  0
LINE
  5
17228
330
1A
100
AcDbEntity
  8
_2-4_PARTS
  6
CONTINUOUS
100
AcDbLine
 10
-1127.660675197518
 20
1814.105136099817
 30
0.0
 11
-1127.660675197518
 21
1815.005136099816
 31
0.0
  0
LINE
  5
17229
330
1A
100
AcDbEntity
  8
_2-4_PARTS
  6
CONTINUOUS
100
AcDbLine
 10
-1130.160675197518
 20
1809.405136099817
 30
0.0
 11
-1130.160675197518
 21
1819.705136099817
 31
0.0
  0
LINE
  5
1722A
330
1A
100
AcDbEntity
  8
_2-4_PARTS
  6
CONTINUOUS
100
AcDbLine
 10
-1128.160675197518
 20
1809.405136099817
 30
0.0
 11
-1128.160675197518
 21
1819.705136099817
 31
0.0
  0
LINE
  5
1722B
330
1A
100
AcDbEntity
  8
ZISSEN1
100
AcDbLine
 10
-1127.660675197518
 20
1862.780136099817
 30
0.0
 11
-1127.660675197518
 21
1779.780136099817
 31
0.0
  0
LINE
  5
1722C
330
1A
100
AcDbEntity
  8
_2-4_PARTS
  6
CONTINUOUS
100
AcDbLine
 10
-1125.860675197518
 20
1854.180136099817
 30
0.0
 11
-1126.060675197518
 21
1854.180136099817
 31
0.0
  0
LINE
  5
1722D
330
1A
100
AcDbEntity
  8
_2-4_PARTS
  6
CONTINUOUS
100
AcDbLine
 10
-1124.160675197517
 20
1854.780136099817
 30
0.0
 11
-1126.060675197518
 21
1854.780136099817
 31
0.0
  0
LINE
  5
1722E
330
1A
100
AcDbEntity
  8
_2-4_PARTS
  6
CONTINUOUS
100
AcDbLine
 10
-1125.860675197518
 20
1854.180136099817
 30
0.0
 11
-1124.160675197517
 21
1854.530136099817
 31
0.0
  0
LINE
  5
1722F
330
1A
100
AcDbEntity
  8
_2-4_PARTS
  6
CONTINUOUS
100
AcDbLine
 10
-1124.160675197517
 20
1854.530136099817
 30
0.0
 11
-1124.160675197517
 21
1854.780136099817
 31
0.0
  0
LINE
  5
17230
330
1A
100
AcDbEntity
  8
ZISSEN1
100
AcDbLine
 10
-1126.060675197518
 20
1862.780136099817
 30
0.0
 11
-1126.060675197518
 21
1779.780136099817
 31
0.0
  0
DIMENSION
  5
1723C
330
1A
100
AcDbEntity
  8
SUNPOU
100
AcDbDimension
  2
*D1
 10
-1286.176863784039
 20
1862.780136099817
 30
0.0
 11
-1288.926863784039
 21
1821.280136099817
 31
0.0
 70
    32
  3
標準スタイル
100
AcDbAlignedDimension
 13
-1262.160675197518
 23
1779.780136099817
 33
0.0
 14
-1262.160675197518
 24
1862.780136099817
 34
0.0
 50
90.0
100
AcDbRotatedDimension
1001
ACAD
1000
DSTYLE
1002
{
1070
   340
1005
10
1070
    40
1040
1.0
1002
}
  0
DIMENSION
  5
1724B
330
1A
100
AcDbEntity
  8
SUNPOU
100
AcDbDimension
  2
*D2
 10
-1276.071490431499
 20
1783.280136099817
 30
0.0
 11
-1279.439461777358
 21
1773.880000785555
 31
0.0
 70
   160
  3
標準スタイル
100
AcDbAlignedDimension
 13
-1262.160675197518
 23
1779.780136099817
 33
0.0
 14
-1261.410675197518
 24
1783.280136099817
 34
0.0
 50
90.0
100
AcDbRotatedDimension
1001
ACAD
1000
DSTYLE
1002
{
1070
   287
1070
     5
1070
    40
1040
1.0
1070
   279
1070
     2
1070
   340
1005
10
1002
}
  0
DIMENSION
  5
1725A
330
1A
100
AcDbEntity
  8
SUNPOU
100
AcDbDimension
  2
*D3
 10
-1276.071490431499
 20
1859.280136099817
 30
0.0
 11
-1278.8214904315
 21
1821.280136099817
 31
0.0
 70
    32
  3
標準スタイル
100
AcDbAlignedDimension
 13
-1261.410675197518
 23
1783.280136099817
 33
0.0
 14
-1261.410675197518
 24
1859.280136099817
 34
0.0
 50
90.0
100
AcDbRotatedDimension
1001
ACAD
1000
DSTYLE
1002
{
1070
   287
1070
     4
1070
   340
1005
10
1070
    40
1040
1.0
1070
   279
1070
     1
1002
}
  0
DIMENSION
  5
17267
330
1A
100
AcDbEntity
  8
SUNPOU
100
AcDbDimension
  2
*D4
 10
-1276.071490431499
 20
1862.780136099817
 30
0.0
 11
-1279.432873329145
 21
1869.061522973023
 31
0.0
 70
   160
  3
標準スタイル
100
AcDbAlignedDimension
 13
-1261.410675197518
 23
1859.280136099817
 33
0.0
 14
-1262.160675197518
 24
1862.780136099817
 34
0.0
 50
90.0
100
AcDbRotatedDimension
1001
ACAD
1000
DSTYLE
1002
{
1070
   287
1070
     5
1070
    40
1040
1.0
1070
   279
1070
     2
1070
   340
1005
10
1002
}
  0
DIMENSION
  5
1727B
330
1A
100
AcDbEntity
  8
SUNPOU
100
AcDbDimension
  2
*D5
 10
-1259.660675197518
 20
1766.228723961759
 30
0.0
 11
-1269.323748819453
 21
1769.099657437092
 31
0.0
 70
   160
  3
標準スタイル
100
AcDbAlignedDimension
 13
-1263.160659511195
 23
1780.780136099694
 33
0.0
 14
-1259.660675197518
 24
1781.530136099817
 34
0.0
100
AcDbRotatedDimension
1001
ACAD
1000
DSTYLE
1002
{
1070
   287
1070
     5
1070
    40
1040
1.0
1070
   279
1070
     2
1070
   340
1005
10
1002
}
  0
DIMENSION
  5
1728A
330
1A
100
AcDbEntity
  8
SUNPOU
100
AcDbDimension
  2
*D6
 10
-1183.660675197518
 20
1766.228723961759
 30
0.0
 11
-1221.660675197518
 21
1768.978723961759
 31
0.0
 70
    32
  3
標準スタイル
100
AcDbAlignedDimension
 13
-1259.660675197518
 23
1781.530136099817
 33
0.0
 14
-1183.660675197518
 24
1781.530136099817
 34
0.0
100
AcDbRotatedDimension
1001
ACAD
1000
DSTYLE
1002
{
1070
   287
1070
     4
1070
   340
1005
10
1070
    40
1040
1.0
1070
   279
1070
     1
1002
}
  0
DIMENSION
  5
17297
330
1A
100
AcDbEntity
  8
SUNPOU
100
AcDbDimension
  2
*D7
 10
-1180.160675197518
 20
1766.228723961759
 30
0.0
 11
-1174.231603999163
 21
1769.113721627975
 31
0.0
 70
   160
  3
標準スタイル
100
AcDbAlignedDimension
 13
-1183.660675197518
 23
1781.530136099817
 33
0.0
 14
-1180.160675197518
 24
1780.780136099817
 34
0.0
100
AcDbRotatedDimension
1001
ACAD
1000
DSTYLE
1002
{
1070
   287
1070
     5
1070
    40
1040
1.0
1070
   279
1070
     2
1070
   340
1005
10
1002
}
  0
DIMENSION
  5
172A9
330
1A
100
AcDbEntity
  8
SUNPOU
100
AcDbDimension
  2
*D8
 10
-1180.160675197518
 20
1754.780949657875
 30
0.0
 11
-1221.660667354356
 21
1757.530949657875
 31
0.0
 70
    32
  3
標準スタイル
100
AcDbAlignedDimension
 13
-1263.160659511195
 23
1780.780136099694
 33
0.0
 14
-1180.160675197518
 24
1780.780136099817
 34
0.0
100
AcDbRotatedDimension
1001
ACAD
1000
DSTYLE
1002
{
1070
   340
1005
10
1070
    40
1040
1.0
1002
}
  0
DIMENSION
  5
172B6
330
1A
100
AcDbEntity
  8
SUNPOU
100
AcDbDimension
  2
*D9
 10
-1126.060675197518
 20
1872.904038317795
 30
0.0
 11
-1135.110675197518
 21
1875.654038317795
 31
0.0
 70
    32
  3
標準スタイル
100
AcDbAlignedDimension
 13
-1144.160675197518
 23
1858.760136099817
 33
0.0
 14
-1126.060675197518
 24
1862.780136099817
 34
0.0
100
AcDbRotatedDimension
1001
ACAD
1000
DSTYLE
1002
{
1070
   340
1005
10
1070
    40
1040
1.0
1002
}
  0
DIMENSION
  5
172C3
330
1A
100
AcDbEntity
  8
SUNPOU
100
AcDbDimension
  2
*D10
 10
-1124.160675197517
 20
1872.904038317795
 30
0.0
 11
-1116.03043588453
 21
1875.609541365035
 31
0.0
 70
   160
  1
(2.9)
  3
標準スタイル
100
AcDbAlignedDimension
 13
-1126.060675197518
 23
1862.780136099817
 33
0.0
 14
-1124.160675197517
 24
1872.904038317795
 34
0.0
100
AcDbRotatedDimension
1001
ACAD
1000
DSTYLE
1002
{
1070
   287
1070
     5
1070
    40
1040
1.0
1070
   279
1070
     2
1070
   340
1005
10
1002
}
  0
DIMENSION
  5
172D1
330
1A
100
AcDbEntity
  8
SUNPOU
100
AcDbDimension
  2
*D11
 10
-1124.160675197517
 20
1882.373043462373
 30
0.0
 11
-1134.160675197517
 21
1885.123043462373
 31
0.0
 70
    32
  1
(21)
  3
標準スタイル
100
AcDbAlignedDimension
 13
-1144.160675197518
 23
1858.760136099817
 33
0.0
 14
-1124.160675197517
 24
1854.780136099817
 34
0.0
100
AcDbRotatedDimension
1001
ACAD
1000
DSTYLE
1002
{
1070
   340
1005
10
1070
    40
1040
1.0
1002
}
  0
LINE
  5
172E0
330
1A
100
AcDbEntity
  8
CL1
100
AcDbLine
 10
-1259.660675197518
 20
1905.680136099817
 30
0.0
 11
-1259.660675197518
 21
1900.660283396994
 31
0.0
  0
LINE
  5
172E1
330
1A
100
AcDbEntity
  8
CL1
100
AcDbLine
 10
-1183.660675197518
 20
1905.680136099817
 30
0.0
 11
-1183.660675197518
 21
1900.660283396994
 31
0.0
  0
LINE
  5
172E2
330
1A
100
AcDbEntity
  8
CL1
100
AcDbLine
 10
-1129.5477992638
 20
1859.280136099817
 30
0.0
 11
-1124.160675197517
 21
1859.280136099817
 31
0.0
  0
LINE
  5
172E3
330
1A
100
AcDbEntity
  8
CL1
100
AcDbLine
 10
-1129.5477992638
 20
1783.280136099817
 30
0.0
 11
-1124.160675197517
 21
1783.280136099817
 31
0.0
  0
DIMENSION
  5
172E4
330
1A
100
AcDbEntity
  8
CL1
100
AcDbDimension
  2
*D12
 10
-1276.071490431499
 20
1903.880136099817
 30
0.0
 11
-1278.8214904315
 21
1897.330136099816
 31
0.0
 70
    32
  3
標準スタイル
100
AcDbAlignedDimension
 13
-1260.260675197518
 23
1890.780136099817
 33
0.0
 14
-1263.160675197518
 24
1903.880136099817
 34
0.0
 50
90.0
100
AcDbRotatedDimension
1001
ACAD
1000
DSTYLE
1002
{
1070
   340
1005
10
1070
    40
1040
1.0
1002
}
  0
DIMENSION
  5
172FF
330
1A
100
AcDbEntity
  8
CL1
100
AcDbDimension
  2
*D13
 10
-1276.071490431499
 20
1905.680136099817
 30
0.0
 11
-1278.870665461137
 21
1914.313862965386
 31
0.0
 70
   160
  1
(2.9)
  3
標準スタイル
100
AcDbAlignedDimension
 13
-1263.160659511195
 23
1903.880136099817
 33
0.0
 14
-1257.010675197518
 24
1905.680136099817
 34
0.0
 50
90.0
100
AcDbRotatedDimension
1001
ACAD
1000
DSTYLE
1002
{
1070
   287
1070
     5
1070
    40
1040
1.0
1070
   279
1070
     2
1070
   340
1005
10
1002
}
  0
DIMENSION
  5
17310
330
1A
100
AcDbEntity
  8
CL1
100
AcDbDimension
  2
*D14
 10
-1286.176863784039
 20
1905.680136099817
 30
0.0
 11
-1288.926863784039
 21
1898.230136099816
 31
0.0
 70
    32
  1
(16)
  3
標準スタイル
100
AcDbAlignedDimension
 13
-1260.260675197518
 23
1890.780136099817
 33
0.0
 14
-1256.710675197518
 24
1905.680136099817
 34
0.0
 50
90.0
100
AcDbRotatedDimension
1001
ACAD
1000
DSTYLE
1002
{
1070
   340
1005
10
1070
    40
1040
1.0
1002
}
  0
MTEXT
  5
17476
330
1A
100
AcDbEntity
  8
ZISSEN1
 62
     1
100
AcDbMText
 10
-1250.475085895827
 20
1872.792110056728
 30
0.0
 40
3.5
 41
25.8939756371994
 71
     1
 72
     5
  1
4-φ3.5
1001
ACAD
1000
MTEXTBEGIN
1070
    73
1070
     1
1070
    44
1040
1.0
1070
    74
1070
     0
1000
MTEXTEND
  0
LEADER
  5
17477
330
1A
100
AcDbEntity
  8
SUNPOU
100
AcDbLeader
  3
標準スタイル
 76
     3
 10
-1259.660675287849
 20
1859.280136306406
 30
0.0
 10
-1250.600435991856
 20
1868.164533878929
 30
0.0
 10
-1230.845736482107
 20
1868.164533878929
 30
0.0
1001
ACAD
1000
DSTYLE
1002
{
1070
     5
1000

1070
    77
1070
     0
1070
   147
1040
1.0
1002
}
  0
VIEWPORT
  5
15177
330
15176
100
AcDbEntity
 67
     1
  8
0
100
AcDbViewport
 10
231.610273287876
 20
166.3932470230648
 30
0.0
 40
594.1805898278566
 41
334.0671985727434
 68
     1
 69
     1
1001
ACAD
1000
MVIEW
1002
{
1070
    16
1010
0.0
1020
0.0
1030
0.0
1010
0.0
1020
0.0
1030
1.0
1040
0.0
1040
334.0671985727434
1040
231.610273287876
1040
166.3932470230648
1040
50.0
1040
0.0
1040
0.0
1070
     0
1070
   100
1070
     1
1070
     0
1070
     0
1070
     0
1070
     0
1070
     0
1040
0.0
1040
0.0
1040
0.0
1040
1.0
1040
1.0
1040
10.0
1040
10.0
1070
     0
1002
{
1002
}
1002
}
  0
VIEWPORT
  5
15178
330
15176
100
AcDbEntity
 67
     1
  8
ZISSEN1
100
AcDbViewport
 10
221.7861955525412
 20
157.6960273330388
 30
0.0
 40
385.4999999999997
 41
259.9999999999999
 68
     2
 69
     2
1001
ACAD
1000
MVIEW
1002
{
1070
    16
1010
0.0
1020
0.0
1030
0.0
1010
0.0
1020
0.0
1030
1.0
1040
0.0
1040
259.9999999999999
1040
-1207.968916226441
1040
1839.303740883698
1040
50.0
1040
0.0
1040
0.0
1070
     0
1070
   100
1070
     1
1070
     0
1070
     0
1070
     0
1070
     0
1070
     0
1040
0.0
1040
0.0
1040
0.0
1040
1.0
1040
1.0
1040
10.0
1040
10.0
1070
     0
1002
{
1002
}
1002
}
  0
TEXT
  5
15179
330
15176
100
AcDbEntity
 67
     1
  8
SUNPOU
 62
     0
100
AcDbText
 10
374.1863124306944
 20
60.86794705907585
 30
0.0
 40
3.5
  1
縮尺 1/1
100
AcDbText
  0
ENDSEC
  0
SECTION
  2
OBJECTS
  0
DICTIONARY
  5
C
330
0
100
AcDbDictionary
  3
ACAD_GROUP
350
D
  3
ACAD_LAYOUT
350
5C7D
  3
ACAD_MLINESTYLE
350
E
  3
ACAD_PLOTSETTINGS
350
5C7E
  3
ACAD_PLOTSTYLENAME
350
5C7B
  3
ACADDIM
350
16AEF
  3
ACDBVARIABLEDICTIONARY
350
13217
  3
DWGPROPS
350
5E8E
  3
ACDBHEADERROUNDTRIPXREC
350
1747A
  0
DICTIONARY
  5
1749A
330
1A
100
AcDbDictionary
280
     1
  3
ACAD_LAYOUTSELFREF
360
1749B
  0
DICTIONARY
  5
1749C
330
15176
100
AcDbDictionary
280
     1
  3
ACAD_LAYOUTSELFREF
360
1749D
  0
DICTIONARY
  5
D
102
{ACAD_REACTORS
330
C
102
}
330
C
100
AcDbDictionary
  3
*A1
350
477D
  3
*A2
350
4C17
  3
*A3
350
477E
  3
*A4
350
477F
  3
*A5
350
4780
  3
*A6
350
4781
  3
*A7
350
13853
  3
*A8
350
4C0E
  3
*A9
350
4C0F
  3
*A10
350
4C10
  3
*A11
350
4C11
  3
*A12
350
4C12
  3
*A13
350
4C13
  3
*A14
350
4C14
  3
*A15
350
4C15
  3
*A16
350
4C16
  0
DICTIONARY
  5
5C7D
102
{ACAD_REACTORS
330
C
102
}
330
C
100
AcDbDictionary
  0
DICTIONARY
  5
E
102
{ACAD_REACTORS
330
C
102
}
330
C
100
AcDbDictionary
  3
STANDARD
350
13
  0
DICTIONARY
  5
5C7E
102
{ACAD_REACTORS
330
C
102
}
330
C
100
AcDbDictionary
  0
ACDBDICTIONARYWDFLT
  5
5C7B
102
{ACAD_REACTORS
330
C
102
}
330
C
100
AcDbDictionary
281
     1
  3
Normal
350
5C7C
100
AcDbDictionaryWithDefault
340
5C7C
  0
XRECORD
  5
16AEF
102
{ACAD_REACTORS
330
C
102
}
330
C
100
AcDbXrecord
 90
   990106
  3

 60
     0
 61
     0
 62
     1
 63
     3
 64
     0
 65
     0
 66
     0
 67
     3
 68
     1
 69
     0
 70
     0
 71
     0
 72
     0
 40
0.0
170
     0
  0
DICTIONARY
  5
13217
102
{ACAD_REACTORS
330
C
102
}
330
C
100
AcDbDictionary
  3
SORTENTS
350
13218
  0
XRECORD
  5
5E8E
102
{ACAD_REACTORS
330
C
102
}
330
C
100
AcDbXrecord
  1
DWGPROPS COOKIE
  2

  3

  4

  6

  7

  8

  9

300
=
301
=
302
=
303
=
304
=
305
=
306
=
307
=
308
=
309
=
 40
0.586753587962963
 41
2450495.493631365
 42
2453208.662277431
  1

 90
        0
  0
DICTIONARY
  5
1747A
102
{ACAD_REACTORS
330
C
102
}
330
C
100
AcDbDictionary
  3
TSTACKALIGN
350
1747B
  3
TSTACKSIZE
350
1747C
  3
HYPERLINKBASE
350
1747D
  3
STYLESHEET
350
1747E
  3
LAYOUTDICT
350
1747F
  3
PLOTSETDICT
350
17480
  3
PLOTSTYLNAMDICT
350
17481
  3
LWETCUNION
350
17482
  3
INSUNITS
350
17483
  3
CEPSNTYPE
350
17484
  3
FINGERPRINTGUID
350
17485
  3
VERSIONGUID
350
17486
  3
PSVPSCALE
350
17487
  3
PUCSORTHOREF
350
17488
  3
PUCSORTHOVIEW
350
17489
  3
PUCSBASE
350
1748A
  3
PUCSORGTOP
350
1748B
  3
PUCSORGBOTTOM
350
1748C
  3
PUCSORGLEFT
350
1748D
  3
PUCSORGRIGHT
350
1748E
  3
PUCSORGFRONT
350
1748F
  3
PUCSORGBACK
350
17490
  3
UCSORTHOREF
350
17491
  3
UCSORTHOVIEW
350
17492
  3
UCSBASE
350
17493
  3
UCSORGTOP
350
17494
  3
UCSORGBOTTOM
350
17495
  3
UCSORGLEFT
350
17496
  3
UCSORGRIGHT
350
17497
  3
UCSORGFRONT
350
17498
  3
UCSORGBACK
350
17499
  0
XRECORD
  5
1749B
102
{ACAD_REACTORS
330
1749A
102
}
330
1749A
100
AcDbXrecord
340
1A
  0
XRECORD
  5
1749D
102
{ACAD_REACTORS
330
1749C
102
}
330
1749C
100
AcDbXrecord
340
15176
  0
GROUP
  5
477D
102
{ACAD_REACTORS
330
D
102
}
330
D
100
AcDbGroup
300

 70
     1
 71
     1
  0
GROUP
  5
4C17
102
{ACAD_REACTORS
330
D
102
}
330
D
100
AcDbGroup
300

 70
     1
 71
     1
  0
GROUP
  5
477E
102
{ACAD_REACTORS
330
D
102
}
330
D
100
AcDbGroup
300

 70
     1
 71
     1
  0
GROUP
  5
477F
102
{ACAD_REACTORS
330
D
102
}
330
D
100
AcDbGroup
300

 70
     1
 71
     1
  0
GROUP
  5
4780
102
{ACAD_REACTORS
330
D
102
}
330
D
100
AcDbGroup
300

 70
     1
 71
     1
  0
GROUP
  5
4781
102
{ACAD_REACTORS
330
D
102
}
330
D
100
AcDbGroup
300

 70
     1
 71
     1
  0
GROUP
  5
13853
102
{ACAD_REACTORS
330
D
102
}
330
D
100
AcDbGroup
300

 70
     1
 71
     1
  0
GROUP
  5
4C0E
102
{ACAD_REACTORS
330
D
102
}
330
D
100
AcDbGroup
300

 70
     1
 71
     1
  0
GROUP
  5
4C0F
102
{ACAD_REACTORS
330
D
102
}
330
D
100
AcDbGroup
300

 70
     1
 71
     1
  0
GROUP
  5
4C10
102
{ACAD_REACTORS
330
D
102
}
330
D
100
AcDbGroup
300

 70
     1
 71
     1
  0
GROUP
  5
4C11
102
{ACAD_REACTORS
330
D
102
}
330
D
100
AcDbGroup
300

 70
     1
 71
     1
  0
GROUP
  5
4C12
102
{ACAD_REACTORS
330
D
102
}
330
D
100
AcDbGroup
300

 70
     1
 71
     1
  0
GROUP
  5
4C13
102
{ACAD_REACTORS
330
D
102
}
330
D
100
AcDbGroup
300

 70
     1
 71
     1
  0
GROUP
  5
4C14
102
{ACAD_REACTORS
330
D
102
}
330
D
100
AcDbGroup
300

 70
     1
 71
     1
  0
GROUP
  5
4C15
102
{ACAD_REACTORS
330
D
102
}
330
D
100
AcDbGroup
300

 70
     1
 71
     1
  0
GROUP
  5
4C16
102
{ACAD_REACTORS
330
D
102
}
330
D
100
AcDbGroup
300

 70
     1
 71
     1
  0
MLINESTYLE
  5
13
102
{ACAD_REACTORS
330
E
102
}
330
E
100
AcDbMlineStyle
  2
STANDARD
 70
     0
  3

 62
     0
 51
90.0
 52
90.0
 71
     2
 49
0.5
 62
   256
  6
BYLAYER
 49
-0.5
 62
   256
  6
BYLAYER
  0
ACDBPLACEHOLDER
  5
5C7C
102
{ACAD_REACTORS
330
5C7B
102
}
330
5C7B
100
AcDbPlaceHolder
280
     0
  0
DICTIONARYVAR
  5
13218
102
{ACAD_REACTORS
330
13217
102
}
330
13217
100
DictionaryVariables
280
     0
  1
96
  0
XRECORD
  5
1747B
102
{ACAD_REACTORS
330
1747A
102
}
330
1747A
100
AcDbXrecord
 90
        1
  0
XRECORD
  5
1747C
102
{ACAD_REACTORS
330
1747A
102
}
330
1747A
100
AcDbXrecord
 90
       70
  0
XRECORD
  5
1747D
102
{ACAD_REACTORS
330
1747A
102
}
330
1747A
100
AcDbXrecord
  1

  0
XRECORD
  5
1747E
102
{ACAD_REACTORS
330
1747A
102
}
330
1747A
100
AcDbXrecord
  1

  0
XRECORD
  5
1747F
102
{ACAD_REACTORS
330
1747A
102
}
330
1747A
100
AcDbXrecord
340
5C7D
  0
XRECORD
  5
17480
102
{ACAD_REACTORS
330
1747A
102
}
330
1747A
100
AcDbXrecord
340
5C7E
  0
XRECORD
  5
17481
102
{ACAD_REACTORS
330
1747A
102
}
330
1747A
100
AcDbXrecord
340
5C7B
  0
XRECORD
  5
17482
102
{ACAD_REACTORS
330
1747A
102
}
330
1747A
100
AcDbXrecord
 90
    10781
  0
XRECORD
  5
17483
102
{ACAD_REACTORS
330
1747A
102
}
330
1747A
100
AcDbXrecord
 90
        0
  0
XRECORD
  5
17484
102
{ACAD_REACTORS
330
1747A
102
}
330
1747A
100
AcDbXrecord
 90
        0
  0
XRECORD
  5
17485
102
{ACAD_REACTORS
330
1747A
102
}
330
1747A
100
AcDbXrecord
  1
{225A7F0D-DA29-11D8-946A-0000E2416295}
  0
XRECORD
  5
17486
102
{ACAD_REACTORS
330
1747A
102
}
330
1747A
100
AcDbXrecord
  1
{F7BB5FF4-B58F-4B2F-BD57-DB49B70A7C17}
  0
XRECORD
  5
17487
102
{ACAD_REACTORS
330
1747A
102
}
330
1747A
100
AcDbXrecord
 40
0.0
  0
XRECORD
  5
17488
102
{ACAD_REACTORS
330
1747A
102
}
330
1747A
100
AcDbXrecord
340
0
  0
XRECORD
  5
17489
102
{ACAD_REACTORS
330
1747A
102
}
330
1747A
100
AcDbXrecord
 70
     0
  0
XRECORD
  5
1748A
102
{ACAD_REACTORS
330
1747A
102
}
330
1747A
100
AcDbXrecord
340
0
  0
XRECORD
  5
1748B
102
{ACAD_REACTORS
330
1747A
102
}
330
1747A
100
AcDbXrecord
 10
0.0
 20
0.0
 30
0.0
  0
XRECORD
  5
1748C
102
{ACAD_REACTORS
330
1747A
102
}
330
1747A
100
AcDbXrecord
 10
0.0
 20
0.0
 30
0.0
  0
XRECORD
  5
1748D
102
{ACAD_REACTORS
330
1747A
102
}
330
1747A
100
AcDbXrecord
 10
0.0
 20
0.0
 30
0.0
  0
XRECORD
  5
1748E
102
{ACAD_REACTORS
330
1747A
102
}
330
1747A
100
AcDbXrecord
 10
0.0
 20
0.0
 30
0.0
  0
XRECORD
  5
1748F
102
{ACAD_REACTORS
330
1747A
102
}
330
1747A
100
AcDbXrecord
 10
0.0
 20
0.0
 30
0.0
  0
XRECORD
  5
17490
102
{ACAD_REACTORS
330
1747A
102
}
330
1747A
100
AcDbXrecord
 10
0.0
 20
0.0
 30
0.0
  0
XRECORD
  5
17491
102
{ACAD_REACTORS
330
1747A
102
}
330
1747A
100
AcDbXrecord
340
0
  0
XRECORD
  5
17492
102
{ACAD_REACTORS
330
1747A
102
}
330
1747A
100
AcDbXrecord
 70
     0
  0
XRECORD
  5
17493
102
{ACAD_REACTORS
330
1747A
102
}
330
1747A
100
AcDbXrecord
340
0
  0
XRECORD
  5
17494
102
{ACAD_REACTORS
330
1747A
102
}
330
1747A
100
AcDbXrecord
 10
0.0
 20
0.0
 30
0.0
  0
XRECORD
  5
17495
102
{ACAD_REACTORS
330
1747A
102
}
330
1747A
100
AcDbXrecord
 10
0.0
 20
0.0
 30
0.0
  0
XRECORD
  5
17496
102
{ACAD_REACTORS
330
1747A
102
}
330
1747A
100
AcDbXrecord
 10
0.0
 20
0.0
 30
0.0
  0
XRECORD
  5
17497
102
{ACAD_REACTORS
330
1747A
102
}
330
1747A
100
AcDbXrecord
 10
0.0
 20
0.0
 30
0.0
  0
XRECORD
  5
17498
102
{ACAD_REACTORS
330
1747A
102
}
330
1747A
100
AcDbXrecord
 10
0.0
 20
0.0
 30
0.0
  0
XRECORD
  5
17499
102
{ACAD_REACTORS
330
1747A
102
}
330
1747A
100
AcDbXrecord
 10
0.0
 20
0.0
 30
0.0
  0
ENDSEC
  0
EOF
