  0
SECTION
  2
HEADER
  9
$ACADVER
  1
AC1014
  9
$ACADMAINTVER
 70
     9
  9
$DWGCODEPAGE
  3
ANSI_932
  9
$INSBASE
 10
0.0
 20
0.0
 30
0.0
  9
$EXTMIN
 10
-1408.146721194911
 20
1551.108102717021
 30
0.0
  9
$EXTMAX
 10
-1182.671651062305
 20
1920.858752752539
 30
0.0
  9
$LIMMIN
 10
0.0
 20
0.0
  9
$LIMMAX
 10
420.0
 20
297.0
  9
$ORTHOMODE
 70
     0
  9
$REGENMODE
 70
     1
  9
$FILLMODE
 70
     1
  9
$QTEXTMODE
 70
     0
  9
$MIRRTEXT
 70
     1
  9
$DRAGMODE
 70
     2
  9
$LTSCALE
 40
1.0
  9
$OSMODE
 70
    37
  9
$ATTMODE
 70
     1
  9
$TEXTSIZE
 40
2.5
  9
$TRACEWID
 40
1.0
  9
$TEXTSTYLE
  7
ゴシック体
  9
$CLAYER
  8
CL1
  9
$CELTYPE
  6
BYLAYER
  9
$CECOLOR
 62
   256
  9
$CELTSCALE
 40
1.0
  9
$DELOBJ
 70
     1
  9
$DISPSILH
 70
     0
  9
$DIMSCALE
 40
0.0
  9
$DIMASZ
 40
3.0
  9
$DIMEXO
 40
0.5
  9
$DIMDLI
 40
0.5
  9
$DIMRND
 40
0.0
  9
$DIMDLE
 40
0.0
  9
$DIMEXE
 40
0.5
  9
$DIMTP
 40
0.0
  9
$DIMTM
 40
0.0
  9
$DIMTXT
 40
3.5
  9
$DIMCEN
 40
0.0
  9
$DIMTSZ
 40
0.0
  9
$DIMTOL
 70
     0
  9
$DIMLIM
 70
     0
  9
$DIMTIH
 70
     0
  9
$DIMTOH
 70
     0
  9
$DIMSE1
 70
     0
  9
$DIMSE2
 70
     0
  9
$DIMTAD
 70
     1
  9
$DIMZIN
 70
     8
  9
$DIMBLK
  1

  9
$DIMASO
 70
     1
  9
$DIMSHO
 70
     1
  9
$DIMPOST
  1

  9
$DIMAPOST
  1

  9
$DIMALT
 70
     0
  9
$DIMALTD
 70
     2
  9
$DIMALTF
 40
25.4
  9
$DIMLFAC
 40
1.0
  9
$DIMTOFL
 70
     1
  9
$DIMTVP
 40
0.0
  9
$DIMTIX
 70
     0
  9
$DIMSOXD
 70
     0
  9
$DIMSAH
 70
     0
  9
$DIMBLK1
  1

  9
$DIMBLK2
  1

  9
$DIMSTYLE
  2
標準スタイル
  9
$DIMCLRD
 70
     1
  9
$DIMCLRE
 70
     1
  9
$DIMCLRT
 70
     1
  9
$DIMTFAC
 40
1.0
  9
$DIMGAP
 40
1.0
  9
$DIMJUST
 70
     0
  9
$DIMSD1
 70
     0
  9
$DIMSD2
 70
     0
  9
$DIMTOLJ
 70
     1
  9
$DIMTZIN
 70
     8
  9
$DIMALTZ
 70
     0
  9
$DIMALTTZ
 70
     0
  9
$DIMFIT
 70
     3
  9
$DIMUPT
 70
     0
  9
$DIMUNIT
 70
     2
  9
$DIMDEC
 70
     2
  9
$DIMTDEC
 70
     2
  9
$DIMALTU
 70
     2
  9
$DIMALTTD
 70
     2
  9
$DIMTXSTY
  7
ゴシック体
  9
$DIMAUNIT
 70
     0
  9
$LUNITS
 70
     2
  9
$LUPREC
 70
     4
  9
$SKETCHINC
 40
1.0
  9
$FILLETRAD
 40
1.0
  9
$AUNITS
 70
     0
  9
$AUPREC
 70
     0
  9
$MENU
  1
.
  9
$ELEVATION
 40
0.0
  9
$PELEVATION
 40
0.0
  9
$THICKNESS
 40
0.0
  9
$LIMCHECK
 70
     0
  9
$BLIPMODE
 70
     0
  9
$CHAMFERA
 40
1.0
  9
$CHAMFERB
 40
1.0
  9
$CHAMFERC
 40
2.0
  9
$CHAMFERD
 40
0.7853981633974483
  9
$SKPOLY
 70
     0
  9
$TDCREATE
 40
2450495.493631365
  9
$TDUPDATE
 40
2458871.611501261
  9
$TDINDWG
 40
2.7156271181
  9
$TDUSRTIMER
 40
2.7156271181
  9
$USRTIMER
 70
     1
  9
$ANGBASE
 50
0.0
  9
$ANGDIR
 70
     0
  9
$PDMODE
 70
    99
  9
$PDSIZE
 40
0.0
  9
$PLINEWID
 40
0.0
  9
$COORDS
 70
     0
  9
$SPLFRAME
 70
     0
  9
$SPLINETYPE
 70
     6
  9
$SPLINESEGS
 70
     8
  9
$ATTDIA
 70
     0
  9
$ATTREQ
 70
     1
  9
$HANDLING
 70
 10241
  9
$HANDSEED
  5
16954
  9
$SURFTAB1
 70
     6
  9
$SURFTAB2
 70
     6
  9
$SURFTYPE
 70
     6
  9
$SURFU
 70
     6
  9
$SURFV
 70
     6
  9
$UCSNAME
  2

  9
$UCSORG
 10
0.0
 20
0.0
 30
0.0
  9
$UCSXDIR
 10
1.0
 20
0.0
 30
0.0
  9
$UCSYDIR
 10
0.0
 20
1.0
 30
0.0
  9
$PUCSNAME
  2

  9
$PUCSORG
 10
0.0
 20
0.0
 30
0.0
  9
$PUCSXDIR
 10
1.0
 20
0.0
 30
0.0
  9
$PUCSYDIR
 10
0.0
 20
1.0
 30
0.0
  9
$USERI1
 70
     0
  9
$USERI2
 70
     0
  9
$USERI3
 70
     0
  9
$USERI4
 70
     0
  9
$USERI5
 70
     0
  9
$USERR1
 40
0.0
  9
$USERR2
 40
0.0
  9
$USERR3
 40
0.0
  9
$USERR4
 40
0.0
  9
$USERR5
 40
0.0
  9
$WORLDVIEW
 70
     1
  9
$SHADEDGE
 70
     3
  9
$SHADEDIF
 70
    70
  9
$TILEMODE
 70
     0
  9
$MAXACTVP
 70
    16
  9
$PINSBASE
 10
0.0
 20
0.0
 30
0.0
  9
$PLIMCHECK
 70
     0
  9
$PEXTMIN
 10
29.01457767957845
 20
27.68940191581225
 30
-0.0015258207003583
  9
$PEXTMAX
 10
414.544523234702
 20
287.7142138870628
 30
0.0000000349246037
  9
$PLIMMIN
 10
15.15433780389673
 20
13.80781516542163
  9
$PLIMMAX
 10
435.1009930773342
 20
310.8184658001872
  9
$UNITMODE
 70
     0
  9
$VISRETAIN
 70
     0
  9
$PLINEGEN
 70
     0
  9
$PSLTSCALE
 70
     1
  9
$TREEDEPTH
 70
  3020
  9
$PICKSTYLE
 70
     1
  9
$CMLSTYLE
  2
STANDARD
  9
$CMLJUST
 70
     0
  9
$CMLSCALE
 40
1.0
  9
$PROXYGRAPHICS
 70
     1
  9
$MEASUREMENT
 70
     0
  0
ENDSEC
  0
SECTION
  2
CLASSES
  0
CLASS
  1
LWPOLYLINE
  2
AcDbPolyline
  3
AutoCAD 2000
 90
        0
280
     0
281
     1
  0
CLASS
  1
HATCH
  2
AcDbHatch
  3
AutoCAD 2000
 90
        0
280
     0
281
     1
  0
CLASS
  1
ACDBDICTIONARYWDFLT
  2
AcDbDictionaryWithDefault
  3
AutoCAD 2000
 90
        0
280
     0
281
     0
  0
CLASS
  1
ACDBPLACEHOLDER
  2
AcDbPlaceHolder
  3
AutoCAD 2000
 90
        0
280
     0
281
     0
  0
CLASS
  1
LAYOUT
  2
AcDbLayout
  3
AutoCAD 2000
 90
        0
280
     0
281
     0
  0
CLASS
  1
DICTIONARYVAR
  2
AcDbDictionaryVar
  3
AutoCAD 2000
 90
        0
280
     0
281
     0
  0
CLASS
  1
LONG_TRANSACTION
  2
AcDbLongTransaction
  3
AutoCAD 2000
 90
        0
280
     0
281
     0
  0
CLASS
  1
LWPOLYLINE
  2
AcDbPolyline
  3
AutoCAD 2000
 90
        0
280
     0
281
     1
  0
CLASS
  1
HATCH
  2
AcDbHatch
  3
AutoCAD 2000
 90
        0
280
     0
281
     1
  0
CLASS
  1
XRECORD
  2
AcDbXrecord
  3
AutoCAD 2000
 90
        0
280
     0
281
     0
  0
ENDSEC
  0
SECTION
  2
TABLES
  0
TABLE
  2
VPORT
  5
8
330
0
100
AcDbSymbolTable
 70
     2
  0
VPORT
  5
168E7
330
8
100
AcDbSymbolTableRecord
100
AcDbViewportTableRecord
  2
*ACTIVE
 70
     0
 10
0.0
 20
0.0
 11
1.0
 21
1.0
 12
-1295.402942574249
 22
1735.976822721644
 13
0.0
 23
0.0
 14
5.0
 24
5.0
 15
0.0
 25
0.0
 16
0.0
 26
0.0
 36
1.0
 17
0.0
 27
0.0
 37
0.0
 40
374.1204292420575
 41
1.778625954198473
 42
50.0
 43
0.0
 44
0.0
 50
0.0
 51
0.0
 71
     0
 72
   100
 73
     1
 74
     0
 75
     0
 76
     0
 77
     0
 78
     0
  0
ENDTAB
  0
TABLE
  2
LTYPE
  5
5
330
0
100
AcDbSymbolTable
 70
    13
  0
LTYPE
  5
14
330
5
100
AcDbSymbolTableRecord
100
AcDbLinetypeTableRecord
  2
BYBLOCK
 70
     0
  3

 72
    65
 73
     0
 40
0.0
  0
LTYPE
  5
15
330
5
100
AcDbSymbolTableRecord
100
AcDbLinetypeTableRecord
  2
BYLAYER
 70
     0
  3

 72
    65
 73
     0
 40
0.0
  0
LTYPE
  5
16
330
5
100
AcDbSymbolTableRecord
100
AcDbLinetypeTableRecord
  2
CONTINUOUS
 70
     0
  3
Solid line
 72
    65
 73
     0
 40
0.0
  0
LTYPE
  5
1956
330
5
100
AcDbSymbolTableRecord
100
AcDbLinetypeTableRecord
  2
CENTERX2
 70
     0
  3
________  __  ________  __  ________  __  _____
 72
    65
 73
     4
 40
4.0
 49
2.5
 74
     0
 49
-0.5
 74
     0
 49
0.5
 74
     0
 49
-0.5
 74
     0
  0
ENDTAB
  0
TABLE
  2
LAYER
  5
2
330
0
100
AcDbSymbolTable
 70
    34
  0
LAYER
  5
F
330
2
100
AcDbSymbolTableRecord
100
AcDbLayerTableRecord
  2
0
 70
     0
 62
     7
  6
CONTINUOUS
  0
LAYER
  5
18F
330
2
100
AcDbSymbolTableRecord
100
AcDbLayerTableRecord
  2
ZISSEN1
 70
     0
 62
     7
  6
CONTINUOUS
  0
LAYER
  5
529
330
2
100
AcDbSymbolTableRecord
100
AcDbLayerTableRecord
  2
SUNPOU
 70
     0
 62
     1
  6
CONTINUOUS
  0
LAYER
  5
195A
330
2
100
AcDbSymbolTableRecord
100
AcDbLayerTableRecord
  2
CL1
 70
     0
 62
   210
  6
CENTERX2
  0
LAYER
  5
3A9B
330
2
100
AcDbSymbolTableRecord
100
AcDbLayerTableRecord
  2
DEFPOINTS
 70
     0
 62
     7
  6
CONTINUOUS
  0
ENDTAB
  0
TABLE
  2
STYLE
  5
3
330
0
100
AcDbSymbolTable
 70
     5
  0
STYLE
  5
10
330
3
100
AcDbSymbolTableRecord
100
AcDbTextStyleTableRecord
  2
STANDARD
 70
     0
 40
0.0
 41
1.0
 50
0.0
 71
     0
 42
3.0
  3
txt
  4
BigFont
  0
STYLE
  5
1960
330
3
100
AcDbSymbolTableRecord
100
AcDbTextStyleTableRecord
  2
ゴシック体
 70
     0
 40
0.0
 41
1.0
 50
0.0
 71
     0
 42
2.5
  3
MS Gothic.ttf
  4

1001
ACAD
1000
MS Gothic
1071
    32817
  0
ENDTAB
  0
TABLE
  2
VIEW
  5
6
330
0
100
AcDbSymbolTable
 70
     0
  0
ENDTAB
  0
TABLE
  2
UCS
  5
7
330
0
100
AcDbSymbolTable
 70
     0
  0
ENDTAB
  0
TABLE
  2
APPID
  5
9
330
0
100
AcDbSymbolTable
 70
     5
  0
APPID
  5
11
330
9
100
AcDbSymbolTableRecord
100
AcDbRegAppTableRecord
  2
ACAD
 70
     0
  0
APPID
  5
4005
330
9
100
AcDbSymbolTableRecord
100
AcDbRegAppTableRecord
  2
CONTENTTABDATA
 70
     0
  0
APPID
  5
4006
330
9
100
AcDbSymbolTableRecord
100
AcDbRegAppTableRecord
  2
CONTENTCURRENTTAB
 70
     0
  0
APPID
  5
477B
330
9
100
AcDbSymbolTableRecord
100
AcDbRegAppTableRecord
  2
CONTENTBLOCKDESCRIPTION
 70
     0
  0
APPID
  5
477C
330
9
100
AcDbSymbolTableRecord
100
AcDbRegAppTableRecord
  2
CONTENTBLOCKICON
 70
     0
  0
ENDTAB
  0
TABLE
  2
DIMSTYLE
  5
A
330
0
100
AcDbSymbolTable
 70
    13
  0
DIMSTYLE
105
1D
330
A
100
AcDbSymbolTableRecord
100
AcDbDimStyleTableRecord
  2
STANDARD
 70
     0
  3

  4

  5

  6

  7

 40
1.0
 41
0.18
 42
0.0625
 43
0.38
 44
0.18
 45
0.0
 46
0.0
 47
0.0
 48
0.0
140
0.18
141
0.09
142
0.0
143
25.4
144
1.0
145
0.0
146
1.0
147
0.09
 71
     0
 72
     0
 73
     1
 74
     1
 75
     0
 76
     0
 77
     0
 78
     0
170
     0
171
     2
172
     0
173
     0
174
     0
175
     0
176
     0
177
     0
178
     0
270
     2
271
     4
272
     4
273
     2
274
     2
340
10
275
     0
280
     0
281
     0
282
     0
283
     1
284
     0
285
     0
286
     0
287
     3
288
     0
  0
DIMSTYLE
105
52E
102
{ACAD_REACTORS
330
163CC
330
163CD
330
163F3
330
163F4
330
16458
330
16459
330
1645A
330
16483
330
165C0
102
}
330
A
100
AcDbSymbolTableRecord
100
AcDbDimStyleTableRecord
  2
標準スタイル
 70
     0
  3

  4

  5

  6

  7

 40
0.0
 41
3.0
 42
0.5
 43
0.5
 44
0.5
 45
0.0
 46
0.0
 47
0.0
 48
0.0
140
3.5
141
0.0
142
0.0
143
25.4
144
1.0
145
0.0
146
1.0
147
1.0
 71
     0
 72
     0
 73
     0
 74
     0
 75
     0
 76
     0
 77
     1
 78
     8
170
     0
171
     2
172
     1
173
     0
174
     0
175
     0
176
     1
177
     1
178
     1
270
     2
271
     2
272
     2
273
     2
274
     2
340
1960
275
     0
280
     0
281
     0
282
     0
283
     1
284
     8
285
     0
286
     0
287
     3
288
     0
  0
ENDTAB
  0
TABLE
  2
BLOCK_RECORD
  5
1
330
0
100
AcDbSymbolTable
 70
    65
  0
BLOCK_RECORD
  5
1A
102
{ACAD_XDICTIONARY
360
1693E
102
}
330
1
100
AcDbSymbolTableRecord
100
AcDbBlockTableRecord
  2
*MODEL_SPACE
  0
BLOCK_RECORD
  5
15176
102
{ACAD_XDICTIONARY
360
16940
102
}
330
1
100
AcDbSymbolTableRecord
100
AcDbBlockTableRecord
  2
*PAPER_SPACE
  0
BLOCK_RECORD
  5
16823
330
1
100
AcDbSymbolTableRecord
100
AcDbBlockTableRecord
  2
*D56
  0
BLOCK_RECORD
  5
1682F
330
1
100
AcDbSymbolTableRecord
100
AcDbBlockTableRecord
  2
*D57
  0
BLOCK_RECORD
  5
1683B
330
1
100
AcDbSymbolTableRecord
100
AcDbBlockTableRecord
  2
*D58
  0
BLOCK_RECORD
  5
16847
330
1
100
AcDbSymbolTableRecord
100
AcDbBlockTableRecord
  2
*D59
  0
BLOCK_RECORD
  5
16853
330
1
100
AcDbSymbolTableRecord
100
AcDbBlockTableRecord
  2
*D60
  0
BLOCK_RECORD
  5
1685F
330
1
100
AcDbSymbolTableRecord
100
AcDbBlockTableRecord
  2
*D61
  0
BLOCK_RECORD
  5
1686B
330
1
100
AcDbSymbolTableRecord
100
AcDbBlockTableRecord
  2
*D62
  0
BLOCK_RECORD
  5
16877
330
1
100
AcDbSymbolTableRecord
100
AcDbBlockTableRecord
  2
*D63
  0
BLOCK_RECORD
  5
16883
330
1
100
AcDbSymbolTableRecord
100
AcDbBlockTableRecord
  2
*D64
  0
ENDTAB
  0
ENDSEC
  0
SECTION
  2
BLOCKS
  0
BLOCK
  5
1B
330
1A
100
AcDbEntity
  8
0
100
AcDbBlockBegin
  2
*MODEL_SPACE
 70
     0
 10
0.0
 20
0.0
 30
0.0
  3
*MODEL_SPACE
  1

  0
ENDBLK
  5
1C
330
1A
100
AcDbEntity
  8
0
100
AcDbBlockEnd
  0
BLOCK
  5
1517A
330
15176
100
AcDbEntity
 67
     1
  8
0
100
AcDbBlockBegin
  2
*PAPER_SPACE
 70
     0
 10
0.0
 20
0.0
 30
0.0
  3
*PAPER_SPACE
  1

  0
ENDBLK
  5
1517B
330
15176
100
AcDbEntity
 67
     1
  8
0
100
AcDbBlockEnd
  0
BLOCK
  5
1682D
330
16823
100
AcDbEntity
  8
0
100
AcDbBlockBegin
  2
*D56
 70
     1
 10
0.0
 20
0.0
 30
0.0
  3
*D56
  1

  0
LINE
  5
16942
330
16823
100
AcDbEntity
  8
SUNPOU
 62
     1
100
AcDbLine
 10
-1271.619709423088
 20
1683.716645135549
 30
0.0
 11
-1271.619709423088
 21
1671.56102264962
 31
0.0
  0
LINE
  5
16943
330
16823
100
AcDbEntity
  8
SUNPOU
 62
     1
100
AcDbLine
 10
-1226.619721795079
 20
1683.716645135549
 30
0.0
 11
-1226.619721795079
 21
1671.56102264962
 31
0.0
  0
LINE
  5
16944
330
16823
100
AcDbEntity
  8
SUNPOU
 62
     1
100
AcDbLine
 10
-1268.619709423088
 20
1672.06102264962
 30
0.0
 11
-1229.619721795079
 21
1672.06102264962
 31
0.0
  0
SOLID
  5
16945
330
16823
100
AcDbEntity
  8
SUNPOU
 62
     1
100
AcDbTrace
 10
-1268.619709423088
 20
1672.56102264962
 30
0.0
 11
-1268.619709423088
 21
1671.56102264962
 31
0.0
 12
-1271.619709423088
 22
1672.06102264962
 32
0.0
 13
-1271.619709423088
 23
1672.06102264962
 33
0.0
  0
SOLID
  5
16946
330
16823
100
AcDbEntity
  8
SUNPOU
 62
     1
100
AcDbTrace
 10
-1229.619721795079
 20
1672.56102264962
 30
0.0
 11
-1229.619721795079
 21
1671.56102264962
 31
0.0
 12
-1226.619721795079
 22
1672.06102264962
 32
0.0
 13
-1226.619721795079
 23
1672.06102264962
 33
0.0
  0
MTEXT
  5
16947
330
16823
100
AcDbEntity
  8
SUNPOU
 62
     1
100
AcDbMText
 10
-1249.119715609083
 20
1674.81102264962
 30
0.0
 40
3.5
 41
0.0
 71
     5
 72
     1
  1
\A1;45
  0
POINT
  5
16948
330
16823
100
AcDbEntity
  8
DEFPOINTS
 62
     0
100
AcDbPoint
 10
-1271.619709423088
 20
1684.216645135549
 30
0.0
  0
POINT
  5
16949
330
16823
100
AcDbEntity
  8
DEFPOINTS
 62
     0
100
AcDbPoint
 10
-1226.619721795079
 20
1684.216645135549
 30
0.0
  0
POINT
  5
1694A
330
16823
100
AcDbEntity
  8
DEFPOINTS
 62
     0
100
AcDbPoint
 10
-1226.619721795079
 20
1672.06102264962
 30
0.0
  0
ENDBLK
  5
1682E
330
16823
100
AcDbEntity
  8
0
100
AcDbBlockEnd
  0
BLOCK
  5
16839
330
1682F
100
AcDbEntity
  8
0
100
AcDbBlockBegin
  2
*D57
 70
     1
 10
0.0
 20
0.0
 30
0.0
  3
*D57
  1

  0
LINE
  5
1694B
330
1682F
100
AcDbEntity
  8
SUNPOU
 62
     1
100
AcDbLine
 10
-1226.619721795079
 20
1683.716645135549
 30
0.0
 11
-1226.619721795079
 21
1671.56102264962
 31
0.0
  0
LINE
  5
1694C
330
1682F
100
AcDbEntity
  8
SUNPOU
 62
     1
100
AcDbLine
 10
-1212.819730702912
 20
1686.21661626757
 30
0.0
 11
-1212.819730702912
 21
1671.56102264962
 31
0.0
  0
LINE
  5
1694D
330
1682F
100
AcDbEntity
  8
SUNPOU
 62
     1
100
AcDbLine
 10
-1223.619721795079
 20
1672.06102264962
 30
0.0
 11
-1215.819730702913
 21
1672.06102264962
 31
0.0
  0
SOLID
  5
1694E
330
1682F
100
AcDbEntity
  8
SUNPOU
 62
     1
100
AcDbTrace
 10
-1223.619721795079
 20
1672.56102264962
 30
0.0
 11
-1223.619721795079
 21
1671.56102264962
 31
0.0
 12
-1226.619721795079
 22
1672.06102264962
 32
0.0
 13
-1226.619721795079
 23
1672.06102264962
 33
0.0
  0
SOLID
  5
1694F
330
1682F
100
AcDbEntity
  8
SUNPOU
 62
     1
100
AcDbTrace
 10
-1215.819730702913
 20
1672.56102264962
 30
0.0
 11
-1215.819730702913
 21
1671.56102264962
 31
0.0
 12
-1212.819730702912
 22
1672.06102264962
 32
0.0
 13
-1212.819730702912
 23
1672.06102264962
 33
0.0
  0
MTEXT
  5
16950
330
1682F
100
AcDbEntity
  8
SUNPOU
 62
     1
100
AcDbMText
 10
-1219.719726248996
 20
1674.81102264962
 30
0.0
 40
3.5
 41
0.0
 71
     5
 72
     1
  1
\A1;13.8
  0
POINT
  5
16951
330
1682F
100
AcDbEntity
  8
DEFPOINTS
 62
     0
100
AcDbPoint
 10
-1226.619721795079
 20
1684.216645135549
 30
0.0
  0
POINT
  5
16952
330
1682F
100
AcDbEntity
  8
DEFPOINTS
 62
     0
100
AcDbPoint
 10
-1212.819730702912
 20
1686.71661626757
 30
0.0
  0
POINT
  5
16953
330
1682F
100
AcDbEntity
  8
DEFPOINTS
 62
     0
100
AcDbPoint
 10
-1212.819730702912
 20
1672.06102264962
 30
0.0
  0
ENDBLK
  5
1683A
330
1682F
100
AcDbEntity
  8
0
100
AcDbBlockEnd
  0
BLOCK
  5
16845
330
1683B
100
AcDbEntity
  8
0
100
AcDbBlockBegin
  2
*D58
 70
     1
 10
0.0
 20
0.0
 30
0.0
  3
*D58
  1

  0
LINE
  5
168A1
330
1683B
100
AcDbEntity
  8
SUNPOU
 62
     1
100
AcDbLine
 10
-1407.046957578836
 20
1679.21661647377
 30
0.0
 11
-1407.046957578836
 21
1659.844985792848
 31
0.0
  0
LINE
  5
168A2
330
1683B
100
AcDbEntity
  8
SUNPOU
 62
     1
100
AcDbLine
 10
-1305.182819381606
 20
1691.747526536776
 30
0.0
 11
-1305.182819381606
 21
1659.844985792848
 31
0.0
  0
LINE
  5
168A3
330
1683B
100
AcDbEntity
  8
SUNPOU
 62
     1
100
AcDbLine
 10
-1404.046957578836
 20
1660.344985792848
 30
0.0
 11
-1308.182819381606
 21
1660.344985792848
 31
0.0
  0
SOLID
  5
168A4
330
1683B
100
AcDbEntity
  8
SUNPOU
 62
     1
100
AcDbTrace
 10
-1404.046957578836
 20
1660.844985792848
 30
0.0
 11
-1404.046957578836
 21
1659.844985792848
 31
0.0
 12
-1407.046957578836
 22
1660.344985792848
 32
0.0
 13
-1407.046957578836
 23
1660.344985792848
 33
0.0
  0
SOLID
  5
168A5
330
1683B
100
AcDbEntity
  8
SUNPOU
 62
     1
100
AcDbTrace
 10
-1308.182819381606
 20
1660.844985792848
 30
0.0
 11
-1308.182819381606
 21
1659.844985792848
 31
0.0
 12
-1305.182819381606
 22
1660.344985792848
 32
0.0
 13
-1305.182819381606
 23
1660.344985792848
 33
0.0
  0
MTEXT
  5
168A6
330
1683B
100
AcDbEntity
  8
SUNPOU
 62
     1
100
AcDbMText
 10
-1356.114888480221
 20
1663.094985792849
 30
0.0
 40
3.5
 41
0.0
 71
     5
 72
     1
  1
\A1;101.86
1001
ACAD
1000
MTEXTBEGIN
1070
    73
1070
     1
1070
    44
1040
1.0
1070
    74
1070
     0
1000
MTEXTEND
  0
POINT
  5
168A7
330
1683B
100
AcDbEntity
  8
DEFPOINTS
 62
     0
100
AcDbPoint
 10
-1407.046957578836
 20
1679.71661647377
 30
0.0
  0
POINT
  5
168A8
330
1683B
100
AcDbEntity
  8
DEFPOINTS
 62
     0
100
AcDbPoint
 10
-1305.182819381606
 20
1692.247526536776
 30
0.0
  0
POINT
  5
168A9
330
1683B
100
AcDbEntity
  8
DEFPOINTS
 62
     0
100
AcDbPoint
 10
-1305.182819381606
 20
1660.344985792848
 30
0.0
  0
ENDBLK
  5
16846
330
1683B
100
AcDbEntity
  8
0
100
AcDbBlockEnd
  0
BLOCK
  5
16851
330
16847
100
AcDbEntity
  8
0
100
AcDbBlockBegin
  2
*D59
 70
     1
 10
0.0
 20
0.0
 30
0.0
  3
*D59
  1

  0
LINE
  5
168AA
330
16847
100
AcDbEntity
  8
SUNPOU
 62
     1
100
AcDbLine
 10
-1407.046957578836
 20
1679.71661647377
 30
0.0
 11
-1407.046957578836
 21
1671.686776989299
 31
0.0
  0
LINE
  5
168AB
330
16847
100
AcDbEntity
  8
SUNPOU
 62
     1
100
AcDbLine
 10
-1321.046964589631
 20
1687.016613958132
 30
0.0
 11
-1321.046964589631
 21
1671.686776989299
 31
0.0
  0
LINE
  5
168AC
330
16847
100
AcDbEntity
  8
SUNPOU
 62
     1
100
AcDbLine
 10
-1404.046957578836
 20
1672.186776989299
 30
0.0
 11
-1324.046964589631
 21
1672.186776989299
 31
0.0
  0
SOLID
  5
168AD
330
16847
100
AcDbEntity
  8
SUNPOU
 62
     1
100
AcDbTrace
 10
-1404.046957578836
 20
1672.686776989299
 30
0.0
 11
-1404.046957578836
 21
1671.686776989299
 31
0.0
 12
-1407.046957578836
 22
1672.186776989299
 32
0.0
 13
-1407.046957578836
 23
1672.186776989299
 33
0.0
  0
SOLID
  5
168AE
330
16847
100
AcDbEntity
  8
SUNPOU
 62
     1
100
AcDbTrace
 10
-1324.046964589631
 20
1672.686776989299
 30
0.0
 11
-1324.046964589631
 21
1671.686776989299
 31
0.0
 12
-1321.046964589631
 22
1672.186776989299
 32
0.0
 13
-1321.046964589631
 23
1672.186776989299
 33
0.0
  0
MTEXT
  5
168AF
330
16847
100
AcDbEntity
  8
SUNPOU
 62
     1
100
AcDbMText
 10
-1364.046961084234
 20
1674.9367769893
 30
0.0
 40
3.5
 41
0.0
 71
     5
 72
     1
  1
\A1;86
1001
ACAD
1000
MTEXTBEGIN
1070
    73
1070
     1
1070
    44
1040
1.0
1070
    74
1070
     0
1000
MTEXTEND
  0
POINT
  5
168B0
330
16847
100
AcDbEntity
  8
DEFPOINTS
 62
     0
100
AcDbPoint
 10
-1407.046957578836
 20
1680.21661647377
 30
0.0
  0
POINT
  5
168B1
330
16847
100
AcDbEntity
  8
DEFPOINTS
 62
     0
100
AcDbPoint
 10
-1321.046964589631
 20
1687.516613958132
 30
0.0
  0
POINT
  5
168B2
330
16847
100
AcDbEntity
  8
DEFPOINTS
 62
     0
100
AcDbPoint
 10
-1321.046964589631
 20
1672.186776989299
 30
0.0
  0
ENDBLK
  5
16852
330
16847
100
AcDbEntity
  8
0
100
AcDbBlockEnd
  0
BLOCK
  5
1685D
330
16853
100
AcDbEntity
  8
0
100
AcDbBlockBegin
  2
*D60
 70
     1
 10
0.0
 20
0.0
 30
0.0
  3
*D60
  1

  0
LINE
  5
168B3
330
16853
100
AcDbEntity
  8
SUNPOU
 62
     1
100
AcDbLine
 10
-1271.119709423088
 20
1684.216645135549
 30
0.0
 11
-1196.784220457021
 21
1684.216645135549
 31
0.0
  0
LINE
  5
168B4
330
16853
100
AcDbEntity
  8
SUNPOU
 62
     1
100
AcDbLine
 10
-1226.119721795079
 20
1800.21669998471
 30
0.0
 11
-1196.784220457021
 21
1800.21669998471
 31
0.0
  0
LINE
  5
168B5
330
16853
100
AcDbEntity
  8
SUNPOU
 62
     1
100
AcDbLine
 10
-1197.284220457021
 20
1687.216645135549
 30
0.0
 11
-1197.284220457021
 21
1797.21669998471
 31
0.0
  0
SOLID
  5
168B6
330
16853
100
AcDbEntity
  8
SUNPOU
 62
     1
100
AcDbTrace
 10
-1197.784220457021
 20
1687.216645135549
 30
0.0
 11
-1196.784220457021
 21
1687.216645135549
 31
0.0
 12
-1197.284220457021
 22
1684.216645135549
 32
0.0
 13
-1197.284220457021
 23
1684.216645135549
 33
0.0
  0
SOLID
  5
168B7
330
16853
100
AcDbEntity
  8
SUNPOU
 62
     1
100
AcDbTrace
 10
-1197.784220457021
 20
1797.21669998471
 30
0.0
 11
-1196.784220457021
 21
1797.21669998471
 31
0.0
 12
-1197.284220457021
 22
1800.21669998471
 32
0.0
 13
-1197.284220457021
 23
1800.21669998471
 33
0.0
  0
MTEXT
  5
168B8
330
16853
100
AcDbEntity
  8
SUNPOU
 62
     1
100
AcDbMText
 10
-1200.034220457022
 20
1742.216672560129
 30
0.0
 40
3.5
 41
0.0
 71
     5
 72
     1
  1
\A1;116(USER取付寸法）
 11
0.0000000000000001
 21
1.0
 31
0.0
1001
ACAD
1000
MTEXTBEGIN
1070
    73
1070
     1
1070
    44
1040
1.0
1070
    74
1070
     0
1000
MTEXTEND
  0
POINT
  5
168B9
330
16853
100
AcDbEntity
  8
DEFPOINTS
 62
     0
100
AcDbPoint
 10
-1271.619709423088
 20
1684.216645135549
 30
0.0
  0
POINT
  5
168BA
330
16853
100
AcDbEntity
  8
DEFPOINTS
 62
     0
100
AcDbPoint
 10
-1226.619721795079
 20
1800.21669998471
 30
0.0
  0
POINT
  5
168BB
330
16853
100
AcDbEntity
  8
DEFPOINTS
 62
     0
100
AcDbPoint
 10
-1197.284220457021
 20
1800.21669998471
 30
0.0
  0
ENDBLK
  5
1685E
330
16853
100
AcDbEntity
  8
0
100
AcDbBlockEnd
  0
BLOCK
  5
16869
330
1685F
100
AcDbEntity
  8
0
100
AcDbBlockBegin
  2
*D61
 70
     1
 10
0.0
 20
0.0
 30
0.0
  3
*D61
  1

  0
LINE
  5
168BC
330
1685F
100
AcDbEntity
  8
SUNPOU
 62
     1
100
AcDbLine
 10
-1219.919721135239
 20
1680.21664431075
 30
0.0
 11
-1182.671651062305
 21
1680.21664431075
 31
0.0
  0
LINE
  5
168BD
330
1685F
100
AcDbEntity
  8
SUNPOU
 62
     1
100
AcDbLine
 10
-1219.919721135239
 20
1804.216638949554
 30
0.0
 11
-1182.671651062305
 21
1804.216638949554
 31
0.0
  0
LINE
  5
168BE
330
1685F
100
AcDbEntity
  8
SUNPOU
 62
     1
100
AcDbLine
 10
-1183.171651062305
 20
1683.21664431075
 30
0.0
 11
-1183.171651062305
 21
1801.216638949554
 31
0.0
  0
SOLID
  5
168BF
330
1685F
100
AcDbEntity
  8
SUNPOU
 62
     1
100
AcDbTrace
 10
-1183.671651062305
 20
1683.21664431075
 30
0.0
 11
-1182.671651062305
 21
1683.21664431075
 31
0.0
 12
-1183.171651062305
 22
1680.21664431075
 32
0.0
 13
-1183.171651062305
 23
1680.21664431075
 33
0.0
  0
SOLID
  5
168C0
330
1685F
100
AcDbEntity
  8
SUNPOU
 62
     1
100
AcDbTrace
 10
-1183.671651062305
 20
1801.216638949554
 30
0.0
 11
-1182.671651062305
 21
1801.216638949554
 31
0.0
 12
-1183.171651062305
 22
1804.216638949554
 32
0.0
 13
-1183.171651062305
 23
1804.216638949554
 33
0.0
  0
MTEXT
  5
168C1
330
1685F
100
AcDbEntity
  8
SUNPOU
 62
     1
100
AcDbMText
 10
-1185.921651062306
 20
1742.216641630152
 30
0.0
 40
3.5
 41
0.0
 71
     5
 72
     1
  1
\A1;124
 11
0.0000000000000001
 21
1.0
 31
0.0
1001
ACAD
1000
MTEXTBEGIN
1070
    73
1070
     1
1070
    44
1040
1.0
1070
    74
1070
     0
1000
MTEXTEND
  0
POINT
  5
168C2
330
1685F
100
AcDbEntity
  8
DEFPOINTS
 62
     0
100
AcDbPoint
 10
-1220.419721135239
 20
1680.21664431075
 30
0.0
  0
POINT
  5
168C3
330
1685F
100
AcDbEntity
  8
DEFPOINTS
 62
     0
100
AcDbPoint
 10
-1220.419721135239
 20
1804.216638949554
 30
0.0
  0
POINT
  5
168C4
330
1685F
100
AcDbEntity
  8
DEFPOINTS
 62
     0
100
AcDbPoint
 10
-1183.171651062305
 20
1804.216638949554
 30
0.0
  0
ENDBLK
  5
1686A
330
1685F
100
AcDbEntity
  8
0
100
AcDbBlockEnd
  0
BLOCK
  5
16875
330
1686B
100
AcDbEntity
  8
0
100
AcDbBlockBegin
  2
*D62
 70
     1
 10
0.0
 20
0.0
 30
0.0
  3
*D62
  1

  0
LINE
  5
168C5
330
1686B
100
AcDbEntity
  8
SUNPOU
 62
     1
100
AcDbLine
 10
-1322.346953207399
 20
1797.716642248752
 30
0.0
 11
-1299.081905180023
 21
1797.716642248752
 31
0.0
  0
LINE
  5
168C6
330
1686B
100
AcDbEntity
  8
SUNPOU
 62
     1
100
AcDbLine
 10
-1321.346962280193
 20
1686.71661626757
 30
0.0
 11
-1299.081905180023
 21
1686.71661626757
 31
0.0
  0
LINE
  5
168C7
330
1686B
100
AcDbEntity
  8
SUNPOU
 62
     1
100
AcDbLine
 10
-1299.581905180023
 20
1794.716642248752
 30
0.0
 11
-1299.581905180023
 21
1689.71661626757
 31
0.0
  0
SOLID
  5
168C8
330
1686B
100
AcDbEntity
  8
SUNPOU
 62
     1
100
AcDbTrace
 10
-1300.081905180022
 20
1794.716642248752
 30
0.0
 11
-1299.081905180023
 21
1794.716642248752
 31
0.0
 12
-1299.581905180023
 22
1797.716642248752
 32
0.0
 13
-1299.581905180023
 23
1797.716642248752
 33
0.0
  0
SOLID
  5
168C9
330
1686B
100
AcDbEntity
  8
SUNPOU
 62
     1
100
AcDbTrace
 10
-1300.081905180022
 20
1689.71661626757
 30
0.0
 11
-1299.081905180023
 21
1689.71661626757
 31
0.0
 12
-1299.581905180023
 22
1686.71661626757
 32
0.0
 13
-1299.581905180023
 23
1686.71661626757
 33
0.0
  0
MTEXT
  5
168CA
330
1686B
100
AcDbEntity
  8
SUNPOU
 62
     1
100
AcDbMText
 10
-1302.331905180023
 20
1742.216629258161
 30
0.0
 40
3.5
 41
0.0
 71
     5
 72
     1
  1
\A1;111
 11
0.0000000000000001
 21
1.0
 31
0.0
1001
ACAD
1000
MTEXTBEGIN
1070
    73
1070
     1
1070
    44
1040
1.0
1070
    74
1070
     0
1000
MTEXTEND
  0
POINT
  5
168CB
330
1686B
100
AcDbEntity
  8
DEFPOINTS
 62
     0
100
AcDbPoint
 10
-1322.846953207399
 20
1797.716642248752
 30
0.0
  0
POINT
  5
168CC
330
1686B
100
AcDbEntity
  8
DEFPOINTS
 62
     0
100
AcDbPoint
 10
-1321.846962280193
 20
1686.71661626757
 30
0.0
  0
POINT
  5
168CD
330
1686B
100
AcDbEntity
  8
DEFPOINTS
 62
     0
100
AcDbPoint
 10
-1299.581905180023
 20
1686.71661626757
 30
0.0
  0
ENDBLK
  5
16876
330
1686B
100
AcDbEntity
  8
0
100
AcDbBlockEnd
  0
BLOCK
  5
16881
330
16877
100
AcDbEntity
  8
0
100
AcDbBlockBegin
  2
*D63
 70
     1
 10
0.0
 20
0.0
 30
0.0
  3
*D63
  1

  0
LINE
  5
168CE
330
16877
100
AcDbEntity
  8
SUNPOU
 62
     1
100
AcDbLine
 10
-1285.619718495881
 20
1680.71664451695
 30
0.0
 11
-1285.619718495881
 21
1671.56102264962
 31
0.0
  0
LINE
  5
168CF
330
16877
100
AcDbEntity
  8
SUNPOU
 62
     1
100
AcDbLine
 10
-1271.619709423088
 20
1683.716645135549
 30
0.0
 11
-1271.619709423088
 21
1671.56102264962
 31
0.0
  0
LINE
  5
168D0
330
16877
100
AcDbEntity
  8
SUNPOU
 62
     1
100
AcDbLine
 10
-1282.619718495881
 20
1672.06102264962
 30
0.0
 11
-1274.619709423088
 21
1672.06102264962
 31
0.0
  0
SOLID
  5
168D1
330
16877
100
AcDbEntity
  8
SUNPOU
 62
     1
100
AcDbTrace
 10
-1282.619718495881
 20
1672.56102264962
 30
0.0
 11
-1282.619718495881
 21
1671.56102264962
 31
0.0
 12
-1285.619718495881
 22
1672.06102264962
 32
0.0
 13
-1285.619718495881
 23
1672.06102264962
 33
0.0
  0
SOLID
  5
168D2
330
16877
100
AcDbEntity
  8
SUNPOU
 62
     1
100
AcDbTrace
 10
-1274.619709423088
 20
1672.56102264962
 30
0.0
 11
-1274.619709423088
 21
1671.56102264962
 31
0.0
 12
-1271.619709423088
 22
1672.06102264962
 32
0.0
 13
-1271.619709423088
 23
1672.06102264962
 33
0.0
  0
MTEXT
  5
168D3
330
16877
100
AcDbEntity
  8
SUNPOU
 62
     1
100
AcDbMText
 10
-1278.619713959485
 20
1674.81102264962
 30
0.0
 40
3.5
 41
0.0
 71
     5
 72
     1
  1
\A1;14
1001
ACAD
1000
MTEXTBEGIN
1070
    73
1070
     1
1070
    44
1040
1.0
1070
    74
1070
     0
1000
MTEXTEND
  0
POINT
  5
168D4
330
16877
100
AcDbEntity
  8
DEFPOINTS
 62
     0
100
AcDbPoint
 10
-1285.619718495881
 20
1681.21664451695
 30
0.0
  0
POINT
  5
168D5
330
16877
100
AcDbEntity
  8
DEFPOINTS
 62
     0
100
AcDbPoint
 10
-1271.619709423088
 20
1684.216645135549
 30
0.0
  0
POINT
  5
168D6
330
16877
100
AcDbEntity
  8
DEFPOINTS
 62
     0
100
AcDbPoint
 10
-1271.619709423088
 20
1672.06102264962
 30
0.0
  0
ENDBLK
  5
16882
330
16877
100
AcDbEntity
  8
0
100
AcDbBlockEnd
  0
BLOCK
  5
1688D
330
16883
100
AcDbEntity
  8
0
100
AcDbBlockBegin
  2
*D64
 70
     1
 10
0.0
 20
0.0
 30
0.0
  3
*D64
  1

  0
LINE
  5
168D7
330
16883
100
AcDbEntity
  8
SUNPOU
 62
     1
100
AcDbLine
 10
-1285.719758416173
 20
1788.746650100842
 30
0.0
 11
-1285.719758416173
 21
1812.848141035832
 31
0.0
  0
LINE
  5
168D8
330
16883
100
AcDbEntity
  8
SUNPOU
 62
     1
100
AcDbLine
 10
-1212.819730702912
 20
1798.216642248751
 30
0.0
 11
-1212.819730702912
 21
1812.848141035832
 31
0.0
  0
LINE
  5
168D9
330
16883
100
AcDbEntity
  8
SUNPOU
 62
     1
100
AcDbLine
 10
-1282.719758416172
 20
1812.348141035833
 30
0.0
 11
-1215.819730702913
 21
1812.348141035833
 31
0.0
  0
SOLID
  5
168DA
330
16883
100
AcDbEntity
  8
SUNPOU
 62
     1
100
AcDbTrace
 10
-1282.719758416172
 20
1812.848141035832
 30
0.0
 11
-1282.719758416172
 21
1811.848141035832
 31
0.0
 12
-1285.719758416173
 22
1812.348141035833
 32
0.0
 13
-1285.719758416173
 23
1812.348141035833
 33
0.0
  0
SOLID
  5
168DB
330
16883
100
AcDbEntity
  8
SUNPOU
 62
     1
100
AcDbTrace
 10
-1215.819730702913
 20
1812.848141035832
 30
0.0
 11
-1215.819730702913
 21
1811.848141035832
 31
0.0
 12
-1212.819730702912
 22
1812.348141035833
 32
0.0
 13
-1212.819730702912
 23
1812.348141035833
 33
0.0
  0
MTEXT
  5
168DC
330
16883
100
AcDbEntity
  8
SUNPOU
 62
     1
100
AcDbMText
 10
-1249.269744559542
 20
1815.098141035833
 30
0.0
 40
3.5
 41
0.0
 71
     5
 72
     1
  1
\A1;72.9
1001
ACAD
1000
MTEXTBEGIN
1070
    73
1070
     1
1070
    44
1040
1.0
1070
    74
1070
     0
1000
MTEXTEND
  0
POINT
  5
168DD
330
16883
100
AcDbEntity
  8
DEFPOINTS
 62
     0
100
AcDbPoint
 10
-1285.719758416173
 20
1788.246650100842
 30
0.0
  0
POINT
  5
168DE
330
16883
100
AcDbEntity
  8
DEFPOINTS
 62
     0
100
AcDbPoint
 10
-1212.819730702912
 20
1797.716642248752
 30
0.0
  0
POINT
  5
168DF
330
16883
100
AcDbEntity
  8
DEFPOINTS
 62
     0
100
AcDbPoint
 10
-1212.819730702912
 20
1812.348141035833
 30
0.0
  0
ENDBLK
  5
1688E
330
16883
100
AcDbEntity
  8
0
100
AcDbBlockEnd
  0
ENDSEC
  0
SECTION
  2
ENTITIES
  0
MTEXT
  5
5084
330
1A
100
AcDbEntity
  8
0
100
AcDbMText
 10
1985.239088685435
 20
-948.5420423450428
 30
0.0
 40
8.0
 41
0.0
 71
     7
 72
     5
  1

1001
ACAD
1000
MTEXTBEGIN
1070
    73
1070
     1
1070
    44
1040
1.0
1070
    74
1070
     0
1000
MTEXTEND
  0
MTEXT
  5
5085
330
1A
100
AcDbEntity
  8
0
100
AcDbMText
 10
4270.596778580329
 20
22.24825240601649
 30
0.0
 40
8.0
 41
0.0
 71
     7
 72
     5
  1

1001
ACAD
1000
MTEXTBEGIN
1070
    73
1070
     1
1070
    44
1040
1.0
1070
    74
1070
     0
1000
MTEXTEND
  0
MTEXT
  5
5343
330
1A
100
AcDbEntity
  8
SUNPOU
100
AcDbMText
 10
6936.493799262471
 20
9534.359644781135
 30
0.0
 40
10.5
 41
0.0
 71
     1
 72
     5
  1

1001
ACAD
1000
MTEXTBEGIN
1070
    73
1070
     1
1070
    44
1040
1.0
1070
    74
1070
     0
1000
MTEXTEND
  0
MTEXT
  5
544F
330
1A
100
AcDbEntity
  8
0
100
AcDbMText
 10
16317.2832773148
 20
12833.35428897674
 30
0.0
 40
8.0
 41
0.0
 71
     7
 72
     5
  1

1001
ACAD
1000
MTEXTBEGIN
1070
    73
1070
     1
1070
    44
1040
1.0
1070
    74
1070
     0
1000
MTEXTEND
  0
MTEXT
  5
5450
330
1A
100
AcDbEntity
  8
0
100
AcDbMText
 10
18602.64096720969
 20
13804.1445837278
 30
0.0
 40
8.0
 41
0.0
 71
     7
 72
     5
  1

1001
ACAD
1000
MTEXTBEGIN
1070
    73
1070
     1
1070
    44
1040
1.0
1070
    74
1070
     0
1000
MTEXTEND
  0
MTEXT
  5
5451
330
1A
100
AcDbEntity
  8
SUNPOU
100
AcDbMText
 10
21268.53798789184
 20
23316.25597610292
 30
0.0
 40
10.5
 41
0.0
 71
     1
 72
     5
  1

1001
ACAD
1000
MTEXTBEGIN
1070
    73
1070
     1
1070
    44
1040
1.0
1070
    74
1070
     0
1000
MTEXTEND
  0
MTEXT
  5
5452
330
1A
100
AcDbEntity
  8
SUNPOU
100
AcDbMText
 10
13337.6147919559
 20
22369.46284218996
 30
0.0
 40
10.5
 41
0.0
 71
     7
 72
     5
  1

1001
ACAD
1000
MTEXTBEGIN
1070
    73
1070
     1
1070
    44
1040
1.0
1070
    74
1070
     0
1000
MTEXTEND
  0
MTEXT
  5
5453
330
1A
100
AcDbEntity
  8
SUNPOU
100
AcDbMText
 10
16286.59845646867
 20
27270.13891403281
 30
0.0
 40
10.5
 41
0.0
 71
     7
 72
     5
  1

1001
ACAD
1000
MTEXTBEGIN
1070
    73
1070
     1
1070
    44
1040
1.0
1070
    74
1070
     0
1000
MTEXTEND
  0
MTEXT
  5
5454
330
1A
100
AcDbEntity
  8
SUNPOU
100
AcDbMText
 10
20795.67658441924
 20
29706.43966165288
 30
0.0
 40
10.5
 41
0.0
 71
     7
 72
     5
  1

1001
ACAD
1000
MTEXTBEGIN
1070
    73
1070
     1
1070
    44
1040
1.0
1070
    74
1070
     0
1000
MTEXTEND
  0
MTEXT
  5
5455
330
1A
100
AcDbEntity
  8
0
100
AcDbMText
 10
16611.93789220314
 20
14707.52144344448
 30
0.0
 40
8.0
 41
0.0
 71
     7
 72
     5
  1

1001
ACAD
1000
MTEXTBEGIN
1070
    73
1070
     1
1070
    44
1040
1.0
1070
    74
1070
     0
1000
MTEXTEND
  0
MTEXT
  5
5456
330
1A
100
AcDbEntity
  8
0
100
AcDbMText
 10
18897.29558209804
 20
15678.31173819554
 30
0.0
 40
8.0
 41
0.0
 71
     7
 72
     5
  1

1001
ACAD
1000
MTEXTBEGIN
1070
    73
1070
     1
1070
    44
1040
1.0
1070
    74
1070
     0
1000
MTEXTEND
  0
MTEXT
  5
5457
330
1A
100
AcDbEntity
  8
SUNPOU
100
AcDbMText
 10
21563.19260278019
 20
25190.42313057066
 30
0.0
 40
10.5
 41
0.0
 71
     1
 72
     5
  1

1001
ACAD
1000
MTEXTBEGIN
1070
    73
1070
     1
1070
    44
1040
1.0
1070
    74
1070
     0
1000
MTEXTEND
  0
MTEXT
  5
5458
330
1A
100
AcDbEntity
  8
SUNPOU
100
AcDbMText
 10
13632.26940684426
 20
24243.6299966577
 30
0.0
 40
10.5
 41
0.0
 71
     7
 72
     5
  1

1001
ACAD
1000
MTEXTBEGIN
1070
    73
1070
     1
1070
    44
1040
1.0
1070
    74
1070
     0
1000
MTEXTEND
  0
MTEXT
  5
5459
330
1A
100
AcDbEntity
  8
SUNPOU
100
AcDbMText
 10
16581.25307135702
 20
29144.30606850055
 30
0.0
 40
10.5
 41
0.0
 71
     7
 72
     5
  1

1001
ACAD
1000
MTEXTBEGIN
1070
    73
1070
     1
1070
    44
1040
1.0
1070
    74
1070
     0
1000
MTEXTEND
  0
MTEXT
  5
545A
330
1A
100
AcDbEntity
  8
SUNPOU
100
AcDbMText
 10
21090.33119930759
 20
31580.60681612062
 30
0.0
 40
10.5
 41
0.0
 71
     7
 72
     5
  1

1001
ACAD
1000
MTEXTBEGIN
1070
    73
1070
     1
1070
    44
1040
1.0
1070
    74
1070
     0
1000
MTEXTEND
  0
MTEXT
  5
545B
330
1A
100
AcDbEntity
  8
0
100
AcDbMText
 10
22871.60517627167
 20
23974.88367124799
 30
0.0
 40
8.0
 41
0.0
 71
     7
 72
     5
  1

1001
ACAD
1000
MTEXTBEGIN
1070
    73
1070
     1
1070
    44
1040
1.0
1070
    74
1070
     0
1000
MTEXTEND
  0
MTEXT
  5
545C
330
1A
100
AcDbEntity
  8
0
100
AcDbMText
 10
25156.96286616657
 20
24945.67396599906
 30
0.0
 40
8.0
 41
0.0
 71
     7
 72
     5
  1

1001
ACAD
1000
MTEXTBEGIN
1070
    73
1070
     1
1070
    44
1040
1.0
1070
    74
1070
     0
1000
MTEXTEND
  0
MTEXT
  5
545D
330
1A
100
AcDbEntity
  8
SUNPOU
100
AcDbMText
 10
27822.85988684871
 20
34457.78535837418
 30
0.0
 40
10.5
 41
0.0
 71
     1
 72
     5
  1

1001
ACAD
1000
MTEXTBEGIN
1070
    73
1070
     1
1070
    44
1040
1.0
1070
    74
1070
     0
1000
MTEXTEND
  0
MTEXT
  5
545E
330
1A
100
AcDbEntity
  8
SUNPOU
100
AcDbMText
 10
19891.93669091278
 20
33510.99222446122
 30
0.0
 40
10.5
 41
0.0
 71
     7
 72
     5
  1

1001
ACAD
1000
MTEXTBEGIN
1070
    73
1070
     1
1070
    44
1040
1.0
1070
    74
1070
     0
1000
MTEXTEND
  0
MTEXT
  5
545F
330
1A
100
AcDbEntity
  8
SUNPOU
100
AcDbMText
 10
22840.92035542555
 20
38411.66829630407
 30
0.0
 40
10.5
 41
0.0
 71
     7
 72
     5
  1

1001
ACAD
1000
MTEXTBEGIN
1070
    73
1070
     1
1070
    44
1040
1.0
1070
    74
1070
     0
1000
MTEXTEND
  0
MTEXT
  5
5460
330
1A
100
AcDbEntity
  8
SUNPOU
100
AcDbMText
 10
27349.99848337611
 20
40847.96904392415
 30
0.0
 40
10.5
 41
0.0
 71
     7
 72
     5
  1

1001
ACAD
1000
MTEXTBEGIN
1070
    73
1070
     1
1070
    44
1040
1.0
1070
    74
1070
     0
1000
MTEXTEND
  0
MTEXT
  5
55B7
330
1A
100
AcDbEntity
  8
SUNPOU
100
AcDbMText
 10
67424.23923338197
 20
64463.86602884816
 30
0.0
 40
10.5
 41
0.0
 71
     9
 72
     5
  1

1001
ACAD
1000
MTEXTBEGIN
1070
    73
1070
     1
1070
    44
1040
1.0
1070
    74
1070
     0
1000
MTEXTEND
  0
MTEXT
  5
55B8
330
1A
100
AcDbEntity
  8
SUNPOU
100
AcDbMText
 10
76146.40679929998
 20
71879.70056038563
 30
0.0
 40
10.5
 41
0.0
 71
     9
 72
     5
  1

1001
ACAD
1000
MTEXTBEGIN
1070
    73
1070
     1
1070
    44
1040
1.0
1070
    74
1070
     0
1000
MTEXTEND
  0
MTEXT
  5
55B9
330
1A
100
AcDbEntity
  8
SUNPOU
100
AcDbMText
 10
95100.16551662994
 20
89346.27661287766
 30
0.0
 40
10.5
 41
0.0
 71
     9
 72
     5
  1

1001
ACAD
1000
MTEXTBEGIN
1070
    73
1070
     1
1070
    44
1040
1.0
1070
    74
1070
     0
1000
MTEXTEND
  0
MTEXT
  5
55BA
330
1A
100
AcDbEntity
  8
SUNPOU
100
AcDbMText
 10
97043.57276333936
 20
87545.22753299966
 30
0.0
 40
3.5
 41
0.0
 71
     9
 72
     5
  1

1001
ACAD
1000
MTEXTBEGIN
1070
    73
1070
     1
1070
    44
1040
1.0
1070
    74
1070
     0
1000
MTEXTEND
  0
MTEXT
  5
55BB
330
1A
100
AcDbEntity
  8
SUNPOU
100
AcDbMText
 10
128169.752595959
 20
130040.1732006569
 30
0.0
 40
10.5
 41
0.0
 71
     9
 72
     5
  1

1001
ACAD
1000
MTEXTBEGIN
1070
    73
1070
     1
1070
    44
1040
1.0
1070
    74
1070
     0
1000
MTEXTEND
  0
MTEXT
  5
55BC
330
1A
100
AcDbEntity
  8
SUNPOU
100
AcDbMText
 10
130113.1598426684
 20
128239.1241207789
 30
0.0
 40
3.5
 41
0.0
 71
     9
 72
     5
  1

1001
ACAD
1000
MTEXTBEGIN
1070
    73
1070
     1
1070
    44
1040
1.0
1070
    74
1070
     0
1000
MTEXTEND
  0
MTEXT
  5
55BD
330
1A
100
AcDbEntity
  8
SUNPOU
100
AcDbMText
 10
78610.02030175463
 20
75873.33835563206
 30
0.0
 40
10.5
 41
0.0
 71
     9
 72
     5
  1

1001
ACAD
1000
MTEXTBEGIN
1070
    73
1070
     1
1070
    44
1040
1.0
1070
    74
1070
     0
1000
MTEXTEND
  0
MTEXT
  5
55BE
330
1A
100
AcDbEntity
  8
SUNPOU
100
AcDbMText
 10
64662.02020137863
 20
56700.93921651987
 30
0.0
 40
3.5
 41
0.0
 71
     7
 72
     5
  1

1001
ACAD
1000
MTEXTBEGIN
1070
    73
1070
     1
1070
    44
1040
1.0
1070
    74
1070
     0
1000
MTEXTEND
  0
MTEXT
  5
55BF
330
1A
100
AcDbEntity
  8
SUNPOU
100
AcDbMText
 10
45647.18959837178
 20
44463.08794733807
 30
0.0
 40
10.5
 41
0.0
 71
     7
 72
     5
  1

1001
ACAD
1000
MTEXTBEGIN
1070
    73
1070
     1
1070
    44
1040
1.0
1070
    74
1070
     0
1000
MTEXTEND
  0
MTEXT
  5
55C0
330
1A
100
AcDbEntity
  8
SUNPOU
100
AcDbMText
 10
33189.96133342368
 20
28618.15636923965
 30
0.0
 40
35.0
 41
0.0
 71
     9
 72
     5
  1

1001
ACAD
1000
MTEXTBEGIN
1070
    73
1070
     1
1070
    44
1040
1.0
1070
    74
1070
     0
1000
MTEXTEND
  0
MTEXT
  5
55C1
330
1A
100
AcDbEntity
  8
SUNPOU
100
AcDbMText
 10
32098.44639099864
 20
29226.93177928835
 30
0.0
 40
350.0000004171781
 41
0.0
 71
     7
 72
     5
  1

1001
ACAD
1000
MTEXTBEGIN
1070
    73
1070
     1
1070
    44
1040
1.0
1070
    74
1070
     0
1000
MTEXTEND
  0
MTEXT
  5
55C2
330
1A
100
AcDbEntity
  8
0
100
AcDbMText
 10
38142.39714894154
 20
27206.85414142458
 30
0.0
 40
8.0
 41
0.0
 71
     7
 72
     5
  1

1001
ACAD
1000
MTEXTBEGIN
1070
    73
1070
     1
1070
    44
1040
1.0
1070
    74
1070
     0
1000
MTEXTEND
  0
MTEXT
  5
55C3
330
1A
100
AcDbEntity
  8
0
100
AcDbMText
 10
40427.75483883644
 20
28177.64443617564
 30
0.0
 40
8.0
 41
0.0
 71
     7
 72
     5
  1

1001
ACAD
1000
MTEXTBEGIN
1070
    73
1070
     1
1070
    44
1040
1.0
1070
    74
1070
     0
1000
MTEXTEND
  0
MTEXT
  5
55C4
330
1A
100
AcDbEntity
  8
SUNPOU
100
AcDbMText
 10
43093.65185951858
 20
37689.75582855077
 30
0.0
 40
10.5
 41
0.0
 71
     1
 72
     5
  1

1001
ACAD
1000
MTEXTBEGIN
1070
    73
1070
     1
1070
    44
1040
1.0
1070
    74
1070
     0
1000
MTEXTEND
  0
MTEXT
  5
55C5
330
1A
100
AcDbEntity
  8
SUNPOU
100
AcDbMText
 10
35162.72866358265
 20
36742.96269463781
 30
0.0
 40
10.5
 41
0.0
 71
     7
 72
     5
  1

1001
ACAD
1000
MTEXTBEGIN
1070
    73
1070
     1
1070
    44
1040
1.0
1070
    74
1070
     0
1000
MTEXTEND
  0
MTEXT
  5
55C6
330
1A
100
AcDbEntity
  8
SUNPOU
100
AcDbMText
 10
38111.71232809542
 20
41643.63876648066
 30
0.0
 40
10.5
 41
0.0
 71
     7
 72
     5
  1

1001
ACAD
1000
MTEXTBEGIN
1070
    73
1070
     1
1070
    44
1040
1.0
1070
    74
1070
     0
1000
MTEXTEND
  0
MTEXT
  5
55C7
330
1A
100
AcDbEntity
  8
SUNPOU
100
AcDbMText
 10
42620.79045604597
 20
44079.93951410074
 30
0.0
 40
10.5
 41
0.0
 71
     7
 72
     5
  1

1001
ACAD
1000
MTEXTBEGIN
1070
    73
1070
     1
1070
    44
1040
1.0
1070
    74
1070
     0
1000
MTEXTEND
  0
MTEXT
  5
55C8
330
1A
100
AcDbEntity
  8
SUNPOU
100
AcDbMText
 10
26221.62834281429
 20
23077.53566448964
 30
0.0
 40
10.5
 41
0.0
 71
     7
 72
     5
  1

1001
ACAD
1000
MTEXTBEGIN
1070
    73
1070
     1
1070
    44
1040
1.0
1070
    74
1070
     0
1000
MTEXTEND
  0
MTEXT
  5
55C9
330
1A
100
AcDbEntity
  8
SUNPOU
100
AcDbMText
 10
77413.14677671455
 20
68750.51622813789
 30
0.0
 40
10.5
 41
0.0
 71
     9
 72
     5
  1

1001
ACAD
1000
MTEXTBEGIN
1070
    73
1070
     1
1070
    44
1040
1.0
1070
    74
1070
     0
1000
MTEXTEND
  0
MTEXT
  5
55CA
330
1A
100
AcDbEntity
  8
SUNPOU
100
AcDbMText
 10
86135.31434263256
 20
76166.35075967536
 30
0.0
 40
10.5
 41
0.0
 71
     9
 72
     5
  1

1001
ACAD
1000
MTEXTBEGIN
1070
    73
1070
     1
1070
    44
1040
1.0
1070
    74
1070
     0
1000
MTEXTEND
  0
MTEXT
  5
55CB
330
1A
100
AcDbEntity
  8
SUNPOU
100
AcDbMText
 10
105089.0730599625
 20
93632.92681216739
 30
0.0
 40
10.5
 41
0.0
 71
     9
 72
     5
  1

1001
ACAD
1000
MTEXTBEGIN
1070
    73
1070
     1
1070
    44
1040
1.0
1070
    74
1070
     0
1000
MTEXTEND
  0
MTEXT
  5
55CC
330
1A
100
AcDbEntity
  8
SUNPOU
100
AcDbMText
 10
107032.4803066719
 20
91831.8777322894
 30
0.0
 40
3.5
 41
0.0
 71
     9
 72
     5
  1

1001
ACAD
1000
MTEXTBEGIN
1070
    73
1070
     1
1070
    44
1040
1.0
1070
    74
1070
     0
1000
MTEXTEND
  0
MTEXT
  5
55CD
330
1A
100
AcDbEntity
  8
SUNPOU
100
AcDbMText
 10
138158.6601392916
 20
134326.8233999467
 30
0.0
 40
10.5
 41
0.0
 71
     9
 72
     5
  1

1001
ACAD
1000
MTEXTBEGIN
1070
    73
1070
     1
1070
    44
1040
1.0
1070
    74
1070
     0
1000
MTEXTEND
  0
MTEXT
  5
55CE
330
1A
100
AcDbEntity
  8
SUNPOU
100
AcDbMText
 10
140102.067386001
 20
132525.7743200686
 30
0.0
 40
3.5
 41
0.0
 71
     9
 72
     5
  1

1001
ACAD
1000
MTEXTBEGIN
1070
    73
1070
     1
1070
    44
1040
1.0
1070
    74
1070
     0
1000
MTEXTEND
  0
MTEXT
  5
55CF
330
1A
100
AcDbEntity
  8
SUNPOU
100
AcDbMText
 10
88598.92784508721
 20
80159.98855492179
 30
0.0
 40
10.5
 41
0.0
 71
     9
 72
     5
  1

1001
ACAD
1000
MTEXTBEGIN
1070
    73
1070
     1
1070
    44
1040
1.0
1070
    74
1070
     0
1000
MTEXTEND
  0
MTEXT
  5
55D0
330
1A
100
AcDbEntity
  8
SUNPOU
100
AcDbMText
 10
74650.92774471121
 20
60987.5894158096
 30
0.0
 40
3.5
 41
0.0
 71
     7
 72
     5
  1

1001
ACAD
1000
MTEXTBEGIN
1070
    73
1070
     1
1070
    44
1040
1.0
1070
    74
1070
     0
1000
MTEXTEND
  0
MTEXT
  5
55D1
330
1A
100
AcDbEntity
  8
SUNPOU
100
AcDbMText
 10
55636.09714170436
 20
48749.73814662781
 30
0.0
 40
10.5
 41
0.0
 71
     7
 72
     5
  1

1001
ACAD
1000
MTEXTBEGIN
1070
    73
1070
     1
1070
    44
1040
1.0
1070
    74
1070
     0
1000
MTEXTEND
  0
MTEXT
  5
55D2
330
1A
100
AcDbEntity
  8
SUNPOU
100
AcDbMText
 10
43178.86887675626
 20
32904.80656852938
 30
0.0
 40
35.0
 41
0.0
 71
     9
 72
     5
  1

1001
ACAD
1000
MTEXTBEGIN
1070
    73
1070
     1
1070
    44
1040
1.0
1070
    74
1070
     0
1000
MTEXTEND
  0
MTEXT
  5
55D3
330
1A
100
AcDbEntity
  8
SUNPOU
100
AcDbMText
 10
42087.35393433121
 20
33513.58197857809
 30
0.0
 40
350.0000004171781
 41
0.0
 71
     7
 72
     5
  1

1001
ACAD
1000
MTEXTBEGIN
1070
    73
1070
     1
1070
    44
1040
1.0
1070
    74
1070
     0
1000
MTEXTEND
  0
MTEXT
  5
55D4
330
1A
100
AcDbEntity
  8
0
100
AcDbMText
 10
48131.30469227412
 20
31493.50434071431
 30
0.0
 40
8.0
 41
0.0
 71
     7
 72
     5
  1

1001
ACAD
1000
MTEXTBEGIN
1070
    73
1070
     1
1070
    44
1040
1.0
1070
    74
1070
     0
1000
MTEXTEND
  0
MTEXT
  5
55D5
330
1A
100
AcDbEntity
  8
0
100
AcDbMText
 10
50416.66238216901
 20
32464.29463546537
 30
0.0
 40
8.0
 41
0.0
 71
     7
 72
     5
  1

1001
ACAD
1000
MTEXTBEGIN
1070
    73
1070
     1
1070
    44
1040
1.0
1070
    74
1070
     0
1000
MTEXTEND
  0
MTEXT
  5
55D6
330
1A
100
AcDbEntity
  8
SUNPOU
100
AcDbMText
 10
53082.55940285115
 20
41976.4060278405
 30
0.0
 40
10.5
 41
0.0
 71
     1
 72
     5
  1

1001
ACAD
1000
MTEXTBEGIN
1070
    73
1070
     1
1070
    44
1040
1.0
1070
    74
1070
     0
1000
MTEXTEND
  0
MTEXT
  5
55D7
330
1A
100
AcDbEntity
  8
SUNPOU
100
AcDbMText
 10
45151.63620691522
 20
41029.61289392755
 30
0.0
 40
10.5
 41
0.0
 71
     7
 72
     5
  1

1001
ACAD
1000
MTEXTBEGIN
1070
    73
1070
     1
1070
    44
1040
1.0
1070
    74
1070
     0
1000
MTEXTEND
  0
MTEXT
  5
55D8
330
1A
100
AcDbEntity
  8
SUNPOU
100
AcDbMText
 10
48100.61987142798
 20
45930.28896577039
 30
0.0
 40
10.5
 41
0.0
 71
     7
 72
     5
  1

1001
ACAD
1000
MTEXTBEGIN
1070
    73
1070
     1
1070
    44
1040
1.0
1070
    74
1070
     0
1000
MTEXTEND
  0
MTEXT
  5
55D9
330
1A
100
AcDbEntity
  8
SUNPOU
100
AcDbMText
 10
52609.69799937854
 20
48366.58971339046
 30
0.0
 40
10.5
 41
0.0
 71
     7
 72
     5
  1

1001
ACAD
1000
MTEXTBEGIN
1070
    73
1070
     1
1070
    44
1040
1.0
1070
    74
1070
     0
1000
MTEXTEND
  0
MTEXT
  5
55DA
330
1A
100
AcDbEntity
  8
SUNPOU
100
AcDbMText
 10
36210.53588614687
 20
27364.18586377937
 30
0.0
 40
10.5
 41
0.0
 71
     7
 72
     5
  1

1001
ACAD
1000
MTEXTBEGIN
1070
    73
1070
     1
1070
    44
1040
1.0
1070
    74
1070
     0
1000
MTEXTEND
  0
MTEXT
  5
55DB
330
1A
100
AcDbEntity
  8
SUNPOU
100
AcDbMText
 10
38021.29879752181
 20
33691.59985125794
 30
0.0
 40
10.5
 41
0.0
 71
     9
 72
     5
  1

1001
ACAD
1000
MTEXTBEGIN
1070
    73
1070
     1
1070
    44
1040
1.0
1070
    74
1070
     0
1000
MTEXTEND
  0
MTEXT
  5
55DC
330
1A
100
AcDbEntity
  8
SUNPOU
100
AcDbMText
 10
46743.46636343979
 20
41107.43438279541
 30
0.0
 40
10.5
 41
0.0
 71
     9
 72
     5
  1

1001
ACAD
1000
MTEXTBEGIN
1070
    73
1070
     1
1070
    44
1040
1.0
1070
    74
1070
     0
1000
MTEXTEND
  0
MTEXT
  5
55DD
330
1A
100
AcDbEntity
  8
SUNPOU
100
AcDbMText
 10
65697.22508076975
 20
58574.01043528746
 30
0.0
 40
10.5
 41
0.0
 71
     9
 72
     5
  1

1001
ACAD
1000
MTEXTBEGIN
1070
    73
1070
     1
1070
    44
1040
1.0
1070
    74
1070
     0
1000
MTEXTEND
  0
MTEXT
  5
55DE
330
1A
100
AcDbEntity
  8
SUNPOU
100
AcDbMText
 10
67640.63232747917
 20
56772.96135540945
 30
0.0
 40
3.5
 41
0.0
 71
     9
 72
     5
  1

1001
ACAD
1000
MTEXTBEGIN
1070
    73
1070
     1
1070
    44
1040
1.0
1070
    74
1070
     0
1000
MTEXTEND
  0
MTEXT
  5
55DF
330
1A
100
AcDbEntity
  8
SUNPOU
100
AcDbMText
 10
98766.81216009888
 20
99267.9070230668
 30
0.0
 40
10.5
 41
0.0
 71
     9
 72
     5
  1

1001
ACAD
1000
MTEXTBEGIN
1070
    73
1070
     1
1070
    44
1040
1.0
1070
    74
1070
     0
1000
MTEXTEND
  0
MTEXT
  5
55E0
330
1A
100
AcDbEntity
  8
SUNPOU
100
AcDbMText
 10
100710.2194068083
 20
97466.85794318878
 30
0.0
 40
3.5
 41
0.0
 71
     9
 72
     5
  1

1001
ACAD
1000
MTEXTBEGIN
1070
    73
1070
     1
1070
    44
1040
1.0
1070
    74
1070
     0
1000
MTEXTEND
  0
MTEXT
  5
55E1
330
1A
100
AcDbEntity
  8
SUNPOU
100
AcDbMText
 10
49207.07986589444
 20
45101.07217804185
 30
0.0
 40
10.5
 41
0.0
 71
     9
 72
     5
  1

1001
ACAD
1000
MTEXTBEGIN
1070
    73
1070
     1
1070
    44
1040
1.0
1070
    74
1070
     0
1000
MTEXTEND
  0
MTEXT
  5
55E2
330
1A
100
AcDbEntity
  8
SUNPOU
100
AcDbMText
 10
35259.07976551845
 20
25928.67303892964
 30
0.0
 40
3.5
 41
0.0
 71
     7
 72
     5
  1

1001
ACAD
1000
MTEXTBEGIN
1070
    73
1070
     1
1070
    44
1040
1.0
1070
    74
1070
     0
1000
MTEXTEND
  0
MTEXT
  5
55E3
330
1A
100
AcDbEntity
  8
SUNPOU
100
AcDbMText
 10
48951.43044828905
 20
35287.73625995099
 30
0.0
 40
10.5
 41
0.0
 71
     9
 72
     5
  1

1001
ACAD
1000
MTEXTBEGIN
1070
    73
1070
     1
1070
    44
1040
1.0
1070
    74
1070
     0
1000
MTEXTEND
  0
MTEXT
  5
55E4
330
1A
100
AcDbEntity
  8
SUNPOU
100
AcDbMText
 10
57673.59801420702
 20
42703.57079148847
 30
0.0
 40
10.5
 41
0.0
 71
     9
 72
     5
  1

1001
ACAD
1000
MTEXTBEGIN
1070
    73
1070
     1
1070
    44
1040
1.0
1070
    74
1070
     0
1000
MTEXTEND
  0
MTEXT
  5
55E5
330
1A
100
AcDbEntity
  8
SUNPOU
100
AcDbMText
 10
76627.35673153699
 20
60170.14684398051
 30
0.0
 40
10.5
 41
0.0
 71
     9
 72
     5
  1

1001
ACAD
1000
MTEXTBEGIN
1070
    73
1070
     1
1070
    44
1040
1.0
1070
    74
1070
     0
1000
MTEXTEND
  0
MTEXT
  5
55E6
330
1A
100
AcDbEntity
  8
SUNPOU
100
AcDbMText
 10
78570.76397824641
 20
58369.09776410251
 30
0.0
 40
3.5
 41
0.0
 71
     9
 72
     5
  1

1001
ACAD
1000
MTEXTBEGIN
1070
    73
1070
     1
1070
    44
1040
1.0
1070
    74
1070
     0
1000
MTEXTEND
  0
MTEXT
  5
55E7
330
1A
100
AcDbEntity
  8
SUNPOU
100
AcDbMText
 10
109696.9438108661
 20
100864.0434317598
 30
0.0
 40
10.5
 41
0.0
 71
     9
 72
     5
  1

1001
ACAD
1000
MTEXTBEGIN
1070
    73
1070
     1
1070
    44
1040
1.0
1070
    74
1070
     0
1000
MTEXTEND
  0
MTEXT
  5
55E8
330
1A
100
AcDbEntity
  8
SUNPOU
100
AcDbMText
 10
111640.3510575755
 20
99062.99435188183
 30
0.0
 40
3.5
 41
0.0
 71
     9
 72
     5
  1

1001
ACAD
1000
MTEXTBEGIN
1070
    73
1070
     1
1070
    44
1040
1.0
1070
    74
1070
     0
1000
MTEXTEND
  0
MTEXT
  5
55E9
330
1A
100
AcDbEntity
  8
SUNPOU
100
AcDbMText
 10
60137.21151666167
 20
46697.20858673491
 30
0.0
 40
10.5
 41
0.0
 71
     9
 72
     5
  1

1001
ACAD
1000
MTEXTBEGIN
1070
    73
1070
     1
1070
    44
1040
1.0
1070
    74
1070
     0
1000
MTEXTEND
  0
MTEXT
  5
55EA
330
1A
100
AcDbEntity
  8
SUNPOU
100
AcDbMText
 10
46189.21141628568
 20
27524.80944762269
 30
0.0
 40
3.5
 41
0.0
 71
     7
 72
     5
  1

1001
ACAD
1000
MTEXTBEGIN
1070
    73
1070
     1
1070
    44
1040
1.0
1070
    74
1070
     0
1000
MTEXTEND
  0
MTEXT
  5
55EB
330
1A
100
AcDbEntity
  8
SUNPOU
100
AcDbMText
 10
45007.68847015541
 20
38269.57947701874
 30
0.0
 40
10.5
 41
0.0
 71
     9
 72
     5
  1

1001
ACAD
1000
MTEXTBEGIN
1070
    73
1070
     1
1070
    44
1040
1.0
1070
    74
1070
     0
1000
MTEXTEND
  0
MTEXT
  5
55EC
330
1A
100
AcDbEntity
  8
SUNPOU
100
AcDbMText
 10
63961.44718748539
 20
55736.15552951081
 30
0.0
 40
10.5
 41
0.0
 71
     9
 72
     5
  1

1001
ACAD
1000
MTEXTBEGIN
1070
    73
1070
     1
1070
    44
1040
1.0
1070
    74
1070
     0
1000
MTEXTEND
  0
MTEXT
  5
55ED
330
1A
100
AcDbEntity
  8
SUNPOU
100
AcDbMText
 10
65904.85443419479
 20
53935.10644963279
 30
0.0
 40
3.5
 41
0.0
 71
     9
 72
     5
  1

1001
ACAD
1000
MTEXTBEGIN
1070
    73
1070
     1
1070
    44
1040
1.0
1070
    74
1070
     0
1000
MTEXTEND
  0
MTEXT
  5
55EE
330
1A
100
AcDbEntity
  8
SUNPOU
100
AcDbMText
 10
97031.03426681451
 20
96430.05211729015
 30
0.0
 40
10.5
 41
0.0
 71
     9
 72
     5
  1

1001
ACAD
1000
MTEXTBEGIN
1070
    73
1070
     1
1070
    44
1040
1.0
1070
    74
1070
     0
1000
MTEXTEND
  0
MTEXT
  5
55EF
330
1A
100
AcDbEntity
  8
SUNPOU
100
AcDbMText
 10
98974.44151352393
 20
94629.00303741212
 30
0.0
 40
3.5
 41
0.0
 71
     9
 72
     5
  1

1001
ACAD
1000
MTEXTBEGIN
1070
    73
1070
     1
1070
    44
1040
1.0
1070
    74
1070
     0
1000
MTEXTEND
  0
MTEXT
  5
55F0
330
1A
100
AcDbEntity
  8
SUNPOU
100
AcDbMText
 10
47471.30197261006
 20
42263.21727226519
 30
0.0
 40
10.5
 41
0.0
 71
     9
 72
     5
  1

1001
ACAD
1000
MTEXTBEGIN
1070
    73
1070
     1
1070
    44
1040
1.0
1070
    74
1070
     0
1000
MTEXTEND
  0
MTEXT
  5
55F1
330
1A
100
AcDbEntity
  8
SUNPOU
100
AcDbMText
 10
33523.30187223408
 20
23090.81813315298
 30
0.0
 40
3.5
 41
0.0
 71
     7
 72
     5
  1

1001
ACAD
1000
MTEXTBEGIN
1070
    73
1070
     1
1070
    44
1040
1.0
1070
    74
1070
     0
1000
MTEXTEND
  0
MTEXT
  5
55F2
330
1A
100
AcDbEntity
  8
SUNPOU
100
AcDbMText
 10
57959.46254102503
 20
50038.08111611015
 30
0.0
 40
10.5
 41
0.0
 71
     9
 72
     5
  1

1001
ACAD
1000
MTEXTBEGIN
1070
    73
1070
     1
1070
    44
1040
1.0
1070
    74
1070
     0
1000
MTEXTEND
  0
MTEXT
  5
55F3
330
1A
100
AcDbEntity
  8
SUNPOU
100
AcDbMText
 10
76913.22125835503
 20
67504.65716860222
 30
0.0
 40
10.5
 41
0.0
 71
     9
 72
     5
  1

1001
ACAD
1000
MTEXTBEGIN
1070
    73
1070
     1
1070
    44
1040
1.0
1070
    74
1070
     0
1000
MTEXTEND
  0
MTEXT
  5
55F4
330
1A
100
AcDbEntity
  8
SUNPOU
100
AcDbMText
 10
78856.62850506443
 20
65703.6080887242
 30
0.0
 40
3.5
 41
0.0
 71
     9
 72
     5
  1

1001
ACAD
1000
MTEXTBEGIN
1070
    73
1070
     1
1070
    44
1040
1.0
1070
    74
1070
     0
1000
MTEXTEND
  0
MTEXT
  5
55F5
330
1A
100
AcDbEntity
  8
SUNPOU
100
AcDbMText
 10
109982.8083376841
 20
108198.5537563815
 30
0.0
 40
10.5
 41
0.0
 71
     9
 72
     5
  1

1001
ACAD
1000
MTEXTBEGIN
1070
    73
1070
     1
1070
    44
1040
1.0
1070
    74
1070
     0
1000
MTEXTEND
  0
MTEXT
  5
55F6
330
1A
100
AcDbEntity
  8
SUNPOU
100
AcDbMText
 10
111926.2155843935
 20
106397.5046765035
 30
0.0
 40
3.5
 41
0.0
 71
     9
 72
     5
  1

1001
ACAD
1000
MTEXTBEGIN
1070
    73
1070
     1
1070
    44
1040
1.0
1070
    74
1070
     0
1000
MTEXTEND
  0
MTEXT
  5
55F7
330
1A
100
AcDbEntity
  8
SUNPOU
100
AcDbMText
 10
60423.07604347968
 20
54031.71891135659
 30
0.0
 40
10.5
 41
0.0
 71
     9
 72
     5
  1

1001
ACAD
1000
MTEXTBEGIN
1070
    73
1070
     1
1070
    44
1040
1.0
1070
    74
1070
     0
1000
MTEXTEND
  0
MTEXT
  5
55F8
330
1A
100
AcDbEntity
  8
SUNPOU
100
AcDbMText
 10
46475.07594310369
 20
34859.3197722444
 30
0.0
 40
3.5
 41
0.0
 71
     7
 72
     5
  1

1001
ACAD
1000
MTEXTBEGIN
1070
    73
1070
     1
1070
    44
1040
1.0
1070
    74
1070
     0
1000
MTEXTEND
  0
MTEXT
  5
55F9
330
1A
100
AcDbEntity
  8
SUNPOU
100
AcDbMText
 10
74027.35402123588
 20
68370.58278833383
 30
0.0
 40
10.5
 41
0.0
 71
     9
 72
     5
  1

1001
ACAD
1000
MTEXTBEGIN
1070
    73
1070
     1
1070
    44
1040
1.0
1070
    74
1070
     0
1000
MTEXTEND
  0
MTEXT
  5
55FA
330
1A
100
AcDbEntity
  8
SUNPOU
100
AcDbMText
 10
75970.7612679453
 20
66569.53370845583
 30
0.0
 40
3.5
 41
0.0
 71
     9
 72
     5
  1

1001
ACAD
1000
MTEXTBEGIN
1070
    73
1070
     1
1070
    44
1040
1.0
1070
    74
1070
     0
1000
MTEXTEND
  0
MTEXT
  5
55FB
330
1A
100
AcDbEntity
  8
SUNPOU
100
AcDbMText
 10
107096.941100565
 20
109064.4793761132
 30
0.0
 40
10.5
 41
0.0
 71
     9
 72
     5
  1

1001
ACAD
1000
MTEXTBEGIN
1070
    73
1070
     1
1070
    44
1040
1.0
1070
    74
1070
     0
1000
MTEXTEND
  0
MTEXT
  5
55FC
330
1A
100
AcDbEntity
  8
SUNPOU
100
AcDbMText
 10
109040.3483472744
 20
107263.4302962351
 30
0.0
 40
3.5
 41
0.0
 71
     9
 72
     5
  1

1001
ACAD
1000
MTEXTBEGIN
1070
    73
1070
     1
1070
    44
1040
1.0
1070
    74
1070
     0
1000
MTEXTEND
  0
MTEXT
  5
55FD
330
1A
100
AcDbEntity
  8
SUNPOU
100
AcDbMText
 10
105709.1709283621
 20
108141.3777665285
 30
0.0
 40
10.5
 41
0.0
 71
     9
 72
     5
  1

1001
ACAD
1000
MTEXTBEGIN
1070
    73
1070
     1
1070
    44
1040
1.0
1070
    74
1070
     0
1000
MTEXTEND
  0
MTEXT
  5
55FE
330
1A
100
AcDbEntity
  8
SUNPOU
100
AcDbMText
 10
107652.5781750715
 20
106340.3286866505
 30
0.0
 40
3.5
 41
0.0
 71
     9
 72
     5
  1

1001
ACAD
1000
MTEXTBEGIN
1070
    73
1070
     1
1070
    44
1040
1.0
1070
    74
1070
     0
1000
MTEXTEND
  0
MTEXT
  5
55FF
330
1A
100
AcDbEntity
  8
SUNPOU
100
AcDbMText
 10
73193.09268743351
 20
66158.78082845056
 30
0.0
 40
10.5
 41
0.0
 71
     9
 72
     5
  1

1001
ACAD
1000
MTEXTBEGIN
1070
    73
1070
     1
1070
    44
1040
1.0
1070
    74
1070
     0
1000
MTEXTEND
  0
MTEXT
  5
5600
330
1A
100
AcDbEntity
  8
SUNPOU
100
AcDbMText
 10
75916.39889159806
 20
66563.46252003162
 30
0.0
 40
3.5
 41
0.0
 71
     9
 72
     5
  1

1001
ACAD
1000
MTEXTBEGIN
1070
    73
1070
     1
1070
    44
1040
1.0
1070
    74
1070
     0
1000
MTEXTEND
  0
MTEXT
  5
5601
330
1A
100
AcDbEntity
  8
SUNPOU
100
AcDbMText
 10
75124.04436649058
 20
63402.1566819768
 30
0.0
 40
10.5
 41
0.0
 71
     9
 72
     5
  1

1001
ACAD
1000
MTEXTBEGIN
1070
    73
1070
     1
1070
    44
1040
1.0
1070
    74
1070
     0
1000
MTEXTEND
  0
MTEXT
  5
5602
330
1A
100
AcDbEntity
  8
SUNPOU
100
AcDbMText
 10
77067.4516132
 20
61601.1076020988
 30
0.0
 40
3.5
 41
0.0
 71
     9
 72
     5
  1

1001
ACAD
1000
MTEXTBEGIN
1070
    73
1070
     1
1070
    44
1040
1.0
1070
    74
1070
     0
1000
MTEXTEND
  0
MTEXT
  5
5603
330
1A
100
AcDbEntity
  8
SUNPOU
100
AcDbMText
 10
77012.54710378659
 20
61488.33571981449
 30
0.0
 40
3.5
 41
0.0
 71
     9
 72
     5
  1

1001
ACAD
1000
MTEXTBEGIN
1070
    73
1070
     1
1070
    44
1040
1.0
1070
    74
1070
     0
1000
MTEXTEND
  0
MTEXT
  5
5604
330
1A
100
AcDbEntity
  8
SUNPOU
100
AcDbMText
 10
76376.61896736668
 20
60677.01447874797
 30
0.0
 40
3.5
 41
0.0
 71
     9
 72
     5
  1

1001
ACAD
1000
MTEXTBEGIN
1070
    73
1070
     1
1070
    44
1040
1.0
1070
    74
1070
     0
1000
MTEXTEND
  0
MTEXT
  5
5605
330
1A
100
AcDbEntity
  8
SUNPOU
100
AcDbMText
 10
76375.37854794595
 20
60676.76650181047
 30
0.0
 40
10.5
 41
0.0
 71
     9
 72
     5
  1

1001
ACAD
1000
MTEXTBEGIN
1070
    73
1070
     1
1070
    44
1040
1.0
1070
    74
1070
     0
1000
MTEXTEND
  0
MTEXT
  5
5606
330
1A
100
AcDbEntity
  8
SUNPOU
100
AcDbMText
 10
84709.93991079748
 20
78034.0328293557
 30
0.0
 40
10.5
 41
0.0
 71
     9
 72
     5
  1

1001
ACAD
1000
MTEXTBEGIN
1070
    73
1070
     1
1070
    44
1040
1.0
1070
    74
1070
     0
1000
MTEXTEND
  0
MTEXT
  5
5607
330
1A
100
AcDbEntity
  8
SUNPOU
100
AcDbMText
 10
93432.10747671548
 20
85449.86736089315
 30
0.0
 40
10.5
 41
0.0
 71
     9
 72
     5
  1

1001
ACAD
1000
MTEXTBEGIN
1070
    73
1070
     1
1070
    44
1040
1.0
1070
    74
1070
     0
1000
MTEXTEND
  0
MTEXT
  5
5608
330
1A
100
AcDbEntity
  8
SUNPOU
100
AcDbMText
 10
112385.8661940454
 20
102916.4434133851
 30
0.0
 40
10.5
 41
0.0
 71
     9
 72
     5
  1

1001
ACAD
1000
MTEXTBEGIN
1070
    73
1070
     1
1070
    44
1040
1.0
1070
    74
1070
     0
1000
MTEXTEND
  0
MTEXT
  5
5609
330
1A
100
AcDbEntity
  8
SUNPOU
100
AcDbMText
 10
114329.2734407548
 20
101115.3943335072
 30
0.0
 40
3.5
 41
0.0
 71
     9
 72
     5
  1

1001
ACAD
1000
MTEXTBEGIN
1070
    73
1070
     1
1070
    44
1040
1.0
1070
    74
1070
     0
1000
MTEXTEND
  0
MTEXT
  5
560A
330
1A
100
AcDbEntity
  8
SUNPOU
100
AcDbMText
 10
145455.4532733745
 20
143610.3400011645
 30
0.0
 40
10.5
 41
0.0
 71
     9
 72
     5
  1

1001
ACAD
1000
MTEXTBEGIN
1070
    73
1070
     1
1070
    44
1040
1.0
1070
    74
1070
     0
1000
MTEXTEND
  0
MTEXT
  5
560B
330
1A
100
AcDbEntity
  8
SUNPOU
100
AcDbMText
 10
147398.8605200839
 20
141809.2909212864
 30
0.0
 40
3.5
 41
0.0
 71
     9
 72
     5
  1

1001
ACAD
1000
MTEXTBEGIN
1070
    73
1070
     1
1070
    44
1040
1.0
1070
    74
1070
     0
1000
MTEXTEND
  0
MTEXT
  5
560C
330
1A
100
AcDbEntity
  8
SUNPOU
100
AcDbMText
 10
95895.72097917013
 20
89443.5051561396
 30
0.0
 40
10.5
 41
0.0
 71
     9
 72
     5
  1

1001
ACAD
1000
MTEXTBEGIN
1070
    73
1070
     1
1070
    44
1040
1.0
1070
    74
1070
     0
1000
MTEXTEND
  0
MTEXT
  5
560D
330
1A
100
AcDbEntity
  8
SUNPOU
100
AcDbMText
 10
81947.72087879414
 20
70271.1060170274
 30
0.0
 40
3.5
 41
0.0
 71
     7
 72
     5
  1

1001
ACAD
1000
MTEXTBEGIN
1070
    73
1070
     1
1070
    44
1040
1.0
1070
    74
1070
     0
1000
MTEXTEND
  0
MTEXT
  5
560E
330
1A
100
AcDbEntity
  8
SUNPOU
100
AcDbMText
 10
62932.89027578729
 20
58033.25474784561
 30
0.0
 40
10.5
 41
0.0
 71
     7
 72
     5
  1

1001
ACAD
1000
MTEXTBEGIN
1070
    73
1070
     1
1070
    44
1040
1.0
1070
    74
1070
     0
1000
MTEXTEND
  0
MTEXT
  5
560F
330
1A
100
AcDbEntity
  8
SUNPOU
100
AcDbMText
 10
50475.66201083918
 20
42188.32316974719
 30
0.0
 40
35.0
 41
0.0
 71
     9
 72
     5
  1

1001
ACAD
1000
MTEXTBEGIN
1070
    73
1070
     1
1070
    44
1040
1.0
1070
    74
1070
     0
1000
MTEXTEND
  0
MTEXT
  5
5610
330
1A
100
AcDbEntity
  8
SUNPOU
100
AcDbMText
 10
49384.14706841413
 20
42797.0985797959
 30
0.0
 40
350.0000004171781
 41
0.0
 71
     7
 72
     5
  1

1001
ACAD
1000
MTEXTBEGIN
1070
    73
1070
     1
1070
    44
1040
1.0
1070
    74
1070
     0
1000
MTEXTEND
  0
MTEXT
  5
5611
330
1A
100
AcDbEntity
  8
0
100
AcDbMText
 10
55428.09782635704
 20
40777.02094193211
 30
0.0
 40
8.0
 41
0.0
 71
     7
 72
     5
  1

1001
ACAD
1000
MTEXTBEGIN
1070
    73
1070
     1
1070
    44
1040
1.0
1070
    74
1070
     0
1000
MTEXTEND
  0
MTEXT
  5
5612
330
1A
100
AcDbEntity
  8
0
100
AcDbMText
 10
57713.45551625194
 20
41747.81123668317
 30
0.0
 40
8.0
 41
0.0
 71
     7
 72
     5
  1

1001
ACAD
1000
MTEXTBEGIN
1070
    73
1070
     1
1070
    44
1040
1.0
1070
    74
1070
     0
1000
MTEXTEND
  0
MTEXT
  5
5613
330
1A
100
AcDbEntity
  8
SUNPOU
100
AcDbMText
 10
60379.35253693408
 20
51259.9226290583
 30
0.0
 40
10.5
 41
0.0
 71
     1
 72
     5
  1

1001
ACAD
1000
MTEXTBEGIN
1070
    73
1070
     1
1070
    44
1040
1.0
1070
    74
1070
     0
1000
MTEXTEND
  0
MTEXT
  5
5614
330
1A
100
AcDbEntity
  8
SUNPOU
100
AcDbMText
 10
52448.42934099814
 20
50313.12949514535
 30
0.0
 40
10.5
 41
0.0
 71
     7
 72
     5
  1

1001
ACAD
1000
MTEXTBEGIN
1070
    73
1070
     1
1070
    44
1040
1.0
1070
    74
1070
     0
1000
MTEXTEND
  0
MTEXT
  5
5615
330
1A
100
AcDbEntity
  8
SUNPOU
100
AcDbMText
 10
55397.41300551091
 20
55213.80556698819
 30
0.0
 40
10.5
 41
0.0
 71
     7
 72
     5
  1

1001
ACAD
1000
MTEXTBEGIN
1070
    73
1070
     1
1070
    44
1040
1.0
1070
    74
1070
     0
1000
MTEXTEND
  0
MTEXT
  5
5616
330
1A
100
AcDbEntity
  8
SUNPOU
100
AcDbMText
 10
59906.49113346147
 20
57650.10631460826
 30
0.0
 40
10.5
 41
0.0
 71
     7
 72
     5
  1

1001
ACAD
1000
MTEXTBEGIN
1070
    73
1070
     1
1070
    44
1040
1.0
1070
    74
1070
     0
1000
MTEXTEND
  0
MTEXT
  5
5617
330
1A
100
AcDbEntity
  8
SUNPOU
100
AcDbMText
 10
43507.32902022979
 20
36647.70246499718
 30
0.0
 40
10.5
 41
0.0
 71
     7
 72
     5
  1

1001
ACAD
1000
MTEXTBEGIN
1070
    73
1070
     1
1070
    44
1040
1.0
1070
    74
1070
     0
1000
MTEXTEND
  0
MTEXT
  5
5618
330
1A
100
AcDbEntity
  8
SUNPOU
100
AcDbMText
 10
94698.84745413006
 20
82320.68302864542
 30
0.0
 40
10.5
 41
0.0
 71
     9
 72
     5
  1

1001
ACAD
1000
MTEXTBEGIN
1070
    73
1070
     1
1070
    44
1040
1.0
1070
    74
1070
     0
1000
MTEXTEND
  0
MTEXT
  5
5619
330
1A
100
AcDbEntity
  8
SUNPOU
100
AcDbMText
 10
103421.015020048
 20
89736.5175601829
 30
0.0
 40
10.5
 41
0.0
 71
     9
 72
     5
  1

1001
ACAD
1000
MTEXTBEGIN
1070
    73
1070
     1
1070
    44
1040
1.0
1070
    74
1070
     0
1000
MTEXTEND
  0
MTEXT
  5
561A
330
1A
100
AcDbEntity
  8
SUNPOU
100
AcDbMText
 10
122374.773737378
 20
107203.0936126749
 30
0.0
 40
10.5
 41
0.0
 71
     9
 72
     5
  1

1001
ACAD
1000
MTEXTBEGIN
1070
    73
1070
     1
1070
    44
1040
1.0
1070
    74
1070
     0
1000
MTEXTEND
  0
MTEXT
  5
561B
330
1A
100
AcDbEntity
  8
SUNPOU
100
AcDbMText
 10
124318.1809840874
 20
105402.0445327969
 30
0.0
 40
3.5
 41
0.0
 71
     9
 72
     5
  1

1001
ACAD
1000
MTEXTBEGIN
1070
    73
1070
     1
1070
    44
1040
1.0
1070
    74
1070
     0
1000
MTEXTEND
  0
MTEXT
  5
561C
330
1A
100
AcDbEntity
  8
SUNPOU
100
AcDbMText
 10
155444.3608167071
 20
147896.9902004542
 30
0.0
 40
10.5
 41
0.0
 71
     9
 72
     5
  1

1001
ACAD
1000
MTEXTBEGIN
1070
    73
1070
     1
1070
    44
1040
1.0
1070
    74
1070
     0
1000
MTEXTEND
  0
MTEXT
  5
561D
330
1A
100
AcDbEntity
  8
SUNPOU
100
AcDbMText
 10
157387.7680634165
 20
146095.9411205762
 30
0.0
 40
3.5
 41
0.0
 71
     9
 72
     5
  1

1001
ACAD
1000
MTEXTBEGIN
1070
    73
1070
     1
1070
    44
1040
1.0
1070
    74
1070
     0
1000
MTEXTEND
  0
MTEXT
  5
561E
330
1A
100
AcDbEntity
  8
SUNPOU
100
AcDbMText
 10
105884.6285225027
 20
93730.15535542933
 30
0.0
 40
10.5
 41
0.0
 71
     9
 72
     5
  1

1001
ACAD
1000
MTEXTBEGIN
1070
    73
1070
     1
1070
    44
1040
1.0
1070
    74
1070
     0
1000
MTEXTEND
  0
MTEXT
  5
561F
330
1A
100
AcDbEntity
  8
SUNPOU
100
AcDbMText
 10
91936.6284221267
 20
74557.75621631714
 30
0.0
 40
3.5
 41
0.0
 71
     7
 72
     5
  1

1001
ACAD
1000
MTEXTBEGIN
1070
    73
1070
     1
1070
    44
1040
1.0
1070
    74
1070
     0
1000
MTEXTEND
  0
MTEXT
  5
5620
330
1A
100
AcDbEntity
  8
SUNPOU
100
AcDbMText
 10
72921.79781911986
 20
62319.90494713533
 30
0.0
 40
10.5
 41
0.0
 71
     7
 72
     5
  1

1001
ACAD
1000
MTEXTBEGIN
1070
    73
1070
     1
1070
    44
1040
1.0
1070
    74
1070
     0
1000
MTEXTEND
  0
MTEXT
  5
5621
330
1A
100
AcDbEntity
  8
SUNPOU
100
AcDbMText
 10
60464.56955417175
 20
46474.97336903692
 30
0.0
 40
35.0
 41
0.0
 71
     9
 72
     5
  1

1001
ACAD
1000
MTEXTBEGIN
1070
    73
1070
     1
1070
    44
1040
1.0
1070
    74
1070
     0
1000
MTEXTEND
  0
MTEXT
  5
5622
330
1A
100
AcDbEntity
  8
SUNPOU
100
AcDbMText
 10
59373.05461174672
 20
47083.74877908562
 30
0.0
 40
350.0000004171781
 41
0.0
 71
     7
 72
     5
  1

1001
ACAD
1000
MTEXTBEGIN
1070
    73
1070
     1
1070
    44
1040
1.0
1070
    74
1070
     0
1000
MTEXTEND
  0
MTEXT
  5
5623
330
1A
100
AcDbEntity
  8
0
100
AcDbMText
 10
65417.00536968962
 20
45063.67114122186
 30
0.0
 40
8.0
 41
0.0
 71
     7
 72
     5
  1

1001
ACAD
1000
MTEXTBEGIN
1070
    73
1070
     1
1070
    44
1040
1.0
1070
    74
1070
     0
1000
MTEXTEND
  0
MTEXT
  5
5624
330
1A
100
AcDbEntity
  8
0
100
AcDbMText
 10
67702.36305958452
 20
46034.46143597292
 30
0.0
 40
8.0
 41
0.0
 71
     7
 72
     5
  1

1001
ACAD
1000
MTEXTBEGIN
1070
    73
1070
     1
1070
    44
1040
1.0
1070
    74
1070
     0
1000
MTEXTEND
  0
MTEXT
  5
5625
330
1A
100
AcDbEntity
  8
SUNPOU
100
AcDbMText
 10
70368.26008026666
 20
55546.57282834803
 30
0.0
 40
10.5
 41
0.0
 71
     1
 72
     5
  1

1001
ACAD
1000
MTEXTBEGIN
1070
    73
1070
     1
1070
    44
1040
1.0
1070
    74
1070
     0
1000
MTEXTEND
  0
MTEXT
  5
5626
330
1A
100
AcDbEntity
  8
SUNPOU
100
AcDbMText
 10
62437.33688433072
 20
54599.77969443508
 30
0.0
 40
10.5
 41
0.0
 71
     7
 72
     5
  1

1001
ACAD
1000
MTEXTBEGIN
1070
    73
1070
     1
1070
    44
1040
1.0
1070
    74
1070
     0
1000
MTEXTEND
  0
MTEXT
  5
5627
330
1A
100
AcDbEntity
  8
SUNPOU
100
AcDbMText
 10
65386.32054884349
 20
59500.45576627792
 30
0.0
 40
10.5
 41
0.0
 71
     7
 72
     5
  1

1001
ACAD
1000
MTEXTBEGIN
1070
    73
1070
     1
1070
    44
1040
1.0
1070
    74
1070
     0
1000
MTEXTEND
  0
MTEXT
  5
5628
330
1A
100
AcDbEntity
  8
SUNPOU
100
AcDbMText
 10
69895.39867679405
 20
61936.756513898
 30
0.0
 40
10.5
 41
0.0
 71
     7
 72
     5
  1

1001
ACAD
1000
MTEXTBEGIN
1070
    73
1070
     1
1070
    44
1040
1.0
1070
    74
1070
     0
1000
MTEXTEND
  0
MTEXT
  5
5629
330
1A
100
AcDbEntity
  8
SUNPOU
100
AcDbMText
 10
53496.23656356237
 20
40934.35266428691
 30
0.0
 40
10.5
 41
0.0
 71
     7
 72
     5
  1

1001
ACAD
1000
MTEXTBEGIN
1070
    73
1070
     1
1070
    44
1040
1.0
1070
    74
1070
     0
1000
MTEXTEND
  0
MTEXT
  5
562A
330
1A
100
AcDbEntity
  8
SUNPOU
100
AcDbMText
 10
55306.99947493731
 20
47261.76665176547
 30
0.0
 40
10.5
 41
0.0
 71
     9
 72
     5
  1

1001
ACAD
1000
MTEXTBEGIN
1070
    73
1070
     1
1070
    44
1040
1.0
1070
    74
1070
     0
1000
MTEXTEND
  0
MTEXT
  5
562B
330
1A
100
AcDbEntity
  8
SUNPOU
100
AcDbMText
 10
64029.16704085528
 20
54677.60118330295
 30
0.0
 40
10.5
 41
0.0
 71
     9
 72
     5
  1

1001
ACAD
1000
MTEXTBEGIN
1070
    73
1070
     1
1070
    44
1040
1.0
1070
    74
1070
     0
1000
MTEXTEND
  0
MTEXT
  5
562C
330
1A
100
AcDbEntity
  8
SUNPOU
100
AcDbMText
 10
82982.92575818527
 20
72144.17723579499
 30
0.0
 40
10.5
 41
0.0
 71
     9
 72
     5
  1

1001
ACAD
1000
MTEXTBEGIN
1070
    73
1070
     1
1070
    44
1040
1.0
1070
    74
1070
     0
1000
MTEXTEND
  0
MTEXT
  5
562D
330
1A
100
AcDbEntity
  8
SUNPOU
100
AcDbMText
 10
84926.33300489467
 20
70343.12815591698
 30
0.0
 40
3.5
 41
0.0
 71
     9
 72
     5
  1

1001
ACAD
1000
MTEXTBEGIN
1070
    73
1070
     1
1070
    44
1040
1.0
1070
    74
1070
     0
1000
MTEXTEND
  0
MTEXT
  5
562E
330
1A
100
AcDbEntity
  8
SUNPOU
100
AcDbMText
 10
116052.5128375143
 20
112838.0738235743
 30
0.0
 40
10.5
 41
0.0
 71
     9
 72
     5
  1

1001
ACAD
1000
MTEXTBEGIN
1070
    73
1070
     1
1070
    44
1040
1.0
1070
    74
1070
     0
1000
MTEXTEND
  0
MTEXT
  5
562F
330
1A
100
AcDbEntity
  8
SUNPOU
100
AcDbMText
 10
117995.9200842238
 20
111037.0247436963
 30
0.0
 40
3.5
 41
0.0
 71
     9
 72
     5
  1

1001
ACAD
1000
MTEXTBEGIN
1070
    73
1070
     1
1070
    44
1040
1.0
1070
    74
1070
     0
1000
MTEXTEND
  0
MTEXT
  5
5630
330
1A
100
AcDbEntity
  8
SUNPOU
100
AcDbMText
 10
66492.78054330994
 20
58671.23897854939
 30
0.0
 40
10.5
 41
0.0
 71
     9
 72
     5
  1

1001
ACAD
1000
MTEXTBEGIN
1070
    73
1070
     1
1070
    44
1040
1.0
1070
    74
1070
     0
1000
MTEXTEND
  0
MTEXT
  5
5631
330
1A
100
AcDbEntity
  8
SUNPOU
100
AcDbMText
 10
52544.78044293396
 20
39498.83983943717
 30
0.0
 40
3.5
 41
0.0
 71
     7
 72
     5
  1

1001
ACAD
1000
MTEXTBEGIN
1070
    73
1070
     1
1070
    44
1040
1.0
1070
    74
1070
     0
1000
MTEXTEND
  0
MTEXT
  5
5632
330
1A
100
AcDbEntity
  8
SUNPOU
100
AcDbMText
 10
66237.13112570454
 20
48857.90306045851
 30
0.0
 40
10.5
 41
0.0
 71
     9
 72
     5
  1

1001
ACAD
1000
MTEXTBEGIN
1070
    73
1070
     1
1070
    44
1040
1.0
1070
    74
1070
     0
1000
MTEXTEND
  0
MTEXT
  5
5633
330
1A
100
AcDbEntity
  8
SUNPOU
100
AcDbMText
 10
74959.29869162252
 20
56273.737591996
 30
0.0
 40
10.5
 41
0.0
 71
     9
 72
     5
  1

1001
ACAD
1000
MTEXTBEGIN
1070
    73
1070
     1
1070
    44
1040
1.0
1070
    74
1070
     0
1000
MTEXTEND
  0
MTEXT
  5
5634
330
1A
100
AcDbEntity
  8
SUNPOU
100
AcDbMText
 10
93913.0574089525
 20
73740.31364448805
 30
0.0
 40
10.5
 41
0.0
 71
     9
 72
     5
  1

1001
ACAD
1000
MTEXTBEGIN
1070
    73
1070
     1
1070
    44
1040
1.0
1070
    74
1070
     0
1000
MTEXTEND
  0
MTEXT
  5
5635
330
1A
100
AcDbEntity
  8
SUNPOU
100
AcDbMText
 10
95856.46465566192
 20
71939.26456461004
 30
0.0
 40
3.5
 41
0.0
 71
     9
 72
     5
  1

1001
ACAD
1000
MTEXTBEGIN
1070
    73
1070
     1
1070
    44
1040
1.0
1070
    74
1070
     0
1000
MTEXTEND
  0
MTEXT
  5
5636
330
1A
100
AcDbEntity
  8
SUNPOU
100
AcDbMText
 10
126982.6444882816
 20
114434.2102322673
 30
0.0
 40
10.5
 41
0.0
 71
     9
 72
     5
  1

1001
ACAD
1000
MTEXTBEGIN
1070
    73
1070
     1
1070
    44
1040
1.0
1070
    74
1070
     0
1000
MTEXTEND
  0
MTEXT
  5
5637
330
1A
100
AcDbEntity
  8
SUNPOU
100
AcDbMText
 10
128926.051734991
 20
112633.1611523893
 30
0.0
 40
3.5
 41
0.0
 71
     9
 72
     5
  1

1001
ACAD
1000
MTEXTBEGIN
1070
    73
1070
     1
1070
    44
1040
1.0
1070
    74
1070
     0
1000
MTEXTEND
  0
MTEXT
  5
5638
330
1A
100
AcDbEntity
  8
SUNPOU
100
AcDbMText
 10
77422.91219407717
 20
60267.37538724244
 30
0.0
 40
10.5
 41
0.0
 71
     9
 72
     5
  1

1001
ACAD
1000
MTEXTBEGIN
1070
    73
1070
     1
1070
    44
1040
1.0
1070
    74
1070
     0
1000
MTEXTEND
  0
MTEXT
  5
5639
330
1A
100
AcDbEntity
  8
SUNPOU
100
AcDbMText
 10
63474.91209370119
 20
41094.97624813023
 30
0.0
 40
3.5
 41
0.0
 71
     7
 72
     5
  1

1001
ACAD
1000
MTEXTBEGIN
1070
    73
1070
     1
1070
    44
1040
1.0
1070
    74
1070
     0
1000
MTEXTEND
  0
MTEXT
  5
563A
330
1A
100
AcDbEntity
  8
SUNPOU
100
AcDbMText
 10
48117.65086229006
 20
40806.11043916631
 30
0.0
 40
10.5
 41
0.0
 71
     9
 72
     5
  1

1001
ACAD
1000
MTEXTBEGIN
1070
    73
1070
     1
1070
    44
1040
1.0
1070
    74
1070
     0
1000
MTEXTEND
  0
MTEXT
  5
563B
330
1A
100
AcDbEntity
  8
SUNPOU
100
AcDbMText
 10
67071.40957962004
 20
58272.68649165837
 30
0.0
 40
10.5
 41
0.0
 71
     9
 72
     5
  1

1001
ACAD
1000
MTEXTBEGIN
1070
    73
1070
     1
1070
    44
1040
1.0
1070
    74
1070
     0
1000
MTEXTEND
  0
MTEXT
  5
563C
330
1A
100
AcDbEntity
  8
SUNPOU
100
AcDbMText
 10
69014.81682632945
 20
56471.63741178035
 30
0.0
 40
3.5
 41
0.0
 71
     9
 72
     5
  1

1001
ACAD
1000
MTEXTBEGIN
1070
    73
1070
     1
1070
    44
1040
1.0
1070
    74
1070
     0
1000
MTEXTEND
  0
MTEXT
  5
563D
330
1A
100
AcDbEntity
  8
SUNPOU
100
AcDbMText
 10
100140.9966589491
 20
98966.58307943772
 30
0.0
 40
10.5
 41
0.0
 71
     9
 72
     5
  1

1001
ACAD
1000
MTEXTBEGIN
1070
    73
1070
     1
1070
    44
1040
1.0
1070
    74
1070
     0
1000
MTEXTEND
  0
MTEXT
  5
563E
330
1A
100
AcDbEntity
  8
SUNPOU
100
AcDbMText
 10
102084.4039056586
 20
97165.53399955969
 30
0.0
 40
3.5
 41
0.0
 71
     9
 72
     5
  1

1001
ACAD
1000
MTEXTBEGIN
1070
    73
1070
     1
1070
    44
1040
1.0
1070
    74
1070
     0
1000
MTEXTEND
  0
MTEXT
  5
563F
330
1A
100
AcDbEntity
  8
SUNPOU
100
AcDbMText
 10
50581.26436474472
 20
44799.74823441275
 30
0.0
 40
10.5
 41
0.0
 71
     9
 72
     5
  1

1001
ACAD
1000
MTEXTBEGIN
1070
    73
1070
     1
1070
    44
1040
1.0
1070
    74
1070
     0
1000
MTEXTEND
  0
MTEXT
  5
5640
330
1A
100
AcDbEntity
  8
SUNPOU
100
AcDbMText
 10
36633.26426436873
 20
25627.34909530054
 30
0.0
 40
3.5
 41
0.0
 71
     7
 72
     5
  1

1001
ACAD
1000
MTEXTBEGIN
1070
    73
1070
     1
1070
    44
1040
1.0
1070
    74
1070
     0
1000
MTEXTEND
  0
MTEXT
  5
5641
330
1A
100
AcDbEntity
  8
SUNPOU
100
AcDbMText
 10
61069.42493315968
 20
52574.61207825771
 30
0.0
 40
10.5
 41
0.0
 71
     9
 72
     5
  1

1001
ACAD
1000
MTEXTBEGIN
1070
    73
1070
     1
1070
    44
1040
1.0
1070
    74
1070
     0
1000
MTEXTEND
  0
MTEXT
  5
5642
330
1A
100
AcDbEntity
  8
SUNPOU
100
AcDbMText
 10
80023.18365048967
 20
70041.18813074978
 30
0.0
 40
10.5
 41
0.0
 71
     9
 72
     5
  1

1001
ACAD
1000
MTEXTBEGIN
1070
    73
1070
     1
1070
    44
1040
1.0
1070
    74
1070
     0
1000
MTEXTEND
  0
MTEXT
  5
5643
330
1A
100
AcDbEntity
  8
SUNPOU
100
AcDbMText
 10
81966.59089719908
 20
68240.13905087176
 30
0.0
 40
3.5
 41
0.0
 71
     9
 72
     5
  1

1001
ACAD
1000
MTEXTBEGIN
1070
    73
1070
     1
1070
    44
1040
1.0
1070
    74
1070
     0
1000
MTEXTEND
  0
MTEXT
  5
5644
330
1A
100
AcDbEntity
  8
SUNPOU
100
AcDbMText
 10
113092.7707298187
 20
110735.0847185291
 30
0.0
 40
10.5
 41
0.0
 71
     9
 72
     5
  1

1001
ACAD
1000
MTEXTBEGIN
1070
    73
1070
     1
1070
    44
1040
1.0
1070
    74
1070
     0
1000
MTEXTEND
  0
MTEXT
  5
5645
330
1A
100
AcDbEntity
  8
SUNPOU
100
AcDbMText
 10
115036.1779765282
 20
108934.0356386511
 30
0.0
 40
3.5
 41
0.0
 71
     9
 72
     5
  1

1001
ACAD
1000
MTEXTBEGIN
1070
    73
1070
     1
1070
    44
1040
1.0
1070
    74
1070
     0
1000
MTEXTEND
  0
MTEXT
  5
5646
330
1A
100
AcDbEntity
  8
SUNPOU
100
AcDbMText
 10
63533.03843561433
 20
56568.24987350415
 30
0.0
 40
10.5
 41
0.0
 71
     9
 72
     5
  1

1001
ACAD
1000
MTEXTBEGIN
1070
    73
1070
     1
1070
    44
1040
1.0
1070
    74
1070
     0
1000
MTEXTEND
  0
MTEXT
  5
5647
330
1A
100
AcDbEntity
  8
SUNPOU
100
AcDbMText
 10
49585.03833523835
 20
37395.85073439196
 30
0.0
 40
3.5
 41
0.0
 71
     7
 72
     5
  1

1001
ACAD
1000
MTEXTBEGIN
1070
    73
1070
     1
1070
    44
1040
1.0
1070
    74
1070
     0
1000
MTEXTEND
  0
MTEXT
  5
5648
330
1A
100
AcDbEntity
  8
SUNPOU
100
AcDbMText
 10
77137.31641337052
 20
70907.11375048141
 30
0.0
 40
10.5
 41
0.0
 71
     9
 72
     5
  1

1001
ACAD
1000
MTEXTBEGIN
1070
    73
1070
     1
1070
    44
1040
1.0
1070
    74
1070
     0
1000
MTEXTEND
  0
MTEXT
  5
5649
330
1A
100
AcDbEntity
  8
SUNPOU
100
AcDbMText
 10
79080.72366007995
 20
69106.06467060339
 30
0.0
 40
3.5
 41
0.0
 71
     9
 72
     5
  1

1001
ACAD
1000
MTEXTBEGIN
1070
    73
1070
     1
1070
    44
1040
1.0
1070
    74
1070
     0
1000
MTEXTEND
  0
MTEXT
  5
564A
330
1A
100
AcDbEntity
  8
SUNPOU
100
AcDbMText
 10
110206.9034926996
 20
111601.0103382607
 30
0.0
 40
10.5
 41
0.0
 71
     9
 72
     5
  1

1001
ACAD
1000
MTEXTBEGIN
1070
    73
1070
     1
1070
    44
1040
1.0
1070
    74
1070
     0
1000
MTEXTEND
  0
MTEXT
  5
564B
330
1A
100
AcDbEntity
  8
SUNPOU
100
AcDbMText
 10
112150.310739409
 20
109799.9612583827
 30
0.0
 40
3.5
 41
0.0
 71
     9
 72
     5
  1

1001
ACAD
1000
MTEXTBEGIN
1070
    73
1070
     1
1070
    44
1040
1.0
1070
    74
1070
     0
1000
MTEXTEND
  0
MTEXT
  5
564C
330
1A
100
AcDbEntity
  8
SUNPOU
100
AcDbMText
 10
108819.1333204968
 20
110677.9087286761
 30
0.0
 40
10.5
 41
0.0
 71
     9
 72
     5
  1

1001
ACAD
1000
MTEXTBEGIN
1070
    73
1070
     1
1070
    44
1040
1.0
1070
    74
1070
     0
1000
MTEXTEND
  0
MTEXT
  5
564D
330
1A
100
AcDbEntity
  8
SUNPOU
100
AcDbMText
 10
110762.5405672062
 20
108876.8596487981
 30
0.0
 40
3.5
 41
0.0
 71
     9
 72
     5
  1

1001
ACAD
1000
MTEXTBEGIN
1070
    73
1070
     1
1070
    44
1040
1.0
1070
    74
1070
     0
1000
MTEXTEND
  0
MTEXT
  5
564E
330
1A
100
AcDbEntity
  8
SUNPOU
100
AcDbMText
 10
76303.05507956816
 20
68695.31179059812
 30
0.0
 40
10.5
 41
0.0
 71
     9
 72
     5
  1

1001
ACAD
1000
MTEXTBEGIN
1070
    73
1070
     1
1070
    44
1040
1.0
1070
    74
1070
     0
1000
MTEXTEND
  0
MTEXT
  5
564F
330
1A
100
AcDbEntity
  8
SUNPOU
100
AcDbMText
 10
79026.36128373271
 20
69099.99348217918
 30
0.0
 40
3.5
 41
0.0
 71
     9
 72
     5
  1

1001
ACAD
1000
MTEXTBEGIN
1070
    73
1070
     1
1070
    44
1040
1.0
1070
    74
1070
     0
1000
MTEXTEND
  0
MTEXT
  5
5650
330
1A
100
AcDbEntity
  8
SUNPOU
100
AcDbMText
 10
78234.00675862522
 20
65938.68764412436
 30
0.0
 40
10.5
 41
0.0
 71
     9
 72
     5
  1

1001
ACAD
1000
MTEXTBEGIN
1070
    73
1070
     1
1070
    44
1040
1.0
1070
    74
1070
     0
1000
MTEXTEND
  0
MTEXT
  5
5651
330
1A
100
AcDbEntity
  8
SUNPOU
100
AcDbMText
 10
80177.41400533465
 20
64137.63856424636
 30
0.0
 40
3.5
 41
0.0
 71
     9
 72
     5
  1

1001
ACAD
1000
MTEXTBEGIN
1070
    73
1070
     1
1070
    44
1040
1.0
1070
    74
1070
     0
1000
MTEXTEND
  0
MTEXT
  5
5652
330
1A
100
AcDbEntity
  8
SUNPOU
100
AcDbMText
 10
80122.50949592123
 20
64024.86668196205
 30
0.0
 40
3.5
 41
0.0
 71
     9
 72
     5
  1

1001
ACAD
1000
MTEXTBEGIN
1070
    73
1070
     1
1070
    44
1040
1.0
1070
    74
1070
     0
1000
MTEXTEND
  0
MTEXT
  5
5653
330
1A
100
AcDbEntity
  8
SUNPOU
100
AcDbMText
 10
79486.58135950133
 20
63213.54544089553
 30
0.0
 40
3.5
 41
0.0
 71
     9
 72
     5
  1

1001
ACAD
1000
MTEXTBEGIN
1070
    73
1070
     1
1070
    44
1040
1.0
1070
    74
1070
     0
1000
MTEXTEND
  0
MTEXT
  5
5654
330
1A
100
AcDbEntity
  8
SUNPOU
100
AcDbMText
 10
79485.3409400806
 20
63213.29746395804
 30
0.0
 40
10.5
 41
0.0
 71
     9
 72
     5
  1

1001
ACAD
1000
MTEXTBEGIN
1070
    73
1070
     1
1070
    44
1040
1.0
1070
    74
1070
     0
1000
MTEXTEND
  0
MTEXT
  5
5655
330
1A
100
AcDbEntity
  8
SUNPOU
100
AcDbMText
 10
85473.63363627567
 20
80747.76348077064
 30
0.0
 40
10.5
 41
0.0
 71
     9
 72
     5
  1

1001
ACAD
1000
MTEXTBEGIN
1070
    73
1070
     1
1070
    44
1040
1.0
1070
    74
1070
     0
1000
MTEXTEND
  0
MTEXT
  5
5656
330
1A
100
AcDbEntity
  8
SUNPOU
100
AcDbMText
 10
94195.80120219368
 20
88163.59801230809
 30
0.0
 40
10.5
 41
0.0
 71
     9
 72
     5
  1

1001
ACAD
1000
MTEXTBEGIN
1070
    73
1070
     1
1070
    44
1040
1.0
1070
    74
1070
     0
1000
MTEXTEND
  0
MTEXT
  5
5657
330
1A
100
AcDbEntity
  8
SUNPOU
100
AcDbMText
 10
113149.5599195236
 20
105630.1740648001
 30
0.0
 40
10.5
 41
0.0
 71
     9
 72
     5
  1

1001
ACAD
1000
MTEXTBEGIN
1070
    73
1070
     1
1070
    44
1040
1.0
1070
    74
1070
     0
1000
MTEXTEND
  0
MTEXT
  5
5658
330
1A
100
AcDbEntity
  8
SUNPOU
100
AcDbMText
 10
115092.967166233
 20
103829.1249849221
 30
0.0
 40
3.5
 41
0.0
 71
     9
 72
     5
  1

1001
ACAD
1000
MTEXTBEGIN
1070
    73
1070
     1
1070
    44
1040
1.0
1070
    74
1070
     0
1000
MTEXTEND
  0
MTEXT
  5
5659
330
1A
100
AcDbEntity
  8
SUNPOU
100
AcDbMText
 10
146219.1469988527
 20
146324.0706525794
 30
0.0
 40
10.5
 41
0.0
 71
     9
 72
     5
  1

1001
ACAD
1000
MTEXTBEGIN
1070
    73
1070
     1
1070
    44
1040
1.0
1070
    74
1070
     0
1000
MTEXTEND
  0
MTEXT
  5
565A
330
1A
100
AcDbEntity
  8
SUNPOU
100
AcDbMText
 10
148162.5542455621
 20
144523.0215727014
 30
0.0
 40
3.5
 41
0.0
 71
     9
 72
     5
  1

1001
ACAD
1000
MTEXTBEGIN
1070
    73
1070
     1
1070
    44
1040
1.0
1070
    74
1070
     0
1000
MTEXTEND
  0
MTEXT
  5
565B
330
1A
100
AcDbEntity
  8
SUNPOU
100
AcDbMText
 10
96659.41470464833
 20
92157.23580755453
 30
0.0
 40
10.5
 41
0.0
 71
     9
 72
     5
  1

1001
ACAD
1000
MTEXTBEGIN
1070
    73
1070
     1
1070
    44
1040
1.0
1070
    74
1070
     0
1000
MTEXTEND
  0
MTEXT
  5
565C
330
1A
100
AcDbEntity
  8
SUNPOU
100
AcDbMText
 10
82711.41460427234
 20
72984.83666844234
 30
0.0
 40
3.5
 41
0.0
 71
     7
 72
     5
  1

1001
ACAD
1000
MTEXTBEGIN
1070
    73
1070
     1
1070
    44
1040
1.0
1070
    74
1070
     0
1000
MTEXTEND
  0
MTEXT
  5
565D
330
1A
100
AcDbEntity
  8
SUNPOU
100
AcDbMText
 10
63696.58400126548
 20
60746.98539926055
 30
0.0
 40
10.5
 41
0.0
 71
     7
 72
     5
  1

1001
ACAD
1000
MTEXTBEGIN
1070
    73
1070
     1
1070
    44
1040
1.0
1070
    74
1070
     0
1000
MTEXTEND
  0
MTEXT
  5
565E
330
1A
100
AcDbEntity
  8
SUNPOU
100
AcDbMText
 10
51239.35573631738
 20
44902.05382116213
 30
0.0
 40
35.0
 41
0.0
 71
     9
 72
     5
  1

1001
ACAD
1000
MTEXTBEGIN
1070
    73
1070
     1
1070
    44
1040
1.0
1070
    74
1070
     0
1000
MTEXTEND
  0
MTEXT
  5
565F
330
1A
100
AcDbEntity
  8
SUNPOU
100
AcDbMText
 10
50147.84079389233
 20
45510.82923121084
 30
0.0
 40
350.0000004171781
 41
0.0
 71
     7
 72
     5
  1

1001
ACAD
1000
MTEXTBEGIN
1070
    73
1070
     1
1070
    44
1040
1.0
1070
    74
1070
     0
1000
MTEXTEND
  0
MTEXT
  5
5660
330
1A
100
AcDbEntity
  8
0
100
AcDbMText
 10
56191.79155183523
 20
43490.75159334705
 30
0.0
 40
8.0
 41
0.0
 71
     7
 72
     5
  1

1001
ACAD
1000
MTEXTBEGIN
1070
    73
1070
     1
1070
    44
1040
1.0
1070
    74
1070
     0
1000
MTEXTEND
  0
MTEXT
  5
5661
330
1A
100
AcDbEntity
  8
0
100
AcDbMText
 10
58477.14924173013
 20
44461.54188809812
 30
0.0
 40
8.0
 41
0.0
 71
     7
 72
     5
  1

1001
ACAD
1000
MTEXTBEGIN
1070
    73
1070
     1
1070
    44
1040
1.0
1070
    74
1070
     0
1000
MTEXTEND
  0
MTEXT
  5
5662
330
1A
100
AcDbEntity
  8
SUNPOU
100
AcDbMText
 10
61143.04626241227
 20
53973.65328047324
 30
0.0
 40
10.5
 41
0.0
 71
     1
 72
     5
  1

1001
ACAD
1000
MTEXTBEGIN
1070
    73
1070
     1
1070
    44
1040
1.0
1070
    74
1070
     0
1000
MTEXTEND
  0
MTEXT
  5
5663
330
1A
100
AcDbEntity
  8
SUNPOU
100
AcDbMText
 10
53212.12306647634
 20
53026.86014656028
 30
0.0
 40
10.5
 41
0.0
 71
     7
 72
     5
  1

1001
ACAD
1000
MTEXTBEGIN
1070
    73
1070
     1
1070
    44
1040
1.0
1070
    74
1070
     0
1000
MTEXTEND
  0
MTEXT
  5
5664
330
1A
100
AcDbEntity
  8
SUNPOU
100
AcDbMText
 10
56161.1067309891
 20
57927.53621840312
 30
0.0
 40
10.5
 41
0.0
 71
     7
 72
     5
  1

1001
ACAD
1000
MTEXTBEGIN
1070
    73
1070
     1
1070
    44
1040
1.0
1070
    74
1070
     0
1000
MTEXTEND
  0
MTEXT
  5
5665
330
1A
100
AcDbEntity
  8
SUNPOU
100
AcDbMText
 10
60670.18485893966
 20
60363.8369660232
 30
0.0
 40
10.5
 41
0.0
 71
     7
 72
     5
  1

1001
ACAD
1000
MTEXTBEGIN
1070
    73
1070
     1
1070
    44
1040
1.0
1070
    74
1070
     0
1000
MTEXTEND
  0
MTEXT
  5
5666
330
1A
100
AcDbEntity
  8
SUNPOU
100
AcDbMText
 10
44271.02274570799
 20
39361.43311641212
 30
0.0
 40
10.5
 41
0.0
 71
     7
 72
     5
  1

1001
ACAD
1000
MTEXTBEGIN
1070
    73
1070
     1
1070
    44
1040
1.0
1070
    74
1070
     0
1000
MTEXTEND
  0
MTEXT
  5
5667
330
1A
100
AcDbEntity
  8
SUNPOU
100
AcDbMText
 10
95462.54117960824
 20
85034.41368006038
 30
0.0
 40
10.5
 41
0.0
 71
     9
 72
     5
  1

1001
ACAD
1000
MTEXTBEGIN
1070
    73
1070
     1
1070
    44
1040
1.0
1070
    74
1070
     0
1000
MTEXTEND
  0
MTEXT
  5
5668
330
1A
100
AcDbEntity
  8
SUNPOU
100
AcDbMText
 10
104184.7087455262
 20
92450.24821159784
 30
0.0
 40
10.5
 41
0.0
 71
     9
 72
     5
  1

1001
ACAD
1000
MTEXTBEGIN
1070
    73
1070
     1
1070
    44
1040
1.0
1070
    74
1070
     0
1000
MTEXTEND
  0
MTEXT
  5
5669
330
1A
100
AcDbEntity
  8
SUNPOU
100
AcDbMText
 10
123138.4674628562
 20
109916.8242640898
 30
0.0
 40
10.5
 41
0.0
 71
     9
 72
     5
  1

1001
ACAD
1000
MTEXTBEGIN
1070
    73
1070
     1
1070
    44
1040
1.0
1070
    74
1070
     0
1000
MTEXTEND
  0
MTEXT
  5
566A
330
1A
100
AcDbEntity
  8
SUNPOU
100
AcDbMText
 10
125081.8747095656
 20
108115.7751842118
 30
0.0
 40
3.5
 41
0.0
 71
     9
 72
     5
  1

1001
ACAD
1000
MTEXTBEGIN
1070
    73
1070
     1
1070
    44
1040
1.0
1070
    74
1070
     0
1000
MTEXTEND
  0
MTEXT
  5
566B
330
1A
100
AcDbEntity
  8
SUNPOU
100
AcDbMText
 10
156208.0545421853
 20
150610.7208518691
 30
0.0
 40
10.5
 41
0.0
 71
     9
 72
     5
  1

1001
ACAD
1000
MTEXTBEGIN
1070
    73
1070
     1
1070
    44
1040
1.0
1070
    74
1070
     0
1000
MTEXTEND
  0
MTEXT
  5
566C
330
1A
100
AcDbEntity
  8
SUNPOU
100
AcDbMText
 10
158151.4617888947
 20
148809.6717719911
 30
0.0
 40
3.5
 41
0.0
 71
     9
 72
     5
  1

1001
ACAD
1000
MTEXTBEGIN
1070
    73
1070
     1
1070
    44
1040
1.0
1070
    74
1070
     0
1000
MTEXTEND
  0
MTEXT
  5
566D
330
1A
100
AcDbEntity
  8
SUNPOU
100
AcDbMText
 10
106648.3222479809
 20
96443.88600684427
 30
0.0
 40
10.5
 41
0.0
 71
     9
 72
     5
  1

1001
ACAD
1000
MTEXTBEGIN
1070
    73
1070
     1
1070
    44
1040
1.0
1070
    74
1070
     0
1000
MTEXTEND
  0
MTEXT
  5
566E
330
1A
100
AcDbEntity
  8
SUNPOU
100
AcDbMText
 10
92700.3221476049
 20
77271.48686773207
 30
0.0
 40
3.5
 41
0.0
 71
     7
 72
     5
  1

1001
ACAD
1000
MTEXTBEGIN
1070
    73
1070
     1
1070
    44
1040
1.0
1070
    74
1070
     0
1000
MTEXTEND
  0
MTEXT
  5
566F
330
1A
100
AcDbEntity
  8
SUNPOU
100
AcDbMText
 10
73685.49154459806
 20
65033.63559855027
 30
0.0
 40
10.5
 41
0.0
 71
     7
 72
     5
  1

1001
ACAD
1000
MTEXTBEGIN
1070
    73
1070
     1
1070
    44
1040
1.0
1070
    74
1070
     0
1000
MTEXTEND
  0
MTEXT
  5
5670
330
1A
100
AcDbEntity
  8
SUNPOU
100
AcDbMText
 10
61228.26327964995
 20
49188.70402045185
 30
0.0
 40
35.0
 41
0.0
 71
     9
 72
     5
  1

1001
ACAD
1000
MTEXTBEGIN
1070
    73
1070
     1
1070
    44
1040
1.0
1070
    74
1070
     0
1000
MTEXTEND
  0
MTEXT
  5
5671
330
1A
100
AcDbEntity
  8
SUNPOU
100
AcDbMText
 10
60136.74833722491
 20
49797.47943050056
 30
0.0
 40
350.0000004171781
 41
0.0
 71
     7
 72
     5
  1

1001
ACAD
1000
MTEXTBEGIN
1070
    73
1070
     1
1070
    44
1040
1.0
1070
    74
1070
     0
1000
MTEXTEND
  0
MTEXT
  5
5672
330
1A
100
AcDbEntity
  8
0
100
AcDbMText
 10
66180.69909516782
 20
47777.40179263678
 30
0.0
 40
8.0
 41
0.0
 71
     7
 72
     5
  1

1001
ACAD
1000
MTEXTBEGIN
1070
    73
1070
     1
1070
    44
1040
1.0
1070
    74
1070
     0
1000
MTEXTEND
  0
MTEXT
  5
5673
330
1A
100
AcDbEntity
  8
0
100
AcDbMText
 10
68466.05678506271
 20
48748.19208738784
 30
0.0
 40
8.0
 41
0.0
 71
     7
 72
     5
  1

1001
ACAD
1000
MTEXTBEGIN
1070
    73
1070
     1
1070
    44
1040
1.0
1070
    74
1070
     0
1000
MTEXTEND
  0
MTEXT
  5
5674
330
1A
100
AcDbEntity
  8
SUNPOU
100
AcDbMText
 10
71131.95380574485
 20
58260.30347976296
 30
0.0
 40
10.5
 41
0.0
 71
     1
 72
     5
  1

1001
ACAD
1000
MTEXTBEGIN
1070
    73
1070
     1
1070
    44
1040
1.0
1070
    74
1070
     0
1000
MTEXTEND
  0
MTEXT
  5
5675
330
1A
100
AcDbEntity
  8
SUNPOU
100
AcDbMText
 10
63201.03060980891
 20
57313.51034585002
 30
0.0
 40
10.5
 41
0.0
 71
     7
 72
     5
  1

1001
ACAD
1000
MTEXTBEGIN
1070
    73
1070
     1
1070
    44
1040
1.0
1070
    74
1070
     0
1000
MTEXTEND
  0
MTEXT
  5
5676
330
1A
100
AcDbEntity
  8
SUNPOU
100
AcDbMText
 10
66150.01427432169
 20
62214.18641769286
 30
0.0
 40
10.5
 41
0.0
 71
     7
 72
     5
  1

1001
ACAD
1000
MTEXTBEGIN
1070
    73
1070
     1
1070
    44
1040
1.0
1070
    74
1070
     0
1000
MTEXTEND
  0
MTEXT
  5
5677
330
1A
100
AcDbEntity
  8
SUNPOU
100
AcDbMText
 10
70659.09240227225
 20
64650.48716531294
 30
0.0
 40
10.5
 41
0.0
 71
     7
 72
     5
  1

1001
ACAD
1000
MTEXTBEGIN
1070
    73
1070
     1
1070
    44
1040
1.0
1070
    74
1070
     0
1000
MTEXTEND
  0
MTEXT
  5
5678
330
1A
100
AcDbEntity
  8
SUNPOU
100
AcDbMText
 10
54259.93028904056
 20
43648.08331570185
 30
0.0
 40
10.5
 41
0.0
 71
     7
 72
     5
  1

1001
ACAD
1000
MTEXTBEGIN
1070
    73
1070
     1
1070
    44
1040
1.0
1070
    74
1070
     0
1000
MTEXTEND
  0
MTEXT
  5
5679
330
1A
100
AcDbEntity
  8
SUNPOU
100
AcDbMText
 10
56070.69320041551
 20
49975.4973031804
 30
0.0
 40
10.5
 41
0.0
 71
     9
 72
     5
  1

1001
ACAD
1000
MTEXTBEGIN
1070
    73
1070
     1
1070
    44
1040
1.0
1070
    74
1070
     0
1000
MTEXTEND
  0
MTEXT
  5
567A
330
1A
100
AcDbEntity
  8
SUNPOU
100
AcDbMText
 10
64792.86076633348
 20
57391.33183471788
 30
0.0
 40
10.5
 41
0.0
 71
     9
 72
     5
  1

1001
ACAD
1000
MTEXTBEGIN
1070
    73
1070
     1
1070
    44
1040
1.0
1070
    74
1070
     0
1000
MTEXTEND
  0
MTEXT
  5
567B
330
1A
100
AcDbEntity
  8
SUNPOU
100
AcDbMText
 10
83746.61948366345
 20
74857.90788720994
 30
0.0
 40
10.5
 41
0.0
 71
     9
 72
     5
  1

1001
ACAD
1000
MTEXTBEGIN
1070
    73
1070
     1
1070
    44
1040
1.0
1070
    74
1070
     0
1000
MTEXTEND
  0
MTEXT
  5
567C
330
1A
100
AcDbEntity
  8
SUNPOU
100
AcDbMText
 10
85690.02673037287
 20
73056.85880733192
 30
0.0
 40
3.5
 41
0.0
 71
     9
 72
     5
  1

1001
ACAD
1000
MTEXTBEGIN
1070
    73
1070
     1
1070
    44
1040
1.0
1070
    74
1070
     0
1000
MTEXTEND
  0
MTEXT
  5
567D
330
1A
100
AcDbEntity
  8
SUNPOU
100
AcDbMText
 10
116816.2065629925
 20
115551.8044749892
 30
0.0
 40
10.5
 41
0.0
 71
     9
 72
     5
  1

1001
ACAD
1000
MTEXTBEGIN
1070
    73
1070
     1
1070
    44
1040
1.0
1070
    74
1070
     0
1000
MTEXTEND
  0
MTEXT
  5
567E
330
1A
100
AcDbEntity
  8
SUNPOU
100
AcDbMText
 10
118759.613809702
 20
113750.7553951112
 30
0.0
 40
3.5
 41
0.0
 71
     9
 72
     5
  1

1001
ACAD
1000
MTEXTBEGIN
1070
    73
1070
     1
1070
    44
1040
1.0
1070
    74
1070
     0
1000
MTEXTEND
  0
MTEXT
  5
567F
330
1A
100
AcDbEntity
  8
SUNPOU
100
AcDbMText
 10
67256.47426878814
 20
61384.96962996432
 30
0.0
 40
10.5
 41
0.0
 71
     9
 72
     5
  1

1001
ACAD
1000
MTEXTBEGIN
1070
    73
1070
     1
1070
    44
1040
1.0
1070
    74
1070
     0
1000
MTEXTEND
  0
MTEXT
  5
5680
330
1A
100
AcDbEntity
  8
SUNPOU
100
AcDbMText
 10
53308.47416841216
 20
42212.57049085211
 30
0.0
 40
3.5
 41
0.0
 71
     7
 72
     5
  1

1001
ACAD
1000
MTEXTBEGIN
1070
    73
1070
     1
1070
    44
1040
1.0
1070
    74
1070
     0
1000
MTEXTEND
  0
MTEXT
  5
5681
330
1A
100
AcDbEntity
  8
SUNPOU
100
AcDbMText
 10
67000.82485118274
 20
51571.63371187345
 30
0.0
 40
10.5
 41
0.0
 71
     9
 72
     5
  1

1001
ACAD
1000
MTEXTBEGIN
1070
    73
1070
     1
1070
    44
1040
1.0
1070
    74
1070
     0
1000
MTEXTEND
  0
MTEXT
  5
5682
330
1A
100
AcDbEntity
  8
SUNPOU
100
AcDbMText
 10
75722.99241710071
 20
58987.46824341094
 30
0.0
 40
10.5
 41
0.0
 71
     9
 72
     5
  1

1001
ACAD
1000
MTEXTBEGIN
1070
    73
1070
     1
1070
    44
1040
1.0
1070
    74
1070
     0
1000
MTEXTEND
  0
MTEXT
  5
5683
330
1A
100
AcDbEntity
  8
SUNPOU
100
AcDbMText
 10
94676.75113443068
 20
76454.04429590299
 30
0.0
 40
10.5
 41
0.0
 71
     9
 72
     5
  1

1001
ACAD
1000
MTEXTBEGIN
1070
    73
1070
     1
1070
    44
1040
1.0
1070
    74
1070
     0
1000
MTEXTEND
  0
MTEXT
  5
5684
330
1A
100
AcDbEntity
  8
SUNPOU
100
AcDbMText
 10
96620.1583811401
 20
74652.99521602498
 30
0.0
 40
3.5
 41
0.0
 71
     9
 72
     5
  1

1001
ACAD
1000
MTEXTBEGIN
1070
    73
1070
     1
1070
    44
1040
1.0
1070
    74
1070
     0
1000
MTEXTEND
  0
MTEXT
  5
5685
330
1A
100
AcDbEntity
  8
SUNPOU
100
AcDbMText
 10
127746.3382137598
 20
117147.9408836823
 30
0.0
 40
10.5
 41
0.0
 71
     9
 72
     5
  1

1001
ACAD
1000
MTEXTBEGIN
1070
    73
1070
     1
1070
    44
1040
1.0
1070
    74
1070
     0
1000
MTEXTEND
  0
MTEXT
  5
5686
330
1A
100
AcDbEntity
  8
SUNPOU
100
AcDbMText
 10
129689.7454604692
 20
115346.8918038043
 30
0.0
 40
3.5
 41
0.0
 71
     9
 72
     5
  1

1001
ACAD
1000
MTEXTBEGIN
1070
    73
1070
     1
1070
    44
1040
1.0
1070
    74
1070
     0
1000
MTEXTEND
  0
MTEXT
  5
5687
330
1A
100
AcDbEntity
  8
SUNPOU
100
AcDbMText
 10
78186.60591955537
 20
62981.10603865738
 30
0.0
 40
10.5
 41
0.0
 71
     9
 72
     5
  1

1001
ACAD
1000
MTEXTBEGIN
1070
    73
1070
     1
1070
    44
1040
1.0
1070
    74
1070
     0
1000
MTEXTEND
  0
MTEXT
  5
5688
330
1A
100
AcDbEntity
  8
SUNPOU
100
AcDbMText
 10
64238.60581917939
 20
43808.70689954517
 30
0.0
 40
3.5
 41
0.0
 71
     7
 72
     5
  1

1001
ACAD
1000
MTEXTBEGIN
1070
    73
1070
     1
1070
    44
1040
1.0
1070
    74
1070
     0
1000
MTEXTEND
  0
MTEXT
  5
5689
330
1A
100
AcDbEntity
  8
SUNPOU
100
AcDbMText
 10
33428.13481137435
 20
32770.04710035564
 30
0.0
 40
10.5
 41
0.0
 71
     9
 72
     5
  1

1001
ACAD
1000
MTEXTBEGIN
1070
    73
1070
     1
1070
    44
1040
1.0
1070
    74
1070
     0
1000
MTEXTEND
  0
MTEXT
  5
568A
330
1A
100
AcDbEntity
  8
SUNPOU
100
AcDbMText
 10
52381.89352870432
 20
50236.62315284769
 30
0.0
 40
10.5
 41
0.0
 71
     9
 72
     5
  1

1001
ACAD
1000
MTEXTBEGIN
1070
    73
1070
     1
1070
    44
1040
1.0
1070
    74
1070
     0
1000
MTEXTEND
  0
MTEXT
  5
568B
330
1A
100
AcDbEntity
  8
SUNPOU
100
AcDbMText
 10
54325.30077541374
 20
48435.57407296968
 30
0.0
 40
3.5
 41
0.0
 71
     9
 72
     5
  1

1001
ACAD
1000
MTEXTBEGIN
1070
    73
1070
     1
1070
    44
1040
1.0
1070
    74
1070
     0
1000
MTEXTEND
  0
MTEXT
  5
568C
330
1A
100
AcDbEntity
  8
SUNPOU
100
AcDbMText
 10
85451.48060803343
 20
90930.51974062703
 30
0.0
 40
10.5
 41
0.0
 71
     9
 72
     5
  1

1001
ACAD
1000
MTEXTBEGIN
1070
    73
1070
     1
1070
    44
1040
1.0
1070
    74
1070
     0
1000
MTEXTEND
  0
MTEXT
  5
568D
330
1A
100
AcDbEntity
  8
SUNPOU
100
AcDbMText
 10
87394.88785474286
 20
89129.47066074901
 30
0.0
 40
3.5
 41
0.0
 71
     9
 72
     5
  1

1001
ACAD
1000
MTEXTBEGIN
1070
    73
1070
     1
1070
    44
1040
1.0
1070
    74
1070
     0
1000
MTEXTEND
  0
MTEXT
  5
568E
330
1A
100
AcDbEntity
  8
SUNPOU
100
AcDbMText
 10
35891.74831382901
 20
36763.68489560208
 30
0.0
 40
10.5
 41
0.0
 71
     9
 72
     5
  1

1001
ACAD
1000
MTEXTBEGIN
1070
    73
1070
     1
1070
    44
1040
1.0
1070
    74
1070
     0
1000
MTEXTEND
  0
MTEXT
  5
568F
330
1A
100
AcDbEntity
  8
SUNPOU
100
AcDbMText
 10
21943.74821345303
 20
17591.28575648986
 30
0.0
 40
3.5
 41
0.0
 71
     7
 72
     5
  1

1001
ACAD
1000
MTEXTBEGIN
1070
    73
1070
     1
1070
    44
1040
1.0
1070
    74
1070
     0
1000
MTEXTEND
  0
MTEXT
  5
163CB
330
1A
100
AcDbEntity
  8
ZISSEN1
100
AcDbMText
 10
-1399.784862517127
 20
1882.646321314633
 30
0.0
 40
5.0
 41
76.2713
 71
     1
 72
     5
  1
2CD-7730G02/QM40X4E　　No.SS0001f137
1001
ACAD
1000
MTEXTBEGIN
1070
    73
1070
     1
1070
    44
1040
1.0
1070
    74
1070
     0
1000
MTEXTEND
  0
DIMENSION
  5
163CC
330
1A
100
AcDbEntity
  8
SUNPOU
100
AcDbDimension
  2
*D56
 10
-1226.619721795079
 20
1672.06102264962
 30
0.0
 11
-1249.119715609083
 21
1674.81102264962
 31
0.0
 70
    32
  1
<>
  3
標準スタイル
100
AcDbAlignedDimension
 13
-1271.619709423088
 23
1684.216645135549
 33
0.0
 14
-1226.619721795079
 24
1684.216645135549
 34
0.0
100
AcDbRotatedDimension
1001
ACAD
1000
DSTYLE
1002
{
1070
   287
1070
     4
1070
   340
1005
10
1070
    40
1040
1.0
1070
   279
1070
     1
1002
}
  0
DIMENSION
  5
163CD
330
1A
100
AcDbEntity
  8
SUNPOU
100
AcDbDimension
  2
*D57
 10
-1212.819730702912
 20
1672.06102264962
 30
0.0
 11
-1219.719726248996
 21
1674.81102264962
 31
0.0
 70
    32
  3
標準スタイル
100
AcDbAlignedDimension
 13
-1226.619721795079
 23
1684.216645135549
 33
0.0
 14
-1212.819730702912
 24
1686.71661626757
 34
0.0
100
AcDbRotatedDimension
1001
ACAD
1000
DSTYLE
1002
{
1070
   287
1070
     4
1070
   340
1005
10
1070
    40
1040
1.0
1070
   279
1070
     1
1002
}
  0
MTEXT
  5
163CE
330
1A
100
AcDbEntity
  8
SUNPOU
100
AcDbMText
 10
-1266.574972557412
 20
1670.577697293432
 30
0.0
 40
3.5
 41
38.69755868151902
 71
     1
 72
     5
  1
(USER取付寸法)
1001
ACAD
1000
MTEXTBEGIN
1070
    73
1070
     1
1070
    44
1040
1.0
1070
    74
1070
     0
1000
MTEXTEND
  0
LINE
  5
163CF
330
1A
100
AcDbEntity
  8
ZISSEN1
100
AcDbLine
 10
-1250.019709917967
 20
1556.092420298611
 30
0.0
 11
-1250.019709917967
 21
1565.592414525015
 31
0.0
  0
LINE
  5
163D0
330
1A
100
AcDbEntity
  8
ZISSEN1
100
AcDbLine
 10
-1248.719710577807
 20
1557.592425247407
 30
0.0
 11
-1248.719710577807
 21
1565.592414525015
 31
0.0
  0
LINE
  5
163D1
330
1A
100
AcDbEntity
  8
ZISSEN1
100
AcDbLine
 10
-1251.619705299091
 20
1565.592414525015
 30
0.0
 11
-1251.619705299091
 21
1556.092420298611
 31
0.0
  0
LINE
  5
163D2
330
1A
100
AcDbEntity
  8
ZISSEN1
100
AcDbLine
 10
-1230.819715856523
 20
1554.59247720977
 30
0.0
 11
-1230.819715856523
 21
1565.592414525015
 31
0.0
  0
LINE
  5
163D3
330
1A
100
AcDbEntity
  8
ZISSEN1
100
AcDbLine
 10
-1273.819709258128
 20
1556.092420298611
 30
0.0
 11
-1273.819709258128
 21
1565.592414525015
 31
0.0
  0
LINE
  5
163D4
330
1A
100
AcDbEntity
  8
ZISSEN1
100
AcDbLine
 10
-1272.219713877005
 20
1565.592414525015
 30
0.0
 11
-1272.219713877005
 21
1556.092420298611
 31
0.0
  0
LINE
  5
163D5
330
1A
100
AcDbEntity
  8
ZISSEN1
100
AcDbLine
 10
-1279.819704309332
 20
1565.592414525015
 30
0.0
 11
-1279.819704309332
 21
1554.59247720977
 31
0.0
  0
LINE
  5
163D6
330
1A
100
AcDbEntity
  8
ZISSEN1
100
AcDbLine
 10
-1282.819714206924
 20
1555.592418649012
 30
0.0
 11
-1282.819714206924
 21
1615.592431021003
 31
0.0
  0
LINE
  5
163D7
330
1A
100
AcDbEntity
  8
ZISSEN1
100
AcDbLine
 10
-1258.619703649492
 20
1556.092420298611
 30
0.0
 11
-1258.619703649492
 21
1609.892432010762
 31
0.0
  0
LINE
  5
163D8
330
1A
100
AcDbEntity
  8
ZISSEN1
100
AcDbLine
 10
-1260.219699030615
 20
1556.092420298611
 30
0.0
 11
-1260.219699030615
 21
1609.892432010762
 31
0.0
  0
LINE
  5
163D9
330
1A
100
AcDbEntity
  8
ZISSEN1
100
AcDbLine
 10
-1282.819714206924
 20
1638.592432670602
 30
0.0
 11
-1282.819714206924
 21
1554.592415349814
 31
0.0
  0
LINE
  5
163DA
330
1A
100
AcDbEntity
  8
ZISSEN1
100
AcDbLine
 10
-1285.619718495881
 20
1556.092420298611
 30
0.0
 11
-1285.619718495881
 21
1638.592432670602
 31
0.0
  0
LINE
  5
163DB
330
1A
100
AcDbEntity
  8
ZISSEN1
100
AcDbLine
 10
-1284.819696061337
 20
1556.092420298611
 30
0.0
 11
-1284.819696061337
 21
1638.592432670602
 31
0.0
  0
LINE
  5
163DC
330
1A
100
AcDbEntity
  8
ZISSEN1
100
AcDbLine
 10
-1214.819712557325
 20
1554.592415349814
 30
0.0
 11
-1214.819712557325
 21
1637.792410236058
 31
0.0
  0
LINE
  5
163DD
330
1A
100
AcDbEntity
  8
ZISSEN1
100
AcDbLine
 10
-1212.81970595893
 20
1637.792410236058
 30
0.0
 11
-1212.81970595893
 21
1554.592415349814
 31
0.0
  0
LINE
  5
163DE
330
1A
100
AcDbEntity
  8
ZISSEN1
100
AcDbLine
 10
-1282.819714206924
 20
1554.592415349814
 30
0.0
 11
-1273.81973400211
 21
1554.592415349814
 31
0.0
  0
LINE
  5
163DF
330
1A
100
AcDbEntity
  8
ZISSEN1
100
AcDbLine
 10
-1285.619718495881
 20
1554.592415349814
 30
0.0
 11
-1214.819712557325
 21
1554.592415349814
 31
0.0
  0
LINE
  5
163E0
330
1A
100
AcDbEntity
  8
ZISSEN1
100
AcDbLine
 10
-1285.619718495881
 20
1552.59242112341
 30
0.0
 11
-1214.819712557325
 21
1552.59242112341
 31
0.0
  0
LINE
  5
163E1
330
1A
100
AcDbEntity
  8
ZISSEN1
100
AcDbLine
 10
-1285.619718495881
 20
1556.092420298611
 30
0.0
 11
-1284.81972080532
 21
1556.092420298611
 31
0.0
  0
LINE
  5
163E2
330
1A
100
AcDbEntity
  8
ZISSEN1
100
AcDbLine
 10
-1285.619718495881
 20
1554.592415349814
 30
0.0
 11
-1285.619718495881
 21
1552.59242112341
 31
0.0
  0
LINE
  5
163E3
330
1A
100
AcDbEntity
  8
ZISSEN1
100
AcDbLine
 10
-1247.719707278609
 20
1556.59242194821
 30
0.0
 11
-1236.819710907727
 21
1556.59242194821
 31
0.0
  0
LINE
  5
163E4
330
1A
100
AcDbEntity
  8
CL1
100
AcDbLine
 10
-1271.619709423088
 20
1556.092420298611
 30
0.0
 11
-1271.619709423088
 21
1551.108102717021
 31
0.0
  0
LINE
  5
163E5
330
1A
100
AcDbEntity
  8
ZISSEN1
100
AcDbLine
 10
-1273.819709258128
 20
1556.092420298611
 30
0.0
 11
-1272.219713877005
 21
1556.092420298611
 31
0.0
  0
LINE
  5
163E6
330
1A
100
AcDbEntity
  8
ZISSEN1
100
AcDbLine
 10
-1273.369690452701
 20
1554.592415349814
 30
0.0
 11
-1273.369690452701
 21
1552.59242112341
 31
0.0
  0
LINE
  5
163E7
330
1A
100
AcDbEntity
  8
ZISSEN1
100
AcDbLine
 10
-1269.86967890551
 20
1554.592415349814
 30
0.0
 11
-1269.86967890551
 21
1552.59242112341
 31
0.0
  0
LINE
  5
163E8
330
1A
100
AcDbEntity
  8
ZISSEN1
100
AcDbLine
 10
-1264.219687483424
 20
1554.592415349814
 30
0.0
 11
-1264.219687483424
 21
1552.59242112341
 31
0.0
  0
LINE
  5
163E9
330
1A
100
AcDbEntity
  8
ZISSEN1
100
AcDbLine
 10
-1260.219699030615
 20
1556.092420298611
 30
0.0
 11
-1258.619703649492
 21
1556.092420298611
 31
0.0
  0
LINE
  5
163EA
330
1A
100
AcDbEntity
  8
ZISSEN1
100
AcDbLine
 10
-1248.719710577807
 20
1557.592425247407
 30
0.0
 11
-1247.719707278609
 21
1556.59242194821
 31
0.0
  0
LINE
  5
163EB
330
1A
100
AcDbEntity
  8
ZISSEN1
100
AcDbLine
 10
-1251.619705299091
 20
1556.092420298611
 30
0.0
 11
-1250.019709917967
 21
1556.092420298611
 31
0.0
  0
LINE
  5
163EC
330
1A
100
AcDbEntity
  8
ZISSEN1
100
AcDbLine
 10
-1239.819696061337
 20
1554.592415349814
 30
0.0
 11
-1239.819696061337
 21
1552.59242112341
 31
0.0
  0
LINE
  5
163ED
330
1A
100
AcDbEntity
  8
CL1
100
AcDbLine
 10
-1226.619721795079
 20
1556.092420298611
 30
0.0
 11
-1226.619721795079
 21
1551.108102717021
 31
0.0
  0
LINE
  5
163EE
330
1A
100
AcDbEntity
  8
ZISSEN1
100
AcDbLine
 10
-1228.369715196683
 20
1554.592415349814
 30
0.0
 11
-1228.369715196683
 21
1552.59242112341
 31
0.0
  0
LINE
  5
163EF
330
1A
100
AcDbEntity
  8
ZISSEN1
100
AcDbLine
 10
-1224.869703649492
 20
1554.592415349814
 30
0.0
 11
-1224.869703649492
 21
1552.59242112341
 31
0.0
  0
LINE
  5
163F0
330
1A
100
AcDbEntity
  8
ZISSEN1
100
AcDbLine
 10
-1236.819710907727
 20
1554.59247720977
 30
0.0
 11
-1236.819710907727
 21
1556.59242194821
 31
0.0
  0
LINE
  5
163F1
330
1A
100
AcDbEntity
  8
ZISSEN1
100
AcDbLine
 10
-1219.419717836042
 20
1554.592415349814
 30
0.0
 11
-1219.419717836042
 21
1552.59242112341
 31
0.0
  0
ARC
  5
163F2
330
1A
100
AcDbEntity
  8
ZISSEN1
100
AcDbCircle
 10
-1214.819712557325
 20
1554.592415349814
 30
0.0
 40
2.000000025774981
100
AcDbArc
 50
270.0
 51
0.0
  0
DIMENSION
  5
163F3
330
1A
100
AcDbEntity
  8
SUNPOU
100
AcDbDimension
  2
*D58
 10
-1305.182819381606
 20
1660.344985792848
 30
0.0
 11
-1356.114888480221
 21
1663.094985792849
 31
0.0
 70
    32
  3
標準スタイル
100
AcDbAlignedDimension
 13
-1407.046957578836
 23
1679.71661647377
 33
0.0
 14
-1305.182819381606
 24
1692.247526536776
 34
0.0
100
AcDbRotatedDimension
1001
ACAD
1000
DSTYLE
1002
{
1070
   340
1005
10
1070
    40
1040
1.0
1002
}
  0
DIMENSION
  5
163F4
330
1A
100
AcDbEntity
  8
SUNPOU
100
AcDbDimension
  2
*D59
 10
-1321.046964589631
 20
1672.186776989299
 30
0.0
 11
-1364.046961084234
 21
1674.9367769893
 31
0.0
 70
    32
  3
標準スタイル
100
AcDbAlignedDimension
 13
-1407.046957578836
 23
1680.21661647377
 33
0.0
 14
-1321.046964589631
 24
1687.516613958132
 34
0.0
100
AcDbRotatedDimension
1001
ACAD
1000
DSTYLE
1002
{
1070
   340
1005
10
1070
    40
1040
1.0
1002
}
  0
LINE
  5
163F5
330
1A
100
AcDbEntity
  8
ZISSEN1
100
AcDbLine
 10
-1364.996959888274
 20
1800.146649770922
 30
0.0
 11
-1344.996961950273
 21
1800.146649770922
 31
0.0
  0
LINE
  5
163F6
330
1A
100
AcDbEntity
  8
ZISSEN1
100
AcDbLine
 10
-1364.996959888274
 20
1800.146649770922
 30
0.0
 11
-1344.996961950273
 21
1800.146649770922
 31
0.0
  0
LINE
  5
163F7
330
1A
100
AcDbEntity
  8
ZISSEN1
100
AcDbLine
 10
-1344.996961950273
 20
1799.496650100842
 30
0.0
 11
-1364.996959888274
 21
1799.496650100842
 31
0.0
  0
LINE
  5
163F8
330
1A
100
AcDbEntity
  8
ZISSEN1
100
AcDbLine
 10
-1362.996959475875
 20
1800.146649770922
 30
0.0
 11
-1346.996956176677
 21
1800.146649770922
 31
0.0
  0
LINE
  5
163F9
330
1A
100
AcDbEntity
  8
ZISSEN1
100
AcDbLine
 10
-1322.846953207399
 20
1797.716642248752
 30
0.0
 11
-1405.046960259434
 21
1797.716642248752
 31
0.0
  0
LINE
  5
163FA
330
1A
100
AcDbEntity
  8
ZISSEN1
100
AcDbLine
 10
-1322.846953207399
 20
1797.716642248752
 30
0.0
 11
-1405.046960259434
 21
1797.716642248752
 31
0.0
  0
LINE
  5
163FB
330
1A
100
AcDbEntity
  8
ZISSEN1
100
AcDbLine
 10
-1322.846953207399
 20
1797.716642248752
 30
0.0
 11
-1405.046960259434
 21
1797.716642248752
 31
0.0
  0
LINE
  5
163FC
330
1A
100
AcDbEntity
  8
ZISSEN1
100
AcDbLine
 10
-1322.846953207399
 20
1797.716642248752
 30
0.0
 11
-1405.046960259434
 21
1797.716642248752
 31
0.0
  0
LINE
  5
163FD
330
1A
100
AcDbEntity
  8
ZISSEN1
100
AcDbLine
 10
-1405.046960259434
 20
1797.716642248752
 30
0.0
 11
-1321.846962280193
 21
1797.716642248752
 31
0.0
  0
LINE
  5
163FE
330
1A
100
AcDbEntity
  8
ZISSEN1
100
AcDbLine
 10
-1322.846953207399
 20
1686.71661626757
 30
0.0
 11
-1405.046960259434
 21
1686.71661626757
 31
0.0
  0
LINE
  5
163FF
330
1A
100
AcDbEntity
  8
ZISSEN1
100
AcDbLine
 10
-1322.846953207399
 20
1686.71661626757
 30
0.0
 11
-1405.046960259434
 21
1686.71661626757
 31
0.0
  0
LINE
  5
16400
330
1A
100
AcDbEntity
  8
ZISSEN1
100
AcDbLine
 10
-1322.846953207399
 20
1686.71661626757
 30
0.0
 11
-1405.046960259434
 21
1686.71661626757
 31
0.0
  0
LINE
  5
16401
330
1A
100
AcDbEntity
  8
ZISSEN1
100
AcDbLine
 10
-1322.846953207399
 20
1686.71661626757
 30
0.0
 11
-1405.046960259434
 21
1686.71661626757
 31
0.0
  0
LINE
  5
16402
330
1A
100
AcDbEntity
  8
ZISSEN1
100
AcDbLine
 10
-1405.046960259434
 20
1686.71661626757
 30
0.0
 11
-1321.846962280193
 21
1686.71661626757
 31
0.0
  0
LINE
  5
16403
330
1A
100
AcDbEntity
  8
ZISSEN1
100
AcDbLine
 10
-1405.046960259434
 20
1796.216662043937
 30
0.0
 11
-1405.046960259434
 21
1688.216627402362
 31
0.0
  0
LINE
  5
16404
330
1A
100
AcDbEntity
  8
ZISSEN1
100
AcDbLine
 10
-1405.046960259434
 20
1680.21661647377
 30
0.0
 11
-1405.046960259434
 21
1804.216638949554
 31
0.0
  0
LINE
  5
16405
330
1A
100
AcDbEntity
  8
ZISSEN1
100
AcDbLine
 10
-1407.046957578836
 20
1680.21661647377
 30
0.0
 11
-1407.046957578836
 21
1804.216638949554
 31
0.0
  0
LINE
  5
16406
330
1A
100
AcDbEntity
  8
ZISSEN1
100
AcDbLine
 10
-1403.546958403635
 20
1735.716660394338
 30
0.0
 11
-1403.546958403635
 21
1687.716613380772
 31
0.0
  0
LINE
  5
16407
330
1A
100
AcDbEntity
  8
ZISSEN1
100
AcDbLine
 10
-1386.546957991236
 20
1682.986643428215
 30
0.0
 11
-1382.996957413876
 21
1682.986643428215
 31
0.0
  0
LINE
  5
16408
330
1A
100
AcDbEntity
  8
ZISSEN1
100
AcDbLine
 10
-1386.546957991236
 20
1682.986643428215
 30
0.0
 11
-1382.996957413876
 21
1682.986643428215
 31
0.0
  0
LINE
  5
16409
330
1A
100
AcDbEntity
  8
ZISSEN1
100
AcDbLine
 10
-1405.046960259434
 20
1687.516613958132
 30
0.0
 11
-1403.346958980995
 21
1687.516613958132
 31
0.0
  0
LINE
  5
1640A
330
1A
100
AcDbEntity
  8
ZISSEN1
100
AcDbLine
 10
-1403.546958403635
 20
1687.716613380772
 30
0.0
 11
-1402.546958197436
 21
1686.71661626757
 31
0.0
  0
LINE
  5
1640B
330
1A
100
AcDbEntity
  8
CL1
100
AcDbLine
 10
-1408.146721194911
 20
1684.216644669496
 30
0.0
 11
-1403.864352136613
 21
1684.216644669496
 31
0.0
  0
LINE
  5
1640C
330
1A
100
AcDbEntity
  8
ZISSEN1
100
AcDbLine
 10
-1406.646958733555
 20
1686.71661626757
 30
0.0
 11
-1406.646958733555
 21
1687.516613958132
 31
0.0
  0
LINE
  5
1640D
330
1A
100
AcDbEntity
  8
ZISSEN1
100
AcDbLine
 10
-1405.046960259434
 20
1686.71661626757
 30
0.0
 11
-1406.646958733555
 21
1686.71661626757
 31
0.0
  0
LINE
  5
1640E
330
1A
100
AcDbEntity
  8
ZISSEN1
100
AcDbLine
 10
-1405.046960259434
 20
1687.516613958132
 30
0.0
 11
-1406.646958733555
 21
1687.516613958132
 31
0.0
  0
LINE
  5
1640F
330
1A
100
AcDbEntity
  8
ZISSEN1
100
AcDbLine
 10
-1405.046960259434
 20
1680.21661647377
 30
0.0
 11
-1407.046957578836
 21
1680.21661647377
 31
0.0
  0
LINE
  5
16410
330
1A
100
AcDbEntity
  8
ZISSEN1
100
AcDbLine
 10
-1386.546957991236
 20
1682.986643428215
 30
0.0
 11
-1386.546957991236
 21
1686.71661626757
 31
0.0
  0
LINE
  5
16411
330
1A
100
AcDbEntity
  8
ZISSEN1
100
AcDbLine
 10
-1380.996957001477
 20
1684.286645861373
 30
0.0
 11
-1364.996959888274
 21
1684.286645861373
 31
0.0
  0
LINE
  5
16412
330
1A
100
AcDbEntity
  8
ZISSEN1
100
AcDbLine
 10
-1382.996957413876
 20
1684.286645861373
 30
0.0
 11
-1362.996959475875
 21
1684.286645861373
 31
0.0
  0
LINE
  5
16413
330
1A
100
AcDbEntity
  8
ZISSEN1
100
AcDbLine
 10
-1382.996957413876
 20
1684.286645861373
 30
0.0
 11
-1362.996959475875
 21
1684.286645861373
 31
0.0
  0
LINE
  5
16414
330
1A
100
AcDbEntity
  8
ZISSEN1
100
AcDbLine
 10
-1354.996957826276
 20
1684.936645531453
 30
0.0
 11
-1382.996957413876
 21
1684.936645531453
 31
0.0
  0
LINE
  5
16415
330
1A
100
AcDbEntity
  8
ZISSEN1
100
AcDbLine
 10
-1380.996957001477
 20
1684.286645861373
 30
0.0
 11
-1354.996957826276
 21
1684.286645861373
 31
0.0
  0
LINE
  5
16416
330
1A
100
AcDbEntity
  8
ZISSEN1
100
AcDbLine
 10
-1382.996957413876
 20
1684.936645531453
 30
0.0
 11
-1382.996957413876
 21
1684.153745932636
 31
0.0
  0
LINE
  5
16417
330
1A
100
AcDbEntity
  8
ZISSEN1
100
AcDbLine
 10
-1382.996957413876
 20
1682.986643428215
 30
0.0
 11
-1382.996957413876
 21
1684.153745932636
 31
0.0
  0
LINE
  5
16418
330
1A
100
AcDbEntity
  8
ZISSEN1
100
AcDbLine
 10
-1382.996957413876
 20
1684.936645531453
 30
0.0
 11
-1382.996957413876
 21
1684.153745932636
 31
0.0
  0
LINE
  5
16419
330
1A
100
AcDbEntity
  8
ZISSEN1
100
AcDbLine
 10
-1382.996957413876
 20
1682.986643428215
 30
0.0
 11
-1382.996957413876
 21
1684.153745932636
 31
0.0
  0
LINE
  5
1641A
330
1A
100
AcDbEntity
  8
ZISSEN1
100
AcDbLine
 10
-1351.446957248916
 20
1686.71661626757
 30
0.0
 11
-1351.446957248916
 21
1682.986643428215
 31
0.0
  0
LINE
  5
1641B
330
1A
100
AcDbEntity
  8
ZISSEN1
100
AcDbLine
 10
-1354.996957826276
 20
1684.936645531453
 30
0.0
 11
-1354.996957826276
 21
1684.153745932636
 31
0.0
  0
LINE
  5
1641C
330
1A
100
AcDbEntity
  8
ZISSEN1
100
AcDbLine
 10
-1354.996957826276
 20
1682.986643428215
 30
0.0
 11
-1354.996957826276
 21
1684.153745932636
 31
0.0
  0
LINE
  5
1641D
330
1A
100
AcDbEntity
  8
ZISSEN1
100
AcDbLine
 10
-1353.996960713074
 20
1682.986643428215
 30
0.0
 11
-1354.996957826276
 21
1682.986643428215
 31
0.0
  0
LINE
  5
1641E
330
1A
100
AcDbEntity
  8
ZISSEN1
100
AcDbLine
 10
-1353.996960713074
 20
1682.986643428215
 30
0.0
 11
-1354.996957826276
 21
1682.986643428215
 31
0.0
  0
LINE
  5
1641F
330
1A
100
AcDbEntity
  8
ZISSEN1
100
AcDbLine
 10
-1351.446957248916
 20
1682.986643428215
 30
0.0
 11
-1354.996957826276
 21
1682.986643428215
 31
0.0
  0
LINE
  5
16420
330
1A
100
AcDbEntity
  8
ZISSEN1
100
AcDbLine
 10
-1403.546958403635
 20
1748.716666167934
 30
0.0
 11
-1403.546958403635
 21
1796.716638949554
 31
0.0
  0
LINE
  5
16421
330
1A
100
AcDbEntity
  8
ZISSEN1
100
AcDbLine
 10
-1403.546958403635
 20
1748.716666167934
 30
0.0
 11
-1402.546958197436
 21
1747.716662868737
 31
0.0
  0
LINE
  5
16422
330
1A
100
AcDbEntity
  8
ZISSEN1
100
AcDbLine
 10
-1403.546958403635
 20
1735.716660394338
 30
0.0
 11
-1402.546958197436
 21
1736.716663693536
 31
0.0
  0
LINE
  5
16423
330
1A
100
AcDbEntity
  8
ZISSEN1
100
AcDbLine
 10
-1395.896960383154
 20
1746.716647197548
 30
0.0
 11
-1405.046960259434
 21
1746.716647197548
 31
0.0
  0
LINE
  5
16424
330
1A
100
AcDbEntity
  8
ZISSEN1
100
AcDbLine
 10
-1395.896960383154
 20
1737.716704108707
 30
0.0
 11
-1405.046960259434
 21
1737.716704108707
 31
0.0
  0
LINE
  5
16425
330
1A
100
AcDbEntity
  8
ZISSEN1
100
AcDbLine
 10
-1395.896960383154
 20
1746.716647197548
 30
0.0
 11
-1394.896960176954
 21
1745.71664389835
 31
0.0
  0
LINE
  5
16426
330
1A
100
AcDbEntity
  8
ZISSEN1
100
AcDbLine
 10
-1394.896960176954
 20
1743.752887233971
 30
0.0
 11
-1394.896960176954
 21
1745.71664389835
 31
0.0
  0
LINE
  5
16427
330
1A
100
AcDbEntity
  8
ZISSEN1
100
AcDbLine
 10
-1392.096958980995
 20
1747.716662868737
 30
0.0
 11
-1392.096958980995
 21
1746.716659569539
 31
0.0
  0
LINE
  5
16428
330
1A
100
AcDbEntity
  8
ZISSEN1
100
AcDbLine
 10
-1394.896960176954
 20
1738.716707407905
 30
0.0
 11
-1395.896960383154
 21
1737.716704108707
 31
0.0
  0
LINE
  5
16429
330
1A
100
AcDbEntity
  8
ZISSEN1
100
AcDbLine
 10
-1394.896960176954
 20
1738.716707407905
 30
0.0
 11
-1394.896960176954
 21
1740.680426956311
 31
0.0
  0
LINE
  5
1642A
330
1A
100
AcDbEntity
  8
ZISSEN1
100
AcDbLine
 10
-1392.096958980995
 20
1737.716666992734
 30
0.0
 11
-1392.096958980995
 21
1736.716663693536
 31
0.0
  0
LINE
  5
1642B
330
1A
100
AcDbEntity
  8
ZISSEN1
100
AcDbLine
 10
-1393.896959970755
 20
1746.716659569539
 30
0.0
 11
-1393.896959970755
 21
1737.716666992734
 31
0.0
  0
LINE
  5
1642C
330
1A
100
AcDbEntity
  8
ZISSEN1
100
AcDbLine
 10
-1400.146958939755
 20
1746.716659569539
 30
0.0
 11
-1401.146959145955
 21
1745.716656270342
 31
0.0
  0
LINE
  5
1642D
330
1A
100
AcDbEntity
  8
ZISSEN1
100
AcDbLine
 10
-1400.146958939755
 20
1737.716666992734
 30
0.0
 11
-1401.146959145955
 21
1738.71665791994
 31
0.0
  0
LINE
  5
1642E
330
1A
100
AcDbEntity
  8
ZISSEN1
100
AcDbLine
 10
-1401.146959145955
 20
1745.716656270342
 30
0.0
 11
-1401.146959145955
 21
1738.71665791994
 31
0.0
  0
LINE
  5
1642F
330
1A
100
AcDbEntity
  8
ZISSEN1
100
AcDbLine
 10
-1402.546958197436
 20
1747.716662868737
 30
0.0
 11
-1392.096958980995
 21
1747.716662868737
 31
0.0
  0
LINE
  5
16430
330
1A
100
AcDbEntity
  8
ZISSEN1
100
AcDbLine
 10
-1400.146958939755
 20
1746.716659569539
 30
0.0
 11
-1392.096958980995
 21
1746.716659569539
 31
0.0
  0
LINE
  5
16431
330
1A
100
AcDbEntity
  8
ZISSEN1
100
AcDbLine
 10
-1400.146958939755
 20
1737.716666992734
 30
0.0
 11
-1392.096958980995
 21
1737.716666992734
 31
0.0
  0
LINE
  5
16432
330
1A
100
AcDbEntity
  8
ZISSEN1
100
AcDbLine
 10
-1402.546958197436
 20
1736.716663693536
 30
0.0
 11
-1392.096958980995
 21
1736.716663693536
 31
0.0
  0
CIRCLE
  5
16433
330
1A
100
AcDbEntity
  8
ZISSEN1
100
AcDbCircle
 10
-1397.646959970755
 20
1742.216657095141
 30
0.0
 40
3.149999992267504
  0
LINE
  5
16434
330
1A
100
AcDbEntity
  8
ZISSEN1
100
AcDbLine
 10
-1403.546958403635
 20
1796.716638949554
 30
0.0
 11
-1402.546958197436
 21
1797.716642248752
 31
0.0
  0
LINE
  5
16435
330
1A
100
AcDbEntity
  8
ZISSEN1
100
AcDbLine
 10
-1405.046960259434
 20
1796.91664455819
 30
0.0
 11
-1403.346958980995
 21
1796.91664455819
 31
0.0
  0
LINE
  5
16436
330
1A
100
AcDbEntity
  8
CL1
100
AcDbLine
 10
-1408.146721194911
 20
1800.21669998471
 30
0.0
 11
-1403.864352136613
 21
1800.21669998471
 31
0.0
  0
LINE
  5
16437
330
1A
100
AcDbEntity
  8
CL1
100
AcDbLine
 10
-1408.146721194911
 20
1800.21669998471
 30
0.0
 11
-1403.864352136613
 21
1800.21669998471
 31
0.0
  0
LINE
  5
16438
330
1A
100
AcDbEntity
  8
ZISSEN1
100
AcDbLine
 10
-1406.646958733555
 20
1797.716642248752
 30
0.0
 11
-1406.646958733555
 21
1796.91664455819
 31
0.0
  0
LINE
  5
16439
330
1A
100
AcDbEntity
  8
ZISSEN1
100
AcDbLine
 10
-1405.046960259434
 20
1797.716642248752
 30
0.0
 11
-1406.646958733555
 21
1797.716642248752
 31
0.0
  0
LINE
  5
1643A
330
1A
100
AcDbEntity
  8
ZISSEN1
100
AcDbLine
 10
-1405.046960259434
 20
1796.91664455819
 30
0.0
 11
-1406.646958733555
 21
1796.91664455819
 31
0.0
  0
LINE
  5
1643B
330
1A
100
AcDbEntity
  8
ZISSEN1
100
AcDbLine
 10
-1405.046960259434
 20
1804.216638949554
 30
0.0
 11
-1407.046957578836
 21
1804.216638949554
 31
0.0
  0
LINE
  5
1643C
330
1A
100
AcDbEntity
  8
ZISSEN1
100
AcDbLine
 10
-1368.546960465634
 20
1801.446649111083
 30
0.0
 11
-1364.996959888274
 21
1801.446649111083
 31
0.0
  0
LINE
  5
1643D
330
1A
100
AcDbEntity
  8
ZISSEN1
100
AcDbLine
 10
-1368.546960465634
 20
1801.446649111083
 30
0.0
 11
-1364.996959888274
 21
1801.446649111083
 31
0.0
  0
LINE
  5
1643E
330
1A
100
AcDbEntity
  8
ZISSEN1
100
AcDbLine
 10
-1368.546960465634
 20
1801.446649111083
 30
0.0
 11
-1368.546960465634
 21
1797.716642248752
 31
0.0
  0
LINE
  5
1643F
330
1A
100
AcDbEntity
  8
ZISSEN1
100
AcDbLine
 10
-1364.996959888274
 20
1801.446649111083
 30
0.0
 11
-1364.996959888274
 21
1800.279537327668
 31
0.0
  0
LINE
  5
16440
330
1A
100
AcDbEntity
  8
ZISSEN1
100
AcDbLine
 10
-1364.996959888274
 20
1799.496650100842
 30
0.0
 11
-1364.996959888274
 21
1800.279537327668
 31
0.0
  0
LINE
  5
16441
330
1A
100
AcDbEntity
  8
ZISSEN1
100
AcDbLine
 10
-1364.996959888274
 20
1801.446649111083
 30
0.0
 11
-1364.996959888274
 21
1800.279537327668
 31
0.0
  0
LINE
  5
16442
330
1A
100
AcDbEntity
  8
ZISSEN1
100
AcDbLine
 10
-1364.996959888274
 20
1799.496650100842
 30
0.0
 11
-1364.996959888274
 21
1800.279537327668
 31
0.0
  0
CIRCLE
  5
16443
330
1A
100
AcDbEntity
  8
ZISSEN1
100
AcDbCircle
 10
-1278.219721300199
 20
1860.662707690109
 30
0.0
 40
2.400000030929978
  0
LINE
  5
16444
330
1A
100
AcDbEntity
  8
ZISSEN1
100
AcDbLine
 10
-1230.419729383233
 20
1875.012708020029
 30
0.0
 11
-1230.419729383233
 21
1859.712687235084
 31
0.0
  0
LINE
  5
16445
330
1A
100
AcDbEntity
  8
ZISSEN1
100
AcDbLine
 10
-1230.919731032832
 20
1875.012708020029
 30
0.0
 11
-1230.919731032832
 21
1859.712687235084
 31
0.0
  0
LINE
  5
16446
330
1A
100
AcDbEntity
  8
ZISSEN1
100
AcDbLine
 10
-1220.419721135239
 20
1859.712687235084
 30
0.0
 11
-1220.419721135239
 21
1875.012708020029
 31
0.0
  0
LINE
  5
16447
330
1A
100
AcDbEntity
  8
ZISSEN1
100
AcDbLine
 10
-1267.519718165962
 20
1880.762689874442
 30
0.0
 11
-1267.519718165962
 21
1853.662684595726
 31
0.0
  0
LINE
  5
16448
330
1A
100
AcDbEntity
  8
ZISSEN1
100
AcDbLine
 10
-1260.719725424196
 20
1853.662684595726
 30
0.0
 11
-1260.719725424196
 21
1880.762689874442
 31
0.0
  0
LINE
  5
16449
330
1A
100
AcDbEntity
  8
ZISSEN1
100
AcDbLine
 10
-1267.019728888354
 20
1880.762689874442
 30
0.0
 11
-1267.019728888354
 21
1853.662684595726
 31
0.0
  0
LINE
  5
1644A
330
1A
100
AcDbEntity
  8
ZISSEN1
100
AcDbLine
 10
-1250.019722289959
 20
1875.012708020029
 30
0.0
 11
-1250.019722289959
 21
1859.712687235084
 31
0.0
  0
LINE
  5
1644B
330
1A
100
AcDbEntity
  8
ZISSEN1
100
AcDbLine
 10
-1250.519723939557
 20
1875.012708020029
 30
0.0
 11
-1250.519723939557
 21
1859.712687235084
 31
0.0
  0
LINE
  5
1644C
330
1A
100
AcDbEntity
  8
ZISSEN1
100
AcDbLine
 10
-1240.019726413955
 20
1859.712687235084
 30
0.0
 11
-1240.019726413955
 21
1875.012708020029
 31
0.0
  0
LINE
  5
1644D
330
1A
100
AcDbEntity
  8
ZISSEN1
100
AcDbLine
 10
-1268.01971981556
 20
1881.612695153158
 30
0.0
 11
-1268.01971981556
 21
1851.962698782276
 31
0.0
  0
LINE
  5
1644E
330
1A
100
AcDbEntity
  8
ZISSEN1
100
AcDbLine
 10
-1260.219723774598
 20
1915.76270637043
 30
0.0
 11
-1260.219723774598
 21
1851.962698782276
 31
0.0
  0
LINE
  5
1644F
330
1A
100
AcDbEntity
  8
ZISSEN1
100
AcDbLine
 10
-1258.619728393474
 20
1915.76270637043
 30
0.0
 11
-1258.619728393474
 21
1851.962698782276
 31
0.0
  0
LINE
  5
16450
330
1A
100
AcDbEntity
  8
ZISSEN1
100
AcDbLine
 10
-1256.719724599397
 20
1905.262696472837
 30
0.0
 11
-1256.719724599397
 21
1851.962698782276
 31
0.0
  0
LINE
  5
16451
330
1A
100
AcDbEntity
  8
ZISSEN1
100
AcDbLine
 10
-1214.819712557325
 20
1917.262686575244
 30
0.0
 11
-1214.819712557325
 21
1834.062691689
 31
0.0
  0
LINE
  5
16452
330
1A
100
AcDbEntity
  8
ZISSEN1
100
AcDbLine
 10
-1212.819730702912
 20
1834.062691689
 30
0.0
 11
-1212.819730702912
 21
1917.262686575244
 31
0.0
  0
LINE
  5
16453
330
1A
100
AcDbEntity
  8
ZISSEN1
100
AcDbLine
 10
-1216.819719155721
 20
1905.262696472837
 30
0.0
 11
-1216.819719155721
 21
1833.262693998439
 31
0.0
  0
LINE
  5
16454
330
1A
100
AcDbEntity
  8
ZISSEN1
100
AcDbLine
 10
-1282.819763694889
 20
1916.262708020029
 30
0.0
 11
-1282.819763694889
 21
1856.262708020029
 31
0.0
  0
LINE
  5
16455
330
1A
100
AcDbEntity
  8
ZISSEN1
100
AcDbLine
 10
-1285.619718495881
 20
1915.76270637043
 30
0.0
 11
-1285.619718495881
 21
1833.262693998439
 31
0.0
  0
LINE
  5
16456
330
1A
100
AcDbEntity
  8
ZISSEN1
100
AcDbLine
 10
-1284.81972080532
 20
1915.76270637043
 30
0.0
 11
-1284.81972080532
 21
1833.262693998439
 31
0.0
  0
LINE
  5
16457
330
1A
100
AcDbEntity
  8
ZISSEN1
100
AcDbLine
 10
-1282.819726578916
 20
1833.262693998439
 30
0.0
 11
-1282.819726578916
 21
1917.262686575244
 31
0.0
  0
DIMENSION
  5
16458
330
1A
100
AcDbEntity
  8
SUNPOU
100
AcDbDimension
  2
*D60
 10
-1197.284220457021
 20
1800.21669998471
 30
0.0
 11
-1200.034220457022
 21
1742.216672560129
 31
0.0
 70
    32
  1
116(USER取付寸法）
  3
標準スタイル
100
AcDbAlignedDimension
 13
-1271.619709423088
 23
1684.216645135549
 33
0.0
 14
-1226.619721795079
 24
1800.21669998471
 34
0.0
 50
90.0
100
AcDbRotatedDimension
1001
ACAD
1000
DSTYLE
1002
{
1070
    40
1040
1.0
1070
    77
1070
     3
1070
   340
1005
10
1002
}
  0
DIMENSION
  5
16459
330
1A
100
AcDbEntity
  8
SUNPOU
100
AcDbDimension
  2
*D61
 10
-1183.171651062305
 20
1804.216638949554
 30
0.0
 11
-1185.921651062306
 21
1742.216641630152
 31
0.0
 70
    32
  3
標準スタイル
100
AcDbAlignedDimension
 13
-1220.419721135239
 23
1680.21664431075
 33
0.0
 14
-1220.419721135239
 24
1804.216638949554
 34
0.0
 50
90.0
100
AcDbRotatedDimension
1001
ACAD
1000
DSTYLE
1002
{
1070
   340
1005
10
1070
    40
1040
1.0
1002
}
  0
DIMENSION
  5
1645A
330
1A
100
AcDbEntity
  8
SUNPOU
100
AcDbDimension
  2
*D62
 10
-1299.581905180023
 20
1686.71661626757
 30
0.0
 11
-1302.331905180023
 21
1742.216629258161
 31
0.0
 70
    32
  3
標準スタイル
100
AcDbAlignedDimension
 13
-1322.846953207399
 23
1797.716642248752
 33
0.0
 14
-1321.846962280193
 24
1686.71661626757
 34
0.0
 50
90.0
100
AcDbRotatedDimension
1001
ACAD
1000
DSTYLE
1002
{
1070
   340
1005
10
1070
    40
1040
1.0
1002
}
  0
LINE
  5
1645B
330
1A
100
AcDbEntity
  8
ZISSEN1
100
AcDbLine
 10
-1317.846961455394
 20
1692.316637217475
 30
0.0
 11
-1317.846961455394
 21
1727.916639609393
 31
0.0
  0
LINE
  5
1645C
330
1A
100
AcDbEntity
  8
ZISSEN1
100
AcDbLine
 10
-1220.419721135239
 20
1710.41664373339
 30
0.0
 11
-1220.419721135239
 21
1711.96664389835
 31
0.0
  0
LINE
  5
1645D
330
1A
100
AcDbEntity
  8
ZISSEN1
100
AcDbLine
 10
-1240.019726413955
 20
1710.41664373339
 30
0.0
 11
-1240.019726413955
 21
1711.96664389835
 31
0.0
  0
LINE
  5
1645E
330
1A
100
AcDbEntity
  8
ZISSEN1
100
AcDbLine
 10
-1275.819728228514
 20
1701.716628639561
 30
0.0
 11
-1275.819728228514
 21
1712.516640764112
 31
0.0
  0
LINE
  5
1645F
330
1A
100
AcDbEntity
  8
ZISSEN1
100
AcDbLine
 10
-1321.046964589631
 20
1687.516613958132
 30
0.0
 11
-1321.046964589631
 21
1719.916637959795
 31
0.0
  0
LINE
  5
16460
330
1A
100
AcDbEntity
  8
ZISSEN1
100
AcDbLine
 10
-1213.319732352511
 20
1795.916666002974
 30
0.0
 11
-1213.319732352511
 21
1688.516642001312
 31
0.0
  0
LINE
  5
16461
330
1A
100
AcDbEntity
  8
ZISSEN1
100
AcDbLine
 10
-1228.619728393474
 20
1710.41664373339
 30
0.0
 11
-1228.619728393474
 21
1730.016642826111
 31
0.0
  0
LINE
  5
16462
330
1A
100
AcDbEntity
  8
ZISSEN1
100
AcDbLine
 10
-1220.719717176202
 20
1710.41664373339
 30
0.0
 11
-1220.719717176202
 21
1730.016642826111
 31
0.0
  0
LINE
  5
16463
330
1A
100
AcDbEntity
  8
ZISSEN1
100
AcDbLine
 10
-1248.219721300199
 20
1710.41664373339
 30
0.0
 11
-1248.219721300199
 21
1730.016642826111
 31
0.0
  0
LINE
  5
16464
330
1A
100
AcDbEntity
  8
ZISSEN1
100
AcDbLine
 10
-1240.319722454918
 20
1710.41664373339
 30
0.0
 11
-1240.319722454918
 21
1730.016642826111
 31
0.0
  0
LINE
  5
16465
330
1A
100
AcDbEntity
  8
ZISSEN1
100
AcDbLine
 10
-1316.846958156196
 20
1730.016673756089
 30
0.0
 11
-1316.846958156196
 21
1710.416674663368
 31
0.0
  0
LINE
  5
16466
330
1A
100
AcDbEntity
  8
ZISSEN1
100
AcDbLine
 10
-1218.819725754116
 20
1752.516649012107
 30
0.0
 11
-1218.819725754116
 21
1693.716645547949
 31
0.0
  0
LINE
  5
16467
330
1A
100
AcDbEntity
  8
ZISSEN1
100
AcDbLine
 10
-1240.019726413955
 20
1752.516649012107
 30
0.0
 11
-1240.019726413955
 21
1693.716645547949
 31
0.0
  0
LINE
  5
16468
330
1A
100
AcDbEntity
  8
ZISSEN1
100
AcDbLine
 10
-1238.419718660841
 20
1752.516649012107
 30
0.0
 11
-1238.419718660841
 21
1693.716645547949
 31
0.0
  0
LINE
  5
16469
330
1A
100
AcDbEntity
  8
ZISSEN1
100
AcDbLine
 10
-1220.419721135239
 20
1752.516649012107
 30
0.0
 11
-1220.419721135239
 21
1693.716645547949
 31
0.0
  0
LINE
  5
1646A
330
1A
100
AcDbEntity
  8
ZISSEN1
100
AcDbLine
 10
-1260.219723774598
 20
1762.100970730065
 30
0.0
 11
-1260.219723774598
 21
1688.216633588358
 31
0.0
  0
LINE
  5
1646B
330
1A
100
AcDbEntity
  8
ZISSEN1
100
AcDbLine
 10
-1268.719727073795
 20
1688.018762148192
 30
0.0
 11
-1268.719727073795
 21
1721.064226741203
 31
0.0
  0
LINE
  5
1646C
330
1A
100
AcDbEntity
  8
ZISSEN1
100
AcDbLine
 10
-1267.719723774598
 20
1750.485477368051
 30
0.0
 11
-1267.719723774598
 21
1695.648556707155
 31
0.0
  0
LINE
  5
1646D
330
1A
100
AcDbEntity
  8
ZISSEN1
100
AcDbLine
 10
-1261.519723114758
 20
1750.476272606648
 30
0.0
 11
-1261.519723114758
 21
1695.648556707155
 31
0.0
  0
LINE
  5
1646E
330
1A
100
AcDbEntity
  8
ZISSEN1
100
AcDbLine
 10
-1251.619717671082
 20
1793.916647032588
 30
0.0
 11
-1251.619717671082
 21
1693.716645547949
 31
0.0
  0
LINE
  5
1646F
330
1A
100
AcDbEntity
  8
ZISSEN1
100
AcDbLine
 10
-1250.019722289959
 20
1793.916647032588
 30
0.0
 11
-1250.019722289959
 21
1693.716645547949
 31
0.0
  0
LINE
  5
16470
330
1A
100
AcDbEntity
  8
ZISSEN1
100
AcDbLine
 10
-1232.019724764357
 20
1793.916647032588
 30
0.0
 11
-1232.019724764357
 21
1693.716645547949
 31
0.0
  0
LINE
  5
16471
330
1A
100
AcDbEntity
  8
ZISSEN1
100
AcDbLine
 10
-1230.419729383233
 20
1793.916647032588
 30
0.0
 11
-1230.419729383233
 21
1693.716645547949
 31
0.0
  0
LINE
  5
16472
330
1A
100
AcDbEntity
  8
ZISSEN1
100
AcDbLine
 10
-1258.619728393474
 20
1762.100970730065
 30
0.0
 11
-1258.619728393474
 21
1688.21665833234
 31
0.0
  0
LINE
  5
16473
330
1A
100
AcDbEntity
  8
ZISSEN1
100
AcDbLine
 10
-1272.219763364969
 20
1735.016640764112
 30
0.0
 11
-1272.219763364969
 21
1690.81664464067
 31
0.0
  0
LINE
  5
16474
330
1A
100
AcDbEntity
  8
ZISSEN1
100
AcDbLine
 10
-1273.819758746093
 20
1690.81664464067
 30
0.0
 11
-1273.819758746093
 21
1735.016640764112
 31
0.0
  0
LINE
  5
16475
330
1A
100
AcDbEntity
  8
ZISSEN1
100
AcDbLine
 10
-1212.819730702912
 20
1686.71661626757
 30
0.0
 11
-1212.819730702912
 21
1797.716642248752
 31
0.0
  0
LINE
  5
16476
330
1A
100
AcDbEntity
  8
ZISSEN1
100
AcDbLine
 10
-1269.219716351403
 20
1686.716641011553
 30
0.0
 11
-1269.219716351403
 21
1762.100970730065
 31
0.0
  0
LINE
  5
16477
330
1A
100
AcDbEntity
  8
ZISSEN1
100
AcDbLine
 10
-1237.919729383233
 20
1752.516649012107
 30
0.0
 11
-1237.919729383233
 21
1693.716645547949
 31
0.0
  0
LINE
  5
16478
330
1A
100
AcDbEntity
  8
ZISSEN1
100
AcDbLine
 10
-1218.319724104517
 20
1752.516649012107
 30
0.0
 11
-1218.319724104517
 21
1693.716645547949
 31
0.0
  0
LINE
  5
16479
330
1A
100
AcDbEntity
  8
ZISSEN1
100
AcDbLine
 10
-1232.819722454918
 20
1693.716645547949
 30
0.0
 11
-1232.819722454918
 21
1786.416647032588
 31
0.0
  0
LINE
  5
1647A
330
1A
100
AcDbEntity
  8
ZISSEN1
100
AcDbLine
 10
-1252.419727733635
 20
1693.716645547949
 30
0.0
 11
-1252.419727733635
 21
1786.416647032588
 31
0.0
  0
LINE
  5
1647B
330
1A
100
AcDbEntity
  8
ZISSEN1
100
AcDbLine
 10
-1256.719724599397
 20
1686.71661626757
 30
0.0
 11
-1256.719724599397
 21
1762.100970730065
 31
0.0
  0
LINE
  5
1647C
330
1A
100
AcDbEntity
  8
ZISSEN1
100
AcDbLine
 10
-1271.719724599397
 20
1735.016640764112
 30
0.0
 11
-1271.719724599397
 21
1690.81664464067
 31
0.0
  0
LINE
  5
1647D
330
1A
100
AcDbEntity
  8
ZISSEN1
100
AcDbLine
 10
-1285.619718495881
 20
1755.316665673054
 30
0.0
 11
-1285.619718495881
 21
1686.71661626757
 31
0.0
  0
LINE
  5
1647E
330
1A
100
AcDbEntity
  8
CL1
100
AcDbLine
 10
-1275.291628931814
 20
1684.216645135549
 30
0.0
 11
-1268.239896083704
 21
1684.216645135549
 31
0.0
  0
LINE
  5
1647F
330
1A
100
AcDbEntity
  8
ZISSEN1
100
AcDbLine
 10
-1274.81976204529
 20
1700.366652641224
 30
0.0
 11
-1279.919768973605
 21
1700.366652641224
 31
0.0
  0
LINE
  5
16480
330
1A
100
AcDbEntity
  8
ZISSEN1
100
AcDbLine
 10
-1274.81976204529
 20
1700.366652641224
 30
0.0
 11
-1279.919768973605
 21
1700.366652641224
 31
0.0
  0
LINE
  5
16481
330
1A
100
AcDbEntity
  8
ZISSEN1
100
AcDbLine
 10
-1274.81976204529
 20
1692.166651568985
 30
0.0
 11
-1279.919768973605
 21
1692.166651568985
 31
0.0
  0
LINE
  5
16482
330
1A
100
AcDbEntity
  8
ZISSEN1
100
AcDbLine
 10
-1274.81976204529
 20
1692.166651568985
 30
0.0
 11
-1279.919768973605
 21
1692.166651568985
 31
0.0
  0
DIMENSION
  5
16483
330
1A
100
AcDbEntity
  8
SUNPOU
100
AcDbDimension
  2
*D63
 10
-1271.619709423088
 20
1672.06102264962
 30
0.0
 11
-1278.619713959485
 21
1674.81102264962
 31
0.0
 70
    32
  3
標準スタイル
100
AcDbAlignedDimension
 13
-1285.619718495881
 23
1681.21664451695
 33
0.0
 14
-1271.619709423088
 24
1684.216645135549
 34
0.0
100
AcDbRotatedDimension
1001
ACAD
1000
DSTYLE
1002
{
1070
   340
1005
10
1070
    40
1040
1.0
1002
}
  0
LINE
  5
16484
330
1A
100
AcDbEntity
  8
ZISSEN1
100
AcDbLine
 10
-1273.819709258128
 20
1641.792423432848
 30
0.0
 11
-1280.519711567566
 21
1641.792423432848
 31
0.0
  0
LINE
  5
16485
330
1A
100
AcDbEntity
  8
ZISSEN1
100
AcDbLine
 10
-1285.619718495881
 20
1638.592432670602
 30
0.0
 11
-1268.719207450168
 21
1638.592432670602
 31
0.0
  0
LINE
  5
16486
330
1A
100
AcDbEntity
  8
ZISSEN1
100
AcDbLine
 10
-1273.819758746093
 20
1701.216651733945
 30
0.0
 11
-1280.519761055531
 21
1701.216651733945
 31
0.0
  0
LINE
  5
16487
330
1A
100
AcDbEntity
  8
ZISSEN1
100
AcDbLine
 10
-1273.819758746093
 20
1701.216651733945
 30
0.0
 11
-1280.519761055531
 21
1701.216651733945
 31
0.0
  0
LINE
  5
16488
330
1A
100
AcDbEntity
  8
ZISSEN1
100
AcDbLine
 10
-1280.519761055531
 20
1691.316652476264
 30
0.0
 11
-1273.819758746093
 21
1691.316652476264
 31
0.0
  0
LINE
  5
16489
330
1A
100
AcDbEntity
  8
ZISSEN1
100
AcDbLine
 10
-1280.519761055531
 20
1691.316652476264
 30
0.0
 11
-1273.819758746093
 21
1691.316652476264
 31
0.0
  0
LINE
  5
1648A
330
1A
100
AcDbEntity
  8
ZISSEN1
100
AcDbLine
 10
-1284.619727568675
 20
1680.21664431075
 30
0.0
 11
-1273.369702824693
 21
1680.21664431075
 31
0.0
  0
LINE
  5
1648B
330
1A
100
AcDbEntity
  8
ZISSEN1
100
AcDbLine
 10
-1282.819726578916
 20
1686.71661626757
 30
0.0
 11
-1216.819719155721
 21
1686.71661626757
 31
0.0
  0
LINE
  5
1648C
330
1A
100
AcDbEntity
  8
ZISSEN1
100
AcDbLine
 10
-1271.719724599397
 20
1690.81664464067
 30
0.0
 11
-1281.7197204754
 21
1690.81664464067
 31
0.0
  0
LINE
  5
1648D
330
1A
100
AcDbEntity
  8
ZISSEN1
100
AcDbLine
 10
-1271.719724599397
 20
1690.81664464067
 30
0.0
 11
-1281.7197204754
 21
1690.81664464067
 31
0.0
  0
LINE
  5
1648E
330
1A
100
AcDbEntity
  8
ZISSEN1
100
AcDbLine
 10
-1279.819704309332
 20
1565.592414525015
 30
0.0
 11
-1269.019698370776
 21
1565.592414525015
 31
0.0
  0
LINE
  5
1648F
330
1A
100
AcDbEntity
  8
ZISSEN1
100
AcDbLine
 10
-1285.719708928208
 20
1641.29242178325
 30
0.0
 11
-1285.719708928208
 21
1623.692423102929
 31
0.0
  0
CIRCLE
  5
16490
330
1A
100
AcDbEntity
  8
ZISSEN1
100
AcDbCircle
 10
-1279.619698700696
 20
1622.592429371404
 30
0.0
 40
1.500000019331235
  0
CIRCLE
  5
16491
330
1A
100
AcDbEntity
  8
ZISSEN1
100
AcDbCircle
 10
-1279.619698700696
 20
1622.592429371404
 30
0.0
 40
1.300000016753737
  0
CIRCLE
  5
16492
330
1A
100
AcDbEntity
  8
ZISSEN1
100
AcDbCircle
 10
-1279.619698700696
 20
1622.592429371404
 30
0.0
 40
2.600000033507475
  0
LINE
  5
16493
330
1A
100
AcDbEntity
  8
ZISSEN1
100
AcDbLine
 10
-1284.819696061337
 20
1623.692423102929
 30
0.0
 11
-1282.819714206924
 21
1623.692423102929
 31
0.0
  0
LINE
  5
16494
330
1A
100
AcDbEntity
  8
ZISSEN1
100
AcDbLine
 10
-1285.719708928208
 20
1623.692423102929
 30
0.0
 11
-1285.619718495881
 21
1623.692423102929
 31
0.0
  0
CIRCLE
  5
16495
330
1A
100
AcDbEntity
  8
ZISSEN1
100
AcDbCircle
 10
-1278.219708928208
 20
1607.592429371404
 30
0.0
 40
2.400000030929978
  0
LINE
  5
16496
330
1A
100
AcDbEntity
  8
ZISSEN1
100
AcDbLine
 10
-1309.757658773806
 20
1685.076745959029
 30
0.0
 11
-1315.850777802258
 21
1690.189093948498
 31
0.0
  0
LINE
  5
16497
330
1A
100
AcDbEntity
  8
ZISSEN1
100
AcDbLine
 10
-1312.93138379888
 20
1694.26307309427
 30
0.0
 11
-1308.455890238913
 21
1694.262980304336
 31
0.0
  0
LINE
  5
16498
330
1A
100
AcDbEntity
  8
ZISSEN1
100
AcDbLine
 10
-1315.182900604992
 20
1695.253073638637
 30
0.0
 11
-1307.618887922876
 21
1695.252949918726
 31
0.0
  0
ARC
  5
16499
330
1A
100
AcDbEntity
  8
ZISSEN1
100
AcDbCircle
 10
-1309.115836989864
 20
1671.453266064339
 30
0.0
 40
19.99994845003694
100
AcDbArc
 50
81.97235107421558
 51
106.1602935791036
  0
ARC
  5
1649A
330
1A
100
AcDbEntity
  8
ZISSEN1
100
AcDbCircle
 10
-1309.115836989864
 20
1671.453266064339
 30
0.0
 40
20.99995020273568
100
AcDbArc
 50
87.42233276367196
 51
100.1022949218707
  0
ARC
  5
1649B
330
1A
100
AcDbEntity
  8
ZISSEN1
100
AcDbCircle
 10
-1326.208237618031
 20
1667.798861346817
 30
0.0
 40
19.99990514806798
100
AcDbArc
 50
41.97335815430173
 51
66.16435241699685
  0
LINE
  5
1649C
330
1A
100
AcDbEntity
  8
ZISSEN1
100
AcDbLine
 10
-1317.846973827385
 20
1701.216639361953
 30
0.0
 11
-1321.046964589631
 21
1701.216639361953
 31
0.0
  0
LINE
  5
1649D
330
1A
100
AcDbEntity
  8
ZISSEN1
100
AcDbLine
 10
-1316.846958156196
 20
1704.266675405688
 30
0.0
 11
-1317.846961455394
 21
1704.266675405688
 31
0.0
  0
LINE
  5
1649E
330
1A
100
AcDbEntity
  8
ZISSEN1
100
AcDbLine
 10
-1316.846958156196
 20
1710.416674663368
 30
0.0
 11
-1317.846961455394
 21
1710.416674663368
 31
0.0
  0
LINE
  5
1649F
330
1A
100
AcDbEntity
  8
ZISSEN1
100
AcDbLine
 10
-1314.681401944467
 20
1695.253036522664
 30
0.0
 11
-1314.681290596547
 21
1690.663250508623
 31
0.0
  0
LINE
  5
164A0
330
1A
100
AcDbEntity
  8
ZISSEN1
100
AcDbLine
 10
-1313.681361529295
 20
1693.513008759916
 30
0.0
 11
-1313.681336785313
 21
1692.866108273614
 31
0.0
  0
LINE
  5
164A1
330
1A
100
AcDbEntity
  8
ZISSEN1
100
AcDbLine
 10
-1315.182900604992
 20
1695.252968476713
 30
0.0
 11
-1315.182776885081
 21
1690.463906801512
 31
0.0
  0
LINE
  5
164A2
330
1A
100
AcDbEntity
  8
ZISSEN1
100
AcDbLine
 10
-1317.593694424935
 20
1696.666678787365
 30
0.0
 11
-1316.846958156196
 21
1696.666678787365
 31
0.0
  0
ARC
  5
164A3
330
1A
100
AcDbEntity
  8
ZISSEN1
100
AcDbCircle
 10
-1312.931359054897
 20
1693.513021131907
 30
0.0
 40
0.750000009665618
100
AcDbArc
 50
90.00021362304847
 51
180.001358032221
  0
ARC
  5
164A4
330
1A
100
AcDbEntity
  8
ZISSEN1
100
AcDbCircle
 10
-1328.792066105942
 20
1723.782650120637
 30
0.0
 40
35.99989607527449
100
AcDbArc
 50
292.2123565673795
 51
293.0745697021418
  0
ARC
  5
164A5
330
1A
100
AcDbEntity
  8
ZISSEN1
100
AcDbCircle
 10
-1312.931346682906
 20
1692.866126831601
 30
0.0
 40
0.750000009665618
100
AcDbArc
 50
180.0013885498087
 51
280.1029968261662
  0
LINE
  5
164A6
330
1A
100
AcDbEntity
  8
ZISSEN1
100
AcDbLine
 10
-1315.169353274703
 20
1689.617217216419
 30
0.0
 11
-1318.126259155193
 21
1686.093148332472
 31
0.0
  0
LINE
  5
164A7
330
1A
100
AcDbEntity
  8
ZISSEN1
100
AcDbLine
 10
-1317.846961455394
 20
1701.216639361953
 30
0.0
 11
-1317.846961455394
 21
1691.316640104273
 31
0.0
  0
LINE
  5
164A8
330
1A
100
AcDbEntity
  8
ZISSEN1
100
AcDbLine
 10
-1316.846958156196
 20
1696.228790719243
 30
0.0
 11
-1316.846958156196
 21
1704.266675405688
 31
0.0
  0
LINE
  5
164A9
330
1A
100
AcDbEntity
  8
ZISSEN1
100
AcDbLine
 10
-1317.846961455394
 20
1696.815198354907
 30
0.0
 11
-1315.182888233001
 21
1695.252968476713
 31
0.0
  0
LINE
  5
164AA
330
1A
100
AcDbEntity
  8
ZISSEN1
100
AcDbLine
 10
-1321.046964589631
 20
1687.516613958132
 30
0.0
 11
-1321.846962280193
 21
1686.71661626757
 31
0.0
  0
LINE
  5
164AB
330
1A
100
AcDbEntity
  8
ZISSEN1
100
AcDbLine
 10
-1321.046964589631
 20
1691.316640104273
 30
0.0
 11
-1317.846961455394
 21
1691.316640104273
 31
0.0
  0
ARC
  5
164AC
330
1A
100
AcDbEntity
  8
ZISSEN1
100
AcDbCircle
 10
-1328.252573060651
 20
1724.007511059457
 30
0.0
 40
35.99990535426784
100
AcDbArc
 50
281.5461120605535
 51
291.2876586914006
  0
ARC
  5
164AD
330
1A
100
AcDbEntity
  8
ZISSEN1
100
AcDbCircle
 10
-1307.646489835091
 20
1720.533598227557
 30
0.0
 40
35.99990226127006
100
AcDbArc
 50
247.662719726561
 51
253.0762786865269
  0
LINE
  5
164AE
330
1A
100
AcDbEntity
  8
ZISSEN1
100
AcDbLine
 10
-1280.519711567566
 20
1641.792423432848
 30
0.0
 11
-1280.519711567566
 21
1638.592432670602
 31
0.0
  0
LINE
  5
164AF
330
1A
100
AcDbEntity
  8
ZISSEN1
100
AcDbLine
 10
-1280.519711567566
 20
1641.29242178325
 30
0.0
 11
-1285.719708928208
 21
1641.29242178325
 31
0.0
  0
ARC
  5
164B0
330
1A
100
AcDbEntity
  8
ZISSEN1
100
AcDbCircle
 10
-1308.762938314821
 20
1696.962820953091
 30
0.0
 40
0.2999950019088951
100
AcDbArc
 50
16.14721679687516
 51
90.0013275146464
  0
LINE
  5
164B1
330
1A
100
AcDbEntity
  8
ZISSEN1
100
AcDbLine
 10
-1308.762950686812
 20
1697.262922155978
 30
0.0
 11
-1309.532933926888
 21
1697.262903597991
 31
0.0
  0
LINE
  5
164B2
330
1A
100
AcDbEntity
  8
ZISSEN1
100
AcDbLine
 10
-1305.182842869034
 20
1693.247604806157
 30
0.0
 11
-1305.182818125051
 21
1692.247607692956
 31
0.0
  0
ARC
  5
164B3
330
1A
100
AcDbEntity
  8
ZISSEN1
100
AcDbCircle
 10
-1306.182821424249
 20
1692.247533461009
 30
0.0
 40
1.000002042667285
100
AcDbArc
 50
261.9041137695257
 51
359.9996032714776
  0
ARC
  5
164B4
330
1A
100
AcDbEntity
  8
ZISSEN1
100
AcDbCircle
 10
-1308.137348583244
 20
1693.18133423566
 30
0.0
 40
0.7500009762274252
100
AcDbArc
 50
267.4208221435561
 51
45.56167602538912
  0
ARC
  5
164B5
330
1A
100
AcDbEntity
  8
ZISSEN1
100
AcDbCircle
 10
-1308.455865494931
 20
1693.512977829938
 30
0.0
 40
0.7499989947757208
100
AcDbArc
 50
42.16143798827474
 51
90.00021362304847
  0
ARC
  5
164B6
330
1A
100
AcDbEntity
  8
ZISSEN1
100
AcDbCircle
 10
-1302.710980900864
 20
1698.714762943299
 30
0.0
 40
7.000005309646192
100
AcDbArc
 50
222.1592559814377
 51
225.5602569580023
  0
ARC
  5
164B7
330
1A
100
AcDbEntity
  8
ZISSEN1
100
AcDbCircle
 10
-1309.541198416964
 20
1687.113750996904
 30
0.0
 40
0.2999920055672929
100
AcDbArc
 50
336.1482086181577
 51
50.00288391113153
  0
LINE
  5
164B8
330
1A
100
AcDbEntity
  8
ZISSEN1
100
AcDbLine
 10
-1310.132913636823
 20
1696.162940796445
 30
0.0
 11
-1310.132926008814
 21
1696.662936260048
 31
0.0
  0
LINE
  5
164B9
330
1A
100
AcDbEntity
  8
ZISSEN1
100
AcDbLine
 10
-1310.132913636823
 20
1696.16289130848
 30
0.0
 11
-1309.732902419551
 21
1695.762892463199
 31
0.0
  0
LINE
  5
164BA
330
1A
100
AcDbEntity
  8
ZISSEN1
100
AcDbLine
 10
-1309.732914791542
 20
1695.762948137159
 30
0.0
 11
-1309.732902419551
 21
1695.262995975525
 31
0.0
  0
LINE
  5
164BB
330
1A
100
AcDbEntity
  8
ZISSEN1
100
AcDbLine
 10
-1309.93873523601
 20
1687.839275486848
 30
0.0
 11
-1310.784249481945
 21
1687.765260049902
 31
0.0
  0
LINE
  5
164BC
330
1A
100
AcDbEntity
  8
ZISSEN1
100
AcDbLine
 10
-1311.055666223394
 20
1686.818747054363
 30
0.0
 11
-1311.377177156935
 21
1686.435747324897
 31
0.0
  0
LINE
  5
164BD
330
1A
100
AcDbEntity
  8
ZISSEN1
100
AcDbLine
 10
-1311.10514181593
 20
1687.381715952827
 30
0.0
 11
-1311.055616735429
 21
1686.81822124474
 31
0.0
  0
LINE
  5
164BE
330
1A
100
AcDbEntity
  8
ZISSEN1
100
AcDbLine
 10
-1311.105178931903
 20
1687.382223204463
 30
0.0
 11
-1310.783680370353
 21
1687.765229119924
 31
0.0
  0
LINE
  5
164BF
330
1A
100
AcDbEntity
  8
ZISSEN1
100
AcDbLine
 10
-1309.348702606945
 20
1687.344259749675
 30
0.0
 11
-1309.938722864019
 21
1687.839238370875
 31
0.0
  0
LINE
  5
164C0
330
1A
100
AcDbEntity
  8
ZISSEN1
100
AcDbLine
 10
-1309.532909182906
 20
1697.262866482018
 30
0.0
 11
-1310.132901264832
 21
1696.66284965611
 31
0.0
  0
ARC
  5
164C1
330
1A
100
AcDbEntity
  8
ZISSEN1
100
AcDbCircle
 10
-1302.710980900864
 20
1698.714762943299
 30
0.0
 40
5.999993891329379
100
AcDbArc
 50
196.1392974853589
 51
245.6722412109419
  0
ARC
  5
164C2
330
1A
100
AcDbEntity
  8
ZISSEN1
100
AcDbCircle
 10
-1310.596578748468
 20
1681.84273222117
 30
0.0
 40
1.000000012887489
100
AcDbArc
 50
221.904205322262
 51
310.4261779785085
  0
LINE
  5
164C3
330
1A
100
AcDbEntity
  8
ZISSEN1
100
AcDbLine
 10
-1309.94703684206
 20
1681.08221355431
 30
0.0
 11
-1309.240064152818
 21
1682.080228055933
 31
0.0
  0
ARC
  5
164C4
330
1A
100
AcDbEntity
  8
ZISSEN1
100
AcDbCircle
 10
-1303.779141499207
 20
1684.565894073208
 30
0.0
 40
5.999995051203547
100
AcDbArc
 50
156.1412658691344
 51
204.4813385009731
  0
LINE
  5
164C5
330
1A
100
AcDbEntity
  8
ZISSEN1
100
AcDbLine
 10
-1279.919768973605
 20
1699.316654125863
 30
0.0
 11
-1279.319764519688
 21
1699.316654125863
 31
0.0
  0
LINE
  5
164C6
330
1A
100
AcDbEntity
  8
ZISSEN1
100
AcDbLine
 10
-1279.919768973605
 20
1700.366652641224
 30
0.0
 11
-1279.919768973605
 21
1698.816652476264
 31
0.0
  0
LINE
  5
164C7
330
1A
100
AcDbEntity
  8
ZISSEN1
100
AcDbLine
 10
-1280.519761055531
 20
1698.816652476264
 30
0.0
 11
-1279.519757756333
 21
1698.816652476264
 31
0.0
  0
LINE
  5
164C8
330
1A
100
AcDbEntity
  8
ZISSEN1
100
AcDbLine
 10
-1280.519761055531
 20
1701.216651733945
 30
0.0
 11
-1280.519761055531
 21
1698.816652476264
 31
0.0
  0
LINE
  5
164C9
330
1A
100
AcDbEntity
  8
ZISSEN1
100
AcDbLine
 10
-1279.919768973605
 20
1699.316654125863
 30
0.0
 11
-1279.319764519688
 21
1699.316654125863
 31
0.0
  0
LINE
  5
164CA
330
1A
100
AcDbEntity
  8
ZISSEN1
100
AcDbLine
 10
-1279.919768973605
 20
1700.366652641224
 30
0.0
 11
-1279.919768973605
 21
1698.816652476264
 31
0.0
  0
LINE
  5
164CB
330
1A
100
AcDbEntity
  8
ZISSEN1
100
AcDbLine
 10
-1280.519761055531
 20
1698.816652476264
 30
0.0
 11
-1279.519757756333
 21
1698.816652476264
 31
0.0
  0
LINE
  5
164CC
330
1A
100
AcDbEntity
  8
ZISSEN1
100
AcDbLine
 10
-1280.519761055531
 20
1701.216651733945
 30
0.0
 11
-1280.519761055531
 21
1698.816652476264
 31
0.0
  0
LINE
  5
164CD
330
1A
100
AcDbEntity
  8
ZISSEN1
100
AcDbLine
 10
-1275.819728228514
 20
1701.716628639561
 30
0.0
 11
-1281.7197204754
 21
1701.716628639561
 31
0.0
  0
LINE
  5
164CE
330
1A
100
AcDbEntity
  8
ZISSEN1
100
AcDbLine
 10
-1280.519761055531
 20
1691.316652476264
 30
0.0
 11
-1280.519761055531
 21
1693.716651733945
 31
0.0
  0
LINE
  5
164CF
330
1A
100
AcDbEntity
  8
ZISSEN1
100
AcDbLine
 10
-1279.919768973605
 20
1693.216650084346
 30
0.0
 11
-1279.319764519688
 21
1693.216650084346
 31
0.0
  0
LINE
  5
164D0
330
1A
100
AcDbEntity
  8
ZISSEN1
100
AcDbLine
 10
-1279.919768973605
 20
1692.166651568985
 30
0.0
 11
-1279.919768973605
 21
1693.716651733945
 31
0.0
  0
LINE
  5
164D1
330
1A
100
AcDbEntity
  8
ZISSEN1
100
AcDbLine
 10
-1280.519761055531
 20
1693.716651733945
 30
0.0
 11
-1279.519757756333
 21
1693.716651733945
 31
0.0
  0
LINE
  5
164D2
330
1A
100
AcDbEntity
  8
ZISSEN1
100
AcDbLine
 10
-1280.519761055531
 20
1691.316652476264
 30
0.0
 11
-1280.519761055531
 21
1693.716651733945
 31
0.0
  0
LINE
  5
164D3
330
1A
100
AcDbEntity
  8
ZISSEN1
100
AcDbLine
 10
-1279.919768973605
 20
1693.216650084346
 30
0.0
 11
-1279.319764519688
 21
1693.216650084346
 31
0.0
  0
LINE
  5
164D4
330
1A
100
AcDbEntity
  8
ZISSEN1
100
AcDbLine
 10
-1279.919768973605
 20
1692.166651568985
 30
0.0
 11
-1279.919768973605
 21
1693.716651733945
 31
0.0
  0
LINE
  5
164D5
330
1A
100
AcDbEntity
  8
ZISSEN1
100
AcDbLine
 10
-1280.519761055531
 20
1693.716651733945
 30
0.0
 11
-1279.519757756333
 21
1693.716651733945
 31
0.0
  0
LINE
  5
164D6
330
1A
100
AcDbEntity
  8
ZISSEN1
100
AcDbLine
 10
-1282.819726578916
 20
1686.71661626757
 30
0.0
 11
-1282.819726578916
 21
1687.516613958132
 31
0.0
  0
LINE
  5
164D7
330
1A
100
AcDbEntity
  8
ZISSEN1
100
AcDbLine
 10
-1285.619718495881
 20
1686.71661626757
 30
0.0
 11
-1284.81972080532
 21
1686.71661626757
 31
0.0
  0
LINE
  5
164D8
330
1A
100
AcDbEntity
  8
ZISSEN1
100
AcDbLine
 10
-1284.81972080532
 20
1686.71661626757
 30
0.0
 11
-1284.81972080532
 21
1687.516613958132
 31
0.0
  0
LINE
  5
164D9
330
1A
100
AcDbEntity
  8
ZISSEN1
100
AcDbLine
 10
-1284.81972080532
 20
1687.516613958132
 30
0.0
 11
-1285.619718495881
 21
1687.516613958132
 31
0.0
  0
LINE
  5
164DA
330
1A
100
AcDbEntity
  8
ZISSEN1
100
AcDbLine
 10
-1285.619718495881
 20
1686.716641011553
 30
0.0
 11
-1284.81972080532
 21
1686.716641011553
 31
0.0
  0
LINE
  5
164DB
330
1A
100
AcDbEntity
  8
ZISSEN1
100
AcDbLine
 10
-1284.81972080532
 20
1686.716641011553
 30
0.0
 11
-1284.81972080532
 21
1687.51664488811
 31
0.0
  0
LINE
  5
164DC
330
1A
100
AcDbEntity
  8
ZISSEN1
100
AcDbLine
 10
-1284.81972080532
 20
1687.51664488811
 30
0.0
 11
-1285.619718495881
 21
1687.51664488811
 31
0.0
  0
LINE
  5
164DD
330
1A
100
AcDbEntity
  8
ZISSEN1
100
AcDbLine
 10
-1284.81972080532
 20
1687.51664488811
 30
0.0
 11
-1282.819726578916
 21
1687.51664488811
 31
0.0
  0
LINE
  5
164DE
330
1A
100
AcDbEntity
  8
ZISSEN1
100
AcDbLine
 10
-1279.319764519688
 20
1693.216650084346
 30
0.0
 11
-1279.319764519688
 21
1699.316654125863
 31
0.0
  0
LINE
  5
164DF
330
1A
100
AcDbEntity
  8
ZISSEN1
100
AcDbLine
 10
-1279.519757756333
 20
1693.716651733945
 30
0.0
 11
-1279.519757756333
 21
1698.816652476264
 31
0.0
  0
LINE
  5
164E0
330
1A
100
AcDbEntity
  8
ZISSEN1
100
AcDbLine
 10
-1279.319764519688
 20
1693.216650084346
 30
0.0
 11
-1279.319764519688
 21
1699.316654125863
 31
0.0
  0
LINE
  5
164E1
330
1A
100
AcDbEntity
  8
ZISSEN1
100
AcDbLine
 10
-1279.519757756333
 20
1693.716651733945
 30
0.0
 11
-1279.519757756333
 21
1698.816652476264
 31
0.0
  0
LINE
  5
164E2
330
1A
100
AcDbEntity
  8
ZISSEN1
100
AcDbLine
 10
-1281.7197204754
 20
1701.716628639561
 30
0.0
 11
-1281.7197204754
 21
1690.81664464067
 31
0.0
  0
LINE
  5
164E3
330
1A
100
AcDbEntity
  8
ZISSEN1
100
AcDbLine
 10
-1284.619727568675
 20
1680.21664431075
 30
0.0
 11
-1285.619718495881
 21
1681.21664451695
 31
0.0
  0
LINE
  5
164E4
330
1A
100
AcDbEntity
  8
ZISSEN1
100
AcDbLine
 10
-1285.619718495881
 20
1681.21664451695
 30
0.0
 11
-1285.619718495881
 21
1686.716641011553
 31
0.0
  0
LINE
  5
164E5
330
1A
100
AcDbEntity
  8
ZISSEN1
100
AcDbLine
 10
-1258.619703649492
 20
1631.489920001683
 30
0.0
 11
-1258.619703649492
 21
1641.792423432848
 31
0.0
  0
LINE
  5
164E6
330
1A
100
AcDbEntity
  8
ZISSEN1
100
AcDbLine
 10
-1260.219699030615
 20
1631.489920001683
 30
0.0
 11
-1260.219699030615
 21
1641.792423432848
 31
0.0
  0
LINE
  5
164E7
330
1A
100
AcDbEntity
  8
ZISSEN1
100
AcDbLine
 10
-1263.019208439927
 20
1644.446660922291
 30
0.0
 11
-1263.019208439927
 21
1632.277149797397
 31
0.0
  0
LINE
  5
164E8
330
1A
100
AcDbEntity
  8
ZISSEN1
100
AcDbLine
 10
-1266.01921833752
 20
1644.446660922291
 30
0.0
 11
-1266.01921833752
 21
1632.277149797397
 31
0.0
  0
LINE
  5
164E9
330
1A
100
AcDbEntity
  8
ZISSEN1
100
AcDbLine
 10
-1268.519226585514
 20
1633.446649375099
 30
0.0
 11
-1268.519226585514
 21
1644.446660922291
 31
0.0
  0
LINE
  5
164EA
330
1A
100
AcDbEntity
  8
ZISSEN1
100
AcDbLine
 10
-1260.51971981556
 20
1632.946672469483
 30
0.0
 11
-1260.519224935915
 21
1644.446660922291
 31
0.0
  0
LINE
  5
164EB
330
1A
100
AcDbEntity
  8
ZISSEN1
100
AcDbLine
 10
-1265.919722784838
 20
1644.95715402037
 30
0.0
 11
-1265.919722784838
 21
1632.955085423453
 31
0.0
  0
LINE
  5
164EC
330
1A
100
AcDbEntity
  8
ZISSEN1
100
AcDbLine
 10
-1263.119718495881
 20
1644.95715402037
 30
0.0
 11
-1263.119718495881
 21
1632.955085423453
 31
0.0
  0
LINE
  5
164ED
330
1A
100
AcDbEntity
  8
ZISSEN1
100
AcDbLine
 10
-1269.219209099766
 20
1638.589908784411
 30
0.0
 11
-1269.219209099766
 21
1631.489920001683
 31
0.0
  0
LINE
  5
164EE
330
1A
100
AcDbEntity
  8
ZISSEN1
100
AcDbLine
 10
-1256.719712227406
 20
1638.592432670602
 30
0.0
 11
-1256.719712227406
 21
1631.489920001683
 31
0.0
  0
LINE
  5
164EF
330
1A
100
AcDbEntity
  8
ZISSEN1
100
AcDbLine
 10
-1260.51971981556
 20
1631.489920001683
 30
0.0
 11
-1260.51971981556
 21
1641.036148358947
 31
0.0
  0
LINE
  5
164F0
330
1A
100
AcDbEntity
  8
ZISSEN1
100
AcDbLine
 10
-1216.819694411739
 20
1566.592417824213
 30
0.0
 11
-1216.819694411739
 21
1638.592432670602
 31
0.0
  0
LINE
  5
164F1
330
1A
100
AcDbEntity
  8
ZISSEN1
100
AcDbLine
 10
-1267.519718165962
 20
1581.092416174614
 30
0.0
 11
-1267.519718165962
 21
1608.19242145333
 31
0.0
  0
LINE
  5
164F2
330
1A
100
AcDbEntity
  8
ZISSEN1
100
AcDbLine
 10
-1267.019716516363
 20
1573.092414525015
 30
0.0
 11
-1267.019716516363
 21
1608.19242145333
 31
0.0
  0
LINE
  5
164F3
330
1A
100
AcDbEntity
  8
ZISSEN1
100
AcDbLine
 10
-1260.719700680214
 20
1608.19242145333
 30
0.0
 11
-1260.719700680214
 21
1573.092414525015
 31
0.0
  0
LINE
  5
164F4
330
1A
100
AcDbEntity
  8
ZISSEN1
100
AcDbLine
 10
-1256.719712227406
 20
1566.592417824213
 30
0.0
 11
-1256.719712227406
 21
1609.892432010762
 31
0.0
  0
LINE
  5
164F5
330
1A
100
AcDbEntity
  8
ZISSEN1
100
AcDbLine
 10
-1268.019695071578
 20
1566.592417824213
 30
0.0
 11
-1268.019695071578
 21
1609.892432010762
 31
0.0
  0
LINE
  5
164F6
330
1A
100
AcDbEntity
  8
ZISSEN1
100
AcDbLine
 10
-1256.719712227406
 20
1566.592417824213
 30
0.0
 11
-1255.719708928208
 21
1565.592414525015
 31
0.0
  0
LINE
  5
164F7
330
1A
100
AcDbEntity
  8
ZISSEN1
100
AcDbLine
 10
-1267.519718165962
 20
1573.592416174614
 30
0.0
 11
-1260.219699030615
 21
1573.592416174614
 31
0.0
  0
LINE
  5
164F8
330
1A
100
AcDbEntity
  8
ZISSEN1
100
AcDbLine
 10
-1267.519718165962
 20
1573.092414525015
 30
0.0
 11
-1260.219699030615
 21
1573.092414525015
 31
0.0
  0
LINE
  5
164F9
330
1A
100
AcDbEntity
  8
ZISSEN1
100
AcDbLine
 10
-1267.519718165962
 20
1581.092416174614
 30
0.0
 11
-1267.519718165962
 21
1573.092414525015
 31
0.0
  0
LINE
  5
164FA
330
1A
100
AcDbEntity
  8
ZISSEN1
100
AcDbLine
 10
-1269.019698370776
 20
1565.592426897006
 30
0.0
 11
-1268.019695071578
 21
1566.592417824213
 31
0.0
  0
LINE
  5
164FB
330
1A
100
AcDbEntity
  8
ZISSEN1
100
AcDbLine
 10
-1255.719708928208
 20
1565.592414525015
 30
0.0
 11
-1248.719710577807
 21
1565.592414525015
 31
0.0
  0
LINE
  5
164FC
330
1A
100
AcDbEntity
  8
ZISSEN1
  6
CONTINUOUS
 62
     5
100
AcDbLine
 10
-1260.219723774598
 20
1635.976647329597
 30
0.0
 11
-1260.51971981556
 21
1635.976647329597
 31
0.0
  0
LINE
  5
164FD
330
1A
100
AcDbEntity
  8
ZISSEN1
100
AcDbLine
 10
-1269.219209099766
 20
1631.489920001683
 30
0.0
 11
-1256.719712227406
 21
1631.489920001683
 31
0.0
  0
LINE
  5
164FE
330
1A
100
AcDbEntity
  8
ZISSEN1
100
AcDbLine
 10
-1269.219209099766
 20
1631.489920001683
 30
0.0
 11
-1257.219713877005
 21
1631.489920001683
 31
0.0
  0
LINE
  5
164FF
330
1A
100
AcDbEntity
  8
ZISSEN1
100
AcDbLine
 10
-1268.519746209141
 20
1633.447168998727
 30
0.0
 11
-1268.232344855151
 21
1631.489920001683
 31
0.0
  0
LINE
  5
16500
330
1A
100
AcDbEntity
  8
ZISSEN1
100
AcDbLine
 10
-1267.51937175021
 20
1631.489920001683
 30
0.0
 11
-1267.519223286316
 21
1633.446674119082
 31
0.0
  0
LINE
  5
16501
330
1A
100
AcDbEntity
  8
ZISSEN1
100
AcDbLine
 10
-1267.519718165962
 20
1631.976658876789
 30
0.0
 11
-1268.303706499999
 21
1631.976658876789
 31
0.0
  0
LINE
  5
16502
330
1A
100
AcDbEntity
  8
ZISSEN1
100
AcDbLine
 10
-1263.019208439927
 20
1632.277149797397
 30
0.0
 11
-1266.01921833752
 21
1632.277149797397
 31
0.0
  0
LINE
  5
16503
330
1A
100
AcDbEntity
  8
ZISSEN1
100
AcDbLine
 10
-1263.119718495881
 20
1632.955085423453
 30
0.0
 11
-1265.919722784838
 21
1632.955085423453
 31
0.0
  0
LINE
  5
16504
330
1A
100
AcDbEntity
  8
ZISSEN1
100
AcDbLine
 10
-1267.519718165962
 20
1633.446649375099
 30
0.0
 11
-1268.519226585514
 21
1633.446649375099
 31
0.0
  0
LINE
  5
16505
330
1A
100
AcDbEntity
  8
ZISSEN1
100
AcDbLine
 10
-1260.219699030615
 20
1631.489920001683
 30
0.0
 11
-1260.219699030615
 21
1635.976647329597
 31
0.0
  0
LINE
  5
16506
330
1A
100
AcDbEntity
  8
ZISSEN1
100
AcDbLine
 10
-1260.419704639251
 20
1631.489920001683
 30
0.0
 11
-1260.419704639251
 21
1635.976647329597
 31
0.0
  0
LINE
  5
16507
330
1A
100
AcDbEntity
  8
ZISSEN1
100
AcDbLine
 10
-1256.719712227406
 20
1609.892432010762
 30
0.0
 11
-1268.019695071578
 21
1609.892432010762
 31
0.0
  0
LINE
  5
16508
330
1A
100
AcDbEntity
  8
ZISSEN1
100
AcDbLine
 10
-1260.219699030615
 20
1608.19242145333
 30
0.0
 11
-1267.519718165962
 21
1608.19242145333
 31
0.0
  0
LINE
  5
16509
330
1A
100
AcDbEntity
  8
ZISSEN1
100
AcDbLine
 10
-1260.219699030615
 20
1607.692419803731
 30
0.0
 11
-1267.519718165962
 21
1607.692419803731
 31
0.0
  0
LINE
  5
1650A
330
1A
100
AcDbEntity
  8
ZISSEN1
100
AcDbLine
 10
-1217.819697710936
 20
1565.592414525015
 30
0.0
 11
-1230.819715856523
 21
1565.592414525015
 31
0.0
  0
LINE
  5
1650B
330
1A
100
AcDbEntity
  8
ZISSEN1
100
AcDbLine
 10
-1217.819697710936
 20
1565.592414525015
 30
0.0
 11
-1216.819694411739
 21
1566.592417824213
 31
0.0
  0
LINE
  5
1650C
330
1A
100
AcDbEntity
  8
ZISSEN1
100
AcDbLine
 10
-1214.819712557325
 20
1619.592419473812
 30
0.0
 11
-1214.819712557325
 21
1625.592414525015
 31
0.0
  0
LINE
  5
1650D
330
1A
100
AcDbEntity
  8
ZISSEN1
100
AcDbLine
 10
-1216.819694411739
 20
1619.592419473812
 30
0.0
 11
-1214.819712557325
 21
1619.592419473812
 31
0.0
  0
LINE
  5
1650E
330
1A
100
AcDbEntity
  8
ZISSEN1
100
AcDbLine
 10
-1214.819712557325
 20
1625.592414525015
 30
0.0
 11
-1216.819694411739
 21
1625.592414525015
 31
0.0
  0
LINE
  5
1650F
330
1A
100
AcDbEntity
  8
ZISSEN1
100
AcDbLine
 10
-1252.419727733635
 20
1693.716645547949
 30
0.0
 11
-1237.919729383233
 21
1693.716645547949
 31
0.0
  0
LINE
  5
16510
330
1A
100
AcDbEntity
  8
ZISSEN1
100
AcDbLine
 10
-1238.819717506122
 20
1680.21664431075
 30
0.0
 11
-1228.369715196683
 21
1680.21664431075
 31
0.0
  0
LINE
  5
16511
330
1A
100
AcDbEntity
  8
ZISSEN1
100
AcDbLine
 10
-1213.319707608529
 20
1638.592432670602
 30
0.0
 11
-1258.619703649492
 21
1638.592432670602
 31
0.0
  0
LINE
  5
16512
330
1A
100
AcDbEntity
  8
ZISSEN1
100
AcDbLine
 10
-1260.219699030615
 20
1637.916649771003
 30
0.0
 11
-1260.51971981556
 21
1637.916649771003
 31
0.0
  0
LINE
  5
16513
330
1A
100
AcDbEntity
  8
ZISSEN1
100
AcDbLine
 10
-1268.519696721177
 20
1654.447164049931
 30
0.0
 11
-1260.51971981556
 21
1654.447164049931
 31
0.0
  0
LINE
  5
16514
330
1A
100
AcDbEntity
  8
ZISSEN1
100
AcDbLine
 10
-1273.819709258128
 20
1638.592432670602
 30
0.0
 11
-1273.819709258128
 21
1641.792423432848
 31
0.0
  0
LINE
  5
16515
330
1A
100
AcDbEntity
  8
ZISSEN1
100
AcDbLine
 10
-1272.219713877005
 20
1641.792423432848
 30
0.0
 11
-1272.219713877005
 21
1638.592432670602
 31
0.0
  0
LINE
  5
16516
330
1A
100
AcDbEntity
  8
ZISSEN1
100
AcDbLine
 10
-1260.219699030615
 20
1637.916674514985
 30
0.0
 11
-1260.21920415097
 21
1644.146664881328
 31
0.0
  0
LINE
  5
16517
330
1A
100
AcDbEntity
  8
ZISSEN1
100
AcDbLine
 10
-1260.419704639251
 20
1637.916649771003
 30
0.0
 11
-1260.419209759606
 21
1644.146640137346
 31
0.0
  0
LINE
  5
16518
330
1A
100
AcDbEntity
  8
ZISSEN1
100
AcDbLine
 10
-1268.519226585514
 20
1641.036643238592
 30
0.0
 11
-1268.719207450168
 21
1641.036643238592
 31
0.0
  0
LINE
  5
16519
330
1A
100
AcDbEntity
  8
ZISSEN1
100
AcDbLine
 10
-1268.719207450168
 20
1638.44166758667
 30
0.0
 11
-1268.719207450168
 21
1641.036643238592
 31
0.0
  0
LINE
  5
1651A
330
1A
100
AcDbEntity
  8
ZISSEN1
100
AcDbLine
 10
-1268.519226585514
 20
1638.44166758667
 30
0.0
 11
-1268.719207450168
 21
1638.44166758667
 31
0.0
  0
LINE
  5
1651B
330
1A
100
AcDbEntity
  8
ZISSEN1
100
AcDbLine
 10
-1260.519224935915
 20
1644.446660922291
 30
0.0
 11
-1263.119223616236
 21
1644.446660922291
 31
0.0
  0
LINE
  5
1651C
330
1A
100
AcDbEntity
  8
ZISSEN1
100
AcDbLine
 10
-1260.519224935915
 20
1644.446660922291
 30
0.0
 11
-1263.019208439927
 21
1644.446660922291
 31
0.0
  0
LINE
  5
1651D
330
1A
100
AcDbEntity
  8
ZISSEN1
100
AcDbLine
 10
-1263.119718495881
 20
1644.95715402037
 30
0.0
 11
-1260.51971981556
 21
1644.95715402037
 31
0.0
  0
LINE
  5
1651E
330
1A
100
AcDbEntity
  8
ZISSEN1
100
AcDbLine
 10
-1273.819709258128
 20
1641.792423432848
 30
0.0
 11
-1272.219713877005
 21
1641.792423432848
 31
0.0
  0
LINE
  5
1651F
330
1A
100
AcDbEntity
  8
ZISSEN1
100
AcDbLine
 10
-1266.01921833752
 20
1644.446660922291
 30
0.0
 11
-1268.519226585514
 21
1644.446660922291
 31
0.0
  0
LINE
  5
16520
330
1A
100
AcDbEntity
  8
ZISSEN1
100
AcDbLine
 10
-1266.01921833752
 20
1641.957144122777
 30
0.0
 11
-1265.919722784838
 21
1641.957144122777
 31
0.0
  0
LINE
  5
16521
330
1A
100
AcDbEntity
  8
ZISSEN1
100
AcDbLine
 10
-1263.119718495881
 20
1641.957144122777
 30
0.0
 11
-1263.030714391679
 21
1641.957144122777
 31
0.0
  0
LINE
  5
16522
330
1A
100
AcDbEntity
  8
ZISSEN1
100
AcDbLine
 10
-1266.01921833752
 20
1642.679148781244
 30
0.0
 11
-1265.919722784838
 21
1642.679148781244
 31
0.0
  0
LINE
  5
16523
330
1A
100
AcDbEntity
  8
ZISSEN1
100
AcDbLine
 10
-1266.01921833752
 20
1643.899670450374
 30
0.0
 11
-1265.919722784838
 21
1643.899670450374
 31
0.0
  0
LINE
  5
16524
330
1A
100
AcDbEntity
  8
ZISSEN1
100
AcDbLine
 10
-1266.01921833752
 20
1643.799655274064
 30
0.0
 11
-1265.919722784838
 21
1643.799655274064
 31
0.0
  0
LINE
  5
16525
330
1A
100
AcDbEntity
  8
ZISSEN1
100
AcDbLine
 10
-1266.01921833752
 20
1642.757166557321
 30
0.0
 11
-1265.919722784838
 21
1642.757166557321
 31
0.0
  0
LINE
  5
16526
330
1A
100
AcDbEntity
  8
ZISSEN1
100
AcDbLine
 10
-1263.119718495881
 20
1642.679148781244
 30
0.0
 11
-1263.019208439927
 21
1642.679148781244
 31
0.0
  0
LINE
  5
16527
330
1A
100
AcDbEntity
  8
ZISSEN1
100
AcDbLine
 10
-1263.119718495881
 20
1643.899670450374
 30
0.0
 11
-1263.019208439927
 21
1643.899670450374
 31
0.0
  0
LINE
  5
16528
330
1A
100
AcDbEntity
  8
ZISSEN1
100
AcDbLine
 10
-1263.119718495881
 20
1643.799655274064
 30
0.0
 11
-1263.019208439927
 21
1643.799655274064
 31
0.0
  0
LINE
  5
16529
330
1A
100
AcDbEntity
  8
ZISSEN1
100
AcDbLine
 10
-1263.119718495881
 20
1642.757166557321
 30
0.0
 11
-1263.019208439927
 21
1642.757166557321
 31
0.0
  0
LINE
  5
1652A
330
1A
100
AcDbEntity
  8
ZISSEN1
100
AcDbLine
 10
-1265.919203161211
 20
1644.446660922291
 30
0.0
 11
-1266.289199927997
 21
1644.446660922291
 31
0.0
  0
LINE
  5
1652B
330
1A
100
AcDbEntity
  8
ZISSEN1
100
AcDbLine
 10
-1268.519696721177
 20
1644.95715402037
 30
0.0
 11
-1265.919722784838
 21
1644.95715402037
 31
0.0
  0
LINE
  5
1652C
330
1A
100
AcDbEntity
  8
ZISSEN1
100
AcDbLine
 10
-1258.619703649492
 20
1641.792423432848
 30
0.0
 11
-1260.219699030615
 21
1641.792423432848
 31
0.0
  0
LINE
  5
1652D
330
1A
100
AcDbEntity
  8
ZISSEN1
100
AcDbLine
 10
-1260.21920415097
 20
1644.146664881328
 30
0.0
 11
-1260.519224935915
 21
1644.146664881328
 31
0.0
  0
LINE
  5
1652E
330
1A
100
AcDbEntity
  8
ZISSEN1
100
AcDbLine
 10
-1268.519696721177
 20
1654.447164049931
 30
0.0
 11
-1268.519696721177
 21
1644.95715402037
 31
0.0
  0
LINE
  5
1652F
330
1A
100
AcDbEntity
  8
ZISSEN1
100
AcDbLine
 10
-1260.51971981556
 20
1654.447164049931
 30
0.0
 11
-1260.51971981556
 21
1644.95715402037
 31
0.0
  0
LINE
  5
16530
330
1A
100
AcDbEntity
  8
ZISSEN1
100
AcDbLine
 10
-1248.219708928208
 20
1642.792426732046
 30
0.0
 11
-1240.319697710936
 21
1642.792426732046
 31
0.0
  0
LINE
  5
16531
330
1A
100
AcDbEntity
  8
ZISSEN1
100
AcDbLine
 10
-1248.219708928208
 20
1642.792426732046
 30
0.0
 11
-1248.219708928208
 21
1638.592432670602
 31
0.0
  0
LINE
  5
16532
330
1A
100
AcDbEntity
  8
ZISSEN1
100
AcDbLine
 10
-1248.719710577807
 20
1640.292418484052
 30
0.0
 11
-1248.219708928208
 21
1642.292425082447
 31
0.0
  0
LINE
  5
16533
330
1A
100
AcDbEntity
  8
ZISSEN1
100
AcDbLine
 10
-1250.019709917967
 20
1638.592432670602
 30
0.0
 11
-1250.019709917967
 21
1643.992410895898
 31
0.0
  0
LINE
  5
16534
330
1A
100
AcDbEntity
  8
ZISSEN1
100
AcDbLine
 10
-1251.619705299091
 20
1643.992410895898
 30
0.0
 11
-1251.619705299091
 21
1638.592432670602
 31
0.0
  0
LINE
  5
16535
330
1A
100
AcDbEntity
  8
ZISSEN1
100
AcDbLine
 10
-1248.719710577807
 20
1639.792416834453
 30
0.0
 11
-1248.719710577807
 21
1640.292418484052
 31
0.0
  0
LINE
  5
16536
330
1A
100
AcDbEntity
  8
ZISSEN1
100
AcDbLine
 10
-1248.219708928208
 20
1639.792416834453
 30
0.0
 11
-1248.719710577807
 21
1639.792416834453
 31
0.0
  0
LINE
  5
16537
330
1A
100
AcDbEntity
  8
ZISSEN1
100
AcDbLine
 10
-1250.019709917967
 20
1643.992410895898
 30
0.0
 11
-1251.619705299091
 21
1643.992410895898
 31
0.0
  0
LINE
  5
16538
330
1A
100
AcDbEntity
  8
ZISSEN1
100
AcDbLine
 10
-1240.319697710936
 20
1642.792426732046
 30
0.0
 11
-1240.319697710936
 21
1640.792420133651
 31
0.0
  0
LINE
  5
16539
330
1A
100
AcDbEntity
  8
ZISSEN1
100
AcDbLine
 10
-1240.019701669974
 20
1640.792420133651
 30
0.0
 11
-1240.019701669974
 21
1638.592432670602
 31
0.0
  0
LINE
  5
1653A
330
1A
100
AcDbEntity
  8
ZISSEN1
100
AcDbLine
 10
-1240.019701669974
 20
1640.292418484052
 30
0.0
 11
-1240.019701669974
 21
1638.592432670602
 31
0.0
  0
LINE
  5
1653B
330
1A
100
AcDbEntity
  8
ZISSEN1
100
AcDbLine
 10
-1240.319697710936
 20
1640.792420133651
 30
0.0
 11
-1240.019701669974
 21
1640.792420133651
 31
0.0
  0
LINE
  5
1653C
330
1A
100
AcDbEntity
  8
ZISSEN1
100
AcDbLine
 10
-1238.41970628885
 20
1640.292418484052
 30
0.0
 11
-1238.41970628885
 21
1638.592432670602
 31
0.0
  0
LINE
  5
1653D
330
1A
100
AcDbEntity
  8
ZISSEN1
100
AcDbLine
 10
-1240.019701669974
 20
1640.292418484052
 30
0.0
 11
-1238.41970628885
 21
1640.292418484052
 31
0.0
  0
LINE
  5
1653E
330
1A
100
AcDbEntity
  8
CL1
100
AcDbLine
 10
-1271.619709423088
 20
1686.71661626757
 30
0.0
 11
-1271.619709423088
 21
1681.189242782101
 31
0.0
  0
LINE
  5
1653F
330
1A
100
AcDbEntity
  8
ZISSEN1
100
AcDbLine
 10
-1263.374692861116
 20
1697.623639929416
 30
0.0
 11
-1263.374692861116
 21
1697.223634898139
 31
0.0
  0
LINE
  5
16540
330
1A
100
AcDbEntity
  8
ZISSEN1
100
AcDbLine
 10
-1263.34970143903
 20
1697.223610154157
 30
0.0
 11
-1263.34970143903
 21
1698.003620893045
 31
0.0
  0
LINE
  5
16541
330
1A
100
AcDbEntity
  8
ZISSEN1
100
AcDbLine
 10
-1260.219723774598
 20
1697.651662489329
 30
0.0
 11
-1261.519723114758
 21
1697.651662489329
 31
0.0
  0
LINE
  5
16542
330
1A
100
AcDbEntity
  8
ZISSEN1
100
AcDbLine
 10
-1266.374690386717
 20
1697.223634898139
 30
0.0
 11
-1266.374690386717
 21
1697.623639929416
 31
0.0
  0
LINE
  5
16543
330
1A
100
AcDbEntity
  8
ZISSEN1
100
AcDbLine
 10
-1266.399694180795
 20
1697.223610154157
 30
0.0
 11
-1266.399694180795
 21
1698.003620893045
 31
0.0
  0
LINE
  5
16544
330
1A
100
AcDbEntity
  8
ZISSEN1
100
AcDbLine
 10
-1262.474692366236
 20
1696.754068346725
 30
0.0
 11
-1267.274678509606
 21
1696.754068346725
 31
0.0
  0
LINE
  5
16545
330
1A
100
AcDbEntity
  8
ZISSEN1
100
AcDbLine
 10
-1263.374692861116
 20
1697.623639929416
 30
0.0
 11
-1266.374690386717
 21
1697.623639929416
 31
0.0
  0
LINE
  5
16546
330
1A
100
AcDbEntity
  8
ZISSEN1
100
AcDbLine
 10
-1263.34970143903
 20
1698.003620893045
 30
0.0
 11
-1266.399694180795
 21
1698.003620893045
 31
0.0
  0
LINE
  5
16547
330
1A
100
AcDbEntity
  8
ZISSEN1
100
AcDbLine
 10
-1262.474692366236
 20
1697.223634898139
 30
0.0
 11
-1267.274678509606
 21
1697.223634898139
 31
0.0
  0
LINE
  5
16548
330
1A
100
AcDbEntity
  8
ZISSEN1
100
AcDbLine
 10
-1262.474692366236
 20
1695.648556707155
 30
0.0
 11
-1261.519723114758
 21
1695.648556707155
 31
0.0
  0
LINE
  5
16549
330
1A
100
AcDbEntity
  8
ZISSEN1
100
AcDbLine
 10
-1262.749696985113
 20
1688.018762148192
 30
0.0
 11
-1262.749696985113
 21
1692.623629619423
 31
0.0
  0
LINE
  5
1654A
330
1A
100
AcDbEntity
  8
ZISSEN1
100
AcDbLine
 10
-1262.529710610799
 20
1692.353635656955
 30
0.0
 11
-1262.529710610799
 21
1692.623629619423
 31
0.0
  0
LINE
  5
1654B
330
1A
100
AcDbEntity
  8
ZISSEN1
100
AcDbLine
 10
-1262.749696985113
 20
1692.353635656955
 30
0.0
 11
-1262.529710610799
 21
1692.353635656955
 31
0.0
  0
LINE
  5
1654C
330
1A
100
AcDbEntity
  8
ZISSEN1
100
AcDbLine
 10
-1262.149704903187
 20
1688.573664508438
 30
0.0
 11
-1262.149704903187
 21
1691.153639121112
 31
0.0
  0
LINE
  5
1654D
330
1A
100
AcDbEntity
  8
ZISSEN1
100
AcDbLine
 10
-1262.149704903187
 20
1688.573664508438
 30
0.0
 11
-1262.749696985113
 21
1688.573664508438
 31
0.0
  0
LINE
  5
1654E
330
1A
100
AcDbEntity
  8
ZISSEN1
100
AcDbLine
 10
-1262.149704903187
 20
1691.153639121112
 30
0.0
 11
-1262.749696985113
 21
1691.153639121112
 31
0.0
  0
LINE
  5
1654F
330
1A
100
AcDbEntity
  8
ZISSEN1
100
AcDbLine
 10
-1260.219723774598
 20
1689.216661631538
 30
0.0
 11
-1258.619728393474
 21
1689.216661631538
 31
0.0
  0
LINE
  5
16550
330
1A
100
AcDbEntity
  8
ZISSEN1
100
AcDbLine
 10
-1260.219723774598
 20
1688.21665833234
 30
0.0
 11
-1258.619728393474
 21
1688.21665833234
 31
0.0
  0
LINE
  5
16551
330
1A
100
AcDbEntity
  8
ZISSEN1
100
AcDbLine
 10
-1260.219723774598
 20
1688.018762148192
 30
0.0
 11
-1260.219723774598
 21
1688.21665833234
 31
0.0
  0
LINE
  5
16552
330
1A
100
AcDbEntity
  8
ZISSEN1
100
AcDbLine
 10
-1266.99968626272
 20
1688.018762148192
 30
0.0
 11
-1266.99968626272
 21
1692.623629619423
 31
0.0
  0
LINE
  5
16553
330
1A
100
AcDbEntity
  8
ZISSEN1
100
AcDbLine
 10
-1267.219697381017
 20
1692.353635656955
 30
0.0
 11
-1267.219697381017
 21
1692.623629619423
 31
0.0
  0
LINE
  5
16554
330
1A
100
AcDbEntity
  8
ZISSEN1
100
AcDbLine
 10
-1267.219697381017
 20
1692.353635656955
 30
0.0
 11
-1266.99968626272
 21
1692.353635656955
 31
0.0
  0
LINE
  5
16555
330
1A
100
AcDbEntity
  8
ZISSEN1
100
AcDbLine
 10
-1267.599690716637
 20
1688.573664508438
 30
0.0
 11
-1267.599690716637
 21
1691.153639121112
 31
0.0
  0
LINE
  5
16556
330
1A
100
AcDbEntity
  8
ZISSEN1
100
AcDbLine
 10
-1266.99968626272
 20
1688.573664508438
 30
0.0
 11
-1267.599690716637
 21
1688.573664508438
 31
0.0
  0
LINE
  5
16557
330
1A
100
AcDbEntity
  8
ZISSEN1
100
AcDbLine
 10
-1266.99968626272
 20
1691.153639121112
 30
0.0
 11
-1267.599690716637
 21
1691.153639121112
 31
0.0
  0
LINE
  5
16558
330
1A
100
AcDbEntity
  8
ZISSEN1
100
AcDbLine
 10
-1267.274678509606
 20
1695.648556707155
 30
0.0
 11
-1268.719727073795
 21
1695.648556707155
 31
0.0
  0
LINE
  5
16559
330
1A
100
AcDbEntity
  8
ZISSEN1
100
AcDbLine
 10
-1273.819758746093
 20
1691.316652476264
 30
0.0
 11
-1272.219763364969
 21
1691.316652476264
 31
0.0
  0
LINE
  5
1655A
330
1A
100
AcDbEntity
  8
ZISSEN1
100
AcDbLine
 10
-1273.819758746093
 20
1692.316655775462
 30
0.0
 11
-1272.219763364969
 21
1692.316655775462
 31
0.0
  0
LINE
  5
1655B
330
1A
100
AcDbEntity
  8
ZISSEN1
100
AcDbLine
 10
-1268.719727073795
 20
1688.018762148192
 30
0.0
 11
-1260.219723774598
 21
1688.018762148192
 31
0.0
  0
LINE
  5
1655C
330
1A
100
AcDbEntity
  8
ZISSEN1
100
AcDbLine
 10
-1262.474692366236
 20
1693.623663848599
 30
0.0
 11
-1267.274678509606
 21
1693.623663848599
 31
0.0
  0
LINE
  5
1655D
330
1A
100
AcDbEntity
  8
ZISSEN1
100
AcDbLine
 10
-1262.474692366236
 20
1694.249748459821
 30
0.0
 11
-1267.274678509606
 21
1694.249748459821
 31
0.0
  0
LINE
  5
1655E
330
1A
100
AcDbEntity
  8
ZISSEN1
100
AcDbLine
 10
-1262.474692366236
 20
1694.875833071044
 30
0.0
 11
-1267.274678509606
 21
1694.875833071044
 31
0.0
  0
LINE
  5
1655F
330
1A
100
AcDbEntity
  8
ZISSEN1
100
AcDbLine
 10
-1262.474692366236
 20
1695.501917682266
 30
0.0
 11
-1267.274678509606
 21
1695.501917682266
 31
0.0
  0
LINE
  5
16560
330
1A
100
AcDbEntity
  8
ZISSEN1
100
AcDbLine
 10
-1262.474692366236
 20
1696.127983735502
 30
0.0
 11
-1267.274678509606
 21
1696.127983735502
 31
0.0
  0
LINE
  5
16561
330
1A
100
AcDbEntity
  8
ZISSEN1
100
AcDbLine
 10
-1262.474692366236
 20
1692.623666735396
 30
0.0
 11
-1267.274678509606
 21
1692.623666735396
 31
0.0
  0
LINE
  5
16562
330
1A
100
AcDbEntity
  8
ZISSEN1
100
AcDbLine
 10
-1260.219723774598
 20
1682.986631056223
 30
0.0
 11
-1260.219723774598
 21
1686.71661626757
 31
0.0
  0
LINE
  5
16563
330
1A
100
AcDbEntity
  8
ZISSEN1
100
AcDbLine
 10
-1267.519718165962
 20
1686.71661626757
 30
0.0
 11
-1267.519718165962
 21
1682.986631056223
 31
0.0
  0
ARC
  5
16564
330
1A
100
AcDbEntity
  8
ZISSEN1
100
AcDbCircle
 10
-1271.619709423088
 20
1684.216645135549
 30
0.0
 40
1.749999974225018
100
AcDbArc
 50
0.0
 51
180.0
  0
LINE
  5
16565
330
1A
100
AcDbEntity
  8
ZISSEN1
100
AcDbLine
 10
-1260.219723774598
 20
1682.986631056223
 30
0.0
 11
-1267.519718165962
 21
1682.986631056223
 31
0.0
  0
LINE
  5
16566
330
1A
100
AcDbEntity
  8
ZISSEN1
100
AcDbLine
 10
-1256.719724599397
 20
1687.516613958132
 30
0.0
 11
-1269.219716351403
 21
1687.516613958132
 31
0.0
  0
LINE
  5
16567
330
1A
100
AcDbEntity
  8
ZISSEN1
100
AcDbLine
 10
-1267.274678509606
 20
1692.623666735396
 30
0.0
 11
-1267.274678509606
 21
1697.223634898139
 31
0.0
  0
LINE
  5
16568
330
1A
100
AcDbEntity
  8
ZISSEN1
100
AcDbLine
 10
-1262.474692366236
 20
1697.223634898139
 30
0.0
 11
-1262.474692366236
 21
1692.623666735396
 31
0.0
  0
LINE
  5
16569
330
1A
100
AcDbEntity
  8
ZISSEN1
100
AcDbLine
 10
-1273.819758746093
 20
1701.216651733945
 30
0.0
 11
-1273.819758746093
 21
1691.316652476264
 31
0.0
  0
LINE
  5
1656A
330
1A
100
AcDbEntity
  8
ZISSEN1
100
AcDbLine
 10
-1273.819758746093
 20
1701.216651733945
 30
0.0
 11
-1273.819758746093
 21
1691.316652476264
 31
0.0
  0
LINE
  5
1656B
330
1A
100
AcDbEntity
  8
ZISSEN1
100
AcDbLine
 10
-1265.219703154612
 20
1680.21664431075
 30
0.0
 11
-1264.219712227406
 21
1681.21664451695
 31
0.0
  0
LINE
  5
1656C
330
1A
100
AcDbEntity
  8
ZISSEN1
100
AcDbLine
 10
-1265.219703154612
 20
1680.21664431075
 30
0.0
 11
-1269.869703649492
 21
1680.21664431075
 31
0.0
  0
LINE
  5
1656D
330
1A
100
AcDbEntity
  8
ZISSEN1
100
AcDbLine
 10
-1264.219712227406
 20
1681.21664451695
 30
0.0
 11
-1264.219712227406
 21
1686.71661626757
 31
0.0
  0
LINE
  5
1656E
330
1A
100
AcDbEntity
  8
ZISSEN1
100
AcDbLine
 10
-1273.369702824693
 20
1680.21664431075
 30
0.0
 11
-1273.369702824693
 21
1684.216645135549
 31
0.0
  0
LINE
  5
1656F
330
1A
100
AcDbEntity
  8
ZISSEN1
100
AcDbLine
 10
-1269.869703649492
 20
1680.21664431075
 30
0.0
 11
-1269.869703649492
 21
1684.216645135549
 31
0.0
  0
LINE
  5
16570
330
1A
100
AcDbEntity
  8
ZISSEN1
100
AcDbLine
 10
-1274.81976204529
 20
1692.166651568985
 30
0.0
 11
-1274.81976204529
 21
1700.366652641224
 31
0.0
  0
LINE
  5
16571
330
1A
100
AcDbEntity
  8
ZISSEN1
100
AcDbLine
 10
-1274.81976204529
 20
1692.166651568985
 30
0.0
 11
-1274.81976204529
 21
1700.366652641224
 31
0.0
  0
LINE
  5
16572
330
1A
100
AcDbEntity
  8
ZISSEN1
100
AcDbLine
 10
-1248.219721300199
 20
1710.41664373339
 30
0.0
 11
-1240.319722454918
 21
1710.41664373339
 31
0.0
  0
LINE
  5
16573
330
1A
100
AcDbEntity
  8
ZISSEN1
100
AcDbLine
 10
-1240.319722454918
 20
1710.41664373339
 30
0.0
 11
-1240.019726413955
 21
1710.41664373339
 31
0.0
  0
LINE
  5
16574
330
1A
100
AcDbEntity
  8
ZISSEN1
100
AcDbLine
 10
-1248.219721300199
 20
1704.26664447571
 30
0.0
 11
-1240.319722454918
 21
1704.26664447571
 31
0.0
  0
LINE
  5
16575
330
1A
100
AcDbEntity
  8
ZISSEN1
100
AcDbLine
 10
-1240.319722454918
 20
1704.26664447571
 30
0.0
 11
-1240.019726413955
 21
1704.26664447571
 31
0.0
  0
LINE
  5
16576
330
1A
100
AcDbEntity
  8
ZISSEN1
100
AcDbLine
 10
-1240.019726413955
 20
1702.71664431075
 30
0.0
 11
-1240.019726413955
 21
1704.26664447571
 31
0.0
  0
LINE
  5
16577
330
1A
100
AcDbEntity
  8
ZISSEN1
100
AcDbLine
 10
-1247.619729218274
 20
1703.566643403471
 30
0.0
 11
-1241.11972014548
 21
1703.566643403471
 31
0.0
  0
LINE
  5
16578
330
1A
100
AcDbEntity
  8
ZISSEN1
100
AcDbLine
 10
-1248.219721300199
 20
1695.166642908591
 30
0.0
 11
-1240.319722454918
 21
1695.166642908591
 31
0.0
  0
LINE
  5
16579
330
1A
100
AcDbEntity
  8
ZISSEN1
100
AcDbLine
 10
-1240.319722454918
 20
1695.166642908591
 30
0.0
 11
-1240.019726413955
 21
1695.166642908591
 31
0.0
  0
LINE
  5
1657A
330
1A
100
AcDbEntity
  8
ZISSEN1
100
AcDbLine
 10
-1247.619729218274
 20
1695.86664398083
 30
0.0
 11
-1241.11972014548
 21
1695.86664398083
 31
0.0
  0
LINE
  5
1657B
330
1A
100
AcDbEntity
  8
ZISSEN1
100
AcDbLine
 10
-1238.419718660841
 20
1694.216641011553
 30
0.0
 11
-1240.019726413955
 21
1694.216641011553
 31
0.0
  0
LINE
  5
1657C
330
1A
100
AcDbEntity
  8
ZISSEN1
100
AcDbLine
 10
-1240.019726413955
 20
1695.166642908591
 30
0.0
 11
-1240.019726413955
 21
1696.716643073551
 31
0.0
  0
LINE
  5
1657D
330
1A
100
AcDbEntity
  8
ZISSEN1
100
AcDbLine
 10
-1248.219721300199
 20
1695.166642908591
 30
0.0
 11
-1248.219721300199
 21
1704.26664447571
 31
0.0
  0
LINE
  5
1657E
330
1A
100
AcDbEntity
  8
ZISSEN1
100
AcDbLine
 10
-1240.319722454918
 20
1695.166642908591
 30
0.0
 11
-1240.319722454918
 21
1704.26664447571
 31
0.0
  0
LINE
  5
1657F
330
1A
100
AcDbEntity
  8
ZISSEN1
100
AcDbLine
 10
-1247.619729218274
 20
1695.86664398083
 30
0.0
 11
-1247.619729218274
 21
1703.566643403471
 31
0.0
  0
LINE
  5
16580
330
1A
100
AcDbEntity
  8
ZISSEN1
100
AcDbLine
 10
-1241.11972014548
 20
1695.86664398083
 30
0.0
 11
-1241.11972014548
 21
1703.566643403471
 31
0.0
  0
LINE
  5
16581
330
1A
100
AcDbEntity
  8
ZISSEN1
100
AcDbLine
 10
-1238.819717506122
 20
1680.21664431075
 30
0.0
 11
-1239.81972080532
 21
1681.21664451695
 31
0.0
  0
LINE
  5
16582
330
1A
100
AcDbEntity
  8
ZISSEN1
100
AcDbLine
 10
-1239.81972080532
 20
1681.21664451695
 30
0.0
 11
-1239.81972080532
 21
1686.716641011553
 31
0.0
  0
LINE
  5
16583
330
1A
100
AcDbEntity
  8
ZISSEN1
100
AcDbLine
 10
-1220.419696391257
 20
1640.292418484052
 30
0.0
 11
-1218.819701010134
 21
1640.292418484052
 31
0.0
  0
LINE
  5
16584
330
1A
100
AcDbEntity
  8
ZISSEN1
100
AcDbLine
 10
-1228.619703649492
 20
1642.792426732046
 30
0.0
 11
-1228.619703649492
 21
1638.592432670602
 31
0.0
  0
LINE
  5
16585
330
1A
100
AcDbEntity
  8
ZISSEN1
100
AcDbLine
 10
-1229.11970529909
 20
1640.292418484052
 30
0.0
 11
-1228.619703649492
 21
1642.292425082447
 31
0.0
  0
LINE
  5
16586
330
1A
100
AcDbEntity
  8
ZISSEN1
100
AcDbLine
 10
-1220.719717176202
 20
1642.792426732046
 30
0.0
 11
-1220.719717176202
 21
1640.792420133651
 31
0.0
  0
LINE
  5
16587
330
1A
100
AcDbEntity
  8
ZISSEN1
100
AcDbLine
 10
-1229.11970529909
 20
1639.792416834453
 30
0.0
 11
-1229.11970529909
 21
1640.292418484052
 31
0.0
  0
LINE
  5
16588
330
1A
100
AcDbEntity
  8
ZISSEN1
100
AcDbLine
 10
-1228.619703649492
 20
1639.792416834453
 30
0.0
 11
-1229.11970529909
 21
1639.792416834453
 31
0.0
  0
LINE
  5
16589
330
1A
100
AcDbEntity
  8
ZISSEN1
100
AcDbLine
 10
-1220.419696391257
 20
1640.792420133651
 30
0.0
 11
-1220.419696391257
 21
1638.592432670602
 31
0.0
  0
LINE
  5
1658A
330
1A
100
AcDbEntity
  8
ZISSEN1
100
AcDbLine
 10
-1220.419696391257
 20
1640.292418484052
 30
0.0
 11
-1220.419696391257
 21
1638.592432670602
 31
0.0
  0
LINE
  5
1658B
330
1A
100
AcDbEntity
  8
ZISSEN1
100
AcDbLine
 10
-1220.719717176202
 20
1640.792420133651
 30
0.0
 11
-1220.419696391257
 21
1640.792420133651
 31
0.0
  0
LINE
  5
1658C
330
1A
100
AcDbEntity
  8
ZISSEN1
100
AcDbLine
 10
-1228.619703649492
 20
1642.792426732046
 30
0.0
 11
-1220.719717176202
 21
1642.792426732046
 31
0.0
  0
LINE
  5
1658D
330
1A
100
AcDbEntity
  8
ZISSEN1
100
AcDbLine
 10
-1230.419704639251
 20
1638.592432670602
 30
0.0
 11
-1230.419704639251
 21
1643.992410895898
 31
0.0
  0
LINE
  5
1658E
330
1A
100
AcDbEntity
  8
ZISSEN1
100
AcDbLine
 10
-1232.019700020374
 20
1643.992410895898
 30
0.0
 11
-1232.019700020374
 21
1638.592432670602
 31
0.0
  0
LINE
  5
1658F
330
1A
100
AcDbEntity
  8
ZISSEN1
100
AcDbLine
 10
-1230.419704639251
 20
1643.992410895898
 30
0.0
 11
-1232.019700020374
 21
1643.992410895898
 31
0.0
  0
LINE
  5
16590
330
1A
100
AcDbEntity
  8
ZISSEN1
100
AcDbLine
 10
-1218.819701010134
 20
1640.292418484052
 30
0.0
 11
-1218.819701010134
 21
1638.592432670602
 31
0.0
  0
LINE
  5
16591
330
1A
100
AcDbEntity
  8
ZISSEN1
100
AcDbLine
 10
-1213.319707608529
 20
1637.792410236058
 30
0.0
 11
-1216.819694411739
 21
1637.792410236058
 31
0.0
  0
LINE
  5
16592
330
1A
100
AcDbEntity
  8
ZISSEN1
100
AcDbLine
 10
-1214.319710907727
 20
1638.592432670602
 30
0.0
 11
-1214.319710907727
 21
1637.792410236058
 31
0.0
  0
LINE
  5
16593
330
1A
100
AcDbEntity
  8
ZISSEN1
100
AcDbLine
 10
-1213.319707608529
 20
1638.592432670602
 30
0.0
 11
-1213.319707608529
 21
1637.792410236058
 31
0.0
  0
LINE
  5
16594
330
1A
100
AcDbEntity
  8
ZISSEN1
100
AcDbLine
 10
-1214.819712557325
 20
1636.792431680843
 30
0.0
 11
-1212.81970595893
 21
1636.792431680843
 31
0.0
  0
LINE
  5
16595
330
1A
100
AcDbEntity
  8
ZISSEN1
100
AcDbLine
 10
-1214.819712557325
 20
1637.792410236058
 30
0.0
 11
-1212.81970595893
 21
1637.792410236058
 31
0.0
  0
LINE
  5
16596
330
1A
100
AcDbEntity
  8
ZISSEN1
100
AcDbLine
 10
-1218.819725754116
 20
1694.216641011553
 30
0.0
 11
-1220.419721135239
 21
1694.216641011553
 31
0.0
  0
LINE
  5
16597
330
1A
100
AcDbEntity
  8
ZISSEN1
100
AcDbLine
 10
-1220.419721135239
 20
1680.21664431075
 30
0.0
 11
-1219.419717836042
 21
1681.21664451695
 31
0.0
  0
LINE
  5
16598
330
1A
100
AcDbEntity
  8
ZISSEN1
100
AcDbLine
 10
-1232.819722454918
 20
1693.716645547949
 30
0.0
 11
-1218.319724104517
 21
1693.716645547949
 31
0.0
  0
LINE
  5
16599
330
1A
100
AcDbEntity
  8
CL1
100
AcDbLine
 10
-1226.619721795079
 20
1686.71661626757
 30
0.0
 11
-1226.619721795079
 21
1681.189242782101
 31
0.0
  0
LINE
  5
1659A
330
1A
100
AcDbEntity
  8
CL1
100
AcDbLine
 10
-1230.152081867083
 20
1684.216645135549
 30
0.0
 11
-1222.940175821034
 21
1684.216644669496
 31
0.0
  0
LINE
  5
1659B
330
1A
100
AcDbEntity
  8
ZISSEN1
100
AcDbLine
 10
-1220.719717176202
 20
1710.41664373339
 30
0.0
 11
-1220.419721135239
 21
1710.41664373339
 31
0.0
  0
LINE
  5
1659C
330
1A
100
AcDbEntity
  8
ZISSEN1
100
AcDbLine
 10
-1220.719717176202
 20
1704.26664447571
 30
0.0
 11
-1220.419721135239
 21
1704.26664447571
 31
0.0
  0
LINE
  5
1659D
330
1A
100
AcDbEntity
  8
ZISSEN1
100
AcDbLine
 10
-1220.419721135239
 20
1702.71664431075
 30
0.0
 11
-1220.419721135239
 21
1704.26664447571
 31
0.0
  0
LINE
  5
1659E
330
1A
100
AcDbEntity
  8
ZISSEN1
100
AcDbLine
 10
-1228.619728393474
 20
1710.41664373339
 30
0.0
 11
-1220.719717176202
 21
1710.41664373339
 31
0.0
  0
LINE
  5
1659F
330
1A
100
AcDbEntity
  8
ZISSEN1
100
AcDbLine
 10
-1228.619728393474
 20
1704.26664447571
 30
0.0
 11
-1220.719717176202
 21
1704.26664447571
 31
0.0
  0
LINE
  5
165A0
330
1A
100
AcDbEntity
  8
ZISSEN1
100
AcDbLine
 10
-1228.019711567566
 20
1703.566643403471
 30
0.0
 11
-1221.519714866764
 21
1703.566643403471
 31
0.0
  0
LINE
  5
165A1
330
1A
100
AcDbEntity
  8
ZISSEN1
100
AcDbLine
 10
-1220.719717176202
 20
1695.166642908591
 30
0.0
 11
-1220.419721135239
 21
1695.166642908591
 31
0.0
  0
ARC
  5
165A2
330
1A
100
AcDbEntity
  8
ZISSEN1
100
AcDbCircle
 10
-1226.619721795079
 20
1684.216645135549
 30
0.0
 40
1.749999974225018
100
AcDbArc
 50
0.0
 51
180.0
  0
ARC
  5
165A3
330
1A
100
AcDbEntity
  8
ZISSEN1
100
AcDbCircle
 10
-1226.619697051097
 20
1684.216645135549
 30
0.0
 40
1.749999974225018
100
AcDbArc
 50
0.0
 51
180.0
  0
LINE
  5
165A4
330
1A
100
AcDbEntity
  8
ZISSEN1
100
AcDbLine
 10
-1228.619728393474
 20
1695.166642908591
 30
0.0
 11
-1220.719717176202
 21
1695.166642908591
 31
0.0
  0
LINE
  5
165A5
330
1A
100
AcDbEntity
  8
ZISSEN1
100
AcDbLine
 10
-1228.019711567566
 20
1695.86664398083
 30
0.0
 11
-1221.519714866764
 21
1695.86664398083
 31
0.0
  0
LINE
  5
165A6
330
1A
100
AcDbEntity
  8
ZISSEN1
100
AcDbLine
 10
-1220.419721135239
 20
1695.166642908591
 30
0.0
 11
-1220.419721135239
 21
1696.716643073551
 31
0.0
  0
LINE
  5
165A7
330
1A
100
AcDbEntity
  8
ZISSEN1
100
AcDbLine
 10
-1228.619728393474
 20
1695.166642908591
 30
0.0
 11
-1228.619728393474
 21
1704.26664447571
 31
0.0
  0
LINE
  5
165A8
330
1A
100
AcDbEntity
  8
ZISSEN1
100
AcDbLine
 10
-1220.719717176202
 20
1695.166642908591
 30
0.0
 11
-1220.719717176202
 21
1704.26664447571
 31
0.0
  0
LINE
  5
165A9
330
1A
100
AcDbEntity
  8
ZISSEN1
100
AcDbLine
 10
-1228.019711567566
 20
1695.86664398083
 30
0.0
 11
-1228.019711567566
 21
1703.566643403471
 31
0.0
  0
LINE
  5
165AA
330
1A
100
AcDbEntity
  8
ZISSEN1
100
AcDbLine
 10
-1221.519714866764
 20
1695.86664398083
 30
0.0
 11
-1221.519714866764
 21
1703.566643403471
 31
0.0
  0
LINE
  5
165AB
330
1A
100
AcDbEntity
  8
ZISSEN1
100
AcDbLine
 10
-1220.419721135239
 20
1680.21664431075
 30
0.0
 11
-1224.869728393474
 21
1680.21664431075
 31
0.0
  0
LINE
  5
165AC
330
1A
100
AcDbEntity
  8
ZISSEN1
100
AcDbLine
 10
-1228.369715196683
 20
1680.21664431075
 30
0.0
 11
-1228.369715196683
 21
1684.216645135549
 31
0.0
  0
LINE
  5
165AD
330
1A
100
AcDbEntity
  8
ZISSEN1
100
AcDbLine
 10
-1224.869728393474
 20
1680.21664431075
 30
0.0
 11
-1224.869728393474
 21
1684.216645135549
 31
0.0
  0
LINE
  5
165AE
330
1A
100
AcDbEntity
  8
ZISSEN1
100
AcDbLine
 10
-1214.319710907727
 20
1687.51664488811
 30
0.0
 11
-1216.819719155721
 21
1687.51664488811
 31
0.0
  0
LINE
  5
165AF
330
1A
100
AcDbEntity
  8
ZISSEN1
100
AcDbLine
 10
-1216.819719155721
 20
1687.51664488811
 30
0.0
 11
-1216.819719155721
 21
1686.716641011553
 31
0.0
  0
LINE
  5
165B0
330
1A
100
AcDbEntity
  8
ZISSEN1
100
AcDbLine
 10
-1214.819712557325
 20
1686.71661626757
 30
0.0
 11
-1214.819712557325
 21
1687.516613958132
 31
0.0
  0
LINE
  5
165B1
330
1A
100
AcDbEntity
  8
ZISSEN1
100
AcDbLine
 10
-1214.119730043073
 20
1687.716607194777
 30
0.0
 11
-1212.819730702912
 21
1687.716607194777
 31
0.0
  0
LINE
  5
165B2
330
1A
100
AcDbEntity
  8
ZISSEN1
100
AcDbLine
 10
-1213.319732352511
 20
1688.516642001312
 30
0.0
 11
-1214.319710907727
 21
1687.51664488811
 31
0.0
  0
LINE
  5
165B3
330
1A
100
AcDbEntity
  8
ZISSEN1
100
AcDbLine
 10
-1212.819730702912
 20
1686.71661626757
 30
0.0
 11
-1216.819719155721
 21
1686.71661626757
 31
0.0
  0
LINE
  5
165B4
330
1A
100
AcDbEntity
  8
ZISSEN1
100
AcDbLine
 10
-1219.419717836042
 20
1681.21664451695
 30
0.0
 11
-1219.419717836042
 21
1686.716641011553
 31
0.0
  0
LINE
  5
165B5
330
1A
100
AcDbEntity
  8
CL1
100
AcDbLine
 10
-1275.291628931814
 20
1800.21669998471
 30
0.0
 11
-1268.239896083704
 21
1800.21669998471
 31
0.0
  0
LINE
  5
165B6
330
1A
100
AcDbEntity
  8
ZISSEN1
100
AcDbLine
 10
-1273.819758746093
 20
1730.791655280582
 30
0.0
 11
-1274.919764849608
 21
1730.791655280582
 31
0.0
  0
LINE
  5
165B7
330
1A
100
AcDbEntity
  8
ZISSEN1
100
AcDbLine
 10
-1274.919764849608
 20
1729.541651156585
 30
0.0
 11
-1273.819758746093
 21
1729.541651156585
 31
0.0
  0
LINE
  5
165B8
330
1A
100
AcDbEntity
  8
ZISSEN1
100
AcDbLine
 10
-1273.819758746093
 20
1730.791655280582
 30
0.0
 11
-1274.919764849608
 21
1730.791655280582
 31
0.0
  0
LINE
  5
165B9
330
1A
100
AcDbEntity
  8
ZISSEN1
100
AcDbLine
 10
-1274.919764849608
 20
1729.541651156585
 30
0.0
 11
-1273.819758746093
 21
1729.541651156585
 31
0.0
  0
LINE
  5
165BA
330
1A
100
AcDbEntity
  8
ZISSEN1
100
AcDbLine
 10
-1273.819758746093
 20
1732.791655692982
 30
0.0
 11
-1274.919764849608
 21
1732.791655692982
 31
0.0
  0
LINE
  5
165BB
330
1A
100
AcDbEntity
  8
ZISSEN1
100
AcDbLine
 10
-1274.919764849608
 20
1731.541651568985
 30
0.0
 11
-1273.819758746093
 21
1731.541651568985
 31
0.0
  0
LINE
  5
165BC
330
1A
100
AcDbEntity
  8
ZISSEN1
100
AcDbLine
 10
-1273.819758746093
 20
1732.791655692982
 30
0.0
 11
-1274.919764849608
 21
1732.791655692982
 31
0.0
  0
LINE
  5
165BD
330
1A
100
AcDbEntity
  8
ZISSEN1
100
AcDbLine
 10
-1274.919764849608
 20
1731.541651568985
 30
0.0
 11
-1273.819758746093
 21
1731.541651568985
 31
0.0
  0
LINE
  5
165BE
330
1A
100
AcDbEntity
  8
ZISSEN1
100
AcDbLine
 10
-1274.619756436654
 20
1728.016648599707
 30
0.0
 11
-1276.082558808117
 21
1727.827901503001
 31
0.0
  0
LINE
  5
165BF
330
1A
100
AcDbEntity
  8
ZISSEN1
100
AcDbLine
 10
-1274.619768808645
 20
1721.416649094587
 30
0.0
 11
-1276.082558808117
 21
1721.605402377288
 31
0.0
  0
DIMENSION
  5
165C0
330
1A
100
AcDbEntity
  8
SUNPOU
100
AcDbDimension
  2
*D64
 10
-1212.819730702912
 20
1812.348141035833
 30
0.0
 11
-1249.269744559542
 21
1815.098141035833
 31
0.0
 70
    32
  3
標準スタイル
100
AcDbAlignedDimension
 13
-1285.719758416173
 23
1788.246650100842
 33
0.0
 14
-1212.819730702912
 24
1797.716642248752
 34
0.0
100
AcDbRotatedDimension
1001
ACAD
1000
DSTYLE
1002
{
1070
   340
1005
10
1070
    40
1040
1.0
1002
}
  0
LINE
  5
165C1
330
1A
100
AcDbEntity
  8
ZISSEN1
100
AcDbLine
 10
-1275.819765344488
 20
1765.146658018916
 30
0.0
 11
-1273.819758746093
 21
1765.146658018916
 31
0.0
  0
LINE
  5
165C2
330
1A
100
AcDbEntity
  8
ZISSEN1
100
AcDbLine
 10
-1273.819758746093
 20
1770.446658183876
 30
0.0
 11
-1285.719758416173
 21
1770.446658183876
 31
0.0
  0
LINE
  5
165C3
330
1A
100
AcDbEntity
  8
ZISSEN1
100
AcDbLine
 10
-1273.819758746093
 20
1761.146657194117
 30
0.0
 11
-1275.819765344488
 21
1761.146657194117
 31
0.0
  0
LINE
  5
165C4
330
1A
100
AcDbEntity
  8
ZISSEN1
100
AcDbLine
 10
-1285.719758416173
 20
1755.846657029157
 30
0.0
 11
-1273.819758746093
 21
1755.846657029157
 31
0.0
  0
LINE
  5
165C5
330
1A
100
AcDbEntity
  8
ZISSEN1
100
AcDbLine
 10
-1275.819765344488
 20
1782.946649935882
 30
0.0
 11
-1273.819758746093
 21
1782.946649935882
 31
0.0
  0
LINE
  5
165C6
330
1A
100
AcDbEntity
  8
ZISSEN1
100
AcDbLine
 10
-1273.819758746093
 20
1788.246650100842
 30
0.0
 11
-1285.719758416173
 21
1788.246650100842
 31
0.0
  0
LINE
  5
165C7
330
1A
100
AcDbEntity
  8
ZISSEN1
100
AcDbLine
 10
-1273.819758746093
 20
1778.946649111083
 30
0.0
 11
-1275.819765344488
 21
1778.946649111083
 31
0.0
  0
LINE
  5
165C8
330
1A
100
AcDbEntity
  8
ZISSEN1
100
AcDbLine
 10
-1285.719758416173
 20
1773.646648946122
 30
0.0
 11
-1273.819758746093
 21
1773.646648946122
 31
0.0
  0
LINE
  5
165C9
330
1A
100
AcDbEntity
  8
ZISSEN1
100
AcDbLine
 10
-1275.819765344488
 20
1765.146658018916
 30
0.0
 11
-1273.819758746093
 21
1765.146658018916
 31
0.0
  0
LINE
  5
165CA
330
1A
100
AcDbEntity
  8
ZISSEN1
100
AcDbLine
 10
-1273.819758746093
 20
1770.446658183876
 30
0.0
 11
-1285.719758416173
 21
1770.446658183876
 31
0.0
  0
LINE
  5
165CB
330
1A
100
AcDbEntity
  8
ZISSEN1
100
AcDbLine
 10
-1273.819758746093
 20
1761.146657194117
 30
0.0
 11
-1275.819765344488
 21
1761.146657194117
 31
0.0
  0
LINE
  5
165CC
330
1A
100
AcDbEntity
  8
ZISSEN1
100
AcDbLine
 10
-1285.719758416173
 20
1755.846657029157
 30
0.0
 11
-1273.819758746093
 21
1755.846657029157
 31
0.0
  0
LINE
  5
165CD
330
1A
100
AcDbEntity
  8
ZISSEN1
100
AcDbLine
 10
-1284.619727568675
 20
1804.21670080951
 30
0.0
 11
-1273.369702824693
 21
1804.21670080951
 31
0.0
  0
LINE
  5
165CE
330
1A
100
AcDbEntity
  8
ZISSEN1
100
AcDbLine
 10
-1282.819726578916
 20
1797.716642248752
 30
0.0
 11
-1216.819719155721
 21
1797.716642248752
 31
0.0
  0
LINE
  5
165CF
330
1A
100
AcDbEntity
  8
ZISSEN1
100
AcDbLine
 10
-1270.4697204754
 20
1788.816664848255
 30
0.0
 11
-1285.619718495881
 21
1788.816664848255
 31
0.0
  0
LINE
  5
165D0
330
1A
100
AcDbEntity
  8
ZISSEN1
100
AcDbLine
 10
-1285.619718495881
 20
1755.316665673054
 30
0.0
 11
-1270.4697204754
 21
1755.316665673054
 31
0.0
  0
LINE
  5
165D1
330
1A
100
AcDbEntity
  8
ZISSEN1
100
AcDbLine
 10
-1271.719724599397
 20
1735.016640764112
 30
0.0
 11
-1277.819722454919
 21
1735.016640764112
 31
0.0
  0
LINE
  5
165D2
330
1A
100
AcDbEntity
  8
ZISSEN1
100
AcDbLine
 10
-1213.319732352511
 20
1833.262693998439
 30
0.0
 11
-1285.619718495881
 21
1833.262693998439
 31
0.0
  0
LINE
  5
165D3
330
1A
100
AcDbEntity
  8
ZISSEN1
100
AcDbLine
 10
-1273.819746374101
 20
1830.062703236192
 30
0.0
 11
-1280.51974868354
 21
1830.062703236192
 31
0.0
  0
LINE
  5
165D4
330
1A
100
AcDbEntity
  8
ZISSEN1
100
AcDbLine
 10
-1273.819746374101
 20
1830.5626925138
 30
0.0
 11
-1285.719746044182
 21
1830.5626925138
 31
0.0
  0
LINE
  5
165D5
330
1A
100
AcDbEntity
  8
ZISSEN1
100
AcDbLine
 10
-1280.919759900811
 20
1720.616651404025
 30
0.0
 11
-1274.319760395691
 21
1720.616651404025
 31
0.0
  0
LINE
  5
165D6
330
1A
100
AcDbEntity
  8
ZISSEN1
100
AcDbLine
 10
-1280.919759900811
 20
1713.216654208343
 30
0.0
 11
-1274.319760395691
 21
1713.216654208343
 31
0.0
  0
LINE
  5
165D7
330
1A
100
AcDbEntity
  8
ZISSEN1
100
AcDbLine
 10
-1275.819765344488
 20
1787.246646801644
 30
0.0
 11
-1275.819765344488
 21
1782.946649935882
 31
0.0
  0
LINE
  5
165D8
330
1A
100
AcDbEntity
  8
ZISSEN1
100
AcDbLine
 10
-1285.719758416173
 20
1788.246650100842
 30
0.0
 11
-1285.719758416173
 21
1773.646648946122
 31
0.0
  0
LINE
  5
165D9
330
1A
100
AcDbEntity
  8
ZISSEN1
100
AcDbLine
 10
-1284.719767488966
 20
1774.64665224532
 30
0.0
 11
-1284.719767488966
 21
1787.246646801644
 31
0.0
  0
LINE
  5
165DA
330
1A
100
AcDbEntity
  8
ZISSEN1
100
AcDbLine
 10
-1275.819765344488
 20
1787.246646801644
 30
0.0
 11
-1275.819765344488
 21
1782.946649935882
 31
0.0
  0
LINE
  5
165DB
330
1A
100
AcDbEntity
  8
ZISSEN1
100
AcDbLine
 10
-1285.719758416173
 20
1788.246650100842
 30
0.0
 11
-1285.719758416173
 21
1773.646648946122
 31
0.0
  0
LINE
  5
165DC
330
1A
100
AcDbEntity
  8
ZISSEN1
100
AcDbLine
 10
-1284.719767488966
 20
1774.64665224532
 30
0.0
 11
-1284.719767488966
 21
1787.246646801644
 31
0.0
  0
LINE
  5
165DD
330
1A
100
AcDbEntity
  8
ZISSEN1
100
AcDbLine
 10
-1318.346963104992
 20
1788.246637728851
 30
0.0
 11
-1318.346963104992
 21
1773.646636574131
 31
0.0
  0
LINE
  5
165DE
330
1A
100
AcDbEntity
  8
ZISSEN1
100
AcDbLine
 10
-1317.846961455394
 20
1783.216668642333
 30
0.0
 11
-1317.846961455394
 21
1791.816650001866
 31
0.0
  0
LINE
  5
165DF
330
1A
100
AcDbEntity
  8
ZISSEN1
100
AcDbLine
 10
-1315.646961620353
 20
1792.416642083792
 30
0.0
 11
-1315.646961620353
 21
1755.847634416456
 31
0.0
  0
LINE
  5
165E0
330
1A
100
AcDbEntity
  8
ZISSEN1
100
AcDbLine
 10
-1335.946961785313
 20
1788.246637728851
 30
0.0
 11
-1335.946961785313
 21
1773.646636574131
 31
0.0
  0
LINE
  5
165E1
330
1A
100
AcDbEntity
  8
ZISSEN1
100
AcDbLine
 10
-1342.946960135714
 20
1788.816652476264
 30
0.0
 11
-1342.946960135714
 21
1755.316653301064
 31
0.0
  0
ARC
  5
165E2
330
1A
100
AcDbEntity
  8
ZISSEN1
100
AcDbCircle
 10
-1326.208707753694
 20
1778.335225309351
 30
0.0
 40
19.99990514806798
100
AcDbArc
 50
293.8369903564487
 51
318.0279998779236
  0
LINE
  5
165E3
330
1A
100
AcDbEntity
  8
ZISSEN1
100
AcDbLine
 10
-1315.182727397116
 20
1750.881269736347
 30
0.0
 11
-1307.618714715001
 21
1750.881566664133
 31
0.0
  0
LINE
  5
165E4
330
1A
100
AcDbEntity
  8
ZISSEN1
100
AcDbLine
 10
-1312.931235334986
 20
1751.871325954674
 30
0.0
 11
-1308.45574177502
 21
1751.871523906532
 31
0.0
  0
ARC
  5
165E5
330
1A
100
AcDbEntity
  8
ZISSEN1
100
AcDbCircle
 10
-1309.11623289358
 20
1774.681231960534
 30
0.0
 40
20.99995020273568
100
AcDbArc
 50
259.8990478515637
 51
272.5790100097672
  0
ARC
  5
165E6
330
1A
100
AcDbEntity
  8
ZISSEN1
100
AcDbCircle
 10
-1309.11623289358
 20
1774.681231960534
 30
0.0
 40
19.99994845003694
100
AcDbArc
 50
253.8410644531226
 51
278.029006958005
  0
LINE
  5
165E7
330
1A
100
AcDbEntity
  8
ZISSEN1
100
AcDbLine
 10
-1309.757733005752
 20
1761.057727321862
 30
0.0
 11
-1315.850728314293
 21
1755.945237054494
 31
0.0
  0
LINE
  5
165E8
330
1A
100
AcDbEntity
  8
ZISSEN1
100
AcDbLine
 10
-1316.846958156196
 20
1749.905416563838
 30
0.0
 11
-1316.846958156196
 21
1731.416675900567
 31
0.0
  0
LINE
  5
165E9
330
1A
100
AcDbEntity
  8
ZISSEN1
100
AcDbLine
 10
-1321.046964589631
 20
1729.516641176512
 30
0.0
 11
-1321.046964589631
 21
1755.846644657166
 31
0.0
  0
LINE
  5
165EA
330
1A
100
AcDbEntity
  8
ZISSEN1
100
AcDbLine
 10
-1318.589812918918
 20
1755.846644657166
 30
0.0
 11
-1318.57781208752
 21
1728.647484055524
 31
0.0
  0
LINE
  5
165EB
330
1A
100
AcDbEntity
  8
ZISSEN1
100
AcDbLine
 10
-1325.786958948003
 20
1726.996942904632
 30
0.0
 11
-1325.786958948003
 21
1726.236943861399
 31
0.0
  0
LINE
  5
165EC
330
1A
100
AcDbEntity
  8
ZISSEN1
100
AcDbLine
 10
-1325.786958948003
 20
1725.726945642966
 30
0.0
 11
-1325.786958948003
 21
1724.966946599733
 31
0.0
  0
LINE
  5
165ED
330
1A
100
AcDbEntity
  8
ZISSEN1
100
AcDbLine
 10
-1321.843300170818
 20
1729.416638372194
 30
0.0
 11
-1321.843300170818
 21
1729.516641176512
 31
0.0
  0
LINE
  5
165EE
330
1A
100
AcDbEntity
  8
ZISSEN1
100
AcDbLine
 10
-1321.343261405246
 20
1728.916636722595
 30
0.0
 11
-1318.846964754591
 21
1728.916636722595
 31
0.0
  0
LINE
  5
165EF
330
1A
100
AcDbEntity
  8
ZISSEN1
100
AcDbLine
 10
-1321.046964589631
 20
1729.516641176512
 30
0.0
 11
-1325.943266683962
 21
1729.516641176512
 31
0.0
  0
LINE
  5
165F0
330
1A
100
AcDbEntity
  8
ZISSEN1
100
AcDbLine
 10
-1325.94696590931
 20
1728.016642413711
 30
0.0
 11
-1320.546962940032
 21
1728.016642413711
 31
0.0
  0
LINE
  5
165F1
330
1A
100
AcDbEntity
  8
ZISSEN1
100
AcDbLine
 10
-1325.786958948003
 20
1728.016642413711
 30
0.0
 11
-1320.706957529348
 21
1728.016642413711
 31
0.0
  0
ARC
  5
165F2
330
1A
100
AcDbEntity
  8
ZISSEN1
100
AcDbCircle
 10
-1321.343261405246
 20
1729.416638372194
 30
0.0
 40
0.5000000064437456
100
AcDbArc
 50
180.0
 51
270.0
  0
LINE
  5
165F3
330
1A
100
AcDbEntity
  8
ZISSEN1
100
AcDbLine
 10
-1325.786958948003
 20
1723.186944933638
 30
0.0
 11
-1325.786958948003
 21
1722.426945890406
 31
0.0
  0
LINE
  5
165F4
330
1A
100
AcDbEntity
  8
ZISSEN1
100
AcDbLine
 10
-1321.496958651075
 20
1720.616639032034
 30
0.0
 11
-1325.096960630594
 21
1720.616639032034
 31
0.0
  0
LINE
  5
165F5
330
1A
100
AcDbEntity
  8
ZISSEN1
100
AcDbLine
 10
-1320.546962940032
 20
1721.416636722595
 30
0.0
 11
-1325.94696590931
 21
1721.416636722595
 31
0.0
  0
LINE
  5
165F6
330
1A
100
AcDbEntity
  8
ZISSEN1
100
AcDbLine
 10
-1320.706957529348
 20
1721.416636722595
 30
0.0
 11
-1325.786958948003
 21
1721.416636722595
 31
0.0
  0
LINE
  5
165F7
330
1A
100
AcDbEntity
  8
ZISSEN1
100
AcDbLine
 10
-1325.786958948003
 20
1724.456942195304
 30
0.0
 11
-1325.786958948003
 21
1723.696943152072
 31
0.0
  0
LINE
  5
165F8
330
1A
100
AcDbEntity
  8
ZISSEN1
100
AcDbLine
 10
-1320.546962940032
 20
1728.016642413711
 30
0.0
 11
-1320.546962940032
 21
1721.416636722595
 31
0.0
  0
LINE
  5
165F9
330
1A
100
AcDbEntity
  8
ZISSEN1
100
AcDbLine
 10
-1325.94696590931
 20
1721.416636722595
 30
0.0
 11
-1325.94696590931
 21
1728.016642413711
 31
0.0
  0
LINE
  5
165FA
330
1A
100
AcDbEntity
  8
ZISSEN1
100
AcDbLine
 10
-1325.786958948003
 20
1721.416636722595
 30
0.0
 11
-1325.786958948003
 21
1728.016642413711
 31
0.0
  0
LINE
  5
165FB
330
1A
100
AcDbEntity
  8
ZISSEN1
100
AcDbLine
 10
-1318.846964754591
 20
1728.916636722595
 30
0.0
 11
-1317.846961455394
 21
1727.916639609393
 31
0.0
  0
LINE
  5
165FC
330
1A
100
AcDbEntity
  8
ZISSEN1
100
AcDbLine
 10
-1316.846958156196
 20
1730.016673756089
 30
0.0
 11
-1318.578418315085
 21
1730.016673756089
 31
0.0
  0
LINE
  5
165FD
330
1A
100
AcDbEntity
  8
ZISSEN1
100
AcDbLine
 10
-1316.846958156196
 20
1731.416675900567
 30
0.0
 11
-1318.579024542651
 21
1731.416675900567
 31
0.0
  0
LINE
  5
165FE
330
1A
100
AcDbEntity
  8
ZISSEN1
100
AcDbLine
 10
-1321.046964589631
 20
1719.916637959795
 30
0.0
 11
-1325.943266683962
 21
1719.916637959795
 31
0.0
  0
LINE
  5
165FF
330
1A
100
AcDbEntity
  8
ZISSEN1
100
AcDbLine
 10
-1325.096960630594
 20
1720.616639032034
 30
0.0
 11
-1325.096960630594
 21
1719.916637959795
 31
0.0
  0
LINE
  5
16600
330
1A
100
AcDbEntity
  8
ZISSEN1
100
AcDbLine
 10
-1321.496958651075
 20
1720.616639032034
 30
0.0
 11
-1321.496958651075
 21
1719.916637959795
 31
0.0
  0
LINE
  5
16601
330
1A
100
AcDbEntity
  8
ZISSEN1
100
AcDbLine
 10
-1325.943266683962
 20
1729.516641176512
 30
0.0
 11
-1325.943266683962
 21
1719.916637959795
 31
0.0
  0
LINE
  5
16602
330
1A
100
AcDbEntity
  8
ZISSEN1
100
AcDbLine
 10
-1323.096954032199
 20
1773.646636574131
 30
0.0
 11
-1335.946961785313
 21
1773.646636574131
 31
0.0
  0
LINE
  5
16603
330
1A
100
AcDbEntity
  8
ZISSEN1
100
AcDbLine
 10
-1323.096954032199
 20
1773.646636574131
 30
0.0
 11
-1335.946961785313
 21
1773.646636574131
 31
0.0
  0
LINE
  5
16604
330
1A
100
AcDbEntity
  8
ZISSEN1
100
AcDbLine
 10
-1323.096954032199
 20
1770.446633439894
 30
0.0
 11
-1335.946961785313
 21
1770.446633439894
 31
0.0
  0
LINE
  5
16605
330
1A
100
AcDbEntity
  8
ZISSEN1
100
AcDbLine
 10
-1323.096954032199
 20
1755.846644657166
 30
0.0
 11
-1335.946961785313
 21
1755.846644657166
 31
0.0
  0
LINE
  5
16606
330
1A
100
AcDbEntity
  8
ZISSEN1
100
AcDbLine
 10
-1323.096954032199
 20
1755.846644657166
 30
0.0
 11
-1335.946961785313
 21
1755.846644657166
 31
0.0
  0
LINE
  5
16607
330
1A
100
AcDbEntity
  8
ZISSEN1
100
AcDbLine
 10
-1321.046964589631
 20
1755.316653301064
 30
0.0
 11
-1342.946960135714
 21
1755.316653301064
 31
0.0
  0
LINE
  5
16608
330
1A
100
AcDbEntity
  8
ZISSEN1
100
AcDbLine
 10
-1335.946961785313
 20
1770.446633439894
 30
0.0
 11
-1335.946961785313
 21
1755.846644657166
 31
0.0
  0
LINE
  5
16609
330
1A
100
AcDbEntity
  8
ZISSEN1
100
AcDbLine
 10
-1317.846961455394
 20
1783.216668642333
 30
0.0
 11
-1318.346963104992
 21
1782.716666992734
 31
0.0
  0
LINE
  5
1660A
330
1A
100
AcDbEntity
  8
ZISSEN1
100
AcDbLine
 10
-1313.681225437393
 20
1752.621377917037
 30
0.0
 11
-1313.681225437393
 21
1753.268272217343
 31
0.0
  0
ARC
  5
1660B
330
1A
100
AcDbEntity
  8
ZISSEN1
100
AcDbCircle
 10
-1312.931235334986
 20
1753.268272217343
 30
0.0
 40
0.750000009665618
100
AcDbArc
 50
79.89834594726123
 51
179.9999694824253
  0
ARC
  5
1660C
330
1A
100
AcDbEntity
  8
ZISSEN1
100
AcDbCircle
 10
-1328.791212438554
 20
1722.351377768573
 30
0.0
 40
35.99989607527449
100
AcDbArc
 50
66.92678833008156
 51
67.78900146484954
  0
ARC
  5
1660D
330
1A
100
AcDbEntity
  8
ZISSEN1
100
AcDbCircle
 10
-1312.931235334986
 20
1752.621377917037
 30
0.0
 40
0.750000009665618
100
AcDbArc
 50
180.0
 51
270.0011291503916
  0
ARC
  5
1660E
330
1A
100
AcDbEntity
  8
ZISSEN1
100
AcDbCircle
 10
-1328.251731765254
 20
1722.126523015749
 30
0.0
 40
35.99990535426784
100
AcDbArc
 50
68.71369934081442
 51
74.03004455566324
  0
LINE
  5
1660F
330
1A
100
AcDbEntity
  8
ZISSEN1
100
AcDbLine
 10
-1315.182727397116
 20
1750.881368712276
 30
0.0
 11
-1315.182727397116
 21
1755.670442759467
 31
0.0
  0
LINE
  5
16610
330
1A
100
AcDbEntity
  8
ZISSEN1
100
AcDbLine
 10
-1314.681228736591
 20
1750.881319224311
 30
0.0
 11
-1314.681228736591
 21
1755.471105238352
 31
0.0
  0
LINE
  5
16611
330
1A
100
AcDbEntity
  8
ZISSEN1
100
AcDbLine
 10
-1315.169328530721
 20
1756.517119972569
 30
0.0
 11
-1318.12633338714
 21
1760.041120810566
 31
0.0
  0
LINE
  5
16612
330
1A
100
AcDbEntity
  8
ZISSEN1
100
AcDbLine
 10
-1318.346963104992
 20
1770.446633439894
 30
0.0
 11
-1318.346963104992
 21
1755.846644657166
 31
0.0
  0
LINE
  5
16613
330
1A
100
AcDbEntity
  8
ZISSEN1
100
AcDbLine
 10
-1321.046964589631
 20
1770.546660988194
 30
0.0
 11
-1321.046964589631
 21
1773.646648946122
 31
0.0
  0
LINE
  5
16614
330
1A
100
AcDbEntity
  8
ZISSEN1
100
AcDbLine
 10
-1323.946959310915
 20
1755.846644657166
 30
0.0
 11
-1326.446955186918
 21
1755.846644657166
 31
0.0
  0
LINE
  5
16615
330
1A
100
AcDbEntity
  8
ZISSEN1
100
AcDbLine
 10
-1318.346963104992
 20
1770.446633439894
 30
0.0
 11
-1323.096954032199
 21
1770.446633439894
 31
0.0
  0
LINE
  5
16616
330
1A
100
AcDbEntity
  8
ZISSEN1
100
AcDbLine
 10
-1318.346963104992
 20
1770.446633439894
 30
0.0
 11
-1323.096954032199
 21
1770.446633439894
 31
0.0
  0
LINE
  5
16617
330
1A
100
AcDbEntity
  8
ZISSEN1
100
AcDbLine
 10
-1318.346963104992
 20
1773.646636574131
 30
0.0
 11
-1323.096954032199
 21
1773.646636574131
 31
0.0
  0
LINE
  5
16618
330
1A
100
AcDbEntity
  8
ZISSEN1
100
AcDbLine
 10
-1318.346963104992
 20
1755.846644657166
 30
0.0
 11
-1323.096954032199
 21
1755.846644657166
 31
0.0
  0
LINE
  5
16619
330
1A
100
AcDbEntity
  8
ZISSEN1
100
AcDbLine
 10
-1318.346963104992
 20
1755.846644657166
 30
0.0
 11
-1323.096954032199
 21
1755.846644657166
 31
0.0
  0
LINE
  5
1661A
330
1A
100
AcDbEntity
  8
ZISSEN1
100
AcDbLine
 10
-1318.589540735112
 20
1748.883502468346
 30
0.0
 11
-1315.182727397116
 21
1750.881381084267
 31
0.0
  0
LINE
  5
1661B
330
1A
100
AcDbEntity
  8
ZISSEN1
100
AcDbLine
 10
-1274.919764849608
 20
1730.791655280582
 30
0.0
 11
-1274.919764849608
 21
1729.541651156585
 31
0.0
  0
LINE
  5
1661C
330
1A
100
AcDbEntity
  8
ZISSEN1
100
AcDbLine
 10
-1274.919764849608
 20
1730.791655280582
 30
0.0
 11
-1274.919764849608
 21
1729.541651156585
 31
0.0
  0
LINE
  5
1661D
330
1A
100
AcDbEntity
  8
ZISSEN1
100
AcDbLine
 10
-1274.919764849608
 20
1732.791655692982
 30
0.0
 11
-1274.919764849608
 21
1731.541651568985
 31
0.0
  0
LINE
  5
1661E
330
1A
100
AcDbEntity
  8
ZISSEN1
100
AcDbLine
 10
-1274.919764849608
 20
1732.791655692982
 30
0.0
 11
-1274.919764849608
 21
1731.541651568985
 31
0.0
  0
ARC
  5
1661F
330
1A
100
AcDbEntity
  8
ZISSEN1
100
AcDbCircle
 10
-1276.069766169287
 20
1727.728727622089
 30
0.0
 40
0.100000001288749
100
AcDbArc
 50
97.35238647461059
 51
180.0000152587938
  0
LINE
  5
16620
330
1A
100
AcDbEntity
  8
ZISSEN1
100
AcDbLine
 10
-1277.819722454919
 20
1729.516641176512
 30
0.0
 11
-1285.619718495881
 21
1729.516641176512
 31
0.0
  0
ARC
  5
16621
330
1A
100
AcDbEntity
  8
ZISSEN1
100
AcDbCircle
 10
-1276.069766169287
 20
1721.7045762582
 30
0.0
 40
0.100000001288749
100
AcDbArc
 50
179.9999694824253
 51
262.6475982666042
  0
LINE
  5
16622
330
1A
100
AcDbEntity
  8
ZISSEN1
100
AcDbLine
 10
-1276.169768973605
 20
1721.7045762582
 30
0.0
 11
-1276.169768973605
 21
1727.728727622089
 31
0.0
  0
LINE
  5
16623
330
1A
100
AcDbEntity
  8
ZISSEN1
100
AcDbLine
 10
-1277.819722454919
 20
1735.016640764112
 30
0.0
 11
-1277.819722454919
 21
1729.516641176512
 31
0.0
  0
LINE
  5
16624
330
1A
100
AcDbEntity
  8
ZISSEN1
100
AcDbLine
 10
-1281.41976155041
 20
1720.116649754426
 30
0.0
 11
-1280.919759900811
 21
1720.116649754426
 31
0.0
  0
CIRCLE
  5
16625
330
1A
100
AcDbEntity
  8
ZISSEN1
100
AcDbCircle
 10
-1277.819759570892
 20
1716.916652806184
 30
0.0
 40
1.600000020619985
  0
LINE
  5
16626
330
1A
100
AcDbEntity
  8
ZISSEN1
100
AcDbLine
 10
-1281.7197204754
 20
1719.916637959795
 30
0.0
 11
-1285.619718495881
 21
1719.916637959795
 31
0.0
  0
LINE
  5
16627
330
1A
100
AcDbEntity
  8
ZISSEN1
100
AcDbLine
 10
-1275.819728228514
 20
1712.516640764112
 30
0.0
 11
-1281.7197204754
 21
1712.516640764112
 31
0.0
  0
LINE
  5
16628
330
1A
100
AcDbEntity
  8
ZISSEN1
100
AcDbLine
 10
-1281.7197204754
 20
1712.516640764112
 30
0.0
 11
-1275.819728228514
 21
1712.516640764112
 31
0.0
  0
LINE
  5
16629
330
1A
100
AcDbEntity
  8
ZISSEN1
100
AcDbLine
 10
-1280.919759900811
 20
1713.216654208343
 30
0.0
 11
-1280.919759900811
 21
1713.716649671946
 31
0.0
  0
LINE
  5
1662A
330
1A
100
AcDbEntity
  8
ZISSEN1
100
AcDbLine
 10
-1281.41976155041
 20
1713.716649671946
 30
0.0
 11
-1280.919759900811
 21
1713.716649671946
 31
0.0
  0
LINE
  5
1662B
330
1A
100
AcDbEntity
  8
ZISSEN1
100
AcDbLine
 10
-1281.7197204754
 20
1719.916637959795
 30
0.0
 11
-1281.7197204754
 21
1712.516640764112
 31
0.0
  0
LINE
  5
1662C
330
1A
100
AcDbEntity
  8
ZISSEN1
100
AcDbLine
 10
-1281.41976155041
 20
1720.116649754426
 30
0.0
 11
-1281.41976155041
 21
1713.716649671946
 31
0.0
  0
LINE
  5
1662D
330
1A
100
AcDbEntity
  8
ZISSEN1
100
AcDbLine
 10
-1280.919759900811
 20
1720.616651404025
 30
0.0
 11
-1280.919759900811
 21
1720.116649754426
 31
0.0
  0
LINE
  5
1662E
330
1A
100
AcDbEntity
  8
ZISSEN1
100
AcDbLine
 10
-1284.81972080532
 20
1729.516641176512
 30
0.0
 11
-1284.81972080532
 21
1719.916637959795
 31
0.0
  0
ARC
  5
1662F
330
1A
100
AcDbEntity
  8
ZISSEN1
100
AcDbCircle
 10
-1309.541210788955
 20
1759.020728469982
 30
0.0
 40
0.2999920055672929
100
AcDbArc
 50
309.9984588623046
 51
23.85314941405911
  0
ARC
  5
16630
330
1A
100
AcDbEntity
  8
ZISSEN1
100
AcDbCircle
 10
-1310.596727212361
 20
1764.291728687729
 30
0.0
 40
1.000000012887489
100
AcDbArc
 50
49.5751647949197
 51
138.0971221923747
  0
LINE
  5
16631
330
1A
100
AcDbEntity
  8
ZISSEN1
100
AcDbLine
 10
-1311.105166559912
 20
1758.752726398086
 30
0.0
 11
-1311.055653851403
 21
1759.316221106173
 31
0.0
  0
LINE
  5
16632
330
1A
100
AcDbEntity
  8
ZISSEN1
100
AcDbLine
 10
-1311.105203675885
 20
1758.75221914645
 30
0.0
 11
-1310.783692742345
 21
1758.369219416984
 31
0.0
  0
LINE
  5
16633
330
1A
100
AcDbEntity
  8
ZISSEN1
100
AcDbLine
 10
-1309.938747608001
 20
1758.29517305006
 30
0.0
 11
-1310.784249481945
 21
1758.36916992902
 31
0.0
  0
LINE
  5
16634
330
1A
100
AcDbEntity
  8
ZISSEN1
100
AcDbLine
 10
-1311.055690967376
 20
1759.315701482546
 30
0.0
 11
-1311.377201900917
 21
1759.698701212012
 31
0.0
  0
LINE
  5
16635
330
1A
100
AcDbEntity
  8
ZISSEN1
100
AcDbLine
 10
-1309.947197677944
 20
1765.052272098572
 30
0.0
 11
-1309.24020024472
 21
1764.054273061938
 31
0.0
  0
LINE
  5
16636
330
1A
100
AcDbEntity
  8
ZISSEN1
100
AcDbLine
 10
-1309.348727350928
 20
1758.790225903207
 30
0.0
 11
-1309.938722864019
 21
1758.295234910016
 31
0.0
  0
ARC
  5
16637
330
1A
100
AcDbEntity
  8
ZISSEN1
100
AcDbCircle
 10
-1303.779215731154
 20
1761.568727671577
 30
0.0
 40
5.999995051203547
100
AcDbArc
 50
155.519989013673
 51
203.8600463867193
  0
LINE
  5
16638
330
1A
100
AcDbEntity
  8
ZISSEN1
100
AcDbLine
 10
-1305.182731521114
 20
1752.886979822653
 30
0.0
 11
-1305.182731521114
 21
1753.886983121851
 31
0.0
  0
ARC
  5
16639
330
1A
100
AcDbEntity
  8
ZISSEN1
100
AcDbCircle
 10
-1302.710721089051
 20
1747.419871173477
 30
0.0
 40
7.000005309646192
100
AcDbArc
 50
134.4410552978588
 51
137.8420562744137
  0
ARC
  5
1663A
330
1A
100
AcDbEntity
  8
ZISSEN1
100
AcDbCircle
 10
-1308.45574177502
 20
1752.621526380931
 30
0.0
 40
0.7499989947757208
100
AcDbArc
 50
270.0011291503916
 51
317.839904785156
  0
ARC
  5
1663B
330
1A
100
AcDbEntity
  8
ZISSEN1
100
AcDbCircle
 10
-1308.137224863333
 20
1752.9531823472
 30
0.0
 40
0.7500009762274252
100
AcDbArc
 50
314.4396667480438
 51
92.58052062988681
  0
ARC
  5
1663C
330
1A
100
AcDbEntity
  8
ZISSEN1
100
AcDbCircle
 10
-1306.18272244832
 20
1753.887020237824
 30
0.0
 40
1.000002042667285
100
AcDbArc
 50
0.0017395019496881
 51
98.09724426270122
  0
ARC
  5
1663D
330
1A
100
AcDbEntity
  8
ZISSEN1
100
AcDbCircle
 10
-1308.762727990972
 20
1749.171670885787
 30
0.0
 40
0.2999950019088951
100
AcDbArc
 50
270.0000305175746
 51
343.8541259765619
  0
ARC
  5
1663E
330
1A
100
AcDbEntity
  8
ZISSEN1
100
AcDbCircle
 10
-1302.710721089051
 20
1747.419871173477
 30
0.0
 40
5.999993891329379
100
AcDbArc
 50
114.3290863037163
 51
163.8620147705117
  0
LINE
  5
1663F
330
1A
100
AcDbEntity
  8
ZISSEN1
100
AcDbLine
 10
-1309.732729211675
 20
1750.371531329727
 30
0.0
 11
-1309.732729211675
 21
1750.87147111937
 31
0.0
  0
LINE
  5
16640
330
1A
100
AcDbEntity
  8
ZISSEN1
100
AcDbLine
 10
-1310.132715684965
 20
1749.971569600419
 30
0.0
 11
-1309.732716839684
 21
1750.3715684457
 31
0.0
  0
LINE
  5
16641
330
1A
100
AcDbEntity
  8
ZISSEN1
100
AcDbLine
 10
-1309.532686487066
 20
1748.871612984868
 30
0.0
 11
-1310.132703312974
 21
1749.471617438785
 31
0.0
  0
LINE
  5
16642
330
1A
100
AcDbEntity
  8
ZISSEN1
100
AcDbLine
 10
-1310.132728056956
 20
1749.971532484446
 30
0.0
 11
-1310.132728056956
 21
1749.471530834847
 31
0.0
  0
LINE
  5
16643
330
1A
100
AcDbEntity
  8
ZISSEN1
100
AcDbLine
 10
-1308.762727990972
 20
1748.871575868895
 30
0.0
 11
-1309.532711231048
 21
1748.871575868895
 31
0.0
  0
LINE
  5
16644
330
1A
100
AcDbEntity
  8
ZISSEN1
100
AcDbLine
 10
-1285.619718495881
 20
1773.646648946122
 30
0.0
 11
-1285.619718495881
 21
1770.446645811885
 31
0.0
  0
LINE
  5
16645
330
1A
100
AcDbEntity
  8
ZISSEN1
100
AcDbLine
 10
-1284.81972080532
 20
1773.646648946122
 30
0.0
 11
-1284.81972080532
 21
1770.446645811885
 31
0.0
  0
LINE
  5
16646
330
1A
100
AcDbEntity
  8
ZISSEN1
100
AcDbLine
 10
-1284.719767488966
 20
1769.446654884678
 30
0.0
 11
-1275.819765344488
 21
1769.446654884678
 31
0.0
  0
LINE
  5
16647
330
1A
100
AcDbEntity
  8
ZISSEN1
100
AcDbLine
 10
-1284.719767488966
 20
1774.64665224532
 30
0.0
 11
-1275.819765344488
 21
1774.64665224532
 31
0.0
  0
LINE
  5
16648
330
1A
100
AcDbEntity
  8
ZISSEN1
100
AcDbLine
 10
-1284.719767488966
 20
1769.446654884678
 30
0.0
 11
-1275.819765344488
 21
1769.446654884678
 31
0.0
  0
LINE
  5
16649
330
1A
100
AcDbEntity
  8
ZISSEN1
100
AcDbLine
 10
-1284.719767488966
 20
1774.64665224532
 30
0.0
 11
-1275.819765344488
 21
1774.64665224532
 31
0.0
  0
LINE
  5
1664A
330
1A
100
AcDbEntity
  8
ZISSEN1
100
AcDbLine
 10
-1275.819765344488
 20
1778.946649111083
 30
0.0
 11
-1275.819765344488
 21
1774.64665224532
 31
0.0
  0
LINE
  5
1664B
330
1A
100
AcDbEntity
  8
ZISSEN1
100
AcDbLine
 10
-1275.819765344488
 20
1778.946649111083
 30
0.0
 11
-1275.819765344488
 21
1774.64665224532
 31
0.0
  0
LINE
  5
1664C
330
1A
100
AcDbEntity
  8
ZISSEN1
100
AcDbLine
 10
-1275.819765344488
 20
1769.446654884678
 30
0.0
 11
-1275.819765344488
 21
1765.146658018916
 31
0.0
  0
LINE
  5
1664D
330
1A
100
AcDbEntity
  8
ZISSEN1
100
AcDbLine
 10
-1275.819765344488
 20
1769.446654884678
 30
0.0
 11
-1275.819765344488
 21
1765.146658018916
 31
0.0
  0
LINE
  5
1664E
330
1A
100
AcDbEntity
  8
ZISSEN1
100
AcDbLine
 10
-1284.81972080532
 20
1755.316665673054
 30
0.0
 11
-1284.81972080532
 21
1755.846644657166
 31
0.0
  0
LINE
  5
1664F
330
1A
100
AcDbEntity
  8
ZISSEN1
100
AcDbLine
 10
-1285.619718495881
 20
1755.316665673054
 30
0.0
 11
-1285.619718495881
 21
1755.846644657166
 31
0.0
  0
LINE
  5
16650
330
1A
100
AcDbEntity
  8
ZISSEN1
100
AcDbLine
 10
-1284.719767488966
 20
1756.846647956364
 30
0.0
 11
-1275.819765344488
 21
1756.846647956364
 31
0.0
  0
LINE
  5
16651
330
1A
100
AcDbEntity
  8
ZISSEN1
100
AcDbLine
 10
-1284.719767488966
 20
1756.846647956364
 30
0.0
 11
-1275.819765344488
 21
1756.846647956364
 31
0.0
  0
LINE
  5
16652
330
1A
100
AcDbEntity
  8
ZISSEN1
100
AcDbLine
 10
-1275.819765344488
 20
1761.146657194117
 30
0.0
 11
-1275.819765344488
 21
1756.846647956364
 31
0.0
  0
LINE
  5
16653
330
1A
100
AcDbEntity
  8
ZISSEN1
100
AcDbLine
 10
-1275.819765344488
 20
1761.146657194117
 30
0.0
 11
-1275.819765344488
 21
1756.846647956364
 31
0.0
  0
LINE
  5
16654
330
1A
100
AcDbEntity
  8
ZISSEN1
100
AcDbLine
 10
-1285.719758416173
 20
1770.446658183876
 30
0.0
 11
-1285.719758416173
 21
1755.846657029157
 31
0.0
  0
LINE
  5
16655
330
1A
100
AcDbEntity
  8
ZISSEN1
100
AcDbLine
 10
-1284.719767488966
 20
1756.846647956364
 30
0.0
 11
-1284.719767488966
 21
1769.446654884678
 31
0.0
  0
LINE
  5
16656
330
1A
100
AcDbEntity
  8
ZISSEN1
100
AcDbLine
 10
-1285.719758416173
 20
1770.446658183876
 30
0.0
 11
-1285.719758416173
 21
1755.846657029157
 31
0.0
  0
LINE
  5
16657
330
1A
100
AcDbEntity
  8
ZISSEN1
100
AcDbLine
 10
-1284.719767488966
 20
1756.846647956364
 30
0.0
 11
-1284.719767488966
 21
1769.446654884678
 31
0.0
  0
LINE
  5
16658
330
1A
100
AcDbEntity
  8
ZISSEN1
100
AcDbLine
 10
-1323.096954032199
 20
1788.246637728851
 30
0.0
 11
-1335.946961785313
 21
1788.246637728851
 31
0.0
  0
LINE
  5
16659
330
1A
100
AcDbEntity
  8
ZISSEN1
100
AcDbLine
 10
-1323.096954032199
 20
1788.246637728851
 30
0.0
 11
-1335.946961785313
 21
1788.246637728851
 31
0.0
  0
LINE
  5
1665A
330
1A
100
AcDbEntity
  8
ZISSEN1
100
AcDbLine
 10
-1321.046964589631
 20
1788.816652476264
 30
0.0
 11
-1342.946960135714
 21
1788.816652476264
 31
0.0
  0
LINE
  5
1665B
330
1A
100
AcDbEntity
  8
ZISSEN1
100
AcDbLine
 10
-1341.446961372914
 20
1797.716642248752
 30
0.0
 11
-1341.446961372914
 21
1801.446649111083
 31
0.0
  0
LINE
  5
1665C
330
1A
100
AcDbEntity
  8
ZISSEN1
100
AcDbLine
 10
-1344.996961950273
 20
1801.446649111083
 30
0.0
 11
-1344.996961950273
 21
1800.279537327668
 31
0.0
  0
LINE
  5
1665D
330
1A
100
AcDbEntity
  8
ZISSEN1
100
AcDbLine
 10
-1344.996961950273
 20
1799.496650100842
 30
0.0
 11
-1344.996961950273
 21
1800.279537327668
 31
0.0
  0
LINE
  5
1665E
330
1A
100
AcDbEntity
  8
ZISSEN1
100
AcDbLine
 10
-1341.446961372914
 20
1801.446649111083
 30
0.0
 11
-1344.996961950273
 21
1801.446649111083
 31
0.0
  0
LINE
  5
1665F
330
1A
100
AcDbEntity
  8
ZISSEN1
100
AcDbLine
 10
-1343.996958651075
 20
1801.446649111083
 30
0.0
 11
-1344.996961950273
 21
1801.446649111083
 31
0.0
  0
LINE
  5
16660
330
1A
100
AcDbEntity
  8
ZISSEN1
100
AcDbLine
 10
-1343.996958651075
 20
1801.446649111083
 30
0.0
 11
-1344.996961950273
 21
1801.446649111083
 31
0.0
  0
LINE
  5
16661
330
1A
100
AcDbEntity
  8
ZISSEN1
100
AcDbLine
 10
-1321.046964589631
 20
1796.91664455819
 30
0.0
 11
-1321.846962280193
 21
1797.716642248752
 31
0.0
  0
LINE
  5
16662
330
1A
100
AcDbEntity
  8
ZISSEN1
100
AcDbLine
 10
-1316.646964919551
 20
1793.416645382989
 30
0.0
 11
-1315.646961620353
 21
1792.416642083792
 31
0.0
  0
LINE
  5
16663
330
1A
100
AcDbEntity
  8
ZISSEN1
100
AcDbLine
 10
-1326.446955186918
 20
1788.246637728851
 30
0.0
 11
-1323.946959310915
 21
1788.246637728851
 31
0.0
  0
LINE
  5
16664
330
1A
100
AcDbEntity
  8
ZISSEN1
100
AcDbLine
 10
-1321.046964589631
 20
1792.816640929072
 30
0.0
 11
-1318.846964754591
 21
1792.816640929072
 31
0.0
  0
LINE
  5
16665
330
1A
100
AcDbEntity
  8
ZISSEN1
100
AcDbLine
 10
-1318.346963104992
 20
1788.246637728851
 30
0.0
 11
-1323.096954032199
 21
1788.246637728851
 31
0.0
  0
LINE
  5
16666
330
1A
100
AcDbEntity
  8
ZISSEN1
100
AcDbLine
 10
-1318.846964754591
 20
1792.816640929072
 30
0.0
 11
-1317.846961455394
 21
1791.816650001866
 31
0.0
  0
LINE
  5
16667
330
1A
100
AcDbEntity
  8
ZISSEN1
100
AcDbLine
 10
-1321.046964589631
 20
1793.416645382989
 30
0.0
 11
-1316.646964919551
 21
1793.416645382989
 31
0.0
  0
LINE
  5
16668
330
1A
100
AcDbEntity
  8
ZISSEN1
100
AcDbLine
 10
-1321.046964589631
 20
1788.246650100842
 30
0.0
 11
-1321.046964589631
 21
1796.91664455819
 31
0.0
  0
LINE
  5
16669
330
1A
100
AcDbEntity
  8
ZISSEN1
100
AcDbLine
 10
-1282.819726578916
 20
1797.716642248752
 30
0.0
 11
-1282.819726578916
 21
1796.91664455819
 31
0.0
  0
LINE
  5
1666A
330
1A
100
AcDbEntity
  8
ZISSEN1
100
AcDbLine
 10
-1282.819726578916
 20
1797.716666992734
 30
0.0
 11
-1282.819726578916
 21
1796.916669302172
 31
0.0
  0
LINE
  5
1666B
330
1A
100
AcDbEntity
  8
ZISSEN1
100
AcDbLine
 10
-1280.319718330921
 20
1797.716666992734
 30
0.0
 11
-1279.51972064036
 21
1797.716666992734
 31
0.0
  0
LINE
  5
1666C
330
1A
100
AcDbEntity
  8
ZISSEN1
100
AcDbLine
 10
-1285.619718495881
 20
1803.216697510312
 30
0.0
 11
-1285.619718495881
 21
1797.716704108707
 31
0.0
  0
LINE
  5
1666D
330
1A
100
AcDbEntity
  8
ZISSEN1
100
AcDbLine
 10
-1284.619727568675
 20
1804.21670080951
 30
0.0
 11
-1285.619718495881
 21
1803.216697510312
 31
0.0
  0
LINE
  5
1666E
330
1A
100
AcDbEntity
  8
ZISSEN1
100
AcDbLine
 10
-1285.619718495881
 20
1797.716642248752
 30
0.0
 11
-1284.81972080532
 21
1797.716642248752
 31
0.0
  0
LINE
  5
1666F
330
1A
100
AcDbEntity
  8
ZISSEN1
100
AcDbLine
 10
-1284.81972080532
 20
1797.716642248752
 30
0.0
 11
-1284.81972080532
 21
1796.91664455819
 31
0.0
  0
LINE
  5
16670
330
1A
100
AcDbEntity
  8
ZISSEN1
100
AcDbLine
 10
-1285.619718495881
 20
1796.91664455819
 30
0.0
 11
-1284.81972080532
 21
1796.91664455819
 31
0.0
  0
LINE
  5
16671
330
1A
100
AcDbEntity
  8
ZISSEN1
100
AcDbLine
 10
-1285.619718495881
 20
1797.716666992734
 30
0.0
 11
-1284.81972080532
 21
1797.716666992734
 31
0.0
  0
LINE
  5
16672
330
1A
100
AcDbEntity
  8
ZISSEN1
100
AcDbLine
 10
-1284.81972080532
 20
1797.716666992734
 30
0.0
 11
-1284.81972080532
 21
1796.916669302172
 31
0.0
  0
LINE
  5
16673
330
1A
100
AcDbEntity
  8
ZISSEN1
100
AcDbLine
 10
-1285.619718495881
 20
1796.916669302172
 30
0.0
 11
-1284.81972080532
 21
1796.916669302172
 31
0.0
  0
LINE
  5
16674
330
1A
100
AcDbEntity
  8
ZISSEN1
100
AcDbLine
 10
-1284.81972080532
 20
1796.916669302172
 30
0.0
 11
-1282.819726578916
 21
1796.916669302172
 31
0.0
  0
LINE
  5
16675
330
1A
100
AcDbEntity
  8
ZISSEN1
100
AcDbLine
 10
-1284.81972080532
 20
1788.816664848255
 30
0.0
 11
-1284.81972080532
 21
1788.246650100842
 31
0.0
  0
LINE
  5
16676
330
1A
100
AcDbEntity
  8
ZISSEN1
100
AcDbLine
 10
-1284.719767488966
 20
1787.246646801644
 30
0.0
 11
-1275.819765344488
 21
1787.246646801644
 31
0.0
  0
LINE
  5
16677
330
1A
100
AcDbEntity
  8
ZISSEN1
100
AcDbLine
 10
-1284.719767488966
 20
1787.246646801644
 30
0.0
 11
-1275.819765344488
 21
1787.246646801644
 31
0.0
  0
LINE
  5
16678
330
1A
100
AcDbEntity
  8
ZISSEN1
100
AcDbLine
 10
-1285.619718495881
 20
1797.716642248752
 30
0.0
 11
-1285.619718495881
 21
1788.246650100842
 31
0.0
  0
CIRCLE
  5
16679
330
1A
100
AcDbEntity
  8
ZISSEN1
100
AcDbCircle
 10
-1279.619723444678
 20
1849.262684925645
 30
0.0
 40
1.300000016753737
  0
CIRCLE
  5
1667A
330
1A
100
AcDbEntity
  8
ZISSEN1
100
AcDbCircle
 10
-1279.619723444678
 20
1849.262684925645
 30
0.0
 40
1.500000019331235
  0
LINE
  5
1667B
330
1A
100
AcDbEntity
  8
ZISSEN1
100
AcDbLine
 10
-1285.719746044182
 20
1848.162691194121
 30
0.0
 11
-1285.619718495881
 21
1848.162691194121
 31
0.0
  0
LINE
  5
1667C
330
1A
100
AcDbEntity
  8
ZISSEN1
100
AcDbLine
 10
-1282.819726578916
 20
1834.0652032032
 30
0.0
 11
-1285.619718495881
 21
1834.0652032032
 31
0.0
  0
CIRCLE
  5
1667D
330
1A
100
AcDbEntity
  8
ZISSEN1
100
AcDbCircle
 10
-1279.619723444678
 20
1849.262684925645
 30
0.0
 40
2.600000033507475
  0
LINE
  5
1667E
330
1A
100
AcDbEntity
  8
ZISSEN1
100
AcDbLine
 10
-1280.51974868354
 20
1830.062703236192
 30
0.0
 11
-1280.51974868354
 21
1830.5626925138
 31
0.0
  0
LINE
  5
1667F
330
1A
100
AcDbEntity
  8
ZISSEN1
100
AcDbLine
 10
-1285.719746044182
 20
1830.5626925138
 30
0.0
 11
-1285.719746044182
 21
1848.162691194121
 31
0.0
  0
LINE
  5
16680
330
1A
100
AcDbEntity
  8
ZISSEN1
100
AcDbLine
 10
-1227.919721135239
 20
1779.81164924305
 30
0.0
 11
-1227.919721135239
 21
1786.421645317005
 31
0.0
  0
LINE
  5
16681
330
1A
100
AcDbEntity
  8
ZISSEN1
100
AcDbLine
 10
-1220.419721135239
 20
1752.516649012107
 30
0.0
 11
-1220.419721135239
 21
1793.916647032588
 31
0.0
  0
LINE
  5
16682
330
1A
100
AcDbEntity
  8
ZISSEN1
100
AcDbLine
 10
-1247.519726413956
 20
1779.81164924305
 30
0.0
 11
-1247.519726413956
 21
1786.421645317005
 31
0.0
  0
LINE
  5
16683
330
1A
100
AcDbEntity
  8
ZISSEN1
100
AcDbLine
 10
-1258.619728393474
 20
1793.316642578671
 30
0.0
 11
-1258.619728393474
 21
1781.716663693536
 31
0.0
  0
LINE
  5
16684
330
1A
100
AcDbEntity
  8
ZISSEN1
100
AcDbLine
 10
-1260.219723774598
 20
1793.316642578671
 30
0.0
 11
-1260.219723774598
 21
1785.313164399565
 31
0.0
  0
LINE
  5
16685
330
1A
100
AcDbEntity
  8
ZISSEN1
100
AcDbLine
 10
-1260.219723774598
 20
1793.316642578671
 30
0.0
 11
-1260.219723774598
 21
1781.716663693536
 31
0.0
  0
LINE
  5
16686
330
1A
100
AcDbEntity
  8
ZISSEN1
100
AcDbLine
 10
-1273.819758746093
 20
1773.653651493103
 30
0.0
 11
-1273.819758746093
 21
1788.253652647822
 31
0.0
  0
LINE
  5
16687
330
1A
100
AcDbEntity
  8
ZISSEN1
100
AcDbLine
 10
-1273.819758746093
 20
1773.646648946122
 30
0.0
 11
-1273.819758746093
 21
1788.246650100842
 31
0.0
  0
LINE
  5
16688
330
1A
100
AcDbEntity
  8
ZISSEN1
100
AcDbLine
 10
-1263.319724104517
 20
1793.316642578671
 30
0.0
 11
-1263.319724104517
 21
1781.716663693536
 31
0.0
  0
LINE
  5
16689
330
1A
100
AcDbEntity
  8
ZISSEN1
100
AcDbLine
 10
-1258.119726743875
 20
1793.316642578671
 30
0.0
 11
-1258.119726743875
 21
1781.716663693536
 31
0.0
  0
LINE
  5
1668A
330
1A
100
AcDbEntity
  8
ZISSEN1
100
AcDbLine
 10
-1272.219763364969
 20
1788.816664848255
 30
0.0
 11
-1272.219763364969
 21
1755.316665673054
 31
0.0
  0
LINE
  5
1668B
330
1A
100
AcDbEntity
  8
ZISSEN1
100
AcDbLine
 10
-1273.819758746093
 20
1755.316665673054
 30
0.0
 11
-1273.819758746093
 21
1788.816664848255
 31
0.0
  0
LINE
  5
1668C
330
1A
100
AcDbEntity
  8
ZISSEN1
100
AcDbLine
 10
-1240.019726413955
 20
1752.516649012107
 30
0.0
 11
-1240.019726413955
 21
1793.916647032588
 31
0.0
  0
LINE
  5
1668D
330
1A
100
AcDbEntity
  8
ZISSEN1
100
AcDbLine
 10
-1270.4697204754
 20
1755.316665673054
 30
0.0
 11
-1270.4697204754
 21
1788.816664848255
 31
0.0
  0
LINE
  5
1668E
330
1A
100
AcDbEntity
  8
ZISSEN1
100
AcDbLine
 10
-1240.019726413955
 20
1752.516649012107
 30
0.0
 11
-1237.919729383233
 21
1752.516649012107
 31
0.0
  0
LINE
  5
1668F
330
1A
100
AcDbEntity
  8
ZISSEN1
100
AcDbLine
 10
-1248.219721300199
 20
1731.41664497059
 30
0.0
 11
-1248.219721300199
 21
1751.01664406331
 31
0.0
  0
LINE
  5
16690
330
1A
100
AcDbEntity
  8
ZISSEN1
100
AcDbLine
 10
-1240.319722454918
 20
1731.41664497059
 30
0.0
 11
-1240.319722454918
 21
1751.01664406331
 31
0.0
  0
LINE
  5
16691
330
1A
100
AcDbEntity
  8
ZISSEN1
100
AcDbLine
 10
-1247.619729218274
 20
1732.116646042829
 30
0.0
 11
-1247.619729218274
 21
1750.316649177067
 31
0.0
  0
LINE
  5
16692
330
1A
100
AcDbEntity
  8
ZISSEN1
100
AcDbLine
 10
-1241.11972014548
 20
1732.116646042829
 30
0.0
 11
-1241.11972014548
 21
1750.316649177067
 31
0.0
  0
LINE
  5
16693
330
1A
100
AcDbEntity
  8
ZISSEN1
100
AcDbLine
 10
-1263.34970143903
 20
1748.910423921049
 30
0.0
 11
-1263.34970143903
 21
1748.130406996165
 31
0.0
  0
LINE
  5
16694
330
1A
100
AcDbEntity
  8
ZISSEN1
100
AcDbLine
 10
-1266.399694180795
 20
1748.910423921049
 30
0.0
 11
-1266.399694180795
 21
1748.130406996165
 31
0.0
  0
LINE
  5
16695
330
1A
100
AcDbEntity
  8
ZISSEN1
100
AcDbLine
 10
-1268.719727073795
 20
1758.115271927014
 30
0.0
 11
-1268.719727073795
 21
1725.064178078038
 31
0.0
  0
LINE
  5
16696
330
1A
100
AcDbEntity
  8
ZISSEN1
100
AcDbLine
 10
-1273.91976435344
 20
1727.741223359763
 30
0.0
 11
-1273.819758746093
 21
1727.741223359763
 31
0.0
  0
LINE
  5
16697
330
1A
100
AcDbEntity
  8
ZISSEN1
100
AcDbLine
 10
-1273.91976435344
 20
1721.692080573789
 30
0.0
 11
-1273.819758746093
 21
1721.692080573789
 31
0.0
  0
LINE
  5
16698
330
1A
100
AcDbEntity
  8
ZISSEN1
100
AcDbLine
 10
-1263.34970143903
 20
1748.130406996165
 30
0.0
 11
-1266.399694180795
 21
1748.130406996165
 31
0.0
  0
LINE
  5
16699
330
1A
100
AcDbEntity
  8
ZISSEN1
100
AcDbLine
 10
-1268.719727073795
 20
1725.064178078038
 30
0.0
 11
-1267.719723774598
 21
1725.064178078038
 31
0.0
  0
LINE
  5
1669A
330
1A
100
AcDbEntity
  8
ZISSEN1
100
AcDbLine
 10
-1268.719727073795
 20
1725.064178078038
 30
0.0
 11
-1267.719723774598
 21
1725.064178078038
 31
0.0
  0
LINE
  5
1669B
330
1A
100
AcDbEntity
  8
ZISSEN1
100
AcDbLine
 10
-1273.819758746093
 20
1728.916655280582
 30
0.0
 11
-1272.219763364969
 21
1728.916655280582
 31
0.0
  0
LINE
  5
1669C
330
1A
100
AcDbEntity
  8
ZISSEN1
100
AcDbLine
 10
-1273.819758746093
 20
1727.916651981384
 30
0.0
 11
-1272.219763364969
 21
1727.916651981384
 31
0.0
  0
LINE
  5
1669D
330
1A
100
AcDbEntity
  8
ZISSEN1
100
AcDbLine
 10
-1273.819758746093
 20
1730.791655280582
 30
0.0
 11
-1273.819758746093
 21
1729.541651156585
 31
0.0
  0
LINE
  5
1669E
330
1A
100
AcDbEntity
  8
ZISSEN1
100
AcDbLine
 10
-1273.819758746093
 20
1730.791655280582
 30
0.0
 11
-1273.819758746093
 21
1729.541651156585
 31
0.0
  0
LINE
  5
1669F
330
1A
100
AcDbEntity
  8
ZISSEN1
100
AcDbLine
 10
-1273.819758746093
 20
1732.791655692982
 30
0.0
 11
-1273.819758746093
 21
1731.541651568985
 31
0.0
  0
LINE
  5
166A0
330
1A
100
AcDbEntity
  8
ZISSEN1
100
AcDbLine
 10
-1273.819758746093
 20
1732.791655692982
 30
0.0
 11
-1273.819758746093
 21
1731.541651568985
 31
0.0
  0
ARC
  5
166A1
330
1A
100
AcDbEntity
  8
ZISSEN1
100
AcDbCircle
 10
-1274.019764354728
 20
1727.741223333132
 30
0.0
 40
0.100000001288749
100
AcDbArc
 50
0.0000152587938296
 51
74.05456542969021
  0
LINE
  5
166A2
330
1A
100
AcDbEntity
  8
ZISSEN1
100
AcDbLine
 10
-1268.719727073795
 20
1721.064226741203
 30
0.0
 11
-1267.719723774598
 21
1721.064226741203
 31
0.0
  0
ARC
  5
166A3
330
1A
100
AcDbEntity
  8
ZISSEN1
100
AcDbCircle
 10
-1274.019764354728
 20
1721.692080547157
 30
0.0
 40
0.100000001288749
100
AcDbArc
 50
285.9454650878899
 51
0.0000152587938296
  0
LINE
  5
166A4
330
1A
100
AcDbEntity
  8
ZISSEN1
100
AcDbLine
 10
-1273.992286162425
 20
1721.595931618077
 30
0.0
 11
-1274.619768808645
 21
1721.416649094587
 31
0.0
  0
LINE
  5
166A5
330
1A
100
AcDbEntity
  8
ZISSEN1
100
AcDbLine
 10
-1273.992286162425
 20
1727.837372262212
 30
0.0
 11
-1274.619756436654
 21
1728.016648599707
 31
0.0
  0
LINE
  5
166A6
330
1A
100
AcDbEntity
  8
ZISSEN1
100
AcDbLine
 10
-1273.819758746093
 20
1720.116649754426
 30
0.0
 11
-1274.319760395691
 21
1720.116649754426
 31
0.0
  0
LINE
  5
166A7
330
1A
100
AcDbEntity
  8
ZISSEN1
100
AcDbLine
 10
-1274.319760395691
 20
1713.216654208343
 30
0.0
 11
-1274.319760395691
 21
1713.716649671946
 31
0.0
  0
LINE
  5
166A8
330
1A
100
AcDbEntity
  8
ZISSEN1
100
AcDbLine
 10
-1273.819758746093
 20
1713.716649671946
 30
0.0
 11
-1274.319760395691
 21
1713.716649671946
 31
0.0
  0
LINE
  5
166A9
330
1A
100
AcDbEntity
  8
ZISSEN1
100
AcDbLine
 10
-1273.819758746093
 20
1720.116649754426
 30
0.0
 11
-1273.819758746093
 21
1713.716649671946
 31
0.0
  0
LINE
  5
166AA
330
1A
100
AcDbEntity
  8
ZISSEN1
100
AcDbLine
 10
-1274.319760395691
 20
1720.616651404025
 30
0.0
 11
-1274.319760395691
 21
1720.116649754426
 31
0.0
  0
LINE
  5
166AB
330
1A
100
AcDbEntity
  8
ZISSEN1
100
AcDbLine
 10
-1248.219721300199
 20
1731.41664497059
 30
0.0
 11
-1240.319722454918
 21
1731.41664497059
 31
0.0
  0
LINE
  5
166AC
330
1A
100
AcDbEntity
  8
ZISSEN1
100
AcDbLine
 10
-1240.319722454918
 20
1731.41664497059
 30
0.0
 11
-1240.019726413955
 21
1731.41664497059
 31
0.0
  0
LINE
  5
166AD
330
1A
100
AcDbEntity
  8
ZISSEN1
100
AcDbLine
 10
-1247.619729218274
 20
1732.116646042829
 30
0.0
 11
-1241.11972014548
 21
1732.116646042829
 31
0.0
  0
LINE
  5
166AE
330
1A
100
AcDbEntity
  8
ZISSEN1
100
AcDbLine
 10
-1248.219721300199
 20
1730.016642826111
 30
0.0
 11
-1240.319722454918
 21
1730.016642826111
 31
0.0
  0
LINE
  5
166AF
330
1A
100
AcDbEntity
  8
ZISSEN1
100
AcDbLine
 10
-1240.319722454918
 20
1730.016642826111
 30
0.0
 11
-1240.019726413955
 21
1730.016642826111
 31
0.0
  0
LINE
  5
166B0
330
1A
100
AcDbEntity
  8
ZISSEN1
100
AcDbLine
 10
-1240.019726413955
 20
1728.466642661151
 30
0.0
 11
-1240.019726413955
 21
1730.016642826111
 31
0.0
  0
LINE
  5
166B1
330
1A
100
AcDbEntity
  8
ZISSEN1
100
AcDbLine
 10
-1247.619729218274
 20
1729.316641753872
 30
0.0
 11
-1241.11972014548
 21
1729.316641753872
 31
0.0
  0
LINE
  5
166B2
330
1A
100
AcDbEntity
  8
ZISSEN1
100
AcDbLine
 10
-1240.019726413955
 20
1731.41664497059
 30
0.0
 11
-1240.019726413955
 21
1732.966645135549
 31
0.0
  0
LINE
  5
166B3
330
1A
100
AcDbEntity
  8
ZISSEN1
100
AcDbLine
 10
-1247.619729218274
 20
1711.11664480563
 30
0.0
 11
-1241.11972014548
 21
1711.11664480563
 31
0.0
  0
LINE
  5
166B4
330
1A
100
AcDbEntity
  8
ZISSEN1
100
AcDbLine
 10
-1247.619729218274
 20
1711.11664480563
 30
0.0
 11
-1247.619729218274
 21
1729.316641753872
 31
0.0
  0
LINE
  5
166B5
330
1A
100
AcDbEntity
  8
ZISSEN1
100
AcDbLine
 10
-1241.11972014548
 20
1711.11664480563
 30
0.0
 11
-1241.11972014548
 21
1729.316641753872
 31
0.0
  0
LINE
  5
166B6
330
1A
100
AcDbEntity
  8
ZISSEN1
100
AcDbLine
 10
-1260.219723774598
 20
1785.141651486505
 30
0.0
 11
-1260.219723774598
 21
1783.891659734499
 31
0.0
  0
LINE
  5
166B7
330
1A
100
AcDbEntity
  8
ZISSEN1
100
AcDbLine
 10
-1260.219723774598
 20
1785.141651486505
 30
0.0
 11
-1261.319717506122
 21
1785.141651486505
 31
0.0
  0
LINE
  5
166B8
330
1A
100
AcDbEntity
  8
ZISSEN1
100
AcDbLine
 10
-1261.319717506122
 20
1785.141651486505
 30
0.0
 11
-1261.319717506122
 21
1783.891659734499
 31
0.0
  0
LINE
  5
166B9
330
1A
100
AcDbEntity
  8
ZISSEN1
100
AcDbLine
 10
-1261.319717506122
 20
1783.891659734499
 30
0.0
 11
-1260.219723774598
 21
1783.891659734499
 31
0.0
  0
LINE
  5
166BA
330
1A
100
AcDbEntity
  8
ZISSEN1
100
AcDbLine
 10
-1260.219723774598
 20
1785.141651486505
 30
0.0
 11
-1260.219723774598
 21
1783.891659734499
 31
0.0
  0
LINE
  5
166BB
330
1A
100
AcDbEntity
  8
ZISSEN1
100
AcDbLine
 10
-1260.219723774598
 20
1785.141651486505
 30
0.0
 11
-1261.319717506122
 21
1785.141651486505
 31
0.0
  0
LINE
  5
166BC
330
1A
100
AcDbEntity
  8
ZISSEN1
100
AcDbLine
 10
-1261.319717506122
 20
1785.141651486505
 30
0.0
 11
-1261.319717506122
 21
1783.891659734499
 31
0.0
  0
LINE
  5
166BD
330
1A
100
AcDbEntity
  8
ZISSEN1
100
AcDbLine
 10
-1261.319717506122
 20
1783.891659734499
 30
0.0
 11
-1260.219723774598
 21
1783.891659734499
 31
0.0
  0
LINE
  5
166BE
330
1A
100
AcDbEntity
  8
ZISSEN1
100
AcDbLine
 10
-1263.319724104517
 20
1781.716663693536
 30
0.0
 11
-1258.119726743875
 21
1781.716663693536
 31
0.0
  0
LINE
  5
166BF
330
1A
100
AcDbEntity
  8
ZISSEN1
100
AcDbLine
 10
-1268.719727073795
 20
1758.115271927014
 30
0.0
 11
-1260.219723774598
 21
1758.115271927014
 31
0.0
  0
LINE
  5
166C0
330
1A
100
AcDbEntity
  8
ZISSEN1
100
AcDbLine
 10
-1269.219716351403
 20
1762.100970730065
 30
0.0
 11
-1256.719724599397
 21
1762.100970730065
 31
0.0
  0
LINE
  5
166C1
330
1A
100
AcDbEntity
  8
ZISSEN1
100
AcDbLine
 10
-1262.149704903187
 20
1754.980394954094
 30
0.0
 11
-1262.749696985113
 21
1754.980394954094
 31
0.0
  0
LINE
  5
166C2
330
1A
100
AcDbEntity
  8
ZISSEN1
100
AcDbLine
 10
-1262.149704903187
 20
1757.560363380772
 30
0.0
 11
-1262.749696985113
 21
1757.560363380772
 31
0.0
  0
LINE
  5
166C3
330
1A
100
AcDbEntity
  8
ZISSEN1
100
AcDbLine
 10
-1262.149704903187
 20
1757.560363380772
 30
0.0
 11
-1262.149704903187
 21
1754.980394954094
 31
0.0
  0
LINE
  5
166C4
330
1A
100
AcDbEntity
  8
ZISSEN1
100
AcDbLine
 10
-1262.749696985113
 20
1753.78038604626
 30
0.0
 11
-1262.529710610799
 21
1753.78038604626
 31
0.0
  0
LINE
  5
166C5
330
1A
100
AcDbEntity
  8
ZISSEN1
100
AcDbLine
 10
-1262.529710610799
 20
1753.78038604626
 30
0.0
 11
-1262.529710610799
 21
1753.510404455783
 31
0.0
  0
LINE
  5
166C6
330
1A
100
AcDbEntity
  8
ZISSEN1
100
AcDbLine
 10
-1266.99968626272
 20
1754.980394954094
 30
0.0
 11
-1267.599690716637
 21
1754.980394954094
 31
0.0
  0
LINE
  5
166C7
330
1A
100
AcDbEntity
  8
ZISSEN1
100
AcDbLine
 10
-1266.99968626272
 20
1757.560363380772
 30
0.0
 11
-1267.599690716637
 21
1757.560363380772
 31
0.0
  0
LINE
  5
166C8
330
1A
100
AcDbEntity
  8
ZISSEN1
100
AcDbLine
 10
-1267.599690716637
 20
1757.560363380772
 30
0.0
 11
-1267.599690716637
 21
1754.980394954094
 31
0.0
  0
LINE
  5
166C9
330
1A
100
AcDbEntity
  8
ZISSEN1
100
AcDbLine
 10
-1267.219697381017
 20
1753.78038604626
 30
0.0
 11
-1266.99968626272
 21
1753.78038604626
 31
0.0
  0
LINE
  5
166CA
330
1A
100
AcDbEntity
  8
ZISSEN1
100
AcDbLine
 10
-1267.219697381017
 20
1753.78038604626
 30
0.0
 11
-1267.219697381017
 21
1753.510404455783
 31
0.0
  0
LINE
  5
166CB
330
1A
100
AcDbEntity
  8
ZISSEN1
100
AcDbLine
 10
-1262.474692366236
 20
1753.510367339809
 30
0.0
 11
-1267.274678509606
 21
1753.510367339809
 31
0.0
  0
LINE
  5
166CC
330
1A
100
AcDbEntity
  8
ZISSEN1
100
AcDbLine
 10
-1262.474692366236
 20
1751.258194818167
 30
0.0
 11
-1267.274678509606
 21
1751.258194818167
 31
0.0
  0
LINE
  5
166CD
330
1A
100
AcDbEntity
  8
ZISSEN1
100
AcDbLine
 10
-1262.474692366236
 20
1751.884279429389
 30
0.0
 11
-1267.274678509606
 21
1751.884279429389
 31
0.0
  0
LINE
  5
166CE
330
1A
100
AcDbEntity
  8
ZISSEN1
100
AcDbLine
 10
-1262.474692366236
 20
1752.510364040612
 30
0.0
 11
-1267.274678509606
 21
1752.510364040612
 31
0.0
  0
LINE
  5
166CF
330
1A
100
AcDbEntity
  8
ZISSEN1
100
AcDbLine
 10
-1260.219723774598
 20
1748.47317301047
 30
0.0
 11
-1261.519723114758
 21
1748.47317301047
 31
0.0
  0
LINE
  5
166D0
330
1A
100
AcDbEntity
  8
ZISSEN1
100
AcDbLine
 10
-1263.374692861116
 20
1748.510387959794
 30
0.0
 11
-1263.374692861116
 21
1748.910399177066
 31
0.0
  0
LINE
  5
166D1
330
1A
100
AcDbEntity
  8
ZISSEN1
100
AcDbLine
 10
-1262.474692366236
 20
1750.476272606648
 30
0.0
 11
-1261.519723114758
 21
1750.476272606648
 31
0.0
  0
LINE
  5
166D2
330
1A
100
AcDbEntity
  8
ZISSEN1
100
AcDbLine
 10
-1267.274678509606
 20
1750.485477368051
 30
0.0
 11
-1268.719727073795
 21
1750.485477368051
 31
0.0
  0
LINE
  5
166D3
330
1A
100
AcDbEntity
  8
ZISSEN1
100
AcDbLine
 10
-1266.374690386717
 20
1748.910399177066
 30
0.0
 11
-1266.374690386717
 21
1748.510387959794
 31
0.0
  0
LINE
  5
166D4
330
1A
100
AcDbEntity
  8
ZISSEN1
100
AcDbLine
 10
-1262.474692366236
 20
1748.910399177066
 30
0.0
 11
-1267.274678509606
 21
1748.910399177066
 31
0.0
  0
LINE
  5
166D5
330
1A
100
AcDbEntity
  8
ZISSEN1
100
AcDbLine
 10
-1263.374692861116
 20
1748.510387959794
 30
0.0
 11
-1266.374690386717
 21
1748.510387959794
 31
0.0
  0
LINE
  5
166D6
330
1A
100
AcDbEntity
  8
ZISSEN1
100
AcDbLine
 10
-1262.474692366236
 20
1749.379965728481
 30
0.0
 11
-1267.274678509606
 21
1749.379965728481
 31
0.0
  0
LINE
  5
166D7
330
1A
100
AcDbEntity
  8
ZISSEN1
100
AcDbLine
 10
-1262.474692366236
 20
1750.006050339704
 30
0.0
 11
-1267.274678509606
 21
1750.006050339704
 31
0.0
  0
LINE
  5
166D8
330
1A
100
AcDbEntity
  8
ZISSEN1
100
AcDbLine
 10
-1262.474692366236
 20
1750.632110206944
 30
0.0
 11
-1267.274678509606
 21
1750.632110206944
 31
0.0
  0
LINE
  5
166D9
330
1A
100
AcDbEntity
  8
ZISSEN1
100
AcDbLine
 10
-1262.474692366236
 20
1748.910399177066
 30
0.0
 11
-1262.474692366236
 21
1753.510367339809
 31
0.0
  0
LINE
  5
166DA
330
1A
100
AcDbEntity
  8
ZISSEN1
100
AcDbLine
 10
-1267.274678509606
 20
1753.510367339809
 30
0.0
 11
-1267.274678509606
 21
1748.910399177066
 31
0.0
  0
LINE
  5
166DB
330
1A
100
AcDbEntity
  8
ZISSEN1
100
AcDbLine
 10
-1262.749696985113
 20
1758.115271927014
 30
0.0
 11
-1262.749696985113
 21
1753.510404455783
 31
0.0
  0
LINE
  5
166DC
330
1A
100
AcDbEntity
  8
ZISSEN1
100
AcDbLine
 10
-1266.99968626272
 20
1758.115271927014
 30
0.0
 11
-1266.99968626272
 21
1753.510404455783
 31
0.0
  0
LINE
  5
166DD
330
1A
100
AcDbEntity
  8
ZISSEN1
100
AcDbLine
 10
-1273.819758746093
 20
1755.846657029157
 30
0.0
 11
-1273.819758746093
 21
1770.446658183876
 31
0.0
  0
LINE
  5
166DE
330
1A
100
AcDbEntity
  8
ZISSEN1
100
AcDbLine
 10
-1273.819758746093
 20
1755.846657029157
 30
0.0
 11
-1273.819758746093
 21
1770.446658183876
 31
0.0
  0
LINE
  5
166DF
330
1A
100
AcDbEntity
  8
ZISSEN1
100
AcDbLine
 10
-1247.519726413956
 20
1783.116641094032
 30
0.0
 11
-1250.019722289959
 21
1783.116641094032
 31
0.0
  0
LINE
  5
166E0
330
1A
100
AcDbEntity
  8
ZISSEN1
100
AcDbLine
 10
-1247.519726413956
 20
1779.81164924305
 30
0.0
 11
-1249.919719485641
 21
1779.81164924305
 31
0.0
  0
LINE
  5
166E1
330
1A
100
AcDbEntity
  8
ZISSEN1
100
AcDbLine
 10
-1247.519726413956
 20
1778.921645317005
 30
0.0
 11
-1249.919719485641
 21
1778.921645317005
 31
0.0
  0
LINE
  5
166E2
330
1A
100
AcDbEntity
  8
ZISSEN1
100
AcDbLine
 10
-1242.919721135239
 20
1772.921637893811
 30
0.0
 11
-1242.919721135239
 21
1772.421648616203
 31
0.0
  0
LINE
  5
166E3
330
1A
100
AcDbEntity
  8
ZISSEN1
100
AcDbLine
 10
-1242.41971948564
 20
1772.421648616203
 30
0.0
 11
-1242.919721135239
 21
1772.421648616203
 31
0.0
  0
LINE
  5
166E4
330
1A
100
AcDbEntity
  8
ZISSEN1
100
AcDbLine
 10
-1247.519726413956
 20
1775.616641094032
 30
0.0
 11
-1250.019722289959
 21
1775.616641094032
 31
0.0
  0
LINE
  5
166E5
330
1A
100
AcDbEntity
  8
ZISSEN1
100
AcDbLine
 10
-1247.519726413956
 20
1772.311649243051
 30
0.0
 11
-1249.919719485641
 21
1772.311649243051
 31
0.0
  0
LINE
  5
166E6
330
1A
100
AcDbEntity
  8
ZISSEN1
100
AcDbLine
 10
-1242.919721135239
 20
1772.921637893811
 30
0.0
 11
-1247.519726413956
 21
1772.921637893811
 31
0.0
  0
LINE
  5
166E7
330
1A
100
AcDbEntity
  8
ZISSEN1
100
AcDbLine
 10
-1247.519726413956
 20
1772.311649243051
 30
0.0
 11
-1247.519726413956
 21
1778.921645317005
 31
0.0
  0
LINE
  5
166E8
330
1A
100
AcDbEntity
  8
ZISSEN1
100
AcDbLine
 10
-1242.41971948564
 20
1766.021642347727
 30
0.0
 11
-1242.919721135239
 21
1766.021642347727
 31
0.0
  0
LINE
  5
166E9
330
1A
100
AcDbEntity
  8
ZISSEN1
100
AcDbLine
 10
-1242.919721135239
 20
1765.521640698128
 30
0.0
 11
-1242.919721135239
 21
1766.021642347727
 31
0.0
  0
LINE
  5
166EA
330
1A
100
AcDbEntity
  8
ZISSEN1
100
AcDbLine
 10
-1247.519726413956
 20
1762.821639213489
 30
0.0
 11
-1250.019722289959
 21
1762.821639213489
 31
0.0
  0
LINE
  5
166EB
330
1A
100
AcDbEntity
  8
ZISSEN1
100
AcDbLine
 10
-1247.519726413956
 20
1766.126643436463
 30
0.0
 11
-1249.919719485641
 21
1766.126643436463
 31
0.0
  0
LINE
  5
166EC
330
1A
100
AcDbEntity
  8
ZISSEN1
100
AcDbLine
 10
-1242.919721135239
 20
1765.521640698128
 30
0.0
 11
-1247.519726413956
 21
1765.521640698128
 31
0.0
  0
LINE
  5
166ED
330
1A
100
AcDbEntity
  8
ZISSEN1
100
AcDbLine
 10
-1247.519726413956
 20
1759.516647362508
 30
0.0
 11
-1249.919719485641
 21
1759.516647362508
 31
0.0
  0
LINE
  5
166EE
330
1A
100
AcDbEntity
  8
ZISSEN1
100
AcDbLine
 10
-1247.519726413956
 20
1758.626643436462
 30
0.0
 11
-1249.919719485641
 21
1758.626643436462
 31
0.0
  0
LINE
  5
166EF
330
1A
100
AcDbEntity
  8
ZISSEN1
100
AcDbLine
 10
-1247.519726413956
 20
1759.516647362508
 30
0.0
 11
-1247.519726413956
 21
1766.126643436463
 31
0.0
  0
LINE
  5
166F0
330
1A
100
AcDbEntity
  8
ZISSEN1
100
AcDbLine
 10
-1250.019722289959
 20
1766.021642347727
 30
0.0
 11
-1250.019722289959
 21
1772.421648616203
 31
0.0
  0
LINE
  5
166F1
330
1A
100
AcDbEntity
  8
ZISSEN1
100
AcDbLine
 10
-1242.41971948564
 20
1766.021642347727
 30
0.0
 11
-1242.41971948564
 21
1772.421648616203
 31
0.0
  0
CIRCLE
  5
166F2
330
1A
100
AcDbEntity
  8
ZISSEN1
100
AcDbCircle
 10
-1246.019721465159
 20
1769.221645481965
 30
0.0
 40
1.600000020619985
  0
LINE
  5
166F3
330
1A
100
AcDbEntity
  8
ZISSEN1
100
AcDbLine
 10
-1248.219721300199
 20
1751.01664406331
 30
0.0
 11
-1240.319722454918
 21
1751.01664406331
 31
0.0
  0
LINE
  5
166F4
330
1A
100
AcDbEntity
  8
ZISSEN1
100
AcDbLine
 10
-1240.319722454918
 20
1751.01664406331
 30
0.0
 11
-1240.019726413955
 21
1751.01664406331
 31
0.0
  0
LINE
  5
166F5
330
1A
100
AcDbEntity
  8
ZISSEN1
100
AcDbLine
 10
-1251.619717671082
 20
1751.01664406331
 30
0.0
 11
-1250.019722289959
 21
1751.01664406331
 31
0.0
  0
LINE
  5
166F6
330
1A
100
AcDbEntity
  8
ZISSEN1
100
AcDbLine
 10
-1247.519726413956
 20
1755.32163921349
 30
0.0
 11
-1250.019722289959
 21
1755.32163921349
 31
0.0
  0
LINE
  5
166F7
330
1A
100
AcDbEntity
  8
ZISSEN1
100
AcDbLine
 10
-1247.519726413956
 20
1752.016647362508
 30
0.0
 11
-1249.919719485641
 21
1752.016647362508
 31
0.0
  0
LINE
  5
166F8
330
1A
100
AcDbEntity
  8
ZISSEN1
100
AcDbLine
 10
-1247.619729218274
 20
1750.316649177067
 30
0.0
 11
-1241.11972014548
 21
1750.316649177067
 31
0.0
  0
LINE
  5
166F9
330
1A
100
AcDbEntity
  8
ZISSEN1
100
AcDbLine
 10
-1240.019726413955
 20
1749.46664389835
 30
0.0
 11
-1240.019726413955
 21
1751.01664406331
 31
0.0
  0
LINE
  5
166FA
330
1A
100
AcDbEntity
  8
ZISSEN1
100
AcDbLine
 10
-1238.419718660841
 20
1752.016647362508
 30
0.0
 11
-1240.019726413955
 21
1752.016647362508
 31
0.0
  0
LINE
  5
166FB
330
1A
100
AcDbEntity
  8
ZISSEN1
100
AcDbLine
 10
-1247.519726413956
 20
1752.016647362508
 30
0.0
 11
-1247.519726413956
 21
1758.626643436462
 31
0.0
  0
LINE
  5
166FC
330
1A
100
AcDbEntity
  8
ZISSEN1
100
AcDbLine
 10
-1228.619728393474
 20
1731.41664497059
 30
0.0
 11
-1228.619728393474
 21
1751.01664406331
 31
0.0
  0
LINE
  5
166FD
330
1A
100
AcDbEntity
  8
ZISSEN1
100
AcDbLine
 10
-1220.719717176202
 20
1731.41664497059
 30
0.0
 11
-1220.719717176202
 21
1751.01664406331
 31
0.0
  0
LINE
  5
166FE
330
1A
100
AcDbEntity
  8
ZISSEN1
100
AcDbLine
 10
-1228.019711567566
 20
1732.116646042829
 30
0.0
 11
-1228.019711567566
 21
1750.316649177067
 31
0.0
  0
LINE
  5
166FF
330
1A
100
AcDbEntity
  8
ZISSEN1
100
AcDbLine
 10
-1221.519714866764
 20
1732.116646042829
 30
0.0
 11
-1221.519714866764
 21
1750.316649177067
 31
0.0
  0
LINE
  5
16700
330
1A
100
AcDbEntity
  8
ZISSEN1
100
AcDbLine
 10
-1220.719717176202
 20
1731.41664497059
 30
0.0
 11
-1220.419721135239
 21
1731.41664497059
 31
0.0
  0
LINE
  5
16701
330
1A
100
AcDbEntity
  8
ZISSEN1
100
AcDbLine
 10
-1220.719717176202
 20
1730.016642826111
 30
0.0
 11
-1220.419721135239
 21
1730.016642826111
 31
0.0
  0
LINE
  5
16702
330
1A
100
AcDbEntity
  8
ZISSEN1
100
AcDbLine
 10
-1220.419721135239
 20
1728.466642661151
 30
0.0
 11
-1220.419721135239
 21
1730.016642826111
 31
0.0
  0
LINE
  5
16703
330
1A
100
AcDbEntity
  8
ZISSEN1
100
AcDbLine
 10
-1228.619728393474
 20
1731.41664497059
 30
0.0
 11
-1220.719717176202
 21
1731.41664497059
 31
0.0
  0
LINE
  5
16704
330
1A
100
AcDbEntity
  8
ZISSEN1
100
AcDbLine
 10
-1228.019711567566
 20
1732.116646042829
 30
0.0
 11
-1221.519714866764
 21
1732.116646042829
 31
0.0
  0
LINE
  5
16705
330
1A
100
AcDbEntity
  8
ZISSEN1
100
AcDbLine
 10
-1228.619728393474
 20
1730.016642826111
 30
0.0
 11
-1220.719717176202
 21
1730.016642826111
 31
0.0
  0
LINE
  5
16706
330
1A
100
AcDbEntity
  8
ZISSEN1
100
AcDbLine
 10
-1228.019711567566
 20
1729.316641753872
 30
0.0
 11
-1221.519714866764
 21
1729.316641753872
 31
0.0
  0
LINE
  5
16707
330
1A
100
AcDbEntity
  8
ZISSEN1
100
AcDbLine
 10
-1220.419721135239
 20
1731.41664497059
 30
0.0
 11
-1220.419721135239
 21
1732.966645135549
 31
0.0
  0
LINE
  5
16708
330
1A
100
AcDbEntity
  8
ZISSEN1
100
AcDbLine
 10
-1228.019711567566
 20
1711.11664480563
 30
0.0
 11
-1221.519714866764
 21
1711.11664480563
 31
0.0
  0
LINE
  5
16709
330
1A
100
AcDbEntity
  8
ZISSEN1
100
AcDbLine
 10
-1228.019711567566
 20
1711.11664480563
 30
0.0
 11
-1228.019711567566
 21
1729.316641753872
 31
0.0
  0
LINE
  5
1670A
330
1A
100
AcDbEntity
  8
ZISSEN1
100
AcDbLine
 10
-1221.519714866764
 20
1711.11664480563
 30
0.0
 11
-1221.519714866764
 21
1729.316641753872
 31
0.0
  0
LINE
  5
1670B
330
1A
100
AcDbEntity
  8
ZISSEN1
100
AcDbLine
 10
-1218.819725754116
 20
1752.016647362508
 30
0.0
 11
-1220.419721135239
 21
1752.016647362508
 31
0.0
  0
LINE
  5
1670C
330
1A
100
AcDbEntity
  8
ZISSEN1
100
AcDbLine
 10
-1220.419721135239
 20
1752.516649012107
 30
0.0
 11
-1218.319724104517
 21
1752.516649012107
 31
0.0
  0
LINE
  5
1670D
330
1A
100
AcDbEntity
  8
ZISSEN1
100
AcDbLine
 10
-1223.319715856523
 20
1772.921637893811
 30
0.0
 11
-1227.919721135239
 21
1772.921637893811
 31
0.0
  0
LINE
  5
1670E
330
1A
100
AcDbEntity
  8
ZISSEN1
100
AcDbLine
 10
-1223.319715856523
 20
1772.921637893811
 30
0.0
 11
-1223.319715856523
 21
1772.421648616203
 31
0.0
  0
LINE
  5
1670F
330
1A
100
AcDbEntity
  8
ZISSEN1
100
AcDbLine
 10
-1222.819714206924
 20
1772.421648616203
 30
0.0
 11
-1223.319715856523
 21
1772.421648616203
 31
0.0
  0
LINE
  5
16710
330
1A
100
AcDbEntity
  8
ZISSEN1
100
AcDbLine
 10
-1227.919721135239
 20
1772.311649243051
 30
0.0
 11
-1227.919721135239
 21
1778.921645317005
 31
0.0
  0
LINE
  5
16711
330
1A
100
AcDbEntity
  8
ZISSEN1
100
AcDbLine
 10
-1223.319715856523
 20
1765.521640698128
 30
0.0
 11
-1227.919721135239
 21
1765.521640698128
 31
0.0
  0
LINE
  5
16712
330
1A
100
AcDbEntity
  8
ZISSEN1
100
AcDbLine
 10
-1222.819714206924
 20
1766.021642347727
 30
0.0
 11
-1223.319715856523
 21
1766.021642347727
 31
0.0
  0
LINE
  5
16713
330
1A
100
AcDbEntity
  8
ZISSEN1
100
AcDbLine
 10
-1223.319715856523
 20
1765.521640698128
 30
0.0
 11
-1223.319715856523
 21
1766.021642347727
 31
0.0
  0
LINE
  5
16714
330
1A
100
AcDbEntity
  8
ZISSEN1
100
AcDbLine
 10
-1227.919721135239
 20
1759.516647362508
 30
0.0
 11
-1227.919721135239
 21
1766.126643436463
 31
0.0
  0
LINE
  5
16715
330
1A
100
AcDbEntity
  8
ZISSEN1
100
AcDbLine
 10
-1222.819714206924
 20
1766.021642347727
 30
0.0
 11
-1222.819714206924
 21
1772.421648616203
 31
0.0
  0
CIRCLE
  5
16716
330
1A
100
AcDbEntity
  8
ZISSEN1
100
AcDbCircle
 10
-1226.419716186443
 20
1769.221645481965
 30
0.0
 40
1.600000020619985
  0
LINE
  5
16717
330
1A
100
AcDbEntity
  8
ZISSEN1
100
AcDbLine
 10
-1220.719717176202
 20
1751.01664406331
 30
0.0
 11
-1220.419721135239
 21
1751.01664406331
 31
0.0
  0
LINE
  5
16718
330
1A
100
AcDbEntity
  8
ZISSEN1
100
AcDbLine
 10
-1228.619728393474
 20
1751.01664406331
 30
0.0
 11
-1220.719717176202
 21
1751.01664406331
 31
0.0
  0
LINE
  5
16719
330
1A
100
AcDbEntity
  8
ZISSEN1
100
AcDbLine
 10
-1228.019711567566
 20
1750.316649177067
 30
0.0
 11
-1221.519714866764
 21
1750.316649177067
 31
0.0
  0
LINE
  5
1671A
330
1A
100
AcDbEntity
  8
ZISSEN1
100
AcDbLine
 10
-1220.419721135239
 20
1749.46664389835
 30
0.0
 11
-1220.419721135239
 21
1751.01664406331
 31
0.0
  0
LINE
  5
1671B
330
1A
100
AcDbEntity
  8
ZISSEN1
100
AcDbLine
 10
-1227.919721135239
 20
1752.016647362508
 30
0.0
 11
-1227.919721135239
 21
1758.626643436462
 31
0.0
  0
LINE
  5
1671C
330
1A
100
AcDbEntity
  8
ZISSEN1
100
AcDbLine
 10
-1230.419729383233
 20
1766.021642347727
 30
0.0
 11
-1230.419729383233
 21
1772.421648616203
 31
0.0
  0
LINE
  5
1671D
330
1A
100
AcDbEntity
  8
ZISSEN1
100
AcDbLine
 10
-1232.019724764357
 20
1751.01664406331
 30
0.0
 11
-1230.419729383233
 21
1751.01664406331
 31
0.0
  0
LINE
  5
1671E
330
1A
100
AcDbEntity
  8
ZISSEN1
100
AcDbLine
 10
-1227.919721135239
 20
1783.116641094032
 30
0.0
 11
-1230.419729383233
 21
1783.116641094032
 31
0.0
  0
LINE
  5
1671F
330
1A
100
AcDbEntity
  8
ZISSEN1
100
AcDbLine
 10
-1227.919721135239
 20
1779.81164924305
 30
0.0
 11
-1230.319714206924
 21
1779.81164924305
 31
0.0
  0
LINE
  5
16720
330
1A
100
AcDbEntity
  8
ZISSEN1
100
AcDbLine
 10
-1227.919721135239
 20
1778.921645317005
 30
0.0
 11
-1230.319714206924
 21
1778.921645317005
 31
0.0
  0
LINE
  5
16721
330
1A
100
AcDbEntity
  8
ZISSEN1
100
AcDbLine
 10
-1227.919721135239
 20
1775.616641094032
 30
0.0
 11
-1230.419729383233
 21
1775.616641094032
 31
0.0
  0
LINE
  5
16722
330
1A
100
AcDbEntity
  8
ZISSEN1
100
AcDbLine
 10
-1227.919721135239
 20
1772.311649243051
 30
0.0
 11
-1230.319714206924
 21
1772.311649243051
 31
0.0
  0
LINE
  5
16723
330
1A
100
AcDbEntity
  8
ZISSEN1
100
AcDbLine
 10
-1227.919721135239
 20
1762.821639213489
 30
0.0
 11
-1230.419729383233
 21
1762.821639213489
 31
0.0
  0
LINE
  5
16724
330
1A
100
AcDbEntity
  8
ZISSEN1
100
AcDbLine
 10
-1227.919721135239
 20
1766.126643436463
 30
0.0
 11
-1230.319714206924
 21
1766.126643436463
 31
0.0
  0
LINE
  5
16725
330
1A
100
AcDbEntity
  8
ZISSEN1
100
AcDbLine
 10
-1227.919721135239
 20
1759.516647362508
 30
0.0
 11
-1230.319714206924
 21
1759.516647362508
 31
0.0
  0
LINE
  5
16726
330
1A
100
AcDbEntity
  8
ZISSEN1
100
AcDbLine
 10
-1227.919721135239
 20
1755.32163921349
 30
0.0
 11
-1230.419729383233
 21
1755.32163921349
 31
0.0
  0
LINE
  5
16727
330
1A
100
AcDbEntity
  8
ZISSEN1
100
AcDbLine
 10
-1227.919721135239
 20
1752.016647362508
 30
0.0
 11
-1230.319714206924
 21
1752.016647362508
 31
0.0
  0
LINE
  5
16728
330
1A
100
AcDbEntity
  8
ZISSEN1
100
AcDbLine
 10
-1227.919721135239
 20
1758.626643436462
 30
0.0
 11
-1230.319714206924
 21
1758.626643436462
 31
0.0
  0
LINE
  5
16729
330
1A
100
AcDbEntity
  8
ZISSEN1
100
AcDbLine
 10
-1238.819717506122
 20
1804.216638949554
 30
0.0
 11
-1228.369715196683
 21
1804.216638949554
 31
0.0
  0
LINE
  5
1672A
330
1A
100
AcDbEntity
  8
ZISSEN1
100
AcDbLine
 10
-1260.519732187551
 20
1817.40796261911
 30
0.0
 11
-1260.519732187551
 21
1826.89796027668
 31
0.0
  0
LINE
  5
1672B
330
1A
100
AcDbEntity
  8
ZISSEN1
100
AcDbLine
 10
-1268.519721465159
 20
1817.40796261911
 30
0.0
 11
-1268.519721465159
 21
1826.89796027668
 31
0.0
  0
LINE
  5
1672C
330
1A
100
AcDbEntity
  8
CL1
100
AcDbLine
 10
-1271.619709423088
 20
1802.982815598845
 30
0.0
 11
-1271.619709423088
 21
1796.079585409019
 31
0.0
  0
LINE
  5
1672D
330
1A
100
AcDbEntity
  8
CL1
100
AcDbLine
 10
-1271.619709423088
 20
1802.982815598845
 30
0.0
 11
-1271.619709423088
 21
1797.716642248752
 31
0.0
  0
LINE
  5
1672E
330
1A
100
AcDbEntity
  8
ZISSEN1
100
AcDbLine
 10
-1264.219712227406
 20
1803.216697510312
 30
0.0
 11
-1264.219712227406
 21
1801.446636739091
 31
0.0
  0
LINE
  5
1672F
330
1A
100
AcDbEntity
  8
ZISSEN1
100
AcDbLine
 10
-1268.519721465159
 20
1817.40796261911
 30
0.0
 11
-1260.519732187551
 21
1817.40796261911
 31
0.0
  0
LINE
  5
16730
330
1A
100
AcDbEntity
  8
ZISSEN1
100
AcDbLine
 10
-1260.219723774598
 20
1801.446636739091
 30
0.0
 11
-1260.219723774598
 21
1797.716642248752
 31
0.0
  0
LINE
  5
16731
330
1A
100
AcDbEntity
  8
ZISSEN1
100
AcDbLine
 10
-1265.219703154612
 20
1804.21670080951
 30
0.0
 11
-1264.219712227406
 21
1803.216697510312
 31
0.0
  0
LINE
  5
16732
330
1A
100
AcDbEntity
  8
ZISSEN1
100
AcDbLine
 10
-1267.519718165962
 20
1797.716642248752
 30
0.0
 11
-1267.519718165962
 21
1801.446636739091
 31
0.0
  0
LINE
  5
16733
330
1A
100
AcDbEntity
  8
ZISSEN1
100
AcDbLine
 10
-1273.369702824693
 20
1804.21670080951
 30
0.0
 11
-1273.369702824693
 21
1800.21669998471
 31
0.0
  0
LINE
  5
16734
330
1A
100
AcDbEntity
  8
ZISSEN1
100
AcDbLine
 10
-1269.869703649492
 20
1804.21670080951
 30
0.0
 11
-1269.869703649492
 21
1800.21669998471
 31
0.0
  0
ARC
  5
16735
330
1A
100
AcDbEntity
  8
ZISSEN1
100
AcDbCircle
 10
-1271.619709423088
 20
1800.21669998471
 30
0.0
 40
1.749999974225018
100
AcDbArc
 50
180.0
 51
359.9999847412061
  0
LINE
  5
16736
330
1A
100
AcDbEntity
  8
ZISSEN1
100
AcDbLine
 10
-1260.219723774598
 20
1801.446636739091
 30
0.0
 11
-1267.519718165962
 21
1801.446636739091
 31
0.0
  0
LINE
  5
16737
330
1A
100
AcDbEntity
  8
ZISSEN1
100
AcDbLine
 10
-1265.219703154612
 20
1804.21670080951
 30
0.0
 11
-1269.869703649492
 21
1804.21670080951
 31
0.0
  0
LINE
  5
16738
330
1A
100
AcDbEntity
  8
ZISSEN1
100
AcDbLine
 10
-1260.219723774598
 20
1789.141652311304
 30
0.0
 11
-1260.219723774598
 21
1787.891660559298
 31
0.0
  0
LINE
  5
16739
330
1A
100
AcDbEntity
  8
ZISSEN1
100
AcDbLine
 10
-1260.219723774598
 20
1789.141652311304
 30
0.0
 11
-1261.319717506122
 21
1789.141652311304
 31
0.0
  0
LINE
  5
1673A
330
1A
100
AcDbEntity
  8
ZISSEN1
100
AcDbLine
 10
-1261.319717506122
 20
1789.141652311304
 30
0.0
 11
-1261.319717506122
 21
1787.891660559298
 31
0.0
  0
LINE
  5
1673B
330
1A
100
AcDbEntity
  8
ZISSEN1
100
AcDbLine
 10
-1261.319717506122
 20
1787.891660559298
 30
0.0
 11
-1260.219723774598
 21
1787.891660559298
 31
0.0
  0
LINE
  5
1673C
330
1A
100
AcDbEntity
  8
ZISSEN1
100
AcDbLine
 10
-1260.219723774598
 20
1789.141652311304
 30
0.0
 11
-1260.219723774598
 21
1787.891660559298
 31
0.0
  0
LINE
  5
1673D
330
1A
100
AcDbEntity
  8
ZISSEN1
100
AcDbLine
 10
-1260.219723774598
 20
1789.141652311304
 30
0.0
 11
-1261.319717506122
 21
1789.141652311304
 31
0.0
  0
LINE
  5
1673E
330
1A
100
AcDbEntity
  8
ZISSEN1
100
AcDbLine
 10
-1261.319717506122
 20
1789.141652311304
 30
0.0
 11
-1261.319717506122
 21
1787.891660559298
 31
0.0
  0
LINE
  5
1673F
330
1A
100
AcDbEntity
  8
ZISSEN1
100
AcDbLine
 10
-1261.319717506122
 20
1787.891660559298
 30
0.0
 11
-1260.219723774598
 21
1787.891660559298
 31
0.0
  0
LINE
  5
16740
330
1A
100
AcDbEntity
  8
ZISSEN1
100
AcDbLine
 10
-1260.219723774598
 20
1791.141658909699
 30
0.0
 11
-1260.219723774598
 21
1789.891654785703
 31
0.0
  0
LINE
  5
16741
330
1A
100
AcDbEntity
  8
ZISSEN1
100
AcDbLine
 10
-1261.319717506122
 20
1789.891654785703
 30
0.0
 11
-1260.219723774598
 21
1789.891654785703
 31
0.0
  0
LINE
  5
16742
330
1A
100
AcDbEntity
  8
ZISSEN1
100
AcDbLine
 10
-1261.319717506122
 20
1791.141658909699
 30
0.0
 11
-1261.319717506122
 21
1789.891654785703
 31
0.0
  0
LINE
  5
16743
330
1A
100
AcDbEntity
  8
ZISSEN1
100
AcDbLine
 10
-1260.219723774598
 20
1791.141658909699
 30
0.0
 11
-1261.319717506122
 21
1791.141658909699
 31
0.0
  0
LINE
  5
16744
330
1A
100
AcDbEntity
  8
ZISSEN1
100
AcDbLine
 10
-1258.119726743875
 20
1793.316642578671
 30
0.0
 11
-1263.319724104517
 21
1793.316642578671
 31
0.0
  0
LINE
  5
16745
330
1A
100
AcDbEntity
  8
ZISSEN1
100
AcDbLine
 10
-1260.219723774598
 20
1787.1416580849
 30
0.0
 11
-1260.219723774598
 21
1785.891653960903
 31
0.0
  0
LINE
  5
16746
330
1A
100
AcDbEntity
  8
ZISSEN1
100
AcDbLine
 10
-1260.219723774598
 20
1787.1416580849
 30
0.0
 11
-1261.319717506122
 21
1787.1416580849
 31
0.0
  0
LINE
  5
16747
330
1A
100
AcDbEntity
  8
ZISSEN1
100
AcDbLine
 10
-1261.319717506122
 20
1787.1416580849
 30
0.0
 11
-1261.319717506122
 21
1785.891653960903
 31
0.0
  0
LINE
  5
16748
330
1A
100
AcDbEntity
  8
ZISSEN1
100
AcDbLine
 10
-1261.319717506122
 20
1785.891653960903
 30
0.0
 11
-1260.219723774598
 21
1785.891653960903
 31
0.0
  0
LINE
  5
16749
330
1A
100
AcDbEntity
  8
ZISSEN1
100
AcDbLine
 10
-1260.219723774598
 20
1787.1416580849
 30
0.0
 11
-1260.219723774598
 21
1785.891653960903
 31
0.0
  0
LINE
  5
1674A
330
1A
100
AcDbEntity
  8
ZISSEN1
100
AcDbLine
 10
-1260.219723774598
 20
1787.1416580849
 30
0.0
 11
-1261.319717506122
 21
1787.1416580849
 31
0.0
  0
LINE
  5
1674B
330
1A
100
AcDbEntity
  8
ZISSEN1
100
AcDbLine
 10
-1261.319717506122
 20
1787.1416580849
 30
0.0
 11
-1261.319717506122
 21
1785.891653960903
 31
0.0
  0
LINE
  5
1674C
330
1A
100
AcDbEntity
  8
ZISSEN1
100
AcDbLine
 10
-1261.319717506122
 20
1785.891653960903
 30
0.0
 11
-1260.219723774598
 21
1785.891653960903
 31
0.0
  0
LINE
  5
1674D
330
1A
100
AcDbEntity
  8
ZISSEN1
100
AcDbLine
 10
-1239.81972080532
 20
1803.216648022347
 30
0.0
 11
-1239.81972080532
 21
1797.716642248752
 31
0.0
  0
LINE
  5
1674E
330
1A
100
AcDbEntity
  8
ZISSEN1
100
AcDbLine
 10
-1238.819717506122
 20
1804.216638949554
 30
0.0
 11
-1239.81972080532
 21
1803.216648022347
 31
0.0
  0
LINE
  5
1674F
330
1A
100
AcDbEntity
  8
ZISSEN1
100
AcDbLine
 10
-1242.919721135239
 20
1793.216639774353
 30
0.0
 11
-1242.919721135239
 21
1792.716638124755
 31
0.0
  0
LINE
  5
16750
330
1A
100
AcDbEntity
  8
ZISSEN1
100
AcDbLine
 10
-1242.41971948564
 20
1792.716638124755
 30
0.0
 11
-1242.919721135239
 21
1792.716638124755
 31
0.0
  0
CIRCLE
  5
16751
330
1A
100
AcDbEntity
  8
ZISSEN1
100
AcDbCircle
 10
-1246.019721465159
 20
1789.516647362508
 30
0.0
 40
1.600000020619985
  0
LINE
  5
16752
330
1A
100
AcDbEntity
  8
ZISSEN1
100
AcDbLine
 10
-1249.51972064036
 20
1793.216639774353
 30
0.0
 11
-1249.51972064036
 21
1792.716638124755
 31
0.0
  0
LINE
  5
16753
330
1A
100
AcDbEntity
  8
ZISSEN1
100
AcDbLine
 10
-1250.019722289959
 20
1792.716638124755
 30
0.0
 11
-1249.51972064036
 21
1792.716638124755
 31
0.0
  0
LINE
  5
16754
330
1A
100
AcDbEntity
  8
ZISSEN1
100
AcDbLine
 10
-1242.919721135239
 20
1793.216639774353
 30
0.0
 11
-1249.51972064036
 21
1793.216639774353
 31
0.0
  0
LINE
  5
16755
330
1A
100
AcDbEntity
  8
ZISSEN1
100
AcDbLine
 10
-1242.41971948564
 20
1786.31664422827
 30
0.0
 11
-1242.919721135239
 21
1786.31664422827
 31
0.0
  0
LINE
  5
16756
330
1A
100
AcDbEntity
  8
ZISSEN1
100
AcDbLine
 10
-1242.919721135239
 20
1785.816642578671
 30
0.0
 11
-1242.919721135239
 21
1786.31664422827
 31
0.0
  0
LINE
  5
16757
330
1A
100
AcDbEntity
  8
ZISSEN1
100
AcDbLine
 10
-1242.919721135239
 20
1785.816642578671
 30
0.0
 11
-1247.519726413956
 21
1785.816642578671
 31
0.0
  0
LINE
  5
16758
330
1A
100
AcDbEntity
  8
ZISSEN1
100
AcDbLine
 10
-1247.519726413956
 20
1786.421645317005
 30
0.0
 11
-1249.919719485641
 21
1786.421645317005
 31
0.0
  0
LINE
  5
16759
330
1A
100
AcDbEntity
  8
ZISSEN1
100
AcDbLine
 10
-1250.019722289959
 20
1786.31664422827
 30
0.0
 11
-1250.019722289959
 21
1792.716638124755
 31
0.0
  0
LINE
  5
1675A
330
1A
100
AcDbEntity
  8
ZISSEN1
100
AcDbLine
 10
-1242.41971948564
 20
1786.31664422827
 30
0.0
 11
-1242.41971948564
 21
1792.716638124755
 31
0.0
  0
LINE
  5
1675B
330
1A
100
AcDbEntity
  8
ZISSEN1
100
AcDbLine
 10
-1252.419727733635
 20
1789.746642677647
 30
0.0
 11
-1252.419727733635
 21
1788.49663855365
 31
0.0
  0
LINE
  5
1675C
330
1A
100
AcDbEntity
  8
ZISSEN1
100
AcDbLine
 10
-1252.419727733635
 20
1791.746649276042
 30
0.0
 11
-1252.419727733635
 21
1790.496645152045
 31
0.0
  0
LINE
  5
1675D
330
1A
100
AcDbEntity
  8
ZISSEN1
100
AcDbLine
 10
-1252.419727733635
 20
1786.416647032588
 30
0.0
 11
-1254.019723114758
 21
1786.416647032588
 31
0.0
  0
LINE
  5
1675E
330
1A
100
AcDbEntity
  8
ZISSEN1
100
AcDbLine
 10
-1254.019723114758
 20
1786.416647032588
 30
0.0
 11
-1254.019723114758
 21
1793.916647032588
 31
0.0
  0
LINE
  5
1675F
330
1A
100
AcDbEntity
  8
ZISSEN1
100
AcDbLine
 10
-1252.419727733635
 20
1789.746642677647
 30
0.0
 11
-1251.619717671082
 21
1789.746642677647
 31
0.0
  0
LINE
  5
16760
330
1A
100
AcDbEntity
  8
ZISSEN1
100
AcDbLine
 10
-1252.419727733635
 20
1788.49663855365
 30
0.0
 11
-1251.619717671082
 21
1788.49663855365
 31
0.0
  0
LINE
  5
16761
330
1A
100
AcDbEntity
  8
ZISSEN1
100
AcDbLine
 10
-1252.419727733635
 20
1791.746649276042
 30
0.0
 11
-1251.619717671082
 21
1791.746649276042
 31
0.0
  0
LINE
  5
16762
330
1A
100
AcDbEntity
  8
ZISSEN1
100
AcDbLine
 10
-1252.419727733635
 20
1790.496645152045
 30
0.0
 11
-1251.619717671082
 21
1790.496645152045
 31
0.0
  0
LINE
  5
16763
330
1A
100
AcDbEntity
  8
ZISSEN1
100
AcDbLine
 10
-1254.019723114758
 20
1793.916647032588
 30
0.0
 11
-1240.019726413955
 21
1793.916647032588
 31
0.0
  0
LINE
  5
16764
330
1A
100
AcDbEntity
  8
ZISSEN1
100
AcDbLine
 10
-1260.219723774598
 20
1853.662684595726
 30
0.0
 11
-1267.519718165962
 21
1853.662684595726
 31
0.0
  0
LINE
  5
16765
330
1A
100
AcDbEntity
  8
ZISSEN1
100
AcDbLine
 10
-1260.219723774598
 20
1854.162686245325
 30
0.0
 11
-1267.519718165962
 21
1854.162686245325
 31
0.0
  0
LINE
  5
16766
330
1A
100
AcDbEntity
  8
ZISSEN1
100
AcDbLine
 10
-1256.719724599397
 20
1851.962698782276
 30
0.0
 11
-1268.01971981556
 21
1851.962698782276
 31
0.0
  0
LINE
  5
16767
330
1A
100
AcDbEntity
  8
ZISSEN1
100
AcDbLine
 10
-1263.119730867872
 20
1826.89796027668
 30
0.0
 11
-1260.519732187551
 21
1826.89796027668
 31
0.0
  0
LINE
  5
16768
330
1A
100
AcDbEntity
  8
ZISSEN1
100
AcDbLine
 10
-1260.219216522961
 20
1827.708461787713
 30
0.0
 11
-1260.519224935915
 21
1827.708461787713
 31
0.0
  0
LINE
  5
16769
330
1A
100
AcDbEntity
  8
ZISSEN1
100
AcDbLine
 10
-1263.119730867872
 20
1829.09796011172
 30
0.0
 11
-1263.019220811918
 21
1829.09796011172
 31
0.0
  0
LINE
  5
1676A
330
1A
100
AcDbEntity
  8
ZISSEN1
100
AcDbLine
 10
-1263.119730867872
 20
1828.055459022985
 30
0.0
 11
-1263.019220811918
 21
1828.055459022985
 31
0.0
  0
LINE
  5
1676B
330
1A
100
AcDbEntity
  8
ZISSEN1
100
AcDbLine
 10
-1263.119730867872
 20
1827.955456218667
 30
0.0
 11
-1263.019220811918
 21
1827.955456218667
 31
0.0
  0
LINE
  5
1676C
330
1A
100
AcDbEntity
  8
ZISSEN1
100
AcDbLine
 10
-1263.119730867872
 20
1829.175965515806
 30
0.0
 11
-1263.019220811918
 21
1829.175965515806
 31
0.0
  0
LINE
  5
1676D
330
1A
100
AcDbEntity
  8
ZISSEN1
100
AcDbLine
 10
-1263.119730867872
 20
1829.897957802282
 30
0.0
 11
-1263.030726763671
 21
1829.897957802282
 31
0.0
  0
LINE
  5
1676E
330
1A
100
AcDbEntity
  8
ZISSEN1
100
AcDbLine
 10
-1260.519224935915
 20
1827.408453374759
 30
0.0
 11
-1263.019220811918
 21
1827.408453374759
 31
0.0
  0
LINE
  5
1676F
330
1A
100
AcDbEntity
  8
ZISSEN1
100
AcDbLine
 10
-1260.519224935915
 20
1827.408453374759
 30
0.0
 11
-1263.119223616236
 21
1827.408453374759
 31
0.0
  0
LINE
  5
16770
330
1A
100
AcDbEntity
  8
ZISSEN1
100
AcDbLine
 10
-1258.619728393474
 20
1830.062690864201
 30
0.0
 11
-1260.219723774598
 21
1830.062690864201
 31
0.0
  0
LINE
  5
16771
330
1A
100
AcDbEntity
  8
ZISSEN1
100
AcDbLine
 10
-1268.519721465159
 20
1826.89796027668
 30
0.0
 11
-1265.919722784838
 21
1826.89796027668
 31
0.0
  0
LINE
  5
16772
330
1A
100
AcDbEntity
  8
ZISSEN1
100
AcDbLine
 10
-1265.919227905193
 20
1827.408453374759
 30
0.0
 11
-1266.289224671979
 21
1827.408453374759
 31
0.0
  0
LINE
  5
16773
330
1A
100
AcDbEntity
  8
ZISSEN1
100
AcDbLine
 10
-1266.01921833752
 20
1829.09796011172
 30
0.0
 11
-1265.919722784838
 21
1829.09796011172
 31
0.0
  0
LINE
  5
16774
330
1A
100
AcDbEntity
  8
ZISSEN1
100
AcDbLine
 10
-1266.01921833752
 20
1828.055459022985
 30
0.0
 11
-1265.919722784838
 21
1828.055459022985
 31
0.0
  0
LINE
  5
16775
330
1A
100
AcDbEntity
  8
ZISSEN1
100
AcDbLine
 10
-1266.01921833752
 20
1827.955456218667
 30
0.0
 11
-1265.919722784838
 21
1827.955456218667
 31
0.0
  0
LINE
  5
16776
330
1A
100
AcDbEntity
  8
ZISSEN1
100
AcDbLine
 10
-1266.01921833752
 20
1829.175965515806
 30
0.0
 11
-1265.919722784838
 21
1829.175965515806
 31
0.0
  0
LINE
  5
16777
330
1A
100
AcDbEntity
  8
ZISSEN1
100
AcDbLine
 10
-1266.01921833752
 20
1829.897957802282
 30
0.0
 11
-1265.919722784838
 21
1829.897957802282
 31
0.0
  0
LINE
  5
16778
330
1A
100
AcDbEntity
  8
ZISSEN1
100
AcDbLine
 10
-1268.519238957505
 20
1830.818458686467
 30
0.0
 11
-1268.719219822159
 21
1830.818458686467
 31
0.0
  0
LINE
  5
16779
330
1A
100
AcDbEntity
  8
ZISSEN1
100
AcDbLine
 10
-1266.01921833752
 20
1827.408453374759
 30
0.0
 11
-1268.519238957505
 21
1827.408453374759
 31
0.0
  0
LINE
  5
1677A
330
1A
100
AcDbEntity
  8
ZISSEN1
100
AcDbLine
 10
-1273.819746374101
 20
1830.062703236192
 30
0.0
 11
-1272.219750992978
 21
1830.062703236192
 31
0.0
  0
LINE
  5
1677B
330
1A
100
AcDbEntity
  8
ZISSEN1
100
AcDbLine
 10
-1258.619728393474
 20
1833.262693998439
 30
0.0
 11
-1258.619728393474
 21
1830.062690864201
 31
0.0
  0
LINE
  5
1677C
330
1A
100
AcDbEntity
  8
ZISSEN1
100
AcDbLine
 10
-1258.619728393474
 20
1833.262693998439
 30
0.0
 11
-1258.619728393474
 21
1830.062690864201
 31
0.0
  0
LINE
  5
1677D
330
1A
100
AcDbEntity
  8
ZISSEN1
100
AcDbLine
 10
-1260.219674286633
 20
1833.262693998439
 30
0.0
 11
-1260.219216522961
 21
1827.708461787713
 31
0.0
  0
LINE
  5
1677E
330
1A
100
AcDbEntity
  8
ZISSEN1
100
AcDbLine
 10
-1260.419679895269
 20
1833.262693998439
 30
0.0
 11
-1260.419234503588
 21
1827.708474159704
 31
0.0
  0
LINE
  5
1677F
330
1A
100
AcDbEntity
  8
ZISSEN1
100
AcDbLine
 10
-1263.119730867872
 20
1826.89796027668
 30
0.0
 11
-1263.119730867872
 21
1833.262693998439
 31
0.0
  0
LINE
  5
16780
330
1A
100
AcDbEntity
  8
ZISSEN1
100
AcDbLine
 10
-1260.519484747729
 20
1833.262693998439
 30
0.0
 11
-1260.519237307906
 21
1827.408453374759
 31
0.0
  0
LINE
  5
16781
330
1A
100
AcDbEntity
  8
ZISSEN1
100
AcDbLine
 10
-1263.019220811918
 20
1827.408453374759
 30
0.0
 11
-1263.019220811918
 21
1833.262693998439
 31
0.0
  0
LINE
  5
16782
330
1A
100
AcDbEntity
  8
ZISSEN1
100
AcDbLine
 10
-1260.519732187551
 20
1833.262693998439
 30
0.0
 11
-1260.519732187551
 21
1830.818965938103
 31
0.0
  0
LINE
  5
16783
330
1A
100
AcDbEntity
  8
ZISSEN1
100
AcDbLine
 10
-1268.719219822159
 20
1833.262693998439
 30
0.0
 11
-1268.719219822159
 21
1830.818458686467
 31
0.0
  0
LINE
  5
16784
330
1A
100
AcDbEntity
  8
ZISSEN1
100
AcDbLine
 10
-1265.919722784838
 20
1826.89796027668
 30
0.0
 11
-1265.919722784838
 21
1833.262693998439
 31
0.0
  0
LINE
  5
16785
330
1A
100
AcDbEntity
  8
ZISSEN1
100
AcDbLine
 10
-1268.519238957505
 20
1833.262693998439
 30
0.0
 11
-1268.519238957505
 21
1827.408453374759
 31
0.0
  0
LINE
  5
16786
330
1A
100
AcDbEntity
  8
ZISSEN1
100
AcDbLine
 10
-1266.01921833752
 20
1827.408453374759
 30
0.0
 11
-1266.01921833752
 21
1833.262693998439
 31
0.0
  0
LINE
  5
16787
330
1A
100
AcDbEntity
  8
ZISSEN1
100
AcDbLine
 10
-1272.219750992978
 20
1830.062703236192
 30
0.0
 11
-1272.219750992978
 21
1833.262693998439
 31
0.0
  0
LINE
  5
16788
330
1A
100
AcDbEntity
  8
ZISSEN1
100
AcDbLine
 10
-1273.819746374101
 20
1833.262693998439
 30
0.0
 11
-1273.819746374101
 21
1830.062703236192
 31
0.0
  0
LINE
  5
16789
330
1A
100
AcDbEntity
  8
ZISSEN1
100
AcDbLine
 10
-1250.519723939557
 20
1859.712687235084
 30
0.0
 11
-1240.019726413955
 21
1859.712687235084
 31
0.0
  0
LINE
  5
1678A
330
1A
100
AcDbEntity
  8
ZISSEN1
100
AcDbLine
 10
-1248.219721300199
 20
1829.062699936995
 30
0.0
 11
-1240.319722454918
 21
1829.062699936995
 31
0.0
  0
LINE
  5
1678B
330
1A
100
AcDbEntity
  8
ZISSEN1
100
AcDbLine
 10
-1240.319722454918
 20
1831.062694163399
 30
0.0
 11
-1240.019726413955
 21
1831.062694163399
 31
0.0
  0
LINE
  5
1678C
330
1A
100
AcDbEntity
  8
ZISSEN1
100
AcDbLine
 10
-1240.319722454918
 20
1829.062699936995
 30
0.0
 11
-1240.319722454918
 21
1831.062694163399
 31
0.0
  0
LINE
  5
1678D
330
1A
100
AcDbEntity
  8
ZISSEN1
100
AcDbLine
 10
-1248.219721300199
 20
1829.062699936995
 30
0.0
 11
-1248.219721300199
 21
1830.502700728803
 31
0.0
  0
LINE
  5
1678E
330
1A
100
AcDbEntity
  8
ZISSEN1
100
AcDbLine
 10
-1250.019722289959
 20
1827.862691029161
 30
0.0
 11
-1251.619717671082
 21
1827.862691029161
 31
0.0
  0
LINE
  5
1678F
330
1A
100
AcDbEntity
  8
ZISSEN1
100
AcDbLine
 10
-1250.019722289959
 20
1827.862691029161
 30
0.0
 11
-1251.619717671082
 21
1827.862691029161
 31
0.0
  0
LINE
  5
16790
330
1A
100
AcDbEntity
  8
ZISSEN1
100
AcDbLine
 10
-1249.019718990761
 20
1830.502700728803
 30
0.0
 11
-1249.019718990761
 21
1830.402697924484
 31
0.0
  0
LINE
  5
16791
330
1A
100
AcDbEntity
  8
ZISSEN1
100
AcDbLine
 10
-1249.019718990761
 20
1830.402697924484
 30
0.0
 11
-1250.019722289959
 21
1830.402697924484
 31
0.0
  0
LINE
  5
16792
330
1A
100
AcDbEntity
  8
ZISSEN1
100
AcDbLine
 10
-1250.019722289959
 20
1830.402697924484
 30
0.0
 11
-1250.019722289959
 21
1831.302698419364
 31
0.0
  0
LINE
  5
16793
330
1A
100
AcDbEntity
  8
ZISSEN1
100
AcDbLine
 10
-1248.454727271747
 20
1830.502700728803
 30
0.0
 11
-1248.219721300199
 21
1829.562701586594
 31
0.0
  0
LINE
  5
16794
330
1A
100
AcDbEntity
  8
ZISSEN1
100
AcDbLine
 10
-1247.519726413956
 20
1830.502700728803
 30
0.0
 11
-1249.919719485641
 21
1830.502700728803
 31
0.0
  0
LINE
  5
16795
330
1A
100
AcDbEntity
  8
ZISSEN1
100
AcDbLine
 10
-1240.019726413955
 20
1831.562695812998
 30
0.0
 11
-1238.419718660841
 21
1831.562695812998
 31
0.0
  0
LINE
  5
16796
330
1A
100
AcDbEntity
  8
ZISSEN1
100
AcDbLine
 10
-1238.419718660841
 20
1831.562695812998
 30
0.0
 11
-1238.419718660841
 21
1833.262693998439
 31
0.0
  0
LINE
  5
16797
330
1A
100
AcDbEntity
  8
ZISSEN1
100
AcDbLine
 10
-1240.019726413955
 20
1831.562695812998
 30
0.0
 11
-1240.019726413955
 21
1833.262693998439
 31
0.0
  0
LINE
  5
16798
330
1A
100
AcDbEntity
  8
ZISSEN1
100
AcDbLine
 10
-1240.019726413955
 20
1831.062694163399
 30
0.0
 11
-1240.019726413955
 21
1833.262693998439
 31
0.0
  0
LINE
  5
16799
330
1A
100
AcDbEntity
  8
ZISSEN1
100
AcDbLine
 10
-1247.519726413956
 20
1830.502700728803
 30
0.0
 11
-1247.519726413956
 21
1833.262693998439
 31
0.0
  0
LINE
  5
1679A
330
1A
100
AcDbEntity
  8
ZISSEN1
100
AcDbLine
 10
-1249.119721795079
 20
1833.262693998439
 30
0.0
 11
-1249.119721795079
 21
1830.502700728803
 31
0.0
  0
LINE
  5
1679B
330
1A
100
AcDbEntity
  8
ZISSEN1
100
AcDbLine
 10
-1249.919719485641
 20
1830.502700728803
 30
0.0
 11
-1249.919719485641
 21
1833.262693998439
 31
0.0
  0
LINE
  5
1679C
330
1A
100
AcDbEntity
  8
ZISSEN1
100
AcDbLine
 10
-1250.019722289959
 20
1833.262693998439
 30
0.0
 11
-1250.019722289959
 21
1827.862691029161
 31
0.0
  0
LINE
  5
1679D
330
1A
100
AcDbEntity
  8
ZISSEN1
100
AcDbLine
 10
-1251.619717671082
 20
1827.862691029161
 30
0.0
 11
-1251.619717671082
 21
1833.262693998439
 31
0.0
  0
LINE
  5
1679E
330
1A
100
AcDbEntity
  8
ZISSEN1
100
AcDbLine
 10
-1220.419721135239
 20
1804.216638949554
 30
0.0
 11
-1219.419717836042
 21
1803.216648022347
 31
0.0
  0
LINE
  5
1679F
330
1A
100
AcDbEntity
  8
CL1
100
AcDbLine
 10
-1226.619721795079
 20
1802.982815598845
 30
0.0
 11
-1226.619721795079
 21
1796.079585409019
 31
0.0
  0
LINE
  5
167A0
330
1A
100
AcDbEntity
  8
CL1
100
AcDbLine
 10
-1230.528453459319
 20
1800.21669998471
 30
0.0
 11
-1222.940175821034
 21
1800.21669998471
 31
0.0
  0
LINE
  5
167A1
330
1A
100
AcDbEntity
  8
CL1
100
AcDbLine
 10
-1226.619721795079
 20
1802.982815598845
 30
0.0
 11
-1226.619721795079
 21
1797.716642248752
 31
0.0
  0
LINE
  5
167A2
330
1A
100
AcDbEntity
  8
ZISSEN1
100
AcDbLine
 10
-1228.369715196683
 20
1804.21670080951
 30
0.0
 11
-1228.369715196683
 21
1800.21669998471
 31
0.0
  0
LINE
  5
167A3
330
1A
100
AcDbEntity
  8
ZISSEN1
100
AcDbLine
 10
-1224.869728393474
 20
1804.21670080951
 30
0.0
 11
-1224.869728393474
 21
1800.21669998471
 31
0.0
  0
ARC
  5
167A4
330
1A
100
AcDbEntity
  8
ZISSEN1
100
AcDbCircle
 10
-1226.619721795079
 20
1800.21669998471
 30
0.0
 40
1.749999974225018
100
AcDbArc
 50
180.0
 51
359.9999847412061
  0
LINE
  5
167A5
330
1A
100
AcDbEntity
  8
ZISSEN1
100
AcDbLine
 10
-1220.419721135239
 20
1804.216638949554
 30
0.0
 11
-1224.869728393474
 21
1804.216638949554
 31
0.0
  0
LINE
  5
167A6
330
1A
100
AcDbEntity
  8
ZISSEN1
100
AcDbLine
 10
-1229.919727733635
 20
1793.216639774353
 30
0.0
 11
-1229.919727733635
 21
1792.716638124755
 31
0.0
  0
LINE
  5
167A7
330
1A
100
AcDbEntity
  8
ZISSEN1
100
AcDbLine
 10
-1223.319715856523
 20
1793.216639774353
 30
0.0
 11
-1229.919727733635
 21
1793.216639774353
 31
0.0
  0
LINE
  5
167A8
330
1A
100
AcDbEntity
  8
ZISSEN1
100
AcDbLine
 10
-1223.319715856523
 20
1793.216639774353
 30
0.0
 11
-1223.319715856523
 21
1792.716638124755
 31
0.0
  0
LINE
  5
167A9
330
1A
100
AcDbEntity
  8
ZISSEN1
100
AcDbLine
 10
-1222.819714206924
 20
1792.716638124755
 30
0.0
 11
-1223.319715856523
 21
1792.716638124755
 31
0.0
  0
CIRCLE
  5
167AA
330
1A
100
AcDbEntity
  8
ZISSEN1
100
AcDbCircle
 10
-1226.419716186443
 20
1789.516647362508
 30
0.0
 40
1.600000020619985
  0
LINE
  5
167AB
330
1A
100
AcDbEntity
  8
ZISSEN1
100
AcDbLine
 10
-1223.319715856523
 20
1785.816642578671
 30
0.0
 11
-1227.919721135239
 21
1785.816642578671
 31
0.0
  0
LINE
  5
167AC
330
1A
100
AcDbEntity
  8
ZISSEN1
100
AcDbLine
 10
-1222.819714206924
 20
1786.31664422827
 30
0.0
 11
-1223.319715856523
 21
1786.31664422827
 31
0.0
  0
LINE
  5
167AD
330
1A
100
AcDbEntity
  8
ZISSEN1
100
AcDbLine
 10
-1223.319715856523
 20
1785.816642578671
 30
0.0
 11
-1223.319715856523
 21
1786.31664422827
 31
0.0
  0
LINE
  5
167AE
330
1A
100
AcDbEntity
  8
ZISSEN1
100
AcDbLine
 10
-1222.819714206924
 20
1786.31664422827
 30
0.0
 11
-1222.819714206924
 21
1792.716638124755
 31
0.0
  0
LINE
  5
167AF
330
1A
100
AcDbEntity
  8
ZISSEN1
100
AcDbLine
 10
-1232.819722454918
 20
1793.916647032588
 30
0.0
 11
-1234.419717836042
 21
1793.916647032588
 31
0.0
  0
LINE
  5
167B0
330
1A
100
AcDbEntity
  8
ZISSEN1
100
AcDbLine
 10
-1232.819722454918
 20
1789.746642677647
 30
0.0
 11
-1232.819722454918
 21
1788.49663855365
 31
0.0
  0
LINE
  5
167B1
330
1A
100
AcDbEntity
  8
ZISSEN1
100
AcDbLine
 10
-1232.819722454918
 20
1789.746642677647
 30
0.0
 11
-1232.019724764357
 21
1789.746642677647
 31
0.0
  0
LINE
  5
167B2
330
1A
100
AcDbEntity
  8
ZISSEN1
100
AcDbLine
 10
-1232.819722454918
 20
1788.49663855365
 30
0.0
 11
-1232.019724764357
 21
1788.49663855365
 31
0.0
  0
LINE
  5
167B3
330
1A
100
AcDbEntity
  8
ZISSEN1
100
AcDbLine
 10
-1232.819722454918
 20
1791.746649276042
 30
0.0
 11
-1232.819722454918
 21
1790.496645152045
 31
0.0
  0
LINE
  5
167B4
330
1A
100
AcDbEntity
  8
ZISSEN1
100
AcDbLine
 10
-1232.819722454918
 20
1791.746649276042
 30
0.0
 11
-1232.019724764357
 21
1791.746649276042
 31
0.0
  0
LINE
  5
167B5
330
1A
100
AcDbEntity
  8
ZISSEN1
100
AcDbLine
 10
-1232.819722454918
 20
1790.496645152045
 30
0.0
 11
-1232.019724764357
 21
1790.496645152045
 31
0.0
  0
LINE
  5
167B6
330
1A
100
AcDbEntity
  8
ZISSEN1
100
AcDbLine
 10
-1232.819722454918
 20
1786.416647032588
 30
0.0
 11
-1234.419717836042
 21
1786.416647032588
 31
0.0
  0
LINE
  5
167B7
330
1A
100
AcDbEntity
  8
ZISSEN1
100
AcDbLine
 10
-1234.419717836042
 20
1786.416647032588
 30
0.0
 11
-1234.419717836042
 21
1793.916647032588
 31
0.0
  0
LINE
  5
167B8
330
1A
100
AcDbEntity
  8
ZISSEN1
100
AcDbLine
 10
-1230.419729383233
 20
1786.31664422827
 30
0.0
 11
-1230.419729383233
 21
1792.716638124755
 31
0.0
  0
LINE
  5
167B9
330
1A
100
AcDbEntity
  8
ZISSEN1
100
AcDbLine
 10
-1230.419729383233
 20
1792.716638124755
 30
0.0
 11
-1229.919727733635
 21
1792.716638124755
 31
0.0
  0
LINE
  5
167BA
330
1A
100
AcDbEntity
  8
ZISSEN1
100
AcDbLine
 10
-1234.419717836042
 20
1793.916647032588
 30
0.0
 11
-1220.419721135239
 21
1793.916647032588
 31
0.0
  0
LINE
  5
167BB
330
1A
100
AcDbEntity
  8
ZISSEN1
100
AcDbLine
 10
-1227.919721135239
 20
1786.421645317005
 30
0.0
 11
-1230.319714206924
 21
1786.421645317005
 31
0.0
  0
LINE
  5
167BC
330
1A
100
AcDbEntity
  8
ZISSEN1
100
AcDbLine
 10
-1216.819719155721
 20
1796.91664455819
 30
0.0
 11
-1216.819719155721
 21
1797.716642248752
 31
0.0
  0
LINE
  5
167BD
330
1A
100
AcDbEntity
  8
ZISSEN1
100
AcDbLine
 10
-1214.319710907727
 20
1796.916669302172
 30
0.0
 11
-1216.819719155721
 21
1796.916669302172
 31
0.0
  0
LINE
  5
167BE
330
1A
100
AcDbEntity
  8
ZISSEN1
100
AcDbLine
 10
-1216.819719155721
 20
1796.916669302172
 30
0.0
 11
-1216.819719155721
 21
1797.716666992734
 31
0.0
  0
LINE
  5
167BF
330
1A
100
AcDbEntity
  8
ZISSEN1
100
AcDbLine
 10
-1214.819712557325
 20
1796.91664455819
 30
0.0
 11
-1214.819712557325
 21
1797.716642248752
 31
0.0
  0
LINE
  5
167C0
330
1A
100
AcDbEntity
  8
ZISSEN1
100
AcDbLine
 10
-1213.319732352511
 20
1795.916666002974
 30
0.0
 11
-1214.319710907727
 21
1796.916669302172
 31
0.0
  0
LINE
  5
167C1
330
1A
100
AcDbEntity
  8
ZISSEN1
100
AcDbLine
 10
-1214.119730043073
 20
1796.716638949554
 30
0.0
 11
-1212.819730702912
 21
1796.716638949554
 31
0.0
  0
LINE
  5
167C2
330
1A
100
AcDbEntity
  8
ZISSEN1
100
AcDbLine
 10
-1219.419717836042
 20
1803.216648022347
 30
0.0
 11
-1219.419717836042
 21
1797.716642248752
 31
0.0
  0
LINE
  5
167C3
330
1A
100
AcDbEntity
  8
ZISSEN1
100
AcDbLine
 10
-1212.819730702912
 20
1797.716642248752
 30
0.0
 11
-1216.819719155721
 21
1797.716642248752
 31
0.0
  0
LINE
  5
167C4
330
1A
100
AcDbEntity
  8
ZISSEN1
100
AcDbLine
 10
-1220.419721135239
 20
1831.562695812998
 30
0.0
 11
-1218.819725754116
 21
1831.562695812998
 31
0.0
  0
LINE
  5
167C5
330
1A
100
AcDbEntity
  8
ZISSEN1
100
AcDbLine
 10
-1220.719717176202
 20
1831.062694163399
 30
0.0
 11
-1220.419721135239
 21
1831.062694163399
 31
0.0
  0
LINE
  5
167C6
330
1A
100
AcDbEntity
  8
ZISSEN1
100
AcDbLine
 10
-1220.719717176202
 20
1829.062699936995
 30
0.0
 11
-1220.719717176202
 21
1831.062694163399
 31
0.0
  0
LINE
  5
167C7
330
1A
100
AcDbEntity
  8
ZISSEN1
100
AcDbLine
 10
-1228.619728393474
 20
1829.062699936995
 30
0.0
 11
-1228.619728393474
 21
1830.502700728803
 31
0.0
  0
LINE
  5
167C8
330
1A
100
AcDbEntity
  8
ZISSEN1
100
AcDbLine
 10
-1228.854721993031
 20
1830.502700728803
 30
0.0
 11
-1228.619728393474
 21
1829.562701586594
 31
0.0
  0
LINE
  5
167C9
330
1A
100
AcDbEntity
  8
ZISSEN1
100
AcDbLine
 10
-1229.419726084036
 20
1830.502700728803
 30
0.0
 11
-1229.419726084036
 21
1830.402697924484
 31
0.0
  0
LINE
  5
167CA
330
1A
100
AcDbEntity
  8
ZISSEN1
100
AcDbLine
 10
-1228.619728393474
 20
1829.062699936995
 30
0.0
 11
-1220.719717176202
 21
1829.062699936995
 31
0.0
  0
LINE
  5
167CB
330
1A
100
AcDbEntity
  8
ZISSEN1
100
AcDbLine
 10
-1220.419721135239
 20
1831.562695812998
 30
0.0
 11
-1220.419721135239
 21
1833.262693998439
 31
0.0
  0
LINE
  5
167CC
330
1A
100
AcDbEntity
  8
ZISSEN1
100
AcDbLine
 10
-1220.419721135239
 20
1831.062694163399
 30
0.0
 11
-1220.419721135239
 21
1833.262693998439
 31
0.0
  0
LINE
  5
167CD
330
1A
100
AcDbEntity
  8
ZISSEN1
100
AcDbLine
 10
-1227.919721135239
 20
1830.502700728803
 30
0.0
 11
-1227.919721135239
 21
1833.262693998439
 31
0.0
  0
LINE
  5
167CE
330
1A
100
AcDbEntity
  8
ZISSEN1
100
AcDbLine
 10
-1229.519716516362
 20
1833.262693998439
 30
0.0
 11
-1229.519716516362
 21
1830.502700728803
 31
0.0
  0
LINE
  5
167CF
330
1A
100
AcDbEntity
  8
ZISSEN1
100
AcDbLine
 10
-1230.419729383233
 20
1830.402697924484
 30
0.0
 11
-1230.419729383233
 21
1831.302698419364
 31
0.0
  0
LINE
  5
167D0
330
1A
100
AcDbEntity
  8
ZISSEN1
100
AcDbLine
 10
-1230.419729383233
 20
1827.862691029161
 30
0.0
 11
-1232.019724764357
 21
1827.862691029161
 31
0.0
  0
LINE
  5
167D1
330
1A
100
AcDbEntity
  8
ZISSEN1
100
AcDbLine
 10
-1230.319714206924
 20
1830.502700728803
 30
0.0
 11
-1230.319714206924
 21
1833.262693998439
 31
0.0
  0
LINE
  5
167D2
330
1A
100
AcDbEntity
  8
ZISSEN1
100
AcDbLine
 10
-1230.419729383233
 20
1833.262693998439
 30
0.0
 11
-1230.419729383233
 21
1827.862691029161
 31
0.0
  0
LINE
  5
167D3
330
1A
100
AcDbEntity
  8
ZISSEN1
100
AcDbLine
 10
-1232.019724764357
 20
1827.862691029161
 30
0.0
 11
-1232.019724764357
 21
1833.262693998439
 31
0.0
  0
LINE
  5
167D4
330
1A
100
AcDbEntity
  8
ZISSEN1
100
AcDbLine
 10
-1230.919731032832
 20
1859.712687235084
 30
0.0
 11
-1220.419721135239
 21
1859.712687235084
 31
0.0
  0
LINE
  5
167D5
330
1A
100
AcDbEntity
  8
ZISSEN1
100
AcDbLine
 10
-1227.919721135239
 20
1830.502700728803
 30
0.0
 11
-1230.319714206924
 21
1830.502700728803
 31
0.0
  0
LINE
  5
167D6
330
1A
100
AcDbEntity
  8
ZISSEN1
100
AcDbLine
 10
-1229.419726084036
 20
1830.402697924484
 30
0.0
 11
-1230.419729383233
 21
1830.402697924484
 31
0.0
  0
LINE
  5
167D7
330
1A
100
AcDbEntity
  8
ZISSEN1
100
AcDbLine
 10
-1214.819712557325
 20
1851.062685915405
 30
0.0
 11
-1214.819712557325
 21
1845.062690864201
 31
0.0
  0
LINE
  5
167D8
330
1A
100
AcDbEntity
  8
ZISSEN1
100
AcDbLine
 10
-1214.819712557325
 20
1845.062690864201
 30
0.0
 11
-1216.819719155721
 21
1845.062690864201
 31
0.0
  0
LINE
  5
167D9
330
1A
100
AcDbEntity
  8
ZISSEN1
100
AcDbLine
 10
-1216.819719155721
 20
1851.062685915405
 30
0.0
 11
-1214.819712557325
 21
1851.062685915405
 31
0.0
  0
LINE
  5
167DA
330
1A
100
AcDbEntity
  8
ZISSEN1
100
AcDbLine
 10
-1214.819712557325
 20
1834.062691689
 30
0.0
 11
-1212.819730702912
 21
1834.062691689
 31
0.0
  0
LINE
  5
167DB
330
1A
100
AcDbEntity
  8
ZISSEN1
100
AcDbLine
 10
-1214.819712557325
 20
1835.062694988199
 30
0.0
 11
-1212.819730702912
 21
1835.062694988199
 31
0.0
  0
LINE
  5
167DC
330
1A
100
AcDbEntity
  8
ZISSEN1
100
AcDbLine
 10
-1213.319732352511
 20
1834.062691689
 30
0.0
 11
-1216.819719155721
 21
1834.062691689
 31
0.0
  0
LINE
  5
167DD
330
1A
100
AcDbEntity
  8
ZISSEN1
100
AcDbLine
 10
-1213.319732352511
 20
1833.262693998439
 30
0.0
 11
-1213.319732352511
 21
1834.062691689
 31
0.0
  0
LINE
  5
167DE
330
1A
100
AcDbEntity
  8
ZISSEN1
100
AcDbLine
 10
-1214.319710907727
 20
1833.262693998439
 30
0.0
 11
-1214.319710907727
 21
1834.062691689
 31
0.0
  0
LINE
  5
167DF
330
1A
100
AcDbEntity
  8
ZISSEN1
100
AcDbLine
 10
-1218.819725754116
 20
1831.562695812998
 30
0.0
 11
-1218.819725754116
 21
1833.262693998439
 31
0.0
  0
LINE
  5
167E0
330
1A
100
AcDbEntity
  8
ZISSEN1
100
AcDbLine
 10
-1285.619718495881
 20
1919.26269317364
 30
0.0
 11
-1214.819712557325
 21
1919.26269317364
 31
0.0
  0
LINE
  5
167E1
330
1A
100
AcDbEntity
  8
ZISSEN1
100
AcDbLine
 10
-1285.619718495881
 20
1917.262686575244
 30
0.0
 11
-1214.819712557325
 21
1917.262686575244
 31
0.0
  0
LINE
  5
167E2
330
1A
100
AcDbEntity
  8
ZISSEN1
100
AcDbLine
 10
-1269.019723114758
 20
1906.262699772035
 30
0.0
 11
-1279.819729053314
 21
1906.262699772035
 31
0.0
  0
LINE
  5
167E3
330
1A
100
AcDbEntity
  8
ZISSEN1
100
AcDbLine
 10
-1282.819763694889
 20
1917.262686575244
 30
0.0
 11
-1273.819758746093
 21
1917.262686575244
 31
0.0
  0
LINE
  5
167E4
330
1A
100
AcDbEntity
  8
ZISSEN1
100
AcDbLine
 10
-1279.819729053314
 20
1917.262686575244
 30
0.0
 11
-1279.819729053314
 21
1918.86270670035
 31
0.0
  0
LINE
  5
167E5
330
1A
100
AcDbEntity
  8
ZISSEN1
100
AcDbLine
 10
-1282.819726578916
 20
1918.86270670035
 30
0.0
 11
-1279.819729053314
 21
1918.86270670035
 31
0.0
  0
LINE
  5
167E6
330
1A
100
AcDbEntity
  8
ZISSEN1
100
AcDbLine
 10
-1282.819726578916
 20
1917.262686575244
 30
0.0
 11
-1282.819726578916
 21
1918.86270670035
 31
0.0
  0
LINE
  5
167E7
330
1A
100
AcDbEntity
  8
ZISSEN1
100
AcDbLine
 10
-1285.619718495881
 20
1917.262686575244
 30
0.0
 11
-1285.619718495881
 21
1919.26269317364
 31
0.0
  0
LINE
  5
167E8
330
1A
100
AcDbEntity
  8
ZISSEN1
100
AcDbLine
 10
-1285.619743239863
 20
1915.76270637043
 30
0.0
 11
-1284.819745549302
 21
1915.76270637043
 31
0.0
  0
LINE
  5
167E9
330
1A
100
AcDbEntity
  8
ZISSEN1
100
AcDbLine
 10
-1279.819729053314
 20
1906.262699772035
 30
0.0
 11
-1279.819729053314
 21
1917.262686575244
 31
0.0
  0
LINE
  5
167EA
330
1A
100
AcDbEntity
  8
ZISSEN1
100
AcDbLine
 10
-1236.819723279718
 20
1915.262704720831
 30
0.0
 11
-1247.719732022591
 21
1915.262704720831
 31
0.0
  0
LINE
  5
167EB
330
1A
100
AcDbEntity
  8
ZISSEN1
100
AcDbLine
 10
-1272.719727898594
 20
1897.912694493319
 30
0.0
 11
-1272.719727898594
 21
1882.612698452356
 31
0.0
  0
LINE
  5
167EC
330
1A
100
AcDbEntity
  8
ZISSEN1
100
AcDbLine
 10
-1272.219750992978
 20
1882.612698452356
 30
0.0
 11
-1272.219750992978
 21
1897.912694493319
 31
0.0
  0
LINE
  5
167ED
330
1A
100
AcDbEntity
  8
ZISSEN1
100
AcDbLine
 10
-1262.219718001001
 20
1896.312699112195
 30
0.0
 11
-1260.219723774598
 21
1896.312699112195
 31
0.0
  0
LINE
  5
167EE
330
1A
100
AcDbEntity
  8
ZISSEN1
100
AcDbLine
 10
-1272.219750992978
 20
1896.312699112195
 30
0.0
 11
-1270.219744394583
 21
1896.312699112195
 31
0.0
  0
LINE
  5
167EF
330
1A
100
AcDbEntity
  8
ZISSEN1
100
AcDbLine
 10
-1262.219718001001
 20
1884.212693833479
 30
0.0
 11
-1260.219723774598
 21
1884.212693833479
 31
0.0
  0
LINE
  5
167F0
330
1A
100
AcDbEntity
  8
ZISSEN1
100
AcDbLine
 10
-1269.019723114758
 20
1882.612698452356
 30
0.0
 11
-1272.719727898594
 21
1882.612698452356
 31
0.0
  0
LINE
  5
167F1
330
1A
100
AcDbEntity
  8
ZISSEN1
100
AcDbLine
 10
-1269.019723114758
 20
1882.612698452356
 30
0.0
 11
-1268.01971981556
 21
1881.612695153158
 31
0.0
  0
LINE
  5
167F2
330
1A
100
AcDbEntity
  8
ZISSEN1
100
AcDbLine
 10
-1272.219750992978
 20
1884.212693833479
 30
0.0
 11
-1270.219744394583
 21
1884.212693833479
 31
0.0
  0
LINE
  5
167F3
330
1A
100
AcDbEntity
  8
ZISSEN1
100
AcDbLine
 10
-1267.519718165962
 20
1880.762689874442
 30
0.0
 11
-1260.219723774598
 21
1880.762689874442
 31
0.0
  0
LINE
  5
167F4
330
1A
100
AcDbEntity
  8
ZISSEN1
100
AcDbLine
 10
-1267.519718165962
 20
1880.762689874442
 30
0.0
 11
-1260.219723774598
 21
1880.762689874442
 31
0.0
  0
LINE
  5
167F5
330
1A
100
AcDbEntity
  8
ZISSEN1
100
AcDbLine
 10
-1267.519718165962
 20
1880.262688224843
 30
0.0
 11
-1260.219723774598
 21
1880.262688224843
 31
0.0
  0
LINE
  5
167F6
330
1A
100
AcDbEntity
  8
ZISSEN1
100
AcDbLine
 10
-1260.219723774598
 20
1884.212693833479
 30
0.0
 11
-1260.219723774598
 21
1896.312699112195
 31
0.0
  0
LINE
  5
167F7
330
1A
100
AcDbEntity
  8
ZISSEN1
100
AcDbLine
 10
-1262.219718001001
 20
1884.212693833479
 30
0.0
 11
-1262.219718001001
 21
1896.312699112195
 31
0.0
  0
LINE
  5
167F8
330
1A
100
AcDbEntity
  8
ZISSEN1
100
AcDbLine
 10
-1270.219744394583
 20
1884.212693833479
 30
0.0
 11
-1270.219744394583
 21
1896.312699112195
 31
0.0
  0
LINE
  5
167F9
330
1A
100
AcDbEntity
  8
ZISSEN1
100
AcDbLine
 10
-1250.019722289959
 20
1873.412687894923
 30
0.0
 11
-1248.019728063554
 21
1873.412687894923
 31
0.0
  0
LINE
  5
167FA
330
1A
100
AcDbEntity
  8
ZISSEN1
100
AcDbLine
 10
-1250.519723939557
 20
1875.012708020029
 30
0.0
 11
-1240.019726413955
 21
1875.012708020029
 31
0.0
  0
LINE
  5
167FB
330
1A
100
AcDbEntity
  8
ZISSEN1
100
AcDbLine
 10
-1250.019722289959
 20
1861.312707360189
 30
0.0
 11
-1248.019728063554
 21
1861.312707360189
 31
0.0
  0
LINE
  5
167FC
330
1A
100
AcDbEntity
  8
ZISSEN1
100
AcDbLine
 10
-1248.019728063554
 20
1861.312707360189
 30
0.0
 11
-1248.019728063554
 21
1873.412687894923
 31
0.0
  0
LINE
  5
167FD
330
1A
100
AcDbEntity
  8
ZISSEN1
100
AcDbLine
 10
-1250.519723939557
 20
1873.739085764961
 30
0.0
 11
-1250.519723939557
 21
1860.739067619374
 31
0.0
  0
LINE
  5
167FE
330
1A
100
AcDbEntity
  8
ZISSEN1
100
AcDbLine
 10
-1255.719746044182
 20
1906.262699772035
 30
0.0
 11
-1256.719749343379
 21
1905.262696472837
 31
0.0
  0
LINE
  5
167FF
330
1A
100
AcDbEntity
  8
SUNPOU
100
AcDbLine
 10
-1271.619709423088
 20
1920.858752752539
 30
0.0
 11
-1271.619709423088
 21
1915.76270637043
 31
0.0
  0
LINE
  5
16800
330
1A
100
AcDbEntity
  8
CL1
100
AcDbLine
 10
-1271.619709423088
 20
1920.858752752539
 30
0.0
 11
-1271.619709423088
 21
1915.76270637043
 31
0.0
  0
LINE
  5
16801
330
1A
100
AcDbEntity
  8
ZISSEN1
100
AcDbLine
 10
-1264.219712227406
 20
1917.262686575244
 30
0.0
 11
-1264.219712227406
 21
1919.26269317364
 31
0.0
  0
LINE
  5
16802
330
1A
100
AcDbEntity
  8
ZISSEN1
100
AcDbLine
 10
-1260.219723774598
 20
1915.76270637043
 30
0.0
 11
-1258.619728393474
 21
1915.76270637043
 31
0.0
  0
LINE
  5
16803
330
1A
100
AcDbEntity
  8
ZISSEN1
100
AcDbLine
 10
-1273.369702824693
 20
1917.262686575244
 30
0.0
 11
-1273.369702824693
 21
1919.26269317364
 31
0.0
  0
LINE
  5
16804
330
1A
100
AcDbEntity
  8
ZISSEN1
100
AcDbLine
 10
-1269.869703649492
 20
1917.262686575244
 30
0.0
 11
-1269.869703649492
 21
1919.26269317364
 31
0.0
  0
LINE
  5
16805
330
1A
100
AcDbEntity
  8
ZISSEN1
100
AcDbLine
 10
-1273.819746374101
 20
1915.76270637043
 30
0.0
 11
-1272.219750992978
 21
1915.76270637043
 31
0.0
  0
LINE
  5
16806
330
1A
100
AcDbEntity
  8
ZISSEN1
100
AcDbLine
 10
-1258.619728393474
 20
1915.76270637043
 30
0.0
 11
-1258.619728393474
 21
1914.562697462597
 31
0.0
  0
LINE
  5
16807
330
1A
100
AcDbEntity
  8
ZISSEN1
100
AcDbLine
 10
-1269.019723114758
 20
1897.912694493319
 30
0.0
 11
-1268.01971981556
 21
1898.912697792516
 31
0.0
  0
LINE
  5
16808
330
1A
100
AcDbEntity
  8
ZISSEN1
100
AcDbLine
 10
-1269.019723114758
 20
1897.912694493319
 30
0.0
 11
-1272.719727898594
 21
1897.912694493319
 31
0.0
  0
LINE
  5
16809
330
1A
100
AcDbEntity
  8
ZISSEN1
100
AcDbLine
 10
-1268.01971981556
 20
1898.912697792516
 30
0.0
 11
-1268.01971981556
 21
1905.262696472837
 31
0.0
  0
LINE
  5
1680A
330
1A
100
AcDbEntity
  8
ZISSEN1
100
AcDbLine
 10
-1269.019723114758
 20
1906.262699772035
 30
0.0
 11
-1268.01971981556
 21
1905.262696472837
 31
0.0
  0
LINE
  5
1680B
330
1A
100
AcDbEntity
  8
ZISSEN1
100
AcDbLine
 10
-1273.819746374101
 20
1915.76270637043
 30
0.0
 11
-1273.819746374101
 21
1906.262699772035
 31
0.0
  0
LINE
  5
1680C
330
1A
100
AcDbEntity
  8
ZISSEN1
100
AcDbLine
 10
-1272.219750992978
 20
1906.262699772035
 30
0.0
 11
-1272.219750992978
 21
1915.76270637043
 31
0.0
  0
LINE
  5
1680D
330
1A
100
AcDbEntity
  8
ZISSEN1
100
AcDbLine
 10
-1239.81972080532
 20
1917.262686575244
 30
0.0
 11
-1239.81972080532
 21
1919.26269317364
 31
0.0
  0
LINE
  5
1680E
330
1A
100
AcDbEntity
  8
ZISSEN1
100
AcDbLine
 10
-1251.619717671082
 20
1915.76270637043
 30
0.0
 11
-1250.019722289959
 21
1915.76270637043
 31
0.0
  0
LINE
  5
1680F
330
1A
100
AcDbEntity
  8
ZISSEN1
100
AcDbLine
 10
-1248.719735321789
 20
1914.262701421634
 30
0.0
 11
-1247.719732022591
 21
1915.262704720831
 31
0.0
  0
LINE
  5
16810
330
1A
100
AcDbEntity
  8
ZISSEN1
100
AcDbLine
 10
-1255.719746044182
 20
1906.262699772035
 30
0.0
 11
-1248.719735321789
 21
1906.262699772035
 31
0.0
  0
LINE
  5
16811
330
1A
100
AcDbEntity
  8
ZISSEN1
100
AcDbLine
 10
-1248.719735321789
 20
1914.262701421634
 30
0.0
 11
-1248.719735321789
 21
1906.262699772035
 31
0.0
  0
LINE
  5
16812
330
1A
100
AcDbEntity
  8
ZISSEN1
100
AcDbLine
 10
-1251.619717671082
 20
1906.262699772035
 30
0.0
 11
-1251.619717671082
 21
1915.76270637043
 31
0.0
  0
LINE
  5
16813
330
1A
100
AcDbEntity
  8
ZISSEN1
100
AcDbLine
 10
-1250.019722289959
 20
1915.76270637043
 30
0.0
 11
-1250.019722289959
 21
1906.262699772035
 31
0.0
  0
LINE
  5
16814
330
1A
100
AcDbEntity
  8
ZISSEN1
100
AcDbLine
 10
-1230.419729383233
 20
1873.412687894923
 30
0.0
 11
-1228.419722784838
 21
1873.412687894923
 31
0.0
  0
LINE
  5
16815
330
1A
100
AcDbEntity
  8
ZISSEN1
100
AcDbLine
 10
-1230.919731032832
 20
1875.012708020029
 30
0.0
 11
-1220.419721135239
 21
1875.012708020029
 31
0.0
  0
LINE
  5
16816
330
1A
100
AcDbEntity
  8
ZISSEN1
100
AcDbLine
 10
-1230.419729383233
 20
1861.312707360189
 30
0.0
 11
-1228.419722784838
 21
1861.312707360189
 31
0.0
  0
LINE
  5
16817
330
1A
100
AcDbEntity
  8
ZISSEN1
100
AcDbLine
 10
-1228.419722784838
 20
1861.312707360189
 30
0.0
 11
-1228.419722784838
 21
1873.412687894923
 31
0.0
  0
LINE
  5
16818
330
1A
100
AcDbEntity
  8
ZISSEN1
100
AcDbLine
 10
-1230.919731032832
 20
1873.739085764961
 30
0.0
 11
-1230.919731032832
 21
1860.739067619374
 31
0.0
  0
LINE
  5
16819
330
1A
100
AcDbEntity
  8
ZISSEN1
100
AcDbLine
 10
-1217.819722454918
 20
1906.262699772035
 30
0.0
 11
-1230.819715856523
 21
1906.262699772035
 31
0.0
  0
LINE
  5
1681A
330
1A
100
AcDbEntity
  8
SUNPOU
100
AcDbLine
 10
-1226.619721795079
 20
1920.858752752539
 30
0.0
 11
-1226.619721795079
 21
1915.76270637043
 31
0.0
  0
LINE
  5
1681B
330
1A
100
AcDbEntity
  8
CL1
100
AcDbLine
 10
-1226.619721795079
 20
1920.858752752539
 30
0.0
 11
-1226.619721795079
 21
1915.76270637043
 31
0.0
  0
LINE
  5
1681C
330
1A
100
AcDbEntity
  8
ZISSEN1
100
AcDbLine
 10
-1224.869728393474
 20
1917.262686575244
 30
0.0
 11
-1224.869728393474
 21
1919.26269317364
 31
0.0
  0
LINE
  5
1681D
330
1A
100
AcDbEntity
  8
ZISSEN1
100
AcDbLine
 10
-1228.369715196683
 20
1917.262686575244
 30
0.0
 11
-1228.369715196683
 21
1919.26269317364
 31
0.0
  0
LINE
  5
1681E
330
1A
100
AcDbEntity
  8
ZISSEN1
100
AcDbLine
 10
-1236.819723279718
 20
1917.26263708728
 30
0.0
 11
-1236.819723279718
 21
1915.262704720831
 31
0.0
  0
LINE
  5
1681F
330
1A
100
AcDbEntity
  8
ZISSEN1
100
AcDbLine
 10
-1230.819715856523
 20
1917.26263708728
 30
0.0
 11
-1230.819715856523
 21
1906.262699772035
 31
0.0
  0
LINE
  5
16820
330
1A
100
AcDbEntity
  8
ZISSEN1
100
AcDbLine
 10
-1219.419717836042
 20
1917.262686575244
 30
0.0
 11
-1219.419717836042
 21
1919.26269317364
 31
0.0
  0
ARC
  5
16821
330
1A
100
AcDbEntity
  8
ZISSEN1
100
AcDbCircle
 10
-1214.819712557325
 20
1917.262686575244
 30
0.0
 40
2.000000025774981
100
AcDbArc
 50
0.0
 51
90.0
  0
LINE
  5
16822
330
1A
100
AcDbEntity
  8
ZISSEN1
100
AcDbLine
 10
-1217.819722454918
 20
1906.262699772035
 30
0.0
 11
-1216.819719155721
 21
1905.262696472837
 31
0.0
  0
VIEWPORT
  5
15177
330
15176
100
AcDbEntity
 67
     1
  8
0
100
AcDbViewport
 10
220.2097886434082
 20
160.2649514110525
 30
0.0
 40
587.9725609713182
 41
330.5768475847325
 68
     1
 69
     1
1001
ACAD
1000
MVIEW
1002
{
1070
    16
1010
0.0
1020
0.0
1030
0.0
1010
0.0
1020
0.0
1030
1.0
1040
0.0
1040
330.5768475847325
1040
220.2097886434082
1040
160.2649514110525
1040
50.0
1040
0.0
1040
0.0
1070
     0
1070
   100
1070
     1
1070
     0
1070
     0
1070
     0
1070
     0
1070
     0
1040
0.0
1040
0.0
1040
0.0
1040
1.0
1040
1.0
1040
10.0
1040
10.0
1070
     0
1002
{
1002
}
1002
}
  0
VIEWPORT
  5
15178
330
15176
100
AcDbEntity
 67
     1
  8
ZISSEN1
100
AcDbViewport
 10
221.7861955525412
 20
157.6960273330388
 30
0.0
 40
385.4999999999997
 41
259.9999999999999
 68
     2
 69
     2
1001
ACAD
1000
MVIEW
1002
{
1070
    16
1010
0.0
1020
0.0
1030
0.0
1010
0.0
1020
0.0
1030
1.0
1040
0.0
1040
519.9999999041826
1040
-1275.096745650115
1040
1747.718149991556
1040
50.0
1040
0.0
1040
0.0
1070
     0
1070
   100
1070
     1
1070
     0
1070
     0
1070
     0
1070
     0
1070
     0
1040
0.0
1040
0.0
1040
0.0
1040
1.0
1040
1.0
1040
10.0
1040
10.0
1070
     0
1002
{
1002
}
1002
}
  0
TEXT
  5
15179
330
15176
100
AcDbEntity
 67
     1
  8
SUNPOU
 62
     0
100
AcDbText
 10
374.1863124306944
 20
60.86794705907585
 30
0.0
 40
3.5
  1
縮尺 1/2
100
AcDbText
  0
ENDSEC
  0
SECTION
  2
OBJECTS
  0
DICTIONARY
  5
C
330
0
100
AcDbDictionary
  3
ACAD_GROUP
350
D
  3
ACAD_LAYOUT
350
5C7D
  3
ACAD_MLINESTYLE
350
E
  3
ACAD_PLOTSETTINGS
350
5C7E
  3
ACAD_PLOTSTYLENAME
350
5C7B
  3
ACDBVARIABLEDICTIONARY
350
13217
  3
DWGPROPS
350
5E8E
  3
ACDBHEADERROUNDTRIPXREC
350
1691E
  0
DICTIONARY
  5
1693E
330
1A
100
AcDbDictionary
280
     1
  3
ACAD_LAYOUTSELFREF
360
1693F
  0
DICTIONARY
  5
16940
330
15176
100
AcDbDictionary
280
     1
  3
ACAD_LAYOUTSELFREF
360
16941
  0
DICTIONARY
  5
D
102
{ACAD_REACTORS
330
C
102
}
330
C
100
AcDbDictionary
  3
*A1
350
477D
  3
*A2
350
4C16
  3
*A3
350
4C17
  3
*A4
350
477E
  3
*A5
350
477F
  3
*A6
350
4780
  3
*A7
350
4781
  3
*A8
350
13853
  3
*A9
350
4C0E
  3
*A10
350
4C0F
  3
*A11
350
4C10
  3
*A12
350
4C11
  3
*A13
350
4C12
  3
*A14
350
4C13
  3
*A15
350
4C14
  3
*A16
350
4C15
  0
DICTIONARY
  5
5C7D
102
{ACAD_REACTORS
330
C
102
}
330
C
100
AcDbDictionary
  0
DICTIONARY
  5
E
102
{ACAD_REACTORS
330
C
102
}
330
C
100
AcDbDictionary
  3
STANDARD
350
13
  0
DICTIONARY
  5
5C7E
102
{ACAD_REACTORS
330
C
102
}
330
C
100
AcDbDictionary
  0
ACDBDICTIONARYWDFLT
  5
5C7B
102
{ACAD_REACTORS
330
C
102
}
330
C
100
AcDbDictionary
281
     1
  3
Normal
350
5C7C
100
AcDbDictionaryWithDefault
340
5C7C
  0
DICTIONARY
  5
13217
102
{ACAD_REACTORS
330
C
102
}
330
C
100
AcDbDictionary
  3
SORTENTS
350
13218
  0
XRECORD
  5
5E8E
102
{ACAD_REACTORS
330
C
102
}
330
C
100
AcDbXrecord
  1
DWGPROPS COOKIE
  2

  3

  4

  6

  7

  8

  9

300
=
301
=
302
=
303
=
304
=
305
=
306
=
307
=
308
=
309
=
 40
0.586753587962963
 41
2450495.493631365
 42
2453208.662277431
  1

 90
        0
  0
DICTIONARY
  5
1691E
102
{ACAD_REACTORS
330
C
102
}
330
C
100
AcDbDictionary
  3
TSTACKALIGN
350
1691F
  3
TSTACKSIZE
350
16920
  3
HYPERLINKBASE
350
16921
  3
STYLESHEET
350
16922
  3
LAYOUTDICT
350
16923
  3
PLOTSETDICT
350
16924
  3
PLOTSTYLNAMDICT
350
16925
  3
LWETCUNION
350
16926
  3
INSUNITS
350
16927
  3
CEPSNTYPE
350
16928
  3
FINGERPRINTGUID
350
16929
  3
VERSIONGUID
350
1692A
  3
PSVPSCALE
350
1692B
  3
PUCSORTHOREF
350
1692C
  3
PUCSORTHOVIEW
350
1692D
  3
PUCSBASE
350
1692E
  3
PUCSORGTOP
350
1692F
  3
PUCSORGBOTTOM
350
16930
  3
PUCSORGLEFT
350
16931
  3
PUCSORGRIGHT
350
16932
  3
PUCSORGFRONT
350
16933
  3
PUCSORGBACK
350
16934
  3
UCSORTHOREF
350
16935
  3
UCSORTHOVIEW
350
16936
  3
UCSBASE
350
16937
  3
UCSORGTOP
350
16938
  3
UCSORGBOTTOM
350
16939
  3
UCSORGLEFT
350
1693A
  3
UCSORGRIGHT
350
1693B
  3
UCSORGFRONT
350
1693C
  3
UCSORGBACK
350
1693D
  0
XRECORD
  5
1693F
102
{ACAD_REACTORS
330
1693E
102
}
330
1693E
100
AcDbXrecord
340
1A
  0
XRECORD
  5
16941
102
{ACAD_REACTORS
330
16940
102
}
330
16940
100
AcDbXrecord
340
15176
  0
GROUP
  5
477D
102
{ACAD_REACTORS
330
D
102
}
330
D
100
AcDbGroup
300

 70
     1
 71
     1
  0
GROUP
  5
4C16
102
{ACAD_REACTORS
330
D
102
}
330
D
100
AcDbGroup
300

 70
     1
 71
     1
  0
GROUP
  5
4C17
102
{ACAD_REACTORS
330
D
102
}
330
D
100
AcDbGroup
300

 70
     1
 71
     1
  0
GROUP
  5
477E
102
{ACAD_REACTORS
330
D
102
}
330
D
100
AcDbGroup
300

 70
     1
 71
     1
  0
GROUP
  5
477F
102
{ACAD_REACTORS
330
D
102
}
330
D
100
AcDbGroup
300

 70
     1
 71
     1
  0
GROUP
  5
4780
102
{ACAD_REACTORS
330
D
102
}
330
D
100
AcDbGroup
300

 70
     1
 71
     1
  0
GROUP
  5
4781
102
{ACAD_REACTORS
330
D
102
}
330
D
100
AcDbGroup
300

 70
     1
 71
     1
  0
GROUP
  5
13853
102
{ACAD_REACTORS
330
D
102
}
330
D
100
AcDbGroup
300

 70
     1
 71
     1
  0
GROUP
  5
4C0E
102
{ACAD_REACTORS
330
D
102
}
330
D
100
AcDbGroup
300

 70
     1
 71
     1
  0
GROUP
  5
4C0F
102
{ACAD_REACTORS
330
D
102
}
330
D
100
AcDbGroup
300

 70
     1
 71
     1
  0
GROUP
  5
4C10
102
{ACAD_REACTORS
330
D
102
}
330
D
100
AcDbGroup
300

 70
     1
 71
     1
  0
GROUP
  5
4C11
102
{ACAD_REACTORS
330
D
102
}
330
D
100
AcDbGroup
300

 70
     1
 71
     1
  0
GROUP
  5
4C12
102
{ACAD_REACTORS
330
D
102
}
330
D
100
AcDbGroup
300

 70
     1
 71
     1
  0
GROUP
  5
4C13
102
{ACAD_REACTORS
330
D
102
}
330
D
100
AcDbGroup
300

 70
     1
 71
     1
  0
GROUP
  5
4C14
102
{ACAD_REACTORS
330
D
102
}
330
D
100
AcDbGroup
300

 70
     1
 71
     1
  0
GROUP
  5
4C15
102
{ACAD_REACTORS
330
D
102
}
330
D
100
AcDbGroup
300

 70
     1
 71
     1
  0
MLINESTYLE
  5
13
102
{ACAD_REACTORS
330
E
102
}
330
E
100
AcDbMlineStyle
  2
STANDARD
 70
     0
  3

 62
     0
 51
90.0
 52
90.0
 71
     2
 49
0.5
 62
   256
  6
BYLAYER
 49
-0.5
 62
   256
  6
BYLAYER
  0
ACDBPLACEHOLDER
  5
5C7C
102
{ACAD_REACTORS
330
5C7B
102
}
330
5C7B
100
AcDbPlaceHolder
280
     0
  0
DICTIONARYVAR
  5
13218
102
{ACAD_REACTORS
330
13217
102
}
330
13217
100
DictionaryVariables
280
     0
  1
96
  0
XRECORD
  5
1691F
102
{ACAD_REACTORS
330
1691E
102
}
330
1691E
100
AcDbXrecord
 90
        1
  0
XRECORD
  5
16920
102
{ACAD_REACTORS
330
1691E
102
}
330
1691E
100
AcDbXrecord
 90
       70
  0
XRECORD
  5
16921
102
{ACAD_REACTORS
330
1691E
102
}
330
1691E
100
AcDbXrecord
  1

  0
XRECORD
  5
16922
102
{ACAD_REACTORS
330
1691E
102
}
330
1691E
100
AcDbXrecord
  1

  0
XRECORD
  5
16923
102
{ACAD_REACTORS
330
1691E
102
}
330
1691E
100
AcDbXrecord
340
5C7D
  0
XRECORD
  5
16924
102
{ACAD_REACTORS
330
1691E
102
}
330
1691E
100
AcDbXrecord
340
5C7E
  0
XRECORD
  5
16925
102
{ACAD_REACTORS
330
1691E
102
}
330
1691E
100
AcDbXrecord
340
5C7B
  0
XRECORD
  5
16926
102
{ACAD_REACTORS
330
1691E
102
}
330
1691E
100
AcDbXrecord
 90
    10781
  0
XRECORD
  5
16927
102
{ACAD_REACTORS
330
1691E
102
}
330
1691E
100
AcDbXrecord
 90
        0
  0
XRECORD
  5
16928
102
{ACAD_REACTORS
330
1691E
102
}
330
1691E
100
AcDbXrecord
 90
        0
  0
XRECORD
  5
16929
102
{ACAD_REACTORS
330
1691E
102
}
330
1691E
100
AcDbXrecord
  1
{225A7F0D-DA29-11D8-946A-0000E2416295}
  0
XRECORD
  5
1692A
102
{ACAD_REACTORS
330
1691E
102
}
330
1691E
100
AcDbXrecord
  1
{7D15307B-AD71-4189-9F2F-0908215B32A5}
  0
XRECORD
  5
1692B
102
{ACAD_REACTORS
330
1691E
102
}
330
1691E
100
AcDbXrecord
 40
0.0
  0
XRECORD
  5
1692C
102
{ACAD_REACTORS
330
1691E
102
}
330
1691E
100
AcDbXrecord
340
0
  0
XRECORD
  5
1692D
102
{ACAD_REACTORS
330
1691E
102
}
330
1691E
100
AcDbXrecord
 70
     0
  0
XRECORD
  5
1692E
102
{ACAD_REACTORS
330
1691E
102
}
330
1691E
100
AcDbXrecord
340
0
  0
XRECORD
  5
1692F
102
{ACAD_REACTORS
330
1691E
102
}
330
1691E
100
AcDbXrecord
 10
0.0
 20
0.0
 30
0.0
  0
XRECORD
  5
16930
102
{ACAD_REACTORS
330
1691E
102
}
330
1691E
100
AcDbXrecord
 10
0.0
 20
0.0
 30
0.0
  0
XRECORD
  5
16931
102
{ACAD_REACTORS
330
1691E
102
}
330
1691E
100
AcDbXrecord
 10
0.0
 20
0.0
 30
0.0
  0
XRECORD
  5
16932
102
{ACAD_REACTORS
330
1691E
102
}
330
1691E
100
AcDbXrecord
 10
0.0
 20
0.0
 30
0.0
  0
XRECORD
  5
16933
102
{ACAD_REACTORS
330
1691E
102
}
330
1691E
100
AcDbXrecord
 10
0.0
 20
0.0
 30
0.0
  0
XRECORD
  5
16934
102
{ACAD_REACTORS
330
1691E
102
}
330
1691E
100
AcDbXrecord
 10
0.0
 20
0.0
 30
0.0
  0
XRECORD
  5
16935
102
{ACAD_REACTORS
330
1691E
102
}
330
1691E
100
AcDbXrecord
340
0
  0
XRECORD
  5
16936
102
{ACAD_REACTORS
330
1691E
102
}
330
1691E
100
AcDbXrecord
 70
     0
  0
XRECORD
  5
16937
102
{ACAD_REACTORS
330
1691E
102
}
330
1691E
100
AcDbXrecord
340
0
  0
XRECORD
  5
16938
102
{ACAD_REACTORS
330
1691E
102
}
330
1691E
100
AcDbXrecord
 10
0.0
 20
0.0
 30
0.0
  0
XRECORD
  5
16939
102
{ACAD_REACTORS
330
1691E
102
}
330
1691E
100
AcDbXrecord
 10
0.0
 20
0.0
 30
0.0
  0
XRECORD
  5
1693A
102
{ACAD_REACTORS
330
1691E
102
}
330
1691E
100
AcDbXrecord
 10
0.0
 20
0.0
 30
0.0
  0
XRECORD
  5
1693B
102
{ACAD_REACTORS
330
1691E
102
}
330
1691E
100
AcDbXrecord
 10
0.0
 20
0.0
 30
0.0
  0
XRECORD
  5
1693C
102
{ACAD_REACTORS
330
1691E
102
}
330
1691E
100
AcDbXrecord
 10
0.0
 20
0.0
 30
0.0
  0
XRECORD
  5
1693D
102
{ACAD_REACTORS
330
1691E
102
}
330
1691E
100
AcDbXrecord
 10
0.0
 20
0.0
 30
0.0
  0
ENDSEC
  0
EOF
