  0
SECTION
  2
HEADER
  9
$ACADVER
  1
AC1014
  9
$ACADMAINTVER
 70
     9
  9
$DWGCODEPAGE
  3
ANSI_932
  9
$INSBASE
 10
0.0
 20
0.0
 30
0.0
  9
$EXTMIN
 10
-1474.511350412371
 20
1535.367327711633
 30
0.0
  9
$EXTMAX
 10
-1309.589104895403
 20
1682.802817561534
 30
0.0
  9
$LIMMIN
 10
0.0
 20
0.0
  9
$LIMMAX
 10
420.0
 20
297.0
  9
$ORTHOMODE
 70
     1
  9
$REGENMODE
 70
     1
  9
$FILLMODE
 70
     1
  9
$QTEXTMODE
 70
     0
  9
$MIRRTEXT
 70
     1
  9
$DRAGMODE
 70
     2
  9
$LTSCALE
 40
1.0
  9
$OSMODE
 70
    37
  9
$ATTMODE
 70
     1
  9
$TEXTSIZE
 40
2.5
  9
$TRACEWID
 40
1.0
  9
$TEXTSTYLE
  7
ゴシック体
  9
$CLAYER
  8
CL1
  9
$CELTYPE
  6
BYLAYER
  9
$CECOLOR
 62
   256
  9
$CELTSCALE
 40
1.0
  9
$DELOBJ
 70
     1
  9
$DISPSILH
 70
     0
  9
$DIMSCALE
 40
0.0
  9
$DIMASZ
 40
3.0
  9
$DIMEXO
 40
0.5
  9
$DIMDLI
 40
0.5
  9
$DIMRND
 40
0.0
  9
$DIMDLE
 40
0.0
  9
$DIMEXE
 40
0.5
  9
$DIMTP
 40
0.0
  9
$DIMTM
 40
0.0
  9
$DIMTXT
 40
3.5
  9
$DIMCEN
 40
0.0
  9
$DIMTSZ
 40
0.0
  9
$DIMTOL
 70
     0
  9
$DIMLIM
 70
     0
  9
$DIMTIH
 70
     0
  9
$DIMTOH
 70
     0
  9
$DIMSE1
 70
     0
  9
$DIMSE2
 70
     0
  9
$DIMTAD
 70
     1
  9
$DIMZIN
 70
     8
  9
$DIMBLK
  1

  9
$DIMASO
 70
     1
  9
$DIMSHO
 70
     1
  9
$DIMPOST
  1

  9
$DIMAPOST
  1

  9
$DIMALT
 70
     0
  9
$DIMALTD
 70
     2
  9
$DIMALTF
 40
25.4
  9
$DIMLFAC
 40
1.0
  9
$DIMTOFL
 70
     1
  9
$DIMTVP
 40
0.0
  9
$DIMTIX
 70
     0
  9
$DIMSOXD
 70
     0
  9
$DIMSAH
 70
     0
  9
$DIMBLK1
  1

  9
$DIMBLK2
  1

  9
$DIMSTYLE
  2
標準スタイル
  9
$DIMCLRD
 70
     1
  9
$DIMCLRE
 70
     1
  9
$DIMCLRT
 70
     1
  9
$DIMTFAC
 40
1.0
  9
$DIMGAP
 40
1.0
  9
$DIMJUST
 70
     0
  9
$DIMSD1
 70
     0
  9
$DIMSD2
 70
     0
  9
$DIMTOLJ
 70
     1
  9
$DIMTZIN
 70
     8
  9
$DIMALTZ
 70
     0
  9
$DIMALTTZ
 70
     0
  9
$DIMFIT
 70
     3
  9
$DIMUPT
 70
     0
  9
$DIMUNIT
 70
     2
  9
$DIMDEC
 70
     2
  9
$DIMTDEC
 70
     2
  9
$DIMALTU
 70
     2
  9
$DIMALTTD
 70
     2
  9
$DIMTXSTY
  7
ゴシック体
  9
$DIMAUNIT
 70
     0
  9
$LUNITS
 70
     2
  9
$LUPREC
 70
     4
  9
$SKETCHINC
 40
1.0
  9
$FILLETRAD
 40
1.0
  9
$AUNITS
 70
     0
  9
$AUPREC
 70
     0
  9
$MENU
  1
.
  9
$ELEVATION
 40
0.0
  9
$PELEVATION
 40
0.0
  9
$THICKNESS
 40
0.0
  9
$LIMCHECK
 70
     0
  9
$BLIPMODE
 70
     0
  9
$CHAMFERA
 40
1.0
  9
$CHAMFERB
 40
1.0
  9
$CHAMFERC
 40
2.0
  9
$CHAMFERD
 40
0.7853981633974483
  9
$SKPOLY
 70
     0
  9
$TDCREATE
 40
2450495.493631365
  9
$TDUPDATE
 40
2458200.741085069
  9
$TDINDWG
 40
2.7979606366
  9
$TDUSRTIMER
 40
2.7979606366
  9
$USRTIMER
 70
     1
  9
$ANGBASE
 50
0.0
  9
$ANGDIR
 70
     0
  9
$PDMODE
 70
    99
  9
$PDSIZE
 40
0.0
  9
$PLINEWID
 40
0.0
  9
$COORDS
 70
     1
  9
$SPLFRAME
 70
     0
  9
$SPLINETYPE
 70
     6
  9
$SPLINESEGS
 70
     8
  9
$ATTDIA
 70
     0
  9
$ATTREQ
 70
     1
  9
$HANDLING
 70
 10241
  9
$HANDSEED
  5
185B4
  9
$SURFTAB1
 70
     6
  9
$SURFTAB2
 70
     6
  9
$SURFTYPE
 70
     6
  9
$SURFU
 70
     6
  9
$SURFV
 70
     6
  9
$UCSNAME
  2

  9
$UCSORG
 10
0.0
 20
0.0
 30
0.0
  9
$UCSXDIR
 10
1.0
 20
0.0
 30
0.0
  9
$UCSYDIR
 10
0.0
 20
1.0
 30
0.0
  9
$PUCSNAME
  2

  9
$PUCSORG
 10
0.0
 20
0.0
 30
0.0
  9
$PUCSXDIR
 10
1.0
 20
0.0
 30
0.0
  9
$PUCSYDIR
 10
0.0
 20
1.0
 30
0.0
  9
$USERI1
 70
     0
  9
$USERI2
 70
     0
  9
$USERI3
 70
     0
  9
$USERI4
 70
     0
  9
$USERI5
 70
     0
  9
$USERR1
 40
0.0
  9
$USERR2
 40
0.0
  9
$USERR3
 40
0.0
  9
$USERR4
 40
0.0
  9
$USERR5
 40
0.0
  9
$WORLDVIEW
 70
     1
  9
$SHADEDGE
 70
     3
  9
$SHADEDIF
 70
    70
  9
$TILEMODE
 70
     0
  9
$MAXACTVP
 70
    16
  9
$PINSBASE
 10
0.0
 20
0.0
 30
0.0
  9
$PLIMCHECK
 70
     0
  9
$PEXTMIN
 10
29.03619555254135
 20
27.69602733303884
 30
0.0
  9
$PEXTMAX
 10
414.5361955525411
 20
287.6960273330388
 30
0.0
  9
$PLIMMIN
 10
15.15433780389673
 20
13.80781516542163
  9
$PLIMMAX
 10
435.1009930773342
 20
310.8184658001872
  9
$UNITMODE
 70
     0
  9
$VISRETAIN
 70
     0
  9
$PLINEGEN
 70
     0
  9
$PSLTSCALE
 70
     1
  9
$TREEDEPTH
 70
  3020
  9
$PICKSTYLE
 70
     1
  9
$CMLSTYLE
  2
STANDARD
  9
$CMLJUST
 70
     0
  9
$CMLSCALE
 40
1.0
  9
$PROXYGRAPHICS
 70
     1
  9
$MEASUREMENT
 70
     0
  0
ENDSEC
  0
SECTION
  2
CLASSES
  0
CLASS
  1
LWPOLYLINE
  2
AcDbPolyline
  3
AutoCAD 2000
 90
        0
280
     0
281
     1
  0
CLASS
  1
HATCH
  2
AcDbHatch
  3
AutoCAD 2000
 90
        0
280
     0
281
     1
  0
CLASS
  1
ACDBDICTIONARYWDFLT
  2
AcDbDictionaryWithDefault
  3
AutoCAD 2000
 90
        0
280
     0
281
     0
  0
CLASS
  1
ACDBPLACEHOLDER
  2
AcDbPlaceHolder
  3
AutoCAD 2000
 90
        0
280
     0
281
     0
  0
CLASS
  1
LAYOUT
  2
AcDbLayout
  3
AutoCAD 2000
 90
        0
280
     0
281
     0
  0
CLASS
  1
DICTIONARYVAR
  2
AcDbDictionaryVar
  3
AutoCAD 2000
 90
        0
280
     0
281
     0
  0
CLASS
  1
LONG_TRANSACTION
  2
AcDbLongTransaction
  3
AutoCAD 2000
 90
        0
280
     0
281
     0
  0
CLASS
  1
LWPOLYLINE
  2
AcDbPolyline
  3
AutoCAD 2000
 90
        0
280
     0
281
     1
  0
CLASS
  1
HATCH
  2
AcDbHatch
  3
AutoCAD 2000
 90
        0
280
     0
281
     1
  0
CLASS
  1
XRECORD
  2
AcDbXrecord
  3
AutoCAD 2000
 90
        0
280
     0
281
     0
  0
ENDSEC
  0
SECTION
  2
TABLES
  0
TABLE
  2
VPORT
  5
8
330
0
100
AcDbSymbolTable
 70
     2
  0
VPORT
  5
1853D
330
8
100
AcDbSymbolTableRecord
100
AcDbViewportTableRecord
  2
*ACTIVE
 70
     0
 10
0.0
 20
0.0
 11
1.0
 21
1.0
 12
-1392.036968304393
 22
1609.095463245361
 13
0.0
 23
0.0
 14
5.0
 24
5.0
 15
0.0
 25
0.0
 16
0.0
 26
0.0
 36
1.0
 17
0.0
 27
0.0
 37
0.0
 40
149.1780355313812
 41
1.781954887218045
 42
50.0
 43
0.0
 44
0.0
 50
0.0
 51
0.0
 71
     0
 72
   100
 73
     1
 74
     0
 75
     0
 76
     0
 77
     0
 78
     0
  0
ENDTAB
  0
TABLE
  2
LTYPE
  5
5
330
0
100
AcDbSymbolTable
 70
     3
  0
LTYPE
  5
14
330
5
100
AcDbSymbolTableRecord
100
AcDbLinetypeTableRecord
  2
BYBLOCK
 70
     0
  3

 72
    65
 73
     0
 40
0.0
  0
LTYPE
  5
15
330
5
100
AcDbSymbolTableRecord
100
AcDbLinetypeTableRecord
  2
BYLAYER
 70
     0
  3

 72
    65
 73
     0
 40
0.0
  0
LTYPE
  5
16
330
5
100
AcDbSymbolTableRecord
100
AcDbLinetypeTableRecord
  2
CONTINUOUS
 70
     0
  3
Solid line
 72
    65
 73
     0
 40
0.0
  0
LTYPE
  5
1956
330
5
100
AcDbSymbolTableRecord
100
AcDbLinetypeTableRecord
  2
CENTERX2
 70
     0
  3
________  __  ________  __  ________  __  _____
 72
    65
 73
     4
 40
4.0
 49
2.5
 74
     0
 49
-0.5
 74
     0
 49
0.5
 74
     0
 49
-0.5
 74
     0
  0
LTYPE
  5
15F03
330
5
100
AcDbSymbolTableRecord
100
AcDbLinetypeTableRecord
  2
DASHED2
 70
     0
  3
----    ----    ----    ----    
 72
    65
 73
     2
 40
5.0
 49
2.5
 74
     0
 49
-2.5
 74
     0
  0
ENDTAB
  0
TABLE
  2
LAYER
  5
2
330
0
100
AcDbSymbolTable
 70
     5
  0
LAYER
  5
F
330
2
100
AcDbSymbolTableRecord
100
AcDbLayerTableRecord
  2
0
 70
     0
 62
     7
  6
CONTINUOUS
  0
LAYER
  5
18F
330
2
100
AcDbSymbolTableRecord
100
AcDbLayerTableRecord
  2
ZISSEN1
 70
     0
 62
     7
  6
CONTINUOUS
  0
LAYER
  5
529
330
2
100
AcDbSymbolTableRecord
100
AcDbLayerTableRecord
  2
SUNPOU
 70
     0
 62
     1
  6
CONTINUOUS
  0
LAYER
  5
195A
330
2
100
AcDbSymbolTableRecord
100
AcDbLayerTableRecord
  2
CL1
 70
     0
 62
   210
  6
CENTERX2
  0
LAYER
  5
3A9B
330
2
100
AcDbSymbolTableRecord
100
AcDbLayerTableRecord
  2
DEFPOINTS
 70
     0
 62
     7
  6
CONTINUOUS
  0
ENDTAB
  0
TABLE
  2
STYLE
  5
3
330
0
100
AcDbSymbolTable
 70
     2
  0
STYLE
  5
10
330
3
100
AcDbSymbolTableRecord
100
AcDbTextStyleTableRecord
  2
STANDARD
 70
     0
 40
0.0
 41
1.0
 50
0.0
 71
     0
 42
3.0
  3
txt
  4
BigFont
  0
STYLE
  5
1960
330
3
100
AcDbSymbolTableRecord
100
AcDbTextStyleTableRecord
  2
ゴシック体
 70
     0
 40
0.0
 41
1.0
 50
0.0
 71
     0
 42
2.5
  3
MS Gothic.ttf
  4

1001
ACAD
1000
MS Gothic
1071
    32817
  0
ENDTAB
  0
TABLE
  2
VIEW
  5
6
330
0
100
AcDbSymbolTable
 70
     0
  0
ENDTAB
  0
TABLE
  2
UCS
  5
7
330
0
100
AcDbSymbolTable
 70
     0
  0
ENDTAB
  0
TABLE
  2
APPID
  5
9
330
0
100
AcDbSymbolTable
 70
     5
  0
APPID
  5
11
330
9
100
AcDbSymbolTableRecord
100
AcDbRegAppTableRecord
  2
ACAD
 70
     0
  0
APPID
  5
4005
330
9
100
AcDbSymbolTableRecord
100
AcDbRegAppTableRecord
  2
CONTENTTABDATA
 70
     0
  0
APPID
  5
4006
330
9
100
AcDbSymbolTableRecord
100
AcDbRegAppTableRecord
  2
CONTENTCURRENTTAB
 70
     0
  0
APPID
  5
477B
330
9
100
AcDbSymbolTableRecord
100
AcDbRegAppTableRecord
  2
CONTENTBLOCKDESCRIPTION
 70
     0
  0
APPID
  5
477C
330
9
100
AcDbSymbolTableRecord
100
AcDbRegAppTableRecord
  2
CONTENTBLOCKICON
 70
     0
  0
ENDTAB
  0
TABLE
  2
DIMSTYLE
  5
A
330
0
100
AcDbSymbolTable
 70
     2
  0
DIMSTYLE
105
1D
330
A
100
AcDbSymbolTableRecord
100
AcDbDimStyleTableRecord
  2
STANDARD
 70
     0
  3

  4

  5

  6

  7

 40
1.0
 41
0.18
 42
0.0625
 43
0.38
 44
0.18
 45
0.0
 46
0.0
 47
0.0
 48
0.0
140
0.18
141
0.09
142
0.0
143
25.4
144
1.0
145
0.0
146
1.0
147
0.09
 71
     0
 72
     0
 73
     1
 74
     1
 75
     0
 76
     0
 77
     0
 78
     0
170
     0
171
     2
172
     0
173
     0
174
     0
175
     0
176
     0
177
     0
178
     0
270
     2
271
     4
272
     4
273
     2
274
     2
340
10
275
     0
280
     0
281
     0
282
     0
283
     1
284
     0
285
     0
286
     0
287
     3
288
     0
  0
DIMSTYLE
105
52E
102
{ACAD_REACTORS
330
181BA
330
181BB
330
181BC
330
181BD
330
181BE
330
181D7
330
18208
330
18214
330
18283
330
18284
330
182E8
330
18394
330
183D6
102
}
330
A
100
AcDbSymbolTableRecord
100
AcDbDimStyleTableRecord
  2
標準スタイル
 70
     0
  3

  4

  5

  6

  7

 40
0.0
 41
3.0
 42
0.5
 43
0.5
 44
0.5
 45
0.0
 46
0.0
 47
0.0
 48
0.0
140
3.5
141
0.0
142
0.0
143
25.4
144
1.0
145
0.0
146
1.0
147
1.0
 71
     0
 72
     0
 73
     0
 74
     0
 75
     0
 76
     0
 77
     1
 78
     8
170
     0
171
     2
172
     1
173
     0
174
     0
175
     0
176
     1
177
     1
178
     1
270
     2
271
     2
272
     2
273
     2
274
     2
340
1960
275
     0
280
     0
281
     0
282
     0
283
     1
284
     8
285
     0
286
     0
287
     3
288
     0
  0
ENDTAB
  0
TABLE
  2
BLOCK_RECORD
  5
1
330
0
100
AcDbSymbolTable
 70
    13
  0
BLOCK_RECORD
  5
1A
102
{ACAD_XDICTIONARY
360
1855E
102
}
330
1
100
AcDbSymbolTableRecord
100
AcDbBlockTableRecord
  2
*MODEL_SPACE
  0
BLOCK_RECORD
  5
15176
102
{ACAD_XDICTIONARY
360
18560
102
}
330
1
100
AcDbSymbolTableRecord
100
AcDbBlockTableRecord
  2
*PAPER_SPACE
  0
BLOCK_RECORD
  5
183F2
330
1
100
AcDbSymbolTableRecord
100
AcDbBlockTableRecord
  2
*D0
  0
BLOCK_RECORD
  5
183FE
330
1
100
AcDbSymbolTableRecord
100
AcDbBlockTableRecord
  2
*D1
  0
BLOCK_RECORD
  5
1840C
330
1
100
AcDbSymbolTableRecord
100
AcDbBlockTableRecord
  2
*D2
  0
BLOCK_RECORD
  5
1841A
330
1
100
AcDbSymbolTableRecord
100
AcDbBlockTableRecord
  2
*D3
  0
BLOCK_RECORD
  5
18426
330
1
100
AcDbSymbolTableRecord
100
AcDbBlockTableRecord
  2
*D4
  0
BLOCK_RECORD
  5
18432
330
1
100
AcDbSymbolTableRecord
100
AcDbBlockTableRecord
  2
*D5
  0
BLOCK_RECORD
  5
1843E
330
1
100
AcDbSymbolTableRecord
100
AcDbBlockTableRecord
  2
*D6
  0
BLOCK_RECORD
  5
1844C
330
1
100
AcDbSymbolTableRecord
100
AcDbBlockTableRecord
  2
*D7
  0
BLOCK_RECORD
  5
1845A
330
1
100
AcDbSymbolTableRecord
100
AcDbBlockTableRecord
  2
*D8
  0
BLOCK_RECORD
  5
18466
330
1
100
AcDbSymbolTableRecord
100
AcDbBlockTableRecord
  2
*D9
  0
BLOCK_RECORD
  5
18472
330
1
100
AcDbSymbolTableRecord
100
AcDbBlockTableRecord
  2
*D10
  0
BLOCK_RECORD
  5
18480
330
1
100
AcDbSymbolTableRecord
100
AcDbBlockTableRecord
  2
*D11
  0
BLOCK_RECORD
  5
1848E
330
1
100
AcDbSymbolTableRecord
100
AcDbBlockTableRecord
  2
*D12
  0
ENDTAB
  0
ENDSEC
  0
SECTION
  2
BLOCKS
  0
BLOCK
  5
1B
330
1A
100
AcDbEntity
  8
0
100
AcDbBlockBegin
  2
*MODEL_SPACE
 70
     0
 10
0.0
 20
0.0
 30
0.0
  3
*MODEL_SPACE
  1

  0
ENDBLK
  5
1C
330
1A
100
AcDbEntity
  8
0
100
AcDbBlockEnd
  0
BLOCK
  5
1517A
330
15176
100
AcDbEntity
 67
     1
  8
0
100
AcDbBlockBegin
  2
*PAPER_SPACE
 70
     0
 10
0.0
 20
0.0
 30
0.0
  3
*PAPER_SPACE
  1

  0
ENDBLK
  5
1517B
330
15176
100
AcDbEntity
 67
     1
  8
0
100
AcDbBlockEnd
  0
BLOCK
  5
183FC
330
183F2
100
AcDbEntity
  8
0
100
AcDbBlockBegin
  2
*D0
 70
     1
 10
0.0
 20
0.0
 30
0.0
  3
*D0
  1

  0
LINE
  5
1849C
330
183F2
100
AcDbEntity
  8
SUNPOU
 62
     1
100
AcDbLine
 10
-1462.759369827557
 20
1545.395625549102
 30
0.0
 11
-1462.759369827557
 21
1535.367327711633
 31
0.0
  0
LINE
  5
1849D
330
183F2
100
AcDbEntity
  8
SUNPOU
 62
     1
100
AcDbLine
 10
-1397.759369827557
 20
1543.395625549102
 30
0.0
 11
-1397.759369827557
 21
1535.367327711633
 31
0.0
  0
LINE
  5
1849E
330
183F2
100
AcDbEntity
  8
SUNPOU
 62
     1
100
AcDbLine
 10
-1459.759369827557
 20
1535.867327711633
 30
0.0
 11
-1400.759369827557
 21
1535.867327711633
 31
0.0
  0
SOLID
  5
1849F
330
183F2
100
AcDbEntity
  8
SUNPOU
 62
     1
100
AcDbTrace
 10
-1459.759369827557
 20
1536.367327711633
 30
0.0
 11
-1459.759369827557
 21
1535.367327711633
 31
0.0
 12
-1462.759369827557
 22
1535.867327711633
 32
0.0
 13
-1462.759369827557
 23
1535.867327711633
 33
0.0
  0
SOLID
  5
184A0
330
183F2
100
AcDbEntity
  8
SUNPOU
 62
     1
100
AcDbTrace
 10
-1400.759369827557
 20
1536.367327711633
 30
0.0
 11
-1400.759369827557
 21
1535.367327711633
 31
0.0
 12
-1397.759369827557
 22
1535.867327711633
 32
0.0
 13
-1397.759369827557
 23
1535.867327711633
 33
0.0
  0
MTEXT
  5
184A1
330
183F2
100
AcDbEntity
  8
SUNPOU
 62
     1
100
AcDbMText
 10
-1430.259369827557
 20
1538.617327711633
 30
0.0
 40
3.5
 41
0.0
 71
     5
 72
     1
  1
\A1;65
1001
ACAD
1000
MTEXTBEGIN
1070
    73
1070
     1
1070
    44
1040
1.0
1070
    74
1070
     0
1000
MTEXTEND
  0
POINT
  5
184A2
330
183F2
100
AcDbEntity
  8
DEFPOINTS
 62
     0
100
AcDbPoint
 10
-1462.759369827557
 20
1545.895625549102
 30
0.0
  0
POINT
  5
184A3
330
183F2
100
AcDbEntity
  8
DEFPOINTS
 62
     0
100
AcDbPoint
 10
-1397.759369827557
 20
1543.895625549103
 30
0.0
  0
POINT
  5
184A4
330
183F2
100
AcDbEntity
  8
DEFPOINTS
 62
     0
100
AcDbPoint
 10
-1397.759369827557
 20
1535.867327711633
 30
0.0
  0
ENDBLK
  5
183FD
330
183F2
100
AcDbEntity
  8
0
100
AcDbBlockEnd
  0
BLOCK
  5
1840A
330
183FE
100
AcDbEntity
  8
0
100
AcDbBlockBegin
  2
*D1
 70
     1
 10
0.0
 20
0.0
 30
0.0
  3
*D1
  1

  0
LINE
  5
18562
330
183FE
100
AcDbEntity
  8
SUNPOU
 62
     1
100
AcDbLine
 10
-1398.259369827557
 20
1601.574880962723
 30
0.0
 11
-1380.390156436547
 21
1601.574880962723
 31
0.0
  0
LINE
  5
18563
330
183FE
100
AcDbEntity
  8
SUNPOU
 62
     1
100
AcDbLine
 10
-1450.452447644718
 20
1595.574880962724
 30
0.0
 11
-1380.390156436547
 21
1595.574880962724
 31
0.0
  0
LINE
  5
18564
330
183FE
100
AcDbEntity
  8
SUNPOU
 62
     1
100
AcDbLine
 10
-1380.890156436547
 20
1604.574880962723
 30
0.0
 11
-1380.890156436547
 21
1607.574880962723
 31
0.0
  0
LINE
  5
18565
330
183FE
100
AcDbEntity
  8
SUNPOU
 62
     1
100
AcDbLine
 10
-1380.890156436547
 20
1592.574880962724
 30
0.0
 11
-1380.890156436547
 21
1589.574880962724
 31
0.0
  0
LINE
  5
18566
330
183FE
100
AcDbEntity
  8
SUNPOU
 62
     1
100
AcDbLine
 10
-1380.890156436547
 20
1601.574880962723
 30
0.0
 11
-1380.890156436547
 21
1595.574880962724
 31
0.0
  0
SOLID
  5
18567
330
183FE
100
AcDbEntity
  8
SUNPOU
 62
     1
100
AcDbTrace
 10
-1381.390156436546
 20
1604.574880962723
 30
0.0
 11
-1380.390156436547
 21
1604.574880962723
 31
0.0
 12
-1380.890156436547
 22
1601.574880962723
 32
0.0
 13
-1380.890156436547
 23
1601.574880962723
 33
0.0
  0
SOLID
  5
18568
330
183FE
100
AcDbEntity
  8
SUNPOU
 62
     1
100
AcDbTrace
 10
-1381.390156436546
 20
1592.574880962724
 30
0.0
 11
-1380.390156436547
 21
1592.574880962724
 31
0.0
 12
-1380.890156436547
 22
1595.574880962724
 32
0.0
 13
-1380.890156436547
 23
1595.574880962724
 33
0.0
  0
MTEXT
  5
18569
330
183FE
100
AcDbEntity
  8
SUNPOU
 62
     1
100
AcDbMText
 10
-1383.640156436547
 20
1598.574880962724
 30
0.0
 40
3.5
 41
0.0
 71
     5
 72
     1
  1
\A1;6
 11
0.0000000000000001
 21
1.0
 31
0.0
  0
POINT
  5
1856A
330
183FE
100
AcDbEntity
  8
DEFPOINTS
 62
     0
100
AcDbPoint
 10
-1398.759369827557
 20
1601.574880962723
 30
0.0
  0
POINT
  5
1856B
330
183FE
100
AcDbEntity
  8
DEFPOINTS
 62
     0
100
AcDbPoint
 10
-1450.952447644718
 20
1595.574880962724
 30
0.0
  0
POINT
  5
1856C
330
183FE
100
AcDbEntity
  8
DEFPOINTS
 62
     0
100
AcDbPoint
 10
-1380.890156436547
 20
1595.574880962724
 30
0.0
  0
ENDBLK
  5
1840B
330
183FE
100
AcDbEntity
  8
0
100
AcDbBlockEnd
  0
BLOCK
  5
18418
330
1840C
100
AcDbEntity
  8
0
100
AcDbBlockBegin
  2
*D2
 70
     1
 10
0.0
 20
0.0
 30
0.0
  3
*D2
  1

  0
LINE
  5
184B0
330
1840C
100
AcDbEntity
  8
SUNPOU
 62
     1
100
AcDbLine
 10
-1450.452447644718
 20
1670.574880962724
 30
0.0
 11
-1380.390156436547
 21
1670.574880962724
 31
0.0
  0
LINE
  5
184B1
330
1840C
100
AcDbEntity
  8
SUNPOU
 62
     1
100
AcDbLine
 10
-1398.259369827557
 20
1664.574880962724
 30
0.0
 11
-1380.390156436547
 21
1664.574880962724
 31
0.0
  0
LINE
  5
184B2
330
1840C
100
AcDbEntity
  8
SUNPOU
 62
     1
100
AcDbLine
 10
-1380.890156436547
 20
1673.574880962724
 30
0.0
 11
-1380.890156436547
 21
1676.574880962724
 31
0.0
  0
LINE
  5
184B3
330
1840C
100
AcDbEntity
  8
SUNPOU
 62
     1
100
AcDbLine
 10
-1380.890156436547
 20
1661.574880962724
 30
0.0
 11
-1380.890156436547
 21
1658.574880962724
 31
0.0
  0
LINE
  5
184B4
330
1840C
100
AcDbEntity
  8
SUNPOU
 62
     1
100
AcDbLine
 10
-1380.890156436547
 20
1670.574880962724
 30
0.0
 11
-1380.890156436547
 21
1664.574880962724
 31
0.0
  0
SOLID
  5
184B5
330
1840C
100
AcDbEntity
  8
SUNPOU
 62
     1
100
AcDbTrace
 10
-1381.390156436546
 20
1673.574880962724
 30
0.0
 11
-1380.390156436547
 21
1673.574880962724
 31
0.0
 12
-1380.890156436547
 22
1670.574880962724
 32
0.0
 13
-1380.890156436547
 23
1670.574880962724
 33
0.0
  0
SOLID
  5
184B6
330
1840C
100
AcDbEntity
  8
SUNPOU
 62
     1
100
AcDbTrace
 10
-1381.390156436546
 20
1661.574880962724
 30
0.0
 11
-1380.390156436547
 21
1661.574880962724
 31
0.0
 12
-1380.890156436547
 22
1664.574880962724
 32
0.0
 13
-1380.890156436547
 23
1664.574880962724
 33
0.0
  0
MTEXT
  5
184B7
330
1840C
100
AcDbEntity
  8
SUNPOU
 62
     1
100
AcDbMText
 10
-1383.640156436547
 20
1667.574880962724
 30
0.0
 40
3.5
 41
0.0
 71
     5
 72
     1
  1
\A1;6
 11
0.0000000000000001
 21
1.0
 31
0.0
1001
ACAD
1000
MTEXTBEGIN
1070
    73
1070
     1
1070
    44
1040
1.0
1070
    74
1070
     0
1000
MTEXTEND
  0
POINT
  5
184B8
330
1840C
100
AcDbEntity
  8
DEFPOINTS
 62
     0
100
AcDbPoint
 10
-1450.952447644718
 20
1670.574880962724
 30
0.0
  0
POINT
  5
184B9
330
1840C
100
AcDbEntity
  8
DEFPOINTS
 62
     0
100
AcDbPoint
 10
-1398.759369827557
 20
1664.574880962724
 30
0.0
  0
POINT
  5
184BA
330
1840C
100
AcDbEntity
  8
DEFPOINTS
 62
     0
100
AcDbPoint
 10
-1380.890156436547
 20
1664.574880962724
 30
0.0
  0
ENDBLK
  5
18419
330
1840C
100
AcDbEntity
  8
0
100
AcDbBlockEnd
  0
BLOCK
  5
18424
330
1841A
100
AcDbEntity
  8
0
100
AcDbBlockBegin
  2
*D3
 70
     1
 10
0.0
 20
0.0
 30
0.0
  3
*D3
  1

  0
LINE
  5
184BB
330
1841A
100
AcDbEntity
  8
SUNPOU
 62
     1
100
AcDbLine
 10
-1451.259369827557
 20
1668.074880962724
 30
0.0
 11
-1389.587904564686
 21
1668.074880962724
 31
0.0
  0
LINE
  5
184BC
330
1841A
100
AcDbEntity
  8
SUNPOU
 62
     1
100
AcDbLine
 10
-1451.199512319838
 20
1598.074880962724
 30
0.0
 11
-1389.587904564686
 21
1598.074880962724
 31
0.0
  0
LINE
  5
184BD
330
1841A
100
AcDbEntity
  8
SUNPOU
 62
     1
100
AcDbLine
 10
-1390.087904564687
 20
1665.074880962724
 30
0.0
 11
-1390.087904564687
 21
1601.074880962724
 31
0.0
  0
SOLID
  5
184BE
330
1841A
100
AcDbEntity
  8
SUNPOU
 62
     1
100
AcDbTrace
 10
-1390.587904564686
 20
1665.074880962724
 30
0.0
 11
-1389.587904564686
 21
1665.074880962724
 31
0.0
 12
-1390.087904564687
 22
1668.074880962724
 32
0.0
 13
-1390.087904564687
 23
1668.074880962724
 33
0.0
  0
SOLID
  5
184BF
330
1841A
100
AcDbEntity
  8
SUNPOU
 62
     1
100
AcDbTrace
 10
-1390.587904564686
 20
1601.074880962724
 30
0.0
 11
-1389.587904564686
 21
1601.074880962724
 31
0.0
 12
-1390.087904564687
 22
1598.074880962724
 32
0.0
 13
-1390.087904564687
 23
1598.074880962724
 33
0.0
  0
MTEXT
  5
184C0
330
1841A
100
AcDbEntity
  8
SUNPOU
 62
     1
100
AcDbMText
 10
-1392.837904564687
 20
1633.074880962724
 30
0.0
 40
3.5
 41
0.0
 71
     5
 72
     1
  1
\A1;70
 11
0.0000000000000001
 21
1.0
 31
0.0
1001
ACAD
1000
MTEXTBEGIN
1070
    73
1070
     1
1070
    44
1040
1.0
1070
    74
1070
     0
1000
MTEXTEND
  0
POINT
  5
184C1
330
1841A
100
AcDbEntity
  8
DEFPOINTS
 62
     0
100
AcDbPoint
 10
-1451.759369827557
 20
1668.074880962724
 30
0.0
  0
POINT
  5
184C2
330
1841A
100
AcDbEntity
  8
DEFPOINTS
 62
     0
100
AcDbPoint
 10
-1451.699512319837
 20
1598.074880962724
 30
0.0
  0
POINT
  5
184C3
330
1841A
100
AcDbEntity
  8
DEFPOINTS
 62
     0
100
AcDbPoint
 10
-1390.087904564687
 20
1598.074880962724
 30
0.0
  0
ENDBLK
  5
18425
330
1841A
100
AcDbEntity
  8
0
100
AcDbBlockEnd
  0
BLOCK
  5
18430
330
18426
100
AcDbEntity
  8
0
100
AcDbBlockBegin
  2
*D4
 70
     1
 10
0.0
 20
0.0
 30
0.0
  3
*D4
  1

  0
LINE
  5
1856D
330
18426
100
AcDbEntity
  8
SUNPOU
 62
     1
100
AcDbLine
 10
-1454.759369827557
 20
1594.574880962724
 30
0.0
 11
-1454.759369827557
 21
1587.788644072653
 31
0.0
  0
LINE
  5
1856E
330
18426
100
AcDbEntity
  8
SUNPOU
 62
     1
100
AcDbLine
 10
-1397.759369827557
 20
1602.074880962723
 30
0.0
 11
-1397.759369827557
 21
1587.788644072653
 31
0.0
  0
LINE
  5
1856F
330
18426
100
AcDbEntity
  8
SUNPOU
 62
     1
100
AcDbLine
 10
-1451.759369827557
 20
1588.288644072654
 30
0.0
 11
-1400.759369827557
 21
1588.288644072654
 31
0.0
  0
SOLID
  5
18570
330
18426
100
AcDbEntity
  8
SUNPOU
 62
     1
100
AcDbTrace
 10
-1451.759369827557
 20
1588.788644072653
 30
0.0
 11
-1451.759369827557
 21
1587.788644072653
 31
0.0
 12
-1454.759369827557
 22
1588.288644072654
 32
0.0
 13
-1454.759369827557
 23
1588.288644072654
 33
0.0
  0
SOLID
  5
18571
330
18426
100
AcDbEntity
  8
SUNPOU
 62
     1
100
AcDbTrace
 10
-1400.759369827557
 20
1588.788644072653
 30
0.0
 11
-1400.759369827557
 21
1587.788644072653
 31
0.0
 12
-1397.759369827557
 22
1588.288644072654
 32
0.0
 13
-1397.759369827557
 23
1588.288644072654
 33
0.0
  0
MTEXT
  5
18572
330
18426
100
AcDbEntity
  8
SUNPOU
 62
     1
100
AcDbMText
 10
-1426.259369827557
 20
1591.038644072654
 30
0.0
 40
3.5
 41
0.0
 71
     5
 72
     1
  1
\A1;57
  0
POINT
  5
18573
330
18426
100
AcDbEntity
  8
DEFPOINTS
 62
     0
100
AcDbPoint
 10
-1454.759369827557
 20
1595.074880962724
 30
0.0
  0
POINT
  5
18574
330
18426
100
AcDbEntity
  8
DEFPOINTS
 62
     0
100
AcDbPoint
 10
-1397.759369827557
 20
1602.574880962723
 30
0.0
  0
POINT
  5
18575
330
18426
100
AcDbEntity
  8
DEFPOINTS
 62
     0
100
AcDbPoint
 10
-1397.759369827557
 20
1588.288644072654
 30
0.0
  0
ENDBLK
  5
18431
330
18426
100
AcDbEntity
  8
0
100
AcDbBlockEnd
  0
BLOCK
  5
1843C
330
18432
100
AcDbEntity
  8
0
100
AcDbBlockBegin
  2
*D5
 70
     1
 10
0.0
 20
0.0
 30
0.0
  3
*D5
  1

  0
LINE
  5
184CD
330
18432
100
AcDbEntity
  8
SUNPOU
 62
     1
100
AcDbLine
 10
-1463.259369827557
 20
1670.574880962724
 30
0.0
 11
-1470.511350412371
 21
1670.574880962724
 31
0.0
  0
LINE
  5
184CE
330
18432
100
AcDbEntity
  8
SUNPOU
 62
     1
100
AcDbLine
 10
-1463.259369827557
 20
1595.574880962724
 30
0.0
 11
-1470.511350412371
 21
1595.574880962724
 31
0.0
  0
LINE
  5
184CF
330
18432
100
AcDbEntity
  8
SUNPOU
 62
     1
100
AcDbLine
 10
-1470.01135041237
 20
1667.574880962724
 30
0.0
 11
-1470.01135041237
 21
1598.574880962724
 31
0.0
  0
SOLID
  5
184D0
330
18432
100
AcDbEntity
  8
SUNPOU
 62
     1
100
AcDbTrace
 10
-1470.511350412371
 20
1667.574880962724
 30
0.0
 11
-1469.51135041237
 21
1667.574880962724
 31
0.0
 12
-1470.01135041237
 22
1670.574880962724
 32
0.0
 13
-1470.01135041237
 23
1670.574880962724
 33
0.0
  0
SOLID
  5
184D1
330
18432
100
AcDbEntity
  8
SUNPOU
 62
     1
100
AcDbTrace
 10
-1470.511350412371
 20
1598.574880962724
 30
0.0
 11
-1469.51135041237
 21
1598.574880962724
 31
0.0
 12
-1470.01135041237
 22
1595.574880962724
 32
0.0
 13
-1470.01135041237
 23
1595.574880962724
 33
0.0
  0
MTEXT
  5
184D2
330
18432
100
AcDbEntity
  8
SUNPOU
 62
     1
100
AcDbMText
 10
-1472.761350412371
 20
1633.074880962724
 30
0.0
 40
3.5
 41
0.0
 71
     5
 72
     1
  1
\A1;75
 11
0.0000000000000001
 21
1.0
 31
0.0
1001
ACAD
1000
MTEXTBEGIN
1070
    73
1070
     1
1070
    44
1040
1.0
1070
    74
1070
     0
1000
MTEXTEND
  0
POINT
  5
184D3
330
18432
100
AcDbEntity
  8
DEFPOINTS
 62
     0
100
AcDbPoint
 10
-1462.759369827557
 20
1670.574880962724
 30
0.0
  0
POINT
  5
184D4
330
18432
100
AcDbEntity
  8
DEFPOINTS
 62
     0
100
AcDbPoint
 10
-1462.759369827557
 20
1595.574880962724
 30
0.0
  0
POINT
  5
184D5
330
18432
100
AcDbEntity
  8
DEFPOINTS
 62
     0
100
AcDbPoint
 10
-1470.01135041237
 20
1595.574880962724
 30
0.0
  0
ENDBLK
  5
1843D
330
18432
100
AcDbEntity
  8
0
100
AcDbBlockEnd
  0
BLOCK
  5
1844A
330
1843E
100
AcDbEntity
  8
0
100
AcDbBlockBegin
  2
*D6
 70
     1
 10
0.0
 20
0.0
 30
0.0
  3
*D6
  1

  0
LINE
  5
184D6
330
1843E
100
AcDbEntity
  8
SUNPOU
 62
     1
100
AcDbLine
 10
-1462.759369827557
 20
1595.074880962724
 30
0.0
 11
-1462.759369827557
 21
1587.788644072653
 31
0.0
  0
LINE
  5
184D7
330
1843E
100
AcDbEntity
  8
SUNPOU
 62
     1
100
AcDbLine
 10
-1454.759369827557
 20
1594.574880962724
 30
0.0
 11
-1454.759369827557
 21
1587.788644072653
 31
0.0
  0
LINE
  5
184D8
330
1843E
100
AcDbEntity
  8
SUNPOU
 62
     1
100
AcDbLine
 10
-1465.759369827557
 20
1588.288644072654
 30
0.0
 11
-1468.759369827557
 21
1588.288644072654
 31
0.0
  0
LINE
  5
184D9
330
1843E
100
AcDbEntity
  8
SUNPOU
 62
     1
100
AcDbLine
 10
-1451.759369827557
 20
1588.288644072654
 30
0.0
 11
-1448.759369827557
 21
1588.288644072654
 31
0.0
  0
LINE
  5
184DA
330
1843E
100
AcDbEntity
  8
SUNPOU
 62
     1
100
AcDbLine
 10
-1462.759369827557
 20
1588.288644072654
 30
0.0
 11
-1454.759369827557
 21
1588.288644072654
 31
0.0
  0
SOLID
  5
184DB
330
1843E
100
AcDbEntity
  8
SUNPOU
 62
     1
100
AcDbTrace
 10
-1465.759369827557
 20
1588.788644072653
 30
0.0
 11
-1465.759369827557
 21
1587.788644072653
 31
0.0
 12
-1462.759369827557
 22
1588.288644072654
 32
0.0
 13
-1462.759369827557
 23
1588.288644072654
 33
0.0
  0
SOLID
  5
184DC
330
1843E
100
AcDbEntity
  8
SUNPOU
 62
     1
100
AcDbTrace
 10
-1451.759369827557
 20
1588.788644072653
 30
0.0
 11
-1451.759369827557
 21
1587.788644072653
 31
0.0
 12
-1454.759369827557
 22
1588.288644072654
 32
0.0
 13
-1454.759369827557
 23
1588.288644072654
 33
0.0
  0
MTEXT
  5
184DD
330
1843E
100
AcDbEntity
  8
SUNPOU
 62
     1
100
AcDbMText
 10
-1458.759369827557
 20
1591.038644072654
 30
0.0
 40
3.5
 41
0.0
 71
     5
 72
     1
  1
\A1;8
1001
ACAD
1000
MTEXTBEGIN
1070
    73
1070
     1
1070
    44
1040
1.0
1070
    74
1070
     0
1000
MTEXTEND
  0
POINT
  5
184DE
330
1843E
100
AcDbEntity
  8
DEFPOINTS
 62
     0
100
AcDbPoint
 10
-1462.759369827557
 20
1595.574880962724
 30
0.0
  0
POINT
  5
184DF
330
1843E
100
AcDbEntity
  8
DEFPOINTS
 62
     0
100
AcDbPoint
 10
-1454.759369827557
 20
1595.074880962724
 30
0.0
  0
POINT
  5
184E0
330
1843E
100
AcDbEntity
  8
DEFPOINTS
 62
     0
100
AcDbPoint
 10
-1454.759369827557
 20
1588.288644072654
 30
0.0
  0
ENDBLK
  5
1844B
330
1843E
100
AcDbEntity
  8
0
100
AcDbBlockEnd
  0
BLOCK
  5
18458
330
1844C
100
AcDbEntity
  8
0
100
AcDbBlockBegin
  2
*D7
 70
     1
 10
0.0
 20
0.0
 30
0.0
  3
*D7
  1

  0
LINE
  5
18576
330
1844C
100
AcDbEntity
  8
SUNPOU
 62
     1
100
AcDbLine
 10
-1462.759369827557
 20
1573.395625549102
 30
0.0
 11
-1462.759369827557
 21
1578.544993543402
 31
0.0
  0
LINE
  5
18577
330
1844C
100
AcDbEntity
  8
SUNPOU
 62
     1
100
AcDbLine
 10
-1460.759369827557
 20
1573.395625549102
 30
0.0
 11
-1460.759369827557
 21
1578.544993543402
 31
0.0
  0
LINE
  5
18578
330
1844C
100
AcDbEntity
  8
SUNPOU
 62
     1
100
AcDbLine
 10
-1465.759369827557
 20
1578.044993543402
 30
0.0
 11
-1468.759369827557
 21
1578.044993543402
 31
0.0
  0
LINE
  5
18579
330
1844C
100
AcDbEntity
  8
SUNPOU
 62
     1
100
AcDbLine
 10
-1457.759369827557
 20
1578.044993543402
 30
0.0
 11
-1454.759369827557
 21
1578.044993543402
 31
0.0
  0
MTEXT
  5
1857A
330
1844C
100
AcDbEntity
  8
SUNPOU
 62
     1
100
AcDbMText
 10
-1461.890038260712
 20
1581.445415558413
 30
0.0
 40
3.5
 41
0.0
 71
     5
 72
     1
  1
\A1;2
  0
LINE
  5
1857B
330
1844C
100
AcDbEntity
  8
SUNPOU
 62
     1
100
AcDbLine
 10
-1462.759369827557
 20
1578.044993543402
 30
0.0
 11
-1460.759369827557
 21
1578.044993543402
 31
0.0
  0
SOLID
  5
1857C
330
1844C
100
AcDbEntity
  8
SUNPOU
 62
     1
100
AcDbTrace
 10
-1465.759369827557
 20
1578.544993543402
 30
0.0
 11
-1465.759369827557
 21
1577.544993543402
 31
0.0
 12
-1462.759369827557
 22
1578.044993543402
 32
0.0
 13
-1462.759369827557
 23
1578.044993543402
 33
0.0
  0
SOLID
  5
1857D
330
1844C
100
AcDbEntity
  8
SUNPOU
 62
     1
100
AcDbTrace
 10
-1457.759369827557
 20
1578.544993543402
 30
0.0
 11
-1457.759369827557
 21
1577.544993543402
 31
0.0
 12
-1460.759369827557
 22
1578.044993543402
 32
0.0
 13
-1460.759369827557
 23
1578.044993543402
 33
0.0
  0
POINT
  5
1857E
330
1844C
100
AcDbEntity
  8
DEFPOINTS
 62
     0
100
AcDbPoint
 10
-1462.759369827557
 20
1572.895625549102
 30
0.0
  0
POINT
  5
1857F
330
1844C
100
AcDbEntity
  8
DEFPOINTS
 62
     0
100
AcDbPoint
 10
-1460.759369827557
 20
1572.895625549102
 30
0.0
  0
POINT
  5
18580
330
1844C
100
AcDbEntity
  8
DEFPOINTS
 62
     0
100
AcDbPoint
 10
-1460.759369827557
 20
1578.044993543402
 30
0.0
  0
ENDBLK
  5
18459
330
1844C
100
AcDbEntity
  8
0
100
AcDbBlockEnd
  0
BLOCK
  5
18464
330
1845A
100
AcDbEntity
  8
0
100
AcDbBlockBegin
  2
*D8
 70
     1
 10
0.0
 20
0.0
 30
0.0
  3
*D8
  1

  0
LINE
  5
18581
330
1845A
100
AcDbEntity
  8
SUNPOU
 62
     1
100
AcDbLine
 10
-1339.765241358099
 20
1668.074880962724
 30
0.0
 11
-1357.250429859103
 21
1668.074880962724
 31
0.0
  0
LINE
  5
18582
330
1845A
100
AcDbEntity
  8
SUNPOU
 62
     1
100
AcDbLine
 10
-1339.765241358099
 20
1598.074880962724
 30
0.0
 11
-1357.250429859103
 21
1598.074880962724
 31
0.0
  0
LINE
  5
18583
330
1845A
100
AcDbEntity
  8
SUNPOU
 62
     1
100
AcDbLine
 10
-1356.750429859103
 20
1665.074880962724
 30
0.0
 11
-1356.750429859103
 21
1601.074880962724
 31
0.0
  0
SOLID
  5
18584
330
1845A
100
AcDbEntity
  8
SUNPOU
 62
     1
100
AcDbTrace
 10
-1357.250429859103
 20
1665.074880962724
 30
0.0
 11
-1356.250429859103
 21
1665.074880962724
 31
0.0
 12
-1356.750429859103
 22
1668.074880962724
 32
0.0
 13
-1356.750429859103
 23
1668.074880962724
 33
0.0
  0
SOLID
  5
18585
330
1845A
100
AcDbEntity
  8
SUNPOU
 62
     1
100
AcDbTrace
 10
-1357.250429859103
 20
1601.074880962724
 30
0.0
 11
-1356.250429859103
 21
1601.074880962724
 31
0.0
 12
-1356.750429859103
 22
1598.074880962724
 32
0.0
 13
-1356.750429859103
 23
1598.074880962724
 33
0.0
  0
MTEXT
  5
18586
330
1845A
100
AcDbEntity
  8
SUNPOU
 62
     1
100
AcDbMText
 10
-1359.500429859103
 20
1633.074880962724
 30
0.0
 40
3.5
 41
0.0
 71
     5
 72
     1
  1
\A1;70
 11
0.0000000000000001
 21
1.0
 31
0.0
  0
POINT
  5
18587
330
1845A
100
AcDbEntity
  8
DEFPOINTS
 62
     0
100
AcDbPoint
 10
-1339.265241358098
 20
1668.074880962724
 30
0.0
  0
POINT
  5
18588
330
1845A
100
AcDbEntity
  8
DEFPOINTS
 62
     0
100
AcDbPoint
 10
-1339.265241358098
 20
1598.074880962724
 30
0.0
  0
POINT
  5
18589
330
1845A
100
AcDbEntity
  8
DEFPOINTS
 62
     0
100
AcDbPoint
 10
-1356.750429859103
 20
1598.074880962724
 30
0.0
  0
ENDBLK
  5
18465
330
1845A
100
AcDbEntity
  8
0
100
AcDbBlockEnd
  0
BLOCK
  5
18470
330
18466
100
AcDbEntity
  8
0
100
AcDbBlockBegin
  2
*D9
 70
     1
 10
0.0
 20
0.0
 30
0.0
  3
*D9
  1

  0
LINE
  5
1858A
330
18466
100
AcDbEntity
  8
SUNPOU
 62
     1
100
AcDbLine
 10
-1398.259369827557
 20
1664.574880962724
 30
0.0
 11
-1380.390156436547
 21
1664.574880962724
 31
0.0
  0
LINE
  5
1858B
330
18466
100
AcDbEntity
  8
SUNPOU
 62
     1
100
AcDbLine
 10
-1398.259369827557
 20
1601.574880962723
 30
0.0
 11
-1380.390156436547
 21
1601.574880962723
 31
0.0
  0
LINE
  5
1858C
330
18466
100
AcDbEntity
  8
SUNPOU
 62
     1
100
AcDbLine
 10
-1380.890156436547
 20
1661.574880962724
 30
0.0
 11
-1380.890156436547
 21
1604.574880962723
 31
0.0
  0
SOLID
  5
1858D
330
18466
100
AcDbEntity
  8
SUNPOU
 62
     1
100
AcDbTrace
 10
-1381.390156436546
 20
1661.574880962724
 30
0.0
 11
-1380.390156436547
 21
1661.574880962724
 31
0.0
 12
-1380.890156436547
 22
1664.574880962724
 32
0.0
 13
-1380.890156436547
 23
1664.574880962724
 33
0.0
  0
SOLID
  5
1858E
330
18466
100
AcDbEntity
  8
SUNPOU
 62
     1
100
AcDbTrace
 10
-1381.390156436546
 20
1604.574880962723
 30
0.0
 11
-1380.390156436547
 21
1604.574880962723
 31
0.0
 12
-1380.890156436547
 22
1601.574880962723
 32
0.0
 13
-1380.890156436547
 23
1601.574880962723
 33
0.0
  0
MTEXT
  5
1858F
330
18466
100
AcDbEntity
  8
SUNPOU
 62
     1
100
AcDbMText
 10
-1383.640156436547
 20
1633.074880962723
 30
0.0
 40
3.5
 41
0.0
 71
     5
 72
     1
  1
\A1;63
 11
0.0000000000000001
 21
1.0
 31
0.0
  0
POINT
  5
18590
330
18466
100
AcDbEntity
  8
DEFPOINTS
 62
     0
100
AcDbPoint
 10
-1398.759369827557
 20
1664.574880962724
 30
0.0
  0
POINT
  5
18591
330
18466
100
AcDbEntity
  8
DEFPOINTS
 62
     0
100
AcDbPoint
 10
-1398.759369827557
 20
1601.574880962723
 30
0.0
  0
POINT
  5
18592
330
18466
100
AcDbEntity
  8
DEFPOINTS
 62
     0
100
AcDbPoint
 10
-1380.890156436547
 20
1601.574880962723
 30
0.0
  0
ENDBLK
  5
18471
330
18466
100
AcDbEntity
  8
0
100
AcDbBlockEnd
  0
BLOCK
  5
1847E
330
18472
100
AcDbEntity
  8
0
100
AcDbBlockBegin
  2
*D10
 70
     1
 10
0.0
 20
0.0
 30
0.0
  3
*D10
  1

  0
LINE
  5
18593
330
18472
100
AcDbEntity
  8
SUNPOU
 62
     1
100
AcDbLine
 10
-1339.765241358099
 20
1598.074880962724
 30
0.0
 11
-1357.250429859103
 21
1598.074880962724
 31
0.0
  0
LINE
  5
18594
330
18472
100
AcDbEntity
  8
SUNPOU
 62
     1
100
AcDbLine
 10
-1347.765241358099
 20
1595.574880962724
 30
0.0
 11
-1357.250429859103
 21
1595.574880962724
 31
0.0
  0
LINE
  5
18595
330
18472
100
AcDbEntity
  8
SUNPOU
 62
     1
100
AcDbLine
 10
-1356.750429859103
 20
1601.074880962724
 30
0.0
 11
-1356.750429859103
 21
1604.074880962724
 31
0.0
  0
LINE
  5
18596
330
18472
100
AcDbEntity
  8
SUNPOU
 62
     1
100
AcDbLine
 10
-1356.750429859103
 20
1592.574880962724
 30
0.0
 11
-1356.750429859103
 21
1589.574880962724
 31
0.0
  0
MTEXT
  5
18597
330
18472
100
AcDbEntity
  8
SUNPOU
 62
     1
100
AcDbMText
 10
-1359.435956645629
 20
1590.613464504347
 30
0.0
 40
3.5
 41
0.0
 71
     5
 72
     1
  1
\A1;2.5
 11
0.0000000000000001
 21
1.0
 31
0.0
  0
LINE
  5
18598
330
18472
100
AcDbEntity
  8
SUNPOU
 62
     1
100
AcDbLine
 10
-1356.750429859103
 20
1598.074880962724
 30
0.0
 11
-1356.750429859103
 21
1595.574880962724
 31
0.0
  0
SOLID
  5
18599
330
18472
100
AcDbEntity
  8
SUNPOU
 62
     1
100
AcDbTrace
 10
-1357.250429859103
 20
1601.074880962724
 30
0.0
 11
-1356.250429859103
 21
1601.074880962724
 31
0.0
 12
-1356.750429859103
 22
1598.074880962724
 32
0.0
 13
-1356.750429859103
 23
1598.074880962724
 33
0.0
  0
SOLID
  5
1859A
330
18472
100
AcDbEntity
  8
SUNPOU
 62
     1
100
AcDbTrace
 10
-1357.250429859103
 20
1592.574880962724
 30
0.0
 11
-1356.250429859103
 21
1592.574880962724
 31
0.0
 12
-1356.750429859103
 22
1595.574880962724
 32
0.0
 13
-1356.750429859103
 23
1595.574880962724
 33
0.0
  0
POINT
  5
1859B
330
18472
100
AcDbEntity
  8
DEFPOINTS
 62
     0
100
AcDbPoint
 10
-1339.265241358098
 20
1598.074880962724
 30
0.0
  0
POINT
  5
1859C
330
18472
100
AcDbEntity
  8
DEFPOINTS
 62
     0
100
AcDbPoint
 10
-1347.265241358098
 20
1595.574880962724
 30
0.0
  0
POINT
  5
1859D
330
18472
100
AcDbEntity
  8
DEFPOINTS
 62
     0
100
AcDbPoint
 10
-1356.750429859103
 20
1595.574880962724
 30
0.0
  0
ENDBLK
  5
1847F
330
18472
100
AcDbEntity
  8
0
100
AcDbBlockEnd
  0
BLOCK
  5
1848C
330
18480
100
AcDbEntity
  8
0
100
AcDbBlockBegin
  2
*D11
 70
     1
 10
0.0
 20
0.0
 30
0.0
  3
*D11
  1

  0
LINE
  5
1859E
330
18480
100
AcDbEntity
  8
SUNPOU
 62
     1
100
AcDbLine
 10
-1347.765241358099
 20
1670.574880962724
 30
0.0
 11
-1357.250429859103
 21
1670.574880962724
 31
0.0
  0
LINE
  5
1859F
330
18480
100
AcDbEntity
  8
SUNPOU
 62
     1
100
AcDbLine
 10
-1339.765241358099
 20
1668.074880962724
 30
0.0
 11
-1357.250429859103
 21
1668.074880962724
 31
0.0
  0
LINE
  5
185A0
330
18480
100
AcDbEntity
  8
SUNPOU
 62
     1
100
AcDbLine
 10
-1356.750429859103
 20
1673.574880962724
 30
0.0
 11
-1356.750429859103
 21
1676.574880962724
 31
0.0
  0
LINE
  5
185A1
330
18480
100
AcDbEntity
  8
SUNPOU
 62
     1
100
AcDbLine
 10
-1356.750429859103
 20
1665.074880962724
 30
0.0
 11
-1356.750429859103
 21
1662.074880962724
 31
0.0
  0
MTEXT
  5
185A2
330
18480
100
AcDbEntity
  8
SUNPOU
 62
     1
100
AcDbMText
 10
-1359.474067265678
 20
1674.587958499347
 30
0.0
 40
3.5
 41
0.0
 71
     5
 72
     1
  1
\A1;2.5
 11
0.0000000000000001
 21
1.0
 31
0.0
  0
LINE
  5
185A3
330
18480
100
AcDbEntity
  8
SUNPOU
 62
     1
100
AcDbLine
 10
-1356.750429859103
 20
1670.574880962724
 30
0.0
 11
-1356.750429859103
 21
1668.074880962724
 31
0.0
  0
SOLID
  5
185A4
330
18480
100
AcDbEntity
  8
SUNPOU
 62
     1
100
AcDbTrace
 10
-1357.250429859103
 20
1673.574880962724
 30
0.0
 11
-1356.250429859103
 21
1673.574880962724
 31
0.0
 12
-1356.750429859103
 22
1670.574880962724
 32
0.0
 13
-1356.750429859103
 23
1670.574880962724
 33
0.0
  0
SOLID
  5
185A5
330
18480
100
AcDbEntity
  8
SUNPOU
 62
     1
100
AcDbTrace
 10
-1357.250429859103
 20
1665.074880962724
 30
0.0
 11
-1356.250429859103
 21
1665.074880962724
 31
0.0
 12
-1356.750429859103
 22
1668.074880962724
 32
0.0
 13
-1356.750429859103
 23
1668.074880962724
 33
0.0
  0
POINT
  5
185A6
330
18480
100
AcDbEntity
  8
DEFPOINTS
 62
     0
100
AcDbPoint
 10
-1347.265241358098
 20
1670.574880962724
 30
0.0
  0
POINT
  5
185A7
330
18480
100
AcDbEntity
  8
DEFPOINTS
 62
     0
100
AcDbPoint
 10
-1339.265241358098
 20
1668.074880962724
 30
0.0
  0
POINT
  5
185A8
330
18480
100
AcDbEntity
  8
DEFPOINTS
 62
     0
100
AcDbPoint
 10
-1356.750429859103
 20
1668.074880962724
 30
0.0
  0
ENDBLK
  5
1848D
330
18480
100
AcDbEntity
  8
0
100
AcDbBlockEnd
  0
BLOCK
  5
1849A
330
1848E
100
AcDbEntity
  8
0
100
AcDbBlockBegin
  2
*D12
 70
     1
 10
0.0
 20
0.0
 30
0.0
  3
*D12
  1

  0
LINE
  5
185A9
330
1848E
100
AcDbEntity
  8
SUNPOU
 62
     1
100
AcDbLine
 10
-1338.015241358099
 20
1671.074880962724
 30
0.0
 11
-1338.015241358099
 21
1678.02549021545
 31
0.0
  0
LINE
  5
185AA
330
1848E
100
AcDbEntity
  8
SUNPOU
 62
     1
100
AcDbLine
 10
-1334.515241358099
 20
1671.074880962724
 30
0.0
 11
-1334.515241358099
 21
1678.02549021545
 31
0.0
  0
LINE
  5
185AB
330
1848E
100
AcDbEntity
  8
SUNPOU
 62
     1
100
AcDbLine
 10
-1341.015241358099
 20
1677.52549021545
 30
0.0
 11
-1344.015241358099
 21
1677.52549021545
 31
0.0
  0
LINE
  5
185AC
330
1848E
100
AcDbEntity
  8
SUNPOU
 62
     1
100
AcDbLine
 10
-1331.515241358099
 20
1677.52549021545
 30
0.0
 11
-1328.515241358099
 21
1677.52549021545
 31
0.0
  0
MTEXT
  5
185AD
330
1848E
100
AcDbEntity
  8
SUNPOU
 62
     1
100
AcDbMText
 10
-1336.4988429653
 20
1681.052817561534
 30
0.0
 40
3.5
 41
0.0
 71
     5
 72
     1
  1
\A1;3.5
  0
LINE
  5
185AE
330
1848E
100
AcDbEntity
  8
SUNPOU
 62
     1
100
AcDbLine
 10
-1338.015241358099
 20
1677.52549021545
 30
0.0
 11
-1334.515241358099
 21
1677.52549021545
 31
0.0
  0
SOLID
  5
185AF
330
1848E
100
AcDbEntity
  8
SUNPOU
 62
     1
100
AcDbTrace
 10
-1341.015241358099
 20
1678.02549021545
 30
0.0
 11
-1341.015241358099
 21
1677.02549021545
 31
0.0
 12
-1338.015241358099
 22
1677.52549021545
 32
0.0
 13
-1338.015241358099
 23
1677.52549021545
 33
0.0
  0
SOLID
  5
185B0
330
1848E
100
AcDbEntity
  8
SUNPOU
 62
     1
100
AcDbTrace
 10
-1331.515241358099
 20
1678.02549021545
 30
0.0
 11
-1331.515241358099
 21
1677.02549021545
 31
0.0
 12
-1334.515241358099
 22
1677.52549021545
 32
0.0
 13
-1334.515241358099
 23
1677.52549021545
 33
0.0
  0
POINT
  5
185B1
330
1848E
100
AcDbEntity
  8
DEFPOINTS
 62
     0
100
AcDbPoint
 10
-1338.015241358099
 20
1670.574880962724
 30
0.0
  0
POINT
  5
185B2
330
1848E
100
AcDbEntity
  8
DEFPOINTS
 62
     0
100
AcDbPoint
 10
-1334.515241358099
 20
1670.574880962724
 30
0.0
  0
POINT
  5
185B3
330
1848E
100
AcDbEntity
  8
DEFPOINTS
 62
     0
100
AcDbPoint
 10
-1334.515241358099
 20
1677.52549021545
 30
0.0
  0
ENDBLK
  5
1849B
330
1848E
100
AcDbEntity
  8
0
100
AcDbBlockEnd
  0
ENDSEC
  0
SECTION
  2
ENTITIES
  0
MTEXT
  5
5084
330
1A
100
AcDbEntity
  8
0
100
AcDbMText
 10
1985.239088685435
 20
-948.5420423450428
 30
0.0
 40
8.0
 41
0.0
 71
     7
 72
     5
  1

1001
ACAD
1000
MTEXTBEGIN
1070
    73
1070
     1
1070
    44
1040
1.0
1070
    74
1070
     0
1000
MTEXTEND
  0
MTEXT
  5
5085
330
1A
100
AcDbEntity
  8
0
100
AcDbMText
 10
4270.596778580329
 20
22.24825240601649
 30
0.0
 40
8.0
 41
0.0
 71
     7
 72
     5
  1

1001
ACAD
1000
MTEXTBEGIN
1070
    73
1070
     1
1070
    44
1040
1.0
1070
    74
1070
     0
1000
MTEXTEND
  0
MTEXT
  5
5343
330
1A
100
AcDbEntity
  8
SUNPOU
100
AcDbMText
 10
6936.493799262471
 20
9534.359644781135
 30
0.0
 40
10.5
 41
0.0
 71
     1
 72
     5
  1

1001
ACAD
1000
MTEXTBEGIN
1070
    73
1070
     1
1070
    44
1040
1.0
1070
    74
1070
     0
1000
MTEXTEND
  0
MTEXT
  5
544F
330
1A
100
AcDbEntity
  8
0
100
AcDbMText
 10
16317.2832773148
 20
12833.35428897674
 30
0.0
 40
8.0
 41
0.0
 71
     7
 72
     5
  1

1001
ACAD
1000
MTEXTBEGIN
1070
    73
1070
     1
1070
    44
1040
1.0
1070
    74
1070
     0
1000
MTEXTEND
  0
MTEXT
  5
5450
330
1A
100
AcDbEntity
  8
0
100
AcDbMText
 10
18602.64096720969
 20
13804.1445837278
 30
0.0
 40
8.0
 41
0.0
 71
     7
 72
     5
  1

1001
ACAD
1000
MTEXTBEGIN
1070
    73
1070
     1
1070
    44
1040
1.0
1070
    74
1070
     0
1000
MTEXTEND
  0
MTEXT
  5
5451
330
1A
100
AcDbEntity
  8
SUNPOU
100
AcDbMText
 10
21268.53798789184
 20
23316.25597610292
 30
0.0
 40
10.5
 41
0.0
 71
     1
 72
     5
  1

1001
ACAD
1000
MTEXTBEGIN
1070
    73
1070
     1
1070
    44
1040
1.0
1070
    74
1070
     0
1000
MTEXTEND
  0
MTEXT
  5
5452
330
1A
100
AcDbEntity
  8
SUNPOU
100
AcDbMText
 10
13337.6147919559
 20
22369.46284218996
 30
0.0
 40
10.5
 41
0.0
 71
     7
 72
     5
  1

1001
ACAD
1000
MTEXTBEGIN
1070
    73
1070
     1
1070
    44
1040
1.0
1070
    74
1070
     0
1000
MTEXTEND
  0
MTEXT
  5
5453
330
1A
100
AcDbEntity
  8
SUNPOU
100
AcDbMText
 10
16286.59845646867
 20
27270.13891403281
 30
0.0
 40
10.5
 41
0.0
 71
     7
 72
     5
  1

1001
ACAD
1000
MTEXTBEGIN
1070
    73
1070
     1
1070
    44
1040
1.0
1070
    74
1070
     0
1000
MTEXTEND
  0
MTEXT
  5
5454
330
1A
100
AcDbEntity
  8
SUNPOU
100
AcDbMText
 10
20795.67658441924
 20
29706.43966165288
 30
0.0
 40
10.5
 41
0.0
 71
     7
 72
     5
  1

1001
ACAD
1000
MTEXTBEGIN
1070
    73
1070
     1
1070
    44
1040
1.0
1070
    74
1070
     0
1000
MTEXTEND
  0
MTEXT
  5
5455
330
1A
100
AcDbEntity
  8
0
100
AcDbMText
 10
16611.93789220314
 20
14707.52144344448
 30
0.0
 40
8.0
 41
0.0
 71
     7
 72
     5
  1

1001
ACAD
1000
MTEXTBEGIN
1070
    73
1070
     1
1070
    44
1040
1.0
1070
    74
1070
     0
1000
MTEXTEND
  0
MTEXT
  5
5456
330
1A
100
AcDbEntity
  8
0
100
AcDbMText
 10
18897.29558209804
 20
15678.31173819554
 30
0.0
 40
8.0
 41
0.0
 71
     7
 72
     5
  1

1001
ACAD
1000
MTEXTBEGIN
1070
    73
1070
     1
1070
    44
1040
1.0
1070
    74
1070
     0
1000
MTEXTEND
  0
MTEXT
  5
5457
330
1A
100
AcDbEntity
  8
SUNPOU
100
AcDbMText
 10
21563.19260278019
 20
25190.42313057066
 30
0.0
 40
10.5
 41
0.0
 71
     1
 72
     5
  1

1001
ACAD
1000
MTEXTBEGIN
1070
    73
1070
     1
1070
    44
1040
1.0
1070
    74
1070
     0
1000
MTEXTEND
  0
MTEXT
  5
5458
330
1A
100
AcDbEntity
  8
SUNPOU
100
AcDbMText
 10
13632.26940684426
 20
24243.6299966577
 30
0.0
 40
10.5
 41
0.0
 71
     7
 72
     5
  1

1001
ACAD
1000
MTEXTBEGIN
1070
    73
1070
     1
1070
    44
1040
1.0
1070
    74
1070
     0
1000
MTEXTEND
  0
MTEXT
  5
5459
330
1A
100
AcDbEntity
  8
SUNPOU
100
AcDbMText
 10
16581.25307135702
 20
29144.30606850055
 30
0.0
 40
10.5
 41
0.0
 71
     7
 72
     5
  1

1001
ACAD
1000
MTEXTBEGIN
1070
    73
1070
     1
1070
    44
1040
1.0
1070
    74
1070
     0
1000
MTEXTEND
  0
MTEXT
  5
545A
330
1A
100
AcDbEntity
  8
SUNPOU
100
AcDbMText
 10
21090.33119930759
 20
31580.60681612062
 30
0.0
 40
10.5
 41
0.0
 71
     7
 72
     5
  1

1001
ACAD
1000
MTEXTBEGIN
1070
    73
1070
     1
1070
    44
1040
1.0
1070
    74
1070
     0
1000
MTEXTEND
  0
MTEXT
  5
545B
330
1A
100
AcDbEntity
  8
0
100
AcDbMText
 10
22871.60517627167
 20
23974.88367124799
 30
0.0
 40
8.0
 41
0.0
 71
     7
 72
     5
  1

1001
ACAD
1000
MTEXTBEGIN
1070
    73
1070
     1
1070
    44
1040
1.0
1070
    74
1070
     0
1000
MTEXTEND
  0
MTEXT
  5
545C
330
1A
100
AcDbEntity
  8
0
100
AcDbMText
 10
25156.96286616657
 20
24945.67396599906
 30
0.0
 40
8.0
 41
0.0
 71
     7
 72
     5
  1

1001
ACAD
1000
MTEXTBEGIN
1070
    73
1070
     1
1070
    44
1040
1.0
1070
    74
1070
     0
1000
MTEXTEND
  0
MTEXT
  5
545D
330
1A
100
AcDbEntity
  8
SUNPOU
100
AcDbMText
 10
27822.85988684871
 20
34457.78535837418
 30
0.0
 40
10.5
 41
0.0
 71
     1
 72
     5
  1

1001
ACAD
1000
MTEXTBEGIN
1070
    73
1070
     1
1070
    44
1040
1.0
1070
    74
1070
     0
1000
MTEXTEND
  0
MTEXT
  5
545E
330
1A
100
AcDbEntity
  8
SUNPOU
100
AcDbMText
 10
19891.93669091278
 20
33510.99222446122
 30
0.0
 40
10.5
 41
0.0
 71
     7
 72
     5
  1

1001
ACAD
1000
MTEXTBEGIN
1070
    73
1070
     1
1070
    44
1040
1.0
1070
    74
1070
     0
1000
MTEXTEND
  0
MTEXT
  5
545F
330
1A
100
AcDbEntity
  8
SUNPOU
100
AcDbMText
 10
22840.92035542555
 20
38411.66829630407
 30
0.0
 40
10.5
 41
0.0
 71
     7
 72
     5
  1

1001
ACAD
1000
MTEXTBEGIN
1070
    73
1070
     1
1070
    44
1040
1.0
1070
    74
1070
     0
1000
MTEXTEND
  0
MTEXT
  5
5460
330
1A
100
AcDbEntity
  8
SUNPOU
100
AcDbMText
 10
27349.99848337611
 20
40847.96904392415
 30
0.0
 40
10.5
 41
0.0
 71
     7
 72
     5
  1

1001
ACAD
1000
MTEXTBEGIN
1070
    73
1070
     1
1070
    44
1040
1.0
1070
    74
1070
     0
1000
MTEXTEND
  0
MTEXT
  5
55B7
330
1A
100
AcDbEntity
  8
SUNPOU
100
AcDbMText
 10
67424.23923338197
 20
64463.86602884816
 30
0.0
 40
10.5
 41
0.0
 71
     9
 72
     5
  1

1001
ACAD
1000
MTEXTBEGIN
1070
    73
1070
     1
1070
    44
1040
1.0
1070
    74
1070
     0
1000
MTEXTEND
  0
MTEXT
  5
55B8
330
1A
100
AcDbEntity
  8
SUNPOU
100
AcDbMText
 10
76146.40679929998
 20
71879.70056038563
 30
0.0
 40
10.5
 41
0.0
 71
     9
 72
     5
  1

1001
ACAD
1000
MTEXTBEGIN
1070
    73
1070
     1
1070
    44
1040
1.0
1070
    74
1070
     0
1000
MTEXTEND
  0
MTEXT
  5
55B9
330
1A
100
AcDbEntity
  8
SUNPOU
100
AcDbMText
 10
95100.16551662994
 20
89346.27661287766
 30
0.0
 40
10.5
 41
0.0
 71
     9
 72
     5
  1

1001
ACAD
1000
MTEXTBEGIN
1070
    73
1070
     1
1070
    44
1040
1.0
1070
    74
1070
     0
1000
MTEXTEND
  0
MTEXT
  5
55BA
330
1A
100
AcDbEntity
  8
SUNPOU
100
AcDbMText
 10
97043.57276333936
 20
87545.22753299966
 30
0.0
 40
3.5
 41
0.0
 71
     9
 72
     5
  1

1001
ACAD
1000
MTEXTBEGIN
1070
    73
1070
     1
1070
    44
1040
1.0
1070
    74
1070
     0
1000
MTEXTEND
  0
MTEXT
  5
55BB
330
1A
100
AcDbEntity
  8
SUNPOU
100
AcDbMText
 10
128169.752595959
 20
130040.1732006569
 30
0.0
 40
10.5
 41
0.0
 71
     9
 72
     5
  1

1001
ACAD
1000
MTEXTBEGIN
1070
    73
1070
     1
1070
    44
1040
1.0
1070
    74
1070
     0
1000
MTEXTEND
  0
MTEXT
  5
55BC
330
1A
100
AcDbEntity
  8
SUNPOU
100
AcDbMText
 10
130113.1598426684
 20
128239.1241207789
 30
0.0
 40
3.5
 41
0.0
 71
     9
 72
     5
  1

1001
ACAD
1000
MTEXTBEGIN
1070
    73
1070
     1
1070
    44
1040
1.0
1070
    74
1070
     0
1000
MTEXTEND
  0
MTEXT
  5
55BD
330
1A
100
AcDbEntity
  8
SUNPOU
100
AcDbMText
 10
78610.02030175463
 20
75873.33835563206
 30
0.0
 40
10.5
 41
0.0
 71
     9
 72
     5
  1

1001
ACAD
1000
MTEXTBEGIN
1070
    73
1070
     1
1070
    44
1040
1.0
1070
    74
1070
     0
1000
MTEXTEND
  0
MTEXT
  5
55BE
330
1A
100
AcDbEntity
  8
SUNPOU
100
AcDbMText
 10
64662.02020137863
 20
56700.93921651987
 30
0.0
 40
3.5
 41
0.0
 71
     7
 72
     5
  1

1001
ACAD
1000
MTEXTBEGIN
1070
    73
1070
     1
1070
    44
1040
1.0
1070
    74
1070
     0
1000
MTEXTEND
  0
MTEXT
  5
55BF
330
1A
100
AcDbEntity
  8
SUNPOU
100
AcDbMText
 10
45647.18959837178
 20
44463.08794733807
 30
0.0
 40
10.5
 41
0.0
 71
     7
 72
     5
  1

1001
ACAD
1000
MTEXTBEGIN
1070
    73
1070
     1
1070
    44
1040
1.0
1070
    74
1070
     0
1000
MTEXTEND
  0
MTEXT
  5
55C0
330
1A
100
AcDbEntity
  8
SUNPOU
100
AcDbMText
 10
33189.96133342368
 20
28618.15636923965
 30
0.0
 40
35.0
 41
0.0
 71
     9
 72
     5
  1

1001
ACAD
1000
MTEXTBEGIN
1070
    73
1070
     1
1070
    44
1040
1.0
1070
    74
1070
     0
1000
MTEXTEND
  0
MTEXT
  5
55C1
330
1A
100
AcDbEntity
  8
SUNPOU
100
AcDbMText
 10
32098.44639099864
 20
29226.93177928835
 30
0.0
 40
350.0000004171781
 41
0.0
 71
     7
 72
     5
  1

1001
ACAD
1000
MTEXTBEGIN
1070
    73
1070
     1
1070
    44
1040
1.0
1070
    74
1070
     0
1000
MTEXTEND
  0
MTEXT
  5
55C2
330
1A
100
AcDbEntity
  8
0
100
AcDbMText
 10
38142.39714894154
 20
27206.85414142458
 30
0.0
 40
8.0
 41
0.0
 71
     7
 72
     5
  1

1001
ACAD
1000
MTEXTBEGIN
1070
    73
1070
     1
1070
    44
1040
1.0
1070
    74
1070
     0
1000
MTEXTEND
  0
MTEXT
  5
55C3
330
1A
100
AcDbEntity
  8
0
100
AcDbMText
 10
40427.75483883644
 20
28177.64443617564
 30
0.0
 40
8.0
 41
0.0
 71
     7
 72
     5
  1

1001
ACAD
1000
MTEXTBEGIN
1070
    73
1070
     1
1070
    44
1040
1.0
1070
    74
1070
     0
1000
MTEXTEND
  0
MTEXT
  5
55C4
330
1A
100
AcDbEntity
  8
SUNPOU
100
AcDbMText
 10
43093.65185951858
 20
37689.75582855077
 30
0.0
 40
10.5
 41
0.0
 71
     1
 72
     5
  1

1001
ACAD
1000
MTEXTBEGIN
1070
    73
1070
     1
1070
    44
1040
1.0
1070
    74
1070
     0
1000
MTEXTEND
  0
MTEXT
  5
55C5
330
1A
100
AcDbEntity
  8
SUNPOU
100
AcDbMText
 10
35162.72866358265
 20
36742.96269463781
 30
0.0
 40
10.5
 41
0.0
 71
     7
 72
     5
  1

1001
ACAD
1000
MTEXTBEGIN
1070
    73
1070
     1
1070
    44
1040
1.0
1070
    74
1070
     0
1000
MTEXTEND
  0
MTEXT
  5
55C6
330
1A
100
AcDbEntity
  8
SUNPOU
100
AcDbMText
 10
38111.71232809542
 20
41643.63876648066
 30
0.0
 40
10.5
 41
0.0
 71
     7
 72
     5
  1

1001
ACAD
1000
MTEXTBEGIN
1070
    73
1070
     1
1070
    44
1040
1.0
1070
    74
1070
     0
1000
MTEXTEND
  0
MTEXT
  5
55C7
330
1A
100
AcDbEntity
  8
SUNPOU
100
AcDbMText
 10
42620.79045604597
 20
44079.93951410074
 30
0.0
 40
10.5
 41
0.0
 71
     7
 72
     5
  1

1001
ACAD
1000
MTEXTBEGIN
1070
    73
1070
     1
1070
    44
1040
1.0
1070
    74
1070
     0
1000
MTEXTEND
  0
MTEXT
  5
55C8
330
1A
100
AcDbEntity
  8
SUNPOU
100
AcDbMText
 10
26221.62834281429
 20
23077.53566448964
 30
0.0
 40
10.5
 41
0.0
 71
     7
 72
     5
  1

1001
ACAD
1000
MTEXTBEGIN
1070
    73
1070
     1
1070
    44
1040
1.0
1070
    74
1070
     0
1000
MTEXTEND
  0
MTEXT
  5
55C9
330
1A
100
AcDbEntity
  8
SUNPOU
100
AcDbMText
 10
77413.14677671455
 20
68750.51622813789
 30
0.0
 40
10.5
 41
0.0
 71
     9
 72
     5
  1

1001
ACAD
1000
MTEXTBEGIN
1070
    73
1070
     1
1070
    44
1040
1.0
1070
    74
1070
     0
1000
MTEXTEND
  0
MTEXT
  5
55CA
330
1A
100
AcDbEntity
  8
SUNPOU
100
AcDbMText
 10
86135.31434263256
 20
76166.35075967536
 30
0.0
 40
10.5
 41
0.0
 71
     9
 72
     5
  1

1001
ACAD
1000
MTEXTBEGIN
1070
    73
1070
     1
1070
    44
1040
1.0
1070
    74
1070
     0
1000
MTEXTEND
  0
MTEXT
  5
55CB
330
1A
100
AcDbEntity
  8
SUNPOU
100
AcDbMText
 10
105089.0730599625
 20
93632.92681216739
 30
0.0
 40
10.5
 41
0.0
 71
     9
 72
     5
  1

1001
ACAD
1000
MTEXTBEGIN
1070
    73
1070
     1
1070
    44
1040
1.0
1070
    74
1070
     0
1000
MTEXTEND
  0
MTEXT
  5
55CC
330
1A
100
AcDbEntity
  8
SUNPOU
100
AcDbMText
 10
107032.4803066719
 20
91831.8777322894
 30
0.0
 40
3.5
 41
0.0
 71
     9
 72
     5
  1

1001
ACAD
1000
MTEXTBEGIN
1070
    73
1070
     1
1070
    44
1040
1.0
1070
    74
1070
     0
1000
MTEXTEND
  0
MTEXT
  5
55CD
330
1A
100
AcDbEntity
  8
SUNPOU
100
AcDbMText
 10
138158.6601392916
 20
134326.8233999467
 30
0.0
 40
10.5
 41
0.0
 71
     9
 72
     5
  1

1001
ACAD
1000
MTEXTBEGIN
1070
    73
1070
     1
1070
    44
1040
1.0
1070
    74
1070
     0
1000
MTEXTEND
  0
MTEXT
  5
55CE
330
1A
100
AcDbEntity
  8
SUNPOU
100
AcDbMText
 10
140102.067386001
 20
132525.7743200686
 30
0.0
 40
3.5
 41
0.0
 71
     9
 72
     5
  1

1001
ACAD
1000
MTEXTBEGIN
1070
    73
1070
     1
1070
    44
1040
1.0
1070
    74
1070
     0
1000
MTEXTEND
  0
MTEXT
  5
55CF
330
1A
100
AcDbEntity
  8
SUNPOU
100
AcDbMText
 10
88598.92784508721
 20
80159.98855492179
 30
0.0
 40
10.5
 41
0.0
 71
     9
 72
     5
  1

1001
ACAD
1000
MTEXTBEGIN
1070
    73
1070
     1
1070
    44
1040
1.0
1070
    74
1070
     0
1000
MTEXTEND
  0
MTEXT
  5
55D0
330
1A
100
AcDbEntity
  8
SUNPOU
100
AcDbMText
 10
74650.92774471121
 20
60987.5894158096
 30
0.0
 40
3.5
 41
0.0
 71
     7
 72
     5
  1

1001
ACAD
1000
MTEXTBEGIN
1070
    73
1070
     1
1070
    44
1040
1.0
1070
    74
1070
     0
1000
MTEXTEND
  0
MTEXT
  5
55D1
330
1A
100
AcDbEntity
  8
SUNPOU
100
AcDbMText
 10
55636.09714170436
 20
48749.73814662781
 30
0.0
 40
10.5
 41
0.0
 71
     7
 72
     5
  1

1001
ACAD
1000
MTEXTBEGIN
1070
    73
1070
     1
1070
    44
1040
1.0
1070
    74
1070
     0
1000
MTEXTEND
  0
MTEXT
  5
55D2
330
1A
100
AcDbEntity
  8
SUNPOU
100
AcDbMText
 10
43178.86887675626
 20
32904.80656852938
 30
0.0
 40
35.0
 41
0.0
 71
     9
 72
     5
  1

1001
ACAD
1000
MTEXTBEGIN
1070
    73
1070
     1
1070
    44
1040
1.0
1070
    74
1070
     0
1000
MTEXTEND
  0
MTEXT
  5
55D3
330
1A
100
AcDbEntity
  8
SUNPOU
100
AcDbMText
 10
42087.35393433121
 20
33513.58197857809
 30
0.0
 40
350.0000004171781
 41
0.0
 71
     7
 72
     5
  1

1001
ACAD
1000
MTEXTBEGIN
1070
    73
1070
     1
1070
    44
1040
1.0
1070
    74
1070
     0
1000
MTEXTEND
  0
MTEXT
  5
55D4
330
1A
100
AcDbEntity
  8
0
100
AcDbMText
 10
48131.30469227412
 20
31493.50434071431
 30
0.0
 40
8.0
 41
0.0
 71
     7
 72
     5
  1

1001
ACAD
1000
MTEXTBEGIN
1070
    73
1070
     1
1070
    44
1040
1.0
1070
    74
1070
     0
1000
MTEXTEND
  0
MTEXT
  5
55D5
330
1A
100
AcDbEntity
  8
0
100
AcDbMText
 10
50416.66238216901
 20
32464.29463546537
 30
0.0
 40
8.0
 41
0.0
 71
     7
 72
     5
  1

1001
ACAD
1000
MTEXTBEGIN
1070
    73
1070
     1
1070
    44
1040
1.0
1070
    74
1070
     0
1000
MTEXTEND
  0
MTEXT
  5
55D6
330
1A
100
AcDbEntity
  8
SUNPOU
100
AcDbMText
 10
53082.55940285115
 20
41976.4060278405
 30
0.0
 40
10.5
 41
0.0
 71
     1
 72
     5
  1

1001
ACAD
1000
MTEXTBEGIN
1070
    73
1070
     1
1070
    44
1040
1.0
1070
    74
1070
     0
1000
MTEXTEND
  0
MTEXT
  5
55D7
330
1A
100
AcDbEntity
  8
SUNPOU
100
AcDbMText
 10
45151.63620691522
 20
41029.61289392755
 30
0.0
 40
10.5
 41
0.0
 71
     7
 72
     5
  1

1001
ACAD
1000
MTEXTBEGIN
1070
    73
1070
     1
1070
    44
1040
1.0
1070
    74
1070
     0
1000
MTEXTEND
  0
MTEXT
  5
55D8
330
1A
100
AcDbEntity
  8
SUNPOU
100
AcDbMText
 10
48100.61987142798
 20
45930.28896577039
 30
0.0
 40
10.5
 41
0.0
 71
     7
 72
     5
  1

1001
ACAD
1000
MTEXTBEGIN
1070
    73
1070
     1
1070
    44
1040
1.0
1070
    74
1070
     0
1000
MTEXTEND
  0
MTEXT
  5
55D9
330
1A
100
AcDbEntity
  8
SUNPOU
100
AcDbMText
 10
52609.69799937854
 20
48366.58971339046
 30
0.0
 40
10.5
 41
0.0
 71
     7
 72
     5
  1

1001
ACAD
1000
MTEXTBEGIN
1070
    73
1070
     1
1070
    44
1040
1.0
1070
    74
1070
     0
1000
MTEXTEND
  0
MTEXT
  5
55DA
330
1A
100
AcDbEntity
  8
SUNPOU
100
AcDbMText
 10
36210.53588614687
 20
27364.18586377937
 30
0.0
 40
10.5
 41
0.0
 71
     7
 72
     5
  1

1001
ACAD
1000
MTEXTBEGIN
1070
    73
1070
     1
1070
    44
1040
1.0
1070
    74
1070
     0
1000
MTEXTEND
  0
MTEXT
  5
55DB
330
1A
100
AcDbEntity
  8
SUNPOU
100
AcDbMText
 10
38021.29879752181
 20
33691.59985125794
 30
0.0
 40
10.5
 41
0.0
 71
     9
 72
     5
  1

1001
ACAD
1000
MTEXTBEGIN
1070
    73
1070
     1
1070
    44
1040
1.0
1070
    74
1070
     0
1000
MTEXTEND
  0
MTEXT
  5
55DC
330
1A
100
AcDbEntity
  8
SUNPOU
100
AcDbMText
 10
46743.46636343979
 20
41107.43438279541
 30
0.0
 40
10.5
 41
0.0
 71
     9
 72
     5
  1

1001
ACAD
1000
MTEXTBEGIN
1070
    73
1070
     1
1070
    44
1040
1.0
1070
    74
1070
     0
1000
MTEXTEND
  0
MTEXT
  5
55DD
330
1A
100
AcDbEntity
  8
SUNPOU
100
AcDbMText
 10
65697.22508076975
 20
58574.01043528746
 30
0.0
 40
10.5
 41
0.0
 71
     9
 72
     5
  1

1001
ACAD
1000
MTEXTBEGIN
1070
    73
1070
     1
1070
    44
1040
1.0
1070
    74
1070
     0
1000
MTEXTEND
  0
MTEXT
  5
55DE
330
1A
100
AcDbEntity
  8
SUNPOU
100
AcDbMText
 10
67640.63232747917
 20
56772.96135540945
 30
0.0
 40
3.5
 41
0.0
 71
     9
 72
     5
  1

1001
ACAD
1000
MTEXTBEGIN
1070
    73
1070
     1
1070
    44
1040
1.0
1070
    74
1070
     0
1000
MTEXTEND
  0
MTEXT
  5
55DF
330
1A
100
AcDbEntity
  8
SUNPOU
100
AcDbMText
 10
98766.81216009888
 20
99267.9070230668
 30
0.0
 40
10.5
 41
0.0
 71
     9
 72
     5
  1

1001
ACAD
1000
MTEXTBEGIN
1070
    73
1070
     1
1070
    44
1040
1.0
1070
    74
1070
     0
1000
MTEXTEND
  0
MTEXT
  5
55E0
330
1A
100
AcDbEntity
  8
SUNPOU
100
AcDbMText
 10
100710.2194068083
 20
97466.85794318878
 30
0.0
 40
3.5
 41
0.0
 71
     9
 72
     5
  1

1001
ACAD
1000
MTEXTBEGIN
1070
    73
1070
     1
1070
    44
1040
1.0
1070
    74
1070
     0
1000
MTEXTEND
  0
MTEXT
  5
55E1
330
1A
100
AcDbEntity
  8
SUNPOU
100
AcDbMText
 10
49207.07986589444
 20
45101.07217804185
 30
0.0
 40
10.5
 41
0.0
 71
     9
 72
     5
  1

1001
ACAD
1000
MTEXTBEGIN
1070
    73
1070
     1
1070
    44
1040
1.0
1070
    74
1070
     0
1000
MTEXTEND
  0
MTEXT
  5
55E2
330
1A
100
AcDbEntity
  8
SUNPOU
100
AcDbMText
 10
35259.07976551845
 20
25928.67303892964
 30
0.0
 40
3.5
 41
0.0
 71
     7
 72
     5
  1

1001
ACAD
1000
MTEXTBEGIN
1070
    73
1070
     1
1070
    44
1040
1.0
1070
    74
1070
     0
1000
MTEXTEND
  0
MTEXT
  5
55E3
330
1A
100
AcDbEntity
  8
SUNPOU
100
AcDbMText
 10
48951.43044828905
 20
35287.73625995099
 30
0.0
 40
10.5
 41
0.0
 71
     9
 72
     5
  1

1001
ACAD
1000
MTEXTBEGIN
1070
    73
1070
     1
1070
    44
1040
1.0
1070
    74
1070
     0
1000
MTEXTEND
  0
MTEXT
  5
55E4
330
1A
100
AcDbEntity
  8
SUNPOU
100
AcDbMText
 10
57673.59801420702
 20
42703.57079148847
 30
0.0
 40
10.5
 41
0.0
 71
     9
 72
     5
  1

1001
ACAD
1000
MTEXTBEGIN
1070
    73
1070
     1
1070
    44
1040
1.0
1070
    74
1070
     0
1000
MTEXTEND
  0
MTEXT
  5
55E5
330
1A
100
AcDbEntity
  8
SUNPOU
100
AcDbMText
 10
76627.35673153699
 20
60170.14684398051
 30
0.0
 40
10.5
 41
0.0
 71
     9
 72
     5
  1

1001
ACAD
1000
MTEXTBEGIN
1070
    73
1070
     1
1070
    44
1040
1.0
1070
    74
1070
     0
1000
MTEXTEND
  0
MTEXT
  5
55E6
330
1A
100
AcDbEntity
  8
SUNPOU
100
AcDbMText
 10
78570.76397824641
 20
58369.09776410251
 30
0.0
 40
3.5
 41
0.0
 71
     9
 72
     5
  1

1001
ACAD
1000
MTEXTBEGIN
1070
    73
1070
     1
1070
    44
1040
1.0
1070
    74
1070
     0
1000
MTEXTEND
  0
MTEXT
  5
55E7
330
1A
100
AcDbEntity
  8
SUNPOU
100
AcDbMText
 10
109696.9438108661
 20
100864.0434317598
 30
0.0
 40
10.5
 41
0.0
 71
     9
 72
     5
  1

1001
ACAD
1000
MTEXTBEGIN
1070
    73
1070
     1
1070
    44
1040
1.0
1070
    74
1070
     0
1000
MTEXTEND
  0
MTEXT
  5
55E8
330
1A
100
AcDbEntity
  8
SUNPOU
100
AcDbMText
 10
111640.3510575755
 20
99062.99435188183
 30
0.0
 40
3.5
 41
0.0
 71
     9
 72
     5
  1

1001
ACAD
1000
MTEXTBEGIN
1070
    73
1070
     1
1070
    44
1040
1.0
1070
    74
1070
     0
1000
MTEXTEND
  0
MTEXT
  5
55E9
330
1A
100
AcDbEntity
  8
SUNPOU
100
AcDbMText
 10
60137.21151666167
 20
46697.20858673491
 30
0.0
 40
10.5
 41
0.0
 71
     9
 72
     5
  1

1001
ACAD
1000
MTEXTBEGIN
1070
    73
1070
     1
1070
    44
1040
1.0
1070
    74
1070
     0
1000
MTEXTEND
  0
MTEXT
  5
55EA
330
1A
100
AcDbEntity
  8
SUNPOU
100
AcDbMText
 10
46189.21141628568
 20
27524.80944762269
 30
0.0
 40
3.5
 41
0.0
 71
     7
 72
     5
  1

1001
ACAD
1000
MTEXTBEGIN
1070
    73
1070
     1
1070
    44
1040
1.0
1070
    74
1070
     0
1000
MTEXTEND
  0
MTEXT
  5
55EB
330
1A
100
AcDbEntity
  8
SUNPOU
100
AcDbMText
 10
45007.68847015541
 20
38269.57947701874
 30
0.0
 40
10.5
 41
0.0
 71
     9
 72
     5
  1

1001
ACAD
1000
MTEXTBEGIN
1070
    73
1070
     1
1070
    44
1040
1.0
1070
    74
1070
     0
1000
MTEXTEND
  0
MTEXT
  5
55EC
330
1A
100
AcDbEntity
  8
SUNPOU
100
AcDbMText
 10
63961.44718748539
 20
55736.15552951081
 30
0.0
 40
10.5
 41
0.0
 71
     9
 72
     5
  1

1001
ACAD
1000
MTEXTBEGIN
1070
    73
1070
     1
1070
    44
1040
1.0
1070
    74
1070
     0
1000
MTEXTEND
  0
MTEXT
  5
55ED
330
1A
100
AcDbEntity
  8
SUNPOU
100
AcDbMText
 10
65904.85443419479
 20
53935.10644963279
 30
0.0
 40
3.5
 41
0.0
 71
     9
 72
     5
  1

1001
ACAD
1000
MTEXTBEGIN
1070
    73
1070
     1
1070
    44
1040
1.0
1070
    74
1070
     0
1000
MTEXTEND
  0
MTEXT
  5
55EE
330
1A
100
AcDbEntity
  8
SUNPOU
100
AcDbMText
 10
97031.03426681451
 20
96430.05211729015
 30
0.0
 40
10.5
 41
0.0
 71
     9
 72
     5
  1

1001
ACAD
1000
MTEXTBEGIN
1070
    73
1070
     1
1070
    44
1040
1.0
1070
    74
1070
     0
1000
MTEXTEND
  0
MTEXT
  5
55EF
330
1A
100
AcDbEntity
  8
SUNPOU
100
AcDbMText
 10
98974.44151352393
 20
94629.00303741212
 30
0.0
 40
3.5
 41
0.0
 71
     9
 72
     5
  1

1001
ACAD
1000
MTEXTBEGIN
1070
    73
1070
     1
1070
    44
1040
1.0
1070
    74
1070
     0
1000
MTEXTEND
  0
MTEXT
  5
55F0
330
1A
100
AcDbEntity
  8
SUNPOU
100
AcDbMText
 10
47471.30197261006
 20
42263.21727226519
 30
0.0
 40
10.5
 41
0.0
 71
     9
 72
     5
  1

1001
ACAD
1000
MTEXTBEGIN
1070
    73
1070
     1
1070
    44
1040
1.0
1070
    74
1070
     0
1000
MTEXTEND
  0
MTEXT
  5
55F1
330
1A
100
AcDbEntity
  8
SUNPOU
100
AcDbMText
 10
33523.30187223408
 20
23090.81813315298
 30
0.0
 40
3.5
 41
0.0
 71
     7
 72
     5
  1

1001
ACAD
1000
MTEXTBEGIN
1070
    73
1070
     1
1070
    44
1040
1.0
1070
    74
1070
     0
1000
MTEXTEND
  0
MTEXT
  5
55F2
330
1A
100
AcDbEntity
  8
SUNPOU
100
AcDbMText
 10
57959.46254102503
 20
50038.08111611015
 30
0.0
 40
10.5
 41
0.0
 71
     9
 72
     5
  1

1001
ACAD
1000
MTEXTBEGIN
1070
    73
1070
     1
1070
    44
1040
1.0
1070
    74
1070
     0
1000
MTEXTEND
  0
MTEXT
  5
55F3
330
1A
100
AcDbEntity
  8
SUNPOU
100
AcDbMText
 10
76913.22125835503
 20
67504.65716860222
 30
0.0
 40
10.5
 41
0.0
 71
     9
 72
     5
  1

1001
ACAD
1000
MTEXTBEGIN
1070
    73
1070
     1
1070
    44
1040
1.0
1070
    74
1070
     0
1000
MTEXTEND
  0
MTEXT
  5
55F4
330
1A
100
AcDbEntity
  8
SUNPOU
100
AcDbMText
 10
78856.62850506443
 20
65703.6080887242
 30
0.0
 40
3.5
 41
0.0
 71
     9
 72
     5
  1

1001
ACAD
1000
MTEXTBEGIN
1070
    73
1070
     1
1070
    44
1040
1.0
1070
    74
1070
     0
1000
MTEXTEND
  0
MTEXT
  5
55F5
330
1A
100
AcDbEntity
  8
SUNPOU
100
AcDbMText
 10
109982.8083376841
 20
108198.5537563815
 30
0.0
 40
10.5
 41
0.0
 71
     9
 72
     5
  1

1001
ACAD
1000
MTEXTBEGIN
1070
    73
1070
     1
1070
    44
1040
1.0
1070
    74
1070
     0
1000
MTEXTEND
  0
MTEXT
  5
55F6
330
1A
100
AcDbEntity
  8
SUNPOU
100
AcDbMText
 10
111926.2155843935
 20
106397.5046765035
 30
0.0
 40
3.5
 41
0.0
 71
     9
 72
     5
  1

1001
ACAD
1000
MTEXTBEGIN
1070
    73
1070
     1
1070
    44
1040
1.0
1070
    74
1070
     0
1000
MTEXTEND
  0
MTEXT
  5
55F7
330
1A
100
AcDbEntity
  8
SUNPOU
100
AcDbMText
 10
60423.07604347968
 20
54031.71891135659
 30
0.0
 40
10.5
 41
0.0
 71
     9
 72
     5
  1

1001
ACAD
1000
MTEXTBEGIN
1070
    73
1070
     1
1070
    44
1040
1.0
1070
    74
1070
     0
1000
MTEXTEND
  0
MTEXT
  5
55F8
330
1A
100
AcDbEntity
  8
SUNPOU
100
AcDbMText
 10
46475.07594310369
 20
34859.3197722444
 30
0.0
 40
3.5
 41
0.0
 71
     7
 72
     5
  1

1001
ACAD
1000
MTEXTBEGIN
1070
    73
1070
     1
1070
    44
1040
1.0
1070
    74
1070
     0
1000
MTEXTEND
  0
MTEXT
  5
55F9
330
1A
100
AcDbEntity
  8
SUNPOU
100
AcDbMText
 10
74027.35402123588
 20
68370.58278833383
 30
0.0
 40
10.5
 41
0.0
 71
     9
 72
     5
  1

1001
ACAD
1000
MTEXTBEGIN
1070
    73
1070
     1
1070
    44
1040
1.0
1070
    74
1070
     0
1000
MTEXTEND
  0
MTEXT
  5
55FA
330
1A
100
AcDbEntity
  8
SUNPOU
100
AcDbMText
 10
75970.7612679453
 20
66569.53370845583
 30
0.0
 40
3.5
 41
0.0
 71
     9
 72
     5
  1

1001
ACAD
1000
MTEXTBEGIN
1070
    73
1070
     1
1070
    44
1040
1.0
1070
    74
1070
     0
1000
MTEXTEND
  0
MTEXT
  5
55FB
330
1A
100
AcDbEntity
  8
SUNPOU
100
AcDbMText
 10
107096.941100565
 20
109064.4793761132
 30
0.0
 40
10.5
 41
0.0
 71
     9
 72
     5
  1

1001
ACAD
1000
MTEXTBEGIN
1070
    73
1070
     1
1070
    44
1040
1.0
1070
    74
1070
     0
1000
MTEXTEND
  0
MTEXT
  5
55FC
330
1A
100
AcDbEntity
  8
SUNPOU
100
AcDbMText
 10
109040.3483472744
 20
107263.4302962351
 30
0.0
 40
3.5
 41
0.0
 71
     9
 72
     5
  1

1001
ACAD
1000
MTEXTBEGIN
1070
    73
1070
     1
1070
    44
1040
1.0
1070
    74
1070
     0
1000
MTEXTEND
  0
MTEXT
  5
55FD
330
1A
100
AcDbEntity
  8
SUNPOU
100
AcDbMText
 10
105709.1709283621
 20
108141.3777665285
 30
0.0
 40
10.5
 41
0.0
 71
     9
 72
     5
  1

1001
ACAD
1000
MTEXTBEGIN
1070
    73
1070
     1
1070
    44
1040
1.0
1070
    74
1070
     0
1000
MTEXTEND
  0
MTEXT
  5
55FE
330
1A
100
AcDbEntity
  8
SUNPOU
100
AcDbMText
 10
107652.5781750715
 20
106340.3286866505
 30
0.0
 40
3.5
 41
0.0
 71
     9
 72
     5
  1

1001
ACAD
1000
MTEXTBEGIN
1070
    73
1070
     1
1070
    44
1040
1.0
1070
    74
1070
     0
1000
MTEXTEND
  0
MTEXT
  5
55FF
330
1A
100
AcDbEntity
  8
SUNPOU
100
AcDbMText
 10
73193.09268743351
 20
66158.78082845056
 30
0.0
 40
10.5
 41
0.0
 71
     9
 72
     5
  1

1001
ACAD
1000
MTEXTBEGIN
1070
    73
1070
     1
1070
    44
1040
1.0
1070
    74
1070
     0
1000
MTEXTEND
  0
MTEXT
  5
5600
330
1A
100
AcDbEntity
  8
SUNPOU
100
AcDbMText
 10
75916.39889159806
 20
66563.46252003162
 30
0.0
 40
3.5
 41
0.0
 71
     9
 72
     5
  1

1001
ACAD
1000
MTEXTBEGIN
1070
    73
1070
     1
1070
    44
1040
1.0
1070
    74
1070
     0
1000
MTEXTEND
  0
MTEXT
  5
5601
330
1A
100
AcDbEntity
  8
SUNPOU
100
AcDbMText
 10
75124.04436649058
 20
63402.1566819768
 30
0.0
 40
10.5
 41
0.0
 71
     9
 72
     5
  1

1001
ACAD
1000
MTEXTBEGIN
1070
    73
1070
     1
1070
    44
1040
1.0
1070
    74
1070
     0
1000
MTEXTEND
  0
MTEXT
  5
5602
330
1A
100
AcDbEntity
  8
SUNPOU
100
AcDbMText
 10
77067.4516132
 20
61601.1076020988
 30
0.0
 40
3.5
 41
0.0
 71
     9
 72
     5
  1

1001
ACAD
1000
MTEXTBEGIN
1070
    73
1070
     1
1070
    44
1040
1.0
1070
    74
1070
     0
1000
MTEXTEND
  0
MTEXT
  5
5603
330
1A
100
AcDbEntity
  8
SUNPOU
100
AcDbMText
 10
77012.54710378659
 20
61488.33571981449
 30
0.0
 40
3.5
 41
0.0
 71
     9
 72
     5
  1

1001
ACAD
1000
MTEXTBEGIN
1070
    73
1070
     1
1070
    44
1040
1.0
1070
    74
1070
     0
1000
MTEXTEND
  0
MTEXT
  5
5604
330
1A
100
AcDbEntity
  8
SUNPOU
100
AcDbMText
 10
76376.61896736668
 20
60677.01447874797
 30
0.0
 40
3.5
 41
0.0
 71
     9
 72
     5
  1

1001
ACAD
1000
MTEXTBEGIN
1070
    73
1070
     1
1070
    44
1040
1.0
1070
    74
1070
     0
1000
MTEXTEND
  0
MTEXT
  5
5605
330
1A
100
AcDbEntity
  8
SUNPOU
100
AcDbMText
 10
76375.37854794595
 20
60676.76650181047
 30
0.0
 40
10.5
 41
0.0
 71
     9
 72
     5
  1

1001
ACAD
1000
MTEXTBEGIN
1070
    73
1070
     1
1070
    44
1040
1.0
1070
    74
1070
     0
1000
MTEXTEND
  0
MTEXT
  5
5606
330
1A
100
AcDbEntity
  8
SUNPOU
100
AcDbMText
 10
84709.93991079748
 20
78034.0328293557
 30
0.0
 40
10.5
 41
0.0
 71
     9
 72
     5
  1

1001
ACAD
1000
MTEXTBEGIN
1070
    73
1070
     1
1070
    44
1040
1.0
1070
    74
1070
     0
1000
MTEXTEND
  0
MTEXT
  5
5607
330
1A
100
AcDbEntity
  8
SUNPOU
100
AcDbMText
 10
93432.10747671548
 20
85449.86736089315
 30
0.0
 40
10.5
 41
0.0
 71
     9
 72
     5
  1

1001
ACAD
1000
MTEXTBEGIN
1070
    73
1070
     1
1070
    44
1040
1.0
1070
    74
1070
     0
1000
MTEXTEND
  0
MTEXT
  5
5608
330
1A
100
AcDbEntity
  8
SUNPOU
100
AcDbMText
 10
112385.8661940454
 20
102916.4434133851
 30
0.0
 40
10.5
 41
0.0
 71
     9
 72
     5
  1

1001
ACAD
1000
MTEXTBEGIN
1070
    73
1070
     1
1070
    44
1040
1.0
1070
    74
1070
     0
1000
MTEXTEND
  0
MTEXT
  5
5609
330
1A
100
AcDbEntity
  8
SUNPOU
100
AcDbMText
 10
114329.2734407548
 20
101115.3943335072
 30
0.0
 40
3.5
 41
0.0
 71
     9
 72
     5
  1

1001
ACAD
1000
MTEXTBEGIN
1070
    73
1070
     1
1070
    44
1040
1.0
1070
    74
1070
     0
1000
MTEXTEND
  0
MTEXT
  5
560A
330
1A
100
AcDbEntity
  8
SUNPOU
100
AcDbMText
 10
145455.4532733745
 20
143610.3400011645
 30
0.0
 40
10.5
 41
0.0
 71
     9
 72
     5
  1

1001
ACAD
1000
MTEXTBEGIN
1070
    73
1070
     1
1070
    44
1040
1.0
1070
    74
1070
     0
1000
MTEXTEND
  0
MTEXT
  5
560B
330
1A
100
AcDbEntity
  8
SUNPOU
100
AcDbMText
 10
147398.8605200839
 20
141809.2909212864
 30
0.0
 40
3.5
 41
0.0
 71
     9
 72
     5
  1

1001
ACAD
1000
MTEXTBEGIN
1070
    73
1070
     1
1070
    44
1040
1.0
1070
    74
1070
     0
1000
MTEXTEND
  0
MTEXT
  5
560C
330
1A
100
AcDbEntity
  8
SUNPOU
100
AcDbMText
 10
95895.72097917013
 20
89443.5051561396
 30
0.0
 40
10.5
 41
0.0
 71
     9
 72
     5
  1

1001
ACAD
1000
MTEXTBEGIN
1070
    73
1070
     1
1070
    44
1040
1.0
1070
    74
1070
     0
1000
MTEXTEND
  0
MTEXT
  5
560D
330
1A
100
AcDbEntity
  8
SUNPOU
100
AcDbMText
 10
81947.72087879414
 20
70271.1060170274
 30
0.0
 40
3.5
 41
0.0
 71
     7
 72
     5
  1

1001
ACAD
1000
MTEXTBEGIN
1070
    73
1070
     1
1070
    44
1040
1.0
1070
    74
1070
     0
1000
MTEXTEND
  0
MTEXT
  5
560E
330
1A
100
AcDbEntity
  8
SUNPOU
100
AcDbMText
 10
62932.89027578729
 20
58033.25474784561
 30
0.0
 40
10.5
 41
0.0
 71
     7
 72
     5
  1

1001
ACAD
1000
MTEXTBEGIN
1070
    73
1070
     1
1070
    44
1040
1.0
1070
    74
1070
     0
1000
MTEXTEND
  0
MTEXT
  5
560F
330
1A
100
AcDbEntity
  8
SUNPOU
100
AcDbMText
 10
50475.66201083918
 20
42188.32316974719
 30
0.0
 40
35.0
 41
0.0
 71
     9
 72
     5
  1

1001
ACAD
1000
MTEXTBEGIN
1070
    73
1070
     1
1070
    44
1040
1.0
1070
    74
1070
     0
1000
MTEXTEND
  0
MTEXT
  5
5610
330
1A
100
AcDbEntity
  8
SUNPOU
100
AcDbMText
 10
49384.14706841413
 20
42797.0985797959
 30
0.0
 40
350.0000004171781
 41
0.0
 71
     7
 72
     5
  1

1001
ACAD
1000
MTEXTBEGIN
1070
    73
1070
     1
1070
    44
1040
1.0
1070
    74
1070
     0
1000
MTEXTEND
  0
MTEXT
  5
5611
330
1A
100
AcDbEntity
  8
0
100
AcDbMText
 10
55428.09782635704
 20
40777.02094193211
 30
0.0
 40
8.0
 41
0.0
 71
     7
 72
     5
  1

1001
ACAD
1000
MTEXTBEGIN
1070
    73
1070
     1
1070
    44
1040
1.0
1070
    74
1070
     0
1000
MTEXTEND
  0
MTEXT
  5
5612
330
1A
100
AcDbEntity
  8
0
100
AcDbMText
 10
57713.45551625194
 20
41747.81123668317
 30
0.0
 40
8.0
 41
0.0
 71
     7
 72
     5
  1

1001
ACAD
1000
MTEXTBEGIN
1070
    73
1070
     1
1070
    44
1040
1.0
1070
    74
1070
     0
1000
MTEXTEND
  0
MTEXT
  5
5613
330
1A
100
AcDbEntity
  8
SUNPOU
100
AcDbMText
 10
60379.35253693408
 20
51259.9226290583
 30
0.0
 40
10.5
 41
0.0
 71
     1
 72
     5
  1

1001
ACAD
1000
MTEXTBEGIN
1070
    73
1070
     1
1070
    44
1040
1.0
1070
    74
1070
     0
1000
MTEXTEND
  0
MTEXT
  5
5614
330
1A
100
AcDbEntity
  8
SUNPOU
100
AcDbMText
 10
52448.42934099814
 20
50313.12949514535
 30
0.0
 40
10.5
 41
0.0
 71
     7
 72
     5
  1

1001
ACAD
1000
MTEXTBEGIN
1070
    73
1070
     1
1070
    44
1040
1.0
1070
    74
1070
     0
1000
MTEXTEND
  0
MTEXT
  5
5615
330
1A
100
AcDbEntity
  8
SUNPOU
100
AcDbMText
 10
55397.41300551091
 20
55213.80556698819
 30
0.0
 40
10.5
 41
0.0
 71
     7
 72
     5
  1

1001
ACAD
1000
MTEXTBEGIN
1070
    73
1070
     1
1070
    44
1040
1.0
1070
    74
1070
     0
1000
MTEXTEND
  0
MTEXT
  5
5616
330
1A
100
AcDbEntity
  8
SUNPOU
100
AcDbMText
 10
59906.49113346147
 20
57650.10631460826
 30
0.0
 40
10.5
 41
0.0
 71
     7
 72
     5
  1

1001
ACAD
1000
MTEXTBEGIN
1070
    73
1070
     1
1070
    44
1040
1.0
1070
    74
1070
     0
1000
MTEXTEND
  0
MTEXT
  5
5617
330
1A
100
AcDbEntity
  8
SUNPOU
100
AcDbMText
 10
43507.32902022979
 20
36647.70246499718
 30
0.0
 40
10.5
 41
0.0
 71
     7
 72
     5
  1

1001
ACAD
1000
MTEXTBEGIN
1070
    73
1070
     1
1070
    44
1040
1.0
1070
    74
1070
     0
1000
MTEXTEND
  0
MTEXT
  5
5618
330
1A
100
AcDbEntity
  8
SUNPOU
100
AcDbMText
 10
94698.84745413006
 20
82320.68302864542
 30
0.0
 40
10.5
 41
0.0
 71
     9
 72
     5
  1

1001
ACAD
1000
MTEXTBEGIN
1070
    73
1070
     1
1070
    44
1040
1.0
1070
    74
1070
     0
1000
MTEXTEND
  0
MTEXT
  5
5619
330
1A
100
AcDbEntity
  8
SUNPOU
100
AcDbMText
 10
103421.015020048
 20
89736.5175601829
 30
0.0
 40
10.5
 41
0.0
 71
     9
 72
     5
  1

1001
ACAD
1000
MTEXTBEGIN
1070
    73
1070
     1
1070
    44
1040
1.0
1070
    74
1070
     0
1000
MTEXTEND
  0
MTEXT
  5
561A
330
1A
100
AcDbEntity
  8
SUNPOU
100
AcDbMText
 10
122374.773737378
 20
107203.0936126749
 30
0.0
 40
10.5
 41
0.0
 71
     9
 72
     5
  1

1001
ACAD
1000
MTEXTBEGIN
1070
    73
1070
     1
1070
    44
1040
1.0
1070
    74
1070
     0
1000
MTEXTEND
  0
MTEXT
  5
561B
330
1A
100
AcDbEntity
  8
SUNPOU
100
AcDbMText
 10
124318.1809840874
 20
105402.0445327969
 30
0.0
 40
3.5
 41
0.0
 71
     9
 72
     5
  1

1001
ACAD
1000
MTEXTBEGIN
1070
    73
1070
     1
1070
    44
1040
1.0
1070
    74
1070
     0
1000
MTEXTEND
  0
MTEXT
  5
561C
330
1A
100
AcDbEntity
  8
SUNPOU
100
AcDbMText
 10
155444.3608167071
 20
147896.9902004542
 30
0.0
 40
10.5
 41
0.0
 71
     9
 72
     5
  1

1001
ACAD
1000
MTEXTBEGIN
1070
    73
1070
     1
1070
    44
1040
1.0
1070
    74
1070
     0
1000
MTEXTEND
  0
MTEXT
  5
561D
330
1A
100
AcDbEntity
  8
SUNPOU
100
AcDbMText
 10
157387.7680634165
 20
146095.9411205762
 30
0.0
 40
3.5
 41
0.0
 71
     9
 72
     5
  1

1001
ACAD
1000
MTEXTBEGIN
1070
    73
1070
     1
1070
    44
1040
1.0
1070
    74
1070
     0
1000
MTEXTEND
  0
MTEXT
  5
561E
330
1A
100
AcDbEntity
  8
SUNPOU
100
AcDbMText
 10
105884.6285225027
 20
93730.15535542933
 30
0.0
 40
10.5
 41
0.0
 71
     9
 72
     5
  1

1001
ACAD
1000
MTEXTBEGIN
1070
    73
1070
     1
1070
    44
1040
1.0
1070
    74
1070
     0
1000
MTEXTEND
  0
MTEXT
  5
561F
330
1A
100
AcDbEntity
  8
SUNPOU
100
AcDbMText
 10
91936.6284221267
 20
74557.75621631714
 30
0.0
 40
3.5
 41
0.0
 71
     7
 72
     5
  1

1001
ACAD
1000
MTEXTBEGIN
1070
    73
1070
     1
1070
    44
1040
1.0
1070
    74
1070
     0
1000
MTEXTEND
  0
MTEXT
  5
5620
330
1A
100
AcDbEntity
  8
SUNPOU
100
AcDbMText
 10
72921.79781911986
 20
62319.90494713533
 30
0.0
 40
10.5
 41
0.0
 71
     7
 72
     5
  1

1001
ACAD
1000
MTEXTBEGIN
1070
    73
1070
     1
1070
    44
1040
1.0
1070
    74
1070
     0
1000
MTEXTEND
  0
MTEXT
  5
5621
330
1A
100
AcDbEntity
  8
SUNPOU
100
AcDbMText
 10
60464.56955417175
 20
46474.97336903692
 30
0.0
 40
35.0
 41
0.0
 71
     9
 72
     5
  1

1001
ACAD
1000
MTEXTBEGIN
1070
    73
1070
     1
1070
    44
1040
1.0
1070
    74
1070
     0
1000
MTEXTEND
  0
MTEXT
  5
5622
330
1A
100
AcDbEntity
  8
SUNPOU
100
AcDbMText
 10
59373.05461174672
 20
47083.74877908562
 30
0.0
 40
350.0000004171781
 41
0.0
 71
     7
 72
     5
  1

1001
ACAD
1000
MTEXTBEGIN
1070
    73
1070
     1
1070
    44
1040
1.0
1070
    74
1070
     0
1000
MTEXTEND
  0
MTEXT
  5
5623
330
1A
100
AcDbEntity
  8
0
100
AcDbMText
 10
65417.00536968962
 20
45063.67114122186
 30
0.0
 40
8.0
 41
0.0
 71
     7
 72
     5
  1

1001
ACAD
1000
MTEXTBEGIN
1070
    73
1070
     1
1070
    44
1040
1.0
1070
    74
1070
     0
1000
MTEXTEND
  0
MTEXT
  5
5624
330
1A
100
AcDbEntity
  8
0
100
AcDbMText
 10
67702.36305958452
 20
46034.46143597292
 30
0.0
 40
8.0
 41
0.0
 71
     7
 72
     5
  1

1001
ACAD
1000
MTEXTBEGIN
1070
    73
1070
     1
1070
    44
1040
1.0
1070
    74
1070
     0
1000
MTEXTEND
  0
MTEXT
  5
5625
330
1A
100
AcDbEntity
  8
SUNPOU
100
AcDbMText
 10
70368.26008026666
 20
55546.57282834803
 30
0.0
 40
10.5
 41
0.0
 71
     1
 72
     5
  1

1001
ACAD
1000
MTEXTBEGIN
1070
    73
1070
     1
1070
    44
1040
1.0
1070
    74
1070
     0
1000
MTEXTEND
  0
MTEXT
  5
5626
330
1A
100
AcDbEntity
  8
SUNPOU
100
AcDbMText
 10
62437.33688433072
 20
54599.77969443508
 30
0.0
 40
10.5
 41
0.0
 71
     7
 72
     5
  1

1001
ACAD
1000
MTEXTBEGIN
1070
    73
1070
     1
1070
    44
1040
1.0
1070
    74
1070
     0
1000
MTEXTEND
  0
MTEXT
  5
5627
330
1A
100
AcDbEntity
  8
SUNPOU
100
AcDbMText
 10
65386.32054884349
 20
59500.45576627792
 30
0.0
 40
10.5
 41
0.0
 71
     7
 72
     5
  1

1001
ACAD
1000
MTEXTBEGIN
1070
    73
1070
     1
1070
    44
1040
1.0
1070
    74
1070
     0
1000
MTEXTEND
  0
MTEXT
  5
5628
330
1A
100
AcDbEntity
  8
SUNPOU
100
AcDbMText
 10
69895.39867679405
 20
61936.756513898
 30
0.0
 40
10.5
 41
0.0
 71
     7
 72
     5
  1

1001
ACAD
1000
MTEXTBEGIN
1070
    73
1070
     1
1070
    44
1040
1.0
1070
    74
1070
     0
1000
MTEXTEND
  0
MTEXT
  5
5629
330
1A
100
AcDbEntity
  8
SUNPOU
100
AcDbMText
 10
53496.23656356237
 20
40934.35266428691
 30
0.0
 40
10.5
 41
0.0
 71
     7
 72
     5
  1

1001
ACAD
1000
MTEXTBEGIN
1070
    73
1070
     1
1070
    44
1040
1.0
1070
    74
1070
     0
1000
MTEXTEND
  0
MTEXT
  5
562A
330
1A
100
AcDbEntity
  8
SUNPOU
100
AcDbMText
 10
55306.99947493731
 20
47261.76665176547
 30
0.0
 40
10.5
 41
0.0
 71
     9
 72
     5
  1

1001
ACAD
1000
MTEXTBEGIN
1070
    73
1070
     1
1070
    44
1040
1.0
1070
    74
1070
     0
1000
MTEXTEND
  0
MTEXT
  5
562B
330
1A
100
AcDbEntity
  8
SUNPOU
100
AcDbMText
 10
64029.16704085528
 20
54677.60118330295
 30
0.0
 40
10.5
 41
0.0
 71
     9
 72
     5
  1

1001
ACAD
1000
MTEXTBEGIN
1070
    73
1070
     1
1070
    44
1040
1.0
1070
    74
1070
     0
1000
MTEXTEND
  0
MTEXT
  5
562C
330
1A
100
AcDbEntity
  8
SUNPOU
100
AcDbMText
 10
82982.92575818527
 20
72144.17723579499
 30
0.0
 40
10.5
 41
0.0
 71
     9
 72
     5
  1

1001
ACAD
1000
MTEXTBEGIN
1070
    73
1070
     1
1070
    44
1040
1.0
1070
    74
1070
     0
1000
MTEXTEND
  0
MTEXT
  5
562D
330
1A
100
AcDbEntity
  8
SUNPOU
100
AcDbMText
 10
84926.33300489467
 20
70343.12815591698
 30
0.0
 40
3.5
 41
0.0
 71
     9
 72
     5
  1

1001
ACAD
1000
MTEXTBEGIN
1070
    73
1070
     1
1070
    44
1040
1.0
1070
    74
1070
     0
1000
MTEXTEND
  0
MTEXT
  5
562E
330
1A
100
AcDbEntity
  8
SUNPOU
100
AcDbMText
 10
116052.5128375143
 20
112838.0738235743
 30
0.0
 40
10.5
 41
0.0
 71
     9
 72
     5
  1

1001
ACAD
1000
MTEXTBEGIN
1070
    73
1070
     1
1070
    44
1040
1.0
1070
    74
1070
     0
1000
MTEXTEND
  0
MTEXT
  5
562F
330
1A
100
AcDbEntity
  8
SUNPOU
100
AcDbMText
 10
117995.9200842238
 20
111037.0247436963
 30
0.0
 40
3.5
 41
0.0
 71
     9
 72
     5
  1

1001
ACAD
1000
MTEXTBEGIN
1070
    73
1070
     1
1070
    44
1040
1.0
1070
    74
1070
     0
1000
MTEXTEND
  0
MTEXT
  5
5630
330
1A
100
AcDbEntity
  8
SUNPOU
100
AcDbMText
 10
66492.78054330994
 20
58671.23897854939
 30
0.0
 40
10.5
 41
0.0
 71
     9
 72
     5
  1

1001
ACAD
1000
MTEXTBEGIN
1070
    73
1070
     1
1070
    44
1040
1.0
1070
    74
1070
     0
1000
MTEXTEND
  0
MTEXT
  5
5631
330
1A
100
AcDbEntity
  8
SUNPOU
100
AcDbMText
 10
52544.78044293396
 20
39498.83983943717
 30
0.0
 40
3.5
 41
0.0
 71
     7
 72
     5
  1

1001
ACAD
1000
MTEXTBEGIN
1070
    73
1070
     1
1070
    44
1040
1.0
1070
    74
1070
     0
1000
MTEXTEND
  0
MTEXT
  5
5632
330
1A
100
AcDbEntity
  8
SUNPOU
100
AcDbMText
 10
66237.13112570454
 20
48857.90306045851
 30
0.0
 40
10.5
 41
0.0
 71
     9
 72
     5
  1

1001
ACAD
1000
MTEXTBEGIN
1070
    73
1070
     1
1070
    44
1040
1.0
1070
    74
1070
     0
1000
MTEXTEND
  0
MTEXT
  5
5633
330
1A
100
AcDbEntity
  8
SUNPOU
100
AcDbMText
 10
74959.29869162252
 20
56273.737591996
 30
0.0
 40
10.5
 41
0.0
 71
     9
 72
     5
  1

1001
ACAD
1000
MTEXTBEGIN
1070
    73
1070
     1
1070
    44
1040
1.0
1070
    74
1070
     0
1000
MTEXTEND
  0
MTEXT
  5
5634
330
1A
100
AcDbEntity
  8
SUNPOU
100
AcDbMText
 10
93913.0574089525
 20
73740.31364448805
 30
0.0
 40
10.5
 41
0.0
 71
     9
 72
     5
  1

1001
ACAD
1000
MTEXTBEGIN
1070
    73
1070
     1
1070
    44
1040
1.0
1070
    74
1070
     0
1000
MTEXTEND
  0
MTEXT
  5
5635
330
1A
100
AcDbEntity
  8
SUNPOU
100
AcDbMText
 10
95856.46465566192
 20
71939.26456461004
 30
0.0
 40
3.5
 41
0.0
 71
     9
 72
     5
  1

1001
ACAD
1000
MTEXTBEGIN
1070
    73
1070
     1
1070
    44
1040
1.0
1070
    74
1070
     0
1000
MTEXTEND
  0
MTEXT
  5
5636
330
1A
100
AcDbEntity
  8
SUNPOU
100
AcDbMText
 10
126982.6444882816
 20
114434.2102322673
 30
0.0
 40
10.5
 41
0.0
 71
     9
 72
     5
  1

1001
ACAD
1000
MTEXTBEGIN
1070
    73
1070
     1
1070
    44
1040
1.0
1070
    74
1070
     0
1000
MTEXTEND
  0
MTEXT
  5
5637
330
1A
100
AcDbEntity
  8
SUNPOU
100
AcDbMText
 10
128926.051734991
 20
112633.1611523893
 30
0.0
 40
3.5
 41
0.0
 71
     9
 72
     5
  1

1001
ACAD
1000
MTEXTBEGIN
1070
    73
1070
     1
1070
    44
1040
1.0
1070
    74
1070
     0
1000
MTEXTEND
  0
MTEXT
  5
5638
330
1A
100
AcDbEntity
  8
SUNPOU
100
AcDbMText
 10
77422.91219407717
 20
60267.37538724244
 30
0.0
 40
10.5
 41
0.0
 71
     9
 72
     5
  1

1001
ACAD
1000
MTEXTBEGIN
1070
    73
1070
     1
1070
    44
1040
1.0
1070
    74
1070
     0
1000
MTEXTEND
  0
MTEXT
  5
5639
330
1A
100
AcDbEntity
  8
SUNPOU
100
AcDbMText
 10
63474.91209370119
 20
41094.97624813023
 30
0.0
 40
3.5
 41
0.0
 71
     7
 72
     5
  1

1001
ACAD
1000
MTEXTBEGIN
1070
    73
1070
     1
1070
    44
1040
1.0
1070
    74
1070
     0
1000
MTEXTEND
  0
MTEXT
  5
563A
330
1A
100
AcDbEntity
  8
SUNPOU
100
AcDbMText
 10
48117.65086229006
 20
40806.11043916631
 30
0.0
 40
10.5
 41
0.0
 71
     9
 72
     5
  1

1001
ACAD
1000
MTEXTBEGIN
1070
    73
1070
     1
1070
    44
1040
1.0
1070
    74
1070
     0
1000
MTEXTEND
  0
MTEXT
  5
563B
330
1A
100
AcDbEntity
  8
SUNPOU
100
AcDbMText
 10
67071.40957962004
 20
58272.68649165837
 30
0.0
 40
10.5
 41
0.0
 71
     9
 72
     5
  1

1001
ACAD
1000
MTEXTBEGIN
1070
    73
1070
     1
1070
    44
1040
1.0
1070
    74
1070
     0
1000
MTEXTEND
  0
MTEXT
  5
563C
330
1A
100
AcDbEntity
  8
SUNPOU
100
AcDbMText
 10
69014.81682632945
 20
56471.63741178035
 30
0.0
 40
3.5
 41
0.0
 71
     9
 72
     5
  1

1001
ACAD
1000
MTEXTBEGIN
1070
    73
1070
     1
1070
    44
1040
1.0
1070
    74
1070
     0
1000
MTEXTEND
  0
MTEXT
  5
563D
330
1A
100
AcDbEntity
  8
SUNPOU
100
AcDbMText
 10
100140.9966589491
 20
98966.58307943772
 30
0.0
 40
10.5
 41
0.0
 71
     9
 72
     5
  1

1001
ACAD
1000
MTEXTBEGIN
1070
    73
1070
     1
1070
    44
1040
1.0
1070
    74
1070
     0
1000
MTEXTEND
  0
MTEXT
  5
563E
330
1A
100
AcDbEntity
  8
SUNPOU
100
AcDbMText
 10
102084.4039056586
 20
97165.53399955969
 30
0.0
 40
3.5
 41
0.0
 71
     9
 72
     5
  1

1001
ACAD
1000
MTEXTBEGIN
1070
    73
1070
     1
1070
    44
1040
1.0
1070
    74
1070
     0
1000
MTEXTEND
  0
MTEXT
  5
563F
330
1A
100
AcDbEntity
  8
SUNPOU
100
AcDbMText
 10
50581.26436474472
 20
44799.74823441275
 30
0.0
 40
10.5
 41
0.0
 71
     9
 72
     5
  1

1001
ACAD
1000
MTEXTBEGIN
1070
    73
1070
     1
1070
    44
1040
1.0
1070
    74
1070
     0
1000
MTEXTEND
  0
MTEXT
  5
5640
330
1A
100
AcDbEntity
  8
SUNPOU
100
AcDbMText
 10
36633.26426436873
 20
25627.34909530054
 30
0.0
 40
3.5
 41
0.0
 71
     7
 72
     5
  1

1001
ACAD
1000
MTEXTBEGIN
1070
    73
1070
     1
1070
    44
1040
1.0
1070
    74
1070
     0
1000
MTEXTEND
  0
MTEXT
  5
5641
330
1A
100
AcDbEntity
  8
SUNPOU
100
AcDbMText
 10
61069.42493315968
 20
52574.61207825771
 30
0.0
 40
10.5
 41
0.0
 71
     9
 72
     5
  1

1001
ACAD
1000
MTEXTBEGIN
1070
    73
1070
     1
1070
    44
1040
1.0
1070
    74
1070
     0
1000
MTEXTEND
  0
MTEXT
  5
5642
330
1A
100
AcDbEntity
  8
SUNPOU
100
AcDbMText
 10
80023.18365048967
 20
70041.18813074978
 30
0.0
 40
10.5
 41
0.0
 71
     9
 72
     5
  1

1001
ACAD
1000
MTEXTBEGIN
1070
    73
1070
     1
1070
    44
1040
1.0
1070
    74
1070
     0
1000
MTEXTEND
  0
MTEXT
  5
5643
330
1A
100
AcDbEntity
  8
SUNPOU
100
AcDbMText
 10
81966.59089719908
 20
68240.13905087176
 30
0.0
 40
3.5
 41
0.0
 71
     9
 72
     5
  1

1001
ACAD
1000
MTEXTBEGIN
1070
    73
1070
     1
1070
    44
1040
1.0
1070
    74
1070
     0
1000
MTEXTEND
  0
MTEXT
  5
5644
330
1A
100
AcDbEntity
  8
SUNPOU
100
AcDbMText
 10
113092.7707298187
 20
110735.0847185291
 30
0.0
 40
10.5
 41
0.0
 71
     9
 72
     5
  1

1001
ACAD
1000
MTEXTBEGIN
1070
    73
1070
     1
1070
    44
1040
1.0
1070
    74
1070
     0
1000
MTEXTEND
  0
MTEXT
  5
5645
330
1A
100
AcDbEntity
  8
SUNPOU
100
AcDbMText
 10
115036.1779765282
 20
108934.0356386511
 30
0.0
 40
3.5
 41
0.0
 71
     9
 72
     5
  1

1001
ACAD
1000
MTEXTBEGIN
1070
    73
1070
     1
1070
    44
1040
1.0
1070
    74
1070
     0
1000
MTEXTEND
  0
MTEXT
  5
5646
330
1A
100
AcDbEntity
  8
SUNPOU
100
AcDbMText
 10
63533.03843561433
 20
56568.24987350415
 30
0.0
 40
10.5
 41
0.0
 71
     9
 72
     5
  1

1001
ACAD
1000
MTEXTBEGIN
1070
    73
1070
     1
1070
    44
1040
1.0
1070
    74
1070
     0
1000
MTEXTEND
  0
MTEXT
  5
5647
330
1A
100
AcDbEntity
  8
SUNPOU
100
AcDbMText
 10
49585.03833523835
 20
37395.85073439196
 30
0.0
 40
3.5
 41
0.0
 71
     7
 72
     5
  1

1001
ACAD
1000
MTEXTBEGIN
1070
    73
1070
     1
1070
    44
1040
1.0
1070
    74
1070
     0
1000
MTEXTEND
  0
MTEXT
  5
5648
330
1A
100
AcDbEntity
  8
SUNPOU
100
AcDbMText
 10
77137.31641337052
 20
70907.11375048141
 30
0.0
 40
10.5
 41
0.0
 71
     9
 72
     5
  1

1001
ACAD
1000
MTEXTBEGIN
1070
    73
1070
     1
1070
    44
1040
1.0
1070
    74
1070
     0
1000
MTEXTEND
  0
MTEXT
  5
5649
330
1A
100
AcDbEntity
  8
SUNPOU
100
AcDbMText
 10
79080.72366007995
 20
69106.06467060339
 30
0.0
 40
3.5
 41
0.0
 71
     9
 72
     5
  1

1001
ACAD
1000
MTEXTBEGIN
1070
    73
1070
     1
1070
    44
1040
1.0
1070
    74
1070
     0
1000
MTEXTEND
  0
MTEXT
  5
564A
330
1A
100
AcDbEntity
  8
SUNPOU
100
AcDbMText
 10
110206.9034926996
 20
111601.0103382607
 30
0.0
 40
10.5
 41
0.0
 71
     9
 72
     5
  1

1001
ACAD
1000
MTEXTBEGIN
1070
    73
1070
     1
1070
    44
1040
1.0
1070
    74
1070
     0
1000
MTEXTEND
  0
MTEXT
  5
564B
330
1A
100
AcDbEntity
  8
SUNPOU
100
AcDbMText
 10
112150.310739409
 20
109799.9612583827
 30
0.0
 40
3.5
 41
0.0
 71
     9
 72
     5
  1

1001
ACAD
1000
MTEXTBEGIN
1070
    73
1070
     1
1070
    44
1040
1.0
1070
    74
1070
     0
1000
MTEXTEND
  0
MTEXT
  5
564C
330
1A
100
AcDbEntity
  8
SUNPOU
100
AcDbMText
 10
108819.1333204968
 20
110677.9087286761
 30
0.0
 40
10.5
 41
0.0
 71
     9
 72
     5
  1

1001
ACAD
1000
MTEXTBEGIN
1070
    73
1070
     1
1070
    44
1040
1.0
1070
    74
1070
     0
1000
MTEXTEND
  0
MTEXT
  5
564D
330
1A
100
AcDbEntity
  8
SUNPOU
100
AcDbMText
 10
110762.5405672062
 20
108876.8596487981
 30
0.0
 40
3.5
 41
0.0
 71
     9
 72
     5
  1

1001
ACAD
1000
MTEXTBEGIN
1070
    73
1070
     1
1070
    44
1040
1.0
1070
    74
1070
     0
1000
MTEXTEND
  0
MTEXT
  5
564E
330
1A
100
AcDbEntity
  8
SUNPOU
100
AcDbMText
 10
76303.05507956816
 20
68695.31179059812
 30
0.0
 40
10.5
 41
0.0
 71
     9
 72
     5
  1

1001
ACAD
1000
MTEXTBEGIN
1070
    73
1070
     1
1070
    44
1040
1.0
1070
    74
1070
     0
1000
MTEXTEND
  0
MTEXT
  5
564F
330
1A
100
AcDbEntity
  8
SUNPOU
100
AcDbMText
 10
79026.36128373271
 20
69099.99348217918
 30
0.0
 40
3.5
 41
0.0
 71
     9
 72
     5
  1

1001
ACAD
1000
MTEXTBEGIN
1070
    73
1070
     1
1070
    44
1040
1.0
1070
    74
1070
     0
1000
MTEXTEND
  0
MTEXT
  5
5650
330
1A
100
AcDbEntity
  8
SUNPOU
100
AcDbMText
 10
78234.00675862522
 20
65938.68764412436
 30
0.0
 40
10.5
 41
0.0
 71
     9
 72
     5
  1

1001
ACAD
1000
MTEXTBEGIN
1070
    73
1070
     1
1070
    44
1040
1.0
1070
    74
1070
     0
1000
MTEXTEND
  0
MTEXT
  5
5651
330
1A
100
AcDbEntity
  8
SUNPOU
100
AcDbMText
 10
80177.41400533465
 20
64137.63856424636
 30
0.0
 40
3.5
 41
0.0
 71
     9
 72
     5
  1

1001
ACAD
1000
MTEXTBEGIN
1070
    73
1070
     1
1070
    44
1040
1.0
1070
    74
1070
     0
1000
MTEXTEND
  0
MTEXT
  5
5652
330
1A
100
AcDbEntity
  8
SUNPOU
100
AcDbMText
 10
80122.50949592123
 20
64024.86668196205
 30
0.0
 40
3.5
 41
0.0
 71
     9
 72
     5
  1

1001
ACAD
1000
MTEXTBEGIN
1070
    73
1070
     1
1070
    44
1040
1.0
1070
    74
1070
     0
1000
MTEXTEND
  0
MTEXT
  5
5653
330
1A
100
AcDbEntity
  8
SUNPOU
100
AcDbMText
 10
79486.58135950133
 20
63213.54544089553
 30
0.0
 40
3.5
 41
0.0
 71
     9
 72
     5
  1

1001
ACAD
1000
MTEXTBEGIN
1070
    73
1070
     1
1070
    44
1040
1.0
1070
    74
1070
     0
1000
MTEXTEND
  0
MTEXT
  5
5654
330
1A
100
AcDbEntity
  8
SUNPOU
100
AcDbMText
 10
79485.3409400806
 20
63213.29746395804
 30
0.0
 40
10.5
 41
0.0
 71
     9
 72
     5
  1

1001
ACAD
1000
MTEXTBEGIN
1070
    73
1070
     1
1070
    44
1040
1.0
1070
    74
1070
     0
1000
MTEXTEND
  0
MTEXT
  5
5655
330
1A
100
AcDbEntity
  8
SUNPOU
100
AcDbMText
 10
85473.63363627567
 20
80747.76348077064
 30
0.0
 40
10.5
 41
0.0
 71
     9
 72
     5
  1

1001
ACAD
1000
MTEXTBEGIN
1070
    73
1070
     1
1070
    44
1040
1.0
1070
    74
1070
     0
1000
MTEXTEND
  0
MTEXT
  5
5656
330
1A
100
AcDbEntity
  8
SUNPOU
100
AcDbMText
 10
94195.80120219368
 20
88163.59801230809
 30
0.0
 40
10.5
 41
0.0
 71
     9
 72
     5
  1

1001
ACAD
1000
MTEXTBEGIN
1070
    73
1070
     1
1070
    44
1040
1.0
1070
    74
1070
     0
1000
MTEXTEND
  0
MTEXT
  5
5657
330
1A
100
AcDbEntity
  8
SUNPOU
100
AcDbMText
 10
113149.5599195236
 20
105630.1740648001
 30
0.0
 40
10.5
 41
0.0
 71
     9
 72
     5
  1

1001
ACAD
1000
MTEXTBEGIN
1070
    73
1070
     1
1070
    44
1040
1.0
1070
    74
1070
     0
1000
MTEXTEND
  0
MTEXT
  5
5658
330
1A
100
AcDbEntity
  8
SUNPOU
100
AcDbMText
 10
115092.967166233
 20
103829.1249849221
 30
0.0
 40
3.5
 41
0.0
 71
     9
 72
     5
  1

1001
ACAD
1000
MTEXTBEGIN
1070
    73
1070
     1
1070
    44
1040
1.0
1070
    74
1070
     0
1000
MTEXTEND
  0
MTEXT
  5
5659
330
1A
100
AcDbEntity
  8
SUNPOU
100
AcDbMText
 10
146219.1469988527
 20
146324.0706525794
 30
0.0
 40
10.5
 41
0.0
 71
     9
 72
     5
  1

1001
ACAD
1000
MTEXTBEGIN
1070
    73
1070
     1
1070
    44
1040
1.0
1070
    74
1070
     0
1000
MTEXTEND
  0
MTEXT
  5
565A
330
1A
100
AcDbEntity
  8
SUNPOU
100
AcDbMText
 10
148162.5542455621
 20
144523.0215727014
 30
0.0
 40
3.5
 41
0.0
 71
     9
 72
     5
  1

1001
ACAD
1000
MTEXTBEGIN
1070
    73
1070
     1
1070
    44
1040
1.0
1070
    74
1070
     0
1000
MTEXTEND
  0
MTEXT
  5
565B
330
1A
100
AcDbEntity
  8
SUNPOU
100
AcDbMText
 10
96659.41470464833
 20
92157.23580755453
 30
0.0
 40
10.5
 41
0.0
 71
     9
 72
     5
  1

1001
ACAD
1000
MTEXTBEGIN
1070
    73
1070
     1
1070
    44
1040
1.0
1070
    74
1070
     0
1000
MTEXTEND
  0
MTEXT
  5
565C
330
1A
100
AcDbEntity
  8
SUNPOU
100
AcDbMText
 10
82711.41460427234
 20
72984.83666844234
 30
0.0
 40
3.5
 41
0.0
 71
     7
 72
     5
  1

1001
ACAD
1000
MTEXTBEGIN
1070
    73
1070
     1
1070
    44
1040
1.0
1070
    74
1070
     0
1000
MTEXTEND
  0
MTEXT
  5
565D
330
1A
100
AcDbEntity
  8
SUNPOU
100
AcDbMText
 10
63696.58400126548
 20
60746.98539926055
 30
0.0
 40
10.5
 41
0.0
 71
     7
 72
     5
  1

1001
ACAD
1000
MTEXTBEGIN
1070
    73
1070
     1
1070
    44
1040
1.0
1070
    74
1070
     0
1000
MTEXTEND
  0
MTEXT
  5
565E
330
1A
100
AcDbEntity
  8
SUNPOU
100
AcDbMText
 10
51239.35573631738
 20
44902.05382116213
 30
0.0
 40
35.0
 41
0.0
 71
     9
 72
     5
  1

1001
ACAD
1000
MTEXTBEGIN
1070
    73
1070
     1
1070
    44
1040
1.0
1070
    74
1070
     0
1000
MTEXTEND
  0
MTEXT
  5
565F
330
1A
100
AcDbEntity
  8
SUNPOU
100
AcDbMText
 10
50147.84079389233
 20
45510.82923121084
 30
0.0
 40
350.0000004171781
 41
0.0
 71
     7
 72
     5
  1

1001
ACAD
1000
MTEXTBEGIN
1070
    73
1070
     1
1070
    44
1040
1.0
1070
    74
1070
     0
1000
MTEXTEND
  0
MTEXT
  5
5660
330
1A
100
AcDbEntity
  8
0
100
AcDbMText
 10
56191.79155183523
 20
43490.75159334705
 30
0.0
 40
8.0
 41
0.0
 71
     7
 72
     5
  1

1001
ACAD
1000
MTEXTBEGIN
1070
    73
1070
     1
1070
    44
1040
1.0
1070
    74
1070
     0
1000
MTEXTEND
  0
MTEXT
  5
5661
330
1A
100
AcDbEntity
  8
0
100
AcDbMText
 10
58477.14924173013
 20
44461.54188809812
 30
0.0
 40
8.0
 41
0.0
 71
     7
 72
     5
  1

1001
ACAD
1000
MTEXTBEGIN
1070
    73
1070
     1
1070
    44
1040
1.0
1070
    74
1070
     0
1000
MTEXTEND
  0
MTEXT
  5
5662
330
1A
100
AcDbEntity
  8
SUNPOU
100
AcDbMText
 10
61143.04626241227
 20
53973.65328047324
 30
0.0
 40
10.5
 41
0.0
 71
     1
 72
     5
  1

1001
ACAD
1000
MTEXTBEGIN
1070
    73
1070
     1
1070
    44
1040
1.0
1070
    74
1070
     0
1000
MTEXTEND
  0
MTEXT
  5
5663
330
1A
100
AcDbEntity
  8
SUNPOU
100
AcDbMText
 10
53212.12306647634
 20
53026.86014656028
 30
0.0
 40
10.5
 41
0.0
 71
     7
 72
     5
  1

1001
ACAD
1000
MTEXTBEGIN
1070
    73
1070
     1
1070
    44
1040
1.0
1070
    74
1070
     0
1000
MTEXTEND
  0
MTEXT
  5
5664
330
1A
100
AcDbEntity
  8
SUNPOU
100
AcDbMText
 10
56161.1067309891
 20
57927.53621840312
 30
0.0
 40
10.5
 41
0.0
 71
     7
 72
     5
  1

1001
ACAD
1000
MTEXTBEGIN
1070
    73
1070
     1
1070
    44
1040
1.0
1070
    74
1070
     0
1000
MTEXTEND
  0
MTEXT
  5
5665
330
1A
100
AcDbEntity
  8
SUNPOU
100
AcDbMText
 10
60670.18485893966
 20
60363.8369660232
 30
0.0
 40
10.5
 41
0.0
 71
     7
 72
     5
  1

1001
ACAD
1000
MTEXTBEGIN
1070
    73
1070
     1
1070
    44
1040
1.0
1070
    74
1070
     0
1000
MTEXTEND
  0
MTEXT
  5
5666
330
1A
100
AcDbEntity
  8
SUNPOU
100
AcDbMText
 10
44271.02274570799
 20
39361.43311641212
 30
0.0
 40
10.5
 41
0.0
 71
     7
 72
     5
  1

1001
ACAD
1000
MTEXTBEGIN
1070
    73
1070
     1
1070
    44
1040
1.0
1070
    74
1070
     0
1000
MTEXTEND
  0
MTEXT
  5
5667
330
1A
100
AcDbEntity
  8
SUNPOU
100
AcDbMText
 10
95462.54117960824
 20
85034.41368006038
 30
0.0
 40
10.5
 41
0.0
 71
     9
 72
     5
  1

1001
ACAD
1000
MTEXTBEGIN
1070
    73
1070
     1
1070
    44
1040
1.0
1070
    74
1070
     0
1000
MTEXTEND
  0
MTEXT
  5
5668
330
1A
100
AcDbEntity
  8
SUNPOU
100
AcDbMText
 10
104184.7087455262
 20
92450.24821159784
 30
0.0
 40
10.5
 41
0.0
 71
     9
 72
     5
  1

1001
ACAD
1000
MTEXTBEGIN
1070
    73
1070
     1
1070
    44
1040
1.0
1070
    74
1070
     0
1000
MTEXTEND
  0
MTEXT
  5
5669
330
1A
100
AcDbEntity
  8
SUNPOU
100
AcDbMText
 10
123138.4674628562
 20
109916.8242640898
 30
0.0
 40
10.5
 41
0.0
 71
     9
 72
     5
  1

1001
ACAD
1000
MTEXTBEGIN
1070
    73
1070
     1
1070
    44
1040
1.0
1070
    74
1070
     0
1000
MTEXTEND
  0
MTEXT
  5
566A
330
1A
100
AcDbEntity
  8
SUNPOU
100
AcDbMText
 10
125081.8747095656
 20
108115.7751842118
 30
0.0
 40
3.5
 41
0.0
 71
     9
 72
     5
  1

1001
ACAD
1000
MTEXTBEGIN
1070
    73
1070
     1
1070
    44
1040
1.0
1070
    74
1070
     0
1000
MTEXTEND
  0
MTEXT
  5
566B
330
1A
100
AcDbEntity
  8
SUNPOU
100
AcDbMText
 10
156208.0545421853
 20
150610.7208518691
 30
0.0
 40
10.5
 41
0.0
 71
     9
 72
     5
  1

1001
ACAD
1000
MTEXTBEGIN
1070
    73
1070
     1
1070
    44
1040
1.0
1070
    74
1070
     0
1000
MTEXTEND
  0
MTEXT
  5
566C
330
1A
100
AcDbEntity
  8
SUNPOU
100
AcDbMText
 10
158151.4617888947
 20
148809.6717719911
 30
0.0
 40
3.5
 41
0.0
 71
     9
 72
     5
  1

1001
ACAD
1000
MTEXTBEGIN
1070
    73
1070
     1
1070
    44
1040
1.0
1070
    74
1070
     0
1000
MTEXTEND
  0
MTEXT
  5
566D
330
1A
100
AcDbEntity
  8
SUNPOU
100
AcDbMText
 10
106648.3222479809
 20
96443.88600684427
 30
0.0
 40
10.5
 41
0.0
 71
     9
 72
     5
  1

1001
ACAD
1000
MTEXTBEGIN
1070
    73
1070
     1
1070
    44
1040
1.0
1070
    74
1070
     0
1000
MTEXTEND
  0
MTEXT
  5
566E
330
1A
100
AcDbEntity
  8
SUNPOU
100
AcDbMText
 10
92700.3221476049
 20
77271.48686773207
 30
0.0
 40
3.5
 41
0.0
 71
     7
 72
     5
  1

1001
ACAD
1000
MTEXTBEGIN
1070
    73
1070
     1
1070
    44
1040
1.0
1070
    74
1070
     0
1000
MTEXTEND
  0
MTEXT
  5
566F
330
1A
100
AcDbEntity
  8
SUNPOU
100
AcDbMText
 10
73685.49154459806
 20
65033.63559855027
 30
0.0
 40
10.5
 41
0.0
 71
     7
 72
     5
  1

1001
ACAD
1000
MTEXTBEGIN
1070
    73
1070
     1
1070
    44
1040
1.0
1070
    74
1070
     0
1000
MTEXTEND
  0
MTEXT
  5
5670
330
1A
100
AcDbEntity
  8
SUNPOU
100
AcDbMText
 10
61228.26327964995
 20
49188.70402045185
 30
0.0
 40
35.0
 41
0.0
 71
     9
 72
     5
  1

1001
ACAD
1000
MTEXTBEGIN
1070
    73
1070
     1
1070
    44
1040
1.0
1070
    74
1070
     0
1000
MTEXTEND
  0
MTEXT
  5
5671
330
1A
100
AcDbEntity
  8
SUNPOU
100
AcDbMText
 10
60136.74833722491
 20
49797.47943050056
 30
0.0
 40
350.0000004171781
 41
0.0
 71
     7
 72
     5
  1

1001
ACAD
1000
MTEXTBEGIN
1070
    73
1070
     1
1070
    44
1040
1.0
1070
    74
1070
     0
1000
MTEXTEND
  0
MTEXT
  5
5672
330
1A
100
AcDbEntity
  8
0
100
AcDbMText
 10
66180.69909516782
 20
47777.40179263678
 30
0.0
 40
8.0
 41
0.0
 71
     7
 72
     5
  1

1001
ACAD
1000
MTEXTBEGIN
1070
    73
1070
     1
1070
    44
1040
1.0
1070
    74
1070
     0
1000
MTEXTEND
  0
MTEXT
  5
5673
330
1A
100
AcDbEntity
  8
0
100
AcDbMText
 10
68466.05678506271
 20
48748.19208738784
 30
0.0
 40
8.0
 41
0.0
 71
     7
 72
     5
  1

1001
ACAD
1000
MTEXTBEGIN
1070
    73
1070
     1
1070
    44
1040
1.0
1070
    74
1070
     0
1000
MTEXTEND
  0
MTEXT
  5
5674
330
1A
100
AcDbEntity
  8
SUNPOU
100
AcDbMText
 10
71131.95380574485
 20
58260.30347976296
 30
0.0
 40
10.5
 41
0.0
 71
     1
 72
     5
  1

1001
ACAD
1000
MTEXTBEGIN
1070
    73
1070
     1
1070
    44
1040
1.0
1070
    74
1070
     0
1000
MTEXTEND
  0
MTEXT
  5
5675
330
1A
100
AcDbEntity
  8
SUNPOU
100
AcDbMText
 10
63201.03060980891
 20
57313.51034585002
 30
0.0
 40
10.5
 41
0.0
 71
     7
 72
     5
  1

1001
ACAD
1000
MTEXTBEGIN
1070
    73
1070
     1
1070
    44
1040
1.0
1070
    74
1070
     0
1000
MTEXTEND
  0
MTEXT
  5
5676
330
1A
100
AcDbEntity
  8
SUNPOU
100
AcDbMText
 10
66150.01427432169
 20
62214.18641769286
 30
0.0
 40
10.5
 41
0.0
 71
     7
 72
     5
  1

1001
ACAD
1000
MTEXTBEGIN
1070
    73
1070
     1
1070
    44
1040
1.0
1070
    74
1070
     0
1000
MTEXTEND
  0
MTEXT
  5
5677
330
1A
100
AcDbEntity
  8
SUNPOU
100
AcDbMText
 10
70659.09240227225
 20
64650.48716531294
 30
0.0
 40
10.5
 41
0.0
 71
     7
 72
     5
  1

1001
ACAD
1000
MTEXTBEGIN
1070
    73
1070
     1
1070
    44
1040
1.0
1070
    74
1070
     0
1000
MTEXTEND
  0
MTEXT
  5
5678
330
1A
100
AcDbEntity
  8
SUNPOU
100
AcDbMText
 10
54259.93028904056
 20
43648.08331570185
 30
0.0
 40
10.5
 41
0.0
 71
     7
 72
     5
  1

1001
ACAD
1000
MTEXTBEGIN
1070
    73
1070
     1
1070
    44
1040
1.0
1070
    74
1070
     0
1000
MTEXTEND
  0
MTEXT
  5
5679
330
1A
100
AcDbEntity
  8
SUNPOU
100
AcDbMText
 10
56070.69320041551
 20
49975.4973031804
 30
0.0
 40
10.5
 41
0.0
 71
     9
 72
     5
  1

1001
ACAD
1000
MTEXTBEGIN
1070
    73
1070
     1
1070
    44
1040
1.0
1070
    74
1070
     0
1000
MTEXTEND
  0
MTEXT
  5
567A
330
1A
100
AcDbEntity
  8
SUNPOU
100
AcDbMText
 10
64792.86076633348
 20
57391.33183471788
 30
0.0
 40
10.5
 41
0.0
 71
     9
 72
     5
  1

1001
ACAD
1000
MTEXTBEGIN
1070
    73
1070
     1
1070
    44
1040
1.0
1070
    74
1070
     0
1000
MTEXTEND
  0
MTEXT
  5
567B
330
1A
100
AcDbEntity
  8
SUNPOU
100
AcDbMText
 10
83746.61948366345
 20
74857.90788720994
 30
0.0
 40
10.5
 41
0.0
 71
     9
 72
     5
  1

1001
ACAD
1000
MTEXTBEGIN
1070
    73
1070
     1
1070
    44
1040
1.0
1070
    74
1070
     0
1000
MTEXTEND
  0
MTEXT
  5
567C
330
1A
100
AcDbEntity
  8
SUNPOU
100
AcDbMText
 10
85690.02673037287
 20
73056.85880733192
 30
0.0
 40
3.5
 41
0.0
 71
     9
 72
     5
  1

1001
ACAD
1000
MTEXTBEGIN
1070
    73
1070
     1
1070
    44
1040
1.0
1070
    74
1070
     0
1000
MTEXTEND
  0
MTEXT
  5
567D
330
1A
100
AcDbEntity
  8
SUNPOU
100
AcDbMText
 10
116816.2065629925
 20
115551.8044749892
 30
0.0
 40
10.5
 41
0.0
 71
     9
 72
     5
  1

1001
ACAD
1000
MTEXTBEGIN
1070
    73
1070
     1
1070
    44
1040
1.0
1070
    74
1070
     0
1000
MTEXTEND
  0
MTEXT
  5
567E
330
1A
100
AcDbEntity
  8
SUNPOU
100
AcDbMText
 10
118759.613809702
 20
113750.7553951112
 30
0.0
 40
3.5
 41
0.0
 71
     9
 72
     5
  1

1001
ACAD
1000
MTEXTBEGIN
1070
    73
1070
     1
1070
    44
1040
1.0
1070
    74
1070
     0
1000
MTEXTEND
  0
MTEXT
  5
567F
330
1A
100
AcDbEntity
  8
SUNPOU
100
AcDbMText
 10
67256.47426878814
 20
61384.96962996432
 30
0.0
 40
10.5
 41
0.0
 71
     9
 72
     5
  1

1001
ACAD
1000
MTEXTBEGIN
1070
    73
1070
     1
1070
    44
1040
1.0
1070
    74
1070
     0
1000
MTEXTEND
  0
MTEXT
  5
5680
330
1A
100
AcDbEntity
  8
SUNPOU
100
AcDbMText
 10
53308.47416841216
 20
42212.57049085211
 30
0.0
 40
3.5
 41
0.0
 71
     7
 72
     5
  1

1001
ACAD
1000
MTEXTBEGIN
1070
    73
1070
     1
1070
    44
1040
1.0
1070
    74
1070
     0
1000
MTEXTEND
  0
MTEXT
  5
5681
330
1A
100
AcDbEntity
  8
SUNPOU
100
AcDbMText
 10
67000.82485118274
 20
51571.63371187345
 30
0.0
 40
10.5
 41
0.0
 71
     9
 72
     5
  1

1001
ACAD
1000
MTEXTBEGIN
1070
    73
1070
     1
1070
    44
1040
1.0
1070
    74
1070
     0
1000
MTEXTEND
  0
MTEXT
  5
5682
330
1A
100
AcDbEntity
  8
SUNPOU
100
AcDbMText
 10
75722.99241710071
 20
58987.46824341094
 30
0.0
 40
10.5
 41
0.0
 71
     9
 72
     5
  1

1001
ACAD
1000
MTEXTBEGIN
1070
    73
1070
     1
1070
    44
1040
1.0
1070
    74
1070
     0
1000
MTEXTEND
  0
MTEXT
  5
5683
330
1A
100
AcDbEntity
  8
SUNPOU
100
AcDbMText
 10
94676.75113443068
 20
76454.04429590299
 30
0.0
 40
10.5
 41
0.0
 71
     9
 72
     5
  1

1001
ACAD
1000
MTEXTBEGIN
1070
    73
1070
     1
1070
    44
1040
1.0
1070
    74
1070
     0
1000
MTEXTEND
  0
MTEXT
  5
5684
330
1A
100
AcDbEntity
  8
SUNPOU
100
AcDbMText
 10
96620.1583811401
 20
74652.99521602498
 30
0.0
 40
3.5
 41
0.0
 71
     9
 72
     5
  1

1001
ACAD
1000
MTEXTBEGIN
1070
    73
1070
     1
1070
    44
1040
1.0
1070
    74
1070
     0
1000
MTEXTEND
  0
MTEXT
  5
5685
330
1A
100
AcDbEntity
  8
SUNPOU
100
AcDbMText
 10
127746.3382137598
 20
117147.9408836823
 30
0.0
 40
10.5
 41
0.0
 71
     9
 72
     5
  1

1001
ACAD
1000
MTEXTBEGIN
1070
    73
1070
     1
1070
    44
1040
1.0
1070
    74
1070
     0
1000
MTEXTEND
  0
MTEXT
  5
5686
330
1A
100
AcDbEntity
  8
SUNPOU
100
AcDbMText
 10
129689.7454604692
 20
115346.8918038043
 30
0.0
 40
3.5
 41
0.0
 71
     9
 72
     5
  1

1001
ACAD
1000
MTEXTBEGIN
1070
    73
1070
     1
1070
    44
1040
1.0
1070
    74
1070
     0
1000
MTEXTEND
  0
MTEXT
  5
5687
330
1A
100
AcDbEntity
  8
SUNPOU
100
AcDbMText
 10
78186.60591955537
 20
62981.10603865738
 30
0.0
 40
10.5
 41
0.0
 71
     9
 72
     5
  1

1001
ACAD
1000
MTEXTBEGIN
1070
    73
1070
     1
1070
    44
1040
1.0
1070
    74
1070
     0
1000
MTEXTEND
  0
MTEXT
  5
5688
330
1A
100
AcDbEntity
  8
SUNPOU
100
AcDbMText
 10
64238.60581917939
 20
43808.70689954517
 30
0.0
 40
3.5
 41
0.0
 71
     7
 72
     5
  1

1001
ACAD
1000
MTEXTBEGIN
1070
    73
1070
     1
1070
    44
1040
1.0
1070
    74
1070
     0
1000
MTEXTEND
  0
MTEXT
  5
5689
330
1A
100
AcDbEntity
  8
SUNPOU
100
AcDbMText
 10
33428.13481137435
 20
32770.04710035564
 30
0.0
 40
10.5
 41
0.0
 71
     9
 72
     5
  1

1001
ACAD
1000
MTEXTBEGIN
1070
    73
1070
     1
1070
    44
1040
1.0
1070
    74
1070
     0
1000
MTEXTEND
  0
MTEXT
  5
568A
330
1A
100
AcDbEntity
  8
SUNPOU
100
AcDbMText
 10
52381.89352870432
 20
50236.62315284769
 30
0.0
 40
10.5
 41
0.0
 71
     9
 72
     5
  1

1001
ACAD
1000
MTEXTBEGIN
1070
    73
1070
     1
1070
    44
1040
1.0
1070
    74
1070
     0
1000
MTEXTEND
  0
MTEXT
  5
568B
330
1A
100
AcDbEntity
  8
SUNPOU
100
AcDbMText
 10
54325.30077541374
 20
48435.57407296968
 30
0.0
 40
3.5
 41
0.0
 71
     9
 72
     5
  1

1001
ACAD
1000
MTEXTBEGIN
1070
    73
1070
     1
1070
    44
1040
1.0
1070
    74
1070
     0
1000
MTEXTEND
  0
MTEXT
  5
568C
330
1A
100
AcDbEntity
  8
SUNPOU
100
AcDbMText
 10
85451.48060803343
 20
90930.51974062703
 30
0.0
 40
10.5
 41
0.0
 71
     9
 72
     5
  1

1001
ACAD
1000
MTEXTBEGIN
1070
    73
1070
     1
1070
    44
1040
1.0
1070
    74
1070
     0
1000
MTEXTEND
  0
MTEXT
  5
568D
330
1A
100
AcDbEntity
  8
SUNPOU
100
AcDbMText
 10
87394.88785474286
 20
89129.47066074901
 30
0.0
 40
3.5
 41
0.0
 71
     9
 72
     5
  1

1001
ACAD
1000
MTEXTBEGIN
1070
    73
1070
     1
1070
    44
1040
1.0
1070
    74
1070
     0
1000
MTEXTEND
  0
MTEXT
  5
568E
330
1A
100
AcDbEntity
  8
SUNPOU
100
AcDbMText
 10
35891.74831382901
 20
36763.68489560208
 30
0.0
 40
10.5
 41
0.0
 71
     9
 72
     5
  1

1001
ACAD
1000
MTEXTBEGIN
1070
    73
1070
     1
1070
    44
1040
1.0
1070
    74
1070
     0
1000
MTEXTEND
  0
MTEXT
  5
568F
330
1A
100
AcDbEntity
  8
SUNPOU
100
AcDbMText
 10
21943.74821345303
 20
17591.28575648986
 30
0.0
 40
3.5
 41
0.0
 71
     7
 72
     5
  1

1001
ACAD
1000
MTEXTBEGIN
1070
    73
1070
     1
1070
    44
1040
1.0
1070
    74
1070
     0
1000
MTEXTEND
  0
DIMENSION
  5
181BA
330
1A
100
AcDbEntity
  8
SUNPOU
100
AcDbDimension
  2
*D0
 10
-1397.759369827557
 20
1535.867327711633
 30
0.0
 11
-1430.259369827557
 21
1538.617327711633
 31
0.0
 70
    32
  3
標準スタイル
100
AcDbAlignedDimension
 13
-1462.759369827557
 23
1545.895625549102
 33
0.0
 14
-1397.759369827557
 24
1543.895625549103
 34
0.0
100
AcDbRotatedDimension
1001
ACAD
1000
DSTYLE
1002
{
1070
   340
1005
10
1070
    40
1040
1.0
1002
}
  0
DIMENSION
  5
181BB
330
1A
100
AcDbEntity
  8
SUNPOU
100
AcDbDimension
  2
*D1
 10
-1380.890156436547
 20
1595.574880962724
 30
0.0
 11
-1383.640156436547
 21
1598.574880962724
 31
0.0
 70
    32
  3
標準スタイル
100
AcDbAlignedDimension
 13
-1398.759369827557
 23
1601.574880962723
 33
0.0
 14
-1450.952447644718
 24
1595.574880962724
 34
0.0
 50
90.0
100
AcDbRotatedDimension
1001
ACAD
1000
DSTYLE
1002
{
1070
   287
1070
     4
1070
   287
1070
     4
1070
   340
1005
10
1070
    40
1040
1.0
1070
   279
1070
     1
1002
}
  0
DIMENSION
  5
181BC
330
1A
100
AcDbEntity
  8
SUNPOU
100
AcDbDimension
  2
*D2
 10
-1380.890156436547
 20
1664.574880962724
 30
0.0
 11
-1383.640156436547
 21
1667.574880962724
 31
0.0
 70
    32
  3
標準スタイル
100
AcDbAlignedDimension
 13
-1450.952447644718
 23
1670.574880962724
 33
0.0
 14
-1398.759369827557
 24
1664.574880962724
 34
0.0
 50
90.0
100
AcDbRotatedDimension
1001
ACAD
1000
DSTYLE
1002
{
1070
   340
1005
10
1070
    40
1040
1.0
1002
}
  0
DIMENSION
  5
181BD
330
1A
100
AcDbEntity
  8
SUNPOU
100
AcDbDimension
  2
*D3
 10
-1390.087904564687
 20
1598.074880962724
 30
0.0
 11
-1392.837904564687
 21
1633.074880962724
 31
0.0
 70
    32
  3
標準スタイル
100
AcDbAlignedDimension
 13
-1451.759369827557
 23
1668.074880962724
 33
0.0
 14
-1451.699512319837
 24
1598.074880962724
 34
0.0
 50
90.0
100
AcDbRotatedDimension
1001
ACAD
1000
DSTYLE
1002
{
1070
   340
1005
10
1070
    40
1040
1.0
1002
}
  0
DIMENSION
  5
181BE
330
1A
100
AcDbEntity
  8
SUNPOU
100
AcDbDimension
  2
*D4
 10
-1397.759369827557
 20
1588.288644072654
 30
0.0
 11
-1426.259369827557
 21
1591.038644072654
 31
0.0
 70
    32
  3
標準スタイル
100
AcDbAlignedDimension
 13
-1454.759369827557
 23
1595.074880962724
 33
0.0
 14
-1397.759369827557
 24
1602.574880962723
 34
0.0
100
AcDbRotatedDimension
1001
ACAD
1000
DSTYLE
1002
{
1070
   287
1070
     4
1070
   287
1070
     4
1070
   340
1005
10
1070
    40
1040
1.0
1070
   279
1070
     1
1002
}
  0
LINE
  5
181BF
330
1A
100
AcDbEntity
  8
ZISSEN1
  6
CONTINUOUS
 62
     7
100
AcDbLine
 10
-1405.759369827555
 20
1664.574880962724
 30
0.0
 11
-1449.952447644719
 21
1664.574880962724
 31
0.0
  0
LINE
  5
181C0
330
1A
100
AcDbEntity
  8
ZISSEN1
  6
CONTINUOUS
 62
     7
100
AcDbLine
 10
-1442.259369827557
 20
1664.074880962725
 30
0.0
 11
-1399.259369827555
 21
1664.074880962725
 31
0.0
  0
LINE
  5
181C1
330
1A
100
AcDbEntity
  8
ZISSEN1
  6
CONTINUOUS
 62
     7
100
AcDbLine
 10
-1442.259369827557
 20
1664.074880962725
 30
0.0
 11
-1399.259369827555
 21
1664.074880962725
 31
0.0
  0
LINE
  5
181C2
330
1A
100
AcDbEntity
  8
ZISSEN1
  6
CONTINUOUS
 62
     7
100
AcDbLine
 10
-1398.259369827557
 20
1657.574880962725
 30
0.0
 11
-1409.759369827556
 21
1657.574880962725
 31
0.0
  0
LINE
  5
181C3
330
1A
100
AcDbEntity
  8
ZISSEN1
  6
CONTINUOUS
 62
     7
100
AcDbLine
 10
-1404.290325547497
 20
1618.174880962725
 30
0.0
 11
-1407.890325547498
 21
1618.174880962725
 31
0.0
  0
LINE
  5
181C4
330
1A
100
AcDbEntity
  8
ZISSEN1
  6
CONTINUOUS
 62
     7
100
AcDbLine
 10
-1406.029677757233
 20
1619.043875346962
 30
0.0
 11
-1411.429677757233
 21
1619.043875346962
 31
0.0
  0
LINE
  5
181C5
330
1A
100
AcDbEntity
  8
ZISSEN1
  6
CONTINUOUS
 62
     7
100
AcDbLine
 10
-1406.029677757233
 20
1625.653875346962
 30
0.0
 11
-1411.429677757233
 21
1625.653875346962
 31
0.0
  0
LINE
  5
181C6
330
1A
100
AcDbEntity
  8
ZISSEN1
  6
CONTINUOUS
 62
     7
100
AcDbLine
 10
-1404.290325547497
 20
1610.774880962725
 30
0.0
 11
-1407.890325547498
 21
1610.774880962725
 31
0.0
  0
LINE
  5
181C7
330
1A
100
AcDbEntity
  8
ZISSEN1
  6
CONTINUOUS
 62
     7
100
AcDbLine
 10
-1404.290325547497
 20
1609.774880962725
 30
0.0
 11
-1407.890325547498
 21
1609.774880962725
 31
0.0
  0
LINE
  5
181C8
330
1A
100
AcDbEntity
  8
ZISSEN1
  6
CONTINUOUS
 62
     7
100
AcDbLine
 10
-1404.290325547497
 20
1602.374880962726
 30
0.0
 11
-1407.890325547498
 21
1602.374880962726
 31
0.0
  0
LINE
  5
181C9
330
1A
100
AcDbEntity
  8
ZISSEN1
  6
CONTINUOUS
 62
     7
100
AcDbLine
 10
-1409.259369827555
 20
1626.774880962725
 30
0.0
 11
-1398.259369827557
 21
1626.774880962725
 31
0.0
  0
LINE
  5
181CA
330
1A
100
AcDbEntity
  8
ZISSEN1
  6
CONTINUOUS
 62
     7
100
AcDbLine
 10
-1398.759369827557
 20
1601.574880962723
 30
0.0
 11
-1408.890325547498
 21
1601.574880962723
 31
0.0
  0
LINE
  5
181CB
330
1A
100
AcDbEntity
  8
ZISSEN1
  6
CONTINUOUS
 62
     7
100
AcDbLine
 10
-1409.759369827556
 20
1626.774880962725
 30
0.0
 11
-1398.759369827557
 21
1626.774880962725
 31
0.0
  0
LINE
  5
181CC
330
1A
100
AcDbEntity
  8
ZISSEN1
  6
CONTINUOUS
 62
     7
100
AcDbLine
 10
-1399.759369827557
 20
1602.074880962725
 30
0.0
 11
-1448.759409665579
 21
1602.074880962725
 31
0.0
  0
LINE
  5
181CD
330
1A
100
AcDbEntity
  8
ZISSEN1
  6
CONTINUOUS
 62
     7
100
AcDbLine
 10
-1399.259369827555
 20
1602.074880962725
 30
0.0
 11
-1448.759409665579
 21
1602.074880962725
 31
0.0
  0
LINE
  5
181CE
330
1A
100
AcDbEntity
  8
ZISSEN1
  6
CONTINUOUS
 62
     7
100
AcDbLine
 10
-1404.286292010394
 20
1565.695625549102
 30
0.0
 11
-1407.886292010394
 21
1565.695625549102
 31
0.0
  0
LINE
  5
181CF
330
1A
100
AcDbEntity
  8
ZISSEN1
  6
CONTINUOUS
 62
     7
100
AcDbLine
 10
-1404.286292010394
 20
1558.095625549102
 30
0.0
 11
-1407.886292010394
 21
1558.095625549102
 31
0.0
  0
ARC
  5
181D0
330
1A
100
AcDbEntity
  8
ZISSEN1
  6
CONTINUOUS
 62
     7
100
AcDbCircle
 10
-1406.259369827556
 20
1546.895625549102
 30
0.0
 40
2.0
100
AcDbArc
 50
90.0
 51
180.0
  0
LINE
  5
181D1
330
1A
100
AcDbEntity
  8
ZISSEN1
  6
CONTINUOUS
 62
     7
100
AcDbLine
 10
-1460.759369827557
 20
1550.495625549102
 30
0.0
 11
-1405.141420635125
 21
1550.495625549102
 31
0.0
  0
LINE
  5
181D2
330
1A
100
AcDbEntity
  8
ZISSEN1
  6
CONTINUOUS
 62
     7
100
AcDbLine
 10
-1398.259369827557
 20
1556.495625549103
 30
0.0
 11
-1460.759369827557
 21
1556.495625549103
 31
0.0
  0
LINE
  5
181D3
330
1A
100
AcDbEntity
  8
ZISSEN1
  6
CONTINUOUS
 62
     7
100
AcDbLine
 10
-1398.259369827557
 20
1558.095625549102
 30
0.0
 11
-1460.759369827557
 21
1558.095625549102
 31
0.0
  0
LINE
  5
181D4
330
1A
100
AcDbEntity
  8
ZISSEN1
  6
CONTINUOUS
 62
     7
100
AcDbLine
 10
-1398.259369827557
 20
1548.895625549102
 30
0.0
 11
-1460.759369827557
 21
1548.895625549102
 31
0.0
  0
LINE
  5
181D5
330
1A
100
AcDbEntity
  8
ZISSEN1
  6
CONTINUOUS
 62
     7
100
AcDbLine
 10
-1408.259369827557
 20
1543.895625549103
 30
0.0
 11
-1397.759369827557
 21
1543.895625549103
 31
0.0
  0
LINE
  5
181D6
330
1A
100
AcDbEntity
  8
ZISSEN1
  6
CONTINUOUS
 62
     7
100
AcDbLine
 10
-1408.259369827557
 20
1545.895625549102
 30
0.0
 11
-1397.759369827557
 21
1545.895625549102
 31
0.0
  0
DIMENSION
  5
181D7
330
1A
100
AcDbEntity
  8
SUNPOU
100
AcDbDimension
  2
*D5
 10
-1470.01135041237
 20
1595.574880962724
 30
0.0
 11
-1472.761350412371
 21
1633.074880962724
 31
0.0
 70
    32
  3
標準スタイル
100
AcDbAlignedDimension
 13
-1462.759369827557
 23
1670.574880962724
 33
0.0
 14
-1462.759369827557
 24
1595.574880962724
 34
0.0
 50
90.0
100
AcDbRotatedDimension
1001
ACAD
1000
DSTYLE
1002
{
1070
   340
1005
10
1070
    40
1040
1.0
1002
}
  0
LINE
  5
181D8
330
1A
100
AcDbEntity
  8
ZISSEN1
  6
CONTINUOUS
 62
     7
100
AcDbLine
 10
-1409.759369827556
 20
1657.574880962725
 30
0.0
 11
-1409.759369827556
 21
1626.774880962725
 31
0.0
  0
LINE
  5
181D9
330
1A
100
AcDbEntity
  8
ZISSEN1
  6
CONTINUOUS
 62
     7
100
AcDbLine
 10
-1445.111226172285
 20
1639.311642291323
 30
0.0
 11
-1445.111226172285
 21
1628.311642291323
 31
0.0
  0
LINE
  5
181DA
330
1A
100
AcDbEntity
  8
ZISSEN1
  6
CONTINUOUS
 62
     7
100
AcDbLine
 10
-1457.611226172285
 20
1639.311642291323
 30
0.0
 11
-1457.611226172285
 21
1628.311642291323
 31
0.0
  0
LINE
  5
181DB
330
1A
100
AcDbEntity
  8
ZISSEN1
  6
CONTINUOUS
 62
     7
100
AcDbLine
 10
-1443.561226172285
 20
1639.24840361992
 30
0.0
 11
-1443.561226172285
 21
1611.495613986575
 31
0.0
  0
LINE
  5
181DC
330
1A
100
AcDbEntity
  8
ZISSEN1
  6
CONTINUOUS
 62
     7
100
AcDbLine
 10
-1443.561226172285
 20
1645.893458798028
 30
0.0
 11
-1443.561226172285
 21
1612.787470331304
 31
0.0
  0
LINE
  5
181DD
330
1A
100
AcDbEntity
  8
ZISSEN1
  6
CONTINUOUS
 62
     7
100
AcDbLine
 10
-1460.759369827557
 20
1595.574880962724
 30
0.0
 11
-1460.759369827557
 21
1670.574880962724
 31
0.0
  0
LINE
  5
181DE
330
1A
100
AcDbEntity
  8
ZISSEN1
  6
CONTINUOUS
 62
     7
100
AcDbLine
 10
-1462.759369827557
 20
1670.574880962724
 30
0.0
 11
-1462.759369827557
 21
1595.574880962724
 31
0.0
  0
LINE
  5
181E1
330
1A
100
AcDbEntity
  8
ZISSEN1
  6
CONTINUOUS
 62
     7
100
AcDbLine
 10
-1407.886292010394
 20
1565.695625549102
 30
0.0
 11
-1407.886292010394
 21
1558.095625549102
 31
0.0
  0
LINE
  5
181E2
330
1A
100
AcDbEntity
  8
ZISSEN1
  6
CONTINUOUS
 62
     7
100
AcDbLine
 10
-1443.462587533931
 20
1569.595625549102
 30
0.0
 11
-1443.462587533931
 21
1558.095625549102
 31
0.0
  0
LINE
  5
181E3
330
1A
100
AcDbEntity
  8
ZISSEN1
  6
CONTINUOUS
 62
     7
100
AcDbLine
 10
-1443.601226172285
 20
1558.095625549102
 30
0.0
 11
-1443.601226172285
 21
1572.495625549103
 31
0.0
  0
LINE
  5
181E4
330
1A
100
AcDbEntity
  8
ZISSEN1
  6
CONTINUOUS
 62
     7
100
AcDbLine
 10
-1456.101226172284
 20
1558.095625549102
 30
0.0
 11
-1456.101226172284
 21
1572.495625549103
 31
0.0
  0
LINE
  5
181E5
330
1A
100
AcDbEntity
  8
ZISSEN1
  6
CONTINUOUS
 62
     7
100
AcDbLine
 10
-1460.759369827557
 20
1572.895625549102
 30
0.0
 11
-1460.759369827557
 21
1543.895625549103
 31
0.0
  0
LINE
  5
181E6
330
1A
100
AcDbEntity
  8
ZISSEN1
  6
CONTINUOUS
 62
     7
100
AcDbLine
 10
-1462.759369827557
 20
1545.895625549102
 30
0.0
 11
-1462.759369827557
 21
1572.895625549102
 31
0.0
  0
LINE
  5
181E7
330
1A
100
AcDbEntity
  8
ZISSEN1
  6
CONTINUOUS
 62
     7
100
AcDbLine
 10
-1460.759369827557
 20
1545.895625549102
 30
0.0
 11
-1408.259369827557
 21
1545.895625549102
 31
0.0
  0
LINE
  5
181E8
330
1A
100
AcDbEntity
  8
ZISSEN1
  6
CONTINUOUS
 62
     7
100
AcDbLine
 10
-1460.759369827557
 20
1543.895625549103
 30
0.0
 11
-1408.259369827557
 21
1543.895625549103
 31
0.0
  0
LINE
  5
181E9
330
1A
100
AcDbEntity
  8
CL1
100
AcDbLine
 10
-1464.042364550184
 20
1560.895625549103
 30
0.0
 11
-1459.397661528211
 21
1560.895625549103
 31
0.0
  0
LINE
  5
181EA
330
1A
100
AcDbEntity
  8
ZISSEN1
  6
CONTINUOUS
 62
     7
100
AcDbLine
 10
-1456.101226172284
 20
1550.495625549102
 30
0.0
 11
-1456.101226172284
 21
1556.495625549103
 31
0.0
  0
LINE
  5
181EB
330
1A
100
AcDbEntity
  8
ZISSEN1
  6
CONTINUOUS
 62
     7
100
AcDbLine
 10
-1449.952447644719
 20
1545.895625549102
 30
0.0
 11
-1449.952447644719
 21
1543.895625549103
 31
0.0
  0
LINE
  5
181EC
330
1A
100
AcDbEntity
  8
ZISSEN1
  6
CONTINUOUS
 62
     7
100
AcDbLine
 10
-1450.952447644718
 20
1543.895625549103
 30
0.0
 11
-1450.952447644718
 21
1545.895625549102
 31
0.0
  0
LINE
  5
181ED
330
1A
100
AcDbEntity
  8
ZISSEN1
  6
CONTINUOUS
 62
     7
100
AcDbLine
 10
-1453.009369827555
 20
1543.895625549103
 30
0.0
 11
-1453.009369827555
 21
1545.895625549102
 31
0.0
  0
LINE
  5
181EE
330
1A
100
AcDbEntity
  8
ZISSEN1
  6
CONTINUOUS
 62
     7
100
AcDbLine
 10
-1459.759369827556
 20
1545.895625549102
 30
0.0
 11
-1459.759369827556
 21
1543.895625549103
 31
0.0
  0
LINE
  5
181EF
330
1A
100
AcDbEntity
  8
ZISSEN1
  6
CONTINUOUS
 62
     7
100
AcDbLine
 10
-1456.509369827555
 20
1543.895625549103
 30
0.0
 11
-1456.509369827555
 21
1545.895625549102
 31
0.0
  0
LINE
  5
181F0
330
1A
100
AcDbEntity
  8
ZISSEN1
  6
CONTINUOUS
 62
     7
100
AcDbLine
 10
-1460.759369827557
 20
1543.895625549103
 30
0.0
 11
-1460.759369827557
 21
1545.895625549102
 31
0.0
  0
LINE
  5
181F1
330
1A
100
AcDbEntity
  8
ZISSEN1
  6
CONTINUOUS
 62
     7
100
AcDbLine
 10
-1460.759369827557
 20
1545.895625549102
 30
0.0
 11
-1462.759369827557
 21
1545.895625549102
 31
0.0
  0
LINE
  5
181F2
330
1A
100
AcDbEntity
  8
ZISSEN1
  6
CONTINUOUS
 62
     7
100
AcDbLine
 10
-1460.759369827557
 20
1545.895625549102
 30
0.0
 11
-1460.759369827557
 21
1546.895625549102
 31
0.0
  0
LINE
  5
181F3
330
1A
100
AcDbEntity
  8
ZISSEN1
  6
CONTINUOUS
 62
     7
100
AcDbLine
 10
-1460.759369827557
 20
1546.895625549102
 30
0.0
 11
-1462.759369827557
 21
1546.895625549102
 31
0.0
  0
ARC
  5
181F4
330
1A
100
AcDbEntity
  8
ZISSEN1
  6
CONTINUOUS
 62
     7
100
AcDbCircle
 10
-1460.759369827557
 20
1545.895625549102
 30
0.0
 40
2.0
100
AcDbArc
 50
180.0
 51
270.0
  0
LINE
  5
181F5
330
1A
100
AcDbEntity
  8
ZISSEN1
  6
CONTINUOUS
 62
     7
100
AcDbLine
 10
-1439.260074952117
 20
1558.095625549102
 30
0.0
 11
-1440.960074952116
 21
1558.095625549102
 31
0.0
  0
LINE
  5
181F6
330
1A
100
AcDbEntity
  8
ZISSEN1
  6
CONTINUOUS
 62
     7
100
AcDbLine
 10
-1448.759409665579
 20
1558.095625549102
 30
0.0
 11
-1448.759409665579
 21
1556.495625549103
 31
0.0
  0
LINE
  5
181F7
330
1A
100
AcDbEntity
  8
ZISSEN1
  6
CONTINUOUS
 62
     7
100
AcDbLine
 10
-1407.886292010394
 20
1560.595625549102
 30
0.0
 11
-1411.429677757233
 21
1560.595625549102
 31
0.0
  0
LINE
  5
181F8
330
1A
100
AcDbEntity
  8
ZISSEN1
  6
CONTINUOUS
 62
     7
100
AcDbLine
 10
-1409.560074952116
 20
1556.445625549102
 30
0.0
 11
-1409.260074952117
 21
1556.445625549102
 31
0.0
  0
LINE
  5
181F9
330
1A
100
AcDbEntity
  8
ZISSEN1
  6
CONTINUOUS
 62
     7
100
AcDbLine
 10
-1409.221186063227
 20
1556.495625549103
 30
0.0
 11
-1409.260074952117
 21
1556.445625549102
 31
0.0
  0
LINE
  5
181FA
330
1A
100
AcDbEntity
  8
ZISSEN1
  6
CONTINUOUS
 62
     7
100
AcDbLine
 10
-1409.598963841005
 20
1556.495625549103
 30
0.0
 11
-1409.560074952116
 21
1556.445625549102
 31
0.0
  0
LINE
  5
181FB
330
1A
100
AcDbEntity
  8
ZISSEN1
  6
CONTINUOUS
 62
     7
100
AcDbLine
 10
-1407.886292010394
 20
1558.095625549102
 30
0.0
 11
-1408.886292010395
 21
1558.095625549102
 31
0.0
  0
LINE
  5
181FC
330
1A
100
AcDbEntity
  8
ZISSEN1
  6
CONTINUOUS
 62
     7
100
AcDbLine
 10
-1408.886292010395
 20
1558.095625549102
 30
0.0
 11
-1408.886292010395
 21
1558.245625549103
 31
0.0
  0
LINE
  5
181FD
330
1A
100
AcDbEntity
  8
ZISSEN1
  6
CONTINUOUS
 62
     7
100
AcDbLine
 10
-1408.886292010395
 20
1558.245625549103
 30
0.0
 11
-1407.886292010394
 21
1558.245625549103
 31
0.0
  0
LINE
  5
181FE
330
1A
100
AcDbEntity
  8
ZISSEN1
  6
CONTINUOUS
 62
     7
100
AcDbLine
 10
-1408.890325547498
 20
1548.895625549102
 30
0.0
 11
-1408.890325547498
 21
1550.495625549102
 31
0.0
  0
LINE
  5
181FF
330
1A
100
AcDbEntity
  8
ZISSEN1
  6
CONTINUOUS
 62
     7
100
AcDbLine
 10
-1411.529677757233
 20
1558.095625549102
 30
0.0
 11
-1411.529677757233
 21
1559.095625549102
 31
0.0
  0
LINE
  5
18200
330
1A
100
AcDbEntity
  8
ZISSEN1
  6
CONTINUOUS
 62
     7
100
AcDbLine
 10
-1411.529677757233
 20
1558.095625549102
 30
0.0
 11
-1410.629677757232
 21
1558.095625549102
 31
0.0
  0
LINE
  5
18201
330
1A
100
AcDbEntity
  8
ZISSEN1
  6
CONTINUOUS
 62
     7
100
AcDbLine
 10
-1411.529677757233
 20
1559.095625549102
 30
0.0
 11
-1411.429677757233
 21
1559.095625549102
 31
0.0
  0
LINE
  5
18202
330
1A
100
AcDbEntity
  8
ZISSEN1
  6
CONTINUOUS
 62
     7
100
AcDbLine
 10
-1410.629677757232
 20
1558.095625549102
 30
0.0
 11
-1410.629677757232
 21
1558.195625549102
 31
0.0
  0
LINE
  5
18203
330
1A
100
AcDbEntity
  8
ZISSEN1
  6
CONTINUOUS
 62
     7
100
AcDbLine
 10
-1411.429677757233
 20
1558.995625549103
 30
0.0
 11
-1407.886292010394
 21
1558.995625549103
 31
0.0
  0
LINE
  5
18204
330
1A
100
AcDbEntity
  8
ZISSEN1
  6
CONTINUOUS
 62
     7
100
AcDbLine
 10
-1407.886292010394
 20
1558.195625549102
 30
0.0
 11
-1411.429677757233
 21
1558.195625549102
 31
0.0
  0
LINE
  5
18205
330
1A
100
AcDbEntity
  8
ZISSEN1
  6
CONTINUOUS
 62
     7
100
AcDbLine
 10
-1411.429677757233
 20
1560.595625549102
 30
0.0
 11
-1411.429677757233
 21
1558.195625549102
 31
0.0
  0
LINE
  5
18206
330
1A
100
AcDbEntity
  8
ZISSEN1
  6
CONTINUOUS
 62
     7
100
AcDbLine
 10
-1408.259369827557
 20
1545.895625549102
 30
0.0
 11
-1408.259369827557
 21
1546.895625549102
 31
0.0
  0
LINE
  5
18207
330
1A
100
AcDbEntity
  8
ZISSEN1
  6
CONTINUOUS
 62
     7
100
AcDbLine
 10
-1408.890325547498
 20
1545.895625549102
 30
0.0
 11
-1408.890325547498
 21
1543.895625549103
 31
0.0
  0
DIMENSION
  5
18208
330
1A
100
AcDbEntity
  8
SUNPOU
100
AcDbDimension
  2
*D6
 10
-1454.759369827557
 20
1588.288644072654
 30
0.0
 11
-1458.759369827557
 21
1591.038644072654
 31
0.0
 70
    32
  3
標準スタイル
100
AcDbAlignedDimension
 13
-1462.759369827557
 23
1595.574880962724
 33
0.0
 14
-1454.759369827557
 24
1595.074880962724
 34
0.0
100
AcDbRotatedDimension
1001
ACAD
1000
DSTYLE
1002
{
1070
   340
1005
10
1070
    40
1040
1.0
1002
}
  0
LINE
  5
18209
330
1A
100
AcDbEntity
  8
ZISSEN1
  6
CONTINUOUS
 62
     7
100
AcDbLine
 10
-1452.111226172284
 20
1617.311642291323
 30
0.0
 11
-1445.111226172285
 21
1617.311642291323
 31
0.0
  0
LINE
  5
1820A
330
1A
100
AcDbEntity
  8
ZISSEN1
  6
CONTINUOUS
 62
     7
100
AcDbLine
 10
-1448.124943571513
 20
1616.511642291323
 30
0.0
 11
-1457.424943571513
 21
1616.511642291323
 31
0.0
  0
LINE
  5
1820B
330
1A
100
AcDbEntity
  8
ZISSEN1
  6
CONTINUOUS
 62
     7
100
AcDbLine
 10
-1448.759409665579
 20
1602.074880962725
 30
0.0
 11
-1460.759369827557
 21
1602.074880962725
 31
0.0
  0
LINE
  5
1820C
330
1A
100
AcDbEntity
  8
ZISSEN1
  6
CONTINUOUS
 62
     7
100
AcDbLine
 10
-1448.759409665579
 20
1606.211642291324
 30
0.0
 11
-1457.424943571513
 21
1606.211642291324
 31
0.0
  0
CIRCLE
  5
1820D
330
1A
100
AcDbEntity
  8
ZISSEN1
  6
CONTINUOUS
 62
     7
100
AcDbCircle
 10
-1452.274943571512
 20
1611.361642291323
 30
0.0
 40
5.0
  0
LINE
  5
1820E
330
1A
100
AcDbEntity
  8
ZISSEN1
  6
CONTINUOUS
 62
     7
100
AcDbLine
 10
-1456.101226172284
 20
1572.495625549103
 30
0.0
 11
-1443.601226172285
 21
1572.495625549103
 31
0.0
  0
LINE
  5
1820F
330
1A
100
AcDbEntity
  8
CL1
100
AcDbLine
 10
-1454.759369827557
 20
1601.074880962724
 30
0.0
 11
-1454.759369827557
 21
1595.074880962724
 31
0.0
  0
LINE
  5
18210
330
1A
100
AcDbEntity
  8
ZISSEN1
  6
CONTINUOUS
 62
     7
100
AcDbLine
 10
-1449.952447644719
 20
1602.074880962725
 30
0.0
 11
-1449.952447644719
 21
1596.574880962724
 31
0.0
  0
LINE
  5
18211
330
1A
100
AcDbEntity
  8
ZISSEN1
  6
CONTINUOUS
 62
     7
100
AcDbLine
 10
-1453.009369827555
 20
1599.074880962724
 30
0.0
 11
-1453.009369827555
 21
1595.574880962724
 31
0.0
  0
LINE
  5
18212
330
1A
100
AcDbEntity
  8
ZISSEN1
  6
CONTINUOUS
 62
     7
100
AcDbLine
 10
-1456.509369827555
 20
1599.074880962724
 30
0.0
 11
-1456.509369827555
 21
1595.574880962724
 31
0.0
  0
LINE
  5
18213
330
1A
100
AcDbEntity
  8
ZISSEN1
  6
CONTINUOUS
 62
     7
100
AcDbLine
 10
-1460.759369827557
 20
1607.074880962724
 30
0.0
 11
-1460.759369827557
 21
1596.574880962724
 31
0.0
  0
DIMENSION
  5
18214
330
1A
100
AcDbEntity
  8
SUNPOU
100
AcDbDimension
  2
*D7
 10
-1460.759369827557
 20
1578.044993543402
 30
0.0
 11
-1461.890038260712
 21
1578.695415558413
 31
0.0
 70
   160
  3
標準スタイル
100
AcDbAlignedDimension
 13
-1462.759369827557
 23
1572.895625549102
 33
0.0
 14
-1460.759369827557
 24
1572.895625549102
 34
0.0
100
AcDbRotatedDimension
1001
ACAD
1000
DSTYLE
1002
{
1070
   287
1070
     4
1070
   287
1070
     4
1070
   340
1005
10
1070
    40
1040
1.0
1070
   279
1070
     1
1002
}
  0
LINE
  5
18215
330
1A
100
AcDbEntity
  8
ZISSEN1
  6
CONTINUOUS
 62
     7
100
AcDbLine
 10
-1449.952447644719
 20
1596.574880962724
 30
0.0
 11
-1450.952447644718
 21
1595.574880962724
 31
0.0
  0
LINE
  5
18216
330
1A
100
AcDbEntity
  8
ZISSEN1
  6
CONTINUOUS
 62
     7
100
AcDbLine
 10
-1456.702447644718
 20
1595.574880962724
 30
0.0
 11
-1459.759369827556
 21
1595.574880962724
 31
0.0
  0
LINE
  5
18217
330
1A
100
AcDbEntity
  8
ZISSEN1
  6
CONTINUOUS
 62
     7
100
AcDbLine
 10
-1460.759369827557
 20
1595.574880962724
 30
0.0
 11
-1462.759369827557
 21
1595.574880962724
 31
0.0
  0
LINE
  5
18218
330
1A
100
AcDbEntity
  8
ZISSEN1
  6
CONTINUOUS
 62
     7
100
AcDbLine
 10
-1460.759369827557
 20
1596.574880962724
 30
0.0
 11
-1462.759369827557
 21
1596.574880962724
 31
0.0
  0
LINE
  5
18219
330
1A
100
AcDbEntity
  8
ZISSEN1
  6
CONTINUOUS
 62
     7
100
AcDbLine
 10
-1460.759369827557
 20
1596.574880962724
 30
0.0
 11
-1459.759369827556
 21
1595.574880962724
 31
0.0
  0
LINE
  5
1821A
330
1A
100
AcDbEntity
  8
ZISSEN1
  6
CONTINUOUS
 62
     7
100
AcDbLine
 10
-1450.952447644718
 20
1595.574880962724
 30
0.0
 11
-1453.202447644718
 21
1595.574880962724
 31
0.0
  0
LINE
  5
1821B
330
1A
100
AcDbEntity
  8
ZISSEN1
  6
CONTINUOUS
 62
     7
100
AcDbLine
 10
-1460.759369827557
 20
1571.895625549102
 30
0.0
 11
-1462.759369827557
 21
1571.895625549102
 31
0.0
  0
LINE
  5
1821C
330
1A
100
AcDbEntity
  8
ZISSEN1
  6
CONTINUOUS
 62
     7
100
AcDbLine
 10
-1460.759369827557
 20
1572.895625549102
 30
0.0
 11
-1462.759369827557
 21
1572.895625549102
 31
0.0
  0
LINE
  5
1821D
330
1A
100
AcDbEntity
  8
CL1
100
AcDbLine
 10
-1464.042364550184
 20
1598.074880962724
 30
0.0
 11
-1459.397661528211
 21
1598.074880962724
 31
0.0
  0
LINE
  5
1821E
330
1A
100
AcDbEntity
  8
CL1
100
AcDbLine
 10
-1457.952447644718
 20
1598.074880962724
 30
0.0
 11
-1451.699512319837
 21
1598.074880962724
 31
0.0
  0
LINE
  5
1821F
330
1A
100
AcDbEntity
  8
ZISSEN1
  6
CONTINUOUS
 62
     7
100
AcDbLine
 10
-1457.611226172285
 20
1617.311642291323
 30
0.0
 11
-1452.111226172284
 21
1617.311642291323
 31
0.0
  0
LINE
  5
18220
330
1A
100
AcDbEntity
  8
ZISSEN1
  6
CONTINUOUS
 62
     7
100
AcDbLine
 10
-1457.611226172285
 20
1628.311642291323
 30
0.0
 11
-1457.611226172285
 21
1617.311642291323
 31
0.0
  0
LINE
  5
18221
330
1A
100
AcDbEntity
  8
ZISSEN1
  6
CONTINUOUS
 62
     7
100
AcDbLine
 10
-1457.774943571513
 20
1610.911642291323
 30
0.0
 11
-1457.424943571513
 21
1610.911642291323
 31
0.0
  0
LINE
  5
18222
330
1A
100
AcDbEntity
  8
ZISSEN1
  6
CONTINUOUS
 62
     7
100
AcDbLine
 10
-1457.774943571513
 20
1611.811642291323
 30
0.0
 11
-1457.424943571513
 21
1611.811642291323
 31
0.0
  0
LINE
  5
18223
330
1A
100
AcDbEntity
  8
ZISSEN1
  6
CONTINUOUS
 62
     7
100
AcDbLine
 10
-1457.774943571513
 20
1611.811642291323
 30
0.0
 11
-1457.774943571513
 21
1610.911642291323
 31
0.0
  0
ARC
  5
18224
330
1A
100
AcDbEntity
  8
ZISSEN1
  6
CONTINUOUS
 62
     7
100
AcDbCircle
 10
-1454.759369827557
 20
1599.074880962724
 30
0.0
 40
1.75
100
AcDbArc
 50
0.0
 51
180.0
  0
LINE
  5
18225
330
1A
100
AcDbEntity
  8
ZISSEN1
  6
CONTINUOUS
 62
     7
100
AcDbLine
 10
-1457.424943571513
 20
1616.511642291323
 30
0.0
 11
-1457.424943571513
 21
1606.211642291324
 31
0.0
  0
LINE
  5
18226
330
1A
100
AcDbEntity
  8
ZISSEN1
  6
CONTINUOUS
 62
     7
100
AcDbLine
 10
-1411.062587533931
 20
1569.595625549102
 30
0.0
 11
-1438.960074952117
 21
1569.595625549102
 31
0.0
  0
LINE
  5
18227
330
1A
100
AcDbEntity
  8
ZISSEN1
  6
CONTINUOUS
 62
     7
100
AcDbLine
 10
-1438.960074952117
 20
1569.595625549102
 30
0.0
 11
-1443.462587533931
 21
1569.595625549102
 31
0.0
  0
LINE
  5
18228
330
1A
100
AcDbEntity
  8
ZISSEN1
  6
CONTINUOUS
 62
     7
100
AcDbLine
 10
-1411.062587533931
 20
1569.595625549102
 30
0.0
 11
-1411.062587533931
 21
1569.595625549102
 31
0.0
  0
LINE
  5
1822A
330
1A
100
AcDbEntity
  8
ZISSEN1
  6
CONTINUOUS
 62
     7
100
AcDbLine
 10
-1448.124943571513
 20
1616.511642291323
 30
0.0
 11
-1447.124943571513
 21
1615.511642291323
 31
0.0
  0
LINE
  5
1822B
330
1A
100
AcDbEntity
  8
ZISSEN1
  6
CONTINUOUS
 62
     7
100
AcDbLine
 10
-1445.111226172285
 20
1628.311642291323
 30
0.0
 11
-1445.111226172285
 21
1617.311642291323
 31
0.0
  0
LINE
  5
1822C
330
1A
100
AcDbEntity
  8
ZISSEN1
  6
CONTINUOUS
 62
     7
100
AcDbLine
 10
-1447.124943571513
 20
1610.911642291323
 30
0.0
 11
-1446.774943571512
 21
1610.911642291323
 31
0.0
  0
LINE
  5
1822D
330
1A
100
AcDbEntity
  8
ZISSEN1
  6
CONTINUOUS
 62
     7
100
AcDbLine
 10
-1447.124943571513
 20
1611.811642291323
 30
0.0
 11
-1446.774943571512
 21
1611.811642291323
 31
0.0
  0
LINE
  5
1822E
330
1A
100
AcDbEntity
  8
ZISSEN1
  6
CONTINUOUS
 62
     7
100
AcDbLine
 10
-1446.774943571512
 20
1611.811642291323
 30
0.0
 11
-1446.774943571512
 21
1610.911642291323
 31
0.0
  0
LINE
  5
1822F
330
1A
100
AcDbEntity
  8
ZISSEN1
  6
CONTINUOUS
 62
     7
100
AcDbLine
 10
-1448.759409665581
 20
1606.29743049328
 30
0.0
 11
-1443.561226172285
 21
1611.495613986575
 31
0.0
  0
LINE
  5
18230
330
1A
100
AcDbEntity
  8
ZISSEN1
  6
CONTINUOUS
 62
     7
100
AcDbLine
 10
-1448.759409665579
 20
1606.29743049328
 30
0.0
 11
-1443.561226172285
 21
1611.495613986575
 31
0.0
  0
LINE
  5
18231
330
1A
100
AcDbEntity
  8
ZISSEN1
  6
CONTINUOUS
 62
     7
100
AcDbLine
 10
-1448.759409665579
 20
1606.29743049328
 30
0.0
 11
-1448.759409665579
 21
1602.074880962725
 31
0.0
  0
LINE
  5
18232
330
1A
100
AcDbEntity
  8
ZISSEN1
  6
CONTINUOUS
 62
     7
100
AcDbLine
 10
-1448.759409665579
 20
1606.29743049328
 30
0.0
 11
-1448.759409665579
 21
1602.074880962725
 31
0.0
  0
LINE
  5
18233
330
1A
100
AcDbEntity
  8
ZISSEN1
  6
CONTINUOUS
 62
     7
100
AcDbLine
 10
-1447.124943571513
 20
1607.931896587347
 30
0.0
 11
-1447.124943571513
 21
1615.511642291323
 31
0.0
  0
LINE
  5
18234
330
1A
100
AcDbEntity
  8
ZISSEN1
  6
CONTINUOUS
 62
     7
100
AcDbLine
 10
-1411.429677757233
 20
1625.653875346962
 30
0.0
 11
-1411.429677757233
 21
1619.043875346962
 31
0.0
  0
LINE
  5
18235
330
1A
100
AcDbEntity
  8
ZISSEN1
  6
CONTINUOUS
 62
     7
100
AcDbLine
 10
-1408.890325547498
 20
1601.574880962723
 30
0.0
 11
-1408.890325547498
 21
1602.074880962725
 31
0.0
  0
LINE
  5
18236
330
1A
100
AcDbEntity
  8
ZISSEN1
  6
CONTINUOUS
 62
     7
100
AcDbLine
 10
-1407.890325547498
 20
1609.774880962725
 30
0.0
 11
-1407.890325547498
 21
1602.374880962726
 31
0.0
  0
LINE
  5
18237
330
1A
100
AcDbEntity
  8
ZISSEN1
  6
CONTINUOUS
 62
     7
100
AcDbLine
 10
-1407.890325547498
 20
1618.174880962725
 30
0.0
 11
-1407.890325547498
 21
1610.774880962725
 31
0.0
  0
LINE
  5
18238
330
1A
100
AcDbEntity
  8
ZISSEN1
  6
CONTINUOUS
 62
     7
100
AcDbLine
 10
-1451.087234902181
 20
1662.434880962725
 30
0.0
 11
-1444.477234902181
 21
1662.434880962725
 31
0.0
  0
LINE
  5
18239
330
1A
100
AcDbEntity
  8
ZISSEN1
  6
CONTINUOUS
 62
     7
100
AcDbLine
 10
-1442.259369827557
 20
1664.074880962725
 30
0.0
 11
-1460.259369827557
 21
1664.074880962725
 31
0.0
  0
LINE
  5
1823A
330
1A
100
AcDbEntity
  8
ZISSEN1
  6
CONTINUOUS
 62
     7
100
AcDbLine
 10
-1442.259369827557
 20
1664.074880962725
 30
0.0
 11
-1460.259369827557
 21
1664.074880962725
 31
0.0
  0
LINE
  5
1823B
330
1A
100
AcDbEntity
  8
ZISSEN1
  6
CONTINUOUS
 62
     7
100
AcDbLine
 10
-1451.087234902181
 20
1657.034880962726
 30
0.0
 11
-1444.477234902181
 21
1657.034880962726
 31
0.0
  0
LINE
  5
1823C
330
1A
100
AcDbEntity
  8
ZISSEN1
  6
CONTINUOUS
 62
     7
100
AcDbLine
 10
-1452.111226172284
 20
1639.311642291323
 30
0.0
 11
-1445.111226172285
 21
1639.311642291323
 31
0.0
  0
CIRCLE
  5
1823D
330
1A
100
AcDbEntity
  8
ZISSEN1
  6
CONTINUOUS
 62
     7
100
AcDbCircle
 10
-1452.274943571512
 20
1645.261642291323
 30
0.0
 40
5.0
  0
LINE
  5
1823E
330
1A
100
AcDbEntity
  8
ZISSEN1
  6
CONTINUOUS
 62
     7
100
AcDbLine
 10
-1448.124943571513
 20
1650.411642291323
 30
0.0
 11
-1457.424943571513
 21
1650.411642291323
 31
0.0
  0
LINE
  5
1823F
330
1A
100
AcDbEntity
  8
ZISSEN1
  6
CONTINUOUS
 62
     7
100
AcDbLine
 10
-1448.124943571513
 20
1640.111642291322
 30
0.0
 11
-1457.424943571513
 21
1640.111642291322
 31
0.0
  0
LINE
  5
18240
330
1A
100
AcDbEntity
  8
ZISSEN1
  6
CONTINUOUS
 62
     7
100
AcDbLine
 10
-1448.739409665579
 20
1651.071642291323
 30
0.0
 11
-1460.759369827557
 21
1651.071642291323
 31
0.0
  0
LINE
  5
18241
330
1A
100
AcDbEntity
  8
ZISSEN1
  6
CONTINUOUS
 62
     7
100
AcDbLine
 10
-1460.259369827557
 20
1659.574880962725
 30
0.0
 11
-1460.259369827557
 21
1664.074880962725
 31
0.0
  0
LINE
  5
18242
330
1A
100
AcDbEntity
  8
ZISSEN1
  6
CONTINUOUS
 62
     7
100
AcDbLine
 10
-1460.259369827557
 20
1659.574880962725
 30
0.0
 11
-1460.259369827557
 21
1664.074880962725
 31
0.0
  0
LINE
  5
18243
330
1A
100
AcDbEntity
  8
ZISSEN1
  6
CONTINUOUS
 62
     7
100
AcDbLine
 10
-1458.484203686683
 20
1662.434880962725
 30
0.0
 11
-1451.874203686683
 21
1662.434880962725
 31
0.0
  0
LINE
  5
18244
330
1A
100
AcDbEntity
  8
ZISSEN1
  6
DASHED2
 62
     7
100
AcDbLine
 10
-1460.259369827557
 20
1661.074880962725
 30
0.0
 11
-1460.259369827557
 21
1663.074880962725
 31
0.0
  0
LINE
  5
18245
330
1A
100
AcDbEntity
  8
ZISSEN1
  6
CONTINUOUS
 62
     7
100
AcDbLine
 10
-1458.484203686683
 20
1657.034880962726
 30
0.0
 11
-1451.874203686683
 21
1657.034880962726
 31
0.0
  0
LINE
  5
18246
330
1A
100
AcDbEntity
  8
ZISSEN1
  6
CONTINUOUS
 62
     7
100
AcDbLine
 10
-1460.759369827557
 20
1659.574880962725
 30
0.0
 11
-1460.259369827557
 21
1659.574880962725
 31
0.0
  0
LINE
  5
18247
330
1A
100
AcDbEntity
  8
ZISSEN1
  6
CONTINUOUS
 62
     7
100
AcDbLine
 10
-1457.774943571513
 20
1644.811642291323
 30
0.0
 11
-1457.424943571513
 21
1644.811642291323
 31
0.0
  0
LINE
  5
18248
330
1A
100
AcDbEntity
  8
ZISSEN1
  6
CONTINUOUS
 62
     7
100
AcDbLine
 10
-1457.774943571513
 20
1645.711642291323
 30
0.0
 11
-1457.424943571513
 21
1645.711642291323
 31
0.0
  0
LINE
  5
18249
330
1A
100
AcDbEntity
  8
ZISSEN1
  6
CONTINUOUS
 62
     7
100
AcDbLine
 10
-1457.774943571513
 20
1645.711642291323
 30
0.0
 11
-1457.774943571513
 21
1644.811642291323
 31
0.0
  0
LINE
  5
1824A
330
1A
100
AcDbEntity
  8
ZISSEN1
  6
CONTINUOUS
 62
     7
100
AcDbLine
 10
-1457.611226172285
 20
1639.311642291323
 30
0.0
 11
-1452.111226172284
 21
1639.311642291323
 31
0.0
  0
LINE
  5
1824B
330
1A
100
AcDbEntity
  8
ZISSEN1
  6
CONTINUOUS
 62
     7
100
AcDbLine
 10
-1457.424943571513
 20
1650.411642291323
 30
0.0
 11
-1457.424943571513
 21
1640.111642291322
 31
0.0
  0
LINE
  5
1824C
330
1A
100
AcDbEntity
  8
ZISSEN1
  6
CONTINUOUS
 62
     7
100
AcDbLine
 10
-1451.087234902181
 20
1662.434880962725
 30
0.0
 11
-1451.087234902181
 21
1657.034880962726
 31
0.0
  0
LINE
  5
1824D
330
1A
100
AcDbEntity
  8
ZISSEN1
  6
CONTINUOUS
 62
     7
100
AcDbLine
 10
-1451.874203686683
 20
1662.434880962725
 30
0.0
 11
-1451.874203686683
 21
1657.034880962726
 31
0.0
  0
LINE
  5
1824E
330
1A
100
AcDbEntity
  8
ZISSEN1
  6
CONTINUOUS
 62
     7
100
AcDbLine
 10
-1458.484203686683
 20
1662.434880962725
 30
0.0
 11
-1458.484203686683
 21
1657.034880962726
 31
0.0
  0
LINE
  5
1824F
330
1A
100
AcDbEntity
  8
CL1
100
AcDbLine
 10
-1464.042364550184
 20
1668.074880962724
 30
0.0
 11
-1459.397661528211
 21
1668.074880962724
 31
0.0
  0
LINE
  5
18250
330
1A
100
AcDbEntity
  8
CL1
100
AcDbLine
 10
-1457.952447644718
 20
1668.074880962724
 30
0.0
 11
-1451.759369827557
 21
1668.074880962724
 31
0.0
  0
LINE
  5
18251
330
1A
100
AcDbEntity
  8
CL1
100
AcDbLine
 10
-1454.759369827557
 20
1671.074880962724
 30
0.0
 11
-1454.759369827557
 21
1665.074880962724
 31
0.0
  0
LINE
  5
18252
330
1A
100
AcDbEntity
  8
ZISSEN1
  6
CONTINUOUS
 62
     7
100
AcDbLine
 10
-1450.952447644718
 20
1670.574880962724
 30
0.0
 11
-1449.952447644719
 21
1669.574880962724
 31
0.0
  0
LINE
  5
18253
330
1A
100
AcDbEntity
  8
ZISSEN1
  6
CONTINUOUS
 62
     7
100
AcDbLine
 10
-1449.952447644719
 20
1669.574880962724
 30
0.0
 11
-1449.952447644719
 21
1664.574880962724
 31
0.0
  0
LINE
  5
18254
330
1A
100
AcDbEntity
  8
ZISSEN1
  6
CONTINUOUS
 62
     7
100
AcDbLine
 10
-1453.009369827555
 20
1667.074880962724
 30
0.0
 11
-1453.009369827555
 21
1670.574880962724
 31
0.0
  0
LINE
  5
18255
330
1A
100
AcDbEntity
  8
ZISSEN1
  6
CONTINUOUS
 62
     7
100
AcDbLine
 10
-1459.759369827556
 20
1670.574880962724
 30
0.0
 11
-1456.509369827555
 21
1670.574880962724
 31
0.0
  0
LINE
  5
18256
330
1A
100
AcDbEntity
  8
ZISSEN1
  6
CONTINUOUS
 62
     7
100
AcDbLine
 10
-1456.509369827555
 20
1667.074880962724
 30
0.0
 11
-1456.509369827555
 21
1670.574880962724
 31
0.0
  0
ARC
  5
18257
330
1A
100
AcDbEntity
  8
ZISSEN1
  6
CONTINUOUS
 62
     7
100
AcDbCircle
 10
-1454.759369827557
 20
1667.074880962724
 30
0.0
 40
1.75
100
AcDbArc
 50
180.0
 51
0.0
  0
LINE
  5
18258
330
1A
100
AcDbEntity
  8
ZISSEN1
  6
CONTINUOUS
 62
     7
100
AcDbLine
 10
-1460.759369827557
 20
1670.574880962724
 30
0.0
 11
-1462.759369827557
 21
1670.574880962724
 31
0.0
  0
LINE
  5
18259
330
1A
100
AcDbEntity
  8
ZISSEN1
  6
CONTINUOUS
 62
     7
100
AcDbLine
 10
-1460.759369827557
 20
1670.574880962724
 30
0.0
 11
-1462.759369827557
 21
1670.574880962724
 31
0.0
  0
LINE
  5
1825A
330
1A
100
AcDbEntity
  8
ZISSEN1
  6
CONTINUOUS
 62
     7
100
AcDbLine
 10
-1460.759369827557
 20
1669.574880962724
 30
0.0
 11
-1462.759369827557
 21
1669.574880962724
 31
0.0
  0
LINE
  5
1825B
330
1A
100
AcDbEntity
  8
ZISSEN1
  6
CONTINUOUS
 62
     7
100
AcDbLine
 10
-1459.759369827556
 20
1670.574880962724
 30
0.0
 11
-1460.759369827557
 21
1669.574880962724
 31
0.0
  0
LINE
  5
1825C
330
1A
100
AcDbEntity
  8
ZISSEN1
  6
CONTINUOUS
 62
     7
100
AcDbLine
 10
-1453.009369827555
 20
1670.574880962724
 30
0.0
 11
-1450.952447644718
 21
1670.574880962724
 31
0.0
  0
LINE
  5
1825D
330
1A
100
AcDbEntity
  8
ZISSEN1
  6
CONTINUOUS
 62
     7
100
AcDbLine
 10
-1411.062587533931
 20
1657.374880962725
 30
0.0
 11
-1411.062587533931
 21
1664.074880962725
 31
0.0
  0
LINE
  5
1825E
330
1A
100
AcDbEntity
  8
ZISSEN1
  6
CONTINUOUS
 62
     7
100
AcDbLine
 10
-1411.912587533931
 20
1663.374880962726
 30
0.0
 11
-1411.912587533931
 21
1658.074880962725
 31
0.0
  0
LINE
  5
1825F
330
1A
100
AcDbEntity
  8
ZISSEN1
  6
CONTINUOUS
 62
     7
100
AcDbLine
 10
-1443.462587533931
 20
1657.374880962725
 30
0.0
 11
-1443.462587533931
 21
1664.074880962725
 31
0.0
  0
LINE
  5
18260
330
1A
100
AcDbEntity
  8
ZISSEN1
  6
CONTINUOUS
 62
     7
100
AcDbLine
 10
-1442.612587533932
 20
1663.374880962726
 30
0.0
 11
-1442.612587533932
 21
1658.074880962725
 31
0.0
  0
LINE
  5
18261
330
1A
100
AcDbEntity
  8
ZISSEN1
  6
CONTINUOUS
 62
     7
100
AcDbLine
 10
-1424.712587533931
 20
1657.374880962725
 30
0.0
 11
-1429.812587533931
 21
1657.374880962725
 31
0.0
  0
LINE
  5
18262
330
1A
100
AcDbEntity
  8
ZISSEN1
  6
CONTINUOUS
 62
     7
100
AcDbLine
 10
-1412.912587533932
 20
1658.774880962725
 30
0.0
 11
-1441.61258753393
 21
1658.774880962725
 31
0.0
  0
LINE
  5
18263
330
1A
100
AcDbEntity
  8
ZISSEN1
  6
CONTINUOUS
 62
     7
100
AcDbLine
 10
-1413.412587533931
 20
1658.274880962725
 30
0.0
 11
-1441.112587533932
 21
1658.274880962725
 31
0.0
  0
LINE
  5
18264
330
1A
100
AcDbEntity
  8
ZISSEN1
  6
CONTINUOUS
 62
     7
100
AcDbLine
 10
-1430.012587533932
 20
1658.274880962725
 30
0.0
 11
-1430.012587533932
 21
1657.674880962725
 31
0.0
  0
LINE
  5
18265
330
1A
100
AcDbEntity
  8
ZISSEN1
  6
CONTINUOUS
 62
     7
100
AcDbLine
 10
-1429.812587533931
 20
1658.274880962725
 30
0.0
 11
-1429.812587533931
 21
1657.374880962725
 31
0.0
  0
LINE
  5
18266
330
1A
100
AcDbEntity
  8
ZISSEN1
  6
CONTINUOUS
 62
     7
100
AcDbLine
 10
-1431.512587533931
 20
1658.274880962725
 30
0.0
 11
-1431.512587533931
 21
1657.674880962725
 31
0.0
  0
LINE
  5
18267
330
1A
100
AcDbEntity
  8
ZISSEN1
  6
CONTINUOUS
 62
     7
100
AcDbLine
 10
-1431.712587533931
 20
1658.274880962725
 30
0.0
 11
-1431.712587533931
 21
1657.374880962725
 31
0.0
  0
LINE
  5
18268
330
1A
100
AcDbEntity
  8
ZISSEN1
  6
CONTINUOUS
 62
     7
100
AcDbLine
 10
-1430.012587533932
 20
1657.674880962725
 30
0.0
 11
-1431.512587533931
 21
1657.674880962725
 31
0.0
  0
LINE
  5
18269
330
1A
100
AcDbEntity
  8
ZISSEN1
  6
CONTINUOUS
 62
     7
100
AcDbLine
 10
-1442.612587533932
 20
1658.074880962725
 30
0.0
 11
-1441.112587533932
 21
1658.074880962725
 31
0.0
  0
LINE
  5
1826A
330
1A
100
AcDbEntity
  8
ZISSEN1
  6
CONTINUOUS
 62
     7
100
AcDbLine
 10
-1441.61258753393
 20
1658.774880962725
 30
0.0
 11
-1441.61258753393
 21
1658.074880962725
 31
0.0
  0
LINE
  5
1826B
330
1A
100
AcDbEntity
  8
ZISSEN1
  6
CONTINUOUS
 62
     7
100
AcDbLine
 10
-1441.112587533932
 20
1657.374880962725
 30
0.0
 11
-1441.112587533932
 21
1658.274880962725
 31
0.0
  0
LINE
  5
1826C
330
1A
100
AcDbEntity
  8
ZISSEN1
  6
CONTINUOUS
 62
     7
100
AcDbLine
 10
-1448.124943571513
 20
1650.411642291323
 30
0.0
 11
-1447.124943571513
 21
1649.411642291323
 31
0.0
  0
LINE
  5
1826D
330
1A
100
AcDbEntity
  8
ZISSEN1
  6
CONTINUOUS
 62
     7
100
AcDbLine
 10
-1447.124943571513
 20
1644.811642291323
 30
0.0
 11
-1446.774943571512
 21
1644.811642291323
 31
0.0
  0
LINE
  5
1826E
330
1A
100
AcDbEntity
  8
ZISSEN1
  6
CONTINUOUS
 62
     7
100
AcDbLine
 10
-1447.124943571513
 20
1645.711642291323
 30
0.0
 11
-1446.774943571512
 21
1645.711642291323
 31
0.0
  0
LINE
  5
1826F
330
1A
100
AcDbEntity
  8
ZISSEN1
  6
CONTINUOUS
 62
     7
100
AcDbLine
 10
-1446.774943571512
 20
1645.711642291323
 30
0.0
 11
-1446.774943571512
 21
1644.811642291323
 31
0.0
  0
LINE
  5
18270
330
1A
100
AcDbEntity
  8
ZISSEN1
  6
CONTINUOUS
 62
     7
100
AcDbLine
 10
-1447.124943571513
 20
1641.111642291323
 30
0.0
 11
-1448.124943571513
 21
1640.111642291322
 31
0.0
  0
LINE
  5
18271
330
1A
100
AcDbEntity
  8
ZISSEN1
  6
CONTINUOUS
 62
     7
100
AcDbLine
 10
-1448.739409665579
 20
1651.071642291323
 30
0.0
 11
-1443.561226172285
 21
1645.893458798028
 31
0.0
  0
LINE
  5
18272
330
1A
100
AcDbEntity
  8
ZISSEN1
  6
CONTINUOUS
 62
     7
100
AcDbLine
 10
-1447.124943571513
 20
1641.111642291323
 30
0.0
 11
-1447.124943571513
 21
1649.411642291323
 31
0.0
  0
LINE
  5
18273
330
1A
100
AcDbEntity
  8
ZISSEN1
  6
CONTINUOUS
 62
     7
100
AcDbLine
 10
-1444.477234902181
 20
1662.434880962725
 30
0.0
 11
-1444.477234902181
 21
1657.034880962726
 31
0.0
  0
LINE
  5
18274
330
1A
100
AcDbEntity
  8
ZISSEN1
  6
CONTINUOUS
 62
     7
100
AcDbLine
 10
-1443.462587533931
 20
1657.374880962725
 30
0.0
 11
-1431.712587533931
 21
1657.374880962725
 31
0.0
  0
LINE
  5
18275
330
1A
100
AcDbEntity
  8
ZISSEN1
  6
CONTINUOUS
 62
     7
100
AcDbLine
 10
-1412.912587533932
 20
1658.774880962725
 30
0.0
 11
-1412.912587533932
 21
1658.074880962725
 31
0.0
  0
LINE
  5
18276
330
1A
100
AcDbEntity
  8
ZISSEN1
  6
CONTINUOUS
 62
     7
100
AcDbLine
 10
-1411.912587533931
 20
1658.474880962725
 30
0.0
 11
-1412.912587533932
 21
1658.474880962725
 31
0.0
  0
LINE
  5
18277
330
1A
100
AcDbEntity
  8
ZISSEN1
  6
CONTINUOUS
 62
     7
100
AcDbLine
 10
-1411.912587533931
 20
1658.474880962725
 30
0.0
 11
-1411.912587533931
 21
1659.474880962726
 31
0.0
  0
LINE
  5
18278
330
1A
100
AcDbEntity
  8
ZISSEN1
  6
CONTINUOUS
 62
     7
100
AcDbLine
 10
-1413.412587533931
 20
1658.274880962725
 30
0.0
 11
-1413.412587533931
 21
1657.374880962725
 31
0.0
  0
LINE
  5
18279
330
1A
100
AcDbEntity
  8
ZISSEN1
  6
CONTINUOUS
 62
     7
100
AcDbLine
 10
-1411.912587533931
 20
1658.074880962725
 30
0.0
 11
-1413.412587533931
 21
1658.074880962725
 31
0.0
  0
LINE
  5
1827A
330
1A
100
AcDbEntity
  8
ZISSEN1
  6
CONTINUOUS
 62
     7
100
AcDbLine
 10
-1422.812587533932
 20
1658.274880962725
 30
0.0
 11
-1422.812587533932
 21
1657.374880962725
 31
0.0
  0
LINE
  5
1827B
330
1A
100
AcDbEntity
  8
ZISSEN1
  6
CONTINUOUS
 62
     7
100
AcDbLine
 10
-1423.01258753393
 20
1657.674880962725
 30
0.0
 11
-1424.51258753393
 21
1657.674880962725
 31
0.0
  0
LINE
  5
1827C
330
1A
100
AcDbEntity
  8
ZISSEN1
  6
CONTINUOUS
 62
     7
100
AcDbLine
 10
-1423.01258753393
 20
1658.274880962725
 30
0.0
 11
-1423.01258753393
 21
1657.674880962725
 31
0.0
  0
LINE
  5
1827D
330
1A
100
AcDbEntity
  8
ZISSEN1
  6
CONTINUOUS
 62
     7
100
AcDbLine
 10
-1424.51258753393
 20
1658.274880962725
 30
0.0
 11
-1424.51258753393
 21
1657.674880962725
 31
0.0
  0
LINE
  5
1827E
330
1A
100
AcDbEntity
  8
ZISSEN1
  6
CONTINUOUS
 62
     7
100
AcDbLine
 10
-1424.712587533931
 20
1658.274880962725
 30
0.0
 11
-1424.712587533931
 21
1657.374880962725
 31
0.0
  0
LINE
  5
1827F
330
1A
100
AcDbEntity
  8
ZISSEN1
  6
CONTINUOUS
 62
     7
100
AcDbLine
 10
-1411.062587533931
 20
1657.374880962725
 30
0.0
 11
-1422.812587533932
 21
1657.374880962725
 31
0.0
  0
LINE
  5
18280
330
1A
100
AcDbEntity
  8
ZISSEN1
  6
CONTINUOUS
 62
     7
100
AcDbLine
 10
-1411.062587533931
 20
1664.074880962725
 30
0.0
 11
-1443.462587533931
 21
1664.074880962725
 31
0.0
  0
LINE
  5
18281
330
1A
100
AcDbEntity
  8
ZISSEN1
  6
CONTINUOUS
 62
     7
100
AcDbLine
 10
-1442.612587533932
 20
1663.374880962726
 30
0.0
 11
-1411.912587533931
 21
1663.374880962726
 31
0.0
  0
LINE
  5
18282
330
1A
100
AcDbEntity
  8
ZISSEN1
  6
CONTINUOUS
 62
     7
100
AcDbLine
 10
-1411.062587533931
 20
1663.774880962725
 30
0.0
 11
-1411.062587533931
 21
1664.074880962725
 31
0.0
  0
DIMENSION
  5
18283
330
1A
100
AcDbEntity
  8
SUNPOU
100
AcDbDimension
  2
*D8
 10
-1356.750429859103
 20
1598.074880962724
 30
0.0
 11
-1359.500429859103
 21
1633.074880962724
 31
0.0
 70
    32
  3
標準スタイル
100
AcDbAlignedDimension
 13
-1339.265241358098
 23
1668.074880962724
 33
0.0
 14
-1339.265241358098
 24
1598.074880962724
 34
0.0
 50
90.0
100
AcDbRotatedDimension
1001
ACAD
1000
DSTYLE
1002
{
1070
   287
1070
     4
1070
   287
1070
     4
1070
   340
1005
10
1070
    40
1040
1.0
1070
   279
1070
     1
1002
}
  0
DIMENSION
  5
18284
330
1A
100
AcDbEntity
  8
SUNPOU
100
AcDbDimension
  2
*D9
 10
-1380.890156436547
 20
1601.574880962723
 30
0.0
 11
-1383.640156436547
 21
1633.074880962723
 31
0.0
 70
    32
  3
標準スタイル
100
AcDbAlignedDimension
 13
-1398.759369827557
 23
1664.574880962724
 33
0.0
 14
-1398.759369827557
 24
1601.574880962723
 34
0.0
 50
90.0
100
AcDbRotatedDimension
1001
ACAD
1000
DSTYLE
1002
{
1070
   287
1070
     4
1070
   287
1070
     4
1070
   340
1005
10
1070
    40
1040
1.0
1070
   279
1070
     1
1002
}
  0
LINE
  5
18285
330
1A
100
AcDbEntity
  8
ZISSEN1
  6
CONTINUOUS
 62
     7
100
AcDbLine
 10
-1325.865241358099
 20
1631.824880962726
 30
0.0
 11
-1325.865241358099
 21
1630.124880962726
 31
0.0
  0
LINE
  5
18286
330
1A
100
AcDbEntity
  8
ZISSEN1
  6
CONTINUOUS
 62
     7
100
AcDbLine
 10
-1337.365241358098
 20
1632.124880962726
 30
0.0
 11
-1337.365241358098
 21
1630.124880962726
 31
0.0
  0
ARC
  5
18287
330
1A
100
AcDbEntity
  8
ZISSEN1
  6
CONTINUOUS
 62
     7
100
AcDbCircle
 10
-1336.865241358099
 20
1627.748403619919
 30
0.0
 40
5.0
100
AcDbArc
 50
77.55516532707393
 51
280.36975980548
  0
LINE
  5
18288
330
1A
100
AcDbEntity
  8
ZISSEN1
  6
CONTINUOUS
 62
     7
100
AcDbLine
 10
-1398.559369827556
 20
1629.624880962725
 30
0.0
 11
-1398.559369827556
 21
1632.624880962725
 31
0.0
  0
LINE
  5
18289
330
1A
100
AcDbEntity
  8
ZISSEN1
  6
CONTINUOUS
 62
     7
100
AcDbLine
 10
-1398.259369827557
 20
1643.074880962725
 30
0.0
 11
-1398.259369827557
 21
1626.774880962725
 31
0.0
  0
LINE
  5
1828A
330
1A
100
AcDbEntity
  8
ZISSEN1
  6
CONTINUOUS
 62
     7
100
AcDbLine
 10
-1319.265241358099
 20
1670.574880962724
 30
0.0
 11
-1319.265241358099
 21
1595.574880962724
 31
0.0
  0
LINE
  5
1828B
330
1A
100
AcDbEntity
  8
ZISSEN1
  6
CONTINUOUS
 62
     7
100
AcDbLine
 10
-1348.265241358099
 20
1669.574880962724
 30
0.0
 11
-1348.265241358099
 21
1596.574880962724
 31
0.0
  0
LINE
  5
1828C
330
1A
100
AcDbEntity
  8
ZISSEN1
  6
CONTINUOUS
 62
     7
100
AcDbLine
 10
-1405.259369827556
 20
1644.524880962725
 30
0.0
 11
-1405.259369827556
 21
1629.624880962725
 31
0.0
  0
LINE
  5
1828D
330
1A
100
AcDbEntity
  8
ZISSEN1
  6
CONTINUOUS
 62
     7
100
AcDbLine
 10
-1321.265241358099
 20
1626.874880962724
 30
0.0
 11
-1321.265241358099
 21
1657.574880962725
 31
0.0
  0
LINE
  5
1828E
330
1A
100
AcDbEntity
  8
ZISSEN1
  6
CONTINUOUS
 62
     7
100
AcDbLine
 10
-1325.865241358099
 20
1663.086968729646
 30
0.0
 11
-1325.865241358099
 21
1609.768162254191
 31
0.0
  0
LINE
  5
1828F
330
1A
100
AcDbEntity
  8
ZISSEN1
  6
CONTINUOUS
 62
     7
100
AcDbLine
 10
-1324.265241358099
 20
1602.074880962725
 30
0.0
 11
-1324.265241358099
 21
1643.985992073837
 31
0.0
  0
ARC
  5
18290
330
1A
100
AcDbEntity
  8
ZISSEN1
  6
CONTINUOUS
 62
     7
100
AcDbCircle
 10
-1336.865241358099
 20
1627.748403619919
 30
0.0
 40
11.0
100
AcDbArc
 50
82.16252023691003
 51
247.5536494185452
  0
LINE
  5
18291
330
1A
100
AcDbEntity
  8
ZISSEN1
  6
CONTINUOUS
 62
     7
100
AcDbLine
 10
-1325.865241358099
 20
1618.574880962725
 30
0.0
 11
-1324.265241358099
 21
1618.574880962725
 31
0.0
  0
LINE
  5
18292
330
1A
100
AcDbEntity
  8
ZISSEN1
  6
CONTINUOUS
 62
     7
100
AcDbLine
 10
-1324.265241358099
 20
1609.268162254191
 30
0.0
 11
-1324.765241358099
 21
1609.268162254191
 31
0.0
  0
LINE
  5
18293
330
1A
100
AcDbEntity
  8
ZISSEN1
  6
CONTINUOUS
 62
     7
100
AcDbLine
 10
-1324.265241358099
 20
1602.868162254191
 30
0.0
 11
-1324.765241358099
 21
1602.868162254191
 31
0.0
  0
LINE
  5
18294
330
1A
100
AcDbEntity
  8
ZISSEN1
  6
CONTINUOUS
 62
     7
100
AcDbLine
 10
-1325.865241358099
 20
1602.074880962725
 30
0.0
 11
-1324.265241358099
 21
1602.074880962725
 31
0.0
  0
LINE
  5
18295
330
1A
100
AcDbEntity
  8
ZISSEN1
  6
CONTINUOUS
 62
     7
100
AcDbLine
 10
-1334.515241358099
 20
1595.574880962724
 30
0.0
 11
-1322.265241358099
 21
1595.574880962724
 31
0.0
  0
MTEXT
  5
18296
330
1A
100
AcDbEntity
  8
ZISSEN1
100
AcDbMText
 10
-1369.75577156207
 20
1562.843042992338
 30
0.0
 40
5.0
 41
76.2713
 71
     1
 72
     5
  1
GDB-5K20　No.SS0001f124
1001
ACAD
1000
MTEXTBEGIN
1070
    73
1070
     1
1070
    44
1040
1.0
1070
    74
1070
     0
1000
MTEXTEND
1000
MTEXTBEGIN
1070
    73
1070
     1
1070
    44
1040
1.0
1070
    74
1070
     0
1000
MTEXTEND
  0
LINE
  5
18297
330
1A
100
AcDbEntity
  8
ZISSEN1
  6
CONTINUOUS
 62
     7
100
AcDbLine
 10
-1404.286292010394
 20
1565.695625549102
 30
0.0
 11
-1404.286292010394
 21
1558.095625549102
 31
0.0
  0
LINE
  5
18298
330
1A
100
AcDbEntity
  8
ZISSEN1
  6
CONTINUOUS
 62
     7
100
AcDbLine
 10
-1399.884369827556
 20
1559.614872614014
 30
0.0
 11
-1400.318814433411
 21
1559.680307519516
 31
0.0
  0
LINE
  5
18299
330
1A
100
AcDbEntity
  8
ZISSEN1
  6
CONTINUOUS
 62
     7
100
AcDbLine
 10
-1400.318814433411
 20
1559.680307519516
 30
0.0
 11
-1400.781837338971
 21
1559.720381035715
 31
0.0
  0
LINE
  5
1829A
330
1A
100
AcDbEntity
  8
ZISSEN1
  6
CONTINUOUS
 62
     7
100
AcDbLine
 10
-1400.781837338971
 20
1559.720381035715
 30
0.0
 11
-1401.259369827555
 21
1559.733875549103
 31
0.0
  0
LINE
  5
1829B
330
1A
100
AcDbEntity
  8
ZISSEN1
  6
CONTINUOUS
 62
     7
100
AcDbLine
 10
-1401.259369827555
 20
1559.733875549103
 30
0.0
 11
-1401.736902316139
 21
1559.720381035715
 31
0.0
  0
LINE
  5
1829C
330
1A
100
AcDbEntity
  8
ZISSEN1
  6
CONTINUOUS
 62
     7
100
AcDbLine
 10
-1401.736902316139
 20
1559.720381035715
 30
0.0
 11
-1402.199925221702
 21
1559.680307519516
 31
0.0
  0
LINE
  5
1829D
330
1A
100
AcDbEntity
  8
ZISSEN1
  6
CONTINUOUS
 62
     7
100
AcDbLine
 10
-1398.259369827557
 20
1558.095625549102
 30
0.0
 11
-1398.259369827557
 21
1556.495625549103
 31
0.0
  0
LINE
  5
1829E
330
1A
100
AcDbEntity
  8
ZISSEN1
  6
CONTINUOUS
 62
     7
100
AcDbLine
 10
-1399.259369827555
 20
1558.095625549102
 30
0.0
 11
-1399.259369827555
 21
1556.495625549103
 31
0.0
  0
LINE
  5
1829F
330
1A
100
AcDbEntity
  8
ZISSEN1
  6
CONTINUOUS
 62
     7
100
AcDbLine
 10
-1401.541420635125
 20
1556.495625549103
 30
0.0
 11
-1400.441420635125
 21
1556.495625549103
 31
0.0
  0
LINE
  5
182A0
330
1A
100
AcDbEntity
  8
ZISSEN1
  6
CONTINUOUS
 62
     7
100
AcDbLine
 10
-1400.441420635125
 20
1556.495625549103
 30
0.0
 11
-1400.441420635125
 21
1556.315625549103
 31
0.0
  0
LINE
  5
182A1
330
1A
100
AcDbEntity
  8
ZISSEN1
  6
CONTINUOUS
 62
     7
100
AcDbLine
 10
-1400.441420635125
 20
1556.315625549103
 30
0.0
 11
-1401.541420635125
 21
1556.315625549103
 31
0.0
  0
LINE
  5
182A2
330
1A
100
AcDbEntity
  8
ZISSEN1
  6
CONTINUOUS
 62
     7
100
AcDbLine
 10
-1398.509369827555
 20
1558.845625549102
 30
0.0
 11
-1398.551148506773
 21
1558.999868542915
 31
0.0
  0
LINE
  5
182A3
330
1A
100
AcDbEntity
  8
ZISSEN1
  6
CONTINUOUS
 62
     7
100
AcDbLine
 10
-1398.551148506773
 20
1558.999868542915
 30
0.0
 11
-1398.675215120394
 21
1559.149424941411
 31
0.0
  0
LINE
  5
182A4
330
1A
100
AcDbEntity
  8
ZISSEN1
  6
CONTINUOUS
 62
     7
100
AcDbLine
 10
-1398.675215120394
 20
1559.149424941411
 30
0.0
 11
-1398.877799967149
 21
1559.289750549102
 31
0.0
  0
LINE
  5
182A5
330
1A
100
AcDbEntity
  8
ZISSEN1
  6
CONTINUOUS
 62
     7
100
AcDbLine
 10
-1398.877799967149
 20
1559.289750549102
 30
0.0
 11
-1399.152747608979
 21
1559.416581643406
 31
0.0
  0
LINE
  5
182A6
330
1A
100
AcDbEntity
  8
ZISSEN1
  6
CONTINUOUS
 62
     7
100
AcDbLine
 10
-1399.152747608979
 20
1559.416581643406
 30
0.0
 11
-1399.491703900918
 21
1559.526064525703
 31
0.0
  0
LINE
  5
182A7
330
1A
100
AcDbEntity
  8
ZISSEN1
  6
CONTINUOUS
 62
     7
100
AcDbLine
 10
-1398.509369827555
 20
1558.095625549102
 30
0.0
 11
-1398.509369827555
 21
1558.845625549102
 31
0.0
  0
LINE
  5
182A8
330
1A
100
AcDbEntity
  8
ZISSEN1
  6
CONTINUOUS
 62
     7
100
AcDbLine
 10
-1398.259369827557
 20
1550.495625549102
 30
0.0
 11
-1398.259369827557
 21
1548.895625549102
 31
0.0
  0
LINE
  5
182A9
330
1A
100
AcDbEntity
  8
ZISSEN1
  6
CONTINUOUS
 62
     7
100
AcDbLine
 10
-1398.259369827557
 20
1550.495625549102
 30
0.0
 11
-1401.541420635125
 21
1550.495625549102
 31
0.0
  0
LINE
  5
182AA
330
1A
100
AcDbEntity
  8
ZISSEN1
  6
CONTINUOUS
 62
     7
100
AcDbLine
 10
-1398.759369827557
 20
1550.495625549103
 30
0.0
 11
-1398.759369827557
 21
1556.495625549103
 31
0.0
  0
LINE
  5
182AB
330
1A
100
AcDbEntity
  8
ZISSEN1
  6
CONTINUOUS
 62
     7
100
AcDbLine
 10
-1401.541420635125
 20
1548.895625549102
 30
0.0
 11
-1401.541420635125
 21
1556.495625549103
 31
0.0
  0
LINE
  5
182AC
330
1A
100
AcDbEntity
  8
ZISSEN1
  6
CONTINUOUS
 62
     7
100
AcDbLine
 10
-1398.459369827557
 20
1556.495625549103
 30
0.0
 11
-1398.459369827557
 21
1550.495625549102
 31
0.0
  0
LINE
  5
182AD
330
1A
100
AcDbEntity
  8
ZISSEN1
  6
CONTINUOUS
 62
     7
100
AcDbLine
 10
-1399.491703900918
 20
1559.526064525703
 30
0.0
 11
-1399.884369827556
 21
1559.614872614014
 31
0.0
  0
LINE
  5
182AE
330
1A
100
AcDbEntity
  8
ZISSEN1
  6
CONTINUOUS
 62
     7
100
AcDbLine
 10
-1397.759369827557
 20
1543.895625549103
 30
0.0
 11
-1397.759369827557
 21
1545.895625549102
 31
0.0
  0
LINE
  5
182AF
330
1A
100
AcDbEntity
  8
ZISSEN1
  6
CONTINUOUS
 62
     7
100
AcDbLine
 10
-1398.759369827557
 20
1545.895625549102
 30
0.0
 11
-1398.759369827557
 21
1543.895625549103
 31
0.0
  0
LINE
  5
182B0
330
1A
100
AcDbEntity
  8
ZISSEN1
  6
CONTINUOUS
 62
     7
100
AcDbLine
 10
-1397.759369827557
 20
1548.895625549102
 30
0.0
 11
-1397.759369827557
 21
1546.895625549102
 31
0.0
  0
LINE
  5
182B1
330
1A
100
AcDbEntity
  8
ZISSEN1
  6
CONTINUOUS
 62
     7
100
AcDbLine
 10
-1403.759369827556
 20
1560.395625549102
 30
0.0
 11
-1403.259369827556
 21
1559.895625549103
 31
0.0
  0
LINE
  5
182B2
330
1A
100
AcDbEntity
  8
ZISSEN1
  6
CONTINUOUS
 62
     7
100
AcDbLine
 10
-1403.759369827556
 20
1560.395625549102
 30
0.0
 11
-1404.286292010394
 21
1560.395625549102
 31
0.0
  0
LINE
  5
182B3
330
1A
100
AcDbEntity
  8
ZISSEN1
  6
CONTINUOUS
 62
     7
100
AcDbLine
 10
-1404.286292010394
 20
1558.095625549102
 30
0.0
 11
-1403.186292010395
 21
1558.095625549102
 31
0.0
  0
LINE
  5
182B4
330
1A
100
AcDbEntity
  8
ZISSEN1
  6
CONTINUOUS
 62
     7
100
AcDbLine
 10
-1403.186292010395
 20
1558.095625549102
 30
0.0
 11
-1403.186292010395
 21
1558.275625549103
 31
0.0
  0
LINE
  5
182B5
330
1A
100
AcDbEntity
  8
ZISSEN1
  6
CONTINUOUS
 62
     7
100
AcDbLine
 10
-1403.186292010395
 20
1558.275625549103
 30
0.0
 11
-1404.286292010394
 21
1558.275625549103
 31
0.0
  0
LINE
  5
182B6
330
1A
100
AcDbEntity
  8
ZISSEN1
  6
CONTINUOUS
 62
     7
100
AcDbLine
 10
-1405.141420635125
 20
1556.495625549103
 30
0.0
 11
-1406.141420635125
 21
1556.495625549103
 31
0.0
  0
LINE
  5
182B7
330
1A
100
AcDbEntity
  8
ZISSEN1
  6
CONTINUOUS
 62
     7
100
AcDbLine
 10
-1406.141420635125
 20
1556.495625549103
 30
0.0
 11
-1406.141420635125
 21
1556.345625549102
 31
0.0
  0
LINE
  5
182B8
330
1A
100
AcDbEntity
  8
ZISSEN1
  6
CONTINUOUS
 62
     7
100
AcDbLine
 10
-1406.141420635125
 20
1556.345625549102
 30
0.0
 11
-1405.141420635125
 21
1556.345625549102
 31
0.0
  0
LINE
  5
182B9
330
1A
100
AcDbEntity
  8
ZISSEN1
  6
CONTINUOUS
 62
     7
100
AcDbLine
 10
-1403.027035754194
 20
1559.526064525703
 30
0.0
 11
-1403.365992046134
 21
1559.416581643406
 31
0.0
  0
LINE
  5
182BA
330
1A
100
AcDbEntity
  8
ZISSEN1
  6
CONTINUOUS
 62
     7
100
AcDbLine
 10
-1403.365992046134
 20
1559.416581643406
 30
0.0
 11
-1403.640939687963
 21
1559.289750549102
 31
0.0
  0
LINE
  5
182BB
330
1A
100
AcDbEntity
  8
ZISSEN1
  6
CONTINUOUS
 62
     7
100
AcDbLine
 10
-1403.640939687963
 20
1559.289750549102
 30
0.0
 11
-1403.843524534718
 21
1559.149424941411
 31
0.0
  0
LINE
  5
182BC
330
1A
100
AcDbEntity
  8
ZISSEN1
  6
CONTINUOUS
 62
     7
100
AcDbLine
 10
-1403.843524534718
 20
1559.149424941411
 30
0.0
 11
-1403.967591148339
 21
1558.999868542915
 31
0.0
  0
LINE
  5
182BD
330
1A
100
AcDbEntity
  8
ZISSEN1
  6
CONTINUOUS
 62
     7
100
AcDbLine
 10
-1403.967591148339
 20
1558.999868542915
 30
0.0
 11
-1404.009369827555
 21
1558.845625549102
 31
0.0
  0
LINE
  5
182BE
330
1A
100
AcDbEntity
  8
ZISSEN1
  6
CONTINUOUS
 62
     7
100
AcDbLine
 10
-1404.009369827555
 20
1558.275625549103
 30
0.0
 11
-1404.009369827555
 21
1558.845625549102
 31
0.0
  0
LINE
  5
182BF
330
1A
100
AcDbEntity
  8
ZISSEN1
  6
CONTINUOUS
 62
     7
100
AcDbLine
 10
-1405.141420635125
 20
1548.895625549102
 30
0.0
 11
-1405.141420635125
 21
1556.495625549103
 31
0.0
  0
LINE
  5
182C0
330
1A
100
AcDbEntity
  8
ZISSEN1
  6
CONTINUOUS
 62
     7
100
AcDbLine
 10
-1405.259369827556
 20
1556.345625549102
 30
0.0
 11
-1405.259369827556
 21
1550.495625549102
 31
0.0
  0
LINE
  5
182C1
330
1A
100
AcDbEntity
  8
ZISSEN1
  6
CONTINUOUS
 62
     7
100
AcDbLine
 10
-1402.634369827556
 20
1559.614872614014
 30
0.0
 11
-1403.027035754194
 21
1559.526064525703
 31
0.0
  0
LINE
  5
182C2
330
1A
100
AcDbEntity
  8
ZISSEN1
  6
CONTINUOUS
 62
     7
100
AcDbLine
 10
-1403.259369827556
 20
1559.895625549103
 30
0.0
 11
-1403.259369827556
 21
1559.451020620007
 31
0.0
  0
LINE
  5
182C3
330
1A
100
AcDbEntity
  8
ZISSEN1
  6
CONTINUOUS
 62
     7
100
AcDbLine
 10
-1406.259369827556
 20
1545.895625549102
 30
0.0
 11
-1406.259369827556
 21
1546.895625549102
 31
0.0
  0
LINE
  5
182C4
330
1A
100
AcDbEntity
  8
ZISSEN1
  6
CONTINUOUS
 62
     7
100
AcDbLine
 10
-1401.541420635125
 20
1548.895625549102
 30
0.0
 11
-1405.141420635125
 21
1548.895625549102
 31
0.0
  0
LINE
  5
182C5
330
1A
100
AcDbEntity
  8
ZISSEN1
  6
CONTINUOUS
 62
     7
100
AcDbLine
 10
-1401.541420635125
 20
1556.495625549103
 30
0.0
 11
-1405.141420635125
 21
1556.495625549103
 31
0.0
  0
LINE
  5
182C6
330
1A
100
AcDbEntity
  8
ZISSEN1
  6
CONTINUOUS
 62
     7
100
AcDbLine
 10
-1402.199925221702
 20
1559.680307519516
 30
0.0
 11
-1402.634369827556
 21
1559.614872614014
 31
0.0
  0
LINE
  5
182C7
330
1A
100
AcDbEntity
  8
ZISSEN1
  6
CONTINUOUS
 62
     7
100
AcDbLine
 10
-1398.509369827555
 20
1558.095625549102
 30
0.0
 11
-1403.186292010395
 21
1558.095625549102
 31
0.0
  0
LINE
  5
182C8
330
1A
100
AcDbEntity
  8
ZISSEN1
  6
CONTINUOUS
 62
     7
100
AcDbLine
 10
-1406.259369827556
 20
1548.895625549102
 30
0.0
 11
-1397.759369827557
 21
1548.895625549102
 31
0.0
  0
LINE
  5
182C9
330
1A
100
AcDbEntity
  8
ZISSEN1
  6
CONTINUOUS
 62
     7
100
AcDbLine
 10
-1406.259369827556
 20
1546.895625549102
 30
0.0
 11
-1397.759369827557
 21
1546.895625549102
 31
0.0
  0
LINE
  5
182CA
330
1A
100
AcDbEntity
  8
ZISSEN1
  6
CONTINUOUS
 62
     7
100
AcDbLine
 10
-1405.259369827556
 20
1548.895625549102
 30
0.0
 11
-1398.459369827557
 21
1548.895625549102
 31
0.0
  0
LINE
  5
182CB
330
1A
100
AcDbEntity
  8
ZISSEN1
  6
CONTINUOUS
 62
     7
100
AcDbLine
 10
-1397.759369827557
 20
1626.874880962724
 30
0.0
 11
-1398.259369827557
 21
1626.874880962724
 31
0.0
  0
LINE
  5
182CC
330
1A
100
AcDbEntity
  8
ZISSEN1
  6
CONTINUOUS
 62
     7
100
AcDbLine
 10
-1397.759369827557
 20
1616.874880962723
 30
0.0
 11
-1398.259369827557
 21
1616.874880962723
 31
0.0
  0
LINE
  5
182CD
330
1A
100
AcDbEntity
  8
ZISSEN1
  6
CONTINUOUS
 62
     7
100
AcDbLine
 10
-1398.259369827557
 20
1619.874880962724
 30
0.0
 11
-1397.759369827557
 21
1619.874880962724
 31
0.0
  0
LINE
  5
182CE
330
1A
100
AcDbEntity
  8
ZISSEN1
  6
CONTINUOUS
 62
     7
100
AcDbLine
 10
-1402.125389121104
 20
1619.149880962726
 30
0.0
 11
-1402.125389121104
 21
1617.899880962726
 31
0.0
  0
LINE
  5
182CF
330
1A
100
AcDbEntity
  8
ZISSEN1
  6
CONTINUOUS
 62
     7
100
AcDbLine
 10
-1402.125389121104
 20
1619.149880962726
 30
0.0
 11
-1400.125389121103
 21
1619.149880962726
 31
0.0
  0
LINE
  5
182D0
330
1A
100
AcDbEntity
  8
ZISSEN1
  6
CONTINUOUS
 62
     7
100
AcDbLine
 10
-1402.125389121104
 20
1617.899880962726
 30
0.0
 11
-1400.125389121103
 21
1617.899880962726
 31
0.0
  0
LINE
  5
182D1
330
1A
100
AcDbEntity
  8
ZISSEN1
  6
CONTINUOUS
 62
     7
100
AcDbLine
 10
-1400.125389121103
 20
1619.149880962726
 30
0.0
 11
-1400.125389121103
 21
1617.899880962726
 31
0.0
  0
LINE
  5
182D2
330
1A
100
AcDbEntity
  8
ZISSEN1
  6
CONTINUOUS
 62
     7
100
AcDbLine
 10
-1401.725389121103
 20
1619.149880962726
 30
0.0
 11
-1401.725389121103
 21
1617.899880962726
 31
0.0
  0
LINE
  5
182D3
330
1A
100
AcDbEntity
  8
ZISSEN1
  6
CONTINUOUS
 62
     7
100
AcDbLine
 10
-1400.525389121104
 20
1619.149880962726
 30
0.0
 11
-1400.525389121104
 21
1617.899880962726
 31
0.0
  0
LINE
  5
182D4
330
1A
100
AcDbEntity
  8
ZISSEN1
  6
CONTINUOUS
 62
     7
100
AcDbLine
 10
-1397.759369827557
 20
1626.874880962724
 30
0.0
 11
-1397.759369827557
 21
1619.874880962724
 31
0.0
  0
LINE
  5
182D5
330
1A
100
AcDbEntity
  8
ZISSEN1
  6
CONTINUOUS
 62
     7
100
AcDbLine
 10
-1402.125389121104
 20
1610.889369382713
 30
0.0
 11
-1402.125389121104
 21
1609.639369382713
 31
0.0
  0
LINE
  5
182D6
330
1A
100
AcDbEntity
  8
ZISSEN1
  6
CONTINUOUS
 62
     7
100
AcDbLine
 10
-1402.125389121104
 20
1610.889369382713
 30
0.0
 11
-1400.125389121103
 21
1610.889369382713
 31
0.0
  0
LINE
  5
182D7
330
1A
100
AcDbEntity
  8
ZISSEN1
  6
CONTINUOUS
 62
     7
100
AcDbLine
 10
-1402.125389121104
 20
1609.639369382713
 30
0.0
 11
-1400.125389121103
 21
1609.639369382713
 31
0.0
  0
LINE
  5
182D8
330
1A
100
AcDbEntity
  8
ZISSEN1
  6
CONTINUOUS
 62
     7
100
AcDbLine
 10
-1400.125389121103
 20
1610.889369382713
 30
0.0
 11
-1400.125389121103
 21
1609.639369382713
 31
0.0
  0
LINE
  5
182D9
330
1A
100
AcDbEntity
  8
ZISSEN1
  6
CONTINUOUS
 62
     7
100
AcDbLine
 10
-1401.725389121103
 20
1610.889369382713
 30
0.0
 11
-1401.725389121103
 21
1609.639369382713
 31
0.0
  0
LINE
  5
182DA
330
1A
100
AcDbEntity
  8
ZISSEN1
  6
CONTINUOUS
 62
     7
100
AcDbLine
 10
-1400.525389121104
 20
1610.889369382713
 30
0.0
 11
-1400.525389121104
 21
1609.639369382713
 31
0.0
  0
LINE
  5
182DB
330
1A
100
AcDbEntity
  8
ZISSEN1
  6
CONTINUOUS
 62
     7
100
AcDbLine
 10
-1397.759369827558
 20
1602.574880962722
 30
0.0
 11
-1398.759369827557
 21
1601.574880962723
 31
0.0
  0
ARC
  5
182DC
330
1A
100
AcDbEntity
  8
ZISSEN1
  6
CONTINUOUS
 62
     7
100
AcDbCircle
 10
-1398.259369827557
 20
1602.074880962725
 30
0.0
 40
1.0
100
AcDbArc
 50
90.0
 51
180.0
  0
ARC
  5
182DD
330
1A
100
AcDbEntity
  8
ZISSEN1
  6
CONTINUOUS
 62
     7
100
AcDbCircle
 10
-1398.259369827557
 20
1602.074880962725
 30
0.0
 40
1.0
100
AcDbArc
 50
90.0
 51
180.0
  0
LINE
  5
182DE
330
1A
100
AcDbEntity
  8
ZISSEN1
  6
CONTINUOUS
 62
     7
100
AcDbLine
 10
-1398.259369827557
 20
1626.774880962725
 30
0.0
 11
-1398.259369827557
 21
1603.074880962726
 31
0.0
  0
LINE
  5
182DF
330
1A
100
AcDbEntity
  8
ZISSEN1
  6
CONTINUOUS
 62
     7
100
AcDbLine
 10
-1398.259369827557
 20
1626.774880962725
 30
0.0
 11
-1398.259369827557
 21
1603.074880962726
 31
0.0
  0
LINE
  5
182E0
330
1A
100
AcDbEntity
  8
ZISSEN1
  6
CONTINUOUS
 62
     7
100
AcDbLine
 10
-1397.759369827557
 20
1616.874880962723
 30
0.0
 11
-1397.759369827557
 21
1602.574880962723
 31
0.0
  0
LINE
  5
182E1
330
1A
100
AcDbEntity
  8
ZISSEN1
  6
CONTINUOUS
 62
     7
100
AcDbLine
 10
-1406.029677757233
 20
1625.653875346962
 30
0.0
 11
-1406.029677757233
 21
1619.043875346962
 31
0.0
  0
LINE
  5
182E2
330
1A
100
AcDbEntity
  8
ZISSEN1
  6
CONTINUOUS
 62
     7
100
AcDbLine
 10
-1404.290325547497
 20
1609.774880962725
 30
0.0
 11
-1404.290325547497
 21
1602.374880962726
 31
0.0
  0
LINE
  5
182E3
330
1A
100
AcDbEntity
  8
ZISSEN1
  6
CONTINUOUS
 62
     7
100
AcDbLine
 10
-1404.290325547497
 20
1618.174880962725
 30
0.0
 11
-1404.290325547497
 21
1610.774880962725
 31
0.0
  0
CIRCLE
  5
182E4
330
1A
100
AcDbEntity
  8
ZISSEN1
  6
CONTINUOUS
 62
     7
100
AcDbCircle
 10
-1401.259369827557
 20
1623.374880962724
 30
0.0
 40
2.75
  0
CIRCLE
  5
182E5
330
1A
100
AcDbEntity
  8
ZISSEN1
  6
CONTINUOUS
 62
     7
100
AcDbCircle
 10
-1401.259369827557
 20
1623.374880962723
 30
0.0
 40
2.75
  0
LINE
  5
182E6
330
1A
100
AcDbEntity
  8
ZISSEN1
  6
CONTINUOUS
 62
     7
100
AcDbLine
 10
-1398.559369827556
 20
1629.624880962725
 30
0.0
 11
-1405.259369827556
 21
1629.624880962725
 31
0.0
  0
LINE
  5
182E7
330
1A
100
AcDbEntity
  8
CL1
100
AcDbLine
 10
-1336.265241358099
 20
1601.074880962724
 30
0.0
 11
-1336.265241358099
 21
1595.074880962724
 31
0.0
  0
DIMENSION
  5
182E8
330
1A
100
AcDbEntity
  8
SUNPOU
100
AcDbDimension
  2
*D10
 10
-1356.750429859103
 20
1595.574880962724
 30
0.0
 11
-1356.685956645629
 21
1590.613464504347
 31
0.0
 70
   160
  3
標準スタイル
100
AcDbAlignedDimension
 13
-1339.265241358098
 23
1598.074880962724
 33
0.0
 14
-1347.265241358098
 24
1595.574880962724
 34
0.0
 50
90.0
100
AcDbRotatedDimension
1001
ACAD
1000
DSTYLE
1002
{
1070
   287
1070
     4
1070
   287
1070
     4
1070
   340
1005
10
1070
    40
1040
1.0
1070
   279
1070
     1
1002
}
  0
LINE
  5
182E9
330
1A
100
AcDbEntity
  8
CL1
100
AcDbLine
 10
-1336.265241358099
 20
1601.074880962724
 30
0.0
 11
-1336.265241358099
 21
1595.074880962724
 31
0.0
  0
LINE
  5
182EA
330
1A
100
AcDbEntity
  8
ZISSEN1
  6
CONTINUOUS
 62
     7
100
AcDbLine
 10
-1334.515241358099
 20
1595.574880962724
 30
0.0
 11
-1334.515241358099
 21
1599.074880962724
 31
0.0
  0
LINE
  5
182EB
330
1A
100
AcDbEntity
  8
ZISSEN1
  6
CONTINUOUS
 62
     7
100
AcDbLine
 10
-1338.015241358099
 20
1595.574880962724
 30
0.0
 11
-1338.015241358099
 21
1599.074880962724
 31
0.0
  0
LINE
  5
182EC
330
1A
100
AcDbEntity
  8
ZISSEN1
  6
CONTINUOUS
 62
     7
100
AcDbLine
 10
-1347.265241358098
 20
1595.574880962724
 30
0.0
 11
-1338.015241358099
 21
1595.574880962724
 31
0.0
  0
LINE
  5
182ED
330
1A
100
AcDbEntity
  8
ZISSEN1
  6
CONTINUOUS
 62
     7
100
AcDbLine
 10
-1348.265241358099
 20
1596.574880962724
 30
0.0
 11
-1347.265241358098
 21
1595.574880962724
 31
0.0
  0
LINE
  5
182EE
330
1A
100
AcDbEntity
  8
CL1
100
AcDbLine
 10
-1339.265241358098
 20
1598.074880962724
 30
0.0
 11
-1333.265241358099
 21
1598.074880962724
 31
0.0
  0
LINE
  5
182EF
330
1A
100
AcDbEntity
  8
CL1
100
AcDbLine
 10
-1339.265241358098
 20
1598.074880962724
 30
0.0
 11
-1333.265241358099
 21
1598.074880962724
 31
0.0
  0
LINE
  5
182F0
330
1A
100
AcDbEntity
  8
ZISSEN1
  6
CONTINUOUS
 62
     7
100
AcDbLine
 10
-1325.865241358099
 20
1629.474880962725
 30
0.0
 11
-1325.865241358099
 21
1627.374880962726
 31
0.0
  0
LINE
  5
182F1
330
1A
100
AcDbEntity
  8
ZISSEN1
  6
CONTINUOUS
 62
     7
100
AcDbLine
 10
-1325.865241358099
 20
1620.874880962724
 30
0.0
 11
-1325.865241358099
 21
1625.874880962724
 31
0.0
  0
ARC
  5
182F2
330
1A
100
AcDbEntity
  8
ZISSEN1
  6
CONTINUOUS
 62
     7
100
AcDbCircle
 10
-1336.865241358099
 20
1628.24840361992
 30
0.0
 40
11.0
100
AcDbArc
 50
347.5390136848205
 51
9.822057756516571
  0
LINE
  5
182F3
330
1A
100
AcDbEntity
  8
ZISSEN1
  6
CONTINUOUS
 62
     7
100
AcDbLine
 10
-1333.465241358099
 20
1626.374880962726
 30
0.0
 11
-1331.865241358099
 21
1626.374880962726
 31
0.0
  0
LINE
  5
182F4
330
1A
100
AcDbEntity
  8
ZISSEN1
  6
CONTINUOUS
 62
     7
100
AcDbLine
 10
-1334.215241358099
 20
1626.124880962724
 30
0.0
 11
-1334.369484351912
 21
1626.083102283507
 31
0.0
  0
LINE
  5
182F5
330
1A
100
AcDbEntity
  8
ZISSEN1
  6
CONTINUOUS
 62
     7
100
AcDbLine
 10
-1334.369484351912
 20
1626.083102283507
 30
0.0
 11
-1334.519040750408
 21
1625.959035669885
 31
0.0
  0
LINE
  5
182F6
330
1A
100
AcDbEntity
  8
ZISSEN1
  6
CONTINUOUS
 62
     7
100
AcDbLine
 10
-1333.465241358099
 20
1626.124880962724
 30
0.0
 11
-1334.215241358099
 21
1626.124880962724
 31
0.0
  0
LINE
  5
182F7
330
1A
100
AcDbEntity
  8
ZISSEN1
  6
CONTINUOUS
 62
     7
100
AcDbLine
 10
-1331.865241358099
 20
1625.874880962724
 30
0.0
 11
-1331.865241358099
 21
1620.874880962724
 31
0.0
  0
LINE
  5
182F8
330
1A
100
AcDbEntity
  8
ZISSEN1
  6
CONTINUOUS
 62
     7
100
AcDbLine
 10
-1333.465241358099
 20
1620.243875346962
 30
0.0
 11
-1333.465241358099
 21
1620.643875346962
 31
0.0
  0
LINE
  5
182F9
330
1A
100
AcDbEntity
  8
ZISSEN1
  6
CONTINUOUS
 62
     7
100
AcDbLine
 10
-1334.465241358099
 20
1620.243875346962
 30
0.0
 11
-1334.465241358099
 21
1620.643875346962
 31
0.0
  0
LINE
  5
182FA
330
1A
100
AcDbEntity
  8
ZISSEN1
  6
CONTINUOUS
 62
     7
100
AcDbLine
 10
-1334.659366358099
 20
1625.756450823131
 30
0.0
 11
-1334.786197452403
 21
1625.481503181301
 31
0.0
  0
LINE
  5
182FB
330
1A
100
AcDbEntity
  8
ZISSEN1
  6
CONTINUOUS
 62
     7
100
AcDbLine
 10
-1334.786197452403
 20
1625.481503181301
 30
0.0
 11
-1334.895680334699
 21
1625.142546889362
 31
0.0
  0
LINE
  5
182FC
330
1A
100
AcDbEntity
  8
ZISSEN1
  6
CONTINUOUS
 62
     7
100
AcDbLine
 10
-1334.895680334699
 20
1625.142546889362
 30
0.0
 11
-1334.984488423009
 21
1624.749880962724
 31
0.0
  0
LINE
  5
182FD
330
1A
100
AcDbEntity
  8
ZISSEN1
  6
CONTINUOUS
 62
     7
100
AcDbLine
 10
-1334.984488423009
 20
1624.749880962724
 30
0.0
 11
-1335.049923328512
 21
1624.315436356869
 31
0.0
  0
LINE
  5
182FE
330
1A
100
AcDbEntity
  8
ZISSEN1
  6
CONTINUOUS
 62
     7
100
AcDbLine
 10
-1335.049923328512
 20
1624.315436356869
 30
0.0
 11
-1335.089996844712
 21
1623.852413451308
 31
0.0
  0
LINE
  5
182FF
330
1A
100
AcDbEntity
  8
ZISSEN1
  6
CONTINUOUS
 62
     7
100
AcDbLine
 10
-1335.089996844712
 20
1623.852413451308
 30
0.0
 11
-1335.103491358099
 21
1623.374880962724
 31
0.0
  0
LINE
  5
18300
330
1A
100
AcDbEntity
  8
ZISSEN1
  6
CONTINUOUS
 62
     7
100
AcDbLine
 10
-1335.103491358099
 20
1623.374880962724
 30
0.0
 11
-1335.089996844712
 21
1622.89734847414
 31
0.0
  0
LINE
  5
18301
330
1A
100
AcDbEntity
  8
ZISSEN1
  6
CONTINUOUS
 62
     7
100
AcDbLine
 10
-1335.089996844712
 20
1622.89734847414
 30
0.0
 11
-1335.049923328512
 21
1622.434325568578
 31
0.0
  0
LINE
  5
18302
330
1A
100
AcDbEntity
  8
ZISSEN1
  6
CONTINUOUS
 62
     7
100
AcDbLine
 10
-1335.049923328512
 20
1622.434325568578
 30
0.0
 11
-1334.984488423009
 21
1621.999880962724
 31
0.0
  0
LINE
  5
18303
330
1A
100
AcDbEntity
  8
ZISSEN1
  6
CONTINUOUS
 62
     7
100
AcDbLine
 10
-1334.984488423009
 20
1621.999880962724
 30
0.0
 11
-1334.895680334699
 21
1621.607215036086
 31
0.0
  0
LINE
  5
18304
330
1A
100
AcDbEntity
  8
ZISSEN1
  6
CONTINUOUS
 62
     7
100
AcDbLine
 10
-1334.895680334699
 20
1621.607215036086
 30
0.0
 11
-1334.786197452403
 21
1621.268258744147
 31
0.0
  0
LINE
  5
18305
330
1A
100
AcDbEntity
  8
ZISSEN1
  6
CONTINUOUS
 62
     7
100
AcDbLine
 10
-1334.786197452403
 20
1621.268258744147
 30
0.0
 11
-1334.659366358099
 21
1620.993311102318
 31
0.0
  0
LINE
  5
18306
330
1A
100
AcDbEntity
  8
ZISSEN1
  6
CONTINUOUS
 62
     7
100
AcDbLine
 10
-1334.659366358099
 20
1620.993311102318
 30
0.0
 11
-1334.519040750408
 21
1620.790726255563
 31
0.0
  0
LINE
  5
18307
330
1A
100
AcDbEntity
  8
ZISSEN1
  6
CONTINUOUS
 62
     7
100
AcDbLine
 10
-1334.519040750408
 20
1620.790726255563
 30
0.0
 11
-1334.369484351912
 21
1620.66665964194
 31
0.0
  0
LINE
  5
18308
330
1A
100
AcDbEntity
  8
ZISSEN1
  6
CONTINUOUS
 62
     7
100
AcDbLine
 10
-1334.369484351912
 20
1620.66665964194
 30
0.0
 11
-1334.215241358099
 21
1620.624880962724
 31
0.0
  0
LINE
  5
18309
330
1A
100
AcDbEntity
  8
ZISSEN1
  6
CONTINUOUS
 62
     7
100
AcDbLine
 10
-1334.28536685621
 20
1620.643875346962
 30
0.0
 11
-1334.465241358099
 21
1620.643875346962
 31
0.0
  0
LINE
  5
1830A
330
1A
100
AcDbEntity
  8
ZISSEN1
  6
CONTINUOUS
 62
     7
100
AcDbLine
 10
-1335.965241358099
 20
1625.653875346962
 30
0.0
 11
-1334.706683584771
 21
1625.653875346962
 31
0.0
  0
LINE
  5
1830B
330
1A
100
AcDbEntity
  8
ZISSEN1
  6
CONTINUOUS
 62
     7
100
AcDbLine
 10
-1333.465241358099
 20
1620.243875346962
 30
0.0
 11
-1334.465241358099
 21
1620.243875346962
 31
0.0
  0
LINE
  5
1830C
330
1A
100
AcDbEntity
  8
ZISSEN1
  6
CONTINUOUS
 62
     7
100
AcDbLine
 10
-1333.465241358099
 20
1620.624880962724
 30
0.0
 11
-1334.215241358099
 21
1620.624880962724
 31
0.0
  0
LINE
  5
1830D
330
1A
100
AcDbEntity
  8
ZISSEN1
  6
CONTINUOUS
 62
     7
100
AcDbLine
 10
-1333.965241358099
 20
1618.174880962725
 30
0.0
 11
-1333.965241358099
 21
1617.674880962725
 31
0.0
  0
LINE
  5
1830E
330
1A
100
AcDbEntity
  8
ZISSEN1
  6
CONTINUOUS
 62
     7
100
AcDbLine
 10
-1335.965241358099
 20
1619.043875346962
 30
0.0
 11
-1333.565241358098
 21
1619.043875346962
 31
0.0
  0
LINE
  5
1830F
330
1A
100
AcDbEntity
  8
ZISSEN1
  6
CONTINUOUS
 62
     7
100
AcDbLine
 10
-1333.465241358099
 20
1617.674880962725
 30
0.0
 11
-1333.965241358099
 21
1617.674880962725
 31
0.0
  0
LINE
  5
18310
330
1A
100
AcDbEntity
  8
ZISSEN1
  6
CONTINUOUS
 62
     7
100
AcDbLine
 10
-1335.965241358099
 20
1619.043875346962
 30
0.0
 11
-1335.965241358099
 21
1625.653875346962
 31
0.0
  0
LINE
  5
18311
330
1A
100
AcDbEntity
  8
ZISSEN1
  6
CONTINUOUS
 62
     7
100
AcDbLine
 10
-1333.565241358098
 20
1619.043875346962
 30
0.0
 11
-1333.565241358098
 21
1620.243875346962
 31
0.0
  0
LINE
  5
18312
330
1A
100
AcDbEntity
  8
ZISSEN1
  6
CONTINUOUS
 62
     7
100
AcDbLine
 10
-1334.365241358099
 20
1619.043875346962
 30
0.0
 11
-1334.365241358099
 21
1620.243875346962
 31
0.0
  0
LINE
  5
18313
330
1A
100
AcDbEntity
  8
ZISSEN1
  6
CONTINUOUS
 62
     7
100
AcDbLine
 10
-1341.065241358099
 20
1617.674880962725
 30
0.0
 11
-1340.565241358099
 21
1617.674880962725
 31
0.0
  0
LINE
  5
18314
330
1A
100
AcDbEntity
  8
ZISSEN1
  6
CONTINUOUS
 62
     7
100
AcDbLine
 10
-1340.565241358099
 20
1618.174880962725
 30
0.0
 11
-1340.565241358099
 21
1617.674880962725
 31
0.0
  0
LINE
  5
18315
330
1A
100
AcDbEntity
  8
ZISSEN1
  6
CONTINUOUS
 62
     7
100
AcDbLine
 10
-1340.565241358099
 20
1618.174880962725
 30
0.0
 11
-1333.965241358099
 21
1618.174880962725
 31
0.0
  0
LINE
  5
18316
330
1A
100
AcDbEntity
  8
ZISSEN1
  6
CONTINUOUS
 62
     7
100
AcDbLine
 10
-1333.465241358099
 20
1626.124880962724
 30
0.0
 11
-1333.465241358099
 21
1620.624880962724
 31
0.0
  0
LINE
  5
18317
330
1A
100
AcDbEntity
  8
ZISSEN1
  6
CONTINUOUS
 62
     7
100
AcDbLine
 10
-1334.519040750408
 20
1625.959035669885
 30
0.0
 11
-1334.659366358099
 21
1625.756450823131
 31
0.0
  0
LINE
  5
18318
330
1A
100
AcDbEntity
  8
ZISSEN1
  6
CONTINUOUS
 62
     7
100
AcDbLine
 10
-1331.865241358099
 20
1620.874880962724
 30
0.0
 11
-1325.865241358099
 21
1620.874880962724
 31
0.0
  0
LINE
  5
18319
330
1A
100
AcDbEntity
  8
ZISSEN1
  6
CONTINUOUS
 62
     7
100
AcDbLine
 10
-1325.865241358099
 20
1625.874880962724
 30
0.0
 11
-1331.865241358099
 21
1625.874880962724
 31
0.0
  0
LINE
  5
1831A
330
1A
100
AcDbEntity
  8
ZISSEN1
  6
CONTINUOUS
 62
     7
100
AcDbLine
 10
-1337.365241358098
 20
1630.124880962726
 30
0.0
 11
-1325.865241358099
 21
1630.124880962726
 31
0.0
  0
ARC
  5
1831B
330
1A
100
AcDbEntity
  8
ZISSEN1
  6
CONTINUOUS
 62
     7
100
AcDbCircle
 10
-1336.865241358099
 20
1628.24840361992
 30
0.0
 40
11.0
100
AcDbArc
 50
297.0356917894129
 51
317.9082139885734
  0
LINE
  5
1831C
330
1A
100
AcDbEntity
  8
ZISSEN1
  6
CONTINUOUS
 62
     7
100
AcDbLine
 10
-1324.765241358099
 20
1609.768162254191
 30
0.0
 11
-1324.765241358099
 21
1609.268162254191
 31
0.0
  0
LINE
  5
1831D
330
1A
100
AcDbEntity
  8
ZISSEN1
  6
CONTINUOUS
 62
     7
100
AcDbLine
 10
-1325.865241358099
 20
1602.368162254191
 30
0.0
 11
-1325.865241358099
 21
1602.074880962725
 31
0.0
  0
LINE
  5
1831E
330
1A
100
AcDbEntity
  8
ZISSEN1
  6
CONTINUOUS
 62
     7
100
AcDbLine
 10
-1324.765241358099
 20
1602.368162254191
 30
0.0
 11
-1324.765241358099
 21
1602.868162254191
 31
0.0
  0
LINE
  5
1831F
330
1A
100
AcDbEntity
  8
ZISSEN1
  6
CONTINUOUS
 62
     7
100
AcDbLine
 10
-1331.365241358098
 20
1609.768162254191
 30
0.0
 11
-1331.365241358098
 21
1609.268162254191
 31
0.0
  0
LINE
  5
18320
330
1A
100
AcDbEntity
  8
ZISSEN1
  6
CONTINUOUS
 62
     7
100
AcDbLine
 10
-1331.865241358099
 20
1609.268162254191
 30
0.0
 11
-1331.365241358098
 21
1609.268162254191
 31
0.0
  0
LINE
  5
18321
330
1A
100
AcDbEntity
  8
ZISSEN1
  6
CONTINUOUS
 62
     7
100
AcDbLine
 10
-1333.965241358099
 20
1610.774880962725
 30
0.0
 11
-1333.965241358099
 21
1611.274880962725
 31
0.0
  0
LINE
  5
18322
330
1A
100
AcDbEntity
  8
ZISSEN1
  6
CONTINUOUS
 62
     7
100
AcDbLine
 10
-1333.965241358099
 20
1609.774880962725
 30
0.0
 11
-1333.965241358099
 21
1609.274880962725
 31
0.0
  0
LINE
  5
18323
330
1A
100
AcDbEntity
  8
ZISSEN1
  6
CONTINUOUS
 62
     7
100
AcDbLine
 10
-1333.465241358099
 20
1611.274880962725
 30
0.0
 11
-1333.965241358099
 21
1611.274880962725
 31
0.0
  0
LINE
  5
18324
330
1A
100
AcDbEntity
  8
ZISSEN1
  6
CONTINUOUS
 62
     7
100
AcDbLine
 10
-1333.465241358099
 20
1609.274880962725
 30
0.0
 11
-1333.965241358099
 21
1609.274880962725
 31
0.0
  0
LINE
  5
18325
330
1A
100
AcDbEntity
  8
ZISSEN1
  6
CONTINUOUS
 62
     7
100
AcDbLine
 10
-1333.465241358099
 20
1602.874880962725
 30
0.0
 11
-1331.865241358099
 21
1602.874880962725
 31
0.0
  0
LINE
  5
18326
330
1A
100
AcDbEntity
  8
ZISSEN1
  6
CONTINUOUS
 62
     7
100
AcDbLine
 10
-1331.865241358099
 20
1602.868162254191
 30
0.0
 11
-1331.365241358098
 21
1602.868162254191
 31
0.0
  0
LINE
  5
18327
330
1A
100
AcDbEntity
  8
ZISSEN1
  6
CONTINUOUS
 62
     7
100
AcDbLine
 10
-1333.465241358099
 20
1602.874880962725
 30
0.0
 11
-1333.965241358099
 21
1602.874880962725
 31
0.0
  0
LINE
  5
18328
330
1A
100
AcDbEntity
  8
ZISSEN1
  6
CONTINUOUS
 62
     7
100
AcDbLine
 10
-1333.465241358099
 20
1609.274880962725
 30
0.0
 11
-1333.465241358099
 21
1602.874880962725
 31
0.0
  0
LINE
  5
18329
330
1A
100
AcDbEntity
  8
ZISSEN1
  6
CONTINUOUS
 62
     7
100
AcDbLine
 10
-1331.865241358099
 20
1602.868162254191
 30
0.0
 11
-1331.865241358099
 21
1609.268162254191
 31
0.0
  0
LINE
  5
1832A
330
1A
100
AcDbEntity
  8
ZISSEN1
  6
CONTINUOUS
 62
     7
100
AcDbLine
 10
-1340.565241358099
 20
1610.774880962725
 30
0.0
 11
-1340.565241358099
 21
1611.274880962725
 31
0.0
  0
LINE
  5
1832B
330
1A
100
AcDbEntity
  8
ZISSEN1
  6
CONTINUOUS
 62
     7
100
AcDbLine
 10
-1341.065241358099
 20
1611.274880962725
 30
0.0
 11
-1340.565241358099
 21
1611.274880962725
 31
0.0
  0
LINE
  5
1832C
330
1A
100
AcDbEntity
  8
ZISSEN1
  6
CONTINUOUS
 62
     7
100
AcDbLine
 10
-1341.065241358099
 20
1609.274880962725
 30
0.0
 11
-1340.565241358099
 21
1609.274880962725
 31
0.0
  0
LINE
  5
1832D
330
1A
100
AcDbEntity
  8
ZISSEN1
  6
CONTINUOUS
 62
     7
100
AcDbLine
 10
-1340.565241358099
 20
1609.774880962725
 30
0.0
 11
-1340.565241358099
 21
1609.274880962725
 31
0.0
  0
LINE
  5
1832E
330
1A
100
AcDbEntity
  8
ZISSEN1
  6
CONTINUOUS
 62
     7
100
AcDbLine
 10
-1341.065241358099
 20
1602.874880962725
 30
0.0
 11
-1340.565241358099
 21
1602.874880962725
 31
0.0
  0
LINE
  5
1832F
330
1A
100
AcDbEntity
  8
ZISSEN1
  6
CONTINUOUS
 62
     7
100
AcDbLine
 10
-1341.065241358099
 20
1609.274880962725
 30
0.0
 11
-1341.065241358099
 21
1602.874880962725
 31
0.0
  0
LINE
  5
18330
330
1A
100
AcDbEntity
  8
ZISSEN1
  6
CONTINUOUS
 62
     7
100
AcDbLine
 10
-1340.565241358099
 20
1610.774880962725
 30
0.0
 11
-1333.965241358099
 21
1610.774880962725
 31
0.0
  0
LINE
  5
18331
330
1A
100
AcDbEntity
  8
ZISSEN1
  6
CONTINUOUS
 62
     7
100
AcDbLine
 10
-1340.565241358099
 20
1609.774880962725
 30
0.0
 11
-1333.965241358099
 21
1609.774880962725
 31
0.0
  0
LINE
  5
18332
330
1A
100
AcDbEntity
  8
ZISSEN1
  6
CONTINUOUS
 62
     7
100
AcDbLine
 10
-1333.465241358099
 20
1602.074880962725
 30
0.0
 11
-1331.865241358099
 21
1602.074880962725
 31
0.0
  0
ARC
  5
18333
330
1A
100
AcDbEntity
  8
ZISSEN1
  6
CONTINUOUS
 62
     7
100
AcDbCircle
 10
-1336.265241358099
 20
1599.074880962724
 30
0.0
 40
1.75
100
AcDbArc
 50
0.0
 51
180.0
  0
LINE
  5
18334
330
1A
100
AcDbEntity
  8
ZISSEN1
  6
CONTINUOUS
 62
     7
100
AcDbLine
 10
-1340.565241358099
 20
1602.374880962726
 30
0.0
 11
-1333.965241358099
 21
1602.374880962726
 31
0.0
  0
LINE
  5
18335
330
1A
100
AcDbEntity
  8
ZISSEN1
  6
CONTINUOUS
 62
     7
100
AcDbLine
 10
-1333.965241358099
 20
1602.374880962726
 30
0.0
 11
-1333.965241358099
 21
1602.874880962725
 31
0.0
  0
LINE
  5
18336
330
1A
100
AcDbEntity
  8
ZISSEN1
  6
CONTINUOUS
 62
     7
100
AcDbLine
 10
-1340.565241358099
 20
1602.374880962726
 30
0.0
 11
-1340.565241358099
 21
1602.874880962725
 31
0.0
  0
LINE
  5
18337
330
1A
100
AcDbEntity
  8
ZISSEN1
  6
CONTINUOUS
 62
     7
100
AcDbLine
 10
-1331.365241358098
 20
1602.368162254191
 30
0.0
 11
-1331.365241358098
 21
1602.868162254191
 31
0.0
  0
LINE
  5
18338
330
1A
100
AcDbEntity
  8
ZISSEN1
  6
CONTINUOUS
 62
     7
100
AcDbLine
 10
-1324.765241358099
 20
1609.768162254191
 30
0.0
 11
-1331.365241358098
 21
1609.768162254191
 31
0.0
  0
LINE
  5
18339
330
1A
100
AcDbEntity
  8
ZISSEN1
  6
CONTINUOUS
 62
     7
100
AcDbLine
 10
-1324.765241358099
 20
1602.368162254191
 30
0.0
 11
-1331.365241358098
 21
1602.368162254191
 31
0.0
  0
LINE
  5
1833A
330
1A
100
AcDbEntity
  8
ZISSEN1
  6
CONTINUOUS
 62
     7
100
AcDbLine
 10
-1333.465241358099
 20
1617.674880962725
 30
0.0
 11
-1333.465241358099
 21
1611.274880962725
 31
0.0
  0
LINE
  5
1833B
330
1A
100
AcDbEntity
  8
ZISSEN1
  6
CONTINUOUS
 62
     7
100
AcDbLine
 10
-1341.065241358099
 20
1617.674880962725
 30
0.0
 11
-1341.065241358099
 21
1611.274880962725
 31
0.0
  0
LINE
  5
1833C
330
1A
100
AcDbEntity
  8
ZISSEN1
  6
CONTINUOUS
 62
     7
100
AcDbLine
 10
-1333.465241358099
 20
1630.124880962726
 30
0.0
 11
-1333.465241358099
 21
1602.074880962725
 31
0.0
  0
LINE
  5
1833D
330
1A
100
AcDbEntity
  8
ZISSEN1
  6
CONTINUOUS
 62
     7
100
AcDbLine
 10
-1331.865241358099
 20
1602.074880962725
 30
0.0
 11
-1331.865241358099
 21
1630.124880962726
 31
0.0
  0
LINE
  5
1833E
330
1A
100
AcDbEntity
  8
ZISSEN1
  6
CONTINUOUS
 62
     7
100
AcDbLine
 10
-1321.265241358099
 20
1619.874880962724
 30
0.0
 11
-1321.265241358099
 21
1595.574880962724
 31
0.0
  0
LINE
  5
1833F
330
1A
100
AcDbEntity
  8
ZISSEN1
  6
CONTINUOUS
 62
     7
100
AcDbLine
 10
-1321.265241358099
 20
1595.574880962724
 30
0.0
 11
-1319.265241358099
 21
1595.574880962724
 31
0.0
  0
LINE
  5
18340
330
1A
100
AcDbEntity
  8
ZISSEN1
  6
CONTINUOUS
 62
     7
100
AcDbLine
 10
-1321.265241358099
 20
1596.574880962724
 30
0.0
 11
-1319.265241358099
 21
1596.574880962724
 31
0.0
  0
LINE
  5
18341
330
1A
100
AcDbEntity
  8
ZISSEN1
  6
CONTINUOUS
 62
     7
100
AcDbLine
 10
-1321.265241358099
 20
1596.574880962724
 30
0.0
 11
-1322.265241358099
 21
1595.574880962724
 31
0.0
  0
LINE
  5
18342
330
1A
100
AcDbEntity
  8
ZISSEN1
  6
CONTINUOUS
 62
     7
100
AcDbLine
 10
-1324.265241358099
 20
1626.874880962724
 30
0.0
 11
-1319.265241358099
 21
1626.874880962724
 31
0.0
  0
LINE
  5
18343
330
1A
100
AcDbEntity
  8
ZISSEN1
  6
CONTINUOUS
 62
     7
100
AcDbLine
 10
-1319.265241358099
 20
1616.874880962723
 30
0.0
 11
-1321.265241358099
 21
1616.874880962723
 31
0.0
  0
LINE
  5
18344
330
1A
100
AcDbEntity
  8
ZISSEN1
  6
CONTINUOUS
 62
     7
100
AcDbLine
 10
-1324.265241358099
 20
1619.874880962724
 30
0.0
 11
-1319.265241358099
 21
1619.874880962724
 31
0.0
  0
LINE
  5
18345
330
1A
100
AcDbEntity
  8
ZISSEN1
  6
CONTINUOUS
 62
     7
100
AcDbLine
 10
-1324.265241358099
 20
1619.874880962724
 30
0.0
 11
-1324.265241358099
 21
1626.874880962724
 31
0.0
  0
LINE
  5
18346
330
1A
100
AcDbEntity
  8
ZISSEN1
  6
CONTINUOUS
 62
     7
100
AcDbLine
 10
-1322.265241358099
 20
1619.874880962724
 30
0.0
 11
-1322.265241358099
 21
1626.874880962724
 31
0.0
  0
LINE
  5
18347
330
1A
100
AcDbEntity
  8
ZISSEN1
  6
CONTINUOUS
 62
     7
100
AcDbLine
 10
-1324.265241358099
 20
1602.868162254191
 30
0.0
 11
-1324.265241358099
 21
1609.268162254191
 31
0.0
  0
LINE
  5
18348
330
1A
100
AcDbEntity
  8
ZISSEN1
  6
CONTINUOUS
 62
     7
100
AcDbLine
 10
-1321.265241358099
 20
1601.574880962723
 30
0.0
 11
-1319.265241358099
 21
1601.574880962723
 31
0.0
  0
LINE
  5
18349
330
1A
100
AcDbEntity
  8
ZISSEN1
  6
CONTINUOUS
 62
     7
100
AcDbLine
 10
-1321.265241358099
 20
1602.574880962722
 30
0.0
 11
-1319.265241358099
 21
1602.574880962722
 31
0.0
  0
LINE
  5
1834A
330
1A
100
AcDbEntity
  8
ZISSEN1
  6
CONTINUOUS
 62
     7
100
AcDbLine
 10
-1324.265241358099
 20
1664.074880962725
 30
0.0
 11
-1325.865241358099
 21
1664.074880962725
 31
0.0
  0
LINE
  5
1834B
330
1A
100
AcDbEntity
  8
ZISSEN1
  6
CONTINUOUS
 62
     7
100
AcDbLine
 10
-1325.865241358099
 20
1663.074880962725
 30
0.0
 11
-1324.265241358099
 21
1663.074880962725
 31
0.0
  0
LINE
  5
1834C
330
1A
100
AcDbEntity
  8
ZISSEN1
  6
CONTINUOUS
 62
     7
100
AcDbLine
 10
-1334.515241358099
 20
1670.574880962724
 30
0.0
 11
-1322.265241358099
 21
1670.574880962724
 31
0.0
  0
ARC
  5
1834D
330
1A
100
AcDbEntity
  8
ZISSEN1
  6
CONTINUOUS
 62
     7
100
AcDbCircle
 10
-1398.259369827557
 20
1664.074880962725
 30
0.0
 40
1.0
100
AcDbArc
 50
180.0
 51
270.0
  0
ARC
  5
1834E
330
1A
100
AcDbEntity
  8
ZISSEN1
  6
CONTINUOUS
 62
     7
100
AcDbCircle
 10
-1398.259369827557
 20
1664.074880962725
 30
0.0
 40
1.0
100
AcDbArc
 50
180.0
 51
270.0
  0
LINE
  5
1834F
330
1A
100
AcDbEntity
  8
ZISSEN1
  6
CONTINUOUS
 62
     7
100
AcDbLine
 10
-1397.759369827557
 20
1657.574880962724
 30
0.0
 11
-1397.759369827557
 21
1663.574880962724
 31
0.0
  0
CIRCLE
  5
18350
330
1A
100
AcDbEntity
  8
ZISSEN1
  6
CONTINUOUS
 62
     7
100
AcDbCircle
 10
-1401.259369827557
 20
1661.074880962724
 30
0.0
 40
2.75
  0
LINE
  5
18351
330
1A
100
AcDbEntity
  8
ZISSEN1
  6
DASHED2
 62
     7
100
AcDbLine
 10
-1398.259369827557
 20
1657.574880962725
 30
0.0
 11
-1398.259369827557
 21
1658.374880962726
 31
0.0
  0
LINE
  5
18352
330
1A
100
AcDbEntity
  8
ZISSEN1
  6
CONTINUOUS
 62
     7
100
AcDbLine
 10
-1397.759369827557
 20
1657.574880962724
 30
0.0
 11
-1397.759369827557
 21
1656.901012398447
 31
0.0
  0
LINE
  5
18353
330
1A
100
AcDbEntity
  8
ZISSEN1
  6
CONTINUOUS
 62
     7
100
AcDbLine
 10
-1397.759369827557
 20
1656.901012398447
 30
0.0
 11
-1398.259369827557
 21
1656.901012398447
 31
0.0
  0
LINE
  5
18354
330
1A
100
AcDbEntity
  8
ZISSEN1
  6
CONTINUOUS
 62
     7
100
AcDbLine
 10
-1399.259369827555
 20
1653.374880962726
 30
0.0
 11
-1399.259369827555
 21
1651.874880962725
 31
0.0
  0
LINE
  5
18355
330
1A
100
AcDbEntity
  8
ZISSEN1
  6
CONTINUOUS
 62
     7
100
AcDbLine
 10
-1399.959369827557
 20
1652.374880962726
 30
0.0
 11
-1399.259369827555
 21
1652.374880962726
 31
0.0
  0
LINE
  5
18356
330
1A
100
AcDbEntity
  8
ZISSEN1
  6
CONTINUOUS
 62
     7
100
AcDbLine
 10
-1399.459369827557
 20
1651.874880962725
 30
0.0
 11
-1398.559369827556
 21
1651.874880962725
 31
0.0
  0
LINE
  5
18357
330
1A
100
AcDbEntity
  8
ZISSEN1
  6
CONTINUOUS
 62
     7
100
AcDbLine
 10
-1398.559369827556
 20
1654.224880962726
 30
0.0
 11
-1398.559369827556
 21
1651.224880962725
 31
0.0
  0
LINE
  5
18358
330
1A
100
AcDbEntity
  8
ZISSEN1
  6
CONTINUOUS
 62
     7
100
AcDbLine
 10
-1399.459369827557
 20
1651.024880962725
 30
0.0
 11
-1398.859369827555
 21
1651.024880962725
 31
0.0
  0
LINE
  5
18359
330
1A
100
AcDbEntity
  8
ZISSEN1
  6
CONTINUOUS
 62
     7
100
AcDbLine
 10
-1399.459369827557
 20
1651.224880962725
 30
0.0
 11
-1398.559369827556
 21
1651.224880962725
 31
0.0
  0
LINE
  5
1835A
330
1A
100
AcDbEntity
  8
ZISSEN1
  6
CONTINUOUS
 62
     7
100
AcDbLine
 10
-1399.659369827555
 20
1653.374880962726
 30
0.0
 11
-1399.659369827555
 21
1652.374880962726
 31
0.0
  0
LINE
  5
1835B
330
1A
100
AcDbEntity
  8
ZISSEN1
  6
CONTINUOUS
 62
     7
100
AcDbLine
 10
-1399.659369827555
 20
1653.374880962726
 30
0.0
 11
-1400.659369827556
 21
1653.374880962726
 31
0.0
  0
LINE
  5
1835C
330
1A
100
AcDbEntity
  8
ZISSEN1
  6
CONTINUOUS
 62
     7
100
AcDbLine
 10
-1398.559369827556
 20
1649.174880962726
 30
0.0
 11
-1399.459369827557
 21
1649.174880962726
 31
0.0
  0
LINE
  5
1835D
330
1A
100
AcDbEntity
  8
ZISSEN1
  6
CONTINUOUS
 62
     7
100
AcDbLine
 10
-1399.459369827557
 20
1650.024880962726
 30
0.0
 11
-1398.859369827555
 21
1650.024880962726
 31
0.0
  0
LINE
  5
1835E
330
1A
100
AcDbEntity
  8
ZISSEN1
  6
CONTINUOUS
 62
     7
100
AcDbLine
 10
-1399.459369827557
 20
1649.824880962725
 30
0.0
 11
-1398.559369827556
 21
1649.824880962725
 31
0.0
  0
LINE
  5
1835F
330
1A
100
AcDbEntity
  8
ZISSEN1
  6
CONTINUOUS
 62
     7
100
AcDbLine
 10
-1398.859369827555
 20
1651.024880962725
 30
0.0
 11
-1398.859369827555
 21
1650.024880962726
 31
0.0
  0
LINE
  5
18360
330
1A
100
AcDbEntity
  8
ZISSEN1
  6
CONTINUOUS
 62
     7
100
AcDbLine
 10
-1399.459369827557
 20
1651.874880962725
 30
0.0
 11
-1399.459369827557
 21
1649.174880962726
 31
0.0
  0
LINE
  5
18361
330
1A
100
AcDbEntity
  8
ZISSEN1
  6
CONTINUOUS
 62
     7
100
AcDbLine
 10
-1398.559369827556
 20
1653.974880962725
 30
0.0
 11
-1398.259369827557
 21
1653.974880962725
 31
0.0
  0
LINE
  5
18362
330
1A
100
AcDbEntity
  8
ZISSEN1
  6
CONTINUOUS
 62
     7
100
AcDbLine
 10
-1398.559369827556
 20
1652.774880962725
 30
0.0
 11
-1398.259369827557
 21
1652.774880962725
 31
0.0
  0
LINE
  5
18363
330
1A
100
AcDbEntity
  8
ZISSEN1
  6
CONTINUOUS
 62
     7
100
AcDbLine
 10
-1398.259369827557
 20
1657.574880962725
 30
0.0
 11
-1398.259369827557
 21
1653.974880962725
 31
0.0
  0
LINE
  5
18364
330
1A
100
AcDbEntity
  8
ZISSEN1
  6
CONTINUOUS
 62
     7
100
AcDbLine
 10
-1399.659369827555
 20
1643.674880962725
 30
0.0
 11
-1400.659369827556
 21
1643.674880962725
 31
0.0
  0
LINE
  5
18365
330
1A
100
AcDbEntity
  8
ZISSEN1
  6
CONTINUOUS
 62
     7
100
AcDbLine
 10
-1399.959369827557
 20
1648.674880962725
 30
0.0
 11
-1399.259369827555
 21
1648.674880962725
 31
0.0
  0
LINE
  5
18366
330
1A
100
AcDbEntity
  8
ZISSEN1
  6
CONTINUOUS
 62
     7
100
AcDbLine
 10
-1398.559369827556
 20
1644.274880962725
 30
0.0
 11
-1398.259369827557
 21
1644.274880962725
 31
0.0
  0
LINE
  5
18367
330
1A
100
AcDbEntity
  8
ZISSEN1
  6
CONTINUOUS
 62
     7
100
AcDbLine
 10
-1398.859369827555
 20
1641.324880962725
 30
0.0
 11
-1398.859369827555
 21
1639.824880962725
 31
0.0
  0
LINE
  5
18368
330
1A
100
AcDbEntity
  8
ZISSEN1
  6
CONTINUOUS
 62
     7
100
AcDbLine
 10
-1399.459369827555
 20
1639.824880962725
 30
0.0
 11
-1398.859369827555
 21
1639.824880962725
 31
0.0
  0
LINE
  5
18369
330
1A
100
AcDbEntity
  8
ZISSEN1
  6
CONTINUOUS
 62
     7
100
AcDbLine
 10
-1399.459369827555
 20
1639.624880962726
 30
0.0
 11
-1398.559369827556
 21
1639.624880962726
 31
0.0
  0
LINE
  5
1836A
330
1A
100
AcDbEntity
  8
ZISSEN1
  6
CONTINUOUS
 62
     7
100
AcDbLine
 10
-1399.959369827557
 20
1642.674880962726
 30
0.0
 11
-1399.259369827555
 21
1642.674880962726
 31
0.0
  0
LINE
  5
1836B
330
1A
100
AcDbEntity
  8
ZISSEN1
  6
CONTINUOUS
 62
     7
100
AcDbLine
 10
-1399.459369827555
 20
1642.174880962726
 30
0.0
 11
-1398.559369827556
 21
1642.174880962726
 31
0.0
  0
LINE
  5
1836C
330
1A
100
AcDbEntity
  8
ZISSEN1
  6
CONTINUOUS
 62
     7
100
AcDbLine
 10
-1399.459369827555
 20
1641.324880962725
 30
0.0
 11
-1398.859369827555
 21
1641.324880962725
 31
0.0
  0
LINE
  5
1836D
330
1A
100
AcDbEntity
  8
ZISSEN1
  6
CONTINUOUS
 62
     7
100
AcDbLine
 10
-1399.459369827555
 20
1641.524880962725
 30
0.0
 11
-1398.559369827556
 21
1641.524880962725
 31
0.0
  0
LINE
  5
1836E
330
1A
100
AcDbEntity
  8
ZISSEN1
  6
CONTINUOUS
 62
     7
100
AcDbLine
 10
-1398.559369827556
 20
1643.074880962725
 30
0.0
 11
-1398.259369827557
 21
1643.074880962725
 31
0.0
  0
LINE
  5
1836F
330
1A
100
AcDbEntity
  8
ZISSEN1
  6
CONTINUOUS
 62
     7
100
AcDbLine
 10
-1399.259369827555
 20
1643.674880962725
 30
0.0
 11
-1399.259369827555
 21
1642.174880962726
 31
0.0
  0
LINE
  5
18370
330
1A
100
AcDbEntity
  8
ZISSEN1
  6
CONTINUOUS
 62
     7
100
AcDbLine
 10
-1398.559369827556
 20
1644.524880962725
 30
0.0
 11
-1398.559369827556
 21
1641.524880962725
 31
0.0
  0
LINE
  5
18371
330
1A
100
AcDbEntity
  8
ZISSEN1
  6
CONTINUOUS
 62
     7
100
AcDbLine
 10
-1399.659369827555
 20
1643.674880962725
 30
0.0
 11
-1399.659369827555
 21
1642.674880962726
 31
0.0
  0
LINE
  5
18372
330
1A
100
AcDbEntity
  8
ZISSEN1
  6
CONTINUOUS
 62
     7
100
AcDbLine
 10
-1398.259369827557
 20
1652.774880962725
 30
0.0
 11
-1398.259369827557
 21
1644.274880962725
 31
0.0
  0
LINE
  5
18373
330
1A
100
AcDbEntity
  8
ZISSEN1
  6
CONTINUOUS
 62
     7
100
AcDbLine
 10
-1399.259369827555
 20
1647.674880962726
 30
0.0
 11
-1399.259369827555
 21
1649.174880962726
 31
0.0
  0
LINE
  5
18374
330
1A
100
AcDbEntity
  8
ZISSEN1
  6
CONTINUOUS
 62
     7
100
AcDbLine
 10
-1398.559369827556
 20
1646.824880962725
 30
0.0
 11
-1398.559369827556
 21
1649.824880962725
 31
0.0
  0
LINE
  5
18375
330
1A
100
AcDbEntity
  8
ZISSEN1
  6
CONTINUOUS
 62
     7
100
AcDbLine
 10
-1399.959369827557
 20
1652.374880962726
 30
0.0
 11
-1399.959369827557
 21
1648.674880962725
 31
0.0
  0
LINE
  5
18376
330
1A
100
AcDbEntity
  8
ZISSEN1
  6
CONTINUOUS
 62
     7
100
AcDbLine
 10
-1398.259369827557
 20
1663.074880962725
 30
0.0
 11
-1398.259369827557
 21
1657.874880962726
 31
0.0
  0
LINE
  5
18377
330
1A
100
AcDbEntity
  8
ZISSEN1
  6
CONTINUOUS
 62
     7
100
AcDbLine
 10
-1398.259369827557
 20
1663.074880962725
 30
0.0
 11
-1398.259369827557
 21
1657.574880962725
 31
0.0
  0
LINE
  5
18378
330
1A
100
AcDbEntity
  8
ZISSEN1
  6
CONTINUOUS
 62
     7
100
AcDbLine
 10
-1404.959369827555
 20
1654.224880962726
 30
0.0
 11
-1405.259369827556
 21
1654.224880962726
 31
0.0
  0
LINE
  5
18379
330
1A
100
AcDbEntity
  8
ZISSEN1
  6
CONTINUOUS
 62
     7
100
AcDbLine
 10
-1404.959369827555
 20
1644.524880962725
 30
0.0
 11
-1405.259369827556
 21
1644.524880962725
 31
0.0
  0
LINE
  5
1837A
330
1A
100
AcDbEntity
  8
ZISSEN1
  6
CONTINUOUS
 62
     7
100
AcDbLine
 10
-1404.559369827557
 20
1647.674880962726
 30
0.0
 11
-1404.559369827557
 21
1653.374880962726
 31
0.0
  0
LINE
  5
1837B
330
1A
100
AcDbEntity
  8
ZISSEN1
  6
CONTINUOUS
 62
     7
100
AcDbLine
 10
-1405.259369827556
 20
1654.224880962726
 30
0.0
 11
-1405.259369827556
 21
1646.824880962725
 31
0.0
  0
LINE
  5
1837C
330
1A
100
AcDbEntity
  8
ZISSEN1
  6
CONTINUOUS
 62
     7
100
AcDbLine
 10
-1398.259369827557
 20
1657.574880962725
 30
0.0
 11
-1406.859369827557
 21
1657.574880962725
 31
0.0
  0
LINE
  5
1837D
330
1A
100
AcDbEntity
  8
ZISSEN1
  6
CONTINUOUS
 62
     7
100
AcDbLine
 10
-1398.259369827557
 20
1657.574880962725
 30
0.0
 11
-1406.859369827557
 21
1657.574880962725
 31
0.0
  0
LINE
  5
1837E
330
1A
100
AcDbEntity
  8
ZISSEN1
  6
CONTINUOUS
 62
     7
100
AcDbLine
 10
-1398.559369827556
 20
1644.524880962725
 30
0.0
 11
-1405.259369827556
 21
1644.524880962725
 31
0.0
  0
LINE
  5
1837F
330
1A
100
AcDbEntity
  8
ZISSEN1
  6
CONTINUOUS
 62
     7
100
AcDbLine
 10
-1404.559369827557
 20
1643.674880962725
 30
0.0
 11
-1399.259369827555
 21
1643.674880962725
 31
0.0
  0
LINE
  5
18380
330
1A
100
AcDbEntity
  8
ZISSEN1
  6
CONTINUOUS
 62
     7
100
AcDbLine
 10
-1398.559369827556
 20
1654.224880962726
 30
0.0
 11
-1405.259369827556
 21
1654.224880962726
 31
0.0
  0
LINE
  5
18381
330
1A
100
AcDbEntity
  8
ZISSEN1
  6
CONTINUOUS
 62
     7
100
AcDbLine
 10
-1404.559369827557
 20
1653.374880962726
 30
0.0
 11
-1399.259369827555
 21
1653.374880962726
 31
0.0
  0
LINE
  5
18382
330
1A
100
AcDbEntity
  8
ZISSEN1
  6
CONTINUOUS
 62
     7
100
AcDbLine
 10
-1398.559369827556
 20
1646.824880962725
 30
0.0
 11
-1405.259369827556
 21
1646.824880962725
 31
0.0
  0
LINE
  5
18383
330
1A
100
AcDbEntity
  8
ZISSEN1
  6
CONTINUOUS
 62
     7
100
AcDbLine
 10
-1404.559369827557
 20
1647.674880962726
 30
0.0
 11
-1399.259369827555
 21
1647.674880962726
 31
0.0
  0
LINE
  5
18384
330
1A
100
AcDbEntity
  8
ZISSEN1
  6
CONTINUOUS
 62
     7
100
AcDbLine
 10
-1398.559369827556
 20
1631.974880962726
 30
0.0
 11
-1399.459369827555
 21
1631.974880962726
 31
0.0
  0
LINE
  5
18385
330
1A
100
AcDbEntity
  8
ZISSEN1
  6
CONTINUOUS
 62
     7
100
AcDbLine
 10
-1399.459369827555
 20
1634.324880962726
 30
0.0
 11
-1398.859369827555
 21
1634.324880962726
 31
0.0
  0
LINE
  5
18386
330
1A
100
AcDbEntity
  8
ZISSEN1
  6
CONTINUOUS
 62
     7
100
AcDbLine
 10
-1399.459369827555
 20
1632.824880962725
 30
0.0
 11
-1398.859369827555
 21
1632.824880962725
 31
0.0
  0
LINE
  5
18387
330
1A
100
AcDbEntity
  8
ZISSEN1
  6
CONTINUOUS
 62
     7
100
AcDbLine
 10
-1399.459369827555
 20
1632.624880962725
 30
0.0
 11
-1398.559369827556
 21
1632.624880962725
 31
0.0
  0
LINE
  5
18388
330
1A
100
AcDbEntity
  8
ZISSEN1
  6
CONTINUOUS
 62
     7
100
AcDbLine
 10
-1399.459369827555
 20
1634.524880962725
 30
0.0
 11
-1398.559369827556
 21
1634.524880962725
 31
0.0
  0
LINE
  5
18389
330
1A
100
AcDbEntity
  8
ZISSEN1
  6
CONTINUOUS
 62
     7
100
AcDbLine
 10
-1398.859369827555
 20
1634.324880962726
 30
0.0
 11
-1398.859369827555
 21
1632.824880962725
 31
0.0
  0
LINE
  5
1838A
330
1A
100
AcDbEntity
  8
ZISSEN1
  6
CONTINUOUS
 62
     7
100
AcDbLine
 10
-1399.959369827557
 20
1631.474880962725
 30
0.0
 11
-1399.259369827555
 21
1631.474880962725
 31
0.0
  0
LINE
  5
1838B
330
1A
100
AcDbEntity
  8
ZISSEN1
  6
CONTINUOUS
 62
     7
100
AcDbLine
 10
-1399.259369827555
 20
1630.474880962726
 30
0.0
 11
-1399.259369827555
 21
1631.974880962726
 31
0.0
  0
LINE
  5
1838C
330
1A
100
AcDbEntity
  8
ZISSEN1
  6
CONTINUOUS
 62
     7
100
AcDbLine
 10
-1404.559369827557
 20
1630.474880962726
 30
0.0
 11
-1399.259369827555
 21
1630.474880962726
 31
0.0
  0
LINE
  5
1838D
330
1A
100
AcDbEntity
  8
ZISSEN1
  6
CONTINUOUS
 62
     7
100
AcDbLine
 10
-1399.959369827557
 20
1642.674880962726
 30
0.0
 11
-1399.959369827557
 21
1631.474880962725
 31
0.0
  0
LINE
  5
1838E
330
1A
100
AcDbEntity
  8
ZISSEN1
  6
CONTINUOUS
 62
     7
100
AcDbLine
 10
-1399.459369827555
 20
1642.174880962726
 30
0.0
 11
-1399.459369827555
 21
1631.974880962726
 31
0.0
  0
LINE
  5
1838F
330
1A
100
AcDbEntity
  8
ZISSEN1
  6
CONTINUOUS
 62
     7
100
AcDbLine
 10
-1404.559369827557
 20
1630.474880962726
 30
0.0
 11
-1404.559369827557
 21
1643.674880962725
 31
0.0
  0
LINE
  5
18390
330
1A
100
AcDbEntity
  8
ZISSEN1
  6
CONTINUOUS
 62
     7
100
AcDbLine
 10
-1398.559369827556
 20
1639.624880962726
 30
0.0
 11
-1398.559369827556
 21
1634.524880962725
 31
0.0
  0
LINE
  5
18391
330
1A
100
AcDbEntity
  8
ZISSEN1
  6
CONTINUOUS
 62
     7
100
AcDbLine
 10
-1397.759369827558
 20
1663.574880962725
 30
0.0
 11
-1398.759369827557
 21
1664.574880962724
 31
0.0
  0
LINE
  5
18392
330
1A
100
AcDbEntity
  8
ZISSEN1
  6
CONTINUOUS
 62
     7
100
AcDbLine
 10
-1398.759369827557
 20
1664.574880962724
 30
0.0
 11
-1397.759369827557
 21
1663.574880962724
 31
0.0
  0
LINE
  5
18393
330
1A
100
AcDbEntity
  8
ZISSEN1
  6
CONTINUOUS
 62
     7
100
AcDbLine
 10
-1407.259369827555
 20
1664.574880962724
 30
0.0
 11
-1398.759369827557
 21
1664.574880962724
 31
0.0
  0
DIMENSION
  5
18394
330
1A
100
AcDbEntity
  8
SUNPOU
100
AcDbDimension
  2
*D11
 10
-1356.750429859103
 20
1668.074880962724
 30
0.0
 11
-1356.724067265678
 21
1674.587958499347
 31
0.0
 70
   160
  3
標準スタイル
100
AcDbAlignedDimension
 13
-1347.265241358098
 23
1670.574880962724
 33
0.0
 14
-1339.265241358098
 24
1668.074880962724
 34
0.0
 50
90.0
100
AcDbRotatedDimension
1001
ACAD
1000
DSTYLE
1002
{
1070
   287
1070
     4
1070
   287
1070
     4
1070
   340
1005
10
1070
    40
1040
1.0
1070
   279
1070
     1
1002
}
  0
LINE
  5
18395
330
1A
100
AcDbEntity
  8
ZISSEN1
  6
CONTINUOUS
 62
     7
100
AcDbLine
 10
-1334.786197452403
 20
1663.181503181301
 30
0.0
 11
-1334.895680334699
 21
1662.842546889362
 31
0.0
  0
LINE
  5
18396
330
1A
100
AcDbEntity
  8
ZISSEN1
  6
CONTINUOUS
 62
     7
100
AcDbLine
 10
-1344.965241358099
 20
1662.574880962725
 30
0.0
 11
-1344.965241358099
 21
1664.074880962725
 31
0.0
  0
LINE
  5
18397
330
1A
100
AcDbEntity
  8
ZISSEN1
  6
CONTINUOUS
 62
     7
100
AcDbLine
 10
-1331.865241358099
 20
1663.574880962724
 30
0.0
 11
-1331.865241358099
 21
1658.574880962724
 31
0.0
  0
LINE
  5
18398
330
1A
100
AcDbEntity
  8
ZISSEN1
  6
CONTINUOUS
 62
     7
100
AcDbLine
 10
-1325.865241358099
 20
1658.574880962724
 30
0.0
 11
-1325.865241358099
 21
1663.574880962724
 31
0.0
  0
LINE
  5
18399
330
1A
100
AcDbEntity
  8
ZISSEN1
  6
CONTINUOUS
 62
     7
100
AcDbLine
 10
-1333.465241358099
 20
1663.824880962724
 30
0.0
 11
-1333.465241358099
 21
1658.324880962724
 31
0.0
  0
LINE
  5
1839A
330
1A
100
AcDbEntity
  8
ZISSEN1
  6
CONTINUOUS
 62
     7
100
AcDbLine
 10
-1333.465241358099
 20
1664.074880962725
 30
0.0
 11
-1333.465241358099
 21
1657.274880962725
 31
0.0
  0
LINE
  5
1839B
330
1A
100
AcDbEntity
  8
ZISSEN1
  6
CONTINUOUS
 62
     7
100
AcDbLine
 10
-1333.465241358099
 20
1663.086968729646
 30
0.0
 11
-1333.465241358099
 21
1654.724880962726
 31
0.0
  0
LINE
  5
1839C
330
1A
100
AcDbEntity
  8
ZISSEN1
  6
CONTINUOUS
 62
     7
100
AcDbLine
 10
-1331.865241358099
 20
1654.724880962726
 30
0.0
 11
-1331.865241358099
 21
1664.074880962725
 31
0.0
  0
LINE
  5
1839D
330
1A
100
AcDbEntity
  8
ZISSEN1
  6
CONTINUOUS
 62
     7
100
AcDbLine
 10
-1341.965241358099
 20
1658.890154727012
 30
0.0
 11
-1347.420939419805
 21
1658.890154727012
 31
0.0
  0
LINE
  5
1839E
330
1A
100
AcDbEntity
  8
ZISSEN1
  6
CONTINUOUS
 62
     7
100
AcDbLine
 10
-1347.420939419805
 20
1638.890154727012
 30
0.0
 11
-1338.420939419805
 21
1638.890154727012
 31
0.0
  0
LINE
  5
1839F
330
1A
100
AcDbEntity
  8
ZISSEN1
  6
CONTINUOUS
 62
     7
100
AcDbLine
 10
-1347.420939419805
 20
1658.890154727012
 30
0.0
 11
-1347.420939419805
 21
1638.890154727012
 31
0.0
  0
LINE
  5
183A0
330
1A
100
AcDbEntity
  8
ZISSEN1
  6
CONTINUOUS
 62
     7
100
AcDbLine
 10
-1333.465241358099
 20
1663.074880962725
 30
0.0
 11
-1331.865241358099
 21
1663.074880962725
 31
0.0
  0
LINE
  5
183A1
330
1A
100
AcDbEntity
  8
ZISSEN1
  6
CONTINUOUS
 62
     7
100
AcDbLine
 10
-1334.895680334699
 20
1662.842546889362
 30
0.0
 11
-1334.984488423009
 21
1662.449880962724
 31
0.0
  0
LINE
  5
183A2
330
1A
100
AcDbEntity
  8
ZISSEN1
  6
CONTINUOUS
 62
     7
100
AcDbLine
 10
-1334.984488423009
 20
1662.449880962724
 30
0.0
 11
-1335.049923328512
 21
1662.015436356869
 31
0.0
  0
LINE
  5
183A3
330
1A
100
AcDbEntity
  8
ZISSEN1
  6
CONTINUOUS
 62
     7
100
AcDbLine
 10
-1335.049923328512
 20
1662.015436356869
 30
0.0
 11
-1335.089996844712
 21
1661.552413451308
 31
0.0
  0
LINE
  5
183A4
330
1A
100
AcDbEntity
  8
ZISSEN1
  6
CONTINUOUS
 62
     7
100
AcDbLine
 10
-1335.089996844712
 20
1661.552413451308
 30
0.0
 11
-1335.103491358099
 21
1661.074880962724
 31
0.0
  0
LINE
  5
183A5
330
1A
100
AcDbEntity
  8
ZISSEN1
  6
CONTINUOUS
 62
     7
100
AcDbLine
 10
-1344.465241358099
 20
1662.074880962725
 30
0.0
 11
-1341.965241358099
 21
1662.074880962725
 31
0.0
  0
LINE
  5
183A6
330
1A
100
AcDbEntity
  8
ZISSEN1
  6
CONTINUOUS
 62
     7
100
AcDbLine
 10
-1344.965241358099
 20
1662.574880962725
 30
0.0
 11
-1344.465241358099
 21
1662.074880962725
 31
0.0
  0
LINE
  5
183A7
330
1A
100
AcDbEntity
  8
ZISSEN1
  6
CONTINUOUS
 62
     7
100
AcDbLine
 10
-1325.865241358099
 20
1654.724880962726
 30
0.0
 11
-1325.865241358099
 21
1653.724880962727
 31
0.0
  0
LINE
  5
183A8
330
1A
100
AcDbEntity
  8
ZISSEN1
  6
CONTINUOUS
 62
     7
100
AcDbLine
 10
-1325.865241358099
 20
1654.174880962727
 30
0.0
 11
-1325.865241358099
 21
1653.024880962726
 31
0.0
  0
LINE
  5
183A9
330
1A
100
AcDbEntity
  8
ZISSEN1
  6
CONTINUOUS
 62
     7
100
AcDbLine
 10
-1325.865241358099
 20
1656.874880962726
 30
0.0
 11
-1325.865241358099
 21
1654.774880962725
 31
0.0
  0
LINE
  5
183AA
330
1A
100
AcDbEntity
  8
ZISSEN1
  6
CONTINUOUS
 62
     7
100
AcDbLine
 10
-1325.865241358099
 20
1649.024880962726
 30
0.0
 11
-1325.865241358099
 21
1647.324880962727
 31
0.0
  0
LINE
  5
183AB
330
1A
100
AcDbEntity
  8
ZISSEN1
  6
CONTINUOUS
 62
     7
100
AcDbLine
 10
-1325.865241358099
 20
1645.024880962727
 30
0.0
 11
-1325.865241358099
 21
1644.024880962726
 31
0.0
  0
LINE
  5
183AC
330
1A
100
AcDbEntity
  8
ZISSEN1
  6
CONTINUOUS
 62
     7
100
AcDbLine
 10
-1325.865241358099
 20
1644.474880962726
 30
0.0
 11
-1325.865241358099
 21
1643.324880962726
 31
0.0
  0
LINE
  5
183AD
330
1A
100
AcDbEntity
  8
ZISSEN1
  6
CONTINUOUS
 62
     7
100
AcDbLine
 10
-1333.465241358099
 20
1657.874880962726
 30
0.0
 11
-1331.865241358099
 21
1657.874880962726
 31
0.0
  0
LINE
  5
183AE
330
1A
100
AcDbEntity
  8
ZISSEN1
  6
CONTINUOUS
 62
     7
100
AcDbLine
 10
-1335.089996844712
 20
1660.59734847414
 30
0.0
 11
-1335.049923328512
 21
1660.134325568578
 31
0.0
  0
LINE
  5
183AF
330
1A
100
AcDbEntity
  8
ZISSEN1
  6
CONTINUOUS
 62
     7
100
AcDbLine
 10
-1335.049923328512
 20
1660.134325568578
 30
0.0
 11
-1334.984488423009
 21
1659.699880962724
 31
0.0
  0
LINE
  5
183B0
330
1A
100
AcDbEntity
  8
ZISSEN1
  6
CONTINUOUS
 62
     7
100
AcDbLine
 10
-1334.984488423009
 20
1659.699880962724
 30
0.0
 11
-1334.895680334699
 21
1659.307215036086
 31
0.0
  0
LINE
  5
183B1
330
1A
100
AcDbEntity
  8
ZISSEN1
  6
CONTINUOUS
 62
     7
100
AcDbLine
 10
-1334.895680334699
 20
1659.307215036086
 30
0.0
 11
-1334.786197452403
 21
1658.968258744147
 31
0.0
  0
LINE
  5
183B2
330
1A
100
AcDbEntity
  8
ZISSEN1
  6
CONTINUOUS
 62
     7
100
AcDbLine
 10
-1334.786197452403
 20
1658.968258744147
 30
0.0
 11
-1334.659366358099
 21
1658.693311102317
 31
0.0
  0
LINE
  5
183B3
330
1A
100
AcDbEntity
  8
ZISSEN1
  6
CONTINUOUS
 62
     7
100
AcDbLine
 10
-1334.659366358099
 20
1658.693311102317
 30
0.0
 11
-1334.519040750408
 21
1658.490726255562
 31
0.0
  0
LINE
  5
183B4
330
1A
100
AcDbEntity
  8
ZISSEN1
  6
CONTINUOUS
 62
     7
100
AcDbLine
 10
-1334.519040750408
 20
1658.490726255562
 30
0.0
 11
-1334.369484351912
 21
1658.366659641941
 31
0.0
  0
LINE
  5
183B5
330
1A
100
AcDbEntity
  8
ZISSEN1
  6
CONTINUOUS
 62
     7
100
AcDbLine
 10
-1334.369484351912
 20
1658.366659641941
 30
0.0
 11
-1334.215241358099
 21
1658.324880962724
 31
0.0
  0
LINE
  5
183B6
330
1A
100
AcDbEntity
  8
ZISSEN1
  6
CONTINUOUS
 62
     7
100
AcDbLine
 10
-1333.465241358099
 20
1658.324880962724
 30
0.0
 11
-1334.215241358099
 21
1658.324880962724
 31
0.0
  0
LINE
  5
183B7
330
1A
100
AcDbEntity
  8
ZISSEN1
  6
CONTINUOUS
 62
     7
100
AcDbLine
 10
-1337.365241358098
 20
1652.724880962726
 30
0.0
 11
-1337.365241358098
 21
1654.724880962726
 31
0.0
  0
LINE
  5
183B8
330
1A
100
AcDbEntity
  8
ZISSEN1
  6
CONTINUOUS
 62
     7
100
AcDbLine
 10
-1337.365241358098
 20
1652.724880962726
 30
0.0
 11
-1336.865241358099
 21
1652.224880962726
 31
0.0
  0
LINE
  5
183B9
330
1A
100
AcDbEntity
  8
ZISSEN1
  6
CONTINUOUS
 62
     7
100
AcDbLine
 10
-1335.865241358098
 20
1652.224880962726
 30
0.0
 11
-1336.865241358099
 21
1652.224880962726
 31
0.0
  0
ARC
  5
183BA
330
1A
100
AcDbEntity
  8
ZISSEN1
  6
CONTINUOUS
 62
     7
100
AcDbCircle
 10
-1335.865241358098
 20
1651.724880962726
 30
0.0
 40
0.5
100
AcDbArc
 50
0.0
 51
90.0
  0
LINE
  5
183BB
330
1A
100
AcDbEntity
  8
ZISSEN1
  6
CONTINUOUS
 62
     7
100
AcDbLine
 10
-1336.865241358099
 20
1649.824880962726
 30
0.0
 11
-1337.365241358098
 21
1649.324880962726
 31
0.0
  0
LINE
  5
183BC
330
1A
100
AcDbEntity
  8
ZISSEN1
  6
CONTINUOUS
 62
     7
100
AcDbLine
 10
-1335.865241358098
 20
1649.824880962726
 30
0.0
 11
-1336.865241358099
 21
1649.824880962726
 31
0.0
  0
ARC
  5
183BD
330
1A
100
AcDbEntity
  8
ZISSEN1
  6
CONTINUOUS
 62
     7
100
AcDbCircle
 10
-1335.865241358098
 20
1650.324880962726
 30
0.0
 40
0.5
100
AcDbArc
 50
270.0
 51
0.0
  0
LINE
  5
183BE
330
1A
100
AcDbEntity
  8
ZISSEN1
  6
CONTINUOUS
 62
     7
100
AcDbLine
 10
-1335.365241358099
 20
1650.324880962726
 30
0.0
 11
-1335.365241358099
 21
1651.724880962726
 31
0.0
  0
LINE
  5
183BF
330
1A
100
AcDbEntity
  8
ZISSEN1
  6
CONTINUOUS
 62
     7
100
AcDbLine
 10
-1341.965241358099
 20
1657.274880962725
 30
0.0
 11
-1333.465241358099
 21
1657.274880962725
 31
0.0
  0
LINE
  5
183C0
330
1A
100
AcDbEntity
  8
ZISSEN1
  6
CONTINUOUS
 62
     7
100
AcDbLine
 10
-1333.465241358099
 20
1647.324880962727
 30
0.0
 11
-1333.465241358099
 21
1645.024880962727
 31
0.0
  0
LINE
  5
183C1
330
1A
100
AcDbEntity
  8
ZISSEN1
  6
CONTINUOUS
 62
     7
100
AcDbLine
 10
-1331.865241358099
 20
1645.024880962727
 30
0.0
 11
-1331.865241358099
 21
1647.324880962727
 31
0.0
  0
LINE
  5
183C2
330
1A
100
AcDbEntity
  8
ZISSEN1
  6
CONTINUOUS
 62
     7
100
AcDbLine
 10
-1337.365241358098
 20
1643.024880962726
 30
0.0
 11
-1336.865241358099
 21
1642.524880962726
 31
0.0
  0
LINE
  5
183C3
330
1A
100
AcDbEntity
  8
ZISSEN1
  6
CONTINUOUS
 62
     7
100
AcDbLine
 10
-1335.865241358098
 20
1642.524880962726
 30
0.0
 11
-1336.865241358099
 21
1642.524880962726
 31
0.0
  0
ARC
  5
183C4
330
1A
100
AcDbEntity
  8
ZISSEN1
  6
CONTINUOUS
 62
     7
100
AcDbCircle
 10
-1335.865241358098
 20
1642.024880962726
 30
0.0
 40
0.5
100
AcDbArc
 50
0.0
 51
90.0
  0
LINE
  5
183C5
330
1A
100
AcDbEntity
  8
ZISSEN1
  6
CONTINUOUS
 62
     7
100
AcDbLine
 10
-1337.365241358098
 20
1643.024880962726
 30
0.0
 11
-1337.365241358098
 21
1645.024880962727
 31
0.0
  0
LINE
  5
183C6
330
1A
100
AcDbEntity
  8
ZISSEN1
  6
CONTINUOUS
 62
     7
100
AcDbLine
 10
-1337.365241358098
 20
1649.324880962726
 30
0.0
 11
-1337.365241358098
 21
1647.324880962727
 31
0.0
  0
LINE
  5
183C7
330
1A
100
AcDbEntity
  8
ZISSEN1
  6
CONTINUOUS
 62
     7
100
AcDbLine
 10
-1338.420939419805
 20
1638.890154727012
 30
0.0
 11
-1338.420939419805
 21
1657.274880962725
 31
0.0
  0
LINE
  5
183C8
330
1A
100
AcDbEntity
  8
ZISSEN1
  6
CONTINUOUS
 62
     7
100
AcDbLine
 10
-1331.865241358099
 20
1658.574880962724
 30
0.0
 11
-1325.865241358099
 21
1658.574880962724
 31
0.0
  0
LINE
  5
183C9
330
1A
100
AcDbEntity
  8
ZISSEN1
  6
CONTINUOUS
 62
     7
100
AcDbLine
 10
-1337.365241358098
 20
1654.724880962726
 30
0.0
 11
-1325.865241358099
 21
1654.724880962726
 31
0.0
  0
LINE
  5
183CA
330
1A
100
AcDbEntity
  8
ZISSEN1
  6
CONTINUOUS
 62
     7
100
AcDbLine
 10
-1337.365241358098
 20
1647.324880962727
 30
0.0
 11
-1325.865241358099
 21
1647.324880962727
 31
0.0
  0
LINE
  5
183CB
330
1A
100
AcDbEntity
  8
ZISSEN1
  6
CONTINUOUS
 62
     7
100
AcDbLine
 10
-1337.365241358098
 20
1645.024880962727
 30
0.0
 11
-1325.865241358099
 21
1645.024880962727
 31
0.0
  0
LINE
  5
183CC
330
1A
100
AcDbEntity
  8
ZISSEN1
  6
CONTINUOUS
 62
     7
100
AcDbLine
 10
-1335.103491358099
 20
1661.074880962724
 30
0.0
 11
-1335.089996844712
 21
1660.59734847414
 31
0.0
  0
LINE
  5
183CD
330
1A
100
AcDbEntity
  8
ZISSEN1
  6
CONTINUOUS
 62
     7
100
AcDbLine
 10
-1341.965241358099
 20
1662.074880962725
 30
0.0
 11
-1341.965241358099
 21
1657.274880962725
 31
0.0
  0
LINE
  5
183CE
330
1A
100
AcDbEntity
  8
ZISSEN1
  6
CONTINUOUS
 62
     7
100
AcDbLine
 10
-1336.865241358099
 20
1632.624880962727
 30
0.0
 11
-1337.365241358098
 21
1632.124880962726
 31
0.0
  0
LINE
  5
183CF
330
1A
100
AcDbEntity
  8
ZISSEN1
  6
CONTINUOUS
 62
     7
100
AcDbLine
 10
-1335.865241358098
 20
1632.624880962727
 30
0.0
 11
-1336.865241358099
 21
1632.624880962727
 31
0.0
  0
ARC
  5
183D0
330
1A
100
AcDbEntity
  8
ZISSEN1
  6
CONTINUOUS
 62
     7
100
AcDbCircle
 10
-1335.865241358098
 20
1633.124880962727
 30
0.0
 40
0.5
100
AcDbArc
 50
270.0
 51
0.0
  0
LINE
  5
183D1
330
1A
100
AcDbEntity
  8
ZISSEN1
  6
CONTINUOUS
 62
     7
100
AcDbLine
 10
-1335.365241358099
 20
1633.124880962727
 30
0.0
 11
-1335.365241358099
 21
1642.024880962726
 31
0.0
  0
LINE
  5
183D2
330
1A
100
AcDbEntity
  8
ZISSEN1
  6
CONTINUOUS
 62
     7
100
AcDbLine
 10
-1347.265241358098
 20
1670.574880962724
 30
0.0
 11
-1338.015241358099
 21
1670.574880962724
 31
0.0
  0
LINE
  5
183D3
330
1A
100
AcDbEntity
  8
ZISSEN1
  6
CONTINUOUS
 62
     7
100
AcDbLine
 10
-1348.265241358099
 20
1669.574880962724
 30
0.0
 11
-1347.265241358098
 21
1670.574880962724
 31
0.0
  0
LINE
  5
183D4
330
1A
100
AcDbEntity
  8
CL1
100
AcDbLine
 10
-1336.265241358099
 20
1665.074880962724
 30
0.0
 11
-1336.265241358099
 21
1671.074880962724
 31
0.0
  0
LINE
  5
183D5
330
1A
100
AcDbEntity
  8
CL1
100
AcDbLine
 10
-1339.265241358098
 20
1668.074880962724
 30
0.0
 11
-1333.265241358099
 21
1668.074880962724
 31
0.0
  0
DIMENSION
  5
183D6
330
1A
100
AcDbEntity
  8
SUNPOU
100
AcDbDimension
  2
*D12
 10
-1334.515241358099
 20
1677.52549021545
 30
0.0
 11
-1336.4988429653
 21
1678.302817561533
 31
0.0
 70
   160
  3
標準スタイル
100
AcDbAlignedDimension
 13
-1338.015241358099
 23
1670.574880962724
 33
0.0
 14
-1334.515241358099
 24
1670.574880962724
 34
0.0
100
AcDbRotatedDimension
1001
ACAD
1000
DSTYLE
1002
{
1070
   287
1070
     4
1070
   287
1070
     4
1070
   340
1005
10
1070
    40
1040
1.0
1070
   279
1070
     1
1002
}
  0
LINE
  5
183D7
330
1A
100
AcDbEntity
  8
CL1
100
AcDbLine
 10
-1336.265241358099
 20
1671.074880962724
 30
0.0
 11
-1336.265241358099
 21
1665.074880962724
 31
0.0
  0
LINE
  5
183D8
330
1A
100
AcDbEntity
  8
CL1
100
AcDbLine
 10
-1339.265241358098
 20
1668.074880962724
 30
0.0
 11
-1333.265241358099
 21
1668.074880962724
 31
0.0
  0
LINE
  5
183D9
330
1A
100
AcDbEntity
  8
ZISSEN1
  6
CONTINUOUS
 62
     7
100
AcDbLine
 10
-1325.865241358099
 20
1664.074880962725
 30
0.0
 11
-1325.865241358099
 21
1663.086968729646
 31
0.0
  0
LINE
  5
183DA
330
1A
100
AcDbEntity
  8
ZISSEN1
  6
CONTINUOUS
 62
     7
100
AcDbLine
 10
-1334.515241358099
 20
1670.574880962724
 30
0.0
 11
-1334.515241358099
 21
1667.074880962724
 31
0.0
  0
LINE
  5
183DB
330
1A
100
AcDbEntity
  8
ZISSEN1
  6
CONTINUOUS
 62
     7
100
AcDbLine
 10
-1333.465241358099
 20
1664.074880962725
 30
0.0
 11
-1333.465241358099
 21
1663.086968729646
 31
0.0
  0
LINE
  5
183DC
330
1A
100
AcDbEntity
  8
ZISSEN1
  6
CONTINUOUS
 62
     7
100
AcDbLine
 10
-1331.865241358099
 20
1664.074880962725
 30
0.0
 11
-1333.465241358099
 21
1664.074880962725
 31
0.0
  0
LINE
  5
183DD
330
1A
100
AcDbEntity
  8
ZISSEN1
  6
CONTINUOUS
 62
     7
100
AcDbLine
 10
-1334.215241358099
 20
1663.824880962724
 30
0.0
 11
-1334.369484351912
 21
1663.783102283508
 31
0.0
  0
LINE
  5
183DE
330
1A
100
AcDbEntity
  8
ZISSEN1
  6
CONTINUOUS
 62
     7
100
AcDbLine
 10
-1334.369484351912
 20
1663.783102283508
 30
0.0
 11
-1334.519040750408
 21
1663.659035669885
 31
0.0
  0
LINE
  5
183DF
330
1A
100
AcDbEntity
  8
ZISSEN1
  6
CONTINUOUS
 62
     7
100
AcDbLine
 10
-1334.519040750408
 20
1663.659035669885
 30
0.0
 11
-1334.659366358099
 21
1663.456450823131
 31
0.0
  0
LINE
  5
183E0
330
1A
100
AcDbEntity
  8
ZISSEN1
  6
CONTINUOUS
 62
     7
100
AcDbLine
 10
-1334.659366358099
 20
1663.456450823131
 30
0.0
 11
-1334.786197452403
 21
1663.181503181301
 31
0.0
  0
LINE
  5
183E1
330
1A
100
AcDbEntity
  8
ZISSEN1
  6
CONTINUOUS
 62
     7
100
AcDbLine
 10
-1333.465241358099
 20
1663.824880962724
 30
0.0
 11
-1334.215241358099
 21
1663.824880962724
 31
0.0
  0
LINE
  5
183E2
330
1A
100
AcDbEntity
  8
ZISSEN1
  6
CONTINUOUS
 62
     7
100
AcDbLine
 10
-1338.015241358099
 20
1670.574880962724
 30
0.0
 11
-1338.015241358099
 21
1667.074880962724
 31
0.0
  0
ARC
  5
183E3
330
1A
100
AcDbEntity
  8
ZISSEN1
  6
CONTINUOUS
 62
     7
100
AcDbCircle
 10
-1336.265241358099
 20
1667.074880962724
 30
0.0
 40
1.75
100
AcDbArc
 50
180.0
 51
0.0
  0
LINE
  5
183E4
330
1A
100
AcDbEntity
  8
ZISSEN1
  6
CONTINUOUS
 62
     7
100
AcDbLine
 10
-1344.965241358099
 20
1664.074880962725
 30
0.0
 11
-1333.465241358099
 21
1664.074880962725
 31
0.0
  0
LINE
  5
183E5
330
1A
100
AcDbEntity
  8
ZISSEN1
  6
CONTINUOUS
 62
     7
100
AcDbLine
 10
-1325.865241358099
 20
1663.574880962724
 30
0.0
 11
-1331.865241358099
 21
1663.574880962724
 31
0.0
  0
LINE
  5
183E6
330
1A
100
AcDbEntity
  8
ZISSEN1
  6
CONTINUOUS
 62
     7
100
AcDbLine
 10
-1324.265241358099
 20
1664.574880962725
 30
0.0
 11
-1324.265241358099
 21
1657.574880962725
 31
0.0
  0
LINE
  5
183E7
330
1A
100
AcDbEntity
  8
ZISSEN1
  6
CONTINUOUS
 62
     7
100
AcDbLine
 10
-1322.220434213639
 20
1664.574880962725
 30
0.0
 11
-1322.220434213639
 21
1657.574880962725
 31
0.0
  0
LINE
  5
183E8
330
1A
100
AcDbEntity
  8
ZISSEN1
  6
CONTINUOUS
 62
     7
100
AcDbLine
 10
-1324.265241358099
 20
1653.685992073837
 30
0.0
 11
-1324.265241358099
 21
1664.074880962725
 31
0.0
  0
LINE
  5
183E9
330
1A
100
AcDbEntity
  8
ZISSEN1
  6
CONTINUOUS
 62
     7
100
AcDbLine
 10
-1324.265241358099
 20
1657.574880962725
 30
0.0
 11
-1319.265241358099
 21
1657.574880962725
 31
0.0
  0
LINE
  5
183EA
330
1A
100
AcDbEntity
  8
ZISSEN1
  6
CONTINUOUS
 62
     7
100
AcDbLine
 10
-1324.215241358099
 20
1644.024880962726
 30
0.0
 11
-1324.215241358099
 21
1644.324880962726
 31
0.0
  0
LINE
  5
183EB
330
1A
100
AcDbEntity
  8
ZISSEN1
  6
CONTINUOUS
 62
     7
100
AcDbLine
 10
-1324.265241358099
 20
1644.363769851615
 30
0.0
 11
-1324.265241358099
 21
1653.685992073837
 31
0.0
  0
LINE
  5
183EC
330
1A
100
AcDbEntity
  8
ZISSEN1
  6
CONTINUOUS
 62
     7
100
AcDbLine
 10
-1321.265241358099
 20
1670.574880962724
 30
0.0
 11
-1319.265241358099
 21
1670.574880962724
 31
0.0
  0
LINE
  5
183ED
330
1A
100
AcDbEntity
  8
ZISSEN1
  6
CONTINUOUS
 62
     7
100
AcDbLine
 10
-1319.265241358099
 20
1669.574880962724
 30
0.0
 11
-1321.265241358099
 21
1669.574880962724
 31
0.0
  0
LINE
  5
183EE
330
1A
100
AcDbEntity
  8
ZISSEN1
  6
CONTINUOUS
 62
     7
100
AcDbLine
 10
-1321.265241358099
 20
1664.574880962725
 30
0.0
 11
-1321.265241358099
 21
1670.574880962724
 31
0.0
  0
LINE
  5
183EF
330
1A
100
AcDbEntity
  8
ZISSEN1
  6
CONTINUOUS
 62
     7
100
AcDbLine
 10
-1324.265241358099
 20
1663.574880962725
 30
0.0
 11
-1322.220434213639
 21
1663.574880962725
 31
0.0
  0
LINE
  5
183F0
330
1A
100
AcDbEntity
  8
ZISSEN1
  6
CONTINUOUS
 62
     7
100
AcDbLine
 10
-1321.265241358099
 20
1669.574880962724
 30
0.0
 11
-1322.265241358099
 21
1670.574880962724
 31
0.0
  0
LINE
  5
183F1
330
1A
100
AcDbEntity
  8
ZISSEN1
  6
CONTINUOUS
 62
     7
100
AcDbLine
 10
-1324.265241358099
 20
1664.574880962725
 30
0.0
 11
-1319.265241358099
 21
1664.574880962725
 31
0.0
  0
LINE
  5
1852C
330
1A
100
AcDbEntity
  8
ZISSEN1
  6
CONTINUOUS
 62
     7
100
AcDbLine
 10
-1411.062587533931
 20
1569.595625549102
 30
0.0
 11
-1411.062587533931
 21
1560.595625549102
 31
0.0
  0
LINE
  5
1853C
330
1A
100
AcDbEntity
  8
CL1
100
AcDbLine
 10
-1454.759369827557
 20
1547.011152518343
 30
0.0
 11
-1454.759369827557
 21
1542.929653105622
 31
0.0
  0
VIEWPORT
  5
15177
330
15176
100
AcDbEntity
 67
     1
  8
0
100
AcDbViewport
 10
240.1711476434996
 20
158.7585342051849
 30
0.0
 40
588.3185876304012
 41
330.1534690077779
 68
     2
 69
     1
1001
ACAD
1000
MVIEW
1002
{
1070
    16
1010
0.0
1020
0.0
1030
0.0
1010
0.0
1020
0.0
1030
1.0
1040
0.0
1040
330.1534690077779
1040
240.1711476434996
1040
158.7585342051849
1040
50.0
1040
0.0
1040
0.0
1070
     0
1070
   100
1070
     1
1070
     0
1070
     0
1070
     0
1070
     0
1070
     0
1040
0.0
1040
0.0
1040
0.0
1040
1.0
1040
1.0
1040
10.0
1040
10.0
1070
     0
1002
{
1002
}
1002
}
  0
VIEWPORT
  5
15178
330
15176
100
AcDbEntity
 67
     1
  8
ZISSEN1
100
AcDbViewport
 10
221.7861955525412
 20
157.6960273330388
 30
0.0
 40
385.4999999999997
 41
259.9999999999999
 68
     1
 69
     2
1001
ACAD
1000
MVIEW
1002
{
1070
    16
1010
0.0
1020
0.0
1030
0.0
1010
0.0
1020
0.0
1030
1.0
1040
0.0
1040
259.9999999999999
1040
-1393.167051723679
1040
1610.132939206472
1040
50.0
1040
0.0
1040
0.0
1070
     0
1070
   100
1070
     1
1070
     0
1070
     0
1070
     0
1070
     0
1070
     0
1040
0.0
1040
0.0
1040
0.0
1040
1.0
1040
1.0
1040
10.0
1040
10.0
1070
     0
1002
{
1002
}
1002
}
  0
TEXT
  5
15179
330
15176
100
AcDbEntity
 67
     1
  8
SUNPOU
 62
     0
100
AcDbText
 10
374.1863124306944
 20
60.86794705907585
 30
0.0
 40
3.5
  1
縮尺 1/1
100
AcDbText
  0
ENDSEC
  0
SECTION
  2
OBJECTS
  0
DICTIONARY
  5
C
330
0
100
AcDbDictionary
  3
ACAD_GROUP
350
D
  3
ACAD_LAYOUT
350
5C7D
  3
ACAD_MLINESTYLE
350
E
  3
ACAD_PLOTSETTINGS
350
5C7E
  3
ACAD_PLOTSTYLENAME
350
5C7B
  3
ACDBVARIABLEDICTIONARY
350
13217
  3
DWGPROPS
350
5E8E
  3
ACDBHEADERROUNDTRIPXREC
350
1853E
  0
DICTIONARY
  5
1855E
330
1A
100
AcDbDictionary
280
     1
  3
ACAD_LAYOUTSELFREF
360
1855F
  0
DICTIONARY
  5
18560
330
15176
100
AcDbDictionary
280
     1
  3
ACAD_LAYOUTSELFREF
360
18561
  0
DICTIONARY
  5
D
102
{ACAD_REACTORS
330
C
102
}
330
C
100
AcDbDictionary
  3
*A1
350
477D
  3
*A2
350
4C10
  3
*A3
350
4C11
  3
*A4
350
4C12
  3
*A5
350
4C13
  3
*A6
350
4C14
  3
*A7
350
4C15
  3
*A8
350
4C16
  3
*A9
350
4C17
  3
*A10
350
477E
  3
*A11
350
477F
  3
*A12
350
4780
  3
*A13
350
4781
  3
*A14
350
13853
  3
*A15
350
4C0E
  3
*A16
350
4C0F
  0
DICTIONARY
  5
5C7D
102
{ACAD_REACTORS
330
C
102
}
330
C
100
AcDbDictionary
  0
DICTIONARY
  5
E
102
{ACAD_REACTORS
330
C
102
}
330
C
100
AcDbDictionary
  3
STANDARD
350
13
  0
DICTIONARY
  5
5C7E
102
{ACAD_REACTORS
330
C
102
}
330
C
100
AcDbDictionary
  0
ACDBDICTIONARYWDFLT
  5
5C7B
102
{ACAD_REACTORS
330
C
102
}
330
C
100
AcDbDictionary
281
     1
  3
Normal
350
5C7C
100
AcDbDictionaryWithDefault
340
5C7C
  0
DICTIONARY
  5
13217
102
{ACAD_REACTORS
330
C
102
}
330
C
100
AcDbDictionary
  3
SORTENTS
350
13218
  0
XRECORD
  5
5E8E
102
{ACAD_REACTORS
330
C
102
}
330
C
100
AcDbXrecord
  1
DWGPROPS COOKIE
  2

  3

  4

  6

  7

  8

  9

300
=
301
=
302
=
303
=
304
=
305
=
306
=
307
=
308
=
309
=
 40
0.586753587962963
 41
2450495.493631365
 42
2453208.662277431
  1

 90
        0
  0
DICTIONARY
  5
1853E
102
{ACAD_REACTORS
330
C
102
}
330
C
100
AcDbDictionary
  3
TSTACKALIGN
350
1853F
  3
TSTACKSIZE
350
18540
  3
HYPERLINKBASE
350
18541
  3
STYLESHEET
350
18542
  3
LAYOUTDICT
350
18543
  3
PLOTSETDICT
350
18544
  3
PLOTSTYLNAMDICT
350
18545
  3
LWETCUNION
350
18546
  3
INSUNITS
350
18547
  3
CEPSNTYPE
350
18548
  3
FINGERPRINTGUID
350
18549
  3
VERSIONGUID
350
1854A
  3
PSVPSCALE
350
1854B
  3
PUCSORTHOREF
350
1854C
  3
PUCSORTHOVIEW
350
1854D
  3
PUCSBASE
350
1854E
  3
PUCSORGTOP
350
1854F
  3
PUCSORGBOTTOM
350
18550
  3
PUCSORGLEFT
350
18551
  3
PUCSORGRIGHT
350
18552
  3
PUCSORGFRONT
350
18553
  3
PUCSORGBACK
350
18554
  3
UCSORTHOREF
350
18555
  3
UCSORTHOVIEW
350
18556
  3
UCSBASE
350
18557
  3
UCSORGTOP
350
18558
  3
UCSORGBOTTOM
350
18559
  3
UCSORGLEFT
350
1855A
  3
UCSORGRIGHT
350
1855B
  3
UCSORGFRONT
350
1855C
  3
UCSORGBACK
350
1855D
  0
XRECORD
  5
1855F
102
{ACAD_REACTORS
330
1855E
102
}
330
1855E
100
AcDbXrecord
340
1A
  0
XRECORD
  5
18561
102
{ACAD_REACTORS
330
18560
102
}
330
18560
100
AcDbXrecord
340
15176
  0
GROUP
  5
477D
102
{ACAD_REACTORS
330
D
102
}
330
D
100
AcDbGroup
300

 70
     1
 71
     1
  0
GROUP
  5
4C10
102
{ACAD_REACTORS
330
D
102
}
330
D
100
AcDbGroup
300

 70
     1
 71
     1
  0
GROUP
  5
4C11
102
{ACAD_REACTORS
330
D
102
}
330
D
100
AcDbGroup
300

 70
     1
 71
     1
  0
GROUP
  5
4C12
102
{ACAD_REACTORS
330
D
102
}
330
D
100
AcDbGroup
300

 70
     1
 71
     1
  0
GROUP
  5
4C13
102
{ACAD_REACTORS
330
D
102
}
330
D
100
AcDbGroup
300

 70
     1
 71
     1
  0
GROUP
  5
4C14
102
{ACAD_REACTORS
330
D
102
}
330
D
100
AcDbGroup
300

 70
     1
 71
     1
  0
GROUP
  5
4C15
102
{ACAD_REACTORS
330
D
102
}
330
D
100
AcDbGroup
300

 70
     1
 71
     1
  0
GROUP
  5
4C16
102
{ACAD_REACTORS
330
D
102
}
330
D
100
AcDbGroup
300

 70
     1
 71
     1
  0
GROUP
  5
4C17
102
{ACAD_REACTORS
330
D
102
}
330
D
100
AcDbGroup
300

 70
     1
 71
     1
  0
GROUP
  5
477E
102
{ACAD_REACTORS
330
D
102
}
330
D
100
AcDbGroup
300

 70
     1
 71
     1
  0
GROUP
  5
477F
102
{ACAD_REACTORS
330
D
102
}
330
D
100
AcDbGroup
300

 70
     1
 71
     1
  0
GROUP
  5
4780
102
{ACAD_REACTORS
330
D
102
}
330
D
100
AcDbGroup
300

 70
     1
 71
     1
  0
GROUP
  5
4781
102
{ACAD_REACTORS
330
D
102
}
330
D
100
AcDbGroup
300

 70
     1
 71
     1
  0
GROUP
  5
13853
102
{ACAD_REACTORS
330
D
102
}
330
D
100
AcDbGroup
300

 70
     1
 71
     1
  0
GROUP
  5
4C0E
102
{ACAD_REACTORS
330
D
102
}
330
D
100
AcDbGroup
300

 70
     1
 71
     1
  0
GROUP
  5
4C0F
102
{ACAD_REACTORS
330
D
102
}
330
D
100
AcDbGroup
300

 70
     1
 71
     1
  0
MLINESTYLE
  5
13
102
{ACAD_REACTORS
330
E
102
}
330
E
100
AcDbMlineStyle
  2
STANDARD
 70
     0
  3

 62
     0
 51
90.0
 52
90.0
 71
     2
 49
0.5
 62
   256
  6
BYLAYER
 49
-0.5
 62
   256
  6
BYLAYER
  0
ACDBPLACEHOLDER
  5
5C7C
102
{ACAD_REACTORS
330
5C7B
102
}
330
5C7B
100
AcDbPlaceHolder
280
     0
  0
DICTIONARYVAR
  5
13218
102
{ACAD_REACTORS
330
13217
102
}
330
13217
100
DictionaryVariables
280
     0
  1
96
  0
XRECORD
  5
1853F
102
{ACAD_REACTORS
330
1853E
102
}
330
1853E
100
AcDbXrecord
 90
        1
  0
XRECORD
  5
18540
102
{ACAD_REACTORS
330
1853E
102
}
330
1853E
100
AcDbXrecord
 90
       70
  0
XRECORD
  5
18541
102
{ACAD_REACTORS
330
1853E
102
}
330
1853E
100
AcDbXrecord
  1

  0
XRECORD
  5
18542
102
{ACAD_REACTORS
330
1853E
102
}
330
1853E
100
AcDbXrecord
  1

  0
XRECORD
  5
18543
102
{ACAD_REACTORS
330
1853E
102
}
330
1853E
100
AcDbXrecord
340
5C7D
  0
XRECORD
  5
18544
102
{ACAD_REACTORS
330
1853E
102
}
330
1853E
100
AcDbXrecord
340
5C7E
  0
XRECORD
  5
18545
102
{ACAD_REACTORS
330
1853E
102
}
330
1853E
100
AcDbXrecord
340
5C7B
  0
XRECORD
  5
18546
102
{ACAD_REACTORS
330
1853E
102
}
330
1853E
100
AcDbXrecord
 90
    10781
  0
XRECORD
  5
18547
102
{ACAD_REACTORS
330
1853E
102
}
330
1853E
100
AcDbXrecord
 90
        0
  0
XRECORD
  5
18548
102
{ACAD_REACTORS
330
1853E
102
}
330
1853E
100
AcDbXrecord
 90
        0
  0
XRECORD
  5
18549
102
{ACAD_REACTORS
330
1853E
102
}
330
1853E
100
AcDbXrecord
  1
{225A7F0D-DA29-11D8-946A-0000E2416295}
  0
XRECORD
  5
1854A
102
{ACAD_REACTORS
330
1853E
102
}
330
1853E
100
AcDbXrecord
  1
{B728F1CC-D7EF-4A8C-B48D-50DBF6ECBF32}
  0
XRECORD
  5
1854B
102
{ACAD_REACTORS
330
1853E
102
}
330
1853E
100
AcDbXrecord
 40
0.0
  0
XRECORD
  5
1854C
102
{ACAD_REACTORS
330
1853E
102
}
330
1853E
100
AcDbXrecord
340
0
  0
XRECORD
  5
1854D
102
{ACAD_REACTORS
330
1853E
102
}
330
1853E
100
AcDbXrecord
 70
     0
  0
XRECORD
  5
1854E
102
{ACAD_REACTORS
330
1853E
102
}
330
1853E
100
AcDbXrecord
340
0
  0
XRECORD
  5
1854F
102
{ACAD_REACTORS
330
1853E
102
}
330
1853E
100
AcDbXrecord
 10
0.0
 20
0.0
 30
0.0
  0
XRECORD
  5
18550
102
{ACAD_REACTORS
330
1853E
102
}
330
1853E
100
AcDbXrecord
 10
0.0
 20
0.0
 30
0.0
  0
XRECORD
  5
18551
102
{ACAD_REACTORS
330
1853E
102
}
330
1853E
100
AcDbXrecord
 10
0.0
 20
0.0
 30
0.0
  0
XRECORD
  5
18552
102
{ACAD_REACTORS
330
1853E
102
}
330
1853E
100
AcDbXrecord
 10
0.0
 20
0.0
 30
0.0
  0
XRECORD
  5
18553
102
{ACAD_REACTORS
330
1853E
102
}
330
1853E
100
AcDbXrecord
 10
0.0
 20
0.0
 30
0.0
  0
XRECORD
  5
18554
102
{ACAD_REACTORS
330
1853E
102
}
330
1853E
100
AcDbXrecord
 10
0.0
 20
0.0
 30
0.0
  0
XRECORD
  5
18555
102
{ACAD_REACTORS
330
1853E
102
}
330
1853E
100
AcDbXrecord
340
0
  0
XRECORD
  5
18556
102
{ACAD_REACTORS
330
1853E
102
}
330
1853E
100
AcDbXrecord
 70
     0
  0
XRECORD
  5
18557
102
{ACAD_REACTORS
330
1853E
102
}
330
1853E
100
AcDbXrecord
340
0
  0
XRECORD
  5
18558
102
{ACAD_REACTORS
330
1853E
102
}
330
1853E
100
AcDbXrecord
 10
0.0
 20
0.0
 30
0.0
  0
XRECORD
  5
18559
102
{ACAD_REACTORS
330
1853E
102
}
330
1853E
100
AcDbXrecord
 10
0.0
 20
0.0
 30
0.0
  0
XRECORD
  5
1855A
102
{ACAD_REACTORS
330
1853E
102
}
330
1853E
100
AcDbXrecord
 10
0.0
 20
0.0
 30
0.0
  0
XRECORD
  5
1855B
102
{ACAD_REACTORS
330
1853E
102
}
330
1853E
100
AcDbXrecord
 10
0.0
 20
0.0
 30
0.0
  0
XRECORD
  5
1855C
102
{ACAD_REACTORS
330
1853E
102
}
330
1853E
100
AcDbXrecord
 10
0.0
 20
0.0
 30
0.0
  0
XRECORD
  5
1855D
102
{ACAD_REACTORS
330
1853E
102
}
330
1853E
100
AcDbXrecord
 10
0.0
 20
0.0
 30
0.0
  0
ENDSEC
  0
EOF
