  0
SECTION
  2
HEADER
  9
$ACADVER
  1
AC1014
  9
$ACADMAINTVER
 70
     9
  9
$DWGCODEPAGE
  3
ANSI_932
  9
$INSBASE
 10
0.0
 20
0.0
 30
0.0
  9
$EXTMIN
 10
-631.8996664178954
 20
1493.997894822056
 30
0.0
  9
$EXTMAX
 10
-479.9710088984588
 20
1685.233566703279
 30
0.0
  9
$LIMMIN
 10
0.0
 20
0.0
  9
$LIMMAX
 10
420.0
 20
297.0
  9
$ORTHOMODE
 70
     1
  9
$REGENMODE
 70
     1
  9
$FILLMODE
 70
     1
  9
$QTEXTMODE
 70
     0
  9
$MIRRTEXT
 70
     1
  9
$DRAGMODE
 70
     2
  9
$LTSCALE
 40
1.0
  9
$OSMODE
 70
    37
  9
$ATTMODE
 70
     1
  9
$TEXTSIZE
 40
2.5
  9
$TRACEWID
 40
1.0
  9
$TEXTSTYLE
  7
ゴシック体
  9
$CLAYER
  8
SUNPOU
  9
$CELTYPE
  6
BYLAYER
  9
$CECOLOR
 62
   256
  9
$CELTSCALE
 40
1.0
  9
$DELOBJ
 70
     1
  9
$DISPSILH
 70
     0
  9
$DIMSCALE
 40
0.0
  9
$DIMASZ
 40
3.0
  9
$DIMEXO
 40
0.5
  9
$DIMDLI
 40
0.5
  9
$DIMRND
 40
0.0
  9
$DIMDLE
 40
0.0
  9
$DIMEXE
 40
0.5
  9
$DIMTP
 40
0.0
  9
$DIMTM
 40
0.0
  9
$DIMTXT
 40
3.5
  9
$DIMCEN
 40
0.0
  9
$DIMTSZ
 40
0.0
  9
$DIMTOL
 70
     0
  9
$DIMLIM
 70
     0
  9
$DIMTIH
 70
     0
  9
$DIMTOH
 70
     0
  9
$DIMSE1
 70
     0
  9
$DIMSE2
 70
     0
  9
$DIMTAD
 70
     1
  9
$DIMZIN
 70
     8
  9
$DIMBLK
  1

  9
$DIMASO
 70
     1
  9
$DIMSHO
 70
     1
  9
$DIMPOST
  1

  9
$DIMAPOST
  1

  9
$DIMALT
 70
     0
  9
$DIMALTD
 70
     2
  9
$DIMALTF
 40
25.4
  9
$DIMLFAC
 40
1.0
  9
$DIMTOFL
 70
     1
  9
$DIMTVP
 40
0.0
  9
$DIMTIX
 70
     0
  9
$DIMSOXD
 70
     0
  9
$DIMSAH
 70
     0
  9
$DIMBLK1
  1

  9
$DIMBLK2
  1

  9
$DIMSTYLE
  2
標準スタイル
  9
$DIMCLRD
 70
     1
  9
$DIMCLRE
 70
     1
  9
$DIMCLRT
 70
     1
  9
$DIMTFAC
 40
1.0
  9
$DIMGAP
 40
1.0
  9
$DIMJUST
 70
     0
  9
$DIMSD1
 70
     0
  9
$DIMSD2
 70
     0
  9
$DIMTOLJ
 70
     1
  9
$DIMTZIN
 70
     8
  9
$DIMALTZ
 70
     0
  9
$DIMALTTZ
 70
     0
  9
$DIMFIT
 70
     3
  9
$DIMUPT
 70
     0
  9
$DIMUNIT
 70
     2
  9
$DIMDEC
 70
     2
  9
$DIMTDEC
 70
     2
  9
$DIMALTU
 70
     2
  9
$DIMALTTD
 70
     2
  9
$DIMTXSTY
  7
ゴシック体
  9
$DIMAUNIT
 70
     0
  9
$LUNITS
 70
     2
  9
$LUPREC
 70
     4
  9
$SKETCHINC
 40
1.0
  9
$FILLETRAD
 40
0.0
  9
$AUNITS
 70
     0
  9
$AUPREC
 70
     0
  9
$MENU
  1
.
  9
$ELEVATION
 40
0.0
  9
$PELEVATION
 40
0.0
  9
$THICKNESS
 40
0.0
  9
$LIMCHECK
 70
     0
  9
$BLIPMODE
 70
     0
  9
$CHAMFERA
 40
10.0
  9
$CHAMFERB
 40
10.0
  9
$CHAMFERC
 40
2.0
  9
$CHAMFERD
 40
0.7853981633974483
  9
$SKPOLY
 70
     0
  9
$TDCREATE
 40
2450495.493631365
  9
$TDUPDATE
 40
2457778.550098379
  9
$TDINDWG
 40
1.8382488542
  9
$TDUSRTIMER
 40
1.8382486806
  9
$USRTIMER
 70
     1
  9
$ANGBASE
 50
0.0
  9
$ANGDIR
 70
     0
  9
$PDMODE
 70
    99
  9
$PDSIZE
 40
0.0
  9
$PLINEWID
 40
0.0
  9
$COORDS
 70
     1
  9
$SPLFRAME
 70
     0
  9
$SPLINETYPE
 70
     6
  9
$SPLINESEGS
 70
     8
  9
$ATTDIA
 70
     0
  9
$ATTREQ
 70
     1
  9
$HANDLING
 70
 10241
  9
$HANDSEED
  5
1AD11
  9
$SURFTAB1
 70
     6
  9
$SURFTAB2
 70
     6
  9
$SURFTYPE
 70
     6
  9
$SURFU
 70
     6
  9
$SURFV
 70
     6
  9
$UCSNAME
  2

  9
$UCSORG
 10
0.0
 20
0.0
 30
0.0
  9
$UCSXDIR
 10
1.0
 20
0.0
 30
0.0
  9
$UCSYDIR
 10
0.0
 20
1.0
 30
0.0
  9
$PUCSNAME
  2

  9
$PUCSORG
 10
0.0
 20
0.0
 30
0.0
  9
$PUCSXDIR
 10
1.0
 20
0.0
 30
0.0
  9
$PUCSYDIR
 10
0.0
 20
1.0
 30
0.0
  9
$USERI1
 70
     0
  9
$USERI2
 70
     0
  9
$USERI3
 70
     0
  9
$USERI4
 70
     0
  9
$USERI5
 70
     0
  9
$USERR1
 40
0.0
  9
$USERR2
 40
0.0
  9
$USERR3
 40
0.0
  9
$USERR4
 40
0.0
  9
$USERR5
 40
0.0
  9
$WORLDVIEW
 70
     1
  9
$SHADEDGE
 70
     3
  9
$SHADEDIF
 70
    70
  9
$TILEMODE
 70
     0
  9
$MAXACTVP
 70
    16
  9
$PINSBASE
 10
0.0
 20
0.0
 30
0.0
  9
$PLIMCHECK
 70
     0
  9
$PEXTMIN
 10
29.03619555254133
 20
27.69602733303884
 30
0.0
  9
$PEXTMAX
 10
414.536195552541
 20
287.6960273330388
 30
0.0
  9
$PLIMMIN
 10
21.07407372018929
 20
19.73727600203672
  9
$PLIMMAX
 10
422.4806288637693
 20
303.5138676446526
  9
$UNITMODE
 70
     0
  9
$VISRETAIN
 70
     0
  9
$PLINEGEN
 70
     0
  9
$PSLTSCALE
 70
     1
  9
$TREEDEPTH
 70
  3020
  9
$PICKSTYLE
 70
     1
  9
$CMLSTYLE
  2
STANDARD
  9
$CMLJUST
 70
     0
  9
$CMLSCALE
 40
1.0
  9
$PROXYGRAPHICS
 70
     1
  9
$MEASUREMENT
 70
     1
  0
ENDSEC
  0
SECTION
  2
CLASSES
  0
CLASS
  1
LWPOLYLINE
  2
AcDbPolyline
  3
AutoCAD 2000
 90
        0
280
     0
281
     1
  0
CLASS
  1
HATCH
  2
AcDbHatch
  3
AutoCAD 2000
 90
        0
280
     0
281
     1
  0
CLASS
  1
ACDBDICTIONARYWDFLT
  2
AcDbDictionaryWithDefault
  3
AutoCAD 2000
 90
        0
280
     0
281
     0
  0
CLASS
  1
ACDBPLACEHOLDER
  2
AcDbPlaceHolder
  3
AutoCAD 2000
 90
        0
280
     0
281
     0
  0
CLASS
  1
LAYOUT
  2
AcDbLayout
  3
AutoCAD 2000
 90
        0
280
     0
281
     0
  0
CLASS
  1
DICTIONARYVAR
  2
AcDbDictionaryVar
  3
AutoCAD 2000
 90
        0
280
     0
281
     0
  0
CLASS
  1
LONG_TRANSACTION
  2
AcDbLongTransaction
  3
AutoCAD 2000
 90
        0
280
     0
281
     0
  0
CLASS
  1
LWPOLYLINE
  2
AcDbPolyline
  3
AutoCAD 2000
 90
        0
280
     0
281
     1
  0
CLASS
  1
HATCH
  2
AcDbHatch
  3
AutoCAD 2000
 90
        0
280
     0
281
     1
  0
CLASS
  1
XRECORD
  2
AcDbXrecord
  3
AutoCAD 2000
 90
        0
280
     0
281
     0
  0
CLASS
  1
LONG_TRANSACTION
  2
AcDbLongTransaction
  3
AutoCAD 2000
 90
        0
280
     0
281
     0
  0
CLASS
  1
LWPOLYLINE
  2
AcDbPolyline
  3
AutoCAD 2000
 90
        0
280
     0
281
     1
  0
CLASS
  1
HATCH
  2
AcDbHatch
  3
AutoCAD 2000
 90
        0
280
     0
281
     1
  0
CLASS
  1
XRECORD
  2
AcDbXrecord
  3
AutoCAD 2000
 90
        0
280
     0
281
     0
  0
ENDSEC
  0
SECTION
  2
TABLES
  0
TABLE
  2
VPORT
  5
8
330
0
100
AcDbSymbolTable
 70
     1
  0
VPORT
  5
1ACE0
330
8
100
AcDbSymbolTableRecord
100
AcDbViewportTableRecord
  2
*ACTIVE
 70
     0
 10
0.0
 20
0.0
 11
1.0
 21
1.0
 12
-555.9316298069918
 22
1589.626601266508
 13
0.0
 23
0.0
 14
5.0
 24
5.0
 15
0.0
 25
0.0
 16
0.0
 26
0.0
 36
1.0
 17
0.0
 27
0.0
 37
0.0
 40
193.4704572213782
 41
1.781954887218045
 42
50.0
 43
0.0
 44
0.0
 50
0.0
 51
0.0
 71
     0
 72
   100
 73
     1
 74
     0
 75
     0
 76
     0
 77
     0
 78
     0
  0
ENDTAB
  0
TABLE
  2
LTYPE
  5
5
330
0
100
AcDbSymbolTable
 70
     3
  0
LTYPE
  5
14
330
5
100
AcDbSymbolTableRecord
100
AcDbLinetypeTableRecord
  2
BYBLOCK
 70
     0
  3

 72
    65
 73
     0
 40
0.0
  0
LTYPE
  5
15
330
5
100
AcDbSymbolTableRecord
100
AcDbLinetypeTableRecord
  2
BYLAYER
 70
     0
  3

 72
    65
 73
     0
 40
0.0
  0
LTYPE
  5
16
330
5
100
AcDbSymbolTableRecord
100
AcDbLinetypeTableRecord
  2
CONTINUOUS
 70
     0
  3
Solid line
 72
    65
 73
     0
 40
0.0
  0
LTYPE
  5
1956
330
5
100
AcDbSymbolTableRecord
100
AcDbLinetypeTableRecord
  2
CENTERX2
 70
     0
  3
________  __  ________  __  ________  __  _____
 72
    65
 73
     4
 40
4.0
 49
2.5
 74
     0
 49
-0.5
 74
     0
 49
0.5
 74
     0
 49
-0.5
 74
     0
  0
LTYPE
  5
1958
330
5
100
AcDbSymbolTableRecord
100
AcDbLinetypeTableRecord
  2
PHANTOMX2
 70
     0
  3
____________    ____    ____    ____________   
 72
    65
 73
     6
 40
5.0
 49
2.5
 74
     0
 49
-0.5
 74
     0
 49
0.5
 74
     0
 49
-0.5
 74
     0
 49
0.5
 74
     0
 49
-0.5
 74
     0
  0
ENDTAB
  0
TABLE
  2
LAYER
  5
2
102
{ACAD_XDICTIONARY
360
14053
102
}
330
0
100
AcDbSymbolTable
 70
     6
  0
LAYER
  5
F
330
2
100
AcDbSymbolTableRecord
100
AcDbLayerTableRecord
  2
0
 70
     0
 62
     7
  6
CONTINUOUS
  0
LAYER
  5
18F
330
2
100
AcDbSymbolTableRecord
100
AcDbLayerTableRecord
  2
ZISSEN1
 70
     0
 62
     7
  6
CONTINUOUS
  0
LAYER
  5
529
330
2
100
AcDbSymbolTableRecord
100
AcDbLayerTableRecord
  2
SUNPOU
 70
     0
 62
     1
  6
CONTINUOUS
  0
LAYER
  5
195A
330
2
100
AcDbSymbolTableRecord
100
AcDbLayerTableRecord
  2
CL1
 70
     0
 62
   210
  6
CENTERX2
  0
LAYER
  5
195C
330
2
100
AcDbSymbolTableRecord
100
AcDbLayerTableRecord
  2
SOUZOUSEN
 70
     0
 62
     5
  6
PHANTOMX2
  0
LAYER
  5
3A9B
330
2
100
AcDbSymbolTableRecord
100
AcDbLayerTableRecord
  2
DEFPOINTS
 70
     0
 62
     7
  6
CONTINUOUS
  0
ENDTAB
  0
TABLE
  2
STYLE
  5
3
330
0
100
AcDbSymbolTable
 70
     2
  0
STYLE
  5
10
330
3
100
AcDbSymbolTableRecord
100
AcDbTextStyleTableRecord
  2
STANDARD
 70
     0
 40
0.0
 41
1.0
 50
0.0
 71
     0
 42
3.0
  3
txt
  4
BigFont
  0
STYLE
  5
1960
330
3
100
AcDbSymbolTableRecord
100
AcDbTextStyleTableRecord
  2
ゴシック体
 70
     0
 40
0.0
 41
1.0
 50
0.0
 71
     0
 42
2.5
  3
MS Gothic.ttf
  4

1001
ACAD
1000
MS Gothic
1071
    32817
  0
ENDTAB
  0
TABLE
  2
VIEW
  5
6
330
0
100
AcDbSymbolTable
 70
     0
  0
ENDTAB
  0
TABLE
  2
UCS
  5
7
330
0
100
AcDbSymbolTable
 70
     0
  0
ENDTAB
  0
TABLE
  2
APPID
  5
9
330
0
100
AcDbSymbolTable
 70
     5
  0
APPID
  5
11
330
9
100
AcDbSymbolTableRecord
100
AcDbRegAppTableRecord
  2
ACAD
 70
     0
  0
APPID
  5
4005
330
9
100
AcDbSymbolTableRecord
100
AcDbRegAppTableRecord
  2
CONTENTTABDATA
 70
     0
  0
APPID
  5
4006
330
9
100
AcDbSymbolTableRecord
100
AcDbRegAppTableRecord
  2
CONTENTCURRENTTAB
 70
     0
  0
APPID
  5
477B
330
9
100
AcDbSymbolTableRecord
100
AcDbRegAppTableRecord
  2
CONTENTBLOCKDESCRIPTION
 70
     0
  0
APPID
  5
477C
330
9
100
AcDbSymbolTableRecord
100
AcDbRegAppTableRecord
  2
CONTENTBLOCKICON
 70
     0
  0
ENDTAB
  0
TABLE
  2
DIMSTYLE
  5
A
330
0
100
AcDbSymbolTable
 70
     2
  0
DIMSTYLE
105
1D
330
A
100
AcDbSymbolTableRecord
100
AcDbDimStyleTableRecord
  2
STANDARD
 70
     0
  3

  4

  5

  6

  7

 40
1.0
 41
0.18
 42
0.0625
 43
0.38
 44
0.18
 45
0.0
 46
0.0
 47
0.0
 48
0.0
140
0.18
141
0.09
142
0.0
143
25.4
144
1.0
145
0.0
146
1.0
147
0.09
 71
     0
 72
     0
 73
     1
 74
     1
 75
     0
 76
     0
 77
     0
 78
     0
170
     0
171
     2
172
     0
173
     0
174
     0
175
     0
176
     0
177
     0
178
     0
270
     2
271
     4
272
     4
273
     2
274
     2
340
10
275
     0
280
     0
281
     0
282
     0
283
     1
284
     0
285
     0
286
     0
287
     3
288
     0
  0
DIMSTYLE
105
52E
102
{ACAD_REACTORS
330
1AB96
330
1ABA5
330
1ABB2
330
1AB50
330
1ABF7
330
1AC04
330
1ABE8
330
1AB80
330
1AB3A
330
1AB66
102
}
330
A
100
AcDbSymbolTableRecord
100
AcDbDimStyleTableRecord
  2
標準スタイル
 70
     0
  3

  4

  5

  6

  7

 40
0.0
 41
3.0
 42
0.5
 43
0.5
 44
0.5
 45
0.0
 46
0.0
 47
0.0
 48
0.0
140
3.5
141
0.0
142
0.0
143
25.4
144
1.0
145
0.0
146
1.0
147
1.0
 71
     0
 72
     0
 73
     0
 74
     0
 75
     0
 76
     0
 77
     1
 78
     8
170
     0
171
     2
172
     1
173
     0
174
     0
175
     0
176
     1
177
     1
178
     1
270
     2
271
     2
272
     2
273
     2
274
     2
340
1960
275
     0
280
     0
281
     0
282
     0
283
     1
284
     8
285
     0
286
     0
287
     3
288
     0
  0
ENDTAB
  0
TABLE
  2
BLOCK_RECORD
  5
1
330
0
100
AcDbSymbolTable
 70
    10
  0
BLOCK_RECORD
  5
1A
102
{ACAD_XDICTIONARY
360
1A073
102
}
330
1
100
AcDbSymbolTableRecord
100
AcDbBlockTableRecord
  2
*MODEL_SPACE
  0
BLOCK_RECORD
  5
5D8E
102
{ACAD_XDICTIONARY
360
1A075
102
}
330
1
100
AcDbSymbolTableRecord
100
AcDbBlockTableRecord
  2
*PAPER_SPACE
  0
BLOCK_RECORD
  5
1AB3B
330
1
100
AcDbSymbolTableRecord
100
AcDbBlockTableRecord
  2
*D0
  0
BLOCK_RECORD
  5
1AB51
330
1
100
AcDbSymbolTableRecord
100
AcDbBlockTableRecord
  2
*D1
  0
BLOCK_RECORD
  5
1AB67
330
1
100
AcDbSymbolTableRecord
100
AcDbBlockTableRecord
  2
*D2
  0
BLOCK_RECORD
  5
1AB81
330
1
100
AcDbSymbolTableRecord
100
AcDbBlockTableRecord
  2
*D3
  0
BLOCK_RECORD
  5
1AB97
330
1
100
AcDbSymbolTableRecord
100
AcDbBlockTableRecord
  2
*D4
  0
BLOCK_RECORD
  5
1ABA6
330
1
100
AcDbSymbolTableRecord
100
AcDbBlockTableRecord
  2
*D5
  0
BLOCK_RECORD
  5
1ABB3
330
1
100
AcDbSymbolTableRecord
100
AcDbBlockTableRecord
  2
*D6
  0
BLOCK_RECORD
  5
1ABE9
330
1
100
AcDbSymbolTableRecord
100
AcDbBlockTableRecord
  2
*D7
  0
BLOCK_RECORD
  5
1ABF8
330
1
100
AcDbSymbolTableRecord
100
AcDbBlockTableRecord
  2
*D8
  0
BLOCK_RECORD
  5
1AC05
330
1
100
AcDbSymbolTableRecord
100
AcDbBlockTableRecord
  2
*D9
  0
ENDTAB
  0
ENDSEC
  0
SECTION
  2
BLOCKS
  0
BLOCK
  5
1B
330
1A
100
AcDbEntity
  8
0
100
AcDbBlockBegin
  2
*MODEL_SPACE
 70
     0
 10
0.0
 20
0.0
 30
0.0
  3
*MODEL_SPACE
  1

  0
ENDBLK
  5
1C
330
1A
100
AcDbEntity
  8
0
100
AcDbBlockEnd
  0
BLOCK
  5
5E60
330
5D8E
100
AcDbEntity
 67
     1
  8
0
100
AcDbBlockBegin
  2
*PAPER_SPACE
 70
     0
 10
0.0
 20
0.0
 30
0.0
  3
*PAPER_SPACE
  1

  0
ENDBLK
  5
5E61
330
5D8E
100
AcDbEntity
 67
     1
  8
0
100
AcDbBlockEnd
  0
BLOCK
  5
1AB45
330
1AB3B
100
AcDbEntity
  8
0
100
AcDbBlockBegin
  2
*D0
 70
     1
 10
0.0
 20
0.0
 30
0.0
  3
*D0
  1

  0
LINE
  5
1AC85
330
1AB3B
100
AcDbEntity
  8
SUNPOU
 62
     1
100
AcDbLine
 10
-613.2210088984599
 20
1510.420993269051
 30
0.0
 11
-613.2210088984599
 21
1493.997894822056
 31
0.0
  0
LINE
  5
1AC86
330
1AB3B
100
AcDbEntity
  8
SUNPOU
 62
     1
100
AcDbLine
 10
-543.2210088984609
 20
1510.920993269049
 30
0.0
 11
-543.2210088984609
 21
1493.997894822056
 31
0.0
  0
LINE
  5
1AC87
330
1AB3B
100
AcDbEntity
  8
SUNPOU
 62
     1
100
AcDbLine
 10
-610.22100889846
 20
1494.497894822057
 30
0.0
 11
-546.2210088984609
 21
1494.497894822057
 31
0.0
  0
SOLID
  5
1AC88
330
1AB3B
100
AcDbEntity
  8
SUNPOU
 62
     1
100
AcDbTrace
 10
-610.22100889846
 20
1494.997894822057
 30
0.0
 11
-610.22100889846
 21
1493.997894822056
 31
0.0
 12
-613.2210088984599
 22
1494.497894822057
 32
0.0
 13
-613.2210088984599
 23
1494.497894822057
 33
0.0
  0
SOLID
  5
1AC89
330
1AB3B
100
AcDbEntity
  8
SUNPOU
 62
     1
100
AcDbTrace
 10
-546.2210088984609
 20
1494.997894822057
 30
0.0
 11
-546.2210088984609
 21
1493.997894822056
 31
0.0
 12
-543.2210088984609
 22
1494.497894822057
 32
0.0
 13
-543.2210088984609
 23
1494.497894822057
 33
0.0
  0
MTEXT
  5
1AC8A
330
1AB3B
100
AcDbEntity
  8
SUNPOU
 62
     1
100
AcDbMText
 10
-578.2210088984604
 20
1497.247894822057
 30
0.0
 40
3.5
 41
0.0
 71
     5
 72
     1
  1
\A1;70
1001
ACAD
1000
MTEXTBEGIN
1070
    73
1070
     1
1070
    44
1040
1.0
1070
    74
1070
     0
1000
MTEXTEND
  0
POINT
  5
1AC8B
330
1AB3B
100
AcDbEntity
  8
DEFPOINTS
 62
     0
100
AcDbPoint
 10
-613.2210088984599
 20
1510.920993269051
 30
0.0
  0
POINT
  5
1AC8C
330
1AB3B
100
AcDbEntity
  8
DEFPOINTS
 62
     0
100
AcDbPoint
 10
-543.2210088984609
 20
1511.420993269049
 30
0.0
  0
POINT
  5
1AC8D
330
1AB3B
100
AcDbEntity
  8
DEFPOINTS
 62
     0
100
AcDbPoint
 10
-543.2210088984609
 20
1494.497894822057
 30
0.0
  0
ENDBLK
  5
1AB46
330
1AB3B
100
AcDbEntity
  8
0
100
AcDbBlockEnd
  0
BLOCK
  5
1AB5B
330
1AB51
100
AcDbEntity
  8
0
100
AcDbBlockBegin
  2
*D1
 70
     1
 10
0.0
 20
0.0
 30
0.0
  3
*D1
  1

  0
LINE
  5
1ACB6
330
1AB51
100
AcDbEntity
  8
SUNPOU
 62
     1
100
AcDbLine
 10
-564.7210088984609
 20
1507.920993269049
 30
0.0
 11
-530.6927366149322
 21
1507.920993269049
 31
0.0
  0
LINE
  5
1ACB7
330
1AB51
100
AcDbEntity
  8
SUNPOU
 62
     1
100
AcDbLine
 10
-542.7210768142993
 20
1532.820993269049
 30
0.0
 11
-530.6927366149322
 21
1532.820993269049
 31
0.0
  0
LINE
  5
1ACB8
330
1AB51
100
AcDbEntity
  8
SUNPOU
 62
     1
100
AcDbLine
 10
-531.1927366149322
 20
1510.920993269049
 30
0.0
 11
-531.1927366149322
 21
1529.820993269049
 31
0.0
  0
SOLID
  5
1ACB9
330
1AB51
100
AcDbEntity
  8
SUNPOU
 62
     1
100
AcDbTrace
 10
-531.6927366149322
 20
1510.920993269049
 30
0.0
 11
-530.6927366149322
 21
1510.920993269049
 31
0.0
 12
-531.1927366149322
 22
1507.920993269049
 32
0.0
 13
-531.1927366149322
 23
1507.920993269049
 33
0.0
  0
SOLID
  5
1ACBA
330
1AB51
100
AcDbEntity
  8
SUNPOU
 62
     1
100
AcDbTrace
 10
-531.6927366149322
 20
1529.820993269049
 30
0.0
 11
-530.6927366149322
 21
1529.820993269049
 31
0.0
 12
-531.1927366149322
 22
1532.820993269049
 32
0.0
 13
-531.1927366149322
 23
1532.820993269049
 33
0.0
  0
MTEXT
  5
1ACBB
330
1AB51
100
AcDbEntity
  8
SUNPOU
 62
     1
100
AcDbMText
 10
-533.9427366149323
 20
1520.370993269049
 30
0.0
 40
3.5
 41
0.0
 71
     5
 72
     1
  1
\A1;24.9
 11
0.0000000000000001
 21
1.0
 31
0.0
1001
ACAD
1000
MTEXTBEGIN
1070
    73
1070
     1
1070
    44
1040
1.0
1070
    74
1070
     0
1000
MTEXTEND
  0
POINT
  5
1ACBC
330
1AB51
100
AcDbEntity
  8
DEFPOINTS
 62
     0
100
AcDbPoint
 10
-565.2210088984609
 20
1507.920993269049
 30
0.0
  0
POINT
  5
1ACBD
330
1AB51
100
AcDbEntity
  8
DEFPOINTS
 62
     0
100
AcDbPoint
 10
-543.2210768142993
 20
1532.820993269049
 30
0.0
  0
POINT
  5
1ACBE
330
1AB51
100
AcDbEntity
  8
DEFPOINTS
 62
     0
100
AcDbPoint
 10
-531.1927366149322
 20
1532.820993269049
 30
0.0
  0
ENDBLK
  5
1AB5C
330
1AB51
100
AcDbEntity
  8
0
100
AcDbBlockEnd
  0
BLOCK
  5
1AB73
330
1AB67
100
AcDbEntity
  8
0
100
AcDbBlockBegin
  2
*D2
 70
     1
 10
0.0
 20
0.0
 30
0.0
  3
*D2
  1

  0
LINE
  5
1AC7A
330
1AB67
100
AcDbEntity
  8
SUNPOU
 62
     1
100
AcDbLine
 10
-613.221008898459
 20
1536.420993269049
 30
0.0
 11
-613.221008898459
 21
1543.294875111216
 31
0.0
  0
LINE
  5
1AC7B
330
1AB67
100
AcDbEntity
  8
SUNPOU
 62
     1
100
AcDbLine
 10
-610.2210088984591
 20
1536.420993269049
 30
0.0
 11
-610.2210088984591
 21
1543.294875111216
 31
0.0
  0
LINE
  5
1AC7C
330
1AB67
100
AcDbEntity
  8
SUNPOU
 62
     1
100
AcDbLine
 10
-616.2210088984591
 20
1542.794875111216
 30
0.0
 11
-619.2210088984591
 21
1542.794875111216
 31
0.0
  0
LINE
  5
1AC7D
330
1AB67
100
AcDbEntity
  8
SUNPOU
 62
     1
100
AcDbLine
 10
-607.2210088984591
 20
1542.794875111216
 30
0.0
 11
-599.8876755651257
 21
1542.794875111216
 31
0.0
  0
LINE
  5
1AC7E
330
1AB67
100
AcDbEntity
  8
SUNPOU
 62
     1
100
AcDbLine
 10
-613.221008898459
 20
1542.794875111216
 30
0.0
 11
-610.2210088984591
 21
1542.794875111216
 31
0.0
  0
SOLID
  5
1AC7F
330
1AB67
100
AcDbEntity
  8
SUNPOU
 62
     1
100
AcDbTrace
 10
-616.2210088984591
 20
1543.294875111216
 30
0.0
 11
-616.2210088984591
 21
1542.294875111216
 31
0.0
 12
-613.221008898459
 22
1542.794875111216
 32
0.0
 13
-613.221008898459
 23
1542.794875111216
 33
0.0
  0
SOLID
  5
1AC80
330
1AB67
100
AcDbEntity
  8
SUNPOU
 62
     1
100
AcDbTrace
 10
-607.2210088984591
 20
1543.294875111216
 30
0.0
 11
-607.2210088984591
 21
1542.294875111216
 31
0.0
 12
-610.2210088984591
 22
1542.794875111216
 32
0.0
 13
-610.2210088984591
 23
1542.794875111216
 33
0.0
  0
MTEXT
  5
1AC81
330
1AB67
100
AcDbEntity
  8
SUNPOU
 62
     1
100
AcDbMText
 10
-602.0543422317924
 20
1545.544875111216
 30
0.0
 40
3.5
 41
0.0
 71
     5
 72
     1
  1
\A1;3
1001
ACAD
1000
MTEXTBEGIN
1070
    73
1070
     1
1070
    44
1040
1.0
1070
    74
1070
     0
1000
MTEXTEND
  0
POINT
  5
1AC82
330
1AB67
100
AcDbEntity
  8
DEFPOINTS
 62
     0
100
AcDbPoint
 10
-613.221008898459
 20
1535.920993269049
 30
0.0
  0
POINT
  5
1AC83
330
1AB67
100
AcDbEntity
  8
DEFPOINTS
 62
     0
100
AcDbPoint
 10
-610.2210088984591
 20
1535.920993269049
 30
0.0
  0
POINT
  5
1AC84
330
1AB67
100
AcDbEntity
  8
DEFPOINTS
 62
     0
100
AcDbPoint
 10
-610.2210088984591
 20
1542.794875111216
 30
0.0
  0
ENDBLK
  5
1AB74
330
1AB67
100
AcDbEntity
  8
0
100
AcDbBlockEnd
  0
BLOCK
  5
1AB8B
330
1AB81
100
AcDbEntity
  8
0
100
AcDbBlockBegin
  2
*D3
 70
     1
 10
0.0
 20
0.0
 30
0.0
  3
*D3
  1

  0
LINE
  5
1AC8E
330
1AB81
100
AcDbEntity
  8
SUNPOU
 62
     1
100
AcDbLine
 10
-613.7210088984597
 20
1564.120993269048
 30
0.0
 11
-627.8996664178951
 21
1564.120993269048
 31
0.0
  0
LINE
  5
1AC8F
330
1AB81
100
AcDbEntity
  8
SUNPOU
 62
     1
100
AcDbLine
 10
-613.7210088984597
 20
1634.120993269047
 30
0.0
 11
-627.8996664178951
 21
1634.120993269047
 31
0.0
  0
LINE
  5
1AC90
330
1AB81
100
AcDbEntity
  8
SUNPOU
 62
     1
100
AcDbLine
 10
-627.3996664178951
 20
1567.120993269047
 30
0.0
 11
-627.3996664178951
 21
1631.120993269047
 31
0.0
  0
SOLID
  5
1AC91
330
1AB81
100
AcDbEntity
  8
SUNPOU
 62
     1
100
AcDbTrace
 10
-627.8996664178951
 20
1567.120993269047
 30
0.0
 11
-626.8996664178951
 21
1567.120993269047
 31
0.0
 12
-627.3996664178951
 22
1564.120993269048
 32
0.0
 13
-627.3996664178951
 23
1564.120993269048
 33
0.0
  0
SOLID
  5
1AC92
330
1AB81
100
AcDbEntity
  8
SUNPOU
 62
     1
100
AcDbTrace
 10
-627.8996664178951
 20
1631.120993269047
 30
0.0
 11
-626.8996664178951
 21
1631.120993269047
 31
0.0
 12
-627.3996664178951
 22
1634.120993269047
 32
0.0
 13
-627.3996664178951
 23
1634.120993269047
 33
0.0
  0
MTEXT
  5
1AC93
330
1AB81
100
AcDbEntity
  8
SUNPOU
 62
     1
100
AcDbMText
 10
-630.1496664178953
 20
1599.120993269047
 30
0.0
 40
3.5
 41
0.0
 71
     5
 72
     1
  1
\A1;70
 11
0.0000000000000001
 21
1.0
 31
0.0
1001
ACAD
1000
MTEXTBEGIN
1070
    73
1070
     1
1070
    44
1040
1.0
1070
    74
1070
     0
1000
MTEXTEND
  0
POINT
  5
1AC94
330
1AB81
100
AcDbEntity
  8
DEFPOINTS
 62
     0
100
AcDbPoint
 10
-613.2210088984598
 20
1564.120993269048
 30
0.0
  0
POINT
  5
1AC95
330
1AB81
100
AcDbEntity
  8
DEFPOINTS
 62
     0
100
AcDbPoint
 10
-613.2210088984598
 20
1634.120993269047
 30
0.0
  0
POINT
  5
1AC96
330
1AB81
100
AcDbEntity
  8
DEFPOINTS
 62
     0
100
AcDbPoint
 10
-627.3996664178951
 20
1634.120993269047
 30
0.0
  0
ENDBLK
  5
1AB8C
330
1AB81
100
AcDbEntity
  8
0
100
AcDbBlockEnd
  0
BLOCK
  5
1ABA3
330
1AB97
100
AcDbEntity
  8
0
100
AcDbBlockBegin
  2
*D4
 70
     1
 10
0.0
 20
0.0
 30
0.0
  3
*D4
  1

  0
LINE
  5
1ACD1
330
1AB97
100
AcDbEntity
  8
SUNPOU
 62
     1
100
AcDbLine
 10
-498.4710088984589
 20
1634.620993269049
 30
0.0
 11
-498.4710088984589
 21
1643.766337629053
 31
0.0
  0
LINE
  5
1ACD2
330
1AB97
100
AcDbEntity
  8
SUNPOU
 62
     1
100
AcDbLine
 10
-494.9710088984589
 20
1634.620993269049
 30
0.0
 11
-494.9710088984589
 21
1643.766337629053
 31
0.0
  0
LINE
  5
1ACD3
330
1AB97
100
AcDbEntity
  8
SUNPOU
 62
     1
100
AcDbLine
 10
-501.4710088984588
 20
1643.266337629053
 30
0.0
 11
-504.4710088984588
 21
1643.266337629053
 31
0.0
  0
LINE
  5
1ACD4
330
1AB97
100
AcDbEntity
  8
SUNPOU
 62
     1
100
AcDbLine
 10
-491.9710088984588
 20
1643.266337629053
 30
0.0
 11
-479.9710088984588
 21
1643.266337629053
 31
0.0
  0
LINE
  5
1ACD5
330
1AB97
100
AcDbEntity
  8
SUNPOU
 62
     1
100
AcDbLine
 10
-498.4710088984589
 20
1643.266337629053
 30
0.0
 11
-494.9710088984589
 21
1643.266337629053
 31
0.0
  0
SOLID
  5
1ACD6
330
1AB97
100
AcDbEntity
  8
SUNPOU
 62
     1
100
AcDbTrace
 10
-501.4710088984588
 20
1643.766337629053
 30
0.0
 11
-501.4710088984588
 21
1642.766337629053
 31
0.0
 12
-498.4710088984589
 22
1643.266337629053
 32
0.0
 13
-498.4710088984589
 23
1643.266337629053
 33
0.0
  0
SOLID
  5
1ACD7
330
1AB97
100
AcDbEntity
  8
SUNPOU
 62
     1
100
AcDbTrace
 10
-491.9710088984588
 20
1643.766337629053
 30
0.0
 11
-491.9710088984588
 21
1642.766337629053
 31
0.0
 12
-494.9710088984589
 22
1643.266337629053
 32
0.0
 13
-494.9710088984589
 23
1643.266337629053
 33
0.0
  0
MTEXT
  5
1ACD8
330
1AB97
100
AcDbEntity
  8
SUNPOU
 62
     1
100
AcDbMText
 10
-484.4710088984588
 20
1646.016337629053
 30
0.0
 40
3.5
 41
0.0
 71
     5
 72
     1
  1
\A1;3.5
1001
ACAD
1000
MTEXTBEGIN
1070
    73
1070
     1
1070
    44
1040
1.0
1070
    74
1070
     0
1000
MTEXTEND
  0
POINT
  5
1ACD9
330
1AB97
100
AcDbEntity
  8
DEFPOINTS
 62
     0
100
AcDbPoint
 10
-498.4710088984589
 20
1634.120993269049
 30
0.0
  0
POINT
  5
1ACDA
330
1AB97
100
AcDbEntity
  8
DEFPOINTS
 62
     0
100
AcDbPoint
 10
-494.9710088984589
 20
1634.120993269049
 30
0.0
  0
POINT
  5
1ACDB
330
1AB97
100
AcDbEntity
  8
DEFPOINTS
 62
     0
100
AcDbPoint
 10
-494.9710088984589
 20
1643.266337629053
 30
0.0
  0
ENDBLK
  5
1ABA4
330
1AB97
100
AcDbEntity
  8
0
100
AcDbBlockEnd
  0
BLOCK
  5
1ABB0
330
1ABA6
100
AcDbEntity
  8
0
100
AcDbBlockBegin
  2
*D5
 70
     1
 10
0.0
 20
0.0
 30
0.0
  3
*D5
  1

  0
LINE
  5
1ACC8
330
1ABA6
100
AcDbEntity
  8
SUNPOU
 62
     1
100
AcDbLine
 10
-481.2210088984588
 20
1563.620993269049
 30
0.0
 11
-481.2210088984588
 21
1552.988230285786
 31
0.0
  0
LINE
  5
1ACC9
330
1ABA6
100
AcDbEntity
  8
SUNPOU
 62
     1
100
AcDbLine
 10
-496.7210088984589
 20
1566.120993269048
 30
0.0
 11
-496.7210088984589
 21
1552.988230285786
 31
0.0
  0
LINE
  5
1ACCA
330
1ABA6
100
AcDbEntity
  8
SUNPOU
 62
     1
100
AcDbLine
 10
-484.2210088984589
 20
1553.488230285786
 30
0.0
 11
-493.7210088984588
 21
1553.488230285786
 31
0.0
  0
SOLID
  5
1ACCB
330
1ABA6
100
AcDbEntity
  8
SUNPOU
 62
     1
100
AcDbTrace
 10
-484.2210088984589
 20
1553.988230285786
 30
0.0
 11
-484.2210088984589
 21
1552.988230285786
 31
0.0
 12
-481.2210088984588
 22
1553.488230285786
 32
0.0
 13
-481.2210088984588
 23
1553.488230285786
 33
0.0
  0
SOLID
  5
1ACCC
330
1ABA6
100
AcDbEntity
  8
SUNPOU
 62
     1
100
AcDbTrace
 10
-493.7210088984588
 20
1553.988230285786
 30
0.0
 11
-493.7210088984588
 21
1552.988230285786
 31
0.0
 12
-496.7210088984589
 22
1553.488230285786
 32
0.0
 13
-496.7210088984589
 23
1553.488230285786
 33
0.0
  0
MTEXT
  5
1ACCD
330
1ABA6
100
AcDbEntity
  8
SUNPOU
 62
     1
100
AcDbMText
 10
-488.9710088984588
 20
1556.238230285786
 30
0.0
 40
3.5
 41
0.0
 71
     5
 72
     1
  1
\A1;15.5
1001
ACAD
1000
MTEXTBEGIN
1070
    73
1070
     1
1070
    44
1040
1.0
1070
    74
1070
     0
1000
MTEXTEND
  0
POINT
  5
1ACCE
330
1ABA6
100
AcDbEntity
  8
DEFPOINTS
 62
     0
100
AcDbPoint
 10
-481.2210088984588
 20
1564.120993269049
 30
0.0
  0
POINT
  5
1ACCF
330
1ABA6
100
AcDbEntity
  8
DEFPOINTS
 62
     0
100
AcDbPoint
 10
-496.7210088984589
 20
1566.620993269049
 30
0.0
  0
POINT
  5
1ACD0
330
1ABA6
100
AcDbEntity
  8
DEFPOINTS
 62
     0
100
AcDbPoint
 10
-496.7210088984589
 20
1553.488230285786
 30
0.0
  0
ENDBLK
  5
1ABB1
330
1ABA6
100
AcDbEntity
  8
0
100
AcDbBlockEnd
  0
BLOCK
  5
1ABBD
330
1ABB3
100
AcDbEntity
  8
0
100
AcDbBlockBegin
  2
*D6
 70
     1
 10
0.0
 20
0.0
 30
0.0
  3
*D6
  1

  0
LINE
  5
1ACBF
330
1ABB3
100
AcDbEntity
  8
SUNPOU
 62
     1
100
AcDbLine
 10
-481.2210088984588
 20
1563.120993269049
 30
0.0
 11
-481.2210088984588
 21
1541.397284924681
 31
0.0
  0
LINE
  5
1ACC0
330
1ABB3
100
AcDbEntity
  8
SUNPOU
 62
     1
100
AcDbLine
 10
-509.2210088984589
 20
1564.620993269049
 30
0.0
 11
-509.2210088984589
 21
1541.397284924681
 31
0.0
  0
LINE
  5
1ACC1
330
1ABB3
100
AcDbEntity
  8
SUNPOU
 62
     1
100
AcDbLine
 10
-484.2210088984589
 20
1541.897284924681
 30
0.0
 11
-506.2210088984588
 21
1541.897284924681
 31
0.0
  0
SOLID
  5
1ACC2
330
1ABB3
100
AcDbEntity
  8
SUNPOU
 62
     1
100
AcDbTrace
 10
-484.2210088984589
 20
1542.397284924681
 30
0.0
 11
-484.2210088984589
 21
1541.397284924681
 31
0.0
 12
-481.2210088984588
 22
1541.897284924681
 32
0.0
 13
-481.2210088984588
 23
1541.897284924681
 33
0.0
  0
SOLID
  5
1ACC3
330
1ABB3
100
AcDbEntity
  8
SUNPOU
 62
     1
100
AcDbTrace
 10
-506.2210088984588
 20
1542.397284924681
 30
0.0
 11
-506.2210088984588
 21
1541.397284924681
 31
0.0
 12
-509.2210088984589
 22
1541.897284924681
 32
0.0
 13
-509.2210088984589
 23
1541.897284924681
 33
0.0
  0
MTEXT
  5
1ACC4
330
1ABB3
100
AcDbEntity
  8
SUNPOU
 62
     1
100
AcDbMText
 10
-495.2210088984588
 20
1544.647284924681
 30
0.0
 40
3.5
 41
0.0
 71
     5
 72
     1
  1
\A1;28
1001
ACAD
1000
MTEXTBEGIN
1070
    73
1070
     1
1070
    44
1040
1.0
1070
    74
1070
     0
1000
MTEXTEND
  0
POINT
  5
1ACC5
330
1ABB3
100
AcDbEntity
  8
DEFPOINTS
 62
     0
100
AcDbPoint
 10
-481.2210088984588
 20
1563.620993269049
 30
0.0
  0
POINT
  5
1ACC6
330
1ABB3
100
AcDbEntity
  8
DEFPOINTS
 62
     0
100
AcDbPoint
 10
-509.2210088984589
 20
1565.120993269049
 30
0.0
  0
POINT
  5
1ACC7
330
1ABB3
100
AcDbEntity
  8
DEFPOINTS
 62
     0
100
AcDbPoint
 10
-509.2210088984589
 20
1541.897284924681
 30
0.0
  0
ENDBLK
  5
1ABBE
330
1ABB3
100
AcDbEntity
  8
0
100
AcDbBlockEnd
  0
BLOCK
  5
1ABF5
330
1ABE9
100
AcDbEntity
  8
0
100
AcDbBlockBegin
  2
*D7
 70
     1
 10
0.0
 20
0.0
 30
0.0
  3
*D7
  1

  0
LINE
  5
1AC97
330
1ABE9
100
AcDbEntity
  8
SUNPOU
 62
     1
100
AcDbLine
 10
-508.7210088984589
 20
1634.120993269049
 30
0.0
 11
-520.0240875664084
 21
1634.12099326905
 31
0.0
  0
LINE
  5
1AC98
330
1ABE9
100
AcDbEntity
  8
SUNPOU
 62
     1
100
AcDbLine
 10
-500.3342729090735
 20
1631.620993269049
 30
0.0
 11
-520.0240875664084
 21
1631.620993269049
 31
0.0
  0
LINE
  5
1AC99
330
1ABE9
100
AcDbEntity
  8
SUNPOU
 62
     1
100
AcDbLine
 10
-519.5240875664084
 20
1628.620993269049
 30
0.0
 11
-519.5240875664084
 21
1625.620993269049
 31
0.0
  0
LINE
  5
1AC9A
330
1ABE9
100
AcDbEntity
  8
SUNPOU
 62
     1
100
AcDbLine
 10
-519.5240875664084
 20
1637.120993269049
 30
0.0
 11
-519.5240875664084
 21
1649.12099326905
 31
0.0
  0
LINE
  5
1AC9B
330
1ABE9
100
AcDbEntity
  8
SUNPOU
 62
     1
100
AcDbLine
 10
-519.5240875664084
 20
1631.620993269049
 30
0.0
 11
-519.5240875664084
 21
1634.12099326905
 31
0.0
  0
SOLID
  5
1AC9C
330
1ABE9
100
AcDbEntity
  8
SUNPOU
 62
     1
100
AcDbTrace
 10
-520.0240875664084
 20
1628.620993269049
 30
0.0
 11
-519.0240875664084
 21
1628.620993269049
 31
0.0
 12
-519.5240875664084
 22
1631.620993269049
 32
0.0
 13
-519.5240875664084
 23
1631.620993269049
 33
0.0
  0
SOLID
  5
1AC9D
330
1ABE9
100
AcDbEntity
  8
SUNPOU
 62
     1
100
AcDbTrace
 10
-520.0240875664084
 20
1637.120993269049
 30
0.0
 11
-519.0240875664084
 21
1637.120993269049
 31
0.0
 12
-519.5240875664084
 22
1634.12099326905
 32
0.0
 13
-519.5240875664084
 23
1634.12099326905
 33
0.0
  0
MTEXT
  5
1AC9E
330
1ABE9
100
AcDbEntity
  8
SUNPOU
 62
     1
100
AcDbMText
 10
-522.2740875664086
 20
1644.620993269049
 30
0.0
 40
3.5
 41
0.0
 71
     5
 72
     1
  1
\A1;2.5
 11
0.0000000000000001
 21
1.0
 31
0.0
1001
ACAD
1000
MTEXTBEGIN
1070
    73
1070
     1
1070
    44
1040
1.0
1070
    74
1070
     0
1000
MTEXTEND
  0
POINT
  5
1AC9F
330
1ABE9
100
AcDbEntity
  8
DEFPOINTS
 62
     0
100
AcDbPoint
 10
-508.2210088984588
 20
1634.120993269049
 30
0.0
  0
POINT
  5
1ACA0
330
1ABE9
100
AcDbEntity
  8
DEFPOINTS
 62
     0
100
AcDbPoint
 10
-499.8342729090735
 20
1631.620993269049
 30
0.0
  0
POINT
  5
1ACA1
330
1ABE9
100
AcDbEntity
  8
DEFPOINTS
 62
     0
100
AcDbPoint
 10
-519.5240875664084
 20
1631.620993269049
 30
0.0
  0
ENDBLK
  5
1ABF6
330
1ABE9
100
AcDbEntity
  8
0
100
AcDbBlockEnd
  0
BLOCK
  5
1AC02
330
1ABF8
100
AcDbEntity
  8
0
100
AcDbBlockBegin
  2
*D8
 70
     1
 10
0.0
 20
0.0
 30
0.0
  3
*D8
  1

  0
LINE
  5
1AD08
330
1ABF8
100
AcDbEntity
  8
SUNPOU
 62
     1
100
AcDbLine
 10
-500.3342729090735
 20
1631.620993269049
 30
0.0
 11
-520.0270714944598
 21
1631.620993269049
 31
0.0
  0
LINE
  5
1AD09
330
1ABF8
100
AcDbEntity
  8
SUNPOU
 62
     1
100
AcDbLine
 10
-500.3342729090735
 20
1566.620993269049
 30
0.0
 11
-520.0270714944598
 21
1566.620993269049
 31
0.0
  0
LINE
  5
1AD0A
330
1ABF8
100
AcDbEntity
  8
SUNPOU
 62
     1
100
AcDbLine
 10
-519.5270714944598
 20
1628.620993269049
 30
0.0
 11
-519.5270714944598
 21
1569.620993269049
 31
0.0
  0
SOLID
  5
1AD0B
330
1ABF8
100
AcDbEntity
  8
SUNPOU
 62
     1
100
AcDbTrace
 10
-520.0270714944598
 20
1628.620993269049
 30
0.0
 11
-519.0270714944598
 21
1628.620993269049
 31
0.0
 12
-519.5270714944598
 22
1631.620993269049
 32
0.0
 13
-519.5270714944598
 23
1631.620993269049
 33
0.0
  0
SOLID
  5
1AD0C
330
1ABF8
100
AcDbEntity
  8
SUNPOU
 62
     1
100
AcDbTrace
 10
-520.0270714944598
 20
1569.620993269049
 30
0.0
 11
-519.0270714944598
 21
1569.620993269049
 31
0.0
 12
-519.5270714944598
 22
1566.620993269049
 32
0.0
 13
-519.5270714944598
 23
1566.620993269049
 33
0.0
  0
MTEXT
  5
1AD0D
330
1ABF8
100
AcDbEntity
  8
SUNPOU
 62
     1
100
AcDbMText
 10
-522.27707149446
 20
1599.120993269049
 30
0.0
 40
3.5
 41
0.0
 71
     5
 72
     1
  1
\A1;65
 11
0.0000000000000001
 21
1.0
 31
0.0
  0
POINT
  5
1AD0E
330
1ABF8
100
AcDbEntity
  8
DEFPOINTS
 62
     0
100
AcDbPoint
 10
-499.8342729090735
 20
1631.620993269049
 30
0.0
  0
POINT
  5
1AD0F
330
1ABF8
100
AcDbEntity
  8
DEFPOINTS
 62
     0
100
AcDbPoint
 10
-499.8342729090735
 20
1566.620993269049
 30
0.0
  0
POINT
  5
1AD10
330
1ABF8
100
AcDbEntity
  8
DEFPOINTS
 62
     0
100
AcDbPoint
 10
-519.5270714944598
 20
1566.620993269049
 30
0.0
  0
ENDBLK
  5
1AC03
330
1ABF8
100
AcDbEntity
  8
0
100
AcDbBlockEnd
  0
BLOCK
  5
1AC11
330
1AC05
100
AcDbEntity
  8
0
100
AcDbBlockBegin
  2
*D9
 70
     1
 10
0.0
 20
0.0
 30
0.0
  3
*D9
  1

  0
LINE
  5
1ACA2
330
1AC05
100
AcDbEntity
  8
SUNPOU
 62
     1
100
AcDbLine
 10
-500.3342729090735
 20
1566.620993269049
 30
0.0
 11
-520.0692446101972
 21
1566.620993269049
 31
0.0
  0
LINE
  5
1ACA3
330
1AC05
100
AcDbEntity
  8
SUNPOU
 62
     1
100
AcDbLine
 10
-508.7210088984589
 20
1564.120993269049
 30
0.0
 11
-520.0692446101972
 21
1564.12099326905
 31
0.0
  0
LINE
  5
1ACA4
330
1AC05
100
AcDbEntity
  8
SUNPOU
 62
     1
100
AcDbLine
 10
-519.5692446101971
 20
1569.620993269049
 30
0.0
 11
-519.5692446101971
 21
1572.620993269049
 31
0.0
  0
LINE
  5
1ACA5
330
1AC05
100
AcDbEntity
  8
SUNPOU
 62
     1
100
AcDbLine
 10
-519.5692446101971
 20
1561.120993269049
 30
0.0
 11
-519.5692446101971
 21
1549.120993269049
 31
0.0
  0
LINE
  5
1ACA6
330
1AC05
100
AcDbEntity
  8
SUNPOU
 62
     1
100
AcDbLine
 10
-519.5692446101971
 20
1566.620993269049
 30
0.0
 11
-519.5692446101971
 21
1564.12099326905
 31
0.0
  0
SOLID
  5
1ACA7
330
1AC05
100
AcDbEntity
  8
SUNPOU
 62
     1
100
AcDbTrace
 10
-520.0692446101972
 20
1569.620993269049
 30
0.0
 11
-519.0692446101971
 21
1569.620993269049
 31
0.0
 12
-519.5692446101971
 22
1566.620993269049
 32
0.0
 13
-519.5692446101971
 23
1566.620993269049
 33
0.0
  0
SOLID
  5
1ACA8
330
1AC05
100
AcDbEntity
  8
SUNPOU
 62
     1
100
AcDbTrace
 10
-520.0692446101972
 20
1561.120993269049
 30
0.0
 11
-519.0692446101971
 21
1561.120993269049
 31
0.0
 12
-519.5692446101971
 22
1564.12099326905
 32
0.0
 13
-519.5692446101971
 23
1564.12099326905
 33
0.0
  0
MTEXT
  5
1ACA9
330
1AC05
100
AcDbEntity
  8
SUNPOU
 62
     1
100
AcDbMText
 10
-522.3192446101974
 20
1553.620993269049
 30
0.0
 40
3.5
 41
0.0
 71
     5
 72
     1
  1
\A1;2.5
 11
0.0000000000000001
 21
1.0
 31
0.0
1001
ACAD
1000
MTEXTBEGIN
1070
    73
1070
     1
1070
    44
1040
1.0
1070
    74
1070
     0
1000
MTEXTEND
  0
POINT
  5
1ACAA
330
1AC05
100
AcDbEntity
  8
DEFPOINTS
 62
     0
100
AcDbPoint
 10
-499.8342729090735
 20
1566.620993269049
 30
0.0
  0
POINT
  5
1ACAB
330
1AC05
100
AcDbEntity
  8
DEFPOINTS
 62
     0
100
AcDbPoint
 10
-508.2210088984588
 20
1564.120993269049
 30
0.0
  0
POINT
  5
1ACAC
330
1AC05
100
AcDbEntity
  8
DEFPOINTS
 62
     0
100
AcDbPoint
 10
-519.5692446101971
 20
1564.12099326905
 30
0.0
  0
ENDBLK
  5
1AC12
330
1AC05
100
AcDbEntity
  8
0
100
AcDbBlockEnd
  0
ENDSEC
  0
SECTION
  2
ENTITIES
  0
MTEXT
  5
5084
330
1A
100
AcDbEntity
  8
0
100
AcDbMText
 10
1985.239088685434
 20
-948.5420423450428
 30
0.0
 40
8.0
 41
0.0
 71
     7
 72
     5
  1

1001
ACAD
1000
MTEXTBEGIN
1070
    73
1070
     1
1070
    44
1040
1.0
1070
    74
1070
     0
1000
MTEXTEND
1000
MTEXTBEGIN
1070
    73
1070
     1
1070
    44
1040
1.0
1070
    74
1070
     0
1000
MTEXTEND
  0
MTEXT
  5
5085
330
1A
100
AcDbEntity
  8
0
100
AcDbMText
 10
4270.596778580329
 20
22.24825240601648
 30
0.0
 40
8.0
 41
0.0
 71
     7
 72
     5
  1

1001
ACAD
1000
MTEXTBEGIN
1070
    73
1070
     1
1070
    44
1040
1.0
1070
    74
1070
     0
1000
MTEXTEND
1000
MTEXTBEGIN
1070
    73
1070
     1
1070
    44
1040
1.0
1070
    74
1070
     0
1000
MTEXTEND
  0
MTEXT
  5
5343
330
1A
100
AcDbEntity
  8
SUNPOU
100
AcDbMText
 10
6936.493799262471
 20
9534.359644781137
 30
0.0
 40
10.5
 41
0.0
 71
     1
 72
     5
  1

1001
ACAD
1000
MTEXTBEGIN
1070
    73
1070
     1
1070
    44
1040
1.0
1070
    74
1070
     0
1000
MTEXTEND
1000
MTEXTBEGIN
1070
    73
1070
     1
1070
    44
1040
1.0
1070
    74
1070
     0
1000
MTEXTEND
  0
MTEXT
  5
544F
330
1A
100
AcDbEntity
  8
0
100
AcDbMText
 10
16317.2832773148
 20
12833.35428897674
 30
0.0
 40
8.0
 41
0.0
 71
     7
 72
     5
  1

1001
ACAD
1000
MTEXTBEGIN
1070
    73
1070
     1
1070
    44
1040
1.0
1070
    74
1070
     0
1000
MTEXTEND
1000
MTEXTBEGIN
1070
    73
1070
     1
1070
    44
1040
1.0
1070
    74
1070
     0
1000
MTEXTEND
  0
MTEXT
  5
5450
330
1A
100
AcDbEntity
  8
0
100
AcDbMText
 10
18602.64096720968
 20
13804.1445837278
 30
0.0
 40
8.0
 41
0.0
 71
     7
 72
     5
  1

1001
ACAD
1000
MTEXTBEGIN
1070
    73
1070
     1
1070
    44
1040
1.0
1070
    74
1070
     0
1000
MTEXTEND
1000
MTEXTBEGIN
1070
    73
1070
     1
1070
    44
1040
1.0
1070
    74
1070
     0
1000
MTEXTEND
  0
MTEXT
  5
5451
330
1A
100
AcDbEntity
  8
SUNPOU
100
AcDbMText
 10
21268.53798789184
 20
23316.25597610292
 30
0.0
 40
10.5
 41
0.0
 71
     1
 72
     5
  1

1001
ACAD
1000
MTEXTBEGIN
1070
    73
1070
     1
1070
    44
1040
1.0
1070
    74
1070
     0
1000
MTEXTEND
1000
MTEXTBEGIN
1070
    73
1070
     1
1070
    44
1040
1.0
1070
    74
1070
     0
1000
MTEXTEND
  0
MTEXT
  5
5452
330
1A
100
AcDbEntity
  8
SUNPOU
100
AcDbMText
 10
13337.6147919559
 20
22369.46284218996
 30
0.0
 40
10.5
 41
0.0
 71
     7
 72
     5
  1

1001
ACAD
1000
MTEXTBEGIN
1070
    73
1070
     1
1070
    44
1040
1.0
1070
    74
1070
     0
1000
MTEXTEND
1000
MTEXTBEGIN
1070
    73
1070
     1
1070
    44
1040
1.0
1070
    74
1070
     0
1000
MTEXTEND
  0
MTEXT
  5
5453
330
1A
100
AcDbEntity
  8
SUNPOU
100
AcDbMText
 10
16286.59845646867
 20
27270.1389140328
 30
0.0
 40
10.5
 41
0.0
 71
     7
 72
     5
  1

1001
ACAD
1000
MTEXTBEGIN
1070
    73
1070
     1
1070
    44
1040
1.0
1070
    74
1070
     0
1000
MTEXTEND
1000
MTEXTBEGIN
1070
    73
1070
     1
1070
    44
1040
1.0
1070
    74
1070
     0
1000
MTEXTEND
  0
MTEXT
  5
5454
330
1A
100
AcDbEntity
  8
SUNPOU
100
AcDbMText
 10
20795.67658441924
 20
29706.43966165288
 30
0.0
 40
10.5
 41
0.0
 71
     7
 72
     5
  1

1001
ACAD
1000
MTEXTBEGIN
1070
    73
1070
     1
1070
    44
1040
1.0
1070
    74
1070
     0
1000
MTEXTEND
1000
MTEXTBEGIN
1070
    73
1070
     1
1070
    44
1040
1.0
1070
    74
1070
     0
1000
MTEXTEND
  0
MTEXT
  5
5455
330
1A
100
AcDbEntity
  8
0
100
AcDbMText
 10
16611.93789220313
 20
14707.52144344448
 30
0.0
 40
8.0
 41
0.0
 71
     7
 72
     5
  1

1001
ACAD
1000
MTEXTBEGIN
1070
    73
1070
     1
1070
    44
1040
1.0
1070
    74
1070
     0
1000
MTEXTEND
1000
MTEXTBEGIN
1070
    73
1070
     1
1070
    44
1040
1.0
1070
    74
1070
     0
1000
MTEXTEND
  0
MTEXT
  5
5456
330
1A
100
AcDbEntity
  8
0
100
AcDbMText
 10
18897.29558209803
 20
15678.31173819554
 30
0.0
 40
8.0
 41
0.0
 71
     7
 72
     5
  1

1001
ACAD
1000
MTEXTBEGIN
1070
    73
1070
     1
1070
    44
1040
1.0
1070
    74
1070
     0
1000
MTEXTEND
1000
MTEXTBEGIN
1070
    73
1070
     1
1070
    44
1040
1.0
1070
    74
1070
     0
1000
MTEXTEND
  0
MTEXT
  5
5457
330
1A
100
AcDbEntity
  8
SUNPOU
100
AcDbMText
 10
21563.19260278019
 20
25190.42313057066
 30
0.0
 40
10.5
 41
0.0
 71
     1
 72
     5
  1

1001
ACAD
1000
MTEXTBEGIN
1070
    73
1070
     1
1070
    44
1040
1.0
1070
    74
1070
     0
1000
MTEXTEND
1000
MTEXTBEGIN
1070
    73
1070
     1
1070
    44
1040
1.0
1070
    74
1070
     0
1000
MTEXTEND
  0
MTEXT
  5
5458
330
1A
100
AcDbEntity
  8
SUNPOU
100
AcDbMText
 10
13632.26940684425
 20
24243.6299966577
 30
0.0
 40
10.5
 41
0.0
 71
     7
 72
     5
  1

1001
ACAD
1000
MTEXTBEGIN
1070
    73
1070
     1
1070
    44
1040
1.0
1070
    74
1070
     0
1000
MTEXTEND
1000
MTEXTBEGIN
1070
    73
1070
     1
1070
    44
1040
1.0
1070
    74
1070
     0
1000
MTEXTEND
  0
MTEXT
  5
5459
330
1A
100
AcDbEntity
  8
SUNPOU
100
AcDbMText
 10
16581.25307135702
 20
29144.30606850055
 30
0.0
 40
10.5
 41
0.0
 71
     7
 72
     5
  1

1001
ACAD
1000
MTEXTBEGIN
1070
    73
1070
     1
1070
    44
1040
1.0
1070
    74
1070
     0
1000
MTEXTEND
1000
MTEXTBEGIN
1070
    73
1070
     1
1070
    44
1040
1.0
1070
    74
1070
     0
1000
MTEXTEND
  0
MTEXT
  5
545A
330
1A
100
AcDbEntity
  8
SUNPOU
100
AcDbMText
 10
21090.33119930759
 20
31580.60681612062
 30
0.0
 40
10.5
 41
0.0
 71
     7
 72
     5
  1

1001
ACAD
1000
MTEXTBEGIN
1070
    73
1070
     1
1070
    44
1040
1.0
1070
    74
1070
     0
1000
MTEXTEND
1000
MTEXTBEGIN
1070
    73
1070
     1
1070
    44
1040
1.0
1070
    74
1070
     0
1000
MTEXTEND
  0
MTEXT
  5
545B
330
1A
100
AcDbEntity
  8
0
100
AcDbMText
 10
22871.60517627166
 20
23974.88367124799
 30
0.0
 40
8.0
 41
0.0
 71
     7
 72
     5
  1

1001
ACAD
1000
MTEXTBEGIN
1070
    73
1070
     1
1070
    44
1040
1.0
1070
    74
1070
     0
1000
MTEXTEND
1000
MTEXTBEGIN
1070
    73
1070
     1
1070
    44
1040
1.0
1070
    74
1070
     0
1000
MTEXTEND
  0
MTEXT
  5
545C
330
1A
100
AcDbEntity
  8
0
100
AcDbMText
 10
25156.96286616656
 20
24945.67396599905
 30
0.0
 40
8.0
 41
0.0
 71
     7
 72
     5
  1

1001
ACAD
1000
MTEXTBEGIN
1070
    73
1070
     1
1070
    44
1040
1.0
1070
    74
1070
     0
1000
MTEXTEND
1000
MTEXTBEGIN
1070
    73
1070
     1
1070
    44
1040
1.0
1070
    74
1070
     0
1000
MTEXTEND
  0
MTEXT
  5
545D
330
1A
100
AcDbEntity
  8
SUNPOU
100
AcDbMText
 10
27822.85988684871
 20
34457.78535837418
 30
0.0
 40
10.5
 41
0.0
 71
     1
 72
     5
  1

1001
ACAD
1000
MTEXTBEGIN
1070
    73
1070
     1
1070
    44
1040
1.0
1070
    74
1070
     0
1000
MTEXTEND
1000
MTEXTBEGIN
1070
    73
1070
     1
1070
    44
1040
1.0
1070
    74
1070
     0
1000
MTEXTEND
  0
MTEXT
  5
545E
330
1A
100
AcDbEntity
  8
SUNPOU
100
AcDbMText
 10
19891.93669091278
 20
33510.99222446122
 30
0.0
 40
10.5
 41
0.0
 71
     7
 72
     5
  1

1001
ACAD
1000
MTEXTBEGIN
1070
    73
1070
     1
1070
    44
1040
1.0
1070
    74
1070
     0
1000
MTEXTEND
1000
MTEXTBEGIN
1070
    73
1070
     1
1070
    44
1040
1.0
1070
    74
1070
     0
1000
MTEXTEND
  0
MTEXT
  5
545F
330
1A
100
AcDbEntity
  8
SUNPOU
100
AcDbMText
 10
22840.92035542555
 20
38411.66829630406
 30
0.0
 40
10.5
 41
0.0
 71
     7
 72
     5
  1

1001
ACAD
1000
MTEXTBEGIN
1070
    73
1070
     1
1070
    44
1040
1.0
1070
    74
1070
     0
1000
MTEXTEND
1000
MTEXTBEGIN
1070
    73
1070
     1
1070
    44
1040
1.0
1070
    74
1070
     0
1000
MTEXTEND
  0
MTEXT
  5
5460
330
1A
100
AcDbEntity
  8
SUNPOU
100
AcDbMText
 10
27349.99848337611
 20
40847.96904392415
 30
0.0
 40
10.5
 41
0.0
 71
     7
 72
     5
  1

1001
ACAD
1000
MTEXTBEGIN
1070
    73
1070
     1
1070
    44
1040
1.0
1070
    74
1070
     0
1000
MTEXTEND
1000
MTEXTBEGIN
1070
    73
1070
     1
1070
    44
1040
1.0
1070
    74
1070
     0
1000
MTEXTEND
  0
MTEXT
  5
55B7
330
1A
100
AcDbEntity
  8
SUNPOU
100
AcDbMText
 10
67424.23923338197
 20
64463.86602884816
 30
0.0
 40
10.5
 41
0.0
 71
     9
 72
     5
  1

1001
ACAD
1000
MTEXTBEGIN
1070
    73
1070
     1
1070
    44
1040
1.0
1070
    74
1070
     0
1000
MTEXTEND
1000
MTEXTBEGIN
1070
    73
1070
     1
1070
    44
1040
1.0
1070
    74
1070
     0
1000
MTEXTEND
  0
MTEXT
  5
55B8
330
1A
100
AcDbEntity
  8
SUNPOU
100
AcDbMText
 10
76146.40679929998
 20
71879.70056038563
 30
0.0
 40
10.5
 41
0.0
 71
     9
 72
     5
  1

1001
ACAD
1000
MTEXTBEGIN
1070
    73
1070
     1
1070
    44
1040
1.0
1070
    74
1070
     0
1000
MTEXTEND
1000
MTEXTBEGIN
1070
    73
1070
     1
1070
    44
1040
1.0
1070
    74
1070
     0
1000
MTEXTEND
  0
MTEXT
  5
55B9
330
1A
100
AcDbEntity
  8
SUNPOU
100
AcDbMText
 10
95100.16551662994
 20
89346.27661287766
 30
0.0
 40
10.5
 41
0.0
 71
     9
 72
     5
  1

1001
ACAD
1000
MTEXTBEGIN
1070
    73
1070
     1
1070
    44
1040
1.0
1070
    74
1070
     0
1000
MTEXTEND
1000
MTEXTBEGIN
1070
    73
1070
     1
1070
    44
1040
1.0
1070
    74
1070
     0
1000
MTEXTEND
  0
MTEXT
  5
55BA
330
1A
100
AcDbEntity
  8
SUNPOU
100
AcDbMText
 10
97043.57276333935
 20
87545.22753299966
 30
0.0
 40
3.5
 41
0.0
 71
     9
 72
     5
  1

1001
ACAD
1000
MTEXTBEGIN
1070
    73
1070
     1
1070
    44
1040
1.0
1070
    74
1070
     0
1000
MTEXTEND
1000
MTEXTBEGIN
1070
    73
1070
     1
1070
    44
1040
1.0
1070
    74
1070
     0
1000
MTEXTEND
  0
MTEXT
  5
55BB
330
1A
100
AcDbEntity
  8
SUNPOU
100
AcDbMText
 10
128169.7525959589
 20
130040.1732006569
 30
0.0
 40
10.5
 41
0.0
 71
     9
 72
     5
  1

1001
ACAD
1000
MTEXTBEGIN
1070
    73
1070
     1
1070
    44
1040
1.0
1070
    74
1070
     0
1000
MTEXTEND
1000
MTEXTBEGIN
1070
    73
1070
     1
1070
    44
1040
1.0
1070
    74
1070
     0
1000
MTEXTEND
  0
MTEXT
  5
55BC
330
1A
100
AcDbEntity
  8
SUNPOU
100
AcDbMText
 10
130113.1598426684
 20
128239.1241207789
 30
0.0
 40
3.5
 41
0.0
 71
     9
 72
     5
  1

1001
ACAD
1000
MTEXTBEGIN
1070
    73
1070
     1
1070
    44
1040
1.0
1070
    74
1070
     0
1000
MTEXTEND
1000
MTEXTBEGIN
1070
    73
1070
     1
1070
    44
1040
1.0
1070
    74
1070
     0
1000
MTEXTEND
  0
MTEXT
  5
55BD
330
1A
100
AcDbEntity
  8
SUNPOU
100
AcDbMText
 10
78610.02030175463
 20
75873.33835563206
 30
0.0
 40
10.5
 41
0.0
 71
     9
 72
     5
  1

1001
ACAD
1000
MTEXTBEGIN
1070
    73
1070
     1
1070
    44
1040
1.0
1070
    74
1070
     0
1000
MTEXTEND
1000
MTEXTBEGIN
1070
    73
1070
     1
1070
    44
1040
1.0
1070
    74
1070
     0
1000
MTEXTEND
  0
MTEXT
  5
55BE
330
1A
100
AcDbEntity
  8
SUNPOU
100
AcDbMText
 10
64662.02020137862
 20
56700.93921651987
 30
0.0
 40
3.5
 41
0.0
 71
     7
 72
     5
  1

1001
ACAD
1000
MTEXTBEGIN
1070
    73
1070
     1
1070
    44
1040
1.0
1070
    74
1070
     0
1000
MTEXTEND
1000
MTEXTBEGIN
1070
    73
1070
     1
1070
    44
1040
1.0
1070
    74
1070
     0
1000
MTEXTEND
  0
MTEXT
  5
55BF
330
1A
100
AcDbEntity
  8
SUNPOU
100
AcDbMText
 10
45647.18959837177
 20
44463.08794733806
 30
0.0
 40
10.5
 41
0.0
 71
     7
 72
     5
  1

1001
ACAD
1000
MTEXTBEGIN
1070
    73
1070
     1
1070
    44
1040
1.0
1070
    74
1070
     0
1000
MTEXTEND
1000
MTEXTBEGIN
1070
    73
1070
     1
1070
    44
1040
1.0
1070
    74
1070
     0
1000
MTEXTEND
  0
MTEXT
  5
55C0
330
1A
100
AcDbEntity
  8
SUNPOU
100
AcDbMText
 10
33189.96133342368
 20
28618.15636923965
 30
0.0
 40
35.0
 41
0.0
 71
     9
 72
     5
  1

1001
ACAD
1000
MTEXTBEGIN
1070
    73
1070
     1
1070
    44
1040
1.0
1070
    74
1070
     0
1000
MTEXTEND
1000
MTEXTBEGIN
1070
    73
1070
     1
1070
    44
1040
1.0
1070
    74
1070
     0
1000
MTEXTEND
  0
MTEXT
  5
55C1
330
1A
100
AcDbEntity
  8
SUNPOU
100
AcDbMText
 10
32098.44639099864
 20
29226.93177928834
 30
0.0
 40
350.0000004171781
 41
0.0
 71
     7
 72
     5
  1

1001
ACAD
1000
MTEXTBEGIN
1070
    73
1070
     1
1070
    44
1040
1.0
1070
    74
1070
     0
1000
MTEXTEND
1000
MTEXTBEGIN
1070
    73
1070
     1
1070
    44
1040
1.0
1070
    74
1070
     0
1000
MTEXTEND
  0
MTEXT
  5
55C2
330
1A
100
AcDbEntity
  8
0
100
AcDbMText
 10
38142.39714894154
 20
27206.85414142458
 30
0.0
 40
8.0
 41
0.0
 71
     7
 72
     5
  1

1001
ACAD
1000
MTEXTBEGIN
1070
    73
1070
     1
1070
    44
1040
1.0
1070
    74
1070
     0
1000
MTEXTEND
1000
MTEXTBEGIN
1070
    73
1070
     1
1070
    44
1040
1.0
1070
    74
1070
     0
1000
MTEXTEND
  0
MTEXT
  5
55C3
330
1A
100
AcDbEntity
  8
0
100
AcDbMText
 10
40427.75483883644
 20
28177.64443617564
 30
0.0
 40
8.0
 41
0.0
 71
     7
 72
     5
  1

1001
ACAD
1000
MTEXTBEGIN
1070
    73
1070
     1
1070
    44
1040
1.0
1070
    74
1070
     0
1000
MTEXTEND
1000
MTEXTBEGIN
1070
    73
1070
     1
1070
    44
1040
1.0
1070
    74
1070
     0
1000
MTEXTEND
  0
MTEXT
  5
55C4
330
1A
100
AcDbEntity
  8
SUNPOU
100
AcDbMText
 10
43093.65185951858
 20
37689.75582855077
 30
0.0
 40
10.5
 41
0.0
 71
     1
 72
     5
  1

1001
ACAD
1000
MTEXTBEGIN
1070
    73
1070
     1
1070
    44
1040
1.0
1070
    74
1070
     0
1000
MTEXTEND
1000
MTEXTBEGIN
1070
    73
1070
     1
1070
    44
1040
1.0
1070
    74
1070
     0
1000
MTEXTEND
  0
MTEXT
  5
55C5
330
1A
100
AcDbEntity
  8
SUNPOU
100
AcDbMText
 10
35162.72866358265
 20
36742.96269463781
 30
0.0
 40
10.5
 41
0.0
 71
     7
 72
     5
  1

1001
ACAD
1000
MTEXTBEGIN
1070
    73
1070
     1
1070
    44
1040
1.0
1070
    74
1070
     0
1000
MTEXTEND
1000
MTEXTBEGIN
1070
    73
1070
     1
1070
    44
1040
1.0
1070
    74
1070
     0
1000
MTEXTEND
  0
MTEXT
  5
55C6
330
1A
100
AcDbEntity
  8
SUNPOU
100
AcDbMText
 10
38111.71232809542
 20
41643.63876648065
 30
0.0
 40
10.5
 41
0.0
 71
     7
 72
     5
  1

1001
ACAD
1000
MTEXTBEGIN
1070
    73
1070
     1
1070
    44
1040
1.0
1070
    74
1070
     0
1000
MTEXTEND
1000
MTEXTBEGIN
1070
    73
1070
     1
1070
    44
1040
1.0
1070
    74
1070
     0
1000
MTEXTEND
  0
MTEXT
  5
55C7
330
1A
100
AcDbEntity
  8
SUNPOU
100
AcDbMText
 10
42620.79045604596
 20
44079.93951410074
 30
0.0
 40
10.5
 41
0.0
 71
     7
 72
     5
  1

1001
ACAD
1000
MTEXTBEGIN
1070
    73
1070
     1
1070
    44
1040
1.0
1070
    74
1070
     0
1000
MTEXTEND
1000
MTEXTBEGIN
1070
    73
1070
     1
1070
    44
1040
1.0
1070
    74
1070
     0
1000
MTEXTEND
  0
MTEXT
  5
55C8
330
1A
100
AcDbEntity
  8
SUNPOU
100
AcDbMText
 10
26221.62834281429
 20
23077.53566448964
 30
0.0
 40
10.5
 41
0.0
 71
     7
 72
     5
  1

1001
ACAD
1000
MTEXTBEGIN
1070
    73
1070
     1
1070
    44
1040
1.0
1070
    74
1070
     0
1000
MTEXTEND
1000
MTEXTBEGIN
1070
    73
1070
     1
1070
    44
1040
1.0
1070
    74
1070
     0
1000
MTEXTEND
  0
MTEXT
  5
55C9
330
1A
100
AcDbEntity
  8
SUNPOU
100
AcDbMText
 10
77413.14677671455
 20
68750.51622813789
 30
0.0
 40
10.5
 41
0.0
 71
     9
 72
     5
  1

1001
ACAD
1000
MTEXTBEGIN
1070
    73
1070
     1
1070
    44
1040
1.0
1070
    74
1070
     0
1000
MTEXTEND
1000
MTEXTBEGIN
1070
    73
1070
     1
1070
    44
1040
1.0
1070
    74
1070
     0
1000
MTEXTEND
  0
MTEXT
  5
55CA
330
1A
100
AcDbEntity
  8
SUNPOU
100
AcDbMText
 10
86135.31434263256
 20
76166.35075967536
 30
0.0
 40
10.5
 41
0.0
 71
     9
 72
     5
  1

1001
ACAD
1000
MTEXTBEGIN
1070
    73
1070
     1
1070
    44
1040
1.0
1070
    74
1070
     0
1000
MTEXTEND
1000
MTEXTBEGIN
1070
    73
1070
     1
1070
    44
1040
1.0
1070
    74
1070
     0
1000
MTEXTEND
  0
MTEXT
  5
55CB
330
1A
100
AcDbEntity
  8
SUNPOU
100
AcDbMText
 10
105089.0730599624
 20
93632.92681216739
 30
0.0
 40
10.5
 41
0.0
 71
     9
 72
     5
  1

1001
ACAD
1000
MTEXTBEGIN
1070
    73
1070
     1
1070
    44
1040
1.0
1070
    74
1070
     0
1000
MTEXTEND
1000
MTEXTBEGIN
1070
    73
1070
     1
1070
    44
1040
1.0
1070
    74
1070
     0
1000
MTEXTEND
  0
MTEXT
  5
55CC
330
1A
100
AcDbEntity
  8
SUNPOU
100
AcDbMText
 10
107032.4803066718
 20
91831.87773228938
 30
0.0
 40
3.5
 41
0.0
 71
     9
 72
     5
  1

1001
ACAD
1000
MTEXTBEGIN
1070
    73
1070
     1
1070
    44
1040
1.0
1070
    74
1070
     0
1000
MTEXTEND
1000
MTEXTBEGIN
1070
    73
1070
     1
1070
    44
1040
1.0
1070
    74
1070
     0
1000
MTEXTEND
  0
MTEXT
  5
55CD
330
1A
100
AcDbEntity
  8
SUNPOU
100
AcDbMText
 10
138158.6601392916
 20
134326.8233999467
 30
0.0
 40
10.5
 41
0.0
 71
     9
 72
     5
  1

1001
ACAD
1000
MTEXTBEGIN
1070
    73
1070
     1
1070
    44
1040
1.0
1070
    74
1070
     0
1000
MTEXTEND
1000
MTEXTBEGIN
1070
    73
1070
     1
1070
    44
1040
1.0
1070
    74
1070
     0
1000
MTEXTEND
  0
MTEXT
  5
55CE
330
1A
100
AcDbEntity
  8
SUNPOU
100
AcDbMText
 10
140102.067386001
 20
132525.7743200686
 30
0.0
 40
3.5
 41
0.0
 71
     9
 72
     5
  1

1001
ACAD
1000
MTEXTBEGIN
1070
    73
1070
     1
1070
    44
1040
1.0
1070
    74
1070
     0
1000
MTEXTEND
1000
MTEXTBEGIN
1070
    73
1070
     1
1070
    44
1040
1.0
1070
    74
1070
     0
1000
MTEXTEND
  0
MTEXT
  5
55CF
330
1A
100
AcDbEntity
  8
SUNPOU
100
AcDbMText
 10
88598.92784508721
 20
80159.98855492179
 30
0.0
 40
10.5
 41
0.0
 71
     9
 72
     5
  1

1001
ACAD
1000
MTEXTBEGIN
1070
    73
1070
     1
1070
    44
1040
1.0
1070
    74
1070
     0
1000
MTEXTEND
1000
MTEXTBEGIN
1070
    73
1070
     1
1070
    44
1040
1.0
1070
    74
1070
     0
1000
MTEXTEND
  0
MTEXT
  5
55D0
330
1A
100
AcDbEntity
  8
SUNPOU
100
AcDbMText
 10
74650.92774471121
 20
60987.58941580959
 30
0.0
 40
3.5
 41
0.0
 71
     7
 72
     5
  1

1001
ACAD
1000
MTEXTBEGIN
1070
    73
1070
     1
1070
    44
1040
1.0
1070
    74
1070
     0
1000
MTEXTEND
1000
MTEXTBEGIN
1070
    73
1070
     1
1070
    44
1040
1.0
1070
    74
1070
     0
1000
MTEXTEND
  0
MTEXT
  5
55D1
330
1A
100
AcDbEntity
  8
SUNPOU
100
AcDbMText
 10
55636.09714170436
 20
48749.73814662781
 30
0.0
 40
10.5
 41
0.0
 71
     7
 72
     5
  1

1001
ACAD
1000
MTEXTBEGIN
1070
    73
1070
     1
1070
    44
1040
1.0
1070
    74
1070
     0
1000
MTEXTEND
1000
MTEXTBEGIN
1070
    73
1070
     1
1070
    44
1040
1.0
1070
    74
1070
     0
1000
MTEXTEND
  0
MTEXT
  5
55D2
330
1A
100
AcDbEntity
  8
SUNPOU
100
AcDbMText
 10
43178.86887675626
 20
32904.80656852937
 30
0.0
 40
35.0
 41
0.0
 71
     9
 72
     5
  1

1001
ACAD
1000
MTEXTBEGIN
1070
    73
1070
     1
1070
    44
1040
1.0
1070
    74
1070
     0
1000
MTEXTEND
1000
MTEXTBEGIN
1070
    73
1070
     1
1070
    44
1040
1.0
1070
    74
1070
     0
1000
MTEXTEND
  0
MTEXT
  5
55D3
330
1A
100
AcDbEntity
  8
SUNPOU
100
AcDbMText
 10
42087.3539343312
 20
33513.58197857808
 30
0.0
 40
350.0000004171781
 41
0.0
 71
     7
 72
     5
  1

1001
ACAD
1000
MTEXTBEGIN
1070
    73
1070
     1
1070
    44
1040
1.0
1070
    74
1070
     0
1000
MTEXTEND
1000
MTEXTBEGIN
1070
    73
1070
     1
1070
    44
1040
1.0
1070
    74
1070
     0
1000
MTEXTEND
  0
MTEXT
  5
55D4
330
1A
100
AcDbEntity
  8
0
100
AcDbMText
 10
48131.30469227412
 20
31493.50434071431
 30
0.0
 40
8.0
 41
0.0
 71
     7
 72
     5
  1

1001
ACAD
1000
MTEXTBEGIN
1070
    73
1070
     1
1070
    44
1040
1.0
1070
    74
1070
     0
1000
MTEXTEND
1000
MTEXTBEGIN
1070
    73
1070
     1
1070
    44
1040
1.0
1070
    74
1070
     0
1000
MTEXTEND
  0
MTEXT
  5
55D5
330
1A
100
AcDbEntity
  8
0
100
AcDbMText
 10
50416.66238216901
 20
32464.29463546537
 30
0.0
 40
8.0
 41
0.0
 71
     7
 72
     5
  1

1001
ACAD
1000
MTEXTBEGIN
1070
    73
1070
     1
1070
    44
1040
1.0
1070
    74
1070
     0
1000
MTEXTEND
1000
MTEXTBEGIN
1070
    73
1070
     1
1070
    44
1040
1.0
1070
    74
1070
     0
1000
MTEXTEND
  0
MTEXT
  5
55D6
330
1A
100
AcDbEntity
  8
SUNPOU
100
AcDbMText
 10
53082.55940285115
 20
41976.4060278405
 30
0.0
 40
10.5
 41
0.0
 71
     1
 72
     5
  1

1001
ACAD
1000
MTEXTBEGIN
1070
    73
1070
     1
1070
    44
1040
1.0
1070
    74
1070
     0
1000
MTEXTEND
1000
MTEXTBEGIN
1070
    73
1070
     1
1070
    44
1040
1.0
1070
    74
1070
     0
1000
MTEXTEND
  0
MTEXT
  5
55D7
330
1A
100
AcDbEntity
  8
SUNPOU
100
AcDbMText
 10
45151.63620691521
 20
41029.61289392755
 30
0.0
 40
10.5
 41
0.0
 71
     7
 72
     5
  1

1001
ACAD
1000
MTEXTBEGIN
1070
    73
1070
     1
1070
    44
1040
1.0
1070
    74
1070
     0
1000
MTEXTEND
1000
MTEXTBEGIN
1070
    73
1070
     1
1070
    44
1040
1.0
1070
    74
1070
     0
1000
MTEXTEND
  0
MTEXT
  5
55D8
330
1A
100
AcDbEntity
  8
SUNPOU
100
AcDbMText
 10
48100.61987142798
 20
45930.28896577039
 30
0.0
 40
10.5
 41
0.0
 71
     7
 72
     5
  1

1001
ACAD
1000
MTEXTBEGIN
1070
    73
1070
     1
1070
    44
1040
1.0
1070
    74
1070
     0
1000
MTEXTEND
1000
MTEXTBEGIN
1070
    73
1070
     1
1070
    44
1040
1.0
1070
    74
1070
     0
1000
MTEXTEND
  0
MTEXT
  5
55D9
330
1A
100
AcDbEntity
  8
SUNPOU
100
AcDbMText
 10
52609.69799937853
 20
48366.58971339046
 30
0.0
 40
10.5
 41
0.0
 71
     7
 72
     5
  1

1001
ACAD
1000
MTEXTBEGIN
1070
    73
1070
     1
1070
    44
1040
1.0
1070
    74
1070
     0
1000
MTEXTEND
1000
MTEXTBEGIN
1070
    73
1070
     1
1070
    44
1040
1.0
1070
    74
1070
     0
1000
MTEXTEND
  0
MTEXT
  5
55DA
330
1A
100
AcDbEntity
  8
SUNPOU
100
AcDbMText
 10
36210.53588614687
 20
27364.18586377937
 30
0.0
 40
10.5
 41
0.0
 71
     7
 72
     5
  1

1001
ACAD
1000
MTEXTBEGIN
1070
    73
1070
     1
1070
    44
1040
1.0
1070
    74
1070
     0
1000
MTEXTEND
1000
MTEXTBEGIN
1070
    73
1070
     1
1070
    44
1040
1.0
1070
    74
1070
     0
1000
MTEXTEND
  0
MTEXT
  5
55DB
330
1A
100
AcDbEntity
  8
SUNPOU
100
AcDbMText
 10
38021.29879752181
 20
33691.59985125794
 30
0.0
 40
10.5
 41
0.0
 71
     9
 72
     5
  1

1001
ACAD
1000
MTEXTBEGIN
1070
    73
1070
     1
1070
    44
1040
1.0
1070
    74
1070
     0
1000
MTEXTEND
1000
MTEXTBEGIN
1070
    73
1070
     1
1070
    44
1040
1.0
1070
    74
1070
     0
1000
MTEXTEND
  0
MTEXT
  5
55DC
330
1A
100
AcDbEntity
  8
SUNPOU
100
AcDbMText
 10
46743.46636343979
 20
41107.4343827954
 30
0.0
 40
10.5
 41
0.0
 71
     9
 72
     5
  1

1001
ACAD
1000
MTEXTBEGIN
1070
    73
1070
     1
1070
    44
1040
1.0
1070
    74
1070
     0
1000
MTEXTEND
1000
MTEXTBEGIN
1070
    73
1070
     1
1070
    44
1040
1.0
1070
    74
1070
     0
1000
MTEXTEND
  0
MTEXT
  5
55DD
330
1A
100
AcDbEntity
  8
SUNPOU
100
AcDbMText
 10
65697.22508076974
 20
58574.01043528746
 30
0.0
 40
10.5
 41
0.0
 71
     9
 72
     5
  1

1001
ACAD
1000
MTEXTBEGIN
1070
    73
1070
     1
1070
    44
1040
1.0
1070
    74
1070
     0
1000
MTEXTEND
1000
MTEXTBEGIN
1070
    73
1070
     1
1070
    44
1040
1.0
1070
    74
1070
     0
1000
MTEXTEND
  0
MTEXT
  5
55DE
330
1A
100
AcDbEntity
  8
SUNPOU
100
AcDbMText
 10
67640.63232747917
 20
56772.96135540945
 30
0.0
 40
3.5
 41
0.0
 71
     9
 72
     5
  1

1001
ACAD
1000
MTEXTBEGIN
1070
    73
1070
     1
1070
    44
1040
1.0
1070
    74
1070
     0
1000
MTEXTEND
1000
MTEXTBEGIN
1070
    73
1070
     1
1070
    44
1040
1.0
1070
    74
1070
     0
1000
MTEXTEND
  0
MTEXT
  5
55DF
330
1A
100
AcDbEntity
  8
SUNPOU
100
AcDbMText
 10
98766.81216009886
 20
99267.9070230668
 30
0.0
 40
10.5
 41
0.0
 71
     9
 72
     5
  1

1001
ACAD
1000
MTEXTBEGIN
1070
    73
1070
     1
1070
    44
1040
1.0
1070
    74
1070
     0
1000
MTEXTEND
1000
MTEXTBEGIN
1070
    73
1070
     1
1070
    44
1040
1.0
1070
    74
1070
     0
1000
MTEXTEND
  0
MTEXT
  5
55E0
330
1A
100
AcDbEntity
  8
SUNPOU
100
AcDbMText
 10
100710.2194068083
 20
97466.85794318876
 30
0.0
 40
3.5
 41
0.0
 71
     9
 72
     5
  1

1001
ACAD
1000
MTEXTBEGIN
1070
    73
1070
     1
1070
    44
1040
1.0
1070
    74
1070
     0
1000
MTEXTEND
1000
MTEXTBEGIN
1070
    73
1070
     1
1070
    44
1040
1.0
1070
    74
1070
     0
1000
MTEXTEND
  0
MTEXT
  5
55E1
330
1A
100
AcDbEntity
  8
SUNPOU
100
AcDbMText
 10
49207.07986589443
 20
45101.07217804184
 30
0.0
 40
10.5
 41
0.0
 71
     9
 72
     5
  1

1001
ACAD
1000
MTEXTBEGIN
1070
    73
1070
     1
1070
    44
1040
1.0
1070
    74
1070
     0
1000
MTEXTEND
1000
MTEXTBEGIN
1070
    73
1070
     1
1070
    44
1040
1.0
1070
    74
1070
     0
1000
MTEXTEND
  0
MTEXT
  5
55E2
330
1A
100
AcDbEntity
  8
SUNPOU
100
AcDbMText
 10
35259.07976551845
 20
25928.67303892964
 30
0.0
 40
3.5
 41
0.0
 71
     7
 72
     5
  1

1001
ACAD
1000
MTEXTBEGIN
1070
    73
1070
     1
1070
    44
1040
1.0
1070
    74
1070
     0
1000
MTEXTEND
1000
MTEXTBEGIN
1070
    73
1070
     1
1070
    44
1040
1.0
1070
    74
1070
     0
1000
MTEXTEND
  0
MTEXT
  5
55E3
330
1A
100
AcDbEntity
  8
SUNPOU
100
AcDbMText
 10
48951.43044828905
 20
35287.73625995099
 30
0.0
 40
10.5
 41
0.0
 71
     9
 72
     5
  1

1001
ACAD
1000
MTEXTBEGIN
1070
    73
1070
     1
1070
    44
1040
1.0
1070
    74
1070
     0
1000
MTEXTEND
1000
MTEXTBEGIN
1070
    73
1070
     1
1070
    44
1040
1.0
1070
    74
1070
     0
1000
MTEXTEND
  0
MTEXT
  5
55E4
330
1A
100
AcDbEntity
  8
SUNPOU
100
AcDbMText
 10
57673.59801420702
 20
42703.57079148847
 30
0.0
 40
10.5
 41
0.0
 71
     9
 72
     5
  1

1001
ACAD
1000
MTEXTBEGIN
1070
    73
1070
     1
1070
    44
1040
1.0
1070
    74
1070
     0
1000
MTEXTEND
1000
MTEXTBEGIN
1070
    73
1070
     1
1070
    44
1040
1.0
1070
    74
1070
     0
1000
MTEXTEND
  0
MTEXT
  5
55E5
330
1A
100
AcDbEntity
  8
SUNPOU
100
AcDbMText
 10
76627.35673153699
 20
60170.14684398051
 30
0.0
 40
10.5
 41
0.0
 71
     9
 72
     5
  1

1001
ACAD
1000
MTEXTBEGIN
1070
    73
1070
     1
1070
    44
1040
1.0
1070
    74
1070
     0
1000
MTEXTEND
1000
MTEXTBEGIN
1070
    73
1070
     1
1070
    44
1040
1.0
1070
    74
1070
     0
1000
MTEXTEND
  0
MTEXT
  5
55E6
330
1A
100
AcDbEntity
  8
SUNPOU
100
AcDbMText
 10
78570.76397824641
 20
58369.09776410251
 30
0.0
 40
3.5
 41
0.0
 71
     9
 72
     5
  1

1001
ACAD
1000
MTEXTBEGIN
1070
    73
1070
     1
1070
    44
1040
1.0
1070
    74
1070
     0
1000
MTEXTEND
1000
MTEXTBEGIN
1070
    73
1070
     1
1070
    44
1040
1.0
1070
    74
1070
     0
1000
MTEXTEND
  0
MTEXT
  5
55E7
330
1A
100
AcDbEntity
  8
SUNPOU
100
AcDbMText
 10
109696.943810866
 20
100864.0434317598
 30
0.0
 40
10.5
 41
0.0
 71
     9
 72
     5
  1

1001
ACAD
1000
MTEXTBEGIN
1070
    73
1070
     1
1070
    44
1040
1.0
1070
    74
1070
     0
1000
MTEXTEND
1000
MTEXTBEGIN
1070
    73
1070
     1
1070
    44
1040
1.0
1070
    74
1070
     0
1000
MTEXTEND
  0
MTEXT
  5
55E8
330
1A
100
AcDbEntity
  8
SUNPOU
100
AcDbMText
 10
111640.3510575755
 20
99062.99435188183
 30
0.0
 40
3.5
 41
0.0
 71
     9
 72
     5
  1

1001
ACAD
1000
MTEXTBEGIN
1070
    73
1070
     1
1070
    44
1040
1.0
1070
    74
1070
     0
1000
MTEXTEND
1000
MTEXTBEGIN
1070
    73
1070
     1
1070
    44
1040
1.0
1070
    74
1070
     0
1000
MTEXTEND
  0
MTEXT
  5
55E9
330
1A
100
AcDbEntity
  8
SUNPOU
100
AcDbMText
 10
60137.21151666167
 20
46697.20858673491
 30
0.0
 40
10.5
 41
0.0
 71
     9
 72
     5
  1

1001
ACAD
1000
MTEXTBEGIN
1070
    73
1070
     1
1070
    44
1040
1.0
1070
    74
1070
     0
1000
MTEXTEND
1000
MTEXTBEGIN
1070
    73
1070
     1
1070
    44
1040
1.0
1070
    74
1070
     0
1000
MTEXTEND
  0
MTEXT
  5
55EA
330
1A
100
AcDbEntity
  8
SUNPOU
100
AcDbMText
 10
46189.21141628568
 20
27524.80944762269
 30
0.0
 40
3.5
 41
0.0
 71
     7
 72
     5
  1

1001
ACAD
1000
MTEXTBEGIN
1070
    73
1070
     1
1070
    44
1040
1.0
1070
    74
1070
     0
1000
MTEXTEND
1000
MTEXTBEGIN
1070
    73
1070
     1
1070
    44
1040
1.0
1070
    74
1070
     0
1000
MTEXTEND
  0
MTEXT
  5
55EB
330
1A
100
AcDbEntity
  8
SUNPOU
100
AcDbMText
 10
45007.68847015541
 20
38269.57947701873
 30
0.0
 40
10.5
 41
0.0
 71
     9
 72
     5
  1

1001
ACAD
1000
MTEXTBEGIN
1070
    73
1070
     1
1070
    44
1040
1.0
1070
    74
1070
     0
1000
MTEXTEND
1000
MTEXTBEGIN
1070
    73
1070
     1
1070
    44
1040
1.0
1070
    74
1070
     0
1000
MTEXTEND
  0
MTEXT
  5
55EC
330
1A
100
AcDbEntity
  8
SUNPOU
100
AcDbMText
 10
63961.44718748539
 20
55736.15552951081
 30
0.0
 40
10.5
 41
0.0
 71
     9
 72
     5
  1

1001
ACAD
1000
MTEXTBEGIN
1070
    73
1070
     1
1070
    44
1040
1.0
1070
    74
1070
     0
1000
MTEXTEND
1000
MTEXTBEGIN
1070
    73
1070
     1
1070
    44
1040
1.0
1070
    74
1070
     0
1000
MTEXTEND
  0
MTEXT
  5
55ED
330
1A
100
AcDbEntity
  8
SUNPOU
100
AcDbMText
 10
65904.85443419479
 20
53935.10644963278
 30
0.0
 40
3.5
 41
0.0
 71
     9
 72
     5
  1

1001
ACAD
1000
MTEXTBEGIN
1070
    73
1070
     1
1070
    44
1040
1.0
1070
    74
1070
     0
1000
MTEXTEND
1000
MTEXTBEGIN
1070
    73
1070
     1
1070
    44
1040
1.0
1070
    74
1070
     0
1000
MTEXTEND
  0
MTEXT
  5
55EE
330
1A
100
AcDbEntity
  8
SUNPOU
100
AcDbMText
 10
97031.03426681453
 20
96430.05211729015
 30
0.0
 40
10.5
 41
0.0
 71
     9
 72
     5
  1

1001
ACAD
1000
MTEXTBEGIN
1070
    73
1070
     1
1070
    44
1040
1.0
1070
    74
1070
     0
1000
MTEXTEND
1000
MTEXTBEGIN
1070
    73
1070
     1
1070
    44
1040
1.0
1070
    74
1070
     0
1000
MTEXTEND
  0
MTEXT
  5
55EF
330
1A
100
AcDbEntity
  8
SUNPOU
100
AcDbMText
 10
98974.44151352393
 20
94629.00303741212
 30
0.0
 40
3.5
 41
0.0
 71
     9
 72
     5
  1

1001
ACAD
1000
MTEXTBEGIN
1070
    73
1070
     1
1070
    44
1040
1.0
1070
    74
1070
     0
1000
MTEXTEND
1000
MTEXTBEGIN
1070
    73
1070
     1
1070
    44
1040
1.0
1070
    74
1070
     0
1000
MTEXTEND
  0
MTEXT
  5
55F0
330
1A
100
AcDbEntity
  8
SUNPOU
100
AcDbMText
 10
47471.30197261006
 20
42263.21727226519
 30
0.0
 40
10.5
 41
0.0
 71
     9
 72
     5
  1

1001
ACAD
1000
MTEXTBEGIN
1070
    73
1070
     1
1070
    44
1040
1.0
1070
    74
1070
     0
1000
MTEXTEND
1000
MTEXTBEGIN
1070
    73
1070
     1
1070
    44
1040
1.0
1070
    74
1070
     0
1000
MTEXTEND
  0
MTEXT
  5
55F1
330
1A
100
AcDbEntity
  8
SUNPOU
100
AcDbMText
 10
33523.30187223408
 20
23090.81813315298
 30
0.0
 40
3.5
 41
0.0
 71
     7
 72
     5
  1

1001
ACAD
1000
MTEXTBEGIN
1070
    73
1070
     1
1070
    44
1040
1.0
1070
    74
1070
     0
1000
MTEXTEND
1000
MTEXTBEGIN
1070
    73
1070
     1
1070
    44
1040
1.0
1070
    74
1070
     0
1000
MTEXTEND
  0
MTEXT
  5
55F2
330
1A
100
AcDbEntity
  8
SUNPOU
100
AcDbMText
 10
57959.46254102503
 20
50038.08111611014
 30
0.0
 40
10.5
 41
0.0
 71
     9
 72
     5
  1

1001
ACAD
1000
MTEXTBEGIN
1070
    73
1070
     1
1070
    44
1040
1.0
1070
    74
1070
     0
1000
MTEXTEND
1000
MTEXTBEGIN
1070
    73
1070
     1
1070
    44
1040
1.0
1070
    74
1070
     0
1000
MTEXTEND
  0
MTEXT
  5
55F3
330
1A
100
AcDbEntity
  8
SUNPOU
100
AcDbMText
 10
76913.22125835503
 20
67504.65716860222
 30
0.0
 40
10.5
 41
0.0
 71
     9
 72
     5
  1

1001
ACAD
1000
MTEXTBEGIN
1070
    73
1070
     1
1070
    44
1040
1.0
1070
    74
1070
     0
1000
MTEXTEND
1000
MTEXTBEGIN
1070
    73
1070
     1
1070
    44
1040
1.0
1070
    74
1070
     0
1000
MTEXTEND
  0
MTEXT
  5
55F4
330
1A
100
AcDbEntity
  8
SUNPOU
100
AcDbMText
 10
78856.62850506443
 20
65703.6080887242
 30
0.0
 40
3.5
 41
0.0
 71
     9
 72
     5
  1

1001
ACAD
1000
MTEXTBEGIN
1070
    73
1070
     1
1070
    44
1040
1.0
1070
    74
1070
     0
1000
MTEXTEND
1000
MTEXTBEGIN
1070
    73
1070
     1
1070
    44
1040
1.0
1070
    74
1070
     0
1000
MTEXTEND
  0
MTEXT
  5
55F5
330
1A
100
AcDbEntity
  8
SUNPOU
100
AcDbMText
 10
109982.8083376841
 20
108198.5537563815
 30
0.0
 40
10.5
 41
0.0
 71
     9
 72
     5
  1

1001
ACAD
1000
MTEXTBEGIN
1070
    73
1070
     1
1070
    44
1040
1.0
1070
    74
1070
     0
1000
MTEXTEND
1000
MTEXTBEGIN
1070
    73
1070
     1
1070
    44
1040
1.0
1070
    74
1070
     0
1000
MTEXTEND
  0
MTEXT
  5
55F6
330
1A
100
AcDbEntity
  8
SUNPOU
100
AcDbMText
 10
111926.2155843934
 20
106397.5046765035
 30
0.0
 40
3.5
 41
0.0
 71
     9
 72
     5
  1

1001
ACAD
1000
MTEXTBEGIN
1070
    73
1070
     1
1070
    44
1040
1.0
1070
    74
1070
     0
1000
MTEXTEND
1000
MTEXTBEGIN
1070
    73
1070
     1
1070
    44
1040
1.0
1070
    74
1070
     0
1000
MTEXTEND
  0
MTEXT
  5
55F7
330
1A
100
AcDbEntity
  8
SUNPOU
100
AcDbMText
 10
60423.07604347968
 20
54031.71891135658
 30
0.0
 40
10.5
 41
0.0
 71
     9
 72
     5
  1

1001
ACAD
1000
MTEXTBEGIN
1070
    73
1070
     1
1070
    44
1040
1.0
1070
    74
1070
     0
1000
MTEXTEND
1000
MTEXTBEGIN
1070
    73
1070
     1
1070
    44
1040
1.0
1070
    74
1070
     0
1000
MTEXTEND
  0
MTEXT
  5
55F8
330
1A
100
AcDbEntity
  8
SUNPOU
100
AcDbMText
 10
46475.07594310369
 20
34859.3197722444
 30
0.0
 40
3.5
 41
0.0
 71
     7
 72
     5
  1

1001
ACAD
1000
MTEXTBEGIN
1070
    73
1070
     1
1070
    44
1040
1.0
1070
    74
1070
     0
1000
MTEXTEND
1000
MTEXTBEGIN
1070
    73
1070
     1
1070
    44
1040
1.0
1070
    74
1070
     0
1000
MTEXTEND
  0
MTEXT
  5
55F9
330
1A
100
AcDbEntity
  8
SUNPOU
100
AcDbMText
 10
74027.35402123588
 20
68370.58278833383
 30
0.0
 40
10.5
 41
0.0
 71
     9
 72
     5
  1

1001
ACAD
1000
MTEXTBEGIN
1070
    73
1070
     1
1070
    44
1040
1.0
1070
    74
1070
     0
1000
MTEXTEND
1000
MTEXTBEGIN
1070
    73
1070
     1
1070
    44
1040
1.0
1070
    74
1070
     0
1000
MTEXTEND
  0
MTEXT
  5
55FA
330
1A
100
AcDbEntity
  8
SUNPOU
100
AcDbMText
 10
75970.7612679453
 20
66569.53370845583
 30
0.0
 40
3.5
 41
0.0
 71
     9
 72
     5
  1

1001
ACAD
1000
MTEXTBEGIN
1070
    73
1070
     1
1070
    44
1040
1.0
1070
    74
1070
     0
1000
MTEXTEND
1000
MTEXTBEGIN
1070
    73
1070
     1
1070
    44
1040
1.0
1070
    74
1070
     0
1000
MTEXTEND
  0
MTEXT
  5
55FB
330
1A
100
AcDbEntity
  8
SUNPOU
100
AcDbMText
 10
107096.941100565
 20
109064.4793761132
 30
0.0
 40
10.5
 41
0.0
 71
     9
 72
     5
  1

1001
ACAD
1000
MTEXTBEGIN
1070
    73
1070
     1
1070
    44
1040
1.0
1070
    74
1070
     0
1000
MTEXTEND
1000
MTEXTBEGIN
1070
    73
1070
     1
1070
    44
1040
1.0
1070
    74
1070
     0
1000
MTEXTEND
  0
MTEXT
  5
55FC
330
1A
100
AcDbEntity
  8
SUNPOU
100
AcDbMText
 10
109040.3483472744
 20
107263.430296235
 30
0.0
 40
3.5
 41
0.0
 71
     9
 72
     5
  1

1001
ACAD
1000
MTEXTBEGIN
1070
    73
1070
     1
1070
    44
1040
1.0
1070
    74
1070
     0
1000
MTEXTEND
1000
MTEXTBEGIN
1070
    73
1070
     1
1070
    44
1040
1.0
1070
    74
1070
     0
1000
MTEXTEND
  0
MTEXT
  5
55FD
330
1A
100
AcDbEntity
  8
SUNPOU
100
AcDbMText
 10
105709.1709283621
 20
108141.3777665285
 30
0.0
 40
10.5
 41
0.0
 71
     9
 72
     5
  1

1001
ACAD
1000
MTEXTBEGIN
1070
    73
1070
     1
1070
    44
1040
1.0
1070
    74
1070
     0
1000
MTEXTEND
1000
MTEXTBEGIN
1070
    73
1070
     1
1070
    44
1040
1.0
1070
    74
1070
     0
1000
MTEXTEND
  0
MTEXT
  5
55FE
330
1A
100
AcDbEntity
  8
SUNPOU
100
AcDbMText
 10
107652.5781750715
 20
106340.3286866505
 30
0.0
 40
3.5
 41
0.0
 71
     9
 72
     5
  1

1001
ACAD
1000
MTEXTBEGIN
1070
    73
1070
     1
1070
    44
1040
1.0
1070
    74
1070
     0
1000
MTEXTEND
1000
MTEXTBEGIN
1070
    73
1070
     1
1070
    44
1040
1.0
1070
    74
1070
     0
1000
MTEXTEND
  0
MTEXT
  5
55FF
330
1A
100
AcDbEntity
  8
SUNPOU
100
AcDbMText
 10
73193.09268743351
 20
66158.78082845057
 30
0.0
 40
10.5
 41
0.0
 71
     9
 72
     5
  1

1001
ACAD
1000
MTEXTBEGIN
1070
    73
1070
     1
1070
    44
1040
1.0
1070
    74
1070
     0
1000
MTEXTEND
1000
MTEXTBEGIN
1070
    73
1070
     1
1070
    44
1040
1.0
1070
    74
1070
     0
1000
MTEXTEND
  0
MTEXT
  5
5600
330
1A
100
AcDbEntity
  8
SUNPOU
100
AcDbMText
 10
75916.39889159807
 20
66563.46252003162
 30
0.0
 40
3.5
 41
0.0
 71
     9
 72
     5
  1

1001
ACAD
1000
MTEXTBEGIN
1070
    73
1070
     1
1070
    44
1040
1.0
1070
    74
1070
     0
1000
MTEXTEND
1000
MTEXTBEGIN
1070
    73
1070
     1
1070
    44
1040
1.0
1070
    74
1070
     0
1000
MTEXTEND
  0
MTEXT
  5
5601
330
1A
100
AcDbEntity
  8
SUNPOU
100
AcDbMText
 10
75124.04436649058
 20
63402.1566819768
 30
0.0
 40
10.5
 41
0.0
 71
     9
 72
     5
  1

1001
ACAD
1000
MTEXTBEGIN
1070
    73
1070
     1
1070
    44
1040
1.0
1070
    74
1070
     0
1000
MTEXTEND
1000
MTEXTBEGIN
1070
    73
1070
     1
1070
    44
1040
1.0
1070
    74
1070
     0
1000
MTEXTEND
  0
MTEXT
  5
5602
330
1A
100
AcDbEntity
  8
SUNPOU
100
AcDbMText
 10
77067.4516132
 20
61601.1076020988
 30
0.0
 40
3.5
 41
0.0
 71
     9
 72
     5
  1

1001
ACAD
1000
MTEXTBEGIN
1070
    73
1070
     1
1070
    44
1040
1.0
1070
    74
1070
     0
1000
MTEXTEND
1000
MTEXTBEGIN
1070
    73
1070
     1
1070
    44
1040
1.0
1070
    74
1070
     0
1000
MTEXTEND
  0
MTEXT
  5
5603
330
1A
100
AcDbEntity
  8
SUNPOU
100
AcDbMText
 10
77012.54710378659
 20
61488.33571981449
 30
0.0
 40
3.5
 41
0.0
 71
     9
 72
     5
  1

1001
ACAD
1000
MTEXTBEGIN
1070
    73
1070
     1
1070
    44
1040
1.0
1070
    74
1070
     0
1000
MTEXTEND
1000
MTEXTBEGIN
1070
    73
1070
     1
1070
    44
1040
1.0
1070
    74
1070
     0
1000
MTEXTEND
  0
MTEXT
  5
5604
330
1A
100
AcDbEntity
  8
SUNPOU
100
AcDbMText
 10
76376.61896736668
 20
60677.01447874798
 30
0.0
 40
3.5
 41
0.0
 71
     9
 72
     5
  1

1001
ACAD
1000
MTEXTBEGIN
1070
    73
1070
     1
1070
    44
1040
1.0
1070
    74
1070
     0
1000
MTEXTEND
1000
MTEXTBEGIN
1070
    73
1070
     1
1070
    44
1040
1.0
1070
    74
1070
     0
1000
MTEXTEND
  0
MTEXT
  5
5605
330
1A
100
AcDbEntity
  8
SUNPOU
100
AcDbMText
 10
76375.37854794595
 20
60676.76650181048
 30
0.0
 40
10.5
 41
0.0
 71
     9
 72
     5
  1

1001
ACAD
1000
MTEXTBEGIN
1070
    73
1070
     1
1070
    44
1040
1.0
1070
    74
1070
     0
1000
MTEXTEND
1000
MTEXTBEGIN
1070
    73
1070
     1
1070
    44
1040
1.0
1070
    74
1070
     0
1000
MTEXTEND
  0
MTEXT
  5
5606
330
1A
100
AcDbEntity
  8
SUNPOU
100
AcDbMText
 10
84709.93991079748
 20
78034.0328293557
 30
0.0
 40
10.5
 41
0.0
 71
     9
 72
     5
  1

1001
ACAD
1000
MTEXTBEGIN
1070
    73
1070
     1
1070
    44
1040
1.0
1070
    74
1070
     0
1000
MTEXTEND
1000
MTEXTBEGIN
1070
    73
1070
     1
1070
    44
1040
1.0
1070
    74
1070
     0
1000
MTEXTEND
  0
MTEXT
  5
5607
330
1A
100
AcDbEntity
  8
SUNPOU
100
AcDbMText
 10
93432.10747671546
 20
85449.86736089315
 30
0.0
 40
10.5
 41
0.0
 71
     9
 72
     5
  1

1001
ACAD
1000
MTEXTBEGIN
1070
    73
1070
     1
1070
    44
1040
1.0
1070
    74
1070
     0
1000
MTEXTEND
1000
MTEXTBEGIN
1070
    73
1070
     1
1070
    44
1040
1.0
1070
    74
1070
     0
1000
MTEXTEND
  0
MTEXT
  5
5608
330
1A
100
AcDbEntity
  8
SUNPOU
100
AcDbMText
 10
112385.8661940454
 20
102916.4434133851
 30
0.0
 40
10.5
 41
0.0
 71
     9
 72
     5
  1

1001
ACAD
1000
MTEXTBEGIN
1070
    73
1070
     1
1070
    44
1040
1.0
1070
    74
1070
     0
1000
MTEXTEND
1000
MTEXTBEGIN
1070
    73
1070
     1
1070
    44
1040
1.0
1070
    74
1070
     0
1000
MTEXTEND
  0
MTEXT
  5
5609
330
1A
100
AcDbEntity
  8
SUNPOU
100
AcDbMText
 10
114329.2734407548
 20
101115.3943335072
 30
0.0
 40
3.5
 41
0.0
 71
     9
 72
     5
  1

1001
ACAD
1000
MTEXTBEGIN
1070
    73
1070
     1
1070
    44
1040
1.0
1070
    74
1070
     0
1000
MTEXTEND
1000
MTEXTBEGIN
1070
    73
1070
     1
1070
    44
1040
1.0
1070
    74
1070
     0
1000
MTEXTEND
  0
MTEXT
  5
560A
330
1A
100
AcDbEntity
  8
SUNPOU
100
AcDbMText
 10
145455.4532733745
 20
143610.3400011645
 30
0.0
 40
10.5
 41
0.0
 71
     9
 72
     5
  1

1001
ACAD
1000
MTEXTBEGIN
1070
    73
1070
     1
1070
    44
1040
1.0
1070
    74
1070
     0
1000
MTEXTEND
1000
MTEXTBEGIN
1070
    73
1070
     1
1070
    44
1040
1.0
1070
    74
1070
     0
1000
MTEXTEND
  0
MTEXT
  5
560B
330
1A
100
AcDbEntity
  8
SUNPOU
100
AcDbMText
 10
147398.8605200839
 20
141809.2909212864
 30
0.0
 40
3.5
 41
0.0
 71
     9
 72
     5
  1

1001
ACAD
1000
MTEXTBEGIN
1070
    73
1070
     1
1070
    44
1040
1.0
1070
    74
1070
     0
1000
MTEXTEND
1000
MTEXTBEGIN
1070
    73
1070
     1
1070
    44
1040
1.0
1070
    74
1070
     0
1000
MTEXTEND
  0
MTEXT
  5
560C
330
1A
100
AcDbEntity
  8
SUNPOU
100
AcDbMText
 10
95895.72097917011
 20
89443.50515613962
 30
0.0
 40
10.5
 41
0.0
 71
     9
 72
     5
  1

1001
ACAD
1000
MTEXTBEGIN
1070
    73
1070
     1
1070
    44
1040
1.0
1070
    74
1070
     0
1000
MTEXTEND
1000
MTEXTBEGIN
1070
    73
1070
     1
1070
    44
1040
1.0
1070
    74
1070
     0
1000
MTEXTEND
  0
MTEXT
  5
560D
330
1A
100
AcDbEntity
  8
SUNPOU
100
AcDbMText
 10
81947.72087879414
 20
70271.1060170274
 30
0.0
 40
3.5
 41
0.0
 71
     7
 72
     5
  1

1001
ACAD
1000
MTEXTBEGIN
1070
    73
1070
     1
1070
    44
1040
1.0
1070
    74
1070
     0
1000
MTEXTEND
1000
MTEXTBEGIN
1070
    73
1070
     1
1070
    44
1040
1.0
1070
    74
1070
     0
1000
MTEXTEND
  0
MTEXT
  5
560E
330
1A
100
AcDbEntity
  8
SUNPOU
100
AcDbMText
 10
62932.89027578729
 20
58033.25474784561
 30
0.0
 40
10.5
 41
0.0
 71
     7
 72
     5
  1

1001
ACAD
1000
MTEXTBEGIN
1070
    73
1070
     1
1070
    44
1040
1.0
1070
    74
1070
     0
1000
MTEXTEND
1000
MTEXTBEGIN
1070
    73
1070
     1
1070
    44
1040
1.0
1070
    74
1070
     0
1000
MTEXTEND
  0
MTEXT
  5
560F
330
1A
100
AcDbEntity
  8
SUNPOU
100
AcDbMText
 10
50475.66201083918
 20
42188.32316974718
 30
0.0
 40
35.0
 41
0.0
 71
     9
 72
     5
  1

1001
ACAD
1000
MTEXTBEGIN
1070
    73
1070
     1
1070
    44
1040
1.0
1070
    74
1070
     0
1000
MTEXTEND
1000
MTEXTBEGIN
1070
    73
1070
     1
1070
    44
1040
1.0
1070
    74
1070
     0
1000
MTEXTEND
  0
MTEXT
  5
5610
330
1A
100
AcDbEntity
  8
SUNPOU
100
AcDbMText
 10
49384.14706841413
 20
42797.0985797959
 30
0.0
 40
350.0000004171781
 41
0.0
 71
     7
 72
     5
  1

1001
ACAD
1000
MTEXTBEGIN
1070
    73
1070
     1
1070
    44
1040
1.0
1070
    74
1070
     0
1000
MTEXTEND
1000
MTEXTBEGIN
1070
    73
1070
     1
1070
    44
1040
1.0
1070
    74
1070
     0
1000
MTEXTEND
  0
MTEXT
  5
5611
330
1A
100
AcDbEntity
  8
0
100
AcDbMText
 10
55428.09782635704
 20
40777.0209419321
 30
0.0
 40
8.0
 41
0.0
 71
     7
 72
     5
  1

1001
ACAD
1000
MTEXTBEGIN
1070
    73
1070
     1
1070
    44
1040
1.0
1070
    74
1070
     0
1000
MTEXTEND
1000
MTEXTBEGIN
1070
    73
1070
     1
1070
    44
1040
1.0
1070
    74
1070
     0
1000
MTEXTEND
  0
MTEXT
  5
5612
330
1A
100
AcDbEntity
  8
0
100
AcDbMText
 10
57713.45551625193
 20
41747.81123668316
 30
0.0
 40
8.0
 41
0.0
 71
     7
 72
     5
  1

1001
ACAD
1000
MTEXTBEGIN
1070
    73
1070
     1
1070
    44
1040
1.0
1070
    74
1070
     0
1000
MTEXTEND
1000
MTEXTBEGIN
1070
    73
1070
     1
1070
    44
1040
1.0
1070
    74
1070
     0
1000
MTEXTEND
  0
MTEXT
  5
5613
330
1A
100
AcDbEntity
  8
SUNPOU
100
AcDbMText
 10
60379.35253693407
 20
51259.9226290583
 30
0.0
 40
10.5
 41
0.0
 71
     1
 72
     5
  1

1001
ACAD
1000
MTEXTBEGIN
1070
    73
1070
     1
1070
    44
1040
1.0
1070
    74
1070
     0
1000
MTEXTEND
1000
MTEXTBEGIN
1070
    73
1070
     1
1070
    44
1040
1.0
1070
    74
1070
     0
1000
MTEXTEND
  0
MTEXT
  5
5614
330
1A
100
AcDbEntity
  8
SUNPOU
100
AcDbMText
 10
52448.42934099813
 20
50313.12949514535
 30
0.0
 40
10.5
 41
0.0
 71
     7
 72
     5
  1

1001
ACAD
1000
MTEXTBEGIN
1070
    73
1070
     1
1070
    44
1040
1.0
1070
    74
1070
     0
1000
MTEXTEND
1000
MTEXTBEGIN
1070
    73
1070
     1
1070
    44
1040
1.0
1070
    74
1070
     0
1000
MTEXTEND
  0
MTEXT
  5
5615
330
1A
100
AcDbEntity
  8
SUNPOU
100
AcDbMText
 10
55397.4130055109
 20
55213.80556698819
 30
0.0
 40
10.5
 41
0.0
 71
     7
 72
     5
  1

1001
ACAD
1000
MTEXTBEGIN
1070
    73
1070
     1
1070
    44
1040
1.0
1070
    74
1070
     0
1000
MTEXTEND
1000
MTEXTBEGIN
1070
    73
1070
     1
1070
    44
1040
1.0
1070
    74
1070
     0
1000
MTEXTEND
  0
MTEXT
  5
5616
330
1A
100
AcDbEntity
  8
SUNPOU
100
AcDbMText
 10
59906.49113346147
 20
57650.10631460826
 30
0.0
 40
10.5
 41
0.0
 71
     7
 72
     5
  1

1001
ACAD
1000
MTEXTBEGIN
1070
    73
1070
     1
1070
    44
1040
1.0
1070
    74
1070
     0
1000
MTEXTEND
1000
MTEXTBEGIN
1070
    73
1070
     1
1070
    44
1040
1.0
1070
    74
1070
     0
1000
MTEXTEND
  0
MTEXT
  5
5617
330
1A
100
AcDbEntity
  8
SUNPOU
100
AcDbMText
 10
43507.32902022978
 20
36647.70246499718
 30
0.0
 40
10.5
 41
0.0
 71
     7
 72
     5
  1

1001
ACAD
1000
MTEXTBEGIN
1070
    73
1070
     1
1070
    44
1040
1.0
1070
    74
1070
     0
1000
MTEXTEND
1000
MTEXTBEGIN
1070
    73
1070
     1
1070
    44
1040
1.0
1070
    74
1070
     0
1000
MTEXTEND
  0
MTEXT
  5
5618
330
1A
100
AcDbEntity
  8
SUNPOU
100
AcDbMText
 10
94698.84745413006
 20
82320.68302864544
 30
0.0
 40
10.5
 41
0.0
 71
     9
 72
     5
  1

1001
ACAD
1000
MTEXTBEGIN
1070
    73
1070
     1
1070
    44
1040
1.0
1070
    74
1070
     0
1000
MTEXTEND
1000
MTEXTBEGIN
1070
    73
1070
     1
1070
    44
1040
1.0
1070
    74
1070
     0
1000
MTEXTEND
  0
MTEXT
  5
5619
330
1A
100
AcDbEntity
  8
SUNPOU
100
AcDbMText
 10
103421.015020048
 20
89736.5175601829
 30
0.0
 40
10.5
 41
0.0
 71
     9
 72
     5
  1

1001
ACAD
1000
MTEXTBEGIN
1070
    73
1070
     1
1070
    44
1040
1.0
1070
    74
1070
     0
1000
MTEXTEND
1000
MTEXTBEGIN
1070
    73
1070
     1
1070
    44
1040
1.0
1070
    74
1070
     0
1000
MTEXTEND
  0
MTEXT
  5
561A
330
1A
100
AcDbEntity
  8
SUNPOU
100
AcDbMText
 10
122374.773737378
 20
107203.0936126749
 30
0.0
 40
10.5
 41
0.0
 71
     9
 72
     5
  1

1001
ACAD
1000
MTEXTBEGIN
1070
    73
1070
     1
1070
    44
1040
1.0
1070
    74
1070
     0
1000
MTEXTEND
1000
MTEXTBEGIN
1070
    73
1070
     1
1070
    44
1040
1.0
1070
    74
1070
     0
1000
MTEXTEND
  0
MTEXT
  5
561B
330
1A
100
AcDbEntity
  8
SUNPOU
100
AcDbMText
 10
124318.1809840874
 20
105402.0445327969
 30
0.0
 40
3.5
 41
0.0
 71
     9
 72
     5
  1

1001
ACAD
1000
MTEXTBEGIN
1070
    73
1070
     1
1070
    44
1040
1.0
1070
    74
1070
     0
1000
MTEXTEND
1000
MTEXTBEGIN
1070
    73
1070
     1
1070
    44
1040
1.0
1070
    74
1070
     0
1000
MTEXTEND
  0
MTEXT
  5
561C
330
1A
100
AcDbEntity
  8
SUNPOU
100
AcDbMText
 10
155444.3608167071
 20
147896.9902004542
 30
0.0
 40
10.5
 41
0.0
 71
     9
 72
     5
  1

1001
ACAD
1000
MTEXTBEGIN
1070
    73
1070
     1
1070
    44
1040
1.0
1070
    74
1070
     0
1000
MTEXTEND
1000
MTEXTBEGIN
1070
    73
1070
     1
1070
    44
1040
1.0
1070
    74
1070
     0
1000
MTEXTEND
  0
MTEXT
  5
561D
330
1A
100
AcDbEntity
  8
SUNPOU
100
AcDbMText
 10
157387.7680634165
 20
146095.9411205762
 30
0.0
 40
3.5
 41
0.0
 71
     9
 72
     5
  1

1001
ACAD
1000
MTEXTBEGIN
1070
    73
1070
     1
1070
    44
1040
1.0
1070
    74
1070
     0
1000
MTEXTEND
1000
MTEXTBEGIN
1070
    73
1070
     1
1070
    44
1040
1.0
1070
    74
1070
     0
1000
MTEXTEND
  0
MTEXT
  5
561E
330
1A
100
AcDbEntity
  8
SUNPOU
100
AcDbMText
 10
105884.6285225027
 20
93730.15535542933
 30
0.0
 40
10.5
 41
0.0
 71
     9
 72
     5
  1

1001
ACAD
1000
MTEXTBEGIN
1070
    73
1070
     1
1070
    44
1040
1.0
1070
    74
1070
     0
1000
MTEXTEND
1000
MTEXTBEGIN
1070
    73
1070
     1
1070
    44
1040
1.0
1070
    74
1070
     0
1000
MTEXTEND
  0
MTEXT
  5
561F
330
1A
100
AcDbEntity
  8
SUNPOU
100
AcDbMText
 10
91936.6284221267
 20
74557.75621631714
 30
0.0
 40
3.5
 41
0.0
 71
     7
 72
     5
  1

1001
ACAD
1000
MTEXTBEGIN
1070
    73
1070
     1
1070
    44
1040
1.0
1070
    74
1070
     0
1000
MTEXTEND
1000
MTEXTBEGIN
1070
    73
1070
     1
1070
    44
1040
1.0
1070
    74
1070
     0
1000
MTEXTEND
  0
MTEXT
  5
5620
330
1A
100
AcDbEntity
  8
SUNPOU
100
AcDbMText
 10
72921.79781911986
 20
62319.90494713532
 30
0.0
 40
10.5
 41
0.0
 71
     7
 72
     5
  1

1001
ACAD
1000
MTEXTBEGIN
1070
    73
1070
     1
1070
    44
1040
1.0
1070
    74
1070
     0
1000
MTEXTEND
1000
MTEXTBEGIN
1070
    73
1070
     1
1070
    44
1040
1.0
1070
    74
1070
     0
1000
MTEXTEND
  0
MTEXT
  5
5621
330
1A
100
AcDbEntity
  8
SUNPOU
100
AcDbMText
 10
60464.56955417175
 20
46474.97336903692
 30
0.0
 40
35.0
 41
0.0
 71
     9
 72
     5
  1

1001
ACAD
1000
MTEXTBEGIN
1070
    73
1070
     1
1070
    44
1040
1.0
1070
    74
1070
     0
1000
MTEXTEND
1000
MTEXTBEGIN
1070
    73
1070
     1
1070
    44
1040
1.0
1070
    74
1070
     0
1000
MTEXTEND
  0
MTEXT
  5
5622
330
1A
100
AcDbEntity
  8
SUNPOU
100
AcDbMText
 10
59373.05461174673
 20
47083.74877908561
 30
0.0
 40
350.0000004171781
 41
0.0
 71
     7
 72
     5
  1

1001
ACAD
1000
MTEXTBEGIN
1070
    73
1070
     1
1070
    44
1040
1.0
1070
    74
1070
     0
1000
MTEXTEND
1000
MTEXTBEGIN
1070
    73
1070
     1
1070
    44
1040
1.0
1070
    74
1070
     0
1000
MTEXTEND
  0
MTEXT
  5
5623
330
1A
100
AcDbEntity
  8
0
100
AcDbMText
 10
65417.00536968963
 20
45063.67114122186
 30
0.0
 40
8.0
 41
0.0
 71
     7
 72
     5
  1

1001
ACAD
1000
MTEXTBEGIN
1070
    73
1070
     1
1070
    44
1040
1.0
1070
    74
1070
     0
1000
MTEXTEND
1000
MTEXTBEGIN
1070
    73
1070
     1
1070
    44
1040
1.0
1070
    74
1070
     0
1000
MTEXTEND
  0
MTEXT
  5
5624
330
1A
100
AcDbEntity
  8
0
100
AcDbMText
 10
67702.36305958452
 20
46034.46143597292
 30
0.0
 40
8.0
 41
0.0
 71
     7
 72
     5
  1

1001
ACAD
1000
MTEXTBEGIN
1070
    73
1070
     1
1070
    44
1040
1.0
1070
    74
1070
     0
1000
MTEXTEND
1000
MTEXTBEGIN
1070
    73
1070
     1
1070
    44
1040
1.0
1070
    74
1070
     0
1000
MTEXTEND
  0
MTEXT
  5
5625
330
1A
100
AcDbEntity
  8
SUNPOU
100
AcDbMText
 10
70368.26008026666
 20
55546.57282834803
 30
0.0
 40
10.5
 41
0.0
 71
     1
 72
     5
  1

1001
ACAD
1000
MTEXTBEGIN
1070
    73
1070
     1
1070
    44
1040
1.0
1070
    74
1070
     0
1000
MTEXTEND
1000
MTEXTBEGIN
1070
    73
1070
     1
1070
    44
1040
1.0
1070
    74
1070
     0
1000
MTEXTEND
  0
MTEXT
  5
5626
330
1A
100
AcDbEntity
  8
SUNPOU
100
AcDbMText
 10
62437.33688433072
 20
54599.77969443507
 30
0.0
 40
10.5
 41
0.0
 71
     7
 72
     5
  1

1001
ACAD
1000
MTEXTBEGIN
1070
    73
1070
     1
1070
    44
1040
1.0
1070
    74
1070
     0
1000
MTEXTEND
1000
MTEXTBEGIN
1070
    73
1070
     1
1070
    44
1040
1.0
1070
    74
1070
     0
1000
MTEXTEND
  0
MTEXT
  5
5627
330
1A
100
AcDbEntity
  8
SUNPOU
100
AcDbMText
 10
65386.32054884348
 20
59500.45576627792
 30
0.0
 40
10.5
 41
0.0
 71
     7
 72
     5
  1

1001
ACAD
1000
MTEXTBEGIN
1070
    73
1070
     1
1070
    44
1040
1.0
1070
    74
1070
     0
1000
MTEXTEND
1000
MTEXTBEGIN
1070
    73
1070
     1
1070
    44
1040
1.0
1070
    74
1070
     0
1000
MTEXTEND
  0
MTEXT
  5
5628
330
1A
100
AcDbEntity
  8
SUNPOU
100
AcDbMText
 10
69895.39867679405
 20
61936.756513898
 30
0.0
 40
10.5
 41
0.0
 71
     7
 72
     5
  1

1001
ACAD
1000
MTEXTBEGIN
1070
    73
1070
     1
1070
    44
1040
1.0
1070
    74
1070
     0
1000
MTEXTEND
1000
MTEXTBEGIN
1070
    73
1070
     1
1070
    44
1040
1.0
1070
    74
1070
     0
1000
MTEXTEND
  0
MTEXT
  5
5629
330
1A
100
AcDbEntity
  8
SUNPOU
100
AcDbMText
 10
53496.23656356237
 20
40934.35266428691
 30
0.0
 40
10.5
 41
0.0
 71
     7
 72
     5
  1

1001
ACAD
1000
MTEXTBEGIN
1070
    73
1070
     1
1070
    44
1040
1.0
1070
    74
1070
     0
1000
MTEXTEND
1000
MTEXTBEGIN
1070
    73
1070
     1
1070
    44
1040
1.0
1070
    74
1070
     0
1000
MTEXTEND
  0
MTEXT
  5
562A
330
1A
100
AcDbEntity
  8
SUNPOU
100
AcDbMText
 10
55306.99947493731
 20
47261.76665176546
 30
0.0
 40
10.5
 41
0.0
 71
     9
 72
     5
  1

1001
ACAD
1000
MTEXTBEGIN
1070
    73
1070
     1
1070
    44
1040
1.0
1070
    74
1070
     0
1000
MTEXTEND
1000
MTEXTBEGIN
1070
    73
1070
     1
1070
    44
1040
1.0
1070
    74
1070
     0
1000
MTEXTEND
  0
MTEXT
  5
562B
330
1A
100
AcDbEntity
  8
SUNPOU
100
AcDbMText
 10
64029.16704085527
 20
54677.60118330295
 30
0.0
 40
10.5
 41
0.0
 71
     9
 72
     5
  1

1001
ACAD
1000
MTEXTBEGIN
1070
    73
1070
     1
1070
    44
1040
1.0
1070
    74
1070
     0
1000
MTEXTEND
1000
MTEXTBEGIN
1070
    73
1070
     1
1070
    44
1040
1.0
1070
    74
1070
     0
1000
MTEXTEND
  0
MTEXT
  5
562C
330
1A
100
AcDbEntity
  8
SUNPOU
100
AcDbMText
 10
82982.92575818527
 20
72144.17723579499
 30
0.0
 40
10.5
 41
0.0
 71
     9
 72
     5
  1

1001
ACAD
1000
MTEXTBEGIN
1070
    73
1070
     1
1070
    44
1040
1.0
1070
    74
1070
     0
1000
MTEXTEND
1000
MTEXTBEGIN
1070
    73
1070
     1
1070
    44
1040
1.0
1070
    74
1070
     0
1000
MTEXTEND
  0
MTEXT
  5
562D
330
1A
100
AcDbEntity
  8
SUNPOU
100
AcDbMText
 10
84926.33300489467
 20
70343.12815591697
 30
0.0
 40
3.5
 41
0.0
 71
     9
 72
     5
  1

1001
ACAD
1000
MTEXTBEGIN
1070
    73
1070
     1
1070
    44
1040
1.0
1070
    74
1070
     0
1000
MTEXTEND
1000
MTEXTBEGIN
1070
    73
1070
     1
1070
    44
1040
1.0
1070
    74
1070
     0
1000
MTEXTEND
  0
MTEXT
  5
562E
330
1A
100
AcDbEntity
  8
SUNPOU
100
AcDbMText
 10
116052.5128375142
 20
112838.0738235742
 30
0.0
 40
10.5
 41
0.0
 71
     9
 72
     5
  1

1001
ACAD
1000
MTEXTBEGIN
1070
    73
1070
     1
1070
    44
1040
1.0
1070
    74
1070
     0
1000
MTEXTEND
1000
MTEXTBEGIN
1070
    73
1070
     1
1070
    44
1040
1.0
1070
    74
1070
     0
1000
MTEXTEND
  0
MTEXT
  5
562F
330
1A
100
AcDbEntity
  8
SUNPOU
100
AcDbMText
 10
117995.9200842238
 20
111037.0247436963
 30
0.0
 40
3.5
 41
0.0
 71
     9
 72
     5
  1

1001
ACAD
1000
MTEXTBEGIN
1070
    73
1070
     1
1070
    44
1040
1.0
1070
    74
1070
     0
1000
MTEXTEND
1000
MTEXTBEGIN
1070
    73
1070
     1
1070
    44
1040
1.0
1070
    74
1070
     0
1000
MTEXTEND
  0
MTEXT
  5
5630
330
1A
100
AcDbEntity
  8
SUNPOU
100
AcDbMText
 10
66492.78054330994
 20
58671.23897854939
 30
0.0
 40
10.5
 41
0.0
 71
     9
 72
     5
  1

1001
ACAD
1000
MTEXTBEGIN
1070
    73
1070
     1
1070
    44
1040
1.0
1070
    74
1070
     0
1000
MTEXTEND
1000
MTEXTBEGIN
1070
    73
1070
     1
1070
    44
1040
1.0
1070
    74
1070
     0
1000
MTEXTEND
  0
MTEXT
  5
5631
330
1A
100
AcDbEntity
  8
SUNPOU
100
AcDbMText
 10
52544.78044293397
 20
39498.83983943717
 30
0.0
 40
3.5
 41
0.0
 71
     7
 72
     5
  1

1001
ACAD
1000
MTEXTBEGIN
1070
    73
1070
     1
1070
    44
1040
1.0
1070
    74
1070
     0
1000
MTEXTEND
1000
MTEXTBEGIN
1070
    73
1070
     1
1070
    44
1040
1.0
1070
    74
1070
     0
1000
MTEXTEND
  0
MTEXT
  5
5632
330
1A
100
AcDbEntity
  8
SUNPOU
100
AcDbMText
 10
66237.13112570454
 20
48857.90306045851
 30
0.0
 40
10.5
 41
0.0
 71
     9
 72
     5
  1

1001
ACAD
1000
MTEXTBEGIN
1070
    73
1070
     1
1070
    44
1040
1.0
1070
    74
1070
     0
1000
MTEXTEND
1000
MTEXTBEGIN
1070
    73
1070
     1
1070
    44
1040
1.0
1070
    74
1070
     0
1000
MTEXTEND
  0
MTEXT
  5
5633
330
1A
100
AcDbEntity
  8
SUNPOU
100
AcDbMText
 10
74959.29869162253
 20
56273.73759199599
 30
0.0
 40
10.5
 41
0.0
 71
     9
 72
     5
  1

1001
ACAD
1000
MTEXTBEGIN
1070
    73
1070
     1
1070
    44
1040
1.0
1070
    74
1070
     0
1000
MTEXTEND
1000
MTEXTBEGIN
1070
    73
1070
     1
1070
    44
1040
1.0
1070
    74
1070
     0
1000
MTEXTEND
  0
MTEXT
  5
5634
330
1A
100
AcDbEntity
  8
SUNPOU
100
AcDbMText
 10
93913.0574089525
 20
73740.31364448805
 30
0.0
 40
10.5
 41
0.0
 71
     9
 72
     5
  1

1001
ACAD
1000
MTEXTBEGIN
1070
    73
1070
     1
1070
    44
1040
1.0
1070
    74
1070
     0
1000
MTEXTEND
1000
MTEXTBEGIN
1070
    73
1070
     1
1070
    44
1040
1.0
1070
    74
1070
     0
1000
MTEXTEND
  0
MTEXT
  5
5635
330
1A
100
AcDbEntity
  8
SUNPOU
100
AcDbMText
 10
95856.46465566192
 20
71939.26456461004
 30
0.0
 40
3.5
 41
0.0
 71
     9
 72
     5
  1

1001
ACAD
1000
MTEXTBEGIN
1070
    73
1070
     1
1070
    44
1040
1.0
1070
    74
1070
     0
1000
MTEXTEND
1000
MTEXTBEGIN
1070
    73
1070
     1
1070
    44
1040
1.0
1070
    74
1070
     0
1000
MTEXTEND
  0
MTEXT
  5
5636
330
1A
100
AcDbEntity
  8
SUNPOU
100
AcDbMText
 10
126982.6444882816
 20
114434.2102322673
 30
0.0
 40
10.5
 41
0.0
 71
     9
 72
     5
  1

1001
ACAD
1000
MTEXTBEGIN
1070
    73
1070
     1
1070
    44
1040
1.0
1070
    74
1070
     0
1000
MTEXTEND
1000
MTEXTBEGIN
1070
    73
1070
     1
1070
    44
1040
1.0
1070
    74
1070
     0
1000
MTEXTEND
  0
MTEXT
  5
5637
330
1A
100
AcDbEntity
  8
SUNPOU
100
AcDbMText
 10
128926.051734991
 20
112633.1611523893
 30
0.0
 40
3.5
 41
0.0
 71
     9
 72
     5
  1

1001
ACAD
1000
MTEXTBEGIN
1070
    73
1070
     1
1070
    44
1040
1.0
1070
    74
1070
     0
1000
MTEXTEND
1000
MTEXTBEGIN
1070
    73
1070
     1
1070
    44
1040
1.0
1070
    74
1070
     0
1000
MTEXTEND
  0
MTEXT
  5
5638
330
1A
100
AcDbEntity
  8
SUNPOU
100
AcDbMText
 10
77422.91219407717
 20
60267.37538724244
 30
0.0
 40
10.5
 41
0.0
 71
     9
 72
     5
  1

1001
ACAD
1000
MTEXTBEGIN
1070
    73
1070
     1
1070
    44
1040
1.0
1070
    74
1070
     0
1000
MTEXTEND
1000
MTEXTBEGIN
1070
    73
1070
     1
1070
    44
1040
1.0
1070
    74
1070
     0
1000
MTEXTEND
  0
MTEXT
  5
5639
330
1A
100
AcDbEntity
  8
SUNPOU
100
AcDbMText
 10
63474.91209370119
 20
41094.97624813023
 30
0.0
 40
3.5
 41
0.0
 71
     7
 72
     5
  1

1001
ACAD
1000
MTEXTBEGIN
1070
    73
1070
     1
1070
    44
1040
1.0
1070
    74
1070
     0
1000
MTEXTEND
1000
MTEXTBEGIN
1070
    73
1070
     1
1070
    44
1040
1.0
1070
    74
1070
     0
1000
MTEXTEND
  0
MTEXT
  5
563A
330
1A
100
AcDbEntity
  8
SUNPOU
100
AcDbMText
 10
48117.65086229006
 20
40806.11043916631
 30
0.0
 40
10.5
 41
0.0
 71
     9
 72
     5
  1

1001
ACAD
1000
MTEXTBEGIN
1070
    73
1070
     1
1070
    44
1040
1.0
1070
    74
1070
     0
1000
MTEXTEND
1000
MTEXTBEGIN
1070
    73
1070
     1
1070
    44
1040
1.0
1070
    74
1070
     0
1000
MTEXTEND
  0
MTEXT
  5
563B
330
1A
100
AcDbEntity
  8
SUNPOU
100
AcDbMText
 10
67071.40957962004
 20
58272.68649165838
 30
0.0
 40
10.5
 41
0.0
 71
     9
 72
     5
  1

1001
ACAD
1000
MTEXTBEGIN
1070
    73
1070
     1
1070
    44
1040
1.0
1070
    74
1070
     0
1000
MTEXTEND
1000
MTEXTBEGIN
1070
    73
1070
     1
1070
    44
1040
1.0
1070
    74
1070
     0
1000
MTEXTEND
  0
MTEXT
  5
563C
330
1A
100
AcDbEntity
  8
SUNPOU
100
AcDbMText
 10
69014.81682632945
 20
56471.63741178035
 30
0.0
 40
3.5
 41
0.0
 71
     9
 72
     5
  1

1001
ACAD
1000
MTEXTBEGIN
1070
    73
1070
     1
1070
    44
1040
1.0
1070
    74
1070
     0
1000
MTEXTEND
1000
MTEXTBEGIN
1070
    73
1070
     1
1070
    44
1040
1.0
1070
    74
1070
     0
1000
MTEXTEND
  0
MTEXT
  5
563D
330
1A
100
AcDbEntity
  8
SUNPOU
100
AcDbMText
 10
100140.9966589491
 20
98966.58307943773
 30
0.0
 40
10.5
 41
0.0
 71
     9
 72
     5
  1

1001
ACAD
1000
MTEXTBEGIN
1070
    73
1070
     1
1070
    44
1040
1.0
1070
    74
1070
     0
1000
MTEXTEND
1000
MTEXTBEGIN
1070
    73
1070
     1
1070
    44
1040
1.0
1070
    74
1070
     0
1000
MTEXTEND
  0
MTEXT
  5
563E
330
1A
100
AcDbEntity
  8
SUNPOU
100
AcDbMText
 10
102084.4039056586
 20
97165.53399955968
 30
0.0
 40
3.5
 41
0.0
 71
     9
 72
     5
  1

1001
ACAD
1000
MTEXTBEGIN
1070
    73
1070
     1
1070
    44
1040
1.0
1070
    74
1070
     0
1000
MTEXTEND
1000
MTEXTBEGIN
1070
    73
1070
     1
1070
    44
1040
1.0
1070
    74
1070
     0
1000
MTEXTEND
  0
MTEXT
  5
563F
330
1A
100
AcDbEntity
  8
SUNPOU
100
AcDbMText
 10
50581.26436474472
 20
44799.74823441275
 30
0.0
 40
10.5
 41
0.0
 71
     9
 72
     5
  1

1001
ACAD
1000
MTEXTBEGIN
1070
    73
1070
     1
1070
    44
1040
1.0
1070
    74
1070
     0
1000
MTEXTEND
1000
MTEXTBEGIN
1070
    73
1070
     1
1070
    44
1040
1.0
1070
    74
1070
     0
1000
MTEXTEND
  0
MTEXT
  5
5640
330
1A
100
AcDbEntity
  8
SUNPOU
100
AcDbMText
 10
36633.26426436873
 20
25627.34909530054
 30
0.0
 40
3.5
 41
0.0
 71
     7
 72
     5
  1

1001
ACAD
1000
MTEXTBEGIN
1070
    73
1070
     1
1070
    44
1040
1.0
1070
    74
1070
     0
1000
MTEXTEND
1000
MTEXTBEGIN
1070
    73
1070
     1
1070
    44
1040
1.0
1070
    74
1070
     0
1000
MTEXTEND
  0
MTEXT
  5
5641
330
1A
100
AcDbEntity
  8
SUNPOU
100
AcDbMText
 10
61069.42493315968
 20
52574.61207825771
 30
0.0
 40
10.5
 41
0.0
 71
     9
 72
     5
  1

1001
ACAD
1000
MTEXTBEGIN
1070
    73
1070
     1
1070
    44
1040
1.0
1070
    74
1070
     0
1000
MTEXTEND
1000
MTEXTBEGIN
1070
    73
1070
     1
1070
    44
1040
1.0
1070
    74
1070
     0
1000
MTEXTEND
  0
MTEXT
  5
5642
330
1A
100
AcDbEntity
  8
SUNPOU
100
AcDbMText
 10
80023.18365048967
 20
70041.18813074978
 30
0.0
 40
10.5
 41
0.0
 71
     9
 72
     5
  1

1001
ACAD
1000
MTEXTBEGIN
1070
    73
1070
     1
1070
    44
1040
1.0
1070
    74
1070
     0
1000
MTEXTEND
1000
MTEXTBEGIN
1070
    73
1070
     1
1070
    44
1040
1.0
1070
    74
1070
     0
1000
MTEXTEND
  0
MTEXT
  5
5643
330
1A
100
AcDbEntity
  8
SUNPOU
100
AcDbMText
 10
81966.59089719908
 20
68240.13905087176
 30
0.0
 40
3.5
 41
0.0
 71
     9
 72
     5
  1

1001
ACAD
1000
MTEXTBEGIN
1070
    73
1070
     1
1070
    44
1040
1.0
1070
    74
1070
     0
1000
MTEXTEND
1000
MTEXTBEGIN
1070
    73
1070
     1
1070
    44
1040
1.0
1070
    74
1070
     0
1000
MTEXTEND
  0
MTEXT
  5
5644
330
1A
100
AcDbEntity
  8
SUNPOU
100
AcDbMText
 10
113092.7707298186
 20
110735.0847185291
 30
0.0
 40
10.5
 41
0.0
 71
     9
 72
     5
  1

1001
ACAD
1000
MTEXTBEGIN
1070
    73
1070
     1
1070
    44
1040
1.0
1070
    74
1070
     0
1000
MTEXTEND
1000
MTEXTBEGIN
1070
    73
1070
     1
1070
    44
1040
1.0
1070
    74
1070
     0
1000
MTEXTEND
  0
MTEXT
  5
5645
330
1A
100
AcDbEntity
  8
SUNPOU
100
AcDbMText
 10
115036.1779765282
 20
108934.0356386511
 30
0.0
 40
3.5
 41
0.0
 71
     9
 72
     5
  1

1001
ACAD
1000
MTEXTBEGIN
1070
    73
1070
     1
1070
    44
1040
1.0
1070
    74
1070
     0
1000
MTEXTEND
1000
MTEXTBEGIN
1070
    73
1070
     1
1070
    44
1040
1.0
1070
    74
1070
     0
1000
MTEXTEND
  0
MTEXT
  5
5646
330
1A
100
AcDbEntity
  8
SUNPOU
100
AcDbMText
 10
63533.03843561432
 20
56568.24987350415
 30
0.0
 40
10.5
 41
0.0
 71
     9
 72
     5
  1

1001
ACAD
1000
MTEXTBEGIN
1070
    73
1070
     1
1070
    44
1040
1.0
1070
    74
1070
     0
1000
MTEXTEND
1000
MTEXTBEGIN
1070
    73
1070
     1
1070
    44
1040
1.0
1070
    74
1070
     0
1000
MTEXTEND
  0
MTEXT
  5
5647
330
1A
100
AcDbEntity
  8
SUNPOU
100
AcDbMText
 10
49585.03833523835
 20
37395.85073439196
 30
0.0
 40
3.5
 41
0.0
 71
     7
 72
     5
  1

1001
ACAD
1000
MTEXTBEGIN
1070
    73
1070
     1
1070
    44
1040
1.0
1070
    74
1070
     0
1000
MTEXTEND
1000
MTEXTBEGIN
1070
    73
1070
     1
1070
    44
1040
1.0
1070
    74
1070
     0
1000
MTEXTEND
  0
MTEXT
  5
5648
330
1A
100
AcDbEntity
  8
SUNPOU
100
AcDbMText
 10
77137.31641337052
 20
70907.11375048141
 30
0.0
 40
10.5
 41
0.0
 71
     9
 72
     5
  1

1001
ACAD
1000
MTEXTBEGIN
1070
    73
1070
     1
1070
    44
1040
1.0
1070
    74
1070
     0
1000
MTEXTEND
1000
MTEXTBEGIN
1070
    73
1070
     1
1070
    44
1040
1.0
1070
    74
1070
     0
1000
MTEXTEND
  0
MTEXT
  5
5649
330
1A
100
AcDbEntity
  8
SUNPOU
100
AcDbMText
 10
79080.72366007995
 20
69106.06467060339
 30
0.0
 40
3.5
 41
0.0
 71
     9
 72
     5
  1

1001
ACAD
1000
MTEXTBEGIN
1070
    73
1070
     1
1070
    44
1040
1.0
1070
    74
1070
     0
1000
MTEXTEND
1000
MTEXTBEGIN
1070
    73
1070
     1
1070
    44
1040
1.0
1070
    74
1070
     0
1000
MTEXTEND
  0
MTEXT
  5
564A
330
1A
100
AcDbEntity
  8
SUNPOU
100
AcDbMText
 10
110206.9034926996
 20
111601.0103382607
 30
0.0
 40
10.5
 41
0.0
 71
     9
 72
     5
  1

1001
ACAD
1000
MTEXTBEGIN
1070
    73
1070
     1
1070
    44
1040
1.0
1070
    74
1070
     0
1000
MTEXTEND
1000
MTEXTBEGIN
1070
    73
1070
     1
1070
    44
1040
1.0
1070
    74
1070
     0
1000
MTEXTEND
  0
MTEXT
  5
564B
330
1A
100
AcDbEntity
  8
SUNPOU
100
AcDbMText
 10
112150.310739409
 20
109799.9612583826
 30
0.0
 40
3.5
 41
0.0
 71
     9
 72
     5
  1

1001
ACAD
1000
MTEXTBEGIN
1070
    73
1070
     1
1070
    44
1040
1.0
1070
    74
1070
     0
1000
MTEXTEND
1000
MTEXTBEGIN
1070
    73
1070
     1
1070
    44
1040
1.0
1070
    74
1070
     0
1000
MTEXTEND
  0
MTEXT
  5
564C
330
1A
100
AcDbEntity
  8
SUNPOU
100
AcDbMText
 10
108819.1333204967
 20
110677.9087286761
 30
0.0
 40
10.5
 41
0.0
 71
     9
 72
     5
  1

1001
ACAD
1000
MTEXTBEGIN
1070
    73
1070
     1
1070
    44
1040
1.0
1070
    74
1070
     0
1000
MTEXTEND
1000
MTEXTBEGIN
1070
    73
1070
     1
1070
    44
1040
1.0
1070
    74
1070
     0
1000
MTEXTEND
  0
MTEXT
  5
564D
330
1A
100
AcDbEntity
  8
SUNPOU
100
AcDbMText
 10
110762.5405672062
 20
108876.8596487981
 30
0.0
 40
3.5
 41
0.0
 71
     9
 72
     5
  1

1001
ACAD
1000
MTEXTBEGIN
1070
    73
1070
     1
1070
    44
1040
1.0
1070
    74
1070
     0
1000
MTEXTEND
1000
MTEXTBEGIN
1070
    73
1070
     1
1070
    44
1040
1.0
1070
    74
1070
     0
1000
MTEXTEND
  0
MTEXT
  5
564E
330
1A
100
AcDbEntity
  8
SUNPOU
100
AcDbMText
 10
76303.05507956816
 20
68695.31179059812
 30
0.0
 40
10.5
 41
0.0
 71
     9
 72
     5
  1

1001
ACAD
1000
MTEXTBEGIN
1070
    73
1070
     1
1070
    44
1040
1.0
1070
    74
1070
     0
1000
MTEXTEND
1000
MTEXTBEGIN
1070
    73
1070
     1
1070
    44
1040
1.0
1070
    74
1070
     0
1000
MTEXTEND
  0
MTEXT
  5
564F
330
1A
100
AcDbEntity
  8
SUNPOU
100
AcDbMText
 10
79026.36128373271
 20
69099.99348217918
 30
0.0
 40
3.5
 41
0.0
 71
     9
 72
     5
  1

1001
ACAD
1000
MTEXTBEGIN
1070
    73
1070
     1
1070
    44
1040
1.0
1070
    74
1070
     0
1000
MTEXTEND
1000
MTEXTBEGIN
1070
    73
1070
     1
1070
    44
1040
1.0
1070
    74
1070
     0
1000
MTEXTEND
  0
MTEXT
  5
5650
330
1A
100
AcDbEntity
  8
SUNPOU
100
AcDbMText
 10
78234.00675862522
 20
65938.68764412436
 30
0.0
 40
10.5
 41
0.0
 71
     9
 72
     5
  1

1001
ACAD
1000
MTEXTBEGIN
1070
    73
1070
     1
1070
    44
1040
1.0
1070
    74
1070
     0
1000
MTEXTEND
1000
MTEXTBEGIN
1070
    73
1070
     1
1070
    44
1040
1.0
1070
    74
1070
     0
1000
MTEXTEND
  0
MTEXT
  5
5651
330
1A
100
AcDbEntity
  8
SUNPOU
100
AcDbMText
 10
80177.41400533465
 20
64137.63856424636
 30
0.0
 40
3.5
 41
0.0
 71
     9
 72
     5
  1

1001
ACAD
1000
MTEXTBEGIN
1070
    73
1070
     1
1070
    44
1040
1.0
1070
    74
1070
     0
1000
MTEXTEND
1000
MTEXTBEGIN
1070
    73
1070
     1
1070
    44
1040
1.0
1070
    74
1070
     0
1000
MTEXTEND
  0
MTEXT
  5
5652
330
1A
100
AcDbEntity
  8
SUNPOU
100
AcDbMText
 10
80122.50949592122
 20
64024.86668196204
 30
0.0
 40
3.5
 41
0.0
 71
     9
 72
     5
  1

1001
ACAD
1000
MTEXTBEGIN
1070
    73
1070
     1
1070
    44
1040
1.0
1070
    74
1070
     0
1000
MTEXTEND
1000
MTEXTBEGIN
1070
    73
1070
     1
1070
    44
1040
1.0
1070
    74
1070
     0
1000
MTEXTEND
  0
MTEXT
  5
5653
330
1A
100
AcDbEntity
  8
SUNPOU
100
AcDbMText
 10
79486.58135950133
 20
63213.54544089553
 30
0.0
 40
3.5
 41
0.0
 71
     9
 72
     5
  1

1001
ACAD
1000
MTEXTBEGIN
1070
    73
1070
     1
1070
    44
1040
1.0
1070
    74
1070
     0
1000
MTEXTEND
1000
MTEXTBEGIN
1070
    73
1070
     1
1070
    44
1040
1.0
1070
    74
1070
     0
1000
MTEXTEND
  0
MTEXT
  5
5654
330
1A
100
AcDbEntity
  8
SUNPOU
100
AcDbMText
 10
79485.3409400806
 20
63213.29746395804
 30
0.0
 40
10.5
 41
0.0
 71
     9
 72
     5
  1

1001
ACAD
1000
MTEXTBEGIN
1070
    73
1070
     1
1070
    44
1040
1.0
1070
    74
1070
     0
1000
MTEXTEND
1000
MTEXTBEGIN
1070
    73
1070
     1
1070
    44
1040
1.0
1070
    74
1070
     0
1000
MTEXTEND
  0
MTEXT
  5
5655
330
1A
100
AcDbEntity
  8
SUNPOU
100
AcDbMText
 10
85473.63363627567
 20
80747.76348077064
 30
0.0
 40
10.5
 41
0.0
 71
     9
 72
     5
  1

1001
ACAD
1000
MTEXTBEGIN
1070
    73
1070
     1
1070
    44
1040
1.0
1070
    74
1070
     0
1000
MTEXTEND
1000
MTEXTBEGIN
1070
    73
1070
     1
1070
    44
1040
1.0
1070
    74
1070
     0
1000
MTEXTEND
  0
MTEXT
  5
5656
330
1A
100
AcDbEntity
  8
SUNPOU
100
AcDbMText
 10
94195.80120219368
 20
88163.59801230808
 30
0.0
 40
10.5
 41
0.0
 71
     9
 72
     5
  1

1001
ACAD
1000
MTEXTBEGIN
1070
    73
1070
     1
1070
    44
1040
1.0
1070
    74
1070
     0
1000
MTEXTEND
1000
MTEXTBEGIN
1070
    73
1070
     1
1070
    44
1040
1.0
1070
    74
1070
     0
1000
MTEXTEND
  0
MTEXT
  5
5657
330
1A
100
AcDbEntity
  8
SUNPOU
100
AcDbMText
 10
113149.5599195236
 20
105630.1740648001
 30
0.0
 40
10.5
 41
0.0
 71
     9
 72
     5
  1

1001
ACAD
1000
MTEXTBEGIN
1070
    73
1070
     1
1070
    44
1040
1.0
1070
    74
1070
     0
1000
MTEXTEND
1000
MTEXTBEGIN
1070
    73
1070
     1
1070
    44
1040
1.0
1070
    74
1070
     0
1000
MTEXTEND
  0
MTEXT
  5
5658
330
1A
100
AcDbEntity
  8
SUNPOU
100
AcDbMText
 10
115092.967166233
 20
103829.1249849221
 30
0.0
 40
3.5
 41
0.0
 71
     9
 72
     5
  1

1001
ACAD
1000
MTEXTBEGIN
1070
    73
1070
     1
1070
    44
1040
1.0
1070
    74
1070
     0
1000
MTEXTEND
1000
MTEXTBEGIN
1070
    73
1070
     1
1070
    44
1040
1.0
1070
    74
1070
     0
1000
MTEXTEND
  0
MTEXT
  5
5659
330
1A
100
AcDbEntity
  8
SUNPOU
100
AcDbMText
 10
146219.1469988527
 20
146324.0706525794
 30
0.0
 40
10.5
 41
0.0
 71
     9
 72
     5
  1

1001
ACAD
1000
MTEXTBEGIN
1070
    73
1070
     1
1070
    44
1040
1.0
1070
    74
1070
     0
1000
MTEXTEND
1000
MTEXTBEGIN
1070
    73
1070
     1
1070
    44
1040
1.0
1070
    74
1070
     0
1000
MTEXTEND
  0
MTEXT
  5
565A
330
1A
100
AcDbEntity
  8
SUNPOU
100
AcDbMText
 10
148162.5542455621
 20
144523.0215727014
 30
0.0
 40
3.5
 41
0.0
 71
     9
 72
     5
  1

1001
ACAD
1000
MTEXTBEGIN
1070
    73
1070
     1
1070
    44
1040
1.0
1070
    74
1070
     0
1000
MTEXTEND
1000
MTEXTBEGIN
1070
    73
1070
     1
1070
    44
1040
1.0
1070
    74
1070
     0
1000
MTEXTEND
  0
MTEXT
  5
565B
330
1A
100
AcDbEntity
  8
SUNPOU
100
AcDbMText
 10
96659.41470464833
 20
92157.23580755453
 30
0.0
 40
10.5
 41
0.0
 71
     9
 72
     5
  1

1001
ACAD
1000
MTEXTBEGIN
1070
    73
1070
     1
1070
    44
1040
1.0
1070
    74
1070
     0
1000
MTEXTEND
1000
MTEXTBEGIN
1070
    73
1070
     1
1070
    44
1040
1.0
1070
    74
1070
     0
1000
MTEXTEND
  0
MTEXT
  5
565C
330
1A
100
AcDbEntity
  8
SUNPOU
100
AcDbMText
 10
82711.41460427234
 20
72984.83666844234
 30
0.0
 40
3.5
 41
0.0
 71
     7
 72
     5
  1

1001
ACAD
1000
MTEXTBEGIN
1070
    73
1070
     1
1070
    44
1040
1.0
1070
    74
1070
     0
1000
MTEXTEND
1000
MTEXTBEGIN
1070
    73
1070
     1
1070
    44
1040
1.0
1070
    74
1070
     0
1000
MTEXTEND
  0
MTEXT
  5
565D
330
1A
100
AcDbEntity
  8
SUNPOU
100
AcDbMText
 10
63696.58400126548
 20
60746.98539926055
 30
0.0
 40
10.5
 41
0.0
 71
     7
 72
     5
  1

1001
ACAD
1000
MTEXTBEGIN
1070
    73
1070
     1
1070
    44
1040
1.0
1070
    74
1070
     0
1000
MTEXTEND
1000
MTEXTBEGIN
1070
    73
1070
     1
1070
    44
1040
1.0
1070
    74
1070
     0
1000
MTEXTEND
  0
MTEXT
  5
565E
330
1A
100
AcDbEntity
  8
SUNPOU
100
AcDbMText
 10
51239.35573631738
 20
44902.05382116213
 30
0.0
 40
35.0
 41
0.0
 71
     9
 72
     5
  1

1001
ACAD
1000
MTEXTBEGIN
1070
    73
1070
     1
1070
    44
1040
1.0
1070
    74
1070
     0
1000
MTEXTEND
1000
MTEXTBEGIN
1070
    73
1070
     1
1070
    44
1040
1.0
1070
    74
1070
     0
1000
MTEXTEND
  0
MTEXT
  5
565F
330
1A
100
AcDbEntity
  8
SUNPOU
100
AcDbMText
 10
50147.84079389233
 20
45510.82923121084
 30
0.0
 40
350.0000004171781
 41
0.0
 71
     7
 72
     5
  1

1001
ACAD
1000
MTEXTBEGIN
1070
    73
1070
     1
1070
    44
1040
1.0
1070
    74
1070
     0
1000
MTEXTEND
1000
MTEXTBEGIN
1070
    73
1070
     1
1070
    44
1040
1.0
1070
    74
1070
     0
1000
MTEXTEND
  0
MTEXT
  5
5660
330
1A
100
AcDbEntity
  8
0
100
AcDbMText
 10
56191.79155183523
 20
43490.75159334705
 30
0.0
 40
8.0
 41
0.0
 71
     7
 72
     5
  1

1001
ACAD
1000
MTEXTBEGIN
1070
    73
1070
     1
1070
    44
1040
1.0
1070
    74
1070
     0
1000
MTEXTEND
1000
MTEXTBEGIN
1070
    73
1070
     1
1070
    44
1040
1.0
1070
    74
1070
     0
1000
MTEXTEND
  0
MTEXT
  5
5661
330
1A
100
AcDbEntity
  8
0
100
AcDbMText
 10
58477.14924173012
 20
44461.54188809812
 30
0.0
 40
8.0
 41
0.0
 71
     7
 72
     5
  1

1001
ACAD
1000
MTEXTBEGIN
1070
    73
1070
     1
1070
    44
1040
1.0
1070
    74
1070
     0
1000
MTEXTEND
1000
MTEXTBEGIN
1070
    73
1070
     1
1070
    44
1040
1.0
1070
    74
1070
     0
1000
MTEXTEND
  0
MTEXT
  5
5662
330
1A
100
AcDbEntity
  8
SUNPOU
100
AcDbMText
 10
61143.04626241227
 20
53973.65328047324
 30
0.0
 40
10.5
 41
0.0
 71
     1
 72
     5
  1

1001
ACAD
1000
MTEXTBEGIN
1070
    73
1070
     1
1070
    44
1040
1.0
1070
    74
1070
     0
1000
MTEXTEND
1000
MTEXTBEGIN
1070
    73
1070
     1
1070
    44
1040
1.0
1070
    74
1070
     0
1000
MTEXTEND
  0
MTEXT
  5
5663
330
1A
100
AcDbEntity
  8
SUNPOU
100
AcDbMText
 10
53212.12306647633
 20
53026.86014656028
 30
0.0
 40
10.5
 41
0.0
 71
     7
 72
     5
  1

1001
ACAD
1000
MTEXTBEGIN
1070
    73
1070
     1
1070
    44
1040
1.0
1070
    74
1070
     0
1000
MTEXTEND
1000
MTEXTBEGIN
1070
    73
1070
     1
1070
    44
1040
1.0
1070
    74
1070
     0
1000
MTEXTEND
  0
MTEXT
  5
5664
330
1A
100
AcDbEntity
  8
SUNPOU
100
AcDbMText
 10
56161.10673098909
 20
57927.53621840312
 30
0.0
 40
10.5
 41
0.0
 71
     7
 72
     5
  1

1001
ACAD
1000
MTEXTBEGIN
1070
    73
1070
     1
1070
    44
1040
1.0
1070
    74
1070
     0
1000
MTEXTEND
1000
MTEXTBEGIN
1070
    73
1070
     1
1070
    44
1040
1.0
1070
    74
1070
     0
1000
MTEXTEND
  0
MTEXT
  5
5665
330
1A
100
AcDbEntity
  8
SUNPOU
100
AcDbMText
 10
60670.18485893966
 20
60363.8369660232
 30
0.0
 40
10.5
 41
0.0
 71
     7
 72
     5
  1

1001
ACAD
1000
MTEXTBEGIN
1070
    73
1070
     1
1070
    44
1040
1.0
1070
    74
1070
     0
1000
MTEXTEND
1000
MTEXTBEGIN
1070
    73
1070
     1
1070
    44
1040
1.0
1070
    74
1070
     0
1000
MTEXTEND
  0
MTEXT
  5
5666
330
1A
100
AcDbEntity
  8
SUNPOU
100
AcDbMText
 10
44271.02274570799
 20
39361.43311641211
 30
0.0
 40
10.5
 41
0.0
 71
     7
 72
     5
  1

1001
ACAD
1000
MTEXTBEGIN
1070
    73
1070
     1
1070
    44
1040
1.0
1070
    74
1070
     0
1000
MTEXTEND
1000
MTEXTBEGIN
1070
    73
1070
     1
1070
    44
1040
1.0
1070
    74
1070
     0
1000
MTEXTEND
  0
MTEXT
  5
5667
330
1A
100
AcDbEntity
  8
SUNPOU
100
AcDbMText
 10
95462.54117960824
 20
85034.41368006038
 30
0.0
 40
10.5
 41
0.0
 71
     9
 72
     5
  1

1001
ACAD
1000
MTEXTBEGIN
1070
    73
1070
     1
1070
    44
1040
1.0
1070
    74
1070
     0
1000
MTEXTEND
1000
MTEXTBEGIN
1070
    73
1070
     1
1070
    44
1040
1.0
1070
    74
1070
     0
1000
MTEXTEND
  0
MTEXT
  5
5668
330
1A
100
AcDbEntity
  8
SUNPOU
100
AcDbMText
 10
104184.7087455262
 20
92450.24821159784
 30
0.0
 40
10.5
 41
0.0
 71
     9
 72
     5
  1

1001
ACAD
1000
MTEXTBEGIN
1070
    73
1070
     1
1070
    44
1040
1.0
1070
    74
1070
     0
1000
MTEXTEND
1000
MTEXTBEGIN
1070
    73
1070
     1
1070
    44
1040
1.0
1070
    74
1070
     0
1000
MTEXTEND
  0
MTEXT
  5
5669
330
1A
100
AcDbEntity
  8
SUNPOU
100
AcDbMText
 10
123138.4674628562
 20
109916.8242640898
 30
0.0
 40
10.5
 41
0.0
 71
     9
 72
     5
  1

1001
ACAD
1000
MTEXTBEGIN
1070
    73
1070
     1
1070
    44
1040
1.0
1070
    74
1070
     0
1000
MTEXTEND
1000
MTEXTBEGIN
1070
    73
1070
     1
1070
    44
1040
1.0
1070
    74
1070
     0
1000
MTEXTEND
  0
MTEXT
  5
566A
330
1A
100
AcDbEntity
  8
SUNPOU
100
AcDbMText
 10
125081.8747095656
 20
108115.7751842118
 30
0.0
 40
3.5
 41
0.0
 71
     9
 72
     5
  1

1001
ACAD
1000
MTEXTBEGIN
1070
    73
1070
     1
1070
    44
1040
1.0
1070
    74
1070
     0
1000
MTEXTEND
1000
MTEXTBEGIN
1070
    73
1070
     1
1070
    44
1040
1.0
1070
    74
1070
     0
1000
MTEXTEND
  0
MTEXT
  5
566B
330
1A
100
AcDbEntity
  8
SUNPOU
100
AcDbMText
 10
156208.0545421853
 20
150610.7208518691
 30
0.0
 40
10.5
 41
0.0
 71
     9
 72
     5
  1

1001
ACAD
1000
MTEXTBEGIN
1070
    73
1070
     1
1070
    44
1040
1.0
1070
    74
1070
     0
1000
MTEXTEND
1000
MTEXTBEGIN
1070
    73
1070
     1
1070
    44
1040
1.0
1070
    74
1070
     0
1000
MTEXTEND
  0
MTEXT
  5
566C
330
1A
100
AcDbEntity
  8
SUNPOU
100
AcDbMText
 10
158151.4617888947
 20
148809.6717719911
 30
0.0
 40
3.5
 41
0.0
 71
     9
 72
     5
  1

1001
ACAD
1000
MTEXTBEGIN
1070
    73
1070
     1
1070
    44
1040
1.0
1070
    74
1070
     0
1000
MTEXTEND
1000
MTEXTBEGIN
1070
    73
1070
     1
1070
    44
1040
1.0
1070
    74
1070
     0
1000
MTEXTEND
  0
MTEXT
  5
566D
330
1A
100
AcDbEntity
  8
SUNPOU
100
AcDbMText
 10
106648.3222479809
 20
96443.88600684427
 30
0.0
 40
10.5
 41
0.0
 71
     9
 72
     5
  1

1001
ACAD
1000
MTEXTBEGIN
1070
    73
1070
     1
1070
    44
1040
1.0
1070
    74
1070
     0
1000
MTEXTEND
1000
MTEXTBEGIN
1070
    73
1070
     1
1070
    44
1040
1.0
1070
    74
1070
     0
1000
MTEXTEND
  0
MTEXT
  5
566E
330
1A
100
AcDbEntity
  8
SUNPOU
100
AcDbMText
 10
92700.3221476049
 20
77271.48686773207
 30
0.0
 40
3.5
 41
0.0
 71
     7
 72
     5
  1

1001
ACAD
1000
MTEXTBEGIN
1070
    73
1070
     1
1070
    44
1040
1.0
1070
    74
1070
     0
1000
MTEXTEND
1000
MTEXTBEGIN
1070
    73
1070
     1
1070
    44
1040
1.0
1070
    74
1070
     0
1000
MTEXTEND
  0
MTEXT
  5
566F
330
1A
100
AcDbEntity
  8
SUNPOU
100
AcDbMText
 10
73685.49154459807
 20
65033.63559855027
 30
0.0
 40
10.5
 41
0.0
 71
     7
 72
     5
  1

1001
ACAD
1000
MTEXTBEGIN
1070
    73
1070
     1
1070
    44
1040
1.0
1070
    74
1070
     0
1000
MTEXTEND
1000
MTEXTBEGIN
1070
    73
1070
     1
1070
    44
1040
1.0
1070
    74
1070
     0
1000
MTEXTEND
  0
MTEXT
  5
5670
330
1A
100
AcDbEntity
  8
SUNPOU
100
AcDbMText
 10
61228.26327964995
 20
49188.70402045184
 30
0.0
 40
35.0
 41
0.0
 71
     9
 72
     5
  1

1001
ACAD
1000
MTEXTBEGIN
1070
    73
1070
     1
1070
    44
1040
1.0
1070
    74
1070
     0
1000
MTEXTEND
1000
MTEXTBEGIN
1070
    73
1070
     1
1070
    44
1040
1.0
1070
    74
1070
     0
1000
MTEXTEND
  0
MTEXT
  5
5671
330
1A
100
AcDbEntity
  8
SUNPOU
100
AcDbMText
 10
60136.74833722491
 20
49797.47943050056
 30
0.0
 40
350.0000004171781
 41
0.0
 71
     7
 72
     5
  1

1001
ACAD
1000
MTEXTBEGIN
1070
    73
1070
     1
1070
    44
1040
1.0
1070
    74
1070
     0
1000
MTEXTEND
1000
MTEXTBEGIN
1070
    73
1070
     1
1070
    44
1040
1.0
1070
    74
1070
     0
1000
MTEXTEND
  0
MTEXT
  5
5672
330
1A
100
AcDbEntity
  8
0
100
AcDbMText
 10
66180.69909516782
 20
47777.40179263677
 30
0.0
 40
8.0
 41
0.0
 71
     7
 72
     5
  1

1001
ACAD
1000
MTEXTBEGIN
1070
    73
1070
     1
1070
    44
1040
1.0
1070
    74
1070
     0
1000
MTEXTEND
1000
MTEXTBEGIN
1070
    73
1070
     1
1070
    44
1040
1.0
1070
    74
1070
     0
1000
MTEXTEND
  0
MTEXT
  5
5673
330
1A
100
AcDbEntity
  8
0
100
AcDbMText
 10
68466.05678506271
 20
48748.19208738784
 30
0.0
 40
8.0
 41
0.0
 71
     7
 72
     5
  1

1001
ACAD
1000
MTEXTBEGIN
1070
    73
1070
     1
1070
    44
1040
1.0
1070
    74
1070
     0
1000
MTEXTEND
1000
MTEXTBEGIN
1070
    73
1070
     1
1070
    44
1040
1.0
1070
    74
1070
     0
1000
MTEXTEND
  0
MTEXT
  5
5674
330
1A
100
AcDbEntity
  8
SUNPOU
100
AcDbMText
 10
71131.95380574485
 20
58260.30347976296
 30
0.0
 40
10.5
 41
0.0
 71
     1
 72
     5
  1

1001
ACAD
1000
MTEXTBEGIN
1070
    73
1070
     1
1070
    44
1040
1.0
1070
    74
1070
     0
1000
MTEXTEND
1000
MTEXTBEGIN
1070
    73
1070
     1
1070
    44
1040
1.0
1070
    74
1070
     0
1000
MTEXTEND
  0
MTEXT
  5
5675
330
1A
100
AcDbEntity
  8
SUNPOU
100
AcDbMText
 10
63201.03060980891
 20
57313.51034585003
 30
0.0
 40
10.5
 41
0.0
 71
     7
 72
     5
  1

1001
ACAD
1000
MTEXTBEGIN
1070
    73
1070
     1
1070
    44
1040
1.0
1070
    74
1070
     0
1000
MTEXTEND
1000
MTEXTBEGIN
1070
    73
1070
     1
1070
    44
1040
1.0
1070
    74
1070
     0
1000
MTEXTEND
  0
MTEXT
  5
5676
330
1A
100
AcDbEntity
  8
SUNPOU
100
AcDbMText
 10
66150.01427432169
 20
62214.18641769286
 30
0.0
 40
10.5
 41
0.0
 71
     7
 72
     5
  1

1001
ACAD
1000
MTEXTBEGIN
1070
    73
1070
     1
1070
    44
1040
1.0
1070
    74
1070
     0
1000
MTEXTEND
1000
MTEXTBEGIN
1070
    73
1070
     1
1070
    44
1040
1.0
1070
    74
1070
     0
1000
MTEXTEND
  0
MTEXT
  5
5677
330
1A
100
AcDbEntity
  8
SUNPOU
100
AcDbMText
 10
70659.09240227225
 20
64650.48716531294
 30
0.0
 40
10.5
 41
0.0
 71
     7
 72
     5
  1

1001
ACAD
1000
MTEXTBEGIN
1070
    73
1070
     1
1070
    44
1040
1.0
1070
    74
1070
     0
1000
MTEXTEND
1000
MTEXTBEGIN
1070
    73
1070
     1
1070
    44
1040
1.0
1070
    74
1070
     0
1000
MTEXTEND
  0
MTEXT
  5
5678
330
1A
100
AcDbEntity
  8
SUNPOU
100
AcDbMText
 10
54259.93028904056
 20
43648.08331570185
 30
0.0
 40
10.5
 41
0.0
 71
     7
 72
     5
  1

1001
ACAD
1000
MTEXTBEGIN
1070
    73
1070
     1
1070
    44
1040
1.0
1070
    74
1070
     0
1000
MTEXTEND
1000
MTEXTBEGIN
1070
    73
1070
     1
1070
    44
1040
1.0
1070
    74
1070
     0
1000
MTEXTEND
  0
MTEXT
  5
5679
330
1A
100
AcDbEntity
  8
SUNPOU
100
AcDbMText
 10
56070.69320041551
 20
49975.4973031804
 30
0.0
 40
10.5
 41
0.0
 71
     9
 72
     5
  1

1001
ACAD
1000
MTEXTBEGIN
1070
    73
1070
     1
1070
    44
1040
1.0
1070
    74
1070
     0
1000
MTEXTEND
1000
MTEXTBEGIN
1070
    73
1070
     1
1070
    44
1040
1.0
1070
    74
1070
     0
1000
MTEXTEND
  0
MTEXT
  5
567A
330
1A
100
AcDbEntity
  8
SUNPOU
100
AcDbMText
 10
64792.86076633347
 20
57391.33183471787
 30
0.0
 40
10.5
 41
0.0
 71
     9
 72
     5
  1

1001
ACAD
1000
MTEXTBEGIN
1070
    73
1070
     1
1070
    44
1040
1.0
1070
    74
1070
     0
1000
MTEXTEND
1000
MTEXTBEGIN
1070
    73
1070
     1
1070
    44
1040
1.0
1070
    74
1070
     0
1000
MTEXTEND
  0
MTEXT
  5
567B
330
1A
100
AcDbEntity
  8
SUNPOU
100
AcDbMText
 10
83746.61948366345
 20
74857.90788720994
 30
0.0
 40
10.5
 41
0.0
 71
     9
 72
     5
  1

1001
ACAD
1000
MTEXTBEGIN
1070
    73
1070
     1
1070
    44
1040
1.0
1070
    74
1070
     0
1000
MTEXTEND
1000
MTEXTBEGIN
1070
    73
1070
     1
1070
    44
1040
1.0
1070
    74
1070
     0
1000
MTEXTEND
  0
MTEXT
  5
567C
330
1A
100
AcDbEntity
  8
SUNPOU
100
AcDbMText
 10
85690.02673037287
 20
73056.85880733192
 30
0.0
 40
3.5
 41
0.0
 71
     9
 72
     5
  1

1001
ACAD
1000
MTEXTBEGIN
1070
    73
1070
     1
1070
    44
1040
1.0
1070
    74
1070
     0
1000
MTEXTEND
1000
MTEXTBEGIN
1070
    73
1070
     1
1070
    44
1040
1.0
1070
    74
1070
     0
1000
MTEXTEND
  0
MTEXT
  5
567D
330
1A
100
AcDbEntity
  8
SUNPOU
100
AcDbMText
 10
116816.2065629925
 20
115551.8044749892
 30
0.0
 40
10.5
 41
0.0
 71
     9
 72
     5
  1

1001
ACAD
1000
MTEXTBEGIN
1070
    73
1070
     1
1070
    44
1040
1.0
1070
    74
1070
     0
1000
MTEXTEND
1000
MTEXTBEGIN
1070
    73
1070
     1
1070
    44
1040
1.0
1070
    74
1070
     0
1000
MTEXTEND
  0
MTEXT
  5
567E
330
1A
100
AcDbEntity
  8
SUNPOU
100
AcDbMText
 10
118759.6138097019
 20
113750.7553951111
 30
0.0
 40
3.5
 41
0.0
 71
     9
 72
     5
  1

1001
ACAD
1000
MTEXTBEGIN
1070
    73
1070
     1
1070
    44
1040
1.0
1070
    74
1070
     0
1000
MTEXTEND
1000
MTEXTBEGIN
1070
    73
1070
     1
1070
    44
1040
1.0
1070
    74
1070
     0
1000
MTEXTEND
  0
MTEXT
  5
567F
330
1A
100
AcDbEntity
  8
SUNPOU
100
AcDbMText
 10
67256.47426878814
 20
61384.96962996432
 30
0.0
 40
10.5
 41
0.0
 71
     9
 72
     5
  1

1001
ACAD
1000
MTEXTBEGIN
1070
    73
1070
     1
1070
    44
1040
1.0
1070
    74
1070
     0
1000
MTEXTEND
1000
MTEXTBEGIN
1070
    73
1070
     1
1070
    44
1040
1.0
1070
    74
1070
     0
1000
MTEXTEND
  0
MTEXT
  5
5680
330
1A
100
AcDbEntity
  8
SUNPOU
100
AcDbMText
 10
53308.47416841216
 20
42212.57049085211
 30
0.0
 40
3.5
 41
0.0
 71
     7
 72
     5
  1

1001
ACAD
1000
MTEXTBEGIN
1070
    73
1070
     1
1070
    44
1040
1.0
1070
    74
1070
     0
1000
MTEXTEND
1000
MTEXTBEGIN
1070
    73
1070
     1
1070
    44
1040
1.0
1070
    74
1070
     0
1000
MTEXTEND
  0
MTEXT
  5
5681
330
1A
100
AcDbEntity
  8
SUNPOU
100
AcDbMText
 10
67000.82485118274
 20
51571.63371187344
 30
0.0
 40
10.5
 41
0.0
 71
     9
 72
     5
  1

1001
ACAD
1000
MTEXTBEGIN
1070
    73
1070
     1
1070
    44
1040
1.0
1070
    74
1070
     0
1000
MTEXTEND
1000
MTEXTBEGIN
1070
    73
1070
     1
1070
    44
1040
1.0
1070
    74
1070
     0
1000
MTEXTEND
  0
MTEXT
  5
5682
330
1A
100
AcDbEntity
  8
SUNPOU
100
AcDbMText
 10
75722.99241710071
 20
58987.46824341094
 30
0.0
 40
10.5
 41
0.0
 71
     9
 72
     5
  1

1001
ACAD
1000
MTEXTBEGIN
1070
    73
1070
     1
1070
    44
1040
1.0
1070
    74
1070
     0
1000
MTEXTEND
1000
MTEXTBEGIN
1070
    73
1070
     1
1070
    44
1040
1.0
1070
    74
1070
     0
1000
MTEXTEND
  0
MTEXT
  5
5683
330
1A
100
AcDbEntity
  8
SUNPOU
100
AcDbMText
 10
94676.75113443068
 20
76454.04429590299
 30
0.0
 40
10.5
 41
0.0
 71
     9
 72
     5
  1

1001
ACAD
1000
MTEXTBEGIN
1070
    73
1070
     1
1070
    44
1040
1.0
1070
    74
1070
     0
1000
MTEXTEND
1000
MTEXTBEGIN
1070
    73
1070
     1
1070
    44
1040
1.0
1070
    74
1070
     0
1000
MTEXTEND
  0
MTEXT
  5
5684
330
1A
100
AcDbEntity
  8
SUNPOU
100
AcDbMText
 10
96620.1583811401
 20
74652.99521602497
 30
0.0
 40
3.5
 41
0.0
 71
     9
 72
     5
  1

1001
ACAD
1000
MTEXTBEGIN
1070
    73
1070
     1
1070
    44
1040
1.0
1070
    74
1070
     0
1000
MTEXTEND
1000
MTEXTBEGIN
1070
    73
1070
     1
1070
    44
1040
1.0
1070
    74
1070
     0
1000
MTEXTEND
  0
MTEXT
  5
5685
330
1A
100
AcDbEntity
  8
SUNPOU
100
AcDbMText
 10
127746.3382137598
 20
117147.9408836822
 30
0.0
 40
10.5
 41
0.0
 71
     9
 72
     5
  1

1001
ACAD
1000
MTEXTBEGIN
1070
    73
1070
     1
1070
    44
1040
1.0
1070
    74
1070
     0
1000
MTEXTEND
1000
MTEXTBEGIN
1070
    73
1070
     1
1070
    44
1040
1.0
1070
    74
1070
     0
1000
MTEXTEND
  0
MTEXT
  5
5686
330
1A
100
AcDbEntity
  8
SUNPOU
100
AcDbMText
 10
129689.7454604692
 20
115346.8918038042
 30
0.0
 40
3.5
 41
0.0
 71
     9
 72
     5
  1

1001
ACAD
1000
MTEXTBEGIN
1070
    73
1070
     1
1070
    44
1040
1.0
1070
    74
1070
     0
1000
MTEXTEND
1000
MTEXTBEGIN
1070
    73
1070
     1
1070
    44
1040
1.0
1070
    74
1070
     0
1000
MTEXTEND
  0
MTEXT
  5
5687
330
1A
100
AcDbEntity
  8
SUNPOU
100
AcDbMText
 10
78186.60591955537
 20
62981.10603865737
 30
0.0
 40
10.5
 41
0.0
 71
     9
 72
     5
  1

1001
ACAD
1000
MTEXTBEGIN
1070
    73
1070
     1
1070
    44
1040
1.0
1070
    74
1070
     0
1000
MTEXTEND
1000
MTEXTBEGIN
1070
    73
1070
     1
1070
    44
1040
1.0
1070
    74
1070
     0
1000
MTEXTEND
  0
MTEXT
  5
5688
330
1A
100
AcDbEntity
  8
SUNPOU
100
AcDbMText
 10
64238.60581917939
 20
43808.70689954517
 30
0.0
 40
3.5
 41
0.0
 71
     7
 72
     5
  1

1001
ACAD
1000
MTEXTBEGIN
1070
    73
1070
     1
1070
    44
1040
1.0
1070
    74
1070
     0
1000
MTEXTEND
1000
MTEXTBEGIN
1070
    73
1070
     1
1070
    44
1040
1.0
1070
    74
1070
     0
1000
MTEXTEND
  0
MTEXT
  5
5689
330
1A
100
AcDbEntity
  8
SUNPOU
100
AcDbMText
 10
33428.13481137435
 20
32770.04710035563
 30
0.0
 40
10.5
 41
0.0
 71
     9
 72
     5
  1

1001
ACAD
1000
MTEXTBEGIN
1070
    73
1070
     1
1070
    44
1040
1.0
1070
    74
1070
     0
1000
MTEXTEND
1000
MTEXTBEGIN
1070
    73
1070
     1
1070
    44
1040
1.0
1070
    74
1070
     0
1000
MTEXTEND
  0
MTEXT
  5
568A
330
1A
100
AcDbEntity
  8
SUNPOU
100
AcDbMText
 10
52381.89352870431
 20
50236.62315284768
 30
0.0
 40
10.5
 41
0.0
 71
     9
 72
     5
  1

1001
ACAD
1000
MTEXTBEGIN
1070
    73
1070
     1
1070
    44
1040
1.0
1070
    74
1070
     0
1000
MTEXTEND
1000
MTEXTBEGIN
1070
    73
1070
     1
1070
    44
1040
1.0
1070
    74
1070
     0
1000
MTEXTEND
  0
MTEXT
  5
568B
330
1A
100
AcDbEntity
  8
SUNPOU
100
AcDbMText
 10
54325.30077541374
 20
48435.57407296968
 30
0.0
 40
3.5
 41
0.0
 71
     9
 72
     5
  1

1001
ACAD
1000
MTEXTBEGIN
1070
    73
1070
     1
1070
    44
1040
1.0
1070
    74
1070
     0
1000
MTEXTEND
1000
MTEXTBEGIN
1070
    73
1070
     1
1070
    44
1040
1.0
1070
    74
1070
     0
1000
MTEXTEND
  0
MTEXT
  5
568C
330
1A
100
AcDbEntity
  8
SUNPOU
100
AcDbMText
 10
85451.48060803342
 20
90930.51974062703
 30
0.0
 40
10.5
 41
0.0
 71
     9
 72
     5
  1

1001
ACAD
1000
MTEXTBEGIN
1070
    73
1070
     1
1070
    44
1040
1.0
1070
    74
1070
     0
1000
MTEXTEND
1000
MTEXTBEGIN
1070
    73
1070
     1
1070
    44
1040
1.0
1070
    74
1070
     0
1000
MTEXTEND
  0
MTEXT
  5
568D
330
1A
100
AcDbEntity
  8
SUNPOU
100
AcDbMText
 10
87394.88785474286
 20
89129.47066074901
 30
0.0
 40
3.5
 41
0.0
 71
     9
 72
     5
  1

1001
ACAD
1000
MTEXTBEGIN
1070
    73
1070
     1
1070
    44
1040
1.0
1070
    74
1070
     0
1000
MTEXTEND
1000
MTEXTBEGIN
1070
    73
1070
     1
1070
    44
1040
1.0
1070
    74
1070
     0
1000
MTEXTEND
  0
MTEXT
  5
568E
330
1A
100
AcDbEntity
  8
SUNPOU
100
AcDbMText
 10
35891.74831382901
 20
36763.68489560208
 30
0.0
 40
10.5
 41
0.0
 71
     9
 72
     5
  1

1001
ACAD
1000
MTEXTBEGIN
1070
    73
1070
     1
1070
    44
1040
1.0
1070
    74
1070
     0
1000
MTEXTEND
1000
MTEXTBEGIN
1070
    73
1070
     1
1070
    44
1040
1.0
1070
    74
1070
     0
1000
MTEXTEND
  0
MTEXT
  5
568F
330
1A
100
AcDbEntity
  8
SUNPOU
100
AcDbMText
 10
21943.74821345303
 20
17591.28575648985
 30
0.0
 40
3.5
 41
0.0
 71
     7
 72
     5
  1

1001
ACAD
1000
MTEXTBEGIN
1070
    73
1070
     1
1070
    44
1040
1.0
1070
    74
1070
     0
1000
MTEXTEND
1000
MTEXTBEGIN
1070
    73
1070
     1
1070
    44
1040
1.0
1070
    74
1070
     0
1000
MTEXTEND
  0
MTEXT
  5
19FB7
330
1A
100
AcDbEntity
  8
ZISSEN1
100
AcDbMText
 10
-615.5664567672742
 20
1685.233566703279
 30
0.0
 40
5.0
 41
108.3598999999999
 71
     1
 72
     5
  1
ADB-2640U No.SS0001f121
1001
ACAD
1000
MTEXTBEGIN
1070
    73
1070
     1
1070
    44
1040
1.0
1070
    74
1070
     0
1000
MTEXTEND
1000
MTEXTBEGIN
1070
    73
1070
     1
1070
    44
1040
1.0
1070
    74
1070
     0
1000
MTEXTEND
1000
MTEXTBEGIN
1070
    73
1070
     1
1070
    44
1040
1.0
1070
    74
1070
     0
1000
MTEXTEND
1000
MTEXTBEGIN
1070
    73
1070
     1
1070
    44
1040
1.0
1070
    74
1070
     0
1000
MTEXTEND
  0
LINE
  5
1A44B
330
1A
100
AcDbEntity
  8
ZISSEN1
 48
0.5
100
AcDbLine
 10
-543.7210088984609
 20
1516.320993269049
 30
0.0
 11
-612.22100889846
 21
1516.320993269049
 31
0.0
  0
LINE
  5
1A44C
330
1A
100
AcDbEntity
  8
ZISSEN1
 48
0.5
100
AcDbLine
 10
-543.7210088984609
 20
1514.720993269048
 30
0.0
 11
-610.2210088984609
 21
1514.720993269048
 31
0.0
  0
LINE
  5
1A44D
330
1A
100
AcDbEntity
  8
ZISSEN1
 48
0.5
100
AcDbLine
 10
-544.7210088984597
 20
1564.620993269048
 30
0.0
 11
-610.2210088984597
 21
1564.620993269048
 31
0.0
  0
LINE
  5
1A44E
330
1A
100
AcDbEntity
  8
ZISSEN1
 48
0.5
100
AcDbLine
 10
-610.2210088984597
 20
1633.620993269047
 30
0.0
 11
-544.7210088984597
 21
1633.620993269047
 31
0.0
  0
LINE
  5
1A44F
330
1A
100
AcDbEntity
  8
ZISSEN1
 48
0.5
100
AcDbLine
 10
-565.2210088984609
 20
1507.920993269049
 30
0.0
 11
-610.2210088984618
 21
1507.920993269049
 31
0.0
  0
LINE
  5
1A450
330
1A
100
AcDbEntity
  8
ZISSEN1
 48
0.5
100
AcDbLine
 10
-613.2210088984599
 20
1510.920993269051
 30
0.0
 11
-565.2210088984609
 21
1510.920993269049
 31
0.0
  0
LINE
  5
1A451
330
1A
100
AcDbEntity
  8
ZISSEN1
 48
0.5
100
AcDbLine
 10
-544.2210088984597
 20
1564.120993269048
 30
0.0
 11
-609.2210088984598
 21
1564.120993269048
 31
0.0
  0
LINE
  5
1A452
330
1A
100
AcDbEntity
  8
ZISSEN1
 48
0.5
100
AcDbLine
 10
-609.2210088984598
 20
1634.120993269047
 30
0.0
 11
-544.2210088984597
 21
1634.120993269047
 31
0.0
  0
LINE
  5
1A454
330
1A
100
AcDbEntity
  8
ZISSEN1
100
AcDbLine
 10
-606.3710088984585
 20
1626.920993269047
 30
0.0
 11
-585.6710088984596
 21
1626.920993269047
 31
0.0
  0
LINE
  5
1A455
330
1A
100
AcDbEntity
  8
ZISSEN1
100
AcDbLine
 10
-607.2210088984588
 20
1627.620993269047
 30
0.0
 11
-584.8210088984592
 21
1627.620993269047
 31
0.0
  0
LINE
  5
1A456
330
1A
100
AcDbEntity
  8
ZISSEN1
100
AcDbLine
 10
-586.6710088984587
 20
1622.320993269046
 30
0.0
 11
-605.3710088984585
 21
1622.320993269048
 31
0.0
  0
LINE
  5
1A457
330
1A
100
AcDbEntity
  8
ZISSEN1
100
AcDbLine
 10
-604.771008898459
 20
1621.720993269048
 30
0.0
 11
-587.271008898459
 21
1621.720993269048
 31
0.0
  0
LINE
  5
1A458
330
1A
100
AcDbEntity
  8
ZISSEN1
100
AcDbLine
 10
-598.5710088984592
 20
1620.820993269048
 30
0.0
 11
-593.4710088984588
 21
1620.820993269046
 31
0.0
  0
LINE
  5
1A459
330
1A
100
AcDbEntity
  8
ZISSEN1
 48
0.5
100
AcDbLine
 10
-609.7210088984597
 20
1568.620993269048
 30
0.0
 11
-609.7210088984589
 21
1629.620993269048
 31
0.0
  0
LINE
  5
1A45A
330
1A
100
AcDbEntity
  8
ZISSEN1
 48
0.5
100
AcDbLine
 10
-610.2210088984597
 20
1564.120993269048
 30
0.0
 11
-610.2210088984597
 21
1634.120993269047
 31
0.0
  0
LINE
  5
1A45B
330
1A
100
AcDbEntity
  8
ZISSEN1
 48
0.5
100
AcDbLine
 10
-613.2210088984598
 20
1634.120993269047
 30
0.0
 11
-613.2210088984598
 21
1564.120993269048
 31
0.0
  0
LINE
  5
1A46C
330
1A
100
AcDbEntity
  8
ZISSEN1
100
AcDbLine
 10
-600.2210088984589
 20
1620.820993269048
 30
0.0
 11
-607.2210088984588
 21
1620.820993269048
 31
0.0
  0
LINE
  5
1A46D
330
1A
100
AcDbEntity
  8
ZISSEN1
100
AcDbLine
 10
-606.3710088984585
 20
1621.520993269047
 30
0.0
 11
-606.3710088984585
 21
1626.920993269047
 31
0.0
  0
LINE
  5
1A46E
330
1A
100
AcDbEntity
  8
ZISSEN1
100
AcDbLine
 10
-607.2210088984588
 20
1620.820993269048
 30
0.0
 11
-607.2210088984588
 21
1627.620993269047
 31
0.0
  0
LINE
  5
1A46F
330
1A
100
AcDbEntity
  8
ZISSEN1
 48
0.5
100
AcDbLine
 10
-610.2210088984597
 20
1629.620993269048
 30
0.0
 11
-609.7210088984597
 21
1629.620993269048
 31
0.0
  0
LINE
  5
1A470
330
1A
100
AcDbEntity
  8
ZISSEN1
 48
0.5
100
AcDbLine
 10
-610.2210088984597
 20
1633.120993269047
 30
0.0
 11
-613.2210088984598
 21
1633.120993269047
 31
0.0
  0
LINE
  5
1A471
330
1A
100
AcDbEntity
  8
ZISSEN1
 48
0.5
100
AcDbLine
 10
-610.2210088984597
 20
1634.120993269047
 30
0.0
 11
-613.2210088984598
 21
1634.120993269047
 31
0.0
  0
LINE
  5
1A472
330
1A
100
AcDbEntity
  8
ZISSEN1
 48
0.5
100
AcDbLine
 10
-609.7210088984597
 20
1633.620993269047
 30
0.0
 11
-609.2210088984598
 21
1634.120993269047
 31
0.0
  0
LINE
  5
1A474
330
1A
100
AcDbEntity
  8
ZISSEN1
100
AcDbLine
 10
-605.3710088984585
 20
1622.320993269048
 30
0.0
 11
-605.3710088984585
 21
1621.520993269047
 31
0.0
  0
LINE
  5
1A475
330
1A
100
AcDbEntity
  8
ZISSEN1
100
AcDbLine
 10
-605.3710088984585
 20
1621.520993269047
 30
0.0
 11
-606.3710088984585
 21
1621.520993269047
 31
0.0
  0
LINE
  5
1A476
330
1A
100
AcDbEntity
  8
ZISSEN1
100
AcDbLine
 10
-604.771008898459
 20
1620.820993269048
 30
0.0
 11
-604.771008898459
 21
1621.720993269048
 31
0.0
  0
LINE
  5
1A482
330
1A
100
AcDbEntity
  8
ZISSEN1
100
AcDbLine
 10
-600.2210088984589
 20
1621.720993269048
 30
0.0
 11
-600.2210088984589
 21
1620.820993269048
 31
0.0
  0
LINE
  5
1A483
330
1A
100
AcDbEntity
  8
ZISSEN1
100
AcDbLine
 10
-598.5710088984592
 20
1621.720993269048
 30
0.0
 11
-598.5710088984592
 21
1620.820993269048
 31
0.0
  0
LWPOLYLINE
  5
1A484
330
1A
100
AcDbEntity
  8
ZISSEN1
100
AcDbPolyline
 90
        4
 70
     1
 43
0.0
 10
-600.021008898459
 20
1621.120993269047
 10
-598.7710088984591
 20
1621.120993269047
 10
-598.7710088984591
 20
1621.720993269048
 10
-600.021008898459
 20
1621.720993269048
  0
LINE
  5
1A490
330
1A
100
AcDbEntity
  8
ZISSEN1
100
AcDbLine
 10
-598.7710088984591
 20
1577.700993269047
 30
0.0
 11
-606.4710088984589
 21
1577.700993269047
 31
0.0
  0
LINE
  5
1A491
330
1A
100
AcDbEntity
  8
ZISSEN1
100
AcDbLine
 10
-607.1710088984587
 20
1578.300993269048
 30
0.0
 11
-598.0710088984583
 21
1578.300993269048
 31
0.0
  0
LINE
  5
1A492
330
1A
100
AcDbEntity
  8
ZISSEN1
100
AcDbLine
 10
-598.7710088984591
 20
1571.300993269048
 30
0.0
 11
-606.4710088984589
 21
1571.300993269048
 31
0.0
  0
LINE
  5
1A493
330
1A
100
AcDbEntity
  8
ZISSEN1
100
AcDbLine
 10
-598.0710088984583
 20
1570.700993269047
 30
0.0
 11
-607.1710088984587
 21
1570.700993269047
 31
0.0
  0
LINE
  5
1A494
330
1A
100
AcDbEntity
  8
ZISSEN1
100
AcDbLine
 10
-602.6210088984584
 20
1571.300993269048
 30
0.0
 11
-605.6710088984587
 21
1571.300993269048
 31
0.0
  0
LINE
  5
1A495
330
1A
100
AcDbEntity
  8
ZISSEN1
100
AcDbLine
 10
-606.4710088984589
 20
1571.300993269048
 30
0.0
 11
-602.6210088984584
 21
1571.300993269048
 31
0.0
  0
LINE
  5
1A498
330
1A
100
AcDbEntity
  8
ZISSEN1
100
AcDbLine
 10
-603.521008898459
 20
1571.300993269048
 30
0.0
 11
-604.7210088984589
 21
1571.300993269048
 31
0.0
  0
LINE
  5
1A49A
330
1A
100
AcDbEntity
  8
ZISSEN1
100
AcDbLine
 10
-606.4710088984589
 20
1571.300993269048
 30
0.0
 11
-606.4710088984589
 21
1577.700993269047
 31
0.0
  0
LINE
  5
1A49B
330
1A
100
AcDbEntity
  8
ZISSEN1
100
AcDbLine
 10
-607.1710088984587
 20
1570.700993269047
 30
0.0
 11
-607.1710088984587
 21
1578.300993269048
 31
0.0
  0
LINE
  5
1A49C
330
1A
100
AcDbEntity
  8
ZISSEN1
 48
0.5
100
AcDbLine
 10
-610.2210088984597
 20
1568.620993269048
 30
0.0
 11
-609.7210088984597
 21
1568.620993269048
 31
0.0
  0
LINE
  5
1A49D
330
1A
100
AcDbEntity
  8
ZISSEN1
 48
0.5
100
AcDbLine
 10
-610.2210088984597
 20
1565.120993269047
 30
0.0
 11
-613.2210088984598
 21
1565.120993269047
 31
0.0
  0
LINE
  5
1A49E
330
1A
100
AcDbEntity
  8
ZISSEN1
 48
0.5
100
AcDbLine
 10
-613.2210088984598
 20
1564.120993269048
 30
0.0
 11
-610.2210088984597
 21
1564.120993269048
 31
0.0
  0
LINE
  5
1A49F
330
1A
100
AcDbEntity
  8
ZISSEN1
 48
0.5
100
AcDbLine
 10
-609.2210088984598
 20
1564.120993269048
 30
0.0
 11
-609.7210088984597
 21
1564.620993269048
 31
0.0
  0
LINE
  5
1A4A0
330
1A
100
AcDbEntity
  8
ZISSEN1
100
AcDbLine
 10
-604.6710088984586
 20
1571.300993269048
 30
0.0
 11
-604.6710088984586
 21
1570.700993269047
 31
0.0
  0
LINE
  5
1A4A1
330
1A
100
AcDbEntity
  8
ZISSEN1
100
AcDbLine
 10
-605.6710088984587
 20
1571.300993269048
 30
0.0
 11
-605.6710088984587
 21
1570.700993269047
 31
0.0
  0
LINE
  5
1A4A3
330
1A
100
AcDbEntity
  8
ZISSEN1
100
AcDbLine
 10
-598.0710088984583
 20
1570.700993269047
 30
0.0
 11
-598.0710088984583
 21
1574.500993269047
 31
0.0
  0
LINE
  5
1A4A4
330
1A
100
AcDbEntity
  8
ZISSEN1
100
AcDbLine
 10
-598.7710088984591
 20
1574.500993269047
 30
0.0
 11
-598.7710088984591
 21
1571.300993269048
 31
0.0
  0
LINE
  5
1A4A8
330
1A
100
AcDbEntity
  8
ZISSEN1
100
AcDbLine
 10
-598.0710088984583
 20
1578.300993269048
 30
0.0
 11
-598.0710088984583
 21
1574.020993269047
 31
0.0
  0
LINE
  5
1A4A9
330
1A
100
AcDbEntity
  8
ZISSEN1
100
AcDbLine
 10
-598.0710088984583
 20
1578.300993269048
 30
0.0
 11
-598.0710088984583
 21
1574.500993269047
 31
0.0
  0
LINE
  5
1A4AA
330
1A
100
AcDbEntity
  8
ZISSEN1
100
AcDbLine
 10
-598.7710088984591
 20
1574.500993269047
 30
0.0
 11
-598.7710088984591
 21
1577.700993269047
 31
0.0
  0
LINE
  5
1A4AB
330
1A
100
AcDbEntity
  8
ZISSEN1
100
AcDbLine
 10
-602.6210088984584
 20
1570.700993269047
 30
0.0
 11
-602.6210088984584
 21
1570.100993269047
 31
0.0
  0
LINE
  5
1A4AD
330
1A
100
AcDbEntity
  8
ZISSEN1
100
AcDbLine
 10
-603.1210088984585
 20
1570.100993269047
 30
0.0
 11
-602.1210088984584
 21
1570.100993269047
 31
0.0
  0
LINE
  5
1A4AE
330
1A
100
AcDbEntity
  8
ZISSEN1
100
AcDbLine
 10
-603.1210088984585
 20
1570.700993269047
 30
0.0
 11
-603.1210088984585
 21
1570.100993269047
 31
0.0
  0
LINE
  5
1A4AF
330
1A
100
AcDbEntity
  8
ZISSEN1
100
AcDbLine
 10
-602.1210088984584
 20
1570.700993269047
 30
0.0
 11
-602.1210088984584
 21
1570.100993269047
 31
0.0
  0
LINE
  5
1A4B0
330
1A
100
AcDbEntity
  8
ZISSEN1
100
AcDbLine
 10
-602.6210088984584
 20
1571.300993269048
 30
0.0
 11
-602.1210088984584
 21
1571.300993269048
 31
0.0
  0
LINE
  5
1A4B1
330
1A
100
AcDbEntity
  8
ZISSEN1
100
AcDbLine
 10
-602.6210088984584
 20
1571.300993269048
 30
0.0
 11
-603.1210088984585
 21
1571.300993269048
 31
0.0
  0
LINE
  5
1A4B2
330
1A
100
AcDbEntity
  8
ZISSEN1
100
AcDbLine
 10
-600.5710088984583
 20
1571.300993269048
 30
0.0
 11
-600.5710088984583
 21
1570.700993269047
 31
0.0
  0
LINE
  5
1A4B3
330
1A
100
AcDbEntity
  8
ZISSEN1
100
AcDbLine
 10
-599.5710088984583
 20
1571.300993269048
 30
0.0
 11
-599.5710088984583
 21
1570.700993269047
 31
0.0
  0
LINE
  5
1A4B4
330
1A
100
AcDbEntity
  8
ZISSEN1
100
AcDbLine
 10
-602.6210088984584
 20
1571.300993269048
 30
0.0
 11
-599.5710088984583
 21
1571.300993269048
 31
0.0
  0
LINE
  5
1A4B6
330
1A
100
AcDbEntity
  8
ZISSEN1
 48
0.5
100
AcDbLine
 10
-610.2210088984618
 20
1516.320993269049
 30
0.0
 11
-610.2210088984591
 21
1535.920993269049
 31
0.0
  0
LINE
  5
1A4B7
330
1A
100
AcDbEntity
  8
ZISSEN1
 48
0.5
100
AcDbLine
 10
-613.221008898459
 20
1535.920993269049
 30
0.0
 11
-613.2210088984599
 21
1510.920993269051
 31
0.0
  0
LINE
  5
1A4B8
330
1A
100
AcDbEntity
  8
ZISSEN1
 48
0.5
100
AcDbLine
 10
-610.2210088984591
 20
1534.920993269049
 30
0.0
 11
-613.221008898459
 21
1534.920993269049
 31
0.0
  0
LINE
  5
1A4B9
330
1A
100
AcDbEntity
  8
ZISSEN1
 48
0.5
100
AcDbLine
 10
-610.2210088984591
 20
1535.920993269049
 30
0.0
 11
-613.221008898459
 21
1535.920993269049
 31
0.0
  0
LINE
  5
1A4BA
330
1A
100
AcDbEntity
  8
ZISSEN1
100
AcDbLine
 10
-598.0710109630852
 20
1516.320993269049
 30
0.0
 11
-607.1710109630837
 21
1516.320993269049
 31
0.0
  0
LINE
  5
1A4BD
330
1A
100
AcDbEntity
  8
ZISSEN1
100
AcDbLine
 10
-607.1710109630837
 20
1516.320993269049
 30
0.0
 11
-607.1710109630837
 21
1526.820993269049
 31
0.0
  0
LINE
  5
1A4BE
330
1A
100
AcDbEntity
  8
ZISSEN1
 48
0.5
100
AcDbLine
 10
-610.2210088984609
 20
1521.670993269049
 30
0.0
 11
-613.221008898459
 21
1521.670993269049
 31
0.0
  0
LINE
  5
1A4BF
330
1A
100
AcDbEntity
  8
ZISSEN1
 48
0.5
100
AcDbLine
 10
-610.22100889846
 20
1525.170993269049
 30
0.0
 11
-613.221008898459
 21
1525.170993269049
 31
0.0
  0
LINE
  5
1A4C4
330
1A
100
AcDbEntity
  8
ZISSEN1
 48
0.5
100
AcDbLine
 10
-612.22100889846
 20
1516.320993269049
 30
0.0
 11
-612.22100889846
 21
1514.720993269048
 31
0.0
  0
ARC
  5
1A4C5
330
1A
100
AcDbEntity
  8
ZISSEN1
 48
0.5
100
AcDbCircle
 10
-610.2210088984564
 20
1510.920993269049
 30
0.0
 40
3.000000000005456
100
AcDbArc
 50
180.0
 51
269.9999999999478
  0
LINE
  5
1A4C6
330
1A
100
AcDbEntity
  8
ZISSEN1
 48
0.5
100
AcDbLine
 10
-609.22100889846
 20
1510.920993269051
 30
0.0
 11
-609.22100889846
 21
1507.920993269051
 31
0.0
  0
LINE
  5
1A4C7
330
1A
100
AcDbEntity
  8
ZISSEN1
 48
0.5
100
AcDbLine
 10
-610.2210088984618
 20
1511.920993269049
 30
0.0
 11
-613.221008898459
 21
1511.920993269049
 31
0.0
  0
LINE
  5
1A4C8
330
1A
100
AcDbEntity
  8
ZISSEN1
 48
0.5
100
AcDbLine
 10
-610.2210088984609
 20
1514.720993269048
 30
0.0
 11
-613.2210088984599
 21
1514.720993269048
 31
0.0
  0
LINE
  5
1A4C9
330
1A
100
AcDbEntity
  8
ZISSEN1
 48
0.5
100
AcDbLine
 10
-610.2210088984609
 20
1516.720993269048
 30
0.0
 11
-613.221008898459
 21
1516.720993269048
 31
0.0
  0
LINE
  5
1A4CA
330
1A
100
AcDbEntity
  8
ZISSEN1
 48
0.5
100
AcDbLine
 10
-610.2210088984618
 20
1507.920993269049
 30
0.0
 11
-610.2210088984609
 21
1514.720993269048
 31
0.0
  0
LINE
  5
1A4CD
330
1A
100
AcDbEntity
  8
ZISSEN1
100
AcDbLine
 10
-598.0710109630852
 20
1526.820993269049
 30
0.0
 11
-598.0710109630852
 21
1516.320993269049
 31
0.0
  0
LINE
  5
1A4D9
330
1A
100
AcDbEntity
  8
ZISSEN1
 48
0.5
100
AcDbLine
 10
-543.7210088984597
 20
1632.620993269049
 30
0.0
 11
-543.7210088984597
 21
1565.620993269047
 31
0.0
  0
LINE
  5
1A4DA
330
1A
100
AcDbEntity
  8
ZISSEN1
 48
0.5
100
AcDbLine
 10
-543.2210088984597
 20
1633.120993269047
 30
0.0
 11
-543.2210088984597
 21
1610.620993269048
 31
0.0
  0
CIRCLE
  5
1A4DE
330
1A
100
AcDbEntity
  8
ZISSEN1
 48
0.5
100
AcDbCircle
 10
-554.2210088984606
 20
1630.620993269046
 30
0.0
 40
2.75
  0
LINE
  5
1A4DF
330
1A
100
AcDbEntity
  8
ZISSEN1
 48
0.5
100
AcDbLine
 10
-554.6210088984603
 20
1631.020993269046
 30
0.0
 11
-555.7210088984597
 21
1631.020993269046
 31
0.0
  0
LINE
  5
1A4E0
330
1A
100
AcDbEntity
  8
ZISSEN1
 48
0.5
100
AcDbLine
 10
-555.7210088984597
 20
1630.220993269046
 30
0.0
 11
-554.6210088984603
 21
1630.220993269046
 31
0.0
  0
LINE
  5
1A4E6
330
1A
100
AcDbEntity
  8
ZISSEN1
100
AcDbLine
 10
-585.6710088984596
 20
1621.520993269047
 30
0.0
 11
-585.6710088984596
 21
1626.920993269047
 31
0.0
  0
LINE
  5
1A4E7
330
1A
100
AcDbEntity
  8
ZISSEN1
100
AcDbLine
 10
-585.6710088984596
 20
1626.920993269047
 30
0.0
 11
-585.6710088984596
 21
1621.520993269047
 31
0.0
  0
LINE
  5
1A4E8
330
1A
100
AcDbEntity
  8
ZISSEN1
100
AcDbLine
 10
-585.6710088984596
 20
1626.920993269047
 30
0.0
 11
-585.6710088984596
 21
1621.520993269047
 31
0.0
  0
LINE
  5
1A4E9
330
1A
100
AcDbEntity
  8
ZISSEN1
100
AcDbLine
 10
-584.8210088984592
 20
1627.620993269047
 30
0.0
 11
-584.8210088984592
 21
1620.820993269046
 31
0.0
  0
LINE
  5
1A4EE
330
1A
100
AcDbEntity
  8
ZISSEN1
100
AcDbLine
 10
-585.6710088984596
 20
1621.520993269047
 30
0.0
 11
-586.6710088984587
 21
1621.520993269047
 31
0.0
  0
LINE
  5
1A4EF
330
1A
100
AcDbEntity
  8
ZISSEN1
100
AcDbLine
 10
-586.6710088984587
 20
1621.520993269047
 30
0.0
 11
-586.6710088984587
 21
1622.320993269046
 31
0.0
  0
LINE
  5
1A4F0
330
1A
100
AcDbEntity
  8
ZISSEN1
100
AcDbLine
 10
-587.271008898459
 20
1621.720993269048
 30
0.0
 11
-587.271008898459
 21
1620.820993269046
 31
0.0
  0
LINE
  5
1A4F1
330
1A
100
AcDbEntity
  8
ZISSEN1
100
AcDbLine
 10
-593.4710088984588
 20
1621.720993269048
 30
0.0
 11
-593.4710088984588
 21
1620.820993269046
 31
0.0
  0
LINE
  5
1A4F2
330
1A
100
AcDbEntity
  8
ZISSEN1
100
AcDbLine
 10
-591.8210088984592
 20
1621.720993269048
 30
0.0
 11
-591.8210088984592
 21
1620.820993269046
 31
0.0
  0
LINE
  5
1A4F3
330
1A
100
AcDbEntity
  8
ZISSEN1
100
AcDbLine
 10
-584.8210088984592
 20
1620.820993269046
 30
0.0
 11
-591.8210088984592
 21
1620.820993269046
 31
0.0
  0
LWPOLYLINE
  5
1A4F4
330
1A
100
AcDbEntity
  8
ZISSEN1
100
AcDbPolyline
 90
        4
 70
     1
 43
0.0
 10
-593.271008898459
 20
1621.120993269047
 10
-592.021008898459
 20
1621.120993269047
 10
-592.021008898459
 20
1621.720993269048
 10
-593.271008898459
 20
1621.720993269048
  0
LWPOLYLINE
  5
1A4F7
330
1A
100
AcDbEntity
  8
ZISSEN1
100
AcDbPolyline
 90
        4
 70
     1
 43
0.0
 10
-581.8184718682346
 20
1625.41954072804
 10
-575.2184718682342
 20
1625.41954072804
 10
-575.2184718682342
 20
1630.81954072804
 10
-581.8184718682346
 20
1630.81954072804
  0
LWPOLYLINE
  5
1A4F8
330
1A
100
AcDbEntity
  8
ZISSEN1
100
AcDbPolyline
 90
        4
 70
     1
 43
0.0
 10
-581.8184718682346
 20
1625.579540728041
 10
-575.2184718682342
 20
1625.579540728041
 10
-575.2184718682342
 20
1630.65954072804
 10
-581.8184718682346
 20
1630.65954072804
  0
LWPOLYLINE
  5
1A502
330
1A
100
AcDbEntity
  8
ZISSEN1
100
AcDbPolyline
 90
        4
 70
     1
 43
0.0
 10
-580.7187767240462
 20
1629.61954072804
 10
-580.1187767240458
 20
1629.61954072804
 10
-580.1187767240458
 20
1626.619540728039
 10
-580.7187767240462
 20
1626.619540728039
  0
LWPOLYLINE
  5
1A503
330
1A
100
AcDbEntity
  8
ZISSEN1
100
AcDbPolyline
 90
        4
 70
     1
 43
0.0
 10
-579.4467006421032
 20
1629.61954072804
 10
-578.8467006421028
 20
1629.61954072804
 10
-578.8467006421028
 20
1626.619540728039
 10
-579.4467006421032
 20
1626.619540728039
  0
LWPOLYLINE
  5
1A504
330
1A
100
AcDbEntity
  8
ZISSEN1
100
AcDbPolyline
 90
        4
 70
     1
 43
0.0
 10
-576.9067006421032
 20
1629.61954072804
 10
-576.3067006421029
 20
1629.61954072804
 10
-576.3067006421029
 20
1626.619540728039
 10
-576.9067006421032
 20
1626.619540728039
  0
LWPOLYLINE
  5
1A505
330
1A
100
AcDbEntity
  8
ZISSEN1
100
AcDbPolyline
 90
        4
 70
     1
 43
0.0
 10
-578.1787767240461
 20
1629.61954072804
 10
-577.5787767240458
 20
1629.61954072804
 10
-577.5787767240458
 20
1626.619540728039
 10
-578.1787767240461
 20
1626.619540728039
  0
LINE
  5
1A506
330
1A
100
AcDbEntity
  8
ZISSEN1
100
AcDbLine
 10
-580.7987767240461
 20
1630.65954072804
 30
0.0
 11
-580.0387767240458
 21
1630.65954072804
 31
0.0
  0
LINE
  5
1A507
330
1A
100
AcDbEntity
  8
ZISSEN1
100
AcDbLine
 10
-579.5287767240457
 20
1630.65954072804
 30
0.0
 11
-578.7687767240454
 21
1630.65954072804
 31
0.0
  0
LINE
  5
1A508
330
1A
100
AcDbEntity
  8
ZISSEN1
100
AcDbLine
 10
-578.2587767240461
 20
1630.65954072804
 30
0.0
 11
-577.4987767240459
 21
1630.65954072804
 31
0.0
  0
LINE
  5
1A509
330
1A
100
AcDbEntity
  8
ZISSEN1
100
AcDbLine
 10
-576.9887767240466
 20
1630.65954072804
 30
0.0
 11
-576.2287767240463
 21
1630.65954072804
 31
0.0
  0
LWPOLYLINE
  5
1A519
330
1A
100
AcDbEntity
  8
ZISSEN1
100
AcDbPolyline
 90
        4
 70
     1
 43
0.0
 10
-581.8184718682346
 20
1615.56099326905
 10
-575.2184718682342
 20
1615.56099326905
 10
-575.2184718682342
 20
1620.960993269049
 10
-581.8184718682346
 20
1620.960993269049
  0
LWPOLYLINE
  5
1A51E
330
1A
100
AcDbEntity
  8
ZISSEN1
100
AcDbPolyline
 90
        4
 70
     1
 43
0.0
 10
-580.7187767240462
 20
1619.760993269049
 10
-580.1187767240458
 20
1619.760993269049
 10
-580.1187767240458
 20
1616.760993269049
 10
-580.7187767240462
 20
1616.760993269049
  0
LWPOLYLINE
  5
1A51F
330
1A
100
AcDbEntity
  8
ZISSEN1
100
AcDbPolyline
 90
        4
 70
     1
 43
0.0
 10
-579.4467006421032
 20
1619.760993269049
 10
-578.8467006421028
 20
1619.760993269049
 10
-578.8467006421028
 20
1616.760993269049
 10
-579.4467006421032
 20
1616.760993269049
  0
LWPOLYLINE
  5
1A520
330
1A
100
AcDbEntity
  8
ZISSEN1
100
AcDbPolyline
 90
        4
 70
     1
 43
0.0
 10
-576.9067006421032
 20
1619.760993269049
 10
-576.3067006421029
 20
1619.760993269049
 10
-576.3067006421029
 20
1616.760993269049
 10
-576.9067006421032
 20
1616.760993269049
  0
LWPOLYLINE
  5
1A521
330
1A
100
AcDbEntity
  8
ZISSEN1
100
AcDbPolyline
 90
        4
 70
     1
 43
0.0
 10
-578.1787767240461
 20
1619.760993269049
 10
-577.5787767240458
 20
1619.760993269049
 10
-577.5787767240458
 20
1616.760993269049
 10
-578.1787767240461
 20
1616.760993269049
  0
LWPOLYLINE
  5
1A522
330
1A
100
AcDbEntity
  8
ZISSEN1
100
AcDbPolyline
 90
        4
 70
     1
 43
0.0
 10
-581.8184718682346
 20
1615.720993269049
 10
-575.2184718682342
 20
1615.720993269049
 10
-575.2184718682342
 20
1620.80099326905
 10
-581.8184718682346
 20
1620.80099326905
  0
LINE
  5
1A547
330
1A
100
AcDbEntity
  8
ZISSEN1
100
AcDbLine
 10
-571.6210088984603
 20
1620.080993269048
 30
0.0
 11
-571.6210088984603
 21
1627.480993269048
 31
0.0
  0
LINE
  5
1A549
330
1A
100
AcDbEntity
  8
ZISSEN1
100
AcDbLine
 10
-568.0210088984599
 20
1620.080993269048
 30
0.0
 11
-568.0210088984599
 21
1627.480993269048
 31
0.0
  0
LINE
  5
1A54A
330
1A
100
AcDbEntity
  8
ZISSEN1
 48
0.5
100
AcDbLine
 10
-565.2210088984588
 20
1634.120993269047
 30
0.0
 11
-565.2210088984588
 21
1633.620993269047
 31
0.0
  0
LINE
  5
1A54D
330
1A
100
AcDbEntity
  8
ZISSEN1
100
AcDbLine
 10
-568.0210088984599
 20
1627.480993269048
 30
0.0
 11
-571.6210088984603
 21
1627.480993269048
 31
0.0
  0
LINE
  5
1A552
330
1A
100
AcDbEntity
  8
ZISSEN1
100
AcDbLine
 10
-565.1210088984603
 20
1629.75599326905
 30
0.0
 11
-565.1210088984603
 21
1631.00599326905
 31
0.0
  0
LINE
  5
1A553
330
1A
100
AcDbEntity
  8
ZISSEN1
100
AcDbLine
 10
-567.1210088984603
 20
1631.00599326905
 30
0.0
 11
-567.1210088984603
 21
1629.75599326905
 31
0.0
  0
LINE
  5
1A556
330
1A
100
AcDbEntity
  8
ZISSEN1
100
AcDbLine
 10
-565.1210088984603
 20
1631.00599326905
 30
0.0
 11
-567.1210088984603
 21
1631.00599326905
 31
0.0
  0
LINE
  5
1A557
330
1A
100
AcDbEntity
  8
ZISSEN1
100
AcDbLine
 10
-567.1210088984603
 20
1629.75599326905
 30
0.0
 11
-565.1210088984603
 21
1629.75599326905
 31
0.0
  0
LINE
  5
1A558
330
1A
100
AcDbEntity
  8
ZISSEN1
100
AcDbLine
 10
-565.1210088984603
 20
1629.75599326905
 30
0.0
 11
-565.4210088984605
 21
1629.75599326905
 31
0.0
  0
LINE
  5
1A560
330
1A
100
AcDbEntity
  8
ZISSEN1
100
AcDbLine
 10
-570.4718508133214
 20
1629.723248618893
 30
0.0
 11
-570.4718508133214
 21
1630.973248618893
 31
0.0
  0
LINE
  5
1A561
330
1A
100
AcDbEntity
  8
ZISSEN1
100
AcDbLine
 10
-572.4718508133214
 20
1630.973248618893
 30
0.0
 11
-572.4718508133214
 21
1629.723248618893
 31
0.0
  0
LINE
  5
1A566
330
1A
100
AcDbEntity
  8
ZISSEN1
100
AcDbLine
 10
-570.4718508133214
 20
1630.973248618893
 30
0.0
 11
-572.4718508133214
 21
1630.973248618893
 31
0.0
  0
LINE
  5
1A567
330
1A
100
AcDbEntity
  8
ZISSEN1
100
AcDbLine
 10
-572.4718508133214
 20
1629.723248618893
 30
0.0
 11
-570.4718508133214
 21
1629.723248618893
 31
0.0
  0
LINE
  5
1A568
330
1A
100
AcDbEntity
  8
ZISSEN1
100
AcDbLine
 10
-570.4718508133214
 20
1629.723248618893
 30
0.0
 11
-570.7718508133216
 21
1629.723248618893
 31
0.0
  0
LINE
  5
1A57B
330
1A
100
AcDbEntity
  8
ZISSEN1
100
AcDbLine
 10
-571.6210088984603
 20
1620.080993269048
 30
0.0
 11
-568.0210088984599
 21
1620.080993269048
 31
0.0
  0
LINE
  5
1A57E
330
1A
100
AcDbEntity
  8
ZISSEN1
 48
0.5
100
AcDbLine
 10
-555.7210088984597
 20
1630.620993269046
 30
0.0
 11
-555.7210088984597
 21
1630.220993269046
 31
0.0
  0
LINE
  5
1A57F
330
1A
100
AcDbEntity
  8
ZISSEN1
 48
0.5
100
AcDbLine
 10
-555.7210088984597
 20
1631.020993269046
 30
0.0
 11
-555.7210088984597
 21
1630.620993269046
 31
0.0
  0
LINE
  5
1A592
330
1A
100
AcDbEntity
  8
ZISSEN1
 48
0.5
100
AcDbLine
 10
-552.7210088984597
 20
1631.020993269046
 30
0.0
 11
-552.7210088984597
 21
1630.620993269046
 31
0.0
  0
LINE
  5
1A593
330
1A
100
AcDbEntity
  8
ZISSEN1
 48
0.5
100
AcDbLine
 10
-552.7210088984597
 20
1630.620993269046
 30
0.0
 11
-552.7210088984597
 21
1630.220993269046
 31
0.0
  0
LINE
  5
1A594
330
1A
100
AcDbEntity
  8
ZISSEN1
 48
0.5
100
AcDbLine
 10
-553.8210088984601
 20
1632.120993269046
 30
0.0
 11
-554.2210088984598
 21
1632.120993269046
 31
0.0
  0
LINE
  5
1A595
330
1A
100
AcDbEntity
  8
ZISSEN1
 48
0.5
100
AcDbLine
 10
-554.2210088984598
 20
1632.120993269046
 30
0.0
 11
-554.6210088984603
 21
1632.120993269046
 31
0.0
  0
LINE
  5
1A596
330
1A
100
AcDbEntity
  8
ZISSEN1
 48
0.5
100
AcDbLine
 10
-553.8210088984601
 20
1631.020993269046
 30
0.0
 11
-553.8210088984601
 21
1632.120993269046
 31
0.0
  0
LINE
  5
1A597
330
1A
100
AcDbEntity
  8
ZISSEN1
 48
0.5
100
AcDbLine
 10
-554.6210088984603
 20
1632.120993269046
 30
0.0
 11
-554.6210088984603
 21
1631.020993269046
 31
0.0
  0
LINE
  5
1A598
330
1A
100
AcDbEntity
  8
ZISSEN1
 48
0.5
100
AcDbLine
 10
-554.2210088984598
 20
1629.120993269046
 30
0.0
 11
-554.6210088984603
 21
1629.120993269046
 31
0.0
  0
LINE
  5
1A599
330
1A
100
AcDbEntity
  8
ZISSEN1
 48
0.5
100
AcDbLine
 10
-553.8210088984601
 20
1629.120993269046
 30
0.0
 11
-554.2210088984598
 21
1629.120993269046
 31
0.0
  0
LINE
  5
1A59A
330
1A
100
AcDbEntity
  8
ZISSEN1
 48
0.5
100
AcDbLine
 10
-554.6210088984603
 20
1629.120993269046
 30
0.0
 11
-554.6210088984603
 21
1630.220993269046
 31
0.0
  0
LINE
  5
1A59B
330
1A
100
AcDbEntity
  8
ZISSEN1
 48
0.5
100
AcDbLine
 10
-553.8210088984601
 20
1630.220993269046
 30
0.0
 11
-553.8210088984601
 21
1629.120993269046
 31
0.0
  0
LINE
  5
1A59C
330
1A
100
AcDbEntity
  8
ZISSEN1
 48
0.5
100
AcDbLine
 10
-552.7210088984597
 20
1630.220993269046
 30
0.0
 11
-553.8210088984601
 21
1630.220993269046
 31
0.0
  0
LINE
  5
1A59D
330
1A
100
AcDbEntity
  8
ZISSEN1
 48
0.5
100
AcDbLine
 10
-553.8210088984601
 20
1631.020993269046
 30
0.0
 11
-552.7210088984597
 21
1631.020993269046
 31
0.0
  0
LINE
  5
1A59E
330
1A
100
AcDbEntity
  8
ZISSEN1
 48
0.5
100
AcDbLine
 10
-544.7210088984597
 20
1633.620993269047
 30
0.0
 11
-543.7210088984597
 21
1632.620993269049
 31
0.0
  0
LINE
  5
1A59F
330
1A
100
AcDbEntity
  8
ZISSEN1
 48
0.5
100
AcDbLine
 10
-544.2210088984597
 20
1634.120993269047
 30
0.0
 11
-543.2210088984597
 21
1633.120993269047
 31
0.0
  0
LINE
  5
1A5A0
330
1A
100
AcDbEntity
  8
ZISSEN1
 48
0.5
100
AcDbLine
 10
-562.2210088984608
 20
1511.420993269049
 30
0.0
 11
-543.2210088984609
 21
1511.420993269049
 31
0.0
  0
CIRCLE
  5
1A5A1
330
1A
100
AcDbEntity
  8
ZISSEN1
 48
0.5
100
AcDbCircle
 10
-554.2210088984598
 20
1567.620993269048
 30
0.0
 40
2.75
  0
LINE
  5
1A5A2
330
1A
100
AcDbEntity
  8
ZISSEN1
 48
0.5
100
AcDbLine
 10
-554.6210088984594
 20
1568.020993269047
 30
0.0
 11
-555.7210088984589
 21
1568.020993269047
 31
0.0
  0
LINE
  5
1A5A3
330
1A
100
AcDbEntity
  8
ZISSEN1
 48
0.5
100
AcDbLine
 10
-555.7210088984589
 20
1567.220993269048
 30
0.0
 11
-554.6210088984594
 21
1567.220993269048
 31
0.0
  0
LINE
  5
1A5A4
330
1A
100
AcDbEntity
  8
ZISSEN1
 48
0.5
100
AcDbLine
 10
-566.7210088984609
 20
1514.420993269049
 30
0.0
 11
-543.2210088984609
 21
1514.420993269049
 31
0.0
  0
LINE
  5
1A5A6
330
1A
100
AcDbEntity
  8
ZISSEN1
 48
0.5
100
AcDbLine
 10
-565.2210088984588
 20
1564.620993269048
 30
0.0
 11
-565.2210088984588
 21
1564.120993269048
 31
0.0
  0
LINE
  5
1A5A7
330
1A
100
AcDbEntity
  8
ZISSEN1
 48
0.5
100
AcDbLine
 10
-555.7210088984589
 20
1567.620993269048
 30
0.0
 11
-555.7210088984589
 21
1567.220993269048
 31
0.0
  0
LINE
  5
1A5A8
330
1A
100
AcDbEntity
  8
ZISSEN1
 48
0.5
100
AcDbLine
 10
-555.7210088984589
 20
1568.020993269047
 30
0.0
 11
-555.7210088984589
 21
1567.620993269048
 31
0.0
  0
ARC
  5
1A5A9
330
1A
100
AcDbEntity
  8
ZISSEN1
 48
0.5
100
AcDbCircle
 10
-562.2210088984608
 20
1511.420993269049
 30
0.0
 40
3.0
100
AcDbArc
 50
89.99999999994788
 51
180.0
  0
ARC
  5
1A5AA
330
1A
100
AcDbEntity
  8
ZISSEN1
 48
0.5
100
AcDbCircle
 10
-565.2210088984609
 20
1510.920993269049
 30
0.0
 40
3.0
100
AcDbArc
 50
270.0
 51
0.0
  0
LINE
  5
1A5AB
330
1A
100
AcDbEntity
  8
ZISSEN1
 48
0.5
100
AcDbLine
 10
-565.2210088984609
 20
1511.420993269049
 30
0.0
 11
-565.2210088984609
 21
1510.920993269049
 31
0.0
  0
LINE
  5
1A5AC
330
1A
100
AcDbEntity
  8
ZISSEN1
 48
0.5
100
AcDbLine
 10
-566.7210088984609
 20
1514.720993269048
 30
0.0
 11
-566.7210088984609
 21
1514.420993269049
 31
0.0
  0
LINE
  5
1A5AD
330
1A
100
AcDbEntity
  8
ZISSEN1
 48
0.5
100
AcDbLine
 10
-562.2210088984608
 20
1511.420993269049
 30
0.0
 11
-562.2210088984608
 21
1510.920993269049
 31
0.0
  0
LINE
  5
1A5AE
330
1A
100
AcDbEntity
  8
ZISSEN1
 48
0.5
100
AcDbLine
 10
-543.2210088984597
 20
1587.120993269047
 30
0.0
 11
-543.2210088984597
 21
1565.120993269047
 31
0.0
  0
LINE
  5
1A5AF
330
1A
100
AcDbEntity
  8
ZISSEN1
100
AcDbLine
 10
-545.021008898459
 20
1587.320993269046
 30
0.0
 11
-548.8210088984592
 21
1587.320993269046
 31
0.0
  0
LINE
  5
1A5B0
330
1A
100
AcDbEntity
  8
ZISSEN1
100
AcDbLine
 10
-545.021008898459
 20
1610.420993269047
 30
0.0
 11
-548.8210088984592
 21
1610.420993269047
 31
0.0
  0
LINE
  5
1A5B1
330
1A
100
AcDbEntity
  8
ZISSEN1
100
AcDbLine
 10
-545.6210088984585
 20
1595.720993269048
 30
0.0
 11
-545.021008898459
 21
1595.720993269048
 31
0.0
  0
LINE
  5
1A5B2
330
1A
100
AcDbEntity
  8
ZISSEN1
100
AcDbLine
 10
-545.021008898459
 20
1594.520993269047
 30
0.0
 11
-545.6210088984585
 21
1594.520993269047
 31
0.0
  0
LINE
  5
1A5B3
330
1A
100
AcDbEntity
  8
ZISSEN1
100
AcDbLine
 10
-545.021008898459
 20
1603.220993269048
 30
0.0
 11
-545.6210088984585
 21
1603.220993269048
 31
0.0
  0
LINE
  5
1A5B4
330
1A
100
AcDbEntity
  8
ZISSEN1
100
AcDbLine
 10
-545.6210088984585
 20
1602.020993269047
 30
0.0
 11
-545.021008898459
 21
1602.020993269047
 31
0.0
  0
LINE
  5
1A5B5
330
1A
100
AcDbEntity
  8
ZISSEN1
100
AcDbLine
 10
-545.6210088984585
 20
1609.720993269048
 30
0.0
 11
-545.6210088984585
 21
1598.870993269048
 31
0.0
  0
LINE
  5
1A5B6
330
1A
100
AcDbEntity
  8
ZISSEN1
100
AcDbLine
 10
-552.6210088984584
 20
1598.870993269048
 30
0.0
 11
-552.6210088984584
 21
1610.420993269047
 31
0.0
  0
LINE
  5
1A5B7
330
1A
100
AcDbEntity
  8
ZISSEN1
100
AcDbLine
 10
-552.0210088984581
 20
1609.720993269048
 30
0.0
 11
-552.0210088984581
 21
1598.870993269048
 31
0.0
  0
LINE
  5
1A5BA
330
1A
100
AcDbEntity
  8
ZISSEN1
100
AcDbLine
 10
-548.8210088984592
 20
1609.720993269048
 30
0.0
 11
-545.6210088984585
 21
1609.720993269048
 31
0.0
  0
LINE
  5
1A5BF
330
1A
100
AcDbEntity
  8
ZISSEN1
100
AcDbLine
 10
-545.6210088984585
 20
1603.220993269048
 30
0.0
 11
-545.6210088984585
 21
1602.020993269047
 31
0.0
  0
LINE
  5
1A5C2
330
1A
100
AcDbEntity
  8
ZISSEN1
100
AcDbLine
 10
-548.8210088984592
 20
1609.720993269048
 30
0.0
 11
-552.0210088984581
 21
1609.720993269048
 31
0.0
  0
LINE
  5
1A5C3
330
1A
100
AcDbEntity
  8
ZISSEN1
100
AcDbLine
 10
-552.6210088984584
 20
1610.420993269047
 30
0.0
 11
-548.8210088984592
 21
1610.420993269047
 31
0.0
  0
LINE
  5
1A5C4
330
1A
100
AcDbEntity
  8
ZISSEN1
100
AcDbLine
 10
-552.6210088984584
 20
1610.420993269047
 30
0.0
 11
-548.3410088984578
 21
1610.420993269047
 31
0.0
  0
LINE
  5
1A5C6
330
1A
100
AcDbEntity
  8
ZISSEN1
100
AcDbLine
 10
-548.8210088984592
 20
1588.020993269047
 30
0.0
 11
-545.6210088984585
 21
1588.020993269047
 31
0.0
  0
LINE
  5
1A5C9
330
1A
100
AcDbEntity
  8
ZISSEN1
100
AcDbLine
 10
-545.8210088984592
 20
1587.320993269046
 30
0.0
 11
-552.6210088984584
 21
1587.320993269046
 31
0.0
  0
LINE
  5
1A5CB
330
1A
100
AcDbEntity
  8
ZISSEN1
100
AcDbLine
 10
-548.8210088984592
 20
1588.020993269047
 30
0.0
 11
-552.0210088984581
 21
1588.020993269047
 31
0.0
  0
LINE
  5
1A5CC
330
1A
100
AcDbEntity
  8
ZISSEN1
100
AcDbLine
 10
-552.6210088984584
 20
1587.320993269046
 30
0.0
 11
-548.8210088984592
 21
1587.320993269046
 31
0.0
  0
LINE
  5
1A5CF
330
1A
100
AcDbEntity
  8
ZISSEN1
100
AcDbLine
 10
-545.6210088984585
 20
1594.520993269047
 30
0.0
 11
-545.6210088984585
 21
1595.720993269048
 31
0.0
  0
LINE
  5
1A5D3
330
1A
100
AcDbEntity
  8
ZISSEN1
100
AcDbLine
 10
-545.6210088984585
 20
1588.020993269047
 30
0.0
 11
-545.6210088984585
 21
1598.870993269048
 31
0.0
  0
LINE
  5
1A5D4
330
1A
100
AcDbEntity
  8
ZISSEN1
100
AcDbLine
 10
-552.6210088984584
 20
1598.870993269048
 30
0.0
 11
-552.6210088984584
 21
1587.320993269046
 31
0.0
  0
LINE
  5
1A5D5
330
1A
100
AcDbEntity
  8
ZISSEN1
100
AcDbLine
 10
-552.0210088984581
 20
1588.020993269047
 30
0.0
 11
-552.0210088984581
 21
1598.870993269048
 31
0.0
  0
LINE
  5
1A5D7
330
1A
100
AcDbEntity
  8
ZISSEN1
100
AcDbLine
 10
-545.021008898459
 20
1598.870993269048
 30
0.0
 11
-545.021008898459
 21
1610.420993269047
 31
0.0
  0
LINE
  5
1A5D8
330
1A
100
AcDbEntity
  8
ZISSEN1
100
AcDbLine
 10
-545.021008898459
 20
1598.870993269048
 30
0.0
 11
-545.021008898459
 21
1603.220993269048
 31
0.0
  0
LINE
  5
1A5D9
330
1A
100
AcDbEntity
  8
ZISSEN1
100
AcDbLine
 10
-545.021008898459
 20
1598.870993269048
 30
0.0
 11
-545.021008898459
 21
1600.070993269047
 31
0.0
  0
LINE
  5
1A5DA
330
1A
100
AcDbEntity
  8
ZISSEN1
100
AcDbLine
 10
-544.4210088984596
 20
1600.070993269047
 30
0.0
 11
-544.4210088984596
 21
1598.870993269048
 31
0.0
  0
LINE
  5
1A5DB
330
1A
100
AcDbEntity
  8
ZISSEN1
 48
0.5
100
AcDbLine
 10
-543.7210088984597
 20
1610.620993269048
 30
0.0
 11
-543.2210088984597
 21
1610.620993269048
 31
0.0
  0
LINE
  5
1A5DC
330
1A
100
AcDbEntity
  8
ZISSEN1
100
AcDbLine
 10
-545.021008898459
 20
1600.070993269047
 30
0.0
 11
-544.4210088984596
 21
1600.070993269047
 31
0.0
  0
LINE
  5
1A5DD
330
1A
100
AcDbEntity
  8
ZISSEN1
 48
0.5
100
AcDbLine
 10
-543.7210088984597
 20
1587.120993269047
 30
0.0
 11
-543.2210088984597
 21
1587.120993269047
 31
0.0
  0
LINE
  5
1A5DE
330
1A
100
AcDbEntity
  8
ZISSEN1
100
AcDbLine
 10
-544.4210088984596
 20
1597.670993269047
 30
0.0
 11
-544.4210088984596
 21
1598.870993269048
 31
0.0
  0
LINE
  5
1A5DF
330
1A
100
AcDbEntity
  8
ZISSEN1
100
AcDbLine
 10
-545.021008898459
 20
1598.870993269048
 30
0.0
 11
-545.021008898459
 21
1597.670993269047
 31
0.0
  0
LINE
  5
1A5E0
330
1A
100
AcDbEntity
  8
ZISSEN1
100
AcDbLine
 10
-545.021008898459
 20
1598.870993269048
 30
0.0
 11
-545.021008898459
 21
1594.520993269047
 31
0.0
  0
LINE
  5
1A5E1
330
1A
100
AcDbEntity
  8
ZISSEN1
100
AcDbLine
 10
-545.021008898459
 20
1597.670993269047
 30
0.0
 11
-544.4210088984596
 21
1597.670993269047
 31
0.0
  0
LINE
  5
1A5E2
330
1A
100
AcDbEntity
  8
ZISSEN1
100
AcDbLine
 10
-545.021008898459
 20
1598.870993269048
 30
0.0
 11
-545.021008898459
 21
1587.320993269046
 31
0.0
  0
LINE
  5
1A5E3
330
1A
100
AcDbEntity
  8
ZISSEN1
 48
0.5
100
AcDbLine
 10
-552.7210088984588
 20
1568.020993269047
 30
0.0
 11
-552.7210088984588
 21
1567.620993269048
 31
0.0
  0
LINE
  5
1A5E4
330
1A
100
AcDbEntity
  8
ZISSEN1
 48
0.5
100
AcDbLine
 10
-552.7210088984588
 20
1567.620993269048
 30
0.0
 11
-552.7210088984588
 21
1567.220993269048
 31
0.0
  0
LINE
  5
1A5E5
330
1A
100
AcDbEntity
  8
ZISSEN1
 48
0.5
100
AcDbLine
 10
-553.8210088984592
 20
1569.120993269048
 30
0.0
 11
-554.2210088984588
 21
1569.120993269048
 31
0.0
  0
LINE
  5
1A5E6
330
1A
100
AcDbEntity
  8
ZISSEN1
 48
0.5
100
AcDbLine
 10
-554.2210088984588
 20
1569.120993269048
 30
0.0
 11
-554.6210088984594
 21
1569.120993269048
 31
0.0
  0
LINE
  5
1A5E7
330
1A
100
AcDbEntity
  8
ZISSEN1
 48
0.5
100
AcDbLine
 10
-553.8210088984592
 20
1568.020993269047
 30
0.0
 11
-553.8210088984592
 21
1569.120993269048
 31
0.0
  0
LINE
  5
1A5E8
330
1A
100
AcDbEntity
  8
ZISSEN1
 48
0.5
100
AcDbLine
 10
-554.6210088984594
 20
1569.120993269048
 30
0.0
 11
-554.6210088984594
 21
1568.020993269047
 31
0.0
  0
LINE
  5
1A5E9
330
1A
100
AcDbEntity
  8
ZISSEN1
 48
0.5
100
AcDbLine
 10
-554.2210088984588
 20
1566.120993269048
 30
0.0
 11
-554.6210088984594
 21
1566.120993269048
 31
0.0
  0
LINE
  5
1A5EA
330
1A
100
AcDbEntity
  8
ZISSEN1
 48
0.5
100
AcDbLine
 10
-553.8210088984592
 20
1566.120993269048
 30
0.0
 11
-554.2210088984588
 21
1566.120993269048
 31
0.0
  0
LINE
  5
1A5EB
330
1A
100
AcDbEntity
  8
ZISSEN1
 48
0.5
100
AcDbLine
 10
-554.6210088984594
 20
1566.120993269048
 30
0.0
 11
-554.6210088984594
 21
1567.220993269048
 31
0.0
  0
LINE
  5
1A5EC
330
1A
100
AcDbEntity
  8
ZISSEN1
 48
0.5
100
AcDbLine
 10
-553.8210088984592
 20
1567.220993269048
 30
0.0
 11
-553.8210088984592
 21
1566.120993269048
 31
0.0
  0
LINE
  5
1A5ED
330
1A
100
AcDbEntity
  8
ZISSEN1
 48
0.5
100
AcDbLine
 10
-552.7210088984588
 20
1567.220993269048
 30
0.0
 11
-553.8210088984592
 21
1567.220993269048
 31
0.0
  0
LINE
  5
1A5EE
330
1A
100
AcDbEntity
  8
ZISSEN1
 48
0.5
100
AcDbLine
 10
-553.8210088984592
 20
1568.020993269047
 30
0.0
 11
-552.7210088984588
 21
1568.020993269047
 31
0.0
  0
LINE
  5
1A5EF
330
1A
100
AcDbEntity
  8
ZISSEN1
 48
0.5
100
AcDbLine
 10
-543.7210088984597
 20
1565.620993269047
 30
0.0
 11
-544.7210088984597
 21
1564.620993269048
 31
0.0
  0
LINE
  5
1A5F0
330
1A
100
AcDbEntity
  8
ZISSEN1
 48
0.5
100
AcDbLine
 10
-543.2210088984597
 20
1565.120993269047
 30
0.0
 11
-544.2210088984597
 21
1564.120993269048
 31
0.0
  0
LINE
  5
1A5F3
330
1A
100
AcDbEntity
  8
ZISSEN1
 48
0.5
100
AcDbLine
 10
-543.2210768142993
 20
1532.319844600964
 30
0.0
 11
-543.2210768142993
 21
1530.819844600964
 31
0.0
  0
LINE
  5
1A5F4
330
1A
100
AcDbEntity
  8
ZISSEN1
 48
0.5
100
AcDbLine
 10
-552.6210088984587
 20
1532.819844600964
 30
0.0
 11
-552.6210088984587
 21
1531.019844600963
 31
0.0
  0
LINE
  5
1A5F6
330
1A
100
AcDbEntity
  8
ZISSEN1
 48
0.5
100
AcDbLine
 10
-551.9710768142992
 20
1532.819844600964
 30
0.0
 11
-552.6210088984587
 21
1532.819844600964
 31
0.0
  0
LINE
  5
1A5F7
330
1A
100
AcDbEntity
  8
ZISSEN1
 48
0.5
100
AcDbLine
 10
-545.6710768143
 20
1532.819854766954
 30
0.0
 11
-551.9710768142992
 21
1532.819844600964
 31
0.0
  0
LINE
  5
1A5FE
330
1A
100
AcDbEntity
  8
ZISSEN1
 48
0.5
100
AcDbLine
 10
-552.6210088984587
 20
1526.820993269049
 30
0.0
 11
-552.6210088984587
 21
1516.320993269049
 31
0.0
  0
LINE
  5
1A601
330
1A
100
AcDbEntity
  8
ZISSEN1
 48
0.5
100
AcDbLine
 10
-548.0410088984588
 20
1516.320993269049
 30
0.0
 11
-548.0410088984597
 21
1513.12099326905
 31
0.0
  0
LINE
  5
1A602
330
1A
100
AcDbEntity
  8
ZISSEN1
 48
0.5
100
AcDbLine
 10
-548.2410088984595
 20
1512.820993269049
 30
0.0
 11
-548.4410088984593
 21
1512.820993269049
 31
0.0
  0
LINE
  5
1A603
330
1A
100
AcDbEntity
  8
ZISSEN1
 48
0.5
100
AcDbLine
 10
-548.6410088984591
 20
1513.12099326905
 30
0.0
 11
-548.6410088984591
 21
1516.320993269049
 31
0.0
  0
LINE
  5
1A604
330
1A
100
AcDbEntity
  8
ZISSEN1
 48
0.5
100
AcDbLine
 10
-548.4410088984593
 20
1512.820993269049
 30
0.0
 11
-548.6410088984591
 21
1513.12099326905
 31
0.0
  0
LINE
  5
1A605
330
1A
100
AcDbEntity
  8
ZISSEN1
 48
0.5
100
AcDbLine
 10
-548.2410088984595
 20
1512.820993269049
 30
0.0
 11
-548.0410088984597
 21
1513.12099326905
 31
0.0
  0
LINE
  5
1A60A
330
1A
100
AcDbEntity
  8
ZISSEN1
 48
0.5
100
AcDbLine
 10
-543.7210088984609
 20
1514.420993269049
 30
0.0
 11
-543.7210088984609
 21
1516.320993269049
 31
0.0
  0
LINE
  5
1A60B
330
1A
100
AcDbEntity
  8
ZISSEN1
 48
0.5
100
AcDbLine
 10
-544.7210088984609
 20
1516.320993269049
 30
0.0
 11
-544.7210088984609
 21
1514.420993269049
 31
0.0
  0
LINE
  5
1A60C
330
1A
100
AcDbEntity
  8
ZISSEN1
 48
0.5
100
AcDbLine
 10
-544.2210088984609
 20
1514.420993269049
 30
0.0
 11
-544.2210088984609
 21
1511.420993269049
 31
0.0
  0
LINE
  5
1A60D
330
1A
100
AcDbEntity
  8
ZISSEN1
 48
0.5
100
AcDbLine
 10
-543.2210088984609
 20
1514.420993269049
 30
0.0
 11
-543.2210088984609
 21
1511.420993269049
 31
0.0
  0
LINE
  5
1A60E
330
1A
100
AcDbEntity
  8
ZISSEN1
 48
0.5
100
AcDbLine
 10
-489.6210088984594
 20
1564.620993269049
 30
0.0
 11
-489.6210088984594
 21
1633.620993269049
 31
0.0
  0
LINE
  5
1A60F
330
1A
100
AcDbEntity
  8
ZISSEN1
 48
0.5
100
AcDbLine
 10
-487.7210088984589
 20
1564.120993269049
 30
0.0
 11
-487.7210088984589
 21
1634.120993269049
 31
0.0
  0
LINE
  5
1A610
330
1A
100
AcDbEntity
  8
ZISSEN1
 48
0.5
100
AcDbLine
 10
-484.7210088984589
 20
1634.120993269049
 30
0.0
 11
-484.7210088984589
 21
1564.120993269049
 31
0.0
  0
LINE
  5
1A611
330
1A
100
AcDbEntity
  8
ZISSEN1
 48
0.5
100
AcDbLine
 10
-481.2210088984588
 20
1634.120993269049
 30
0.0
 11
-481.2210088984588
 21
1564.120993269049
 31
0.0
  0
LINE
  5
1A612
330
1A
100
AcDbEntity
  8
ZISSEN1
 48
0.5
100
AcDbLine
 10
-488.021008898459
 20
1564.120993269049
 30
0.0
 11
-488.021008898459
 21
1634.120993269049
 31
0.0
  0
LINE
  5
1A613
330
1A
100
AcDbEntity
  8
ZISSEN1
 48
0.5
100
AcDbLine
 10
-509.2210088984589
 20
1633.12099326905
 30
0.0
 11
-509.2210088984589
 21
1565.120993269049
 31
0.0
  0
ARC
  5
1A614
330
1A
100
AcDbEntity
  8
ZISSEN1
 48
0.5
100
AcDbCircle
 10
-496.7210088984606
 20
1630.620993269047
 30
0.0
 40
1.749999999998181
100
AcDbArc
 50
179.9999999998957
 51
0.0000000001042077
  0
LINE
  5
1A615
330
1A
100
AcDbEntity
  8
ZISSEN1
 48
0.5
100
AcDbLine
 10
-497.2210088984597
 20
1620.820993269048
 30
0.0
 11
-489.6210088984594
 21
1620.820993269048
 31
0.0
  0
LINE
  5
1A616
330
1A
100
AcDbEntity
  8
ZISSEN1
 48
0.5
100
AcDbLine
 10
-489.6210088984594
 20
1627.620993269047
 30
0.0
 11
-501.1210088984585
 21
1627.620993269047
 31
0.0
  0
LINE
  5
1A617
330
1A
100
AcDbEntity
  8
ZISSEN1
100
AcDbLine
 10
-496.3210088984592
 20
1627.600993269049
 30
0.0
 11
-490.918994898459
 21
1627.600993269049
 31
0.0
  0
LINE
  5
1A61B
330
1A
100
AcDbEntity
  8
ZISSEN1
100
AcDbLine
 10
-496.3210088984592
 20
1620.240993269048
 30
0.0
 11
-490.918994898459
 21
1620.240993269048
 31
0.0
  0
LINE
  5
1A61E
330
1A
100
AcDbEntity
  8
ZISSEN1
 48
0.5
100
AcDbLine
 10
-508.2210088984588
 20
1634.120993269049
 30
0.0
 11
-498.4710088984589
 21
1634.120993269049
 31
0.0
  0
LINE
  5
1A61F
330
1A
100
AcDbEntity
  8
ZISSEN1
 48
0.5
100
AcDbLine
 10
-509.2210088984589
 20
1633.12099326905
 30
0.0
 11
-508.2210088984588
 21
1634.120993269049
 31
0.0
  0
LINE
  5
1A620
330
1A
100
AcDbEntity
  8
ZISSEN1
 48
0.5
100
AcDbLine
 10
-501.1210088984585
 20
1627.620993269047
 30
0.0
 11
-501.1210088984585
 21
1620.020993269047
 31
0.0
  0
LINE
  5
1A621
330
1A
100
AcDbEntity
  8
ZISSEN1
 48
0.5
100
AcDbLine
 10
-501.1210088984585
 20
1627.620993269047
 30
0.0
 11
-501.1210088984585
 21
1620.820993269048
 31
0.0
  0
LINE
  5
1A623
330
1A
100
AcDbEntity
  8
ZISSEN1
100
AcDbLine
 10
-497.2010088984593
 20
1626.620941269048
 30
0.0
 11
-497.2010088984593
 21
1623.920993269049
 31
0.0
  0
LINE
  5
1A624
330
1A
100
AcDbEntity
  8
ZISSEN1
100
AcDbLine
 10
-497.2210088984597
 20
1627.020993269049
 30
0.0
 11
-497.2210088984597
 21
1620.820993269048
 31
0.0
  0
LINE
  5
1A625
330
1A
100
AcDbEntity
  8
ZISSEN1
 48
0.5
100
AcDbLine
 10
-498.4710088984589
 20
1634.120993269049
 30
0.0
 11
-498.4710088984589
 21
1630.620993269049
 31
0.0
  0
LINE
  5
1A626
330
1A
100
AcDbEntity
  8
ZISSEN1
100
AcDbLine
 10
-496.9210088984596
 20
1626.870993269049
 30
0.0
 11
-496.7210088984598
 21
1627.070993269048
 31
0.0
  0
LINE
  5
1A627
330
1A
100
AcDbEntity
  8
ZISSEN1
100
AcDbLine
 10
-496.9210088984596
 20
1626.870993269049
 30
0.0
 11
-496.9210088984596
 21
1626.627265269048
 31
0.0
  0
LINE
  5
1A628
330
1A
100
AcDbEntity
  8
ZISSEN1
100
AcDbLine
 10
-497.2010088984593
 20
1626.620993269049
 30
0.0
 11
-496.9180208984594
 21
1626.620993269049
 31
0.0
  0
LINE
  5
1A629
330
1A
100
AcDbEntity
  8
ZISSEN1
100
AcDbLine
 10
-496.9710088984597
 20
1627.220993269048
 30
0.0
 11
-496.9710088984597
 21
1626.620993269049
 31
0.0
  0
LINE
  5
1A62A
330
1A
100
AcDbEntity
  8
ZISSEN1
100
AcDbLine
 10
-496.8710088984594
 20
1627.220993269048
 30
0.0
 11
-496.8710088984594
 21
1626.920993269049
 31
0.0
  0
ARC
  5
1A62B
330
1A
100
AcDbEntity
  8
ZISSEN1
100
AcDbCircle
 10
-497.0210088984589
 20
1627.020993269049
 30
0.0
 40
0.2
100
AcDbArc
 50
90.0000161648991
 51
180.0000049782966
  0
LINE
  5
1A62C
330
1A
100
AcDbEntity
  8
ZISSEN1
100
AcDbLine
 10
-496.3210088984592
 20
1627.600993269049
 30
0.0
 11
-496.3210088984592
 21
1627.270993269049
 31
0.0
  0
ARC
  5
1A62D
330
1A
100
AcDbEntity
  8
ZISSEN1
100
AcDbCircle
 10
-496.5210088984589
 20
1627.270993269049
 30
0.0
 40
0.2
100
AcDbArc
 50
269.9999949911147
 51
359.9999975852129
  0
LINE
  5
1A62E
330
1A
100
AcDbEntity
  8
ZISSEN1
100
AcDbLine
 10
-496.7210088984598
 20
1627.070993269048
 30
0.0
 11
-496.521008898459
 21
1627.070993269048
 31
0.0
  0
LINE
  5
1A62F
330
1A
100
AcDbEntity
  8
ZISSEN1
100
AcDbLine
 10
-497.0210088984591
 20
1627.220993269048
 30
0.0
 11
-496.3273608984596
 21
1627.220993269048
 31
0.0
  0
LINE
  5
1A630
330
1A
100
AcDbEntity
  8
ZISSEN1
 48
0.5
100
AcDbLine
 10
-501.1210088984585
 20
1620.820993269048
 30
0.0
 11
-497.2210088984597
 21
1620.820993269048
 31
0.0
  0
LINE
  5
1A633
330
1A
100
AcDbEntity
  8
ZISSEN1
 48
0.5
100
AcDbLine
 10
-500.1210088984585
 20
1620.020993269047
 30
0.0
 11
-500.1210088984585
 21
1620.820993269048
 31
0.0
  0
LINE
  5
1A634
330
1A
100
AcDbEntity
  8
ZISSEN1
 48
0.5
100
AcDbLine
 10
-501.1210088984585
 20
1620.020993269047
 30
0.0
 11
-500.1210088984585
 21
1620.020993269047
 31
0.0
  0
LINE
  5
1A635
330
1A
100
AcDbEntity
  8
ZISSEN1
100
AcDbLine
 10
-496.7210088984598
 20
1620.770991269048
 30
0.0
 11
-496.9210108984594
 21
1620.970993269048
 31
0.0
  0
LINE
  5
1A636
330
1A
100
AcDbEntity
  8
ZISSEN1
100
AcDbLine
 10
-496.9210088984596
 20
1620.970993269048
 30
0.0
 11
-496.9210088984596
 21
1621.214311269049
 31
0.0
  0
LINE
  5
1A637
330
1A
100
AcDbEntity
  8
ZISSEN1
100
AcDbLine
 10
-497.2010088984593
 20
1621.220993269048
 30
0.0
 11
-496.9180208984594
 21
1621.220993269048
 31
0.0
  0
LINE
  5
1A638
330
1A
100
AcDbEntity
  8
ZISSEN1
100
AcDbLine
 10
-496.7210088984598
 20
1620.770993269049
 30
0.0
 11
-496.521008898459
 21
1620.770993269049
 31
0.0
  0
LINE
  5
1A639
330
1A
100
AcDbEntity
  8
ZISSEN1
100
AcDbLine
 10
-497.2010088984593
 20
1621.221045269049
 30
0.0
 11
-497.2010088984593
 21
1623.920993269049
 31
0.0
  0
LINE
  5
1A63A
330
1A
100
AcDbEntity
  8
ZISSEN1
100
AcDbLine
 10
-496.3210088984592
 20
1620.240993269048
 30
0.0
 11
-496.3210088984592
 21
1620.570993269048
 31
0.0
  0
LINE
  5
1A63B
330
1A
100
AcDbEntity
  8
ZISSEN1
100
AcDbLine
 10
-497.0210088984591
 20
1620.620993269049
 30
0.0
 11
-496.3273608984596
 21
1620.620993269049
 31
0.0
  0
LINE
  5
1A63C
330
1A
100
AcDbEntity
  8
ZISSEN1
100
AcDbLine
 10
-496.9710088984597
 20
1621.220993269048
 30
0.0
 11
-496.9710088984597
 21
1620.620993269049
 31
0.0
  0
LINE
  5
1A63D
330
1A
100
AcDbEntity
  8
ZISSEN1
100
AcDbLine
 10
-496.8710088984594
 20
1620.920991269048
 30
0.0
 11
-496.8710088984594
 21
1620.620993269049
 31
0.0
  0
ARC
  5
1A63E
330
1A
100
AcDbEntity
  8
ZISSEN1
100
AcDbCircle
 10
-497.021008898459
 20
1620.820993269048
 30
0.0
 40
0.2
100
AcDbArc
 50
179.9999950217034
 51
269.999983835205
  0
ARC
  5
1A63F
330
1A
100
AcDbEntity
  8
ZISSEN1
100
AcDbCircle
 10
-496.521008898459
 20
1620.570993269048
 30
0.0
 40
0.2
100
AcDbArc
 50
359.9999975852129
 51
90.00000000010423
  0
LINE
  5
1A640
330
1A
100
AcDbEntity
  8
ZISSEN1
 48
0.5
100
AcDbLine
 10
-484.7210088984589
 20
1633.12099326905
 30
0.0
 11
-487.7210088984589
 21
1633.12099326905
 31
0.0
  0
LINE
  5
1A641
330
1A
100
AcDbEntity
  8
ZISSEN1
 48
0.5
100
AcDbLine
 10
-488.021008898459
 20
1634.120993269049
 30
0.0
 11
-481.2210088984588
 21
1634.120993269049
 31
0.0
  0
LINE
  5
1A644
330
1A
100
AcDbEntity
  8
ZISSEN1
100
AcDbLine
 10
-489.6210088984594
 20
1625.620993269049
 30
0.0
 11
-489.6210088984594
 21
1626.620993269049
 31
0.0
  0
LINE
  5
1A645
330
1A
100
AcDbEntity
  8
ZISSEN1
100
AcDbLine
 10
-489.8010088984597
 20
1625.620993269049
 30
0.0
 11
-489.8010088984597
 21
1626.620993269049
 31
0.0
  0
LINE
  5
1A648
330
1A
100
AcDbEntity
  8
ZISSEN1
 48
0.5
100
AcDbLine
 10
-487.7210088984589
 20
1632.620993269049
 30
0.0
 11
-489.6210088984594
 21
1632.620993269049
 31
0.0
  0
LINE
  5
1A649
330
1A
100
AcDbEntity
  8
ZISSEN1
 48
0.5
100
AcDbLine
 10
-487.7210088984589
 20
1633.620993269049
 30
0.0
 11
-489.6210088984594
 21
1633.620993269049
 31
0.0
  0
LINE
  5
1A64A
330
1A
100
AcDbEntity
  8
ZISSEN1
 48
0.5
100
AcDbLine
 10
-490.021008898459
 20
1634.120993269049
 30
0.0
 11
-490.0210088984581
 21
1633.258063657586
 31
0.0
  0
LINE
  5
1A64B
330
1A
100
AcDbEntity
  8
ZISSEN1
 48
0.5
100
AcDbLine
 10
-494.9710088984589
 20
1634.120993269049
 30
0.0
 11
-490.021008898459
 21
1634.120993269049
 31
0.0
  0
LINE
  5
1A64C
330
1A
100
AcDbEntity
  8
ZISSEN1
 48
0.5
100
AcDbLine
 10
-494.9710088984589
 20
1630.620993269049
 30
0.0
 11
-494.9710088984589
 21
1634.120993269049
 31
0.0
  0
LINE
  5
1A64D
330
1A
100
AcDbEntity
  8
ZISSEN1
100
AcDbLine
 10
-495.1210088984594
 20
1627.620993269049
 30
0.0
 11
-495.1210088984594
 21
1627.600993269049
 31
0.0
  0
LINE
  5
1A64E
330
1A
100
AcDbEntity
  8
ZISSEN1
100
AcDbLine
 10
-492.1210088984594
 20
1627.620993269049
 30
0.0
 11
-492.1210088984594
 21
1627.600993269049
 31
0.0
  0
LINE
  5
1A64F
330
1A
100
AcDbEntity
  8
ZISSEN1
100
AcDbLine
 10
-495.1210088984594
 20
1627.620993269049
 30
0.0
 11
-492.1210088984594
 21
1627.620993269049
 31
0.0
  0
LINE
  5
1A650
330
1A
100
AcDbEntity
  8
ZISSEN1
100
AcDbLine
 10
-490.3210088984592
 20
1626.870991269049
 30
0.0
 11
-490.521008898459
 21
1627.070991269049
 31
0.0
  0
LINE
  5
1A651
330
1A
100
AcDbEntity
  8
ZISSEN1
100
AcDbLine
 10
-490.3210088984592
 20
1626.870993269049
 30
0.0
 11
-490.3210088984592
 21
1626.620533269048
 31
0.0
  0
LINE
  5
1A652
330
1A
100
AcDbEntity
  8
ZISSEN1
100
AcDbLine
 10
-490.3184568984593
 20
1626.620993269049
 30
0.0
 11
-490.118468898459
 21
1626.620993269049
 31
0.0
  0
LINE
  5
1A653
330
1A
100
AcDbEntity
  8
ZISSEN1
100
AcDbLine
 10
-490.521008898459
 20
1627.070993269048
 30
0.0
 11
-490.7210088984597
 21
1627.070993269048
 31
0.0
  0
LINE
  5
1A654
330
1A
100
AcDbEntity
  8
ZISSEN1
100
AcDbLine
 10
-490.9210088984596
 20
1627.600993269049
 30
0.0
 11
-490.9210088984596
 21
1627.270993269049
 31
0.0
  0
LINE
  5
1A655
330
1A
100
AcDbEntity
  8
ZISSEN1
100
AcDbLine
 10
-490.021008898459
 20
1626.810993269048
 30
0.0
 11
-490.021008898459
 21
1626.620993269049
 31
0.0
  0
LINE
  5
1A656
330
1A
100
AcDbEntity
  8
ZISSEN1
100
AcDbLine
 10
-490.271008898459
 20
1627.220993269048
 30
0.0
 11
-490.271008898459
 21
1626.620993269049
 31
0.0
  0
LINE
  5
1A657
330
1A
100
AcDbEntity
  8
ZISSEN1
100
AcDbLine
 10
-490.3710088984594
 20
1627.220993269048
 30
0.0
 11
-490.3710088984594
 21
1626.920991269048
 31
0.0
  0
ARC
  5
1A658
330
1A
100
AcDbEntity
  8
ZISSEN1
100
AcDbCircle
 10
-490.7210088984596
 20
1627.270993269049
 30
0.0
 40
0.2
100
AcDbArc
 50
180.000002414787
 51
270.0000050086768
  0
LINE
  5
1A659
330
1A
100
AcDbEntity
  8
ZISSEN1
100
AcDbLine
 10
-489.6210088984594
 20
1626.710993269048
 30
0.0
 11
-489.6210088984594
 21
1626.620993269049
 31
0.0
  0
LINE
  5
1A65A
330
1A
100
AcDbEntity
  8
ZISSEN1
100
AcDbLine
 10
-489.6210088984594
 20
1626.810993269048
 30
0.0
 11
-489.8210088984592
 21
1626.810993269048
 31
0.0
  0
LINE
  5
1A65B
330
1A
100
AcDbEntity
  8
ZISSEN1
100
AcDbLine
 10
-489.6210088984594
 20
1627.220993269048
 30
0.0
 11
-489.6210088984594
 21
1626.810993269048
 31
0.0
  0
LINE
  5
1A65C
330
1A
100
AcDbEntity
  8
ZISSEN1
100
AcDbLine
 10
-489.6210088984594
 20
1627.220993269048
 30
0.0
 11
-489.6210088984594
 21
1626.810993269048
 31
0.0
  0
LINE
  5
1A65D
330
1A
100
AcDbEntity
  8
ZISSEN1
100
AcDbLine
 10
-489.771008898459
 20
1626.810993269048
 30
0.0
 11
-489.771008898459
 21
1626.710993269048
 31
0.0
  0
LINE
  5
1A65E
330
1A
100
AcDbEntity
  8
ZISSEN1
100
AcDbLine
 10
-490.3184568984593
 20
1626.620993269049
 30
0.0
 11
-489.6210088984594
 21
1626.620993269049
 31
0.0
  0
LINE
  5
1A65F
330
1A
100
AcDbEntity
  8
ZISSEN1
100
AcDbLine
 10
-490.914658898459
 20
1627.220993269048
 30
0.0
 11
-489.6210088984594
 21
1627.220993269048
 31
0.0
  0
LINE
  5
1A660
330
1A
100
AcDbEntity
  8
ZISSEN1
100
AcDbLine
 10
-489.6210088984594
 20
1626.710993269048
 30
0.0
 11
-490.021008898459
 21
1626.710993269048
 31
0.0
  0
LINE
  5
1A661
330
1A
100
AcDbEntity
  8
ZISSEN1
100
AcDbLine
 10
-489.6210088984594
 20
1626.810993269048
 30
0.0
 11
-490.021008898459
 21
1626.810993269048
 31
0.0
  0
ARC
  5
1A662
330
1A
100
AcDbEntity
  8
ZISSEN1
100
AcDbCircle
 10
-486.9292100689949
 20
1630.620993269047
 30
0.0
 40
4.06366340092025
100
AcDbArc
 50
137.4114170199115
 51
222.5885829800883
  0
LINE
  5
1A663
330
1A
100
AcDbEntity
  8
ZISSEN1
100
AcDbLine
 10
-489.6210088984584
 20
1627.870993269048
 30
0.0
 11
-489.9210088984586
 21
1627.870993269048
 31
0.0
  0
LINE
  5
1A664
330
1A
100
AcDbEntity
  8
ZISSEN1
100
AcDbLine
 10
-489.9210088984586
 20
1633.370993269047
 30
0.0
 11
-489.6210088984584
 21
1633.370993269047
 31
0.0
  0
LINE
  5
1A665
330
1A
100
AcDbEntity
  8
ZISSEN1
 48
0.5
100
AcDbLine
 10
-489.6210088984594
 20
1633.370993269047
 30
0.0
 11
-489.6210088984594
 21
1627.870993269048
 31
0.0
  0
LINE
  5
1A666
330
1A
100
AcDbEntity
  8
ZISSEN1
100
AcDbLine
 10
-490.3184568984593
 20
1621.220993269048
 30
0.0
 11
-490.118468898459
 21
1621.220993269048
 31
0.0
  0
LINE
  5
1A667
330
1A
100
AcDbEntity
  8
ZISSEN1
100
AcDbLine
 10
-490.3184568984593
 20
1621.220993269048
 30
0.0
 11
-489.6210088984594
 21
1621.220993269048
 31
0.0
  0
ARC
  5
1A668
330
1A
100
AcDbEntity
  8
ZISSEN1
100
AcDbCircle
 10
-490.1710088984595
 20
1625.470993269048
 30
0.0
 40
0.15
100
AcDbArc
 50
90.00000000010423
 51
180.0000025613209
  0
LINE
  5
1A669
330
1A
100
AcDbEntity
  8
ZISSEN1
100
AcDbLine
 10
-489.771008898459
 20
1625.540991269049
 30
0.0
 11
-489.771008898459
 21
1625.440991269048
 31
0.0
  0
LINE
  5
1A66A
330
1A
100
AcDbEntity
  8
ZISSEN1
100
AcDbLine
 10
-489.6210088984594
 20
1626.110993269049
 30
0.0
 11
-489.6210088984594
 21
1625.540991269049
 31
0.0
  0
LINE
  5
1A66B
330
1A
100
AcDbEntity
  8
ZISSEN1
100
AcDbLine
 10
-489.6210088984594
 20
1625.620993269049
 30
0.0
 11
-489.6210088984594
 21
1625.540991269049
 31
0.0
  0
LINE
  5
1A66C
330
1A
100
AcDbEntity
  8
ZISSEN1
100
AcDbLine
 10
-489.6210088984594
 20
1625.540991269049
 30
0.0
 11
-489.8210088984592
 21
1625.540991269049
 31
0.0
  0
LINE
  5
1A66D
330
1A
100
AcDbEntity
  8
ZISSEN1
100
AcDbLine
 10
-490.1710088984596
 20
1625.620993269049
 30
0.0
 11
-489.6210088984594
 21
1625.620993269049
 31
0.0
  0
LINE
  5
1A66E
330
1A
100
AcDbEntity
  8
ZISSEN1
100
AcDbLine
 10
-489.6210088984594
 20
1625.440991269048
 30
0.0
 11
-490.021008898459
 21
1625.440991269048
 31
0.0
  0
LINE
  5
1A66F
330
1A
100
AcDbEntity
  8
ZISSEN1
100
AcDbLine
 10
-489.6210088984594
 20
1625.540991269049
 30
0.0
 11
-490.021008898459
 21
1625.540991269049
 31
0.0
  0
LINE
  5
1A670
330
1A
100
AcDbEntity
  8
ZISSEN1
100
AcDbLine
 10
-492.7197806446679
 20
1623.222312219421
 30
0.0
 11
-492.4907775211727
 21
1623.775174665989
 31
0.0
  0
LINE
  5
1A671
330
1A
100
AcDbEntity
  8
ZISSEN1
100
AcDbLine
 10
-492.7183860497138
 20
1623.222396983303
 30
0.0
 11
-493.3200681385392
 21
1623.471621864732
 31
0.0
  0
LINE
  5
1A672
330
1A
100
AcDbEntity
  8
ZISSEN1
100
AcDbLine
 10
-492.4887759902953
 20
1623.77672470281
 30
0.0
 11
-493.0904580791207
 21
1624.025949584239
 31
0.0
  0
LINE
  5
1A673
330
1A
100
AcDbEntity
  8
ZISSEN1
100
AcDbLine
 10
-493.9219496583805
 20
1624.370364673367
 30
0.0
 11
-493.7259652136486
 21
1624.451544088388
 31
0.0
  0
LINE
  5
1A674
330
1A
100
AcDbEntity
  8
ZISSEN1
100
AcDbLine
 10
-493.5156352988137
 20
1624.959738295253
 30
0.0
 11
-493.7944288820631
 21
1625.075218378537
 31
0.0
  0
LINE
  5
1A675
330
1A
100
AcDbEntity
  8
ZISSEN1
100
AcDbLine
 10
-493.0904580791207
 20
1624.025949584239
 30
0.0
 11
-493.171637494142
 21
1624.221934028969
 31
0.0
  0
LINE
  5
1A676
330
1A
100
AcDbEntity
  8
ZISSEN1
100
AcDbLine
 10
-492.6887039889274
 20
1624.617212131545
 30
0.0
 11
-492.962772852246
 21
1624.730735171758
 31
0.0
  0
LINE
  5
1A677
330
1A
100
AcDbEntity
  8
ZISSEN1
100
AcDbLine
 10
-493.8796018440175
 20
1622.512756893824
 30
0.0
 11
-494.433929563524
 21
1622.742366953244
 31
0.0
  0
LINE
  5
1A678
330
1A
100
AcDbEntity
  8
ZISSEN1
100
AcDbLine
 10
-493.8796010786504
 20
1622.512758741583
 30
0.0
 11
-493.5160525832702
 21
1623.390442449709
 31
0.0
  0
LINE
  5
1A679
330
1A
100
AcDbEntity
  8
ZISSEN1
100
AcDbLine
 10
-494.4339287981579
 20
1622.742368801002
 30
0.0
 11
-494.0703803027777
 21
1623.620052509128
 31
0.0
  0
LINE
  5
1A67A
330
1A
100
AcDbEntity
  8
ZISSEN1
100
AcDbLine
 10
-494.0703803027777
 20
1623.620052509128
 30
0.0
 11
-494.151559717799
 21
1623.816036953861
 31
0.0
  0
LINE
  5
1A67B
330
1A
100
AcDbEntity
  8
ZISSEN1
100
AcDbLine
 10
-493.3200681385392
 20
1623.471621864732
 30
0.0
 11
-493.5160525832702
 21
1623.390442449709
 31
0.0
  0
LINE
  5
1A67C
330
1A
100
AcDbEntity
  8
ZISSEN1
100
AcDbLine
 10
-494.7523156161928
 20
1624.064215770623
 30
0.0
 11
-494.5233124926976
 21
1624.617078217192
 31
0.0
  0
LINE
  5
1A67D
330
1A
100
AcDbEntity
  8
ZISSEN1
100
AcDbLine
 10
-494.151559717799
 20
1623.816036953861
 30
0.0
 11
-494.7549990254952
 21
1624.065989699177
 31
0.0
  0
LINE
  5
1A67E
330
1A
100
AcDbEntity
  8
ZISSEN1
100
AcDbLine
 10
-493.9219496583805
 20
1624.370364673367
 30
0.0
 11
-494.5206642461475
 21
1624.618360375611
 31
0.0
  0
LINE
  5
1A67F
330
1A
100
AcDbEntity
  8
ZISSEN1
100
AcDbLine
 10
-493.171637494142
 20
1624.221934028969
 30
0.0
 11
-492.8462517213715
 21
1625.007484774597
 31
0.0
  0
LINE
  5
1A680
330
1A
100
AcDbEntity
  8
ZISSEN1
100
AcDbLine
 10
-493.7259652136486
 20
1624.451544088388
 30
0.0
 11
-493.4005794408781
 21
1625.237094834016
 31
0.0
  0
LINE
  5
1A681
330
1A
100
AcDbEntity
  8
ZISSEN1
100
AcDbLine
 10
-493.0087183368272
 20
1625.399203899561
 30
0.0
 11
-493.791542924107
 21
1625.07494733855
 31
0.0
  0
LINE
  5
1A682
330
1A
100
AcDbEntity
  8
ZISSEN1
100
AcDbLine
 10
-492.6835886023368
 20
1624.614274980539
 30
0.0
 11
-493.0087164890678
 21
1625.399203134193
 31
0.0
  0
LINE
  5
1A684
330
1A
100
AcDbEntity
  8
ZISSEN1
100
AcDbLine
 10
-495.1210088984594
 20
1620.220993269048
 30
0.0
 11
-495.1210088984594
 21
1620.240993269048
 31
0.0
  0
LINE
  5
1A685
330
1A
100
AcDbEntity
  8
ZISSEN1
100
AcDbLine
 10
-492.1210088984594
 20
1620.240993269048
 30
0.0
 11
-492.1210088984594
 21
1620.220993269048
 31
0.0
  0
LINE
  5
1A686
330
1A
100
AcDbEntity
  8
ZISSEN1
100
AcDbLine
 10
-495.1210088984594
 20
1620.220993269048
 30
0.0
 11
-492.1210088984594
 21
1620.220993269048
 31
0.0
  0
LINE
  5
1A689
330
1A
100
AcDbEntity
  8
ZISSEN1
100
AcDbLine
 10
-490.1710088984596
 20
1625.320993269048
 30
0.0
 11
-490.0410088984594
 21
1625.320993269048
 31
0.0
  0
LINE
  5
1A68A
330
1A
100
AcDbEntity
  8
ZISSEN1
100
AcDbLine
 10
-490.0410088984594
 20
1625.320993269048
 30
0.0
 11
-490.0410088984594
 21
1623.920993269049
 31
0.0
  0
LINE
  5
1A68B
330
1A
100
AcDbEntity
  8
ZISSEN1
100
AcDbLine
 10
-490.021008898459
 20
1624.270993269049
 30
0.0
 11
-490.021008898459
 21
1623.570993269048
 31
0.0
  0
LINE
  5
1A68C
330
1A
100
AcDbEntity
  8
ZISSEN1
100
AcDbLine
 10
-489.6210088984594
 20
1624.840993269049
 30
0.0
 11
-489.6210088984594
 21
1624.270993269049
 31
0.0
  0
LINE
  5
1A68D
330
1A
100
AcDbEntity
  8
ZISSEN1
100
AcDbLine
 10
-489.6210088984594
 20
1624.840993269049
 30
0.0
 11
-489.6210088984594
 21
1624.270993269049
 31
0.0
  0
LINE
  5
1A68E
330
1A
100
AcDbEntity
  8
ZISSEN1
100
AcDbLine
 10
-489.6210088984594
 20
1624.270993269049
 30
0.0
 11
-489.8210088984592
 21
1624.270993269049
 31
0.0
  0
LINE
  5
1A68F
330
1A
100
AcDbEntity
  8
ZISSEN1
100
AcDbLine
 10
-489.6210088984594
 20
1624.840993269049
 30
0.0
 11
-489.8210088984592
 21
1624.840993269049
 31
0.0
  0
LINE
  5
1A690
330
1A
100
AcDbEntity
  8
ZISSEN1
100
AcDbLine
 10
-489.771008898459
 20
1624.940993269049
 30
0.0
 11
-489.771008898459
 21
1624.840993269049
 31
0.0
  0
LINE
  5
1A691
330
1A
100
AcDbEntity
  8
ZISSEN1
100
AcDbLine
 10
-489.6210088984594
 20
1623.670993269049
 30
0.0
 11
-489.6210088984594
 21
1624.170993269049
 31
0.0
  0
LINE
  5
1A692
330
1A
100
AcDbEntity
  8
ZISSEN1
100
AcDbLine
 10
-489.6210088984594
 20
1623.570993269048
 30
0.0
 11
-489.8210088984592
 21
1623.570993269048
 31
0.0
  0
LINE
  5
1A693
330
1A
100
AcDbEntity
  8
ZISSEN1
100
AcDbLine
 10
-489.771008898459
 20
1623.670993269049
 30
0.0
 11
-489.771008898459
 21
1623.570993269048
 31
0.0
  0
LINE
  5
1A694
330
1A
100
AcDbEntity
  8
ZISSEN1
100
AcDbLine
 10
-489.771008898459
 20
1624.270993269049
 30
0.0
 11
-489.771008898459
 21
1624.170993269049
 31
0.0
  0
LINE
  5
1A695
330
1A
100
AcDbEntity
  8
ZISSEN1
100
AcDbLine
 10
-489.6210088984594
 20
1624.940993269049
 30
0.0
 11
-490.021008898459
 21
1624.940993269049
 31
0.0
  0
LINE
  5
1A696
330
1A
100
AcDbEntity
  8
ZISSEN1
100
AcDbLine
 10
-489.6210088984594
 20
1624.170993269049
 30
0.0
 11
-490.021008898459
 21
1624.170993269049
 31
0.0
  0
LINE
  5
1A697
330
1A
100
AcDbEntity
  8
ZISSEN1
100
AcDbLine
 10
-489.6210088984594
 20
1623.670993269049
 30
0.0
 11
-490.021008898459
 21
1623.670993269049
 31
0.0
  0
LINE
  5
1A698
330
1A
100
AcDbEntity
  8
ZISSEN1
100
AcDbLine
 10
-489.6210088984594
 20
1624.270993269049
 30
0.0
 11
-490.021008898459
 21
1624.270993269049
 31
0.0
  0
LINE
  5
1A699
330
1A
100
AcDbEntity
  8
ZISSEN1
100
AcDbLine
 10
-489.6210088984594
 20
1624.840993269049
 30
0.0
 11
-490.021008898459
 21
1624.840993269049
 31
0.0
  0
LINE
  5
1A69A
330
1A
100
AcDbEntity
  8
ZISSEN1
100
AcDbLine
 10
-489.6210088984594
 20
1623.570993269048
 30
0.0
 11
-490.021008898459
 21
1623.570993269048
 31
0.0
  0
LINE
  5
1A69B
330
1A
100
AcDbEntity
  8
ZISSEN1
100
AcDbLine
 10
-490.3210088984592
 20
1622.370993269049
 30
0.0
 11
-490.3210088984592
 21
1622.370993269049
 31
0.0
  0
LINE
  5
1A69C
330
1A
100
AcDbEntity
  8
ZISSEN1
100
AcDbLine
 10
-490.1710088984596
 20
1622.520993269049
 30
0.0
 11
-490.0410088984594
 21
1622.520993269049
 31
0.0
  0
LINE
  5
1A69D
330
1A
100
AcDbEntity
  8
ZISSEN1
100
AcDbLine
 10
-490.021008898459
 20
1623.000993269049
 30
0.0
 11
-490.021008898459
 21
1622.300993269048
 31
0.0
  0
LINE
  5
1A69E
330
1A
100
AcDbEntity
  8
ZISSEN1
100
AcDbLine
 10
-490.271008898459
 20
1622.482795269049
 30
0.0
 11
-490.271008898459
 21
1622.259189269049
 31
0.0
  0
ARC
  5
1A69F
330
1A
100
AcDbEntity
  8
ZISSEN1
100
AcDbCircle
 10
-490.1710088984595
 20
1622.370993269049
 30
0.0
 40
0.15
100
AcDbArc
 50
89.99999999968732
 51
180.0000025613209
  0
ARC
  5
1A6A0
330
1A
100
AcDbEntity
  8
ZISSEN1
100
AcDbCircle
 10
-490.1710088984595
 20
1622.370993269049
 30
0.0
 40
0.15
100
AcDbArc
 50
180.0000025613209
 51
270.0000050089895
  0
LINE
  5
1A6A1
330
1A
100
AcDbEntity
  8
ZISSEN1
100
AcDbLine
 10
-490.521008898459
 20
1620.770993269049
 30
0.0
 11
-490.3210088984592
 21
1620.970993269048
 31
0.0
  0
LINE
  5
1A6A2
330
1A
100
AcDbEntity
  8
ZISSEN1
100
AcDbLine
 10
-490.3210088984592
 20
1620.970993269048
 30
0.0
 11
-490.3210088984592
 21
1621.214311269049
 31
0.0
  0
LINE
  5
1A6A3
330
1A
100
AcDbEntity
  8
ZISSEN1
100
AcDbLine
 10
-490.521008898459
 20
1620.770993269049
 30
0.0
 11
-490.7210088984597
 21
1620.770993269049
 31
0.0
  0
LINE
  5
1A6A4
330
1A
100
AcDbEntity
  8
ZISSEN1
100
AcDbLine
 10
-490.021008898459
 20
1621.220993269048
 30
0.0
 11
-490.021008898459
 21
1621.030991269048
 31
0.0
  0
LINE
  5
1A6A5
330
1A
100
AcDbEntity
  8
ZISSEN1
100
AcDbLine
 10
-489.771008898459
 20
1622.400993269048
 30
0.0
 11
-489.771008898459
 21
1622.300993269048
 31
0.0
  0
LINE
  5
1A6A6
330
1A
100
AcDbEntity
  8
ZISSEN1
100
AcDbLine
 10
-489.6210088984594
 20
1622.400993269048
 30
0.0
 11
-489.6210088984594
 21
1622.900993269048
 31
0.0
  0
LINE
  5
1A6A7
330
1A
100
AcDbEntity
  8
ZISSEN1
100
AcDbLine
 10
-489.6210088984594
 20
1622.220993269048
 30
0.0
 11
-489.6210088984594
 21
1622.300993269048
 31
0.0
  0
LINE
  5
1A6A8
330
1A
100
AcDbEntity
  8
ZISSEN1
100
AcDbLine
 10
-489.6210088984594
 20
1623.000993269049
 30
0.0
 11
-489.8210088984592
 21
1623.000993269049
 31
0.0
  0
LINE
  5
1A6A9
330
1A
100
AcDbEntity
  8
ZISSEN1
100
AcDbLine
 10
-489.6210088984594
 20
1622.300993269048
 30
0.0
 11
-489.8210088984592
 21
1622.300993269048
 31
0.0
  0
LINE
  5
1A6AA
330
1A
100
AcDbEntity
  8
ZISSEN1
100
AcDbLine
 10
-489.771008898459
 20
1623.000993269049
 30
0.0
 11
-489.771008898459
 21
1622.900993269048
 31
0.0
  0
LINE
  5
1A6AB
330
1A
100
AcDbEntity
  8
ZISSEN1
100
AcDbLine
 10
-489.6210088984594
 20
1621.130995269048
 30
0.0
 11
-489.6210088984594
 21
1621.220993269048
 31
0.0
  0
LINE
  5
1A6AC
330
1A
100
AcDbEntity
  8
ZISSEN1
100
AcDbLine
 10
-489.6210088984594
 20
1621.030991269048
 30
0.0
 11
-489.8210088984592
 21
1621.030991269048
 31
0.0
  0
LINE
  5
1A6AD
330
1A
100
AcDbEntity
  8
ZISSEN1
100
AcDbLine
 10
-489.771008898459
 20
1621.130995269048
 30
0.0
 11
-489.771008898459
 21
1621.030991269048
 31
0.0
  0
LINE
  5
1A6AE
330
1A
100
AcDbEntity
  8
ZISSEN1
100
AcDbLine
 10
-489.6210088984594
 20
1621.220993269048
 30
0.0
 11
-489.6210088984594
 21
1622.220993269048
 31
0.0
  0
LINE
  5
1A6AF
330
1A
100
AcDbEntity
  8
ZISSEN1
100
AcDbLine
 10
-489.8010088984597
 20
1621.220993269048
 30
0.0
 11
-489.8010088984597
 21
1622.220993269048
 31
0.0
  0
LINE
  5
1A6B0
330
1A
100
AcDbEntity
  8
ZISSEN1
100
AcDbLine
 10
-489.6210088984594
 20
1621.730991269049
 30
0.0
 11
-489.6210088984594
 21
1622.300993269048
 31
0.0
  0
LINE
  5
1A6B1
330
1A
100
AcDbEntity
  8
ZISSEN1
100
AcDbLine
 10
-490.1710088984596
 20
1622.220993269048
 30
0.0
 11
-489.6210088984594
 21
1622.220993269048
 31
0.0
  0
LINE
  5
1A6B2
330
1A
100
AcDbEntity
  8
ZISSEN1
100
AcDbLine
 10
-489.6210088984594
 20
1622.900993269048
 30
0.0
 11
-490.021008898459
 21
1622.900993269048
 31
0.0
  0
LINE
  5
1A6B3
330
1A
100
AcDbEntity
  8
ZISSEN1
100
AcDbLine
 10
-489.6210088984594
 20
1622.400993269048
 30
0.0
 11
-490.021008898459
 21
1622.400993269048
 31
0.0
  0
LINE
  5
1A6B4
330
1A
100
AcDbEntity
  8
ZISSEN1
100
AcDbLine
 10
-489.6210088984594
 20
1621.130995269048
 30
0.0
 11
-490.021008898459
 21
1621.130995269048
 31
0.0
  0
LINE
  5
1A6B5
330
1A
100
AcDbEntity
  8
ZISSEN1
100
AcDbLine
 10
-489.6210088984594
 20
1621.030991269048
 30
0.0
 11
-490.021008898459
 21
1621.030991269048
 31
0.0
  0
LINE
  5
1A6B6
330
1A
100
AcDbEntity
  8
ZISSEN1
100
AcDbLine
 10
-489.6210088984594
 20
1623.000993269049
 30
0.0
 11
-490.021008898459
 21
1623.000993269049
 31
0.0
  0
LINE
  5
1A6B7
330
1A
100
AcDbEntity
  8
ZISSEN1
100
AcDbLine
 10
-489.6210088984594
 20
1622.300993269048
 30
0.0
 11
-490.021008898459
 21
1622.300993269048
 31
0.0
  0
LINE
  5
1A6B8
330
1A
100
AcDbEntity
  8
ZISSEN1
100
AcDbLine
 10
-490.0410088984594
 20
1622.520993269049
 30
0.0
 11
-490.0410088984594
 21
1623.920993269049
 31
0.0
  0
LINE
  5
1A6B9
330
1A
100
AcDbEntity
  8
ZISSEN1
100
AcDbLine
 10
-489.6210088984594
 20
1623.000993269049
 30
0.0
 11
-489.6210088984594
 21
1623.570993269048
 31
0.0
  0
LINE
  5
1A6BA
330
1A
100
AcDbEntity
  8
ZISSEN1
100
AcDbLine
 10
-489.6210088984594
 20
1623.000993269049
 30
0.0
 11
-489.6210088984594
 21
1623.570993269048
 31
0.0
  0
LINE
  5
1A6BB
330
1A
100
AcDbEntity
  8
ZISSEN1
100
AcDbLine
 10
-490.9210088984596
 20
1620.240993269048
 30
0.0
 11
-490.9210088984596
 21
1620.570993269048
 31
0.0
  0
LINE
  5
1A6BC
330
1A
100
AcDbEntity
  8
ZISSEN1
100
AcDbLine
 10
-490.914658898459
 20
1620.620993269049
 30
0.0
 11
-489.6210088984594
 21
1620.620993269049
 31
0.0
  0
LINE
  5
1A6BD
330
1A
100
AcDbEntity
  8
ZISSEN1
100
AcDbLine
 10
-490.3710088984594
 20
1620.920991269048
 30
0.0
 11
-490.3710088984594
 21
1620.620993269049
 31
0.0
  0
LINE
  5
1A6BE
330
1A
100
AcDbEntity
  8
ZISSEN1
100
AcDbLine
 10
-490.271008898459
 20
1621.220993269048
 30
0.0
 11
-490.271008898459
 21
1620.620993269049
 31
0.0
  0
LINE
  5
1A6BF
330
1A
100
AcDbEntity
  8
ZISSEN1
100
AcDbLine
 10
-489.6210088984594
 20
1620.620993269049
 30
0.0
 11
-489.6210088984594
 21
1621.030991269048
 31
0.0
  0
LINE
  5
1A6C0
330
1A
100
AcDbEntity
  8
ZISSEN1
100
AcDbLine
 10
-489.6210088984594
 20
1620.620991269048
 30
0.0
 11
-489.6210088984594
 21
1621.030991269048
 31
0.0
  0
ARC
  5
1A6C1
330
1A
100
AcDbEntity
  8
ZISSEN1
100
AcDbCircle
 10
-490.7210088984597
 20
1620.570993269048
 30
0.0
 40
0.2
100
AcDbArc
 50
90.00000000010423
 51
180.000002414787
  0
LINE
  5
1A6C5
330
1A
100
AcDbEntity
  8
ZISSEN1
100
AcDbLine
 10
-489.6210088984594
 20
1624.940993269049
 30
0.0
 11
-489.6210088984594
 21
1625.440991269048
 31
0.0
  0
LINE
  5
1A6C6
330
1A
100
AcDbEntity
  8
ZISSEN1
100
AcDbLine
 10
-490.271008898459
 20
1625.582795269049
 30
0.0
 11
-490.271008898459
 21
1625.359189269047
 31
0.0
  0
LINE
  5
1A6C7
330
1A
100
AcDbEntity
  8
ZISSEN1
100
AcDbLine
 10
-490.021008898459
 20
1625.540991269049
 30
0.0
 11
-490.021008898459
 21
1624.840993269049
 31
0.0
  0
CIRCLE
  5
1A6C8
330
1A
100
AcDbEntity
  8
ZISSEN1
100
AcDbCircle
 10
-493.6210088984593
 20
1623.920993269049
 30
0.0
 40
1.75
  0
ARC
  5
1A6C9
330
1A
100
AcDbEntity
  8
ZISSEN1
100
AcDbCircle
 10
-490.1710088984595
 20
1625.470993269048
 30
0.0
 40
0.15
100
AcDbArc
 50
180.0000025613209
 51
270.0000050088852
  0
CIRCLE
  5
1A6CA
330
1A
100
AcDbEntity
  8
ZISSEN1
100
AcDbCircle
 10
-493.6210088984593
 20
1623.920993269049
 30
0.0
 40
1.7
  0
ARC
  5
1A6CC
330
1A
100
AcDbEntity
  8
ZISSEN1
 48
0.5
100
AcDbCircle
 10
-496.721008898457
 20
1567.620993269049
 30
0.0
 40
1.749999999998181
100
AcDbArc
 50
359.9999999998958
 51
47.00629030342783
  0
LINE
  5
1A6D2
330
1A
100
AcDbEntity
  8
ZISSEN1
 48
0.5
100
AcDbLine
 10
-500.1210088984594
 20
1578.300993269048
 30
0.0
 11
-489.6210088984594
 21
1578.300993269048
 31
0.0
  0
LINE
  5
1A6D4
330
1A
100
AcDbEntity
  8
ZISSEN1
 48
0.5
100
AcDbLine
 10
-489.6210088984594
 20
1587.320993269048
 30
0.0
 11
-500.1210088984594
 21
1587.320993269048
 31
0.0
  0
LINE
  5
1A6D5
330
1A
100
AcDbEntity
  8
ZISSEN1
 48
0.5
100
AcDbLine
 10
-500.1210088984594
 20
1610.420993269049
 30
0.0
 11
-489.6210088984594
 21
1610.420993269049
 31
0.0
  0
LINE
  5
1A6D7
330
1A
100
AcDbEntity
  8
ZISSEN1
 48
0.5
100
AcDbLine
 10
-508.2210088984588
 20
1564.120993269049
 30
0.0
 11
-498.4710088984589
 21
1564.120993269049
 31
0.0
  0
LINE
  5
1A6D9
330
1A
100
AcDbEntity
  8
ZISSEN1
 48
0.5
100
AcDbLine
 10
-506.1198602303743
 20
1578.300993269048
 30
0.0
 11
-504.3209602303736
 21
1578.300993269048
 31
0.0
  0
LINE
  5
1A6DB
330
1A
100
AcDbEntity
  8
ZISSEN1
 48
0.5
100
AcDbLine
 10
-506.1198703963641
 20
1571.351061184889
 30
0.0
 11
-506.1198602303743
 21
1578.300993269048
 31
0.0
  0
LINE
  5
1A6E0
330
1A
100
AcDbEntity
  8
ZISSEN1
 48
0.5
100
AcDbLine
 10
-509.2210088984589
 20
1565.120993269049
 30
0.0
 11
-508.2210088984588
 21
1564.120993269049
 31
0.0
  0
LINE
  5
1A6E4
330
1A
100
AcDbEntity
  8
ZISSEN1
 48
0.5
100
AcDbLine
 10
-498.4710088984589
 20
1564.120993269049
 30
0.0
 11
-498.4710088984589
 21
1567.620993269049
 31
0.0
  0
LINE
  5
1A6E8
330
1A
100
AcDbEntity
  8
ZISSEN1
 48
0.5
100
AcDbLine
 10
-505.6198602303743
 20
1568.901061184888
 30
0.0
 11
-504.1198602303743
 21
1568.901061184888
 31
0.0
  0
LINE
  5
1A6E9
330
1A
100
AcDbEntity
  8
ZISSEN1
 48
0.5
100
AcDbLine
 10
-484.7210088984589
 20
1587.120993269049
 30
0.0
 11
-487.7210088984589
 21
1587.120993269049
 31
0.0
  0
LINE
  5
1A6EA
330
1A
100
AcDbEntity
  8
ZISSEN1
 48
0.5
100
AcDbLine
 10
-484.7210088984589
 20
1610.620993269048
 30
0.0
 11
-487.7210088984589
 21
1610.620993269048
 31
0.0
  0
LINE
  5
1A701
330
1A
100
AcDbEntity
  8
ZISSEN1
 48
0.5
100
AcDbLine
 10
-484.7210088984589
 20
1565.120993269049
 30
0.0
 11
-487.7210088984589
 21
1565.120993269049
 31
0.0
  0
LINE
  5
1A702
330
1A
100
AcDbEntity
  8
ZISSEN1
 48
0.5
100
AcDbLine
 10
-488.021008898459
 20
1564.120993269049
 30
0.0
 11
-481.2210088984588
 21
1564.120993269049
 31
0.0
  0
ARC
  5
1A703
330
1A
100
AcDbEntity
  8
ZISSEN1
 48
0.5
100
AcDbCircle
 10
-486.7210088984597
 20
1574.020993269045
 30
0.0
 40
0.6000000000001365
100
AcDbArc
 50
270.0000000000521
 51
89.99999999994788
  0
LINE
  5
1A704
330
1A
100
AcDbEntity
  8
ZISSEN1
 48
0.5
100
AcDbLine
 10
-486.7210088984598
 20
1573.420993269047
 30
0.0
 11
-488.021008898459
 21
1573.420993269047
 31
0.0
  0
LINE
  5
1A705
330
1A
100
AcDbEntity
  8
ZISSEN1
 48
0.5
100
AcDbLine
 10
-486.7210088984598
 20
1574.620993269047
 30
0.0
 11
-488.021008898459
 21
1574.620993269047
 31
0.0
  0
LINE
  5
1A706
330
1A
100
AcDbEntity
  8
ZISSEN1
 48
0.5
100
AcDbLine
 10
-487.7210088984589
 20
1564.620993269049
 30
0.0
 11
-489.6210088984594
 21
1564.620993269049
 31
0.0
  0
LINE
  5
1A707
330
1A
100
AcDbEntity
  8
ZISSEN1
 48
0.5
100
AcDbLine
 10
-487.7210088984589
 20
1565.620993269049
 30
0.0
 11
-489.6210088984594
 21
1565.620993269049
 31
0.0
  0
LINE
  5
1A708
330
1A
100
AcDbEntity
  8
ZISSEN1
 48
0.5
100
AcDbLine
 10
-490.021008898459
 20
1564.120993269049
 30
0.0
 11
-490.0210088984581
 21
1564.983922880509
 31
0.0
  0
LINE
  5
1A709
330
1A
100
AcDbEntity
  8
ZISSEN1
 48
0.5
100
AcDbLine
 10
-494.9710088984589
 20
1564.120993269049
 30
0.0
 11
-490.021008898459
 21
1564.120993269049
 31
0.0
  0
LINE
  5
1A70A
330
1A
100
AcDbEntity
  8
ZISSEN1
 48
0.5
100
AcDbLine
 10
-494.9710088984589
 20
1567.620993269049
 30
0.0
 11
-494.9710088984589
 21
1564.120993269049
 31
0.0
  0
LINE
  5
1A70C
330
1A
100
AcDbEntity
  8
ZISSEN1
 48
0.5
100
AcDbLine
 10
-489.6210088984594
 20
1565.795993269047
 30
0.0
 11
-489.6210088984594
 21
1568.595993269046
 31
0.0
  0
LINE
  5
1A70D
330
1A
100
AcDbEntity
  8
ZISSEN1
 48
0.5
100
AcDbLine
 10
-489.6210088984594
 20
1570.370993269049
 30
0.0
 11
-489.6210088984594
 21
1564.870993269049
 31
0.0
  0
ARC
  5
1A70E
330
1A
100
AcDbEntity
  8
ZISSEN1
100
AcDbCircle
 10
-486.9292100689958
 20
1567.620993269049
 30
0.0
 40
4.06366340092025
100
AcDbArc
 50
137.4114170199115
 51
222.5885829800883
  0
LINE
  5
1A70F
330
1A
100
AcDbEntity
  8
ZISSEN1
100
AcDbLine
 10
-489.6210088984594
 20
1564.870993269049
 30
0.0
 11
-489.9210088984595
 21
1564.870993269049
 31
0.0
  0
LINE
  5
1A710
330
1A
100
AcDbEntity
  8
ZISSEN1
100
AcDbLine
 10
-489.9210088984595
 20
1570.370993269049
 30
0.0
 11
-489.6210088984594
 21
1570.370993269049
 31
0.0
  0
LINE
  5
1AA44
102
{ACAD_REACTORS
330
1AA47
102
}
330
1A
100
AcDbEntity
  8
ZISSEN1
100
AcDbLine
 10
-506.1210088984593
 20
1578.300993269048
 30
0.0
 11
-489.6210088984594
 21
1578.300993269048
 31
0.0
  0
LINE
  5
1AA45
102
{ACAD_REACTORS
330
1AA47
102
}
330
1A
100
AcDbEntity
  8
ZISSEN1
100
AcDbLine
 10
-506.1210088984593
 20
1568.900993269048
 30
0.0
 11
-506.1210088984593
 21
1578.300993269048
 31
0.0
  0
LINE
  5
1AA46
102
{ACAD_REACTORS
330
1AA47
102
}
330
1A
100
AcDbEntity
  8
ZISSEN1
100
AcDbLine
 10
-490.596751511976
 20
1568.900993269048
 30
0.0
 11
-506.1210088984593
 21
1568.900993269048
 31
0.0
  0
LINE
  5
1AA4F
102
{ACAD_REACTORS
330
1AA52
102
}
330
1A
100
AcDbEntity
  8
ZISSEN1
100
AcDbLine
 10
-543.2210768142993
 20
1532.820993269049
 30
0.0
 11
-543.2210768142993
 21
1516.320993269049
 31
0.0
  0
LINE
  5
1AA50
102
{ACAD_REACTORS
330
1AA52
102
}
330
1A
100
AcDbEntity
  8
ZISSEN1
100
AcDbLine
 10
-552.6210768142988
 20
1532.820993269049
 30
0.0
 11
-543.2210768142993
 21
1532.820993269049
 31
0.0
  0
LINE
  5
1AA51
102
{ACAD_REACTORS
330
1AA52
102
}
330
1A
100
AcDbEntity
  8
ZISSEN1
100
AcDbLine
 10
-552.6210768142971
 20
1517.364614126309
 30
0.0
 11
-552.6210768142988
 21
1532.820993269049
 31
0.0
  0
LINE
  5
1AA84
330
1A
100
AcDbEntity
  8
ZISSEN1
100
AcDbLine
 10
-598.0986390503028
 20
1527.820993269049
 30
0.0
 11
-584.8210088984592
 21
1527.820993269049
 31
0.0
  0
LINE
  5
1AA85
330
1A
100
AcDbEntity
  8
SOUZOUSEN
100
AcDbLine
 10
-607.1986390503028
 20
1527.820993269049
 30
0.0
 11
-598.0986390503028
 21
1527.820993269049
 31
0.0
  0
LINE
  5
1AA86
330
1A
100
AcDbEntity
  8
ZISSEN1
100
AcDbLine
 10
-607.1710109630852
 20
1532.820993269049
 30
0.0
 11
-598.0710109630852
 21
1532.820993269049
 31
0.0
  0
LINE
  5
1AA87
330
1A
100
AcDbEntity
  8
ZISSEN1
100
AcDbLine
 10
-607.221008898459
 20
1527.820993269049
 30
0.0
 11
-607.1986390503028
 21
1527.820993269049
 31
0.0
  0
LINE
  5
1AA88
330
1A
100
AcDbEntity
  8
ZISSEN1
100
AcDbLine
 10
-607.221008898459
 20
1516.320993269049
 30
0.0
 11
-607.221008898459
 21
1527.820993269049
 31
0.0
  0
LINE
  5
1AA89
330
1A
100
AcDbEntity
  8
ZISSEN1
100
AcDbLine
 10
-607.1710109630852
 20
1532.820993269049
 30
0.0
 11
-607.1710109630852
 21
1516.320993269049
 31
0.0
  0
LINE
  5
1AA8A
330
1A
100
AcDbEntity
  8
ZISSEN1
100
AcDbLine
 10
-598.0710109630852
 20
1532.820993269049
 30
0.0
 11
-598.0710109630852
 21
1516.320993269049
 31
0.0
  0
LINE
  5
1AA8B
330
1A
100
AcDbEntity
  8
ZISSEN1
100
AcDbLine
 10
-584.8210088984592
 20
1527.820993269049
 30
0.0
 11
-584.8210088984592
 21
1516.320993269049
 31
0.0
  0
LINE
  5
1AAB8
102
{ACAD_REACTORS
330
1AADA
330
1AADB
102
}
330
1A
100
AcDbEntity
  8
ZISSEN1
100
AcDbLine
 10
-607.1710088984583
 20
1568.900993269047
 30
0.0
 11
-598.0710088984583
 21
1568.900993269047
 31
0.0
  0
LINE
  5
1AAB9
102
{ACAD_REACTORS
330
1AADA
330
1AADB
102
}
330
1A
100
AcDbEntity
  8
ZISSEN1
100
AcDbLine
 10
-607.1710088984583
 20
1578.300993269047
 30
0.0
 11
-598.0710088984583
 21
1578.300993269047
 31
0.0
  0
LINE
  5
1AABA
102
{ACAD_REACTORS
330
1AADA
330
1AADB
102
}
330
1A
100
AcDbEntity
  8
ZISSEN1
100
AcDbLine
 10
-598.0710088984583
 20
1568.900993269047
 30
0.0
 11
-607.1710088984583
 21
1568.900993269047
 31
0.0
  0
LINE
  5
1AABE
330
1A
100
AcDbEntity
  8
ZISSEN1
100
AcDbLine
 10
-598.0710088984579
 20
1570.700993269047
 30
0.0
 11
-607.1710088984583
 21
1570.700993269047
 31
0.0
  0
LINE
  5
1AABF
330
1A
100
AcDbEntity
  8
ZISSEN1
100
AcDbLine
 10
-602.621008898458
 20
1571.300993269047
 30
0.0
 11
-605.6710088984583
 21
1571.300993269047
 31
0.0
  0
LINE
  5
1AAC0
330
1A
100
AcDbEntity
  8
ZISSEN1
100
AcDbLine
 10
-606.4710088984583
 20
1571.300993269047
 30
0.0
 11
-602.621008898458
 21
1571.300993269047
 31
0.0
  0
LINE
  5
1AAC1
330
1A
100
AcDbEntity
  8
ZISSEN1
100
AcDbLine
 10
-603.5210088984586
 20
1571.300993269047
 30
0.0
 11
-604.7210088984584
 21
1571.300993269047
 31
0.0
  0
LINE
  5
1AAC2
102
{ACAD_REACTORS
330
1AADA
330
1AADB
102
}
330
1A
100
AcDbEntity
  8
ZISSEN1
100
AcDbLine
 10
-607.1710088984583
 20
1568.900993269047
 30
0.0
 11
-607.1710088984583
 21
1576.500993269046
 31
0.0
  0
LINE
  5
1AAC3
102
{ACAD_REACTORS
330
1AADA
330
1AADB
102
}
330
1A
100
AcDbEntity
  8
ZISSEN1
100
AcDbLine
 10
-607.1710088984583
 20
1568.900993269047
 30
0.0
 11
-607.1710088984583
 21
1576.500993269046
 31
0.0
  0
LINE
  5
1AAC4
102
{ACAD_REACTORS
330
1AADA
330
1AADB
102
}
330
1A
100
AcDbEntity
  8
ZISSEN1
100
AcDbLine
 10
-607.1710088984583
 20
1568.900993269047
 30
0.0
 11
-607.1710088984583
 21
1578.300993269047
 31
0.0
  0
LINE
  5
1AAC9
102
{ACAD_REACTORS
330
1AADA
330
1AADB
102
}
330
1A
100
AcDbEntity
  8
ZISSEN1
100
AcDbLine
 10
-598.0710088984583
 20
1576.500993269046
 30
0.0
 11
-598.0710088984583
 21
1568.900993269047
 31
0.0
  0
LINE
  5
1AACA
102
{ACAD_REACTORS
330
1AADA
330
1AADB
102
}
330
1A
100
AcDbEntity
  8
ZISSEN1
100
AcDbLine
 10
-598.0710088984583
 20
1576.500993269046
 30
0.0
 11
-598.0710088984583
 21
1568.900993269047
 31
0.0
  0
LINE
  5
1AACB
102
{ACAD_REACTORS
330
1AADA
330
1AADB
102
}
330
1A
100
AcDbEntity
  8
ZISSEN1
100
AcDbLine
 10
-598.0710088984583
 20
1578.300993269047
 30
0.0
 11
-598.0710088984583
 21
1568.900993269047
 31
0.0
  0
LINE
  5
1AAD0
330
1A
100
AcDbEntity
  8
ZISSEN1
100
AcDbLine
 10
-602.621008898458
 20
1571.300993269047
 30
0.0
 11
-602.121008898458
 21
1571.300993269047
 31
0.0
  0
LINE
  5
1AAD1
330
1A
100
AcDbEntity
  8
ZISSEN1
100
AcDbLine
 10
-602.621008898458
 20
1571.300993269047
 30
0.0
 11
-603.121008898458
 21
1571.300993269047
 31
0.0
  0
LINE
  5
1AAD4
330
1A
100
AcDbEntity
  8
ZISSEN1
100
AcDbLine
 10
-602.621008898458
 20
1571.300993269047
 30
0.0
 11
-599.571008898458
 21
1571.300993269047
 31
0.0
  0
LINE
  5
1AAD5
330
1A
100
AcDbEntity
  8
ZISSEN1
100
AcDbLine
 10
-598.0710088984579
 20
1578.300993269047
 30
0.0
 11
-598.0710088984579
 21
1574.020993269047
 31
0.0
  0
LINE
  5
1AAD6
330
1A
100
AcDbEntity
  8
ZISSEN1
100
AcDbLine
 10
-598.0710088984579
 20
1570.700993269047
 30
0.0
 11
-598.0710088984579
 21
1574.500993269047
 31
0.0
  0
LINE
  5
1AAD7
330
1A
100
AcDbEntity
  8
ZISSEN1
100
AcDbLine
 10
-598.7710088984587
 20
1574.500993269047
 30
0.0
 11
-598.7710088984587
 21
1571.300993269047
 31
0.0
  0
LINE
  5
1AADE
102
{ACAD_REACTORS
330
1AAE4
102
}
330
1A
100
AcDbEntity
  8
ZISSEN1
100
AcDbLine
 10
-500.1210088984595
 20
1610.420993269049
 30
0.0
 11
-489.6210088984594
 21
1610.420993269049
 31
0.0
  0
LINE
  5
1AADF
102
{ACAD_REACTORS
330
1AAE4
102
}
330
1A
100
AcDbEntity
  8
ZISSEN1
100
AcDbLine
 10
-489.6210088984594
 20
1610.420993269049
 30
0.0
 11
-506.1210088984593
 21
1610.420993269049
 31
0.0
  0
LINE
  5
1AAE0
102
{ACAD_REACTORS
330
1AAE4
102
}
330
1A
100
AcDbEntity
  8
ZISSEN1
100
AcDbLine
 10
-489.6210088984594
 20
1587.320993269049
 30
0.0
 11
-500.1210088984595
 21
1587.320993269049
 31
0.0
  0
LINE
  5
1AAE1
102
{ACAD_REACTORS
330
1AAE4
102
}
330
1A
100
AcDbEntity
  8
ZISSEN1
100
AcDbLine
 10
-506.1210088984593
 20
1587.320993269049
 30
0.0
 11
-489.6210088984594
 21
1587.320993269049
 31
0.0
  0
LINE
  5
1AAE2
102
{ACAD_REACTORS
330
1AAE4
102
}
330
1A
100
AcDbEntity
  8
ZISSEN1
100
AcDbLine
 10
-506.1210088984593
 20
1610.420993269049
 30
0.0
 11
-506.1210088984593
 21
1587.320993269049
 31
0.0
  0
LINE
  5
1AAE3
102
{ACAD_REACTORS
330
1AAE4
102
}
330
1A
100
AcDbEntity
  8
ZISSEN1
100
AcDbLine
 10
-489.6210088984594
 20
1587.320993269049
 30
0.0
 11
-489.6210088984594
 21
1610.420993269049
 31
0.0
  0
ARC
  5
1AAF2
330
1A
100
AcDbEntity
  8
SOUZOUSEN
 48
0.5
100
AcDbCircle
 10
-496.721008898457
 20
1567.620993269049
 30
0.0
 40
1.749999999998181
100
AcDbArc
 50
49.08414306032145
 51
131.8902392063693
  0
ARC
  5
1AAF3
330
1A
100
AcDbEntity
  8
ZISSEN1
 48
0.5
100
AcDbCircle
 10
-496.721008898457
 20
1567.620993269049
 30
0.0
 40
1.749999999998181
100
AcDbArc
 50
132.9937096965721
 51
180.0000000001042
  0
LINE
  5
1AB16
330
1A
100
AcDbEntity
  8
CL1
100
AcDbLine
 10
-496.7210088984589
 20
1562.634605059244
 30
0.0
 11
-496.7210088984589
 21
1569.134605059246
 31
0.0
  0
LINE
  5
1AB17
330
1A
100
AcDbEntity
  8
CL1
100
AcDbLine
 10
-499.8342729090735
 20
1566.620993269049
 30
0.0
 11
-494.0890082651975
 21
1566.620993269049
 31
0.0
  0
LINE
  5
1AB19
330
1A
100
AcDbEntity
  8
CL1
100
AcDbLine
 10
-615.6659063040426
 20
1566.620993269049
 30
0.0
 11
-608.1999491775015
 21
1566.620993269049
 31
0.0
  0
LINE
  5
1AB1B
330
1A
100
AcDbEntity
  8
CL1
100
AcDbLine
 10
-615.6659063040426
 20
1631.620993269049
 30
0.0
 11
-608.1999491775015
 21
1631.620993269049
 31
0.0
  0
LINE
  5
1AB1E
330
1A
100
AcDbEntity
  8
CL1
100
AcDbLine
 10
-615.6659063040426
 20
1523.420993269049
 30
0.0
 11
-608.1999491775015
 21
1523.420993269049
 31
0.0
  0
LINE
  5
1AB20
330
1A
100
AcDbEntity
  8
CL1
100
AcDbLine
 10
-499.8342729090735
 20
1631.620993269049
 30
0.0
 11
-494.0890082651975
 21
1631.620993269049
 31
0.0
  0
LINE
  5
1AB21
330
1A
100
AcDbEntity
  8
CL1
100
AcDbLine
 10
-496.7210088984589
 20
1627.634605059244
 30
0.0
 11
-496.7210088984589
 21
1634.134605059246
 31
0.0
  0
DIMENSION
  5
1AB3A
330
1A
100
AcDbEntity
  8
SUNPOU
100
AcDbDimension
  2
*D0
 10
-543.2210088984609
 20
1494.497894822057
 30
0.0
 11
-578.2210088984604
 21
1497.247894822057
 31
0.0
 70
    32
  3
標準スタイル
100
AcDbAlignedDimension
 13
-613.2210088984599
 23
1510.920993269051
 33
0.0
 14
-543.2210088984609
 24
1511.420993269049
 34
0.0
100
AcDbRotatedDimension
1001
ACAD
1000
DSTYLE
1002
{
1070
   340
1005
10
1070
    40
1040
1.0
1002
}
  0
DIMENSION
  5
1AB50
330
1A
100
AcDbEntity
  8
SUNPOU
100
AcDbDimension
  2
*D1
 10
-531.1927366149322
 20
1532.820993269049
 30
0.0
 11
-533.9427366149323
 21
1520.370993269049
 31
0.0
 70
    32
  3
標準スタイル
100
AcDbAlignedDimension
 13
-565.2210088984609
 23
1507.920993269049
 33
0.0
 14
-543.2210768142993
 24
1532.820993269049
 34
0.0
 50
90.0
100
AcDbRotatedDimension
1001
ACAD
1000
DSTYLE
1002
{
1070
   340
1005
10
1070
    40
1040
1.0
1002
}
  0
DIMENSION
  5
1AB66
330
1A
100
AcDbEntity
  8
SUNPOU
100
AcDbDimension
  2
*D2
 10
-610.2210088984591
 20
1542.794875111216
 30
0.0
 11
-602.0543422317924
 21
1545.544875111216
 31
0.0
 70
    32
  3
標準スタイル
100
AcDbAlignedDimension
 13
-613.221008898459
 23
1535.920993269049
 33
0.0
 14
-610.2210088984591
 24
1535.920993269049
 34
0.0
100
AcDbRotatedDimension
1001
ACAD
1000
DSTYLE
1002
{
1070
   340
1005
10
1070
    40
1040
1.0
1002
}
  0
DIMENSION
  5
1AB80
330
1A
100
AcDbEntity
  8
SUNPOU
100
AcDbDimension
  2
*D3
 10
-627.3996664178951
 20
1634.120993269047
 30
0.0
 11
-630.1496664178953
 21
1599.120993269047
 31
0.0
 70
    32
  3
標準スタイル
100
AcDbAlignedDimension
 13
-613.2210088984598
 23
1564.120993269048
 33
0.0
 14
-613.2210088984598
 24
1634.120993269047
 34
0.0
 50
90.0
100
AcDbRotatedDimension
1001
ACAD
1000
DSTYLE
1002
{
1070
   340
1005
10
1070
    40
1040
1.0
1002
}
  0
DIMENSION
  5
1AB96
330
1A
100
AcDbEntity
  8
SUNPOU
100
AcDbDimension
  2
*D4
 10
-494.9710088984589
 20
1643.266337629053
 30
0.0
 11
-484.4710088984588
 21
1646.016337629053
 31
0.0
 70
    32
  3
標準スタイル
100
AcDbAlignedDimension
 13
-498.4710088984589
 23
1634.120993269049
 33
0.0
 14
-494.9710088984589
 24
1634.120993269049
 34
0.0
100
AcDbRotatedDimension
1001
ACAD
1000
DSTYLE
1002
{
1070
   340
1005
10
1070
    40
1040
1.0
1002
}
  0
DIMENSION
  5
1ABA5
330
1A
100
AcDbEntity
  8
SUNPOU
100
AcDbDimension
  2
*D5
 10
-496.7210088984589
 20
1553.488230285786
 30
0.0
 11
-488.9710088984588
 21
1556.238230285786
 31
0.0
 70
    32
  3
標準スタイル
100
AcDbAlignedDimension
 13
-481.2210088984588
 23
1564.120993269049
 33
0.0
 14
-496.7210088984589
 24
1566.620993269049
 34
0.0
100
AcDbRotatedDimension
1001
ACAD
1000
DSTYLE
1002
{
1070
   340
1005
10
1070
    40
1040
1.0
1002
}
  0
DIMENSION
  5
1ABB2
330
1A
100
AcDbEntity
  8
SUNPOU
100
AcDbDimension
  2
*D6
 10
-509.2210088984589
 20
1541.897284924681
 30
0.0
 11
-495.2210088984588
 21
1544.647284924681
 31
0.0
 70
    32
  3
標準スタイル
100
AcDbAlignedDimension
 13
-481.2210088984588
 23
1563.620993269049
 33
0.0
 14
-509.2210088984589
 24
1565.120993269049
 34
0.0
100
AcDbRotatedDimension
1001
ACAD
1000
DSTYLE
1002
{
1070
   340
1005
10
1070
    40
1040
1.0
1002
}
  0
DIMENSION
  5
1ABE8
330
1A
100
AcDbEntity
  8
SUNPOU
100
AcDbDimension
  2
*D7
 10
-519.5240875664084
 20
1631.620993269049
 30
0.0
 11
-519.5240875664086
 21
1644.620993269049
 31
0.0
 70
   160
  3
標準スタイル
100
AcDbAlignedDimension
 13
-508.2210088984588
 23
1634.120993269049
 33
0.0
 14
-499.8342729090735
 24
1631.620993269049
 34
0.0
 50
90.0
100
AcDbRotatedDimension
1001
ACAD
1000
DSTYLE
1002
{
1070
   340
1005
10
1070
    40
1040
1.0
1002
}
  0
DIMENSION
  5
1ABF7
330
1A
100
AcDbEntity
  8
SUNPOU
100
AcDbDimension
  2
*D8
 10
-519.5270714944598
 20
1566.620993269049
 30
0.0
 11
-522.27707149446
 21
1599.120993269049
 31
0.0
 70
    32
  3
標準スタイル
100
AcDbAlignedDimension
 13
-499.8342729090735
 23
1631.620993269049
 33
0.0
 14
-499.8342729090735
 24
1566.620993269049
 34
0.0
 50
90.0
100
AcDbRotatedDimension
1001
ACAD
1000
DSTYLE
1002
{
1070
   287
1070
     4
1070
   340
1005
10
1070
    40
1040
1.0
1070
   279
1070
     1
1002
}
  0
DIMENSION
  5
1AC04
330
1A
100
AcDbEntity
  8
SUNPOU
100
AcDbDimension
  2
*D9
 10
-519.5692446101971
 20
1564.12099326905
 30
0.0
 11
-519.5692446101974
 21
1553.620993269049
 31
0.0
 70
   160
  3
標準スタイル
100
AcDbAlignedDimension
 13
-499.8342729090735
 23
1566.620993269049
 33
0.0
 14
-508.2210088984588
 24
1564.120993269049
 34
0.0
 50
90.0
100
AcDbRotatedDimension
1001
ACAD
1000
DSTYLE
1002
{
1070
   340
1005
10
1070
    40
1040
1.0
1002
}
  0
VIEWPORT
  5
5D8F
330
5D8E
100
AcDbEntity
 67
     1
  8
0
100
AcDbViewport
 10
221.7773519364194
 20
157.6879887152104
 30
0.0
 40
468.5684599252842
 41
262.9519205487881
 68
     1
 69
     1
1001
ACAD
1000
MVIEW
1002
{
1070
    16
1010
0.0
1020
0.0
1030
0.0
1010
0.0
1020
0.0
1030
1.0
1040
0.0
1040
262.9519205487881
1040
221.7773519364194
1040
157.6879887152104
1040
50.0
1040
0.0
1040
0.0
1070
     0
1070
   100
1070
     1
1070
     0
1070
     0
1070
     0
1070
     0
1070
     0
1040
0.0
1040
0.0
1040
0.0
1040
1.0
1040
1.0
1040
10.0
1040
10.0
1070
     0
1002
{
1002
}
1002
}
  0
VIEWPORT
  5
6001
330
5D8E
100
AcDbEntity
 67
     1
  8
ZISSEN1
100
AcDbViewport
 10
221.7861955525411
 20
157.6960273330388
 30
0.0
 40
385.4999999999997
 41
259.9999999999999
 68
     2
 69
     2
1001
ACAD
1000
MVIEW
1002
{
1070
    16
1010
0.0
1020
0.0
1030
0.0
1010
0.0
1020
0.0
1030
1.0
1040
0.0
1040
259.9999999999999
1040
-563.0963235758907
1040
1591.313627263258
1040
50.0
1040
0.0
1040
0.0
1070
     0
1070
   100
1070
     1
1070
     0
1070
     0
1070
     0
1070
     0
1070
     0
1040
0.0
1040
0.0
1040
0.0
1040
1.0
1040
1.0
1040
10.0
1040
10.0
1070
     0
1002
{
1002
}
1002
}
  0
TEXT
  5
716F
330
5D8E
100
AcDbEntity
 67
     1
  8
SUNPOU
 62
     0
100
AcDbText
 10
374.1863124306943
 20
60.86794705907585
 30
0.0
 40
3.5
  1
縮尺 1/1
  7
ゴシック体
100
AcDbText
  0
ENDSEC
  0
SECTION
  2
OBJECTS
  0
DICTIONARY
  5
C
330
0
100
AcDbDictionary
  3
ACAD_GROUP
350
D
  3
ACAD_LAYOUT
350
5C7D
  3
ACAD_MLINESTYLE
350
E
  3
ACAD_PLOTSETTINGS
350
5C7E
  3
ACAD_PLOTSTYLENAME
350
5C7B
  3
DWGPROPS
350
12861
  3
ACDBHEADERROUNDTRIPXREC
350
1ACE6
  0
DICTIONARY
  5
14053
330
2
100
AcDbDictionary
280
     1
  3
ACAD_LAYERFILTERS
360
14054
  0
DICTIONARY
  5
1A073
330
1A
100
AcDbDictionary
280
     1
  3
ACAD_LAYOUTSELFREF
360
1AD06
  0
DICTIONARY
  5
1A075
330
5D8E
100
AcDbDictionary
280
     1
  3
ACAD_LAYOUTSELFREF
360
1AD07
  0
DICTIONARY
  5
D
102
{ACAD_REACTORS
330
C
102
}
330
C
100
AcDbDictionary
  3
*A1
350
477D
  3
*A2
350
4C11
  3
*A3
350
4C12
  3
*A4
350
19E0C
  3
*A5
350
19B1E
  3
*A6
350
4C13
  3
*A7
350
19B97
  3
*A8
350
19BD5
  3
*A9
350
19B98
  3
*A10
350
19B99
  3
*A11
350
19B9A
  3
*A12
350
477E
  3
*A13
350
19BD3
  3
*A14
350
4781
  3
*A15
350
19BD6
  3
*A16
350
19E0D
  3
*A17
350
19DAA
  3
*A18
350
4C14
  3
*A19
350
19DAB
  3
*A20
350
19DB9
  3
*A21
350
19B30
  3
*A22
350
477F
  3
*A23
350
4C15
  3
*A24
350
4C16
  3
*A25
350
4C0E
  3
*A26
350
4C17
  3
*A27
350
1AA43
  3
*A28
350
1AA47
  3
*A29
350
1AA48
  3
*A30
350
1AA52
  3
*A31
350
1AADA
  3
*A32
350
1AADB
  3
*A33
350
19BD4
  3
*A34
350
1AAE4
  3
*A35
350
4780
  3
*A36
350
4C0F
  3
*A37
350
13E2E
  3
*A38
350
19B96
  3
*A39
350
4C10
  0
DICTIONARY
  5
5C7D
102
{ACAD_REACTORS
330
C
102
}
330
C
100
AcDbDictionary
  0
DICTIONARY
  5
E
102
{ACAD_REACTORS
330
C
102
}
330
C
100
AcDbDictionary
  3
STANDARD
350
13
  0
DICTIONARY
  5
5C7E
102
{ACAD_REACTORS
330
C
102
}
330
C
100
AcDbDictionary
  0
ACDBDICTIONARYWDFLT
  5
5C7B
102
{ACAD_REACTORS
330
C
102
}
330
C
100
AcDbDictionary
281
     1
  3
Normal
350
5C7C
100
AcDbDictionaryWithDefault
340
5C7C
  0
XRECORD
  5
12861
102
{ACAD_REACTORS
330
C
102
}
330
C
100
AcDbXrecord
  1
DWGPROPS COOKIE
  2

  3

  4

  6

  7

  8

  9

300
=
301
=
302
=
303
=
304
=
305
=
306
=
307
=
308
=
309
=
 40
1.583646701388888
 41
2450495.493631364
 42
2455325.72058449
  1

 90
        0
  0
DICTIONARY
  5
1ACE6
102
{ACAD_REACTORS
330
C
102
}
330
C
100
AcDbDictionary
  3
TSTACKALIGN
350
1ACE7
  3
TSTACKSIZE
350
1ACE8
  3
HYPERLINKBASE
350
1ACE9
  3
STYLESHEET
350
1ACEA
  3
LAYOUTDICT
350
1ACEB
  3
PLOTSETDICT
350
1ACEC
  3
PLOTSTYLNAMDICT
350
1ACED
  3
LWETCUNION
350
1ACEE
  3
INSUNITS
350
1ACEF
  3
CEPSNTYPE
350
1ACF0
  3
FINGERPRINTGUID
350
1ACF1
  3
VERSIONGUID
350
1ACF2
  3
PSVPSCALE
350
1ACF3
  3
PUCSORTHOREF
350
1ACF4
  3
PUCSORTHOVIEW
350
1ACF5
  3
PUCSBASE
350
1ACF6
  3
PUCSORGTOP
350
1ACF7
  3
PUCSORGBOTTOM
350
1ACF8
  3
PUCSORGLEFT
350
1ACF9
  3
PUCSORGRIGHT
350
1ACFA
  3
PUCSORGFRONT
350
1ACFB
  3
PUCSORGBACK
350
1ACFC
  3
UCSORTHOREF
350
1ACFD
  3
UCSORTHOVIEW
350
1ACFE
  3
UCSBASE
350
1ACFF
  3
UCSORGTOP
350
1AD00
  3
UCSORGBOTTOM
350
1AD01
  3
UCSORGLEFT
350
1AD02
  3
UCSORGRIGHT
350
1AD03
  3
UCSORGFRONT
350
1AD04
  3
UCSORGBACK
350
1AD05
  0
DICTIONARY
  5
14054
102
{ACAD_REACTORS
330
14053
102
}
330
14053
100
AcDbDictionary
280
     1
  3
BASE
360
14055
  3
CASE
360
14056
  3
KIKOU
360
14057
  0
XRECORD
  5
1AD06
102
{ACAD_REACTORS
330
1A073
102
}
330
1A073
100
AcDbXrecord
340
1A
  0
XRECORD
  5
1AD07
102
{ACAD_REACTORS
330
1A075
102
}
330
1A075
100
AcDbXrecord
340
5D8E
  0
GROUP
  5
477D
102
{ACAD_REACTORS
330
D
102
}
330
D
100
AcDbGroup
300

 70
     1
 71
     1
  0
GROUP
  5
4C11
102
{ACAD_REACTORS
330
D
102
}
330
D
100
AcDbGroup
300

 70
     1
 71
     1
  0
GROUP
  5
4C12
102
{ACAD_REACTORS
330
D
102
}
330
D
100
AcDbGroup
300

 70
     1
 71
     1
  0
GROUP
  5
19E0C
102
{ACAD_REACTORS
330
D
102
}
330
D
100
AcDbGroup
300

 70
     1
 71
     1
  0
GROUP
  5
19B1E
102
{ACAD_REACTORS
330
D
102
}
330
D
100
AcDbGroup
300

 70
     1
 71
     1
  0
GROUP
  5
4C13
102
{ACAD_REACTORS
330
D
102
}
330
D
100
AcDbGroup
300

 70
     1
 71
     1
  0
GROUP
  5
19B97
102
{ACAD_REACTORS
330
D
102
}
330
D
100
AcDbGroup
300

 70
     1
 71
     1
  0
GROUP
  5
19BD5
102
{ACAD_REACTORS
330
D
102
}
330
D
100
AcDbGroup
300

 70
     1
 71
     1
  0
GROUP
  5
19B98
102
{ACAD_REACTORS
330
D
102
}
330
D
100
AcDbGroup
300

 70
     1
 71
     1
  0
GROUP
  5
19B99
102
{ACAD_REACTORS
330
D
102
}
330
D
100
AcDbGroup
300

 70
     1
 71
     1
  0
GROUP
  5
19B9A
102
{ACAD_REACTORS
330
D
102
}
330
D
100
AcDbGroup
300

 70
     1
 71
     1
  0
GROUP
  5
477E
102
{ACAD_REACTORS
330
D
102
}
330
D
100
AcDbGroup
300

 70
     1
 71
     1
  0
GROUP
  5
19BD3
102
{ACAD_REACTORS
330
D
102
}
330
D
100
AcDbGroup
300

 70
     1
 71
     1
  0
GROUP
  5
4781
102
{ACAD_REACTORS
330
D
102
}
330
D
100
AcDbGroup
300

 70
     1
 71
     1
  0
GROUP
  5
19BD6
102
{ACAD_REACTORS
330
D
102
}
330
D
100
AcDbGroup
300

 70
     1
 71
     1
  0
GROUP
  5
19E0D
102
{ACAD_REACTORS
330
D
102
}
330
D
100
AcDbGroup
300

 70
     1
 71
     1
  0
GROUP
  5
19DAA
102
{ACAD_REACTORS
330
D
102
}
330
D
100
AcDbGroup
300

 70
     1
 71
     1
  0
GROUP
  5
4C14
102
{ACAD_REACTORS
330
D
102
}
330
D
100
AcDbGroup
300

 70
     1
 71
     1
  0
GROUP
  5
19DAB
102
{ACAD_REACTORS
330
D
102
}
330
D
100
AcDbGroup
300

 70
     1
 71
     1
  0
GROUP
  5
19DB9
102
{ACAD_REACTORS
330
D
102
}
330
D
100
AcDbGroup
300

 70
     1
 71
     1
  0
GROUP
  5
19B30
102
{ACAD_REACTORS
330
D
102
}
330
D
100
AcDbGroup
300

 70
     1
 71
     1
  0
GROUP
  5
477F
102
{ACAD_REACTORS
330
D
102
}
330
D
100
AcDbGroup
300

 70
     1
 71
     1
  0
GROUP
  5
4C15
102
{ACAD_REACTORS
330
D
102
}
330
D
100
AcDbGroup
300

 70
     1
 71
     1
  0
GROUP
  5
4C16
102
{ACAD_REACTORS
330
D
102
}
330
D
100
AcDbGroup
300

 70
     1
 71
     1
  0
GROUP
  5
4C0E
102
{ACAD_REACTORS
330
D
102
}
330
D
100
AcDbGroup
300

 70
     1
 71
     1
  0
GROUP
  5
4C17
102
{ACAD_REACTORS
330
D
102
}
330
D
100
AcDbGroup
300

 70
     1
 71
     1
  0
GROUP
  5
1AA43
102
{ACAD_REACTORS
330
D
102
}
330
D
100
AcDbGroup
300

 70
     1
 71
     1
  0
GROUP
  5
1AA47
102
{ACAD_REACTORS
330
D
102
}
330
D
100
AcDbGroup
300

 70
     1
 71
     1
340
1AA44
340
1AA45
340
1AA46
  0
GROUP
  5
1AA48
102
{ACAD_REACTORS
330
D
102
}
330
D
100
AcDbGroup
300

 70
     1
 71
     1
  0
GROUP
  5
1AA52
102
{ACAD_REACTORS
330
D
102
}
330
D
100
AcDbGroup
300

 70
     1
 71
     1
340
1AA50
340
1AA51
340
1AA4F
  0
GROUP
  5
1AADA
102
{ACAD_REACTORS
330
D
102
}
330
D
100
AcDbGroup
300

 70
     1
 71
     1
340
1AABA
340
1AAB9
340
1AAB8
340
1AAC4
340
1AACB
340
1AAC3
340
1AACA
340
1AAC9
340
1AAC2
  0
GROUP
  5
1AADB
102
{ACAD_REACTORS
330
D
102
}
330
D
100
AcDbGroup
300

 70
     1
 71
     1
340
1AAC2
340
1AAC9
340
1AACA
340
1AAC3
340
1AACB
340
1AAC4
340
1AAB8
340
1AAB9
340
1AABA
  0
GROUP
  5
19BD4
102
{ACAD_REACTORS
330
D
102
}
330
D
100
AcDbGroup
300

 70
     1
 71
     1
  0
GROUP
  5
1AAE4
102
{ACAD_REACTORS
330
D
102
}
330
D
100
AcDbGroup
300

 70
     1
 71
     1
340
1AAE2
340
1AAE3
340
1AAE1
340
1AAE0
340
1AADF
340
1AADE
  0
GROUP
  5
4780
102
{ACAD_REACTORS
330
D
102
}
330
D
100
AcDbGroup
300

 70
     1
 71
     1
  0
GROUP
  5
4C0F
102
{ACAD_REACTORS
330
D
102
}
330
D
100
AcDbGroup
300

 70
     1
 71
     1
  0
GROUP
  5
13E2E
102
{ACAD_REACTORS
330
D
102
}
330
D
100
AcDbGroup
300

 70
     1
 71
     1
  0
GROUP
  5
19B96
102
{ACAD_REACTORS
330
D
102
}
330
D
100
AcDbGroup
300

 70
     1
 71
     1
  0
GROUP
  5
4C10
102
{ACAD_REACTORS
330
D
102
}
330
D
100
AcDbGroup
300

 70
     1
 71
     1
  0
MLINESTYLE
  5
13
102
{ACAD_REACTORS
330
E
102
}
330
E
100
AcDbMlineStyle
  2
STANDARD
 70
     0
  3

 62
     0
 51
90.0
 52
90.0
 71
     2
 49
0.5
 62
   256
  6
BYLAYER
 49
-0.5
 62
   256
  6
BYLAYER
  0
ACDBPLACEHOLDER
  5
5C7C
102
{ACAD_REACTORS
330
5C7B
102
}
330
5C7B
100
AcDbPlaceHolder
280
     0
  0
XRECORD
  5
1ACE7
102
{ACAD_REACTORS
330
1ACE6
102
}
330
1ACE6
100
AcDbXrecord
 90
        1
  0
XRECORD
  5
1ACE8
102
{ACAD_REACTORS
330
1ACE6
102
}
330
1ACE6
100
AcDbXrecord
 90
       70
  0
XRECORD
  5
1ACE9
102
{ACAD_REACTORS
330
1ACE6
102
}
330
1ACE6
100
AcDbXrecord
  1

  0
XRECORD
  5
1ACEA
102
{ACAD_REACTORS
330
1ACE6
102
}
330
1ACE6
100
AcDbXrecord
  1

  0
XRECORD
  5
1ACEB
102
{ACAD_REACTORS
330
1ACE6
102
}
330
1ACE6
100
AcDbXrecord
340
5C7D
  0
XRECORD
  5
1ACEC
102
{ACAD_REACTORS
330
1ACE6
102
}
330
1ACE6
100
AcDbXrecord
340
5C7E
  0
XRECORD
  5
1ACED
102
{ACAD_REACTORS
330
1ACE6
102
}
330
1ACE6
100
AcDbXrecord
340
5C7B
  0
XRECORD
  5
1ACEE
102
{ACAD_REACTORS
330
1ACE6
102
}
330
1ACE6
100
AcDbXrecord
 90
    10781
  0
XRECORD
  5
1ACEF
102
{ACAD_REACTORS
330
1ACE6
102
}
330
1ACE6
100
AcDbXrecord
 90
        0
  0
XRECORD
  5
1ACF0
102
{ACAD_REACTORS
330
1ACE6
102
}
330
1ACE6
100
AcDbXrecord
 90
        0
  0
XRECORD
  5
1ACF1
102
{ACAD_REACTORS
330
1ACE6
102
}
330
1ACE6
100
AcDbXrecord
  1
{225A7F0D-DA29-11D8-946A-0000E2416295}
  0
XRECORD
  5
1ACF2
102
{ACAD_REACTORS
330
1ACE6
102
}
330
1ACE6
100
AcDbXrecord
  1
{B20CE3F5-4485-4E2F-94ED-B71A0E2A94B7}
  0
XRECORD
  5
1ACF3
102
{ACAD_REACTORS
330
1ACE6
102
}
330
1ACE6
100
AcDbXrecord
 40
0.0
  0
XRECORD
  5
1ACF4
102
{ACAD_REACTORS
330
1ACE6
102
}
330
1ACE6
100
AcDbXrecord
340
0
  0
XRECORD
  5
1ACF5
102
{ACAD_REACTORS
330
1ACE6
102
}
330
1ACE6
100
AcDbXrecord
 70
     0
  0
XRECORD
  5
1ACF6
102
{ACAD_REACTORS
330
1ACE6
102
}
330
1ACE6
100
AcDbXrecord
340
0
  0
XRECORD
  5
1ACF7
102
{ACAD_REACTORS
330
1ACE6
102
}
330
1ACE6
100
AcDbXrecord
 10
0.0
 20
0.0
 30
0.0
  0
XRECORD
  5
1ACF8
102
{ACAD_REACTORS
330
1ACE6
102
}
330
1ACE6
100
AcDbXrecord
 10
0.0
 20
0.0
 30
0.0
  0
XRECORD
  5
1ACF9
102
{ACAD_REACTORS
330
1ACE6
102
}
330
1ACE6
100
AcDbXrecord
 10
0.0
 20
0.0
 30
0.0
  0
XRECORD
  5
1ACFA
102
{ACAD_REACTORS
330
1ACE6
102
}
330
1ACE6
100
AcDbXrecord
 10
0.0
 20
0.0
 30
0.0
  0
XRECORD
  5
1ACFB
102
{ACAD_REACTORS
330
1ACE6
102
}
330
1ACE6
100
AcDbXrecord
 10
0.0
 20
0.0
 30
0.0
  0
XRECORD
  5
1ACFC
102
{ACAD_REACTORS
330
1ACE6
102
}
330
1ACE6
100
AcDbXrecord
 10
0.0
 20
0.0
 30
0.0
  0
XRECORD
  5
1ACFD
102
{ACAD_REACTORS
330
1ACE6
102
}
330
1ACE6
100
AcDbXrecord
340
0
  0
XRECORD
  5
1ACFE
102
{ACAD_REACTORS
330
1ACE6
102
}
330
1ACE6
100
AcDbXrecord
 70
     0
  0
XRECORD
  5
1ACFF
102
{ACAD_REACTORS
330
1ACE6
102
}
330
1ACE6
100
AcDbXrecord
340
0
  0
XRECORD
  5
1AD00
102
{ACAD_REACTORS
330
1ACE6
102
}
330
1ACE6
100
AcDbXrecord
 10
0.0
 20
0.0
 30
0.0
  0
XRECORD
  5
1AD01
102
{ACAD_REACTORS
330
1ACE6
102
}
330
1ACE6
100
AcDbXrecord
 10
0.0
 20
0.0
 30
0.0
  0
XRECORD
  5
1AD02
102
{ACAD_REACTORS
330
1ACE6
102
}
330
1ACE6
100
AcDbXrecord
 10
0.0
 20
0.0
 30
0.0
  0
XRECORD
  5
1AD03
102
{ACAD_REACTORS
330
1ACE6
102
}
330
1ACE6
100
AcDbXrecord
 10
0.0
 20
0.0
 30
0.0
  0
XRECORD
  5
1AD04
102
{ACAD_REACTORS
330
1ACE6
102
}
330
1ACE6
100
AcDbXrecord
 10
0.0
 20
0.0
 30
0.0
  0
XRECORD
  5
1AD05
102
{ACAD_REACTORS
330
1ACE6
102
}
330
1ACE6
100
AcDbXrecord
 10
0.0
 20
0.0
 30
0.0
  0
XRECORD
  5
14055
102
{ACAD_REACTORS
330
14054
102
}
330
14054
100
AcDbXrecord
  1
BASE
  1
BASE*
  1
*
  1
*
 70
     0
  1
*
  1
*
  0
XRECORD
  5
14056
102
{ACAD_REACTORS
330
14054
102
}
330
14054
100
AcDbXrecord
  1
CASE
  1
CASE*
  1
*
  1
*
 70
     0
  1
*
  1
*
  0
XRECORD
  5
14057
102
{ACAD_REACTORS
330
14054
102
}
330
14054
100
AcDbXrecord
  1
KIKOU
  1
KIKOU*
  1
*
  1
*
 70
     0
  1
*
  1
*
  0
ENDSEC
  0
EOF
