  0
SECTION
  2
HEADER
  9
$ACADVER
  1
AC1014
  9
$ACADMAINTVER
 70
     9
  9
$DWGCODEPAGE
  3
ANSI_932
  9
$INSBASE
 10
0.0
 20
0.0
 30
0.0
  9
$EXTMIN
 10
-1136.750050730634
 20
1589.663255075708
 30
0.0
  9
$EXTMAX
 10
-979.2680552313631
 20
1763.55002101271
 30
0.0
  9
$LIMMIN
 10
0.0
 20
0.0
  9
$LIMMAX
 10
420.0
 20
297.0
  9
$ORTHOMODE
 70
     1
  9
$REGENMODE
 70
     1
  9
$FILLMODE
 70
     1
  9
$QTEXTMODE
 70
     0
  9
$MIRRTEXT
 70
     1
  9
$DRAGMODE
 70
     2
  9
$LTSCALE
 40
1.0
  9
$OSMODE
 70
    37
  9
$ATTMODE
 70
     1
  9
$TEXTSIZE
 40
2.5
  9
$TRACEWID
 40
1.0
  9
$TEXTSTYLE
  7
ゴシック体
  9
$CLAYER
  8
CL1
  9
$CELTYPE
  6
BYLAYER
  9
$CECOLOR
 62
   256
  9
$CELTSCALE
 40
1.0
  9
$DELOBJ
 70
     1
  9
$DISPSILH
 70
     0
  9
$DIMSCALE
 40
0.0
  9
$DIMASZ
 40
3.0
  9
$DIMEXO
 40
0.5
  9
$DIMDLI
 40
0.5
  9
$DIMRND
 40
0.0
  9
$DIMDLE
 40
0.0
  9
$DIMEXE
 40
0.5
  9
$DIMTP
 40
0.0
  9
$DIMTM
 40
0.0
  9
$DIMTXT
 40
3.5
  9
$DIMCEN
 40
0.0
  9
$DIMTSZ
 40
0.0
  9
$DIMTOL
 70
     0
  9
$DIMLIM
 70
     0
  9
$DIMTIH
 70
     0
  9
$DIMTOH
 70
     0
  9
$DIMSE1
 70
     0
  9
$DIMSE2
 70
     0
  9
$DIMTAD
 70
     1
  9
$DIMZIN
 70
     8
  9
$DIMBLK
  1

  9
$DIMASO
 70
     1
  9
$DIMSHO
 70
     1
  9
$DIMPOST
  1

  9
$DIMAPOST
  1

  9
$DIMALT
 70
     0
  9
$DIMALTD
 70
     2
  9
$DIMALTF
 40
25.4
  9
$DIMLFAC
 40
1.0
  9
$DIMTOFL
 70
     1
  9
$DIMTVP
 40
0.0
  9
$DIMTIX
 70
     0
  9
$DIMSOXD
 70
     0
  9
$DIMSAH
 70
     0
  9
$DIMBLK1
  1

  9
$DIMBLK2
  1

  9
$DIMSTYLE
  2
標準スタイル
  9
$DIMCLRD
 70
     1
  9
$DIMCLRE
 70
     1
  9
$DIMCLRT
 70
     1
  9
$DIMTFAC
 40
1.0
  9
$DIMGAP
 40
1.0
  9
$DIMJUST
 70
     0
  9
$DIMSD1
 70
     0
  9
$DIMSD2
 70
     0
  9
$DIMTOLJ
 70
     1
  9
$DIMTZIN
 70
     8
  9
$DIMALTZ
 70
     0
  9
$DIMALTTZ
 70
     0
  9
$DIMFIT
 70
     3
  9
$DIMUPT
 70
     0
  9
$DIMUNIT
 70
     2
  9
$DIMDEC
 70
     2
  9
$DIMTDEC
 70
     2
  9
$DIMALTU
 70
     2
  9
$DIMALTTD
 70
     2
  9
$DIMTXSTY
  7
ゴシック体
  9
$DIMAUNIT
 70
     0
  9
$LUNITS
 70
     2
  9
$LUPREC
 70
     4
  9
$SKETCHINC
 40
1.0
  9
$FILLETRAD
 40
0.0
  9
$AUNITS
 70
     0
  9
$AUPREC
 70
     0
  9
$MENU
  1
.
  9
$ELEVATION
 40
0.0
  9
$PELEVATION
 40
0.0
  9
$THICKNESS
 40
0.0
  9
$LIMCHECK
 70
     0
  9
$BLIPMODE
 70
     0
  9
$CHAMFERA
 40
10.0
  9
$CHAMFERB
 40
10.0
  9
$CHAMFERC
 40
2.0
  9
$CHAMFERD
 40
0.7853981633974483
  9
$SKPOLY
 70
     0
  9
$TDCREATE
 40
2450495.493631365
  9
$TDUPDATE
 40
2457326.779776655
  9
$TDINDWG
 40
2.0159042014
  9
$TDUSRTIMER
 40
2.0159042014
  9
$USRTIMER
 70
     1
  9
$ANGBASE
 50
0.0
  9
$ANGDIR
 70
     0
  9
$PDMODE
 70
    99
  9
$PDSIZE
 40
0.0
  9
$PLINEWID
 40
0.0
  9
$COORDS
 70
     1
  9
$SPLFRAME
 70
     0
  9
$SPLINETYPE
 70
     6
  9
$SPLINESEGS
 70
     8
  9
$ATTDIA
 70
     0
  9
$ATTREQ
 70
     1
  9
$HANDLING
 70
 10241
  9
$HANDSEED
  5
1C763
  9
$SURFTAB1
 70
     6
  9
$SURFTAB2
 70
     6
  9
$SURFTYPE
 70
     6
  9
$SURFU
 70
     6
  9
$SURFV
 70
     6
  9
$UCSNAME
  2

  9
$UCSORG
 10
0.0
 20
0.0
 30
0.0
  9
$UCSXDIR
 10
1.0
 20
0.0
 30
0.0
  9
$UCSYDIR
 10
0.0
 20
1.0
 30
0.0
  9
$PUCSNAME
  2

  9
$PUCSORG
 10
0.0
 20
0.0
 30
0.0
  9
$PUCSXDIR
 10
1.0
 20
0.0
 30
0.0
  9
$PUCSYDIR
 10
0.0
 20
1.0
 30
0.0
  9
$USERI1
 70
     0
  9
$USERI2
 70
     0
  9
$USERI3
 70
     0
  9
$USERI4
 70
     0
  9
$USERI5
 70
     0
  9
$USERR1
 40
0.0
  9
$USERR2
 40
0.0
  9
$USERR3
 40
0.0
  9
$USERR4
 40
0.0
  9
$USERR5
 40
0.0
  9
$WORLDVIEW
 70
     1
  9
$SHADEDGE
 70
     3
  9
$SHADEDIF
 70
    70
  9
$TILEMODE
 70
     0
  9
$MAXACTVP
 70
    16
  9
$PINSBASE
 10
0.0
 20
0.0
 30
0.0
  9
$PLIMCHECK
 70
     0
  9
$PEXTMIN
 10
29.03619555254135
 20
27.69602733303884
 30
0.0
  9
$PEXTMAX
 10
414.5361955525411
 20
287.6960273330388
 30
0.0
  9
$PLIMMIN
 10
11.81784449480976
 20
9.180173577250235
  9
$PLIMMAX
 10
431.7644997682473
 20
306.1908242120158
  9
$UNITMODE
 70
     0
  9
$VISRETAIN
 70
     0
  9
$PLINEGEN
 70
     0
  9
$PSLTSCALE
 70
     1
  9
$TREEDEPTH
 70
  3020
  9
$PICKSTYLE
 70
     1
  9
$CMLSTYLE
  2
STANDARD
  9
$CMLJUST
 70
     0
  9
$CMLSCALE
 40
1.0
  9
$PROXYGRAPHICS
 70
     1
  9
$MEASUREMENT
 70
     1
  0
ENDSEC
  0
SECTION
  2
CLASSES
  0
CLASS
  1
LWPOLYLINE
  2
AcDbPolyline
  3
AutoCAD 2000
 90
        0
280
     0
281
     1
  0
CLASS
  1
HATCH
  2
AcDbHatch
  3
AutoCAD 2000
 90
        0
280
     0
281
     1
  0
CLASS
  1
ACDBDICTIONARYWDFLT
  2
AcDbDictionaryWithDefault
  3
AutoCAD 2000
 90
        0
280
     0
281
     0
  0
CLASS
  1
ACDBPLACEHOLDER
  2
AcDbPlaceHolder
  3
AutoCAD 2000
 90
        0
280
     0
281
     0
  0
CLASS
  1
LAYOUT
  2
AcDbLayout
  3
AutoCAD 2000
 90
        0
280
     0
281
     0
  0
CLASS
  1
DICTIONARYVAR
  2
AcDbDictionaryVar
  3
AutoCAD 2000
 90
        0
280
     0
281
     0
  0
CLASS
  1
LONG_TRANSACTION
  2
AcDbLongTransaction
  3
AutoCAD 2000
 90
        0
280
     0
281
     0
  0
CLASS
  1
LWPOLYLINE
  2
AcDbPolyline
  3
AutoCAD 2000
 90
        0
280
     0
281
     1
  0
CLASS
  1
HATCH
  2
AcDbHatch
  3
AutoCAD 2000
 90
        0
280
     0
281
     1
  0
CLASS
  1
XRECORD
  2
AcDbXrecord
  3
AutoCAD 2000
 90
        0
280
     0
281
     0
  0
CLASS
  1
LONG_TRANSACTION
  2
AcDbLongTransaction
  3
AutoCAD 2000
 90
        0
280
     0
281
     0
  0
CLASS
  1
LWPOLYLINE
  2
AcDbPolyline
  3
AutoCAD 2000
 90
        0
280
     0
281
     1
  0
CLASS
  1
HATCH
  2
AcDbHatch
  3
AutoCAD 2000
 90
        0
280
     0
281
     1
  0
CLASS
  1
XRECORD
  2
AcDbXrecord
  3
AutoCAD 2000
 90
        0
280
     0
281
     0
  0
ENDSEC
  0
SECTION
  2
TABLES
  0
TABLE
  2
VPORT
  5
8
330
0
100
AcDbSymbolTable
 70
     1
  0
VPORT
  5
1C6F4
330
8
100
AcDbSymbolTableRecord
100
AcDbViewportTableRecord
  2
*ACTIVE
 70
     0
 10
0.0
 20
0.0
 11
1.0
 21
1.0
 12
-1057.99326091493
 22
1676.618441222313
 13
0.0
 23
0.0
 14
5.0
 24
5.0
 15
0.0
 25
0.0
 16
0.0
 26
0.0
 36
1.0
 17
0.0
 27
0.0
 37
0.0
 40
175.9292019127783
 41
1.781954887218045
 42
50.0
 43
0.0
 44
0.0
 50
0.0
 51
0.0
 71
     0
 72
   100
 73
     1
 74
     0
 75
     0
 76
     0
 77
     0
 78
     0
  0
ENDTAB
  0
TABLE
  2
LTYPE
  5
5
330
0
100
AcDbSymbolTable
 70
     4
  0
LTYPE
  5
14
330
5
100
AcDbSymbolTableRecord
100
AcDbLinetypeTableRecord
  2
BYBLOCK
 70
     0
  3

 72
    65
 73
     0
 40
0.0
  0
LTYPE
  5
15
330
5
100
AcDbSymbolTableRecord
100
AcDbLinetypeTableRecord
  2
BYLAYER
 70
     0
  3

 72
    65
 73
     0
 40
0.0
  0
LTYPE
  5
16
330
5
100
AcDbSymbolTableRecord
100
AcDbLinetypeTableRecord
  2
CONTINUOUS
 70
     0
  3
Solid line
 72
    65
 73
     0
 40
0.0
  0
LTYPE
  5
1956
330
5
100
AcDbSymbolTableRecord
100
AcDbLinetypeTableRecord
  2
CENTERX2
 70
     0
  3
________  __  ________  __  ________  __  _____
 72
    65
 73
     4
 40
4.0
 49
2.5
 74
     0
 49
-0.5
 74
     0
 49
0.5
 74
     0
 49
-0.5
 74
     0
  0
LTYPE
  5
1958
330
5
100
AcDbSymbolTableRecord
100
AcDbLinetypeTableRecord
  2
PHANTOMX2
 70
     0
  3
____________    ____    ____    ____________   
 72
    65
 73
     6
 40
5.0
 49
2.5
 74
     0
 49
-0.5
 74
     0
 49
0.5
 74
     0
 49
-0.5
 74
     0
 49
0.5
 74
     0
 49
-0.5
 74
     0
  0
LTYPE
  5
142A2
330
5
100
AcDbSymbolTableRecord
100
AcDbLinetypeTableRecord
  2
DASHEDX2
 70
     0
  3
____  ____  ____  ____  ____  ____  ____  ____ 
 72
    65
 73
     2
 40
1.5
 49
1.0
 74
     0
 49
-0.5
 74
     0
  0
ENDTAB
  0
TABLE
  2
LAYER
  5
2
102
{ACAD_XDICTIONARY
360
14053
102
}
330
0
100
AcDbSymbolTable
 70
     6
  0
LAYER
  5
F
330
2
100
AcDbSymbolTableRecord
100
AcDbLayerTableRecord
  2
0
 70
     0
 62
     7
  6
CONTINUOUS
  0
LAYER
  5
18F
330
2
100
AcDbSymbolTableRecord
100
AcDbLayerTableRecord
  2
ZISSEN1
 70
     0
 62
     7
  6
CONTINUOUS
  0
LAYER
  5
529
330
2
100
AcDbSymbolTableRecord
100
AcDbLayerTableRecord
  2
SUNPOU
 70
     0
 62
     1
  6
CONTINUOUS
  0
LAYER
  5
195A
330
2
100
AcDbSymbolTableRecord
100
AcDbLayerTableRecord
  2
CL1
 70
     0
 62
   210
  6
CENTERX2
  0
LAYER
  5
195C
330
2
100
AcDbSymbolTableRecord
100
AcDbLayerTableRecord
  2
SOUZOUSEN
 70
     0
 62
     5
  6
PHANTOMX2
  0
LAYER
  5
3A9B
330
2
100
AcDbSymbolTableRecord
100
AcDbLayerTableRecord
  2
DEFPOINTS
 70
     0
 62
     7
  6
CONTINUOUS
  0
ENDTAB
  0
TABLE
  2
STYLE
  5
3
330
0
100
AcDbSymbolTable
 70
     2
  0
STYLE
  5
10
330
3
100
AcDbSymbolTableRecord
100
AcDbTextStyleTableRecord
  2
STANDARD
 70
     0
 40
0.0
 41
1.0
 50
0.0
 71
     0
 42
3.0
  3
txt
  4
BigFont
  0
STYLE
  5
1960
330
3
100
AcDbSymbolTableRecord
100
AcDbTextStyleTableRecord
  2
ゴシック体
 70
     0
 40
0.0
 41
1.0
 50
0.0
 71
     0
 42
2.5
  3
MS Gothic.ttf
  4

1001
ACAD
1000
MS Gothic
1071
    32817
  0
ENDTAB
  0
TABLE
  2
VIEW
  5
6
330
0
100
AcDbSymbolTable
 70
     0
  0
ENDTAB
  0
TABLE
  2
UCS
  5
7
330
0
100
AcDbSymbolTable
 70
     0
  0
ENDTAB
  0
TABLE
  2
APPID
  5
9
330
0
100
AcDbSymbolTable
 70
     5
  0
APPID
  5
11
330
9
100
AcDbSymbolTableRecord
100
AcDbRegAppTableRecord
  2
ACAD
 70
     0
  0
APPID
  5
4005
330
9
100
AcDbSymbolTableRecord
100
AcDbRegAppTableRecord
  2
CONTENTTABDATA
 70
     0
  0
APPID
  5
4006
330
9
100
AcDbSymbolTableRecord
100
AcDbRegAppTableRecord
  2
CONTENTCURRENTTAB
 70
     0
  0
APPID
  5
477B
330
9
100
AcDbSymbolTableRecord
100
AcDbRegAppTableRecord
  2
CONTENTBLOCKDESCRIPTION
 70
     0
  0
APPID
  5
477C
330
9
100
AcDbSymbolTableRecord
100
AcDbRegAppTableRecord
  2
CONTENTBLOCKICON
 70
     0
  0
ENDTAB
  0
TABLE
  2
DIMSTYLE
  5
A
330
0
100
AcDbSymbolTable
 70
     2
  0
DIMSTYLE
105
1D
330
A
100
AcDbSymbolTableRecord
100
AcDbDimStyleTableRecord
  2
STANDARD
 70
     0
  3

  4

  5

  6

  7

 40
1.0
 41
0.18
 42
0.0625
 43
0.38
 44
0.18
 45
0.0
 46
0.0
 47
0.0
 48
0.0
140
0.18
141
0.09
142
0.0
143
25.4
144
1.0
145
0.0
146
1.0
147
0.09
 71
     0
 72
     0
 73
     1
 74
     1
 75
     0
 76
     0
 77
     0
 78
     0
170
     0
171
     2
172
     0
173
     0
174
     0
175
     0
176
     0
177
     0
178
     0
270
     2
271
     4
272
     4
273
     2
274
     2
340
10
275
     0
280
     0
281
     0
282
     0
283
     1
284
     0
285
     0
286
     0
287
     3
288
     0
  0
DIMSTYLE
105
52E
102
{ACAD_REACTORS
330
1C14A
330
1C157
330
1C167
330
1C1AA
330
1C1BA
330
1C1C7
330
1C1D6
330
1C1E3
330
1C26F
330
1C260
330
1C28E
330
1C4E9
330
1C4F6
330
1C524
330
1C533
330
1C575
102
}
330
A
100
AcDbSymbolTableRecord
100
AcDbDimStyleTableRecord
  2
標準スタイル
 70
     0
  3

  4

  5

  6

  7

 40
0.0
 41
3.0
 42
0.5
 43
0.5
 44
0.5
 45
0.0
 46
0.0
 47
0.0
 48
0.0
140
3.5
141
0.0
142
0.0
143
25.4
144
1.0
145
0.0
146
1.0
147
1.0
 71
     0
 72
     0
 73
     0
 74
     0
 75
     0
 76
     0
 77
     1
 78
     8
170
     0
171
     2
172
     1
173
     0
174
     0
175
     0
176
     1
177
     1
178
     1
270
     2
271
     2
272
     2
273
     2
274
     2
340
1960
275
     0
280
     0
281
     0
282
     0
283
     1
284
     8
285
     0
286
     0
287
     3
288
     0
  0
ENDTAB
  0
TABLE
  2
BLOCK_RECORD
  5
1
330
0
100
AcDbSymbolTable
 70
    16
  0
BLOCK_RECORD
  5
1A
102
{ACAD_XDICTIONARY
360
171B2
102
}
330
1
100
AcDbSymbolTableRecord
100
AcDbBlockTableRecord
  2
*MODEL_SPACE
  0
BLOCK_RECORD
  5
5D8E
102
{ACAD_XDICTIONARY
360
171B8
102
}
330
1
100
AcDbSymbolTableRecord
100
AcDbBlockTableRecord
  2
*PAPER_SPACE
  0
BLOCK_RECORD
  5
1C14B
330
1
100
AcDbSymbolTableRecord
100
AcDbBlockTableRecord
  2
*D0
  0
BLOCK_RECORD
  5
1C158
330
1
100
AcDbSymbolTableRecord
100
AcDbBlockTableRecord
  2
*D1
  0
BLOCK_RECORD
  5
1C168
330
1
100
AcDbSymbolTableRecord
100
AcDbBlockTableRecord
  2
*D2
  0
BLOCK_RECORD
  5
1C1AB
330
1
100
AcDbSymbolTableRecord
100
AcDbBlockTableRecord
  2
*D3
  0
BLOCK_RECORD
  5
1C1BB
330
1
100
AcDbSymbolTableRecord
100
AcDbBlockTableRecord
  2
*D4
  0
BLOCK_RECORD
  5
1C1C8
330
1
100
AcDbSymbolTableRecord
100
AcDbBlockTableRecord
  2
*D5
  0
BLOCK_RECORD
  5
1C1D7
330
1
100
AcDbSymbolTableRecord
100
AcDbBlockTableRecord
  2
*D6
  0
BLOCK_RECORD
  5
1C1E4
330
1
100
AcDbSymbolTableRecord
100
AcDbBlockTableRecord
  2
*D7
  0
BLOCK_RECORD
  5
1C261
330
1
100
AcDbSymbolTableRecord
100
AcDbBlockTableRecord
  2
*D8
  0
BLOCK_RECORD
  5
1C270
330
1
100
AcDbSymbolTableRecord
100
AcDbBlockTableRecord
  2
*D9
  0
BLOCK_RECORD
  5
1C28F
330
1
100
AcDbSymbolTableRecord
100
AcDbBlockTableRecord
  2
*D10
  0
BLOCK_RECORD
  5
1C4EA
330
1
100
AcDbSymbolTableRecord
100
AcDbBlockTableRecord
  2
*D11
  0
BLOCK_RECORD
  5
1C4F7
330
1
100
AcDbSymbolTableRecord
100
AcDbBlockTableRecord
  2
*D12
  0
BLOCK_RECORD
  5
1C525
330
1
100
AcDbSymbolTableRecord
100
AcDbBlockTableRecord
  2
*D13
  0
BLOCK_RECORD
  5
1C534
330
1
100
AcDbSymbolTableRecord
100
AcDbBlockTableRecord
  2
*D14
  0
BLOCK_RECORD
  5
1C576
330
1
100
AcDbSymbolTableRecord
100
AcDbBlockTableRecord
  2
*D15
  0
ENDTAB
  0
ENDSEC
  0
SECTION
  2
BLOCKS
  0
BLOCK
  5
1B
330
1A
100
AcDbEntity
  8
0
100
AcDbBlockBegin
  2
*MODEL_SPACE
 70
     0
 10
0.0
 20
0.0
 30
0.0
  3
*MODEL_SPACE
  1

  0
ENDBLK
  5
1C
330
1A
100
AcDbEntity
  8
0
100
AcDbBlockEnd
  0
BLOCK
  5
5E60
330
5D8E
100
AcDbEntity
 67
     1
  8
0
100
AcDbBlockBegin
  2
*PAPER_SPACE
 70
     0
 10
0.0
 20
0.0
 30
0.0
  3
*PAPER_SPACE
  1

  0
ENDBLK
  5
5E61
330
5D8E
100
AcDbEntity
 67
     1
  8
0
100
AcDbBlockEnd
  0
BLOCK
  5
1C155
330
1C14B
100
AcDbEntity
  8
0
 62
     4
100
AcDbBlockBegin
  2
*D0
 70
     1
 10
0.0
 20
0.0
 30
0.0
  3
*D0
  1

  0
LINE
  5
1C6CE
330
1C14B
100
AcDbEntity
  8
SUNPOU
 62
     1
100
AcDbLine
 10
-996.018055231363
 20
1656.253896217983
 30
0.0
 11
-996.018055231363
 21
1647.308141717386
 31
0.0
  0
LINE
  5
1C6CF
330
1C14B
100
AcDbEntity
  8
SUNPOU
 62
     1
100
AcDbLine
 10
-984.0180552313631
 20
1657.171636322124
 30
0.0
 11
-984.0180552313631
 21
1647.308141717386
 31
0.0
  0
LINE
  5
1C6D0
330
1C14B
100
AcDbEntity
  8
SUNPOU
 62
     1
100
AcDbLine
 10
-993.0180552313631
 20
1647.808141717385
 30
0.0
 11
-987.0180552313632
 21
1647.808141717385
 31
0.0
  0
SOLID
  5
1C6D1
330
1C14B
100
AcDbEntity
  8
SUNPOU
 62
     1
100
AcDbTrace
 10
-993.0180552313631
 20
1648.308141717385
 30
0.0
 11
-993.0180552313631
 21
1647.308141717386
 31
0.0
 12
-996.018055231363
 22
1647.808141717385
 32
0.0
 13
-996.018055231363
 23
1647.808141717385
 33
0.0
  0
SOLID
  5
1C6D2
330
1C14B
100
AcDbEntity
  8
SUNPOU
 62
     1
100
AcDbTrace
 10
-987.0180552313632
 20
1648.308141717385
 30
0.0
 11
-987.0180552313632
 21
1647.308141717386
 31
0.0
 12
-984.0180552313631
 22
1647.808141717385
 32
0.0
 13
-984.0180552313631
 23
1647.808141717385
 33
0.0
  0
MTEXT
  5
1C6D3
330
1C14B
100
AcDbEntity
  8
SUNPOU
 62
     1
100
AcDbMText
 10
-990.0180552313631
 20
1650.558141717385
 30
0.0
 40
3.5
 41
0.0
 71
     5
 72
     1
  1
\A1;12
1001
ACAD
1000
MTEXTBEGIN
1070
    73
1070
     1
1070
    44
1040
1.0
1070
    74
1070
     0
1000
MTEXTEND
  0
POINT
  5
1C6D4
330
1C14B
100
AcDbEntity
  8
DEFPOINTS
 62
     0
100
AcDbPoint
 10
-996.018055231363
 20
1656.753896217983
 30
0.0
  0
POINT
  5
1C6D5
330
1C14B
100
AcDbEntity
  8
DEFPOINTS
 62
     0
100
AcDbPoint
 10
-984.0180552313631
 20
1657.671636322124
 30
0.0
  0
POINT
  5
1C6D6
330
1C14B
100
AcDbEntity
  8
DEFPOINTS
 62
     0
100
AcDbPoint
 10
-984.0180552313631
 20
1647.808141717385
 30
0.0
  0
ENDBLK
  5
1C156
330
1C14B
100
AcDbEntity
  8
0
 62
     4
100
AcDbBlockEnd
  0
BLOCK
  5
1C162
330
1C158
100
AcDbEntity
  8
0
 62
     4
100
AcDbBlockBegin
  2
*D1
 70
     1
 10
0.0
 20
0.0
 30
0.0
  3
*D1
  1

  0
LINE
  5
1C614
330
1C158
100
AcDbEntity
  8
SUNPOU
 62
     1
100
AcDbLine
 10
-1008.018055231363
 20
1658.171636322125
 30
0.0
 11
-1008.018055231363
 21
1637.913383936063
 31
0.0
  0
LINE
  5
1C615
330
1C158
100
AcDbEntity
  8
SUNPOU
 62
     1
100
AcDbLine
 10
-984.0180552313631
 20
1656.671636322124
 30
0.0
 11
-984.0180552313631
 21
1637.913383936063
 31
0.0
  0
LINE
  5
1C616
330
1C158
100
AcDbEntity
  8
SUNPOU
 62
     1
100
AcDbLine
 10
-1005.018055231363
 20
1638.413383936063
 30
0.0
 11
-987.0180552313632
 21
1638.413383936063
 31
0.0
  0
SOLID
  5
1C617
330
1C158
100
AcDbEntity
  8
SUNPOU
 62
     1
100
AcDbTrace
 10
-1005.018055231363
 20
1638.913383936063
 30
0.0
 11
-1005.018055231363
 21
1637.913383936063
 31
0.0
 12
-1008.018055231363
 22
1638.413383936063
 32
0.0
 13
-1008.018055231363
 23
1638.413383936063
 33
0.0
  0
SOLID
  5
1C618
330
1C158
100
AcDbEntity
  8
SUNPOU
 62
     1
100
AcDbTrace
 10
-987.0180552313632
 20
1638.913383936063
 30
0.0
 11
-987.0180552313632
 21
1637.913383936063
 31
0.0
 12
-984.0180552313631
 22
1638.413383936063
 32
0.0
 13
-984.0180552313631
 23
1638.413383936063
 33
0.0
  0
MTEXT
  5
1C619
330
1C158
100
AcDbEntity
  8
SUNPOU
 62
     1
100
AcDbMText
 10
-996.0180552313632
 20
1641.163383936063
 30
0.0
 40
3.5
 41
0.0
 71
     5
 72
     1
  1
\A1;24
1001
ACAD
1000
MTEXTBEGIN
1070
    73
1070
     1
1070
    44
1040
1.0
1070
    74
1070
     0
1000
MTEXTEND
  0
POINT
  5
1C61A
330
1C158
100
AcDbEntity
  8
DEFPOINTS
 62
     0
100
AcDbPoint
 10
-1008.018055231363
 20
1658.671636322124
 30
0.0
  0
POINT
  5
1C61B
330
1C158
100
AcDbEntity
  8
DEFPOINTS
 62
     0
100
AcDbPoint
 10
-984.0180552313631
 20
1657.171636322124
 30
0.0
  0
POINT
  5
1C61C
330
1C158
100
AcDbEntity
  8
DEFPOINTS
 62
     0
100
AcDbPoint
 10
-984.0180552313631
 20
1638.413383936063
 30
0.0
  0
ENDBLK
  5
1C163
330
1C158
100
AcDbEntity
  8
0
 62
     4
100
AcDbBlockEnd
  0
BLOCK
  5
1C174
330
1C168
100
AcDbEntity
  8
0
 62
     4
100
AcDbBlockBegin
  2
*D2
 70
     1
 10
0.0
 20
0.0
 30
0.0
  3
*D2
  1

  0
LINE
  5
1C71C
330
1C168
100
AcDbEntity
  8
SUNPOU
 62
     1
100
AcDbLine
 10
-1007.518055231363
 20
1657.671636322124
 30
0.0
 11
-1017.994446730233
 21
1657.671636322124
 31
0.0
  0
LINE
  5
1C71D
330
1C168
100
AcDbEntity
  8
SUNPOU
 62
     1
100
AcDbLine
 10
-999.0193383207969
 20
1660.171636322125
 30
0.0
 11
-1017.994446730233
 21
1660.171636322125
 31
0.0
  0
LINE
  5
1C71E
330
1C168
100
AcDbEntity
  8
SUNPOU
 62
     1
100
AcDbLine
 10
-1017.494446730233
 20
1654.671636322125
 30
0.0
 11
-1017.494446730233
 21
1651.671636322125
 31
0.0
  0
LINE
  5
1C71F
330
1C168
100
AcDbEntity
  8
SUNPOU
 62
     1
100
AcDbLine
 10
-1017.494446730233
 20
1663.171636322125
 30
0.0
 11
-1017.494446730233
 21
1666.171636322125
 31
0.0
  0
MTEXT
  5
1C720
330
1C168
100
AcDbEntity
  8
SUNPOU
 62
     1
100
AcDbMText
 10
-1020.926505713844
 20
1653.599474832279
 30
0.0
 40
3.5
 41
0.0
 71
     5
 72
     1
  1
\A1;2.5
 11
0.0000000000000001
 21
1.0
 31
0.0
  0
LINE
  5
1C721
330
1C168
100
AcDbEntity
  8
SUNPOU
 62
     1
100
AcDbLine
 10
-1017.494446730233
 20
1657.671636322124
 30
0.0
 11
-1017.494446730233
 21
1660.171636322125
 31
0.0
  0
SOLID
  5
1C722
330
1C168
100
AcDbEntity
  8
SUNPOU
 62
     1
100
AcDbTrace
 10
-1017.994446730233
 20
1654.671636322125
 30
0.0
 11
-1016.994446730233
 21
1654.671636322125
 31
0.0
 12
-1017.494446730233
 22
1657.671636322124
 32
0.0
 13
-1017.494446730233
 23
1657.671636322124
 33
0.0
  0
SOLID
  5
1C723
330
1C168
100
AcDbEntity
  8
SUNPOU
 62
     1
100
AcDbTrace
 10
-1017.994446730233
 20
1663.171636322125
 30
0.0
 11
-1016.994446730233
 21
1663.171636322125
 31
0.0
 12
-1017.494446730233
 22
1660.171636322125
 32
0.0
 13
-1017.494446730233
 23
1660.171636322125
 33
0.0
  0
POINT
  5
1C724
330
1C168
100
AcDbEntity
  8
DEFPOINTS
 62
     0
100
AcDbPoint
 10
-1007.018055231363
 20
1657.671636322124
 30
0.0
  0
POINT
  5
1C725
330
1C168
100
AcDbEntity
  8
DEFPOINTS
 62
     0
100
AcDbPoint
 10
-998.5193383207969
 20
1660.171636322125
 30
0.0
  0
POINT
  5
1C726
330
1C168
100
AcDbEntity
  8
DEFPOINTS
 62
     0
100
AcDbPoint
 10
-1017.494446730233
 20
1660.171636322125
 30
0.0
  0
ENDBLK
  5
1C175
330
1C168
100
AcDbEntity
  8
0
 62
     4
100
AcDbBlockEnd
  0
BLOCK
  5
1C1B7
330
1C1AB
100
AcDbEntity
  8
0
 62
     4
100
AcDbBlockBegin
  2
*D3
 70
     1
 10
0.0
 20
0.0
 30
0.0
  3
*D3
  1

  0
LINE
  5
1C600
330
1C1AB
100
AcDbEntity
  8
SUNPOU
 62
     1
100
AcDbLine
 10
-997.7680552313632
 20
1728.171636322125
 30
0.0
 11
-997.7680552313632
 21
1736.251636322125
 31
0.0
  0
LINE
  5
1C601
330
1C1AB
100
AcDbEntity
  8
SUNPOU
 62
     1
100
AcDbLine
 10
-994.2680552313632
 20
1728.171636322125
 30
0.0
 11
-994.2680552313632
 21
1736.251636322125
 31
0.0
  0
LINE
  5
1C602
330
1C1AB
100
AcDbEntity
  8
SUNPOU
 62
     1
100
AcDbLine
 10
-1000.768055231363
 20
1735.751636322125
 30
0.0
 11
-1003.768055231363
 21
1735.751636322125
 31
0.0
  0
LINE
  5
1C603
330
1C1AB
100
AcDbEntity
  8
SUNPOU
 62
     1
100
AcDbLine
 10
-991.2680552313631
 20
1735.751636322125
 30
0.0
 11
-979.2680552313631
 21
1735.751636322125
 31
0.0
  0
LINE
  5
1C604
330
1C1AB
100
AcDbEntity
  8
SUNPOU
 62
     1
100
AcDbLine
 10
-997.7680552313632
 20
1735.751636322125
 30
0.0
 11
-994.2680552313632
 21
1735.751636322125
 31
0.0
  0
SOLID
  5
1C605
330
1C1AB
100
AcDbEntity
  8
SUNPOU
 62
     1
100
AcDbTrace
 10
-1000.768055231363
 20
1736.251636322125
 30
0.0
 11
-1000.768055231363
 21
1735.251636322125
 31
0.0
 12
-997.7680552313632
 22
1735.751636322125
 32
0.0
 13
-997.7680552313632
 23
1735.751636322125
 33
0.0
  0
SOLID
  5
1C606
330
1C1AB
100
AcDbEntity
  8
SUNPOU
 62
     1
100
AcDbTrace
 10
-991.2680552313631
 20
1736.251636322125
 30
0.0
 11
-991.2680552313631
 21
1735.251636322125
 31
0.0
 12
-994.2680552313632
 22
1735.751636322125
 32
0.0
 13
-994.2680552313632
 23
1735.751636322125
 33
0.0
  0
MTEXT
  5
1C607
330
1C1AB
100
AcDbEntity
  8
SUNPOU
 62
     1
100
AcDbMText
 10
-983.7680552313631
 20
1738.501636322125
 30
0.0
 40
3.5
 41
0.0
 71
     5
 72
     1
  1
\A1;3.5
1001
ACAD
1000
MTEXTBEGIN
1070
    73
1070
     1
1070
    44
1040
1.0
1070
    74
1070
     0
1000
MTEXTEND
  0
POINT
  5
1C608
330
1C1AB
100
AcDbEntity
  8
DEFPOINTS
 62
     0
100
AcDbPoint
 10
-997.7680552313632
 20
1727.671636322125
 30
0.0
  0
POINT
  5
1C609
330
1C1AB
100
AcDbEntity
  8
DEFPOINTS
 62
     0
100
AcDbPoint
 10
-994.2680552313632
 20
1727.671636322125
 30
0.0
  0
POINT
  5
1C60A
330
1C1AB
100
AcDbEntity
  8
DEFPOINTS
 62
     0
100
AcDbPoint
 10
-994.2680552313632
 20
1735.751636322125
 30
0.0
  0
ENDBLK
  5
1C1B8
330
1C1AB
100
AcDbEntity
  8
0
 62
     4
100
AcDbBlockEnd
  0
BLOCK
  5
1C1C5
330
1C1BB
100
AcDbEntity
  8
0
 62
     4
100
AcDbBlockBegin
  2
*D4
 70
     1
 10
0.0
 20
0.0
 30
0.0
  3
*D4
  1

  0
LINE
  5
1C5E3
330
1C1BB
100
AcDbEntity
  8
SUNPOU
 62
     1
100
AcDbLine
 10
-1118.518055231363
 20
1657.671636322126
 30
0.0
 11
-1132.750050730634
 21
1657.671636322126
 31
0.0
  0
LINE
  5
1C5E4
330
1C1BB
100
AcDbEntity
  8
SUNPOU
 62
     1
100
AcDbLine
 10
-1118.518055231363
 20
1727.671636322125
 30
0.0
 11
-1132.750050730634
 21
1727.671636322125
 31
0.0
  0
LINE
  5
1C5E5
330
1C1BB
100
AcDbEntity
  8
SUNPOU
 62
     1
100
AcDbLine
 10
-1132.250050730634
 20
1660.671636322126
 30
0.0
 11
-1132.250050730634
 21
1724.671636322125
 31
0.0
  0
SOLID
  5
1C5E6
330
1C1BB
100
AcDbEntity
  8
SUNPOU
 62
     1
100
AcDbTrace
 10
-1132.750050730634
 20
1660.671636322126
 30
0.0
 11
-1131.750050730634
 21
1660.671636322126
 31
0.0
 12
-1132.250050730634
 22
1657.671636322126
 32
0.0
 13
-1132.250050730634
 23
1657.671636322126
 33
0.0
  0
SOLID
  5
1C5E7
330
1C1BB
100
AcDbEntity
  8
SUNPOU
 62
     1
100
AcDbTrace
 10
-1132.750050730634
 20
1724.671636322125
 30
0.0
 11
-1131.750050730634
 21
1724.671636322125
 31
0.0
 12
-1132.250050730634
 22
1727.671636322125
 32
0.0
 13
-1132.250050730634
 23
1727.671636322125
 33
0.0
  0
MTEXT
  5
1C5E8
330
1C1BB
100
AcDbEntity
  8
SUNPOU
 62
     1
100
AcDbMText
 10
-1135.000050730634
 20
1692.671636322125
 30
0.0
 40
3.5
 41
0.0
 71
     5
 72
     1
  1
\A1;70
 11
0.0000000000000001
 21
1.0
 31
0.0
1001
ACAD
1000
MTEXTBEGIN
1070
    73
1070
     1
1070
    44
1040
1.0
1070
    74
1070
     0
1000
MTEXTEND
  0
POINT
  5
1C5E9
330
1C1BB
100
AcDbEntity
  8
DEFPOINTS
 62
     0
100
AcDbPoint
 10
-1118.018055231363
 20
1657.671636322126
 30
0.0
  0
POINT
  5
1C5EA
330
1C1BB
100
AcDbEntity
  8
DEFPOINTS
 62
     0
100
AcDbPoint
 10
-1118.018055231363
 20
1727.671636322125
 30
0.0
  0
POINT
  5
1C5EB
330
1C1BB
100
AcDbEntity
  8
DEFPOINTS
 62
     0
100
AcDbPoint
 10
-1132.250050730634
 20
1727.671636322125
 30
0.0
  0
ENDBLK
  5
1C1C6
330
1C1BB
100
AcDbEntity
  8
0
 62
     4
100
AcDbBlockEnd
  0
BLOCK
  5
1C1D4
330
1C1C8
100
AcDbEntity
  8
0
 62
     4
100
AcDbBlockBegin
  2
*D5
 70
     1
 10
0.0
 20
0.0
 30
0.0
  3
*D5
  1

  0
LINE
  5
1C4A0
330
1C1C8
100
AcDbEntity
  8
SUNPOU
 62
     1
100
AcDbLine
 10
-1111.765886285496
 20
1728.171636322125
 30
0.0
 11
-1111.765886285496
 21
1736.386257398453
 31
0.0
  0
LINE
  5
1C4A1
330
1C1C8
100
AcDbEntity
  8
SUNPOU
 62
     1
100
AcDbLine
 10
-1108.265886285496
 20
1728.171636322125
 30
0.0
 11
-1108.265886285496
 21
1736.386257398453
 31
0.0
  0
LINE
  5
1C4A2
330
1C1C8
100
AcDbEntity
  8
SUNPOU
 62
     1
100
AcDbLine
 10
-1114.765886285496
 20
1735.886257398453
 30
0.0
 11
-1117.765886285496
 21
1735.886257398453
 31
0.0
  0
LINE
  5
1C4A3
330
1C1C8
100
AcDbEntity
  8
SUNPOU
 62
     1
100
AcDbLine
 10
-1105.265886285496
 20
1735.886257398453
 30
0.0
 11
-1093.265886285496
 21
1735.886257398453
 31
0.0
  0
LINE
  5
1C4A4
330
1C1C8
100
AcDbEntity
  8
SUNPOU
 62
     1
100
AcDbLine
 10
-1111.765886285496
 20
1735.886257398453
 30
0.0
 11
-1108.265886285496
 21
1735.886257398453
 31
0.0
  0
SOLID
  5
1C4A5
330
1C1C8
100
AcDbEntity
  8
SUNPOU
 62
     1
100
AcDbTrace
 10
-1114.765886285496
 20
1736.386257398453
 30
0.0
 11
-1114.765886285496
 21
1735.386257398453
 31
0.0
 12
-1111.765886285496
 22
1735.886257398453
 32
0.0
 13
-1111.765886285496
 23
1735.886257398453
 33
0.0
  0
SOLID
  5
1C4A6
330
1C1C8
100
AcDbEntity
  8
SUNPOU
 62
     1
100
AcDbTrace
 10
-1105.265886285496
 20
1736.386257398453
 30
0.0
 11
-1105.265886285496
 21
1735.386257398453
 31
0.0
 12
-1108.265886285496
 22
1735.886257398453
 32
0.0
 13
-1108.265886285496
 23
1735.886257398453
 33
0.0
  0
MTEXT
  5
1C4A7
330
1C1C8
100
AcDbEntity
  8
SUNPOU
 62
     1
100
AcDbMText
 10
-1097.765886285497
 20
1738.636257398453
 30
0.0
 40
3.5
 41
0.0
 71
     5
 72
     1
  1
\A1;3.5
1001
ACAD
1000
MTEXTBEGIN
1070
    73
1070
     1
1070
    44
1040
1.0
1070
    74
1070
     0
1000
MTEXTEND
  0
POINT
  5
1C4A8
330
1C1C8
100
AcDbEntity
  8
DEFPOINTS
 62
     0
100
AcDbPoint
 10
-1111.765886285496
 20
1727.671636322125
 30
0.0
  0
POINT
  5
1C4A9
330
1C1C8
100
AcDbEntity
  8
DEFPOINTS
 62
     0
100
AcDbPoint
 10
-1108.265886285496
 20
1727.671636322125
 30
0.0
  0
POINT
  5
1C4AA
330
1C1C8
100
AcDbEntity
  8
DEFPOINTS
 62
     0
100
AcDbPoint
 10
-1108.265886285496
 20
1735.886257398453
 30
0.0
  0
ENDBLK
  5
1C1D5
330
1C1C8
100
AcDbEntity
  8
0
 62
     4
100
AcDbBlockEnd
  0
BLOCK
  5
1C1E1
330
1C1D7
100
AcDbEntity
  8
0
 62
     4
100
AcDbBlockBegin
  2
*D6
 70
     1
 10
0.0
 20
0.0
 30
0.0
  3
*D6
  1

  0
LINE
  5
1C68D
330
1C1D7
100
AcDbEntity
  8
SUNPOU
 62
     1
100
AcDbLine
 10
-1118.018055231363
 20
1657.171636322126
 30
0.0
 11
-1118.018055231363
 21
1647.145060386185
 31
0.0
  0
LINE
  5
1C68E
330
1C1D7
100
AcDbEntity
  8
SUNPOU
 62
     1
100
AcDbLine
 10
-1110.015886285496
 20
1656.253896217983
 30
0.0
 11
-1110.015886285496
 21
1647.145060386185
 31
0.0
  0
LINE
  5
1C68F
330
1C1D7
100
AcDbEntity
  8
SUNPOU
 62
     1
100
AcDbLine
 10
-1115.018055231363
 20
1647.645060386184
 30
0.0
 11
-1113.015886285497
 21
1647.645060386184
 31
0.0
  0
SOLID
  5
1C690
330
1C1D7
100
AcDbEntity
  8
SUNPOU
 62
     1
100
AcDbTrace
 10
-1115.018055231363
 20
1648.145060386184
 30
0.0
 11
-1115.018055231363
 21
1647.145060386185
 31
0.0
 12
-1118.018055231363
 22
1647.645060386184
 32
0.0
 13
-1118.018055231363
 23
1647.645060386184
 33
0.0
  0
SOLID
  5
1C691
330
1C1D7
100
AcDbEntity
  8
SUNPOU
 62
     1
100
AcDbTrace
 10
-1113.015886285497
 20
1648.145060386184
 30
0.0
 11
-1113.015886285497
 21
1647.145060386185
 31
0.0
 12
-1110.015886285496
 22
1647.645060386184
 32
0.0
 13
-1110.015886285496
 23
1647.645060386184
 33
0.0
  0
MTEXT
  5
1C692
330
1C1D7
100
AcDbEntity
  8
SUNPOU
 62
     1
100
AcDbMText
 10
-1114.01697075843
 20
1650.395060386184
 30
0.0
 40
3.5
 41
0.0
 71
     5
 72
     1
  1
\A1;8
1001
ACAD
1000
MTEXTBEGIN
1070
    73
1070
     1
1070
    44
1040
1.0
1070
    74
1070
     0
1000
MTEXTEND
  0
POINT
  5
1C693
330
1C1D7
100
AcDbEntity
  8
DEFPOINTS
 62
     0
100
AcDbPoint
 10
-1118.018055231363
 20
1657.671636322126
 30
0.0
  0
POINT
  5
1C694
330
1C1D7
100
AcDbEntity
  8
DEFPOINTS
 62
     0
100
AcDbPoint
 10
-1110.015886285496
 20
1656.753896217983
 30
0.0
  0
POINT
  5
1C695
330
1C1D7
100
AcDbEntity
  8
DEFPOINTS
 62
     0
100
AcDbPoint
 10
-1110.015886285496
 20
1647.645060386184
 30
0.0
  0
ENDBLK
  5
1C1E2
330
1C1D7
100
AcDbEntity
  8
0
 62
     4
100
AcDbBlockEnd
  0
BLOCK
  5
1C1EE
330
1C1E4
100
AcDbEntity
  8
0
 62
     4
100
AcDbBlockBegin
  2
*D7
 70
     1
 10
0.0
 20
0.0
 30
0.0
  3
*D7
  1

  0
LINE
  5
1C727
330
1C1E4
100
AcDbEntity
  8
SUNPOU
 62
     1
100
AcDbLine
 10
-1110.015886285496
 20
1656.253896217983
 30
0.0
 11
-1110.015886285496
 21
1647.145060386185
 31
0.0
  0
LINE
  5
1C728
330
1C1E4
100
AcDbEntity
  8
SUNPOU
 62
     1
100
AcDbLine
 10
-1052.018055231364
 20
1664.671636322125
 30
0.0
 11
-1052.018055231364
 21
1647.145060386185
 31
0.0
  0
LINE
  5
1C729
330
1C1E4
100
AcDbEntity
  8
SUNPOU
 62
     1
100
AcDbLine
 10
-1107.015886285496
 20
1647.645060386184
 30
0.0
 11
-1055.018055231364
 21
1647.645060386184
 31
0.0
  0
SOLID
  5
1C72A
330
1C1E4
100
AcDbEntity
  8
SUNPOU
 62
     1
100
AcDbTrace
 10
-1107.015886285496
 20
1648.145060386184
 30
0.0
 11
-1107.015886285496
 21
1647.145060386185
 31
0.0
 12
-1110.015886285496
 22
1647.645060386184
 32
0.0
 13
-1110.015886285496
 23
1647.645060386184
 33
0.0
  0
SOLID
  5
1C72B
330
1C1E4
100
AcDbEntity
  8
SUNPOU
 62
     1
100
AcDbTrace
 10
-1055.018055231364
 20
1648.145060386184
 30
0.0
 11
-1055.018055231364
 21
1647.145060386185
 31
0.0
 12
-1052.018055231364
 22
1647.645060386184
 32
0.0
 13
-1052.018055231364
 23
1647.645060386184
 33
0.0
  0
MTEXT
  5
1C72C
330
1C1E4
100
AcDbEntity
  8
SUNPOU
 62
     1
100
AcDbMText
 10
-1081.01697075843
 20
1650.395060386184
 30
0.0
 40
3.5
 41
0.0
 71
     5
 72
     1
  1
\A1;58
  0
POINT
  5
1C72D
330
1C1E4
100
AcDbEntity
  8
DEFPOINTS
 62
     0
100
AcDbPoint
 10
-1110.015886285496
 20
1656.753896217983
 30
0.0
  0
POINT
  5
1C72E
330
1C1E4
100
AcDbEntity
  8
DEFPOINTS
 62
     0
100
AcDbPoint
 10
-1052.018055231364
 20
1665.171636322125
 30
0.0
  0
POINT
  5
1C72F
330
1C1E4
100
AcDbEntity
  8
DEFPOINTS
 62
     0
100
AcDbPoint
 10
-1052.018055231364
 20
1647.645060386184
 30
0.0
  0
ENDBLK
  5
1C1EF
330
1C1E4
100
AcDbEntity
  8
0
 62
     4
100
AcDbBlockEnd
  0
BLOCK
  5
1C26D
330
1C261
100
AcDbEntity
  8
0
 62
     4
100
AcDbBlockBegin
  2
*D8
 70
     1
 10
0.0
 20
0.0
 30
0.0
  3
*D8
  1

  0
LINE
  5
1C730
330
1C261
100
AcDbEntity
  8
SUNPOU
 62
     1
100
AcDbLine
 10
-1105.518055232977
 20
1657.671636322126
 30
0.0
 11
-1042.507403568306
 21
1657.671636322126
 31
0.0
  0
LINE
  5
1C731
330
1C261
100
AcDbEntity
  8
SUNPOU
 62
     1
100
AcDbLine
 10
-1106.941246472416
 20
1660.171636322125
 30
0.0
 11
-1042.507403568306
 21
1660.171636322125
 31
0.0
  0
LINE
  5
1C732
330
1C261
100
AcDbEntity
  8
SUNPOU
 62
     1
100
AcDbLine
 10
-1043.007403568306
 20
1654.671636322125
 30
0.0
 11
-1043.007403568306
 21
1651.671636322125
 31
0.0
  0
LINE
  5
1C733
330
1C261
100
AcDbEntity
  8
SUNPOU
 62
     1
100
AcDbLine
 10
-1043.007403568306
 20
1663.171636322125
 30
0.0
 11
-1043.007403568306
 21
1666.171636322125
 31
0.0
  0
MTEXT
  5
1C734
330
1C261
100
AcDbEntity
  8
SUNPOU
 62
     1
100
AcDbMText
 10
-1046.163574590204
 20
1653.478864704656
 30
0.0
 40
3.5
 41
0.0
 71
     5
 72
     1
  1
\A1;2.5
 11
0.0000000000000001
 21
1.0
 31
0.0
  0
LINE
  5
1C735
330
1C261
100
AcDbEntity
  8
SUNPOU
 62
     1
100
AcDbLine
 10
-1043.007403568306
 20
1657.671636322126
 30
0.0
 11
-1043.007403568306
 21
1660.171636322125
 31
0.0
  0
SOLID
  5
1C736
330
1C261
100
AcDbEntity
  8
SUNPOU
 62
     1
100
AcDbTrace
 10
-1043.507403568306
 20
1654.671636322125
 30
0.0
 11
-1042.507403568306
 21
1654.671636322125
 31
0.0
 12
-1043.007403568306
 22
1657.671636322126
 32
0.0
 13
-1043.007403568306
 23
1657.671636322126
 33
0.0
  0
SOLID
  5
1C737
330
1C261
100
AcDbEntity
  8
SUNPOU
 62
     1
100
AcDbTrace
 10
-1043.507403568306
 20
1663.171636322125
 30
0.0
 11
-1042.507403568306
 21
1663.171636322125
 31
0.0
 12
-1043.007403568306
 22
1660.171636322125
 32
0.0
 13
-1043.007403568306
 23
1660.171636322125
 33
0.0
  0
POINT
  5
1C738
330
1C261
100
AcDbEntity
  8
DEFPOINTS
 62
     0
100
AcDbPoint
 10
-1106.018055232977
 20
1657.671636322126
 30
0.0
  0
POINT
  5
1C739
330
1C261
100
AcDbEntity
  8
DEFPOINTS
 62
     0
100
AcDbPoint
 10
-1107.441246472416
 20
1660.171636322125
 30
0.0
  0
POINT
  5
1C73A
330
1C261
100
AcDbEntity
  8
DEFPOINTS
 62
     0
100
AcDbPoint
 10
-1043.007403568306
 20
1660.171636322125
 30
0.0
  0
ENDBLK
  5
1C26E
330
1C261
100
AcDbEntity
  8
0
 62
     4
100
AcDbBlockEnd
  0
BLOCK
  5
1C27A
330
1C270
100
AcDbEntity
  8
0
 62
     4
100
AcDbBlockBegin
  2
*D9
 70
     1
 10
0.0
 20
0.0
 30
0.0
  3
*D9
  1

  0
LINE
  5
1C73B
330
1C270
100
AcDbEntity
  8
SUNPOU
 62
     1
100
AcDbLine
 10
-1106.941246472416
 20
1660.171636322125
 30
0.0
 11
-1042.507403568306
 21
1660.171636322125
 31
0.0
  0
LINE
  5
1C73C
330
1C270
100
AcDbEntity
  8
SUNPOU
 62
     1
100
AcDbLine
 10
-1106.765886285496
 20
1725.171636322125
 30
0.0
 11
-1042.507403568306
 21
1725.171636322125
 31
0.0
  0
LINE
  5
1C73D
330
1C270
100
AcDbEntity
  8
SUNPOU
 62
     1
100
AcDbLine
 10
-1043.007403568306
 20
1663.171636322125
 30
0.0
 11
-1043.007403568306
 21
1722.171636322124
 31
0.0
  0
SOLID
  5
1C73E
330
1C270
100
AcDbEntity
  8
SUNPOU
 62
     1
100
AcDbTrace
 10
-1043.507403568306
 20
1663.171636322125
 30
0.0
 11
-1042.507403568306
 21
1663.171636322125
 31
0.0
 12
-1043.007403568306
 22
1660.171636322125
 32
0.0
 13
-1043.007403568306
 23
1660.171636322125
 33
0.0
  0
SOLID
  5
1C73F
330
1C270
100
AcDbEntity
  8
SUNPOU
 62
     1
100
AcDbTrace
 10
-1043.507403568306
 20
1722.171636322124
 30
0.0
 11
-1042.507403568306
 21
1722.171636322124
 31
0.0
 12
-1043.007403568306
 22
1725.171636322125
 32
0.0
 13
-1043.007403568306
 23
1725.171636322125
 33
0.0
  0
MTEXT
  5
1C740
330
1C270
100
AcDbEntity
  8
SUNPOU
 62
     1
100
AcDbMText
 10
-1045.757403568306
 20
1692.671636322125
 30
0.0
 40
3.5
 41
0.0
 71
     5
 72
     1
  1
\A1;65
 11
0.0000000000000001
 21
1.0
 31
0.0
  0
POINT
  5
1C741
330
1C270
100
AcDbEntity
  8
DEFPOINTS
 62
     0
100
AcDbPoint
 10
-1107.441246472416
 20
1660.171636322125
 30
0.0
  0
POINT
  5
1C742
330
1C270
100
AcDbEntity
  8
DEFPOINTS
 62
     0
100
AcDbPoint
 10
-1107.265886285496
 20
1725.171636322125
 30
0.0
  0
POINT
  5
1C743
330
1C270
100
AcDbEntity
  8
DEFPOINTS
 62
     0
100
AcDbPoint
 10
-1043.007403568306
 20
1725.171636322125
 30
0.0
  0
ENDBLK
  5
1C27B
330
1C270
100
AcDbEntity
  8
0
 62
     4
100
AcDbBlockEnd
  0
BLOCK
  5
1C29E
330
1C28F
100
AcDbEntity
  8
0
 62
     4
100
AcDbBlockBegin
  2
*D10
 70
     1
 10
0.0
 20
0.0
 30
0.0
  3
*D10
  1

  0
LINE
  5
1C744
330
1C28F
100
AcDbEntity
  8
SUNPOU
 62
     1
100
AcDbLine
 10
-1106.265886285496
 20
1725.171636322125
 30
0.0
 11
-1042.507403568306
 21
1725.171636322125
 31
0.0
  0
LINE
  5
1C745
330
1C28F
100
AcDbEntity
  8
SUNPOU
 62
     1
100
AcDbLine
 10
-1105.518055231363
 20
1727.671636322125
 30
0.0
 11
-1042.507403568306
 21
1727.671636322125
 31
0.0
  0
LINE
  5
1C746
330
1C28F
100
AcDbEntity
  8
SUNPOU
 62
     1
100
AcDbLine
 10
-1043.007403568306
 20
1722.171636322124
 30
0.0
 11
-1043.007403568306
 21
1719.171636322124
 31
0.0
  0
LINE
  5
1C747
330
1C28F
100
AcDbEntity
  8
SUNPOU
 62
     1
100
AcDbLine
 10
-1043.007403568306
 20
1730.671636322125
 30
0.0
 11
-1043.007403568306
 21
1733.671636322125
 31
0.0
  0
MTEXT
  5
1C748
330
1C28F
100
AcDbEntity
  8
SUNPOU
 62
     1
100
AcDbMText
 10
-1046.335920712434
 20
1733.473283355286
 30
0.0
 40
3.5
 41
0.0
 71
     5
 72
     1
  1
\A1;2.5
 11
0.0000000000000001
 21
1.0
 31
0.0
  0
LINE
  5
1C749
330
1C28F
100
AcDbEntity
  8
SUNPOU
 62
     1
100
AcDbLine
 10
-1043.007403568306
 20
1725.171636322125
 30
0.0
 11
-1043.007403568306
 21
1727.671636322125
 31
0.0
  0
SOLID
  5
1C74A
330
1C28F
100
AcDbEntity
  8
SUNPOU
 62
     1
100
AcDbTrace
 10
-1043.507403568306
 20
1722.171636322124
 30
0.0
 11
-1042.507403568306
 21
1722.171636322124
 31
0.0
 12
-1043.007403568306
 22
1725.171636322125
 32
0.0
 13
-1043.007403568306
 23
1725.171636322125
 33
0.0
  0
SOLID
  5
1C74B
330
1C28F
100
AcDbEntity
  8
SUNPOU
 62
     1
100
AcDbTrace
 10
-1043.507403568306
 20
1730.671636322125
 30
0.0
 11
-1042.507403568306
 21
1730.671636322125
 31
0.0
 12
-1043.007403568306
 22
1727.671636322125
 32
0.0
 13
-1043.007403568306
 23
1727.671636322125
 33
0.0
  0
POINT
  5
1C74C
330
1C28F
100
AcDbEntity
  8
DEFPOINTS
 62
     0
100
AcDbPoint
 10
-1106.765886285496
 20
1725.171636322125
 30
0.0
  0
POINT
  5
1C74D
330
1C28F
100
AcDbEntity
  8
DEFPOINTS
 62
     0
100
AcDbPoint
 10
-1106.018055231363
 20
1727.671636322125
 30
0.0
  0
POINT
  5
1C74E
330
1C28F
100
AcDbEntity
  8
DEFPOINTS
 62
     0
100
AcDbPoint
 10
-1043.007403568306
 20
1727.671636322125
 30
0.0
  0
ENDBLK
  5
1C29F
330
1C28F
100
AcDbEntity
  8
0
 62
     4
100
AcDbBlockEnd
  0
BLOCK
  5
1C4F4
330
1C4EA
100
AcDbEntity
  8
0
100
AcDbBlockBegin
  2
*D11
 70
     1
 10
0.0
 20
0.0
 30
0.0
  3
*D11
  1

  0
LINE
  5
1C74F
330
1C4EA
100
AcDbEntity
  8
SUNPOU
 62
     1
100
AcDbLine
 10
-999.5193383207968
 20
1660.171636322125
 30
0.0
 11
-1017.994446730233
 21
1660.171636322125
 31
0.0
  0
LINE
  5
1C750
330
1C4EA
100
AcDbEntity
  8
SUNPOU
 62
     1
100
AcDbLine
 10
-999.0390911791148
 20
1725.171636322125
 30
0.0
 11
-1017.994446730233
 21
1725.171636322125
 31
0.0
  0
LINE
  5
1C751
330
1C4EA
100
AcDbEntity
  8
SUNPOU
 62
     1
100
AcDbLine
 10
-1017.494446730233
 20
1663.171636322125
 30
0.0
 11
-1017.494446730233
 21
1722.171636322124
 31
0.0
  0
SOLID
  5
1C752
330
1C4EA
100
AcDbEntity
  8
SUNPOU
 62
     1
100
AcDbTrace
 10
-1017.994446730233
 20
1663.171636322125
 30
0.0
 11
-1016.994446730233
 21
1663.171636322125
 31
0.0
 12
-1017.494446730233
 22
1660.171636322125
 32
0.0
 13
-1017.494446730233
 23
1660.171636322125
 33
0.0
  0
SOLID
  5
1C753
330
1C4EA
100
AcDbEntity
  8
SUNPOU
 62
     1
100
AcDbTrace
 10
-1017.994446730233
 20
1722.171636322124
 30
0.0
 11
-1016.994446730233
 21
1722.171636322124
 31
0.0
 12
-1017.494446730233
 22
1725.171636322125
 32
0.0
 13
-1017.494446730233
 23
1725.171636322125
 33
0.0
  0
MTEXT
  5
1C754
330
1C4EA
100
AcDbEntity
  8
SUNPOU
 62
     1
100
AcDbMText
 10
-1020.244446730233
 20
1692.671636322125
 30
0.0
 40
3.5
 41
0.0
 71
     5
 72
     1
  1
\A1;65
 11
0.0000000000000001
 21
1.0
 31
0.0
  0
POINT
  5
1C755
330
1C4EA
100
AcDbEntity
  8
DEFPOINTS
 62
     0
100
AcDbPoint
 10
-999.0193383207969
 20
1660.171636322125
 30
0.0
  0
POINT
  5
1C756
330
1C4EA
100
AcDbEntity
  8
DEFPOINTS
 62
     0
100
AcDbPoint
 10
-998.5390911791148
 20
1725.171636322125
 30
0.0
  0
POINT
  5
1C757
330
1C4EA
100
AcDbEntity
  8
DEFPOINTS
 62
     0
100
AcDbPoint
 10
-1017.494446730233
 20
1725.171636322125
 30
0.0
  0
ENDBLK
  5
1C4F5
330
1C4EA
100
AcDbEntity
  8
0
100
AcDbBlockEnd
  0
BLOCK
  5
1C503
330
1C4F7
100
AcDbEntity
  8
0
100
AcDbBlockBegin
  2
*D12
 70
     1
 10
0.0
 20
0.0
 30
0.0
  3
*D12
  1

  0
LINE
  5
1C758
330
1C4F7
100
AcDbEntity
  8
SUNPOU
 62
     1
100
AcDbLine
 10
-999.0390911791148
 20
1725.171636322125
 30
0.0
 11
-1017.994446730233
 21
1725.171636322125
 31
0.0
  0
LINE
  5
1C759
330
1C4F7
100
AcDbEntity
  8
SUNPOU
 62
     1
100
AcDbLine
 10
-1007.518055231363
 20
1727.671636322125
 30
0.0
 11
-1017.994446730233
 21
1727.671636322125
 31
0.0
  0
LINE
  5
1C75A
330
1C4F7
100
AcDbEntity
  8
SUNPOU
 62
     1
100
AcDbLine
 10
-1017.494446730233
 20
1722.171636322124
 30
0.0
 11
-1017.494446730233
 21
1719.171636322124
 31
0.0
  0
LINE
  5
1C75B
330
1C4F7
100
AcDbEntity
  8
SUNPOU
 62
     1
100
AcDbLine
 10
-1017.494446730233
 20
1730.671636322124
 30
0.0
 11
-1017.494446730233
 21
1733.671636322124
 31
0.0
  0
MTEXT
  5
1C75C
330
1C4F7
100
AcDbEntity
  8
SUNPOU
 62
     1
100
AcDbMText
 10
-1020.752496490445
 20
1733.587122196841
 30
0.0
 40
3.5
 41
0.0
 71
     5
 72
     1
  1
\A1;2.5
 11
0.0000000000000001
 21
1.0
 31
0.0
  0
LINE
  5
1C75D
330
1C4F7
100
AcDbEntity
  8
SUNPOU
 62
     1
100
AcDbLine
 10
-1017.494446730233
 20
1725.171636322125
 30
0.0
 11
-1017.494446730233
 21
1727.671636322125
 31
0.0
  0
SOLID
  5
1C75E
330
1C4F7
100
AcDbEntity
  8
SUNPOU
 62
     1
100
AcDbTrace
 10
-1017.994446730233
 20
1722.171636322124
 30
0.0
 11
-1016.994446730233
 21
1722.171636322124
 31
0.0
 12
-1017.494446730233
 22
1725.171636322125
 32
0.0
 13
-1017.494446730233
 23
1725.171636322125
 33
0.0
  0
SOLID
  5
1C75F
330
1C4F7
100
AcDbEntity
  8
SUNPOU
 62
     1
100
AcDbTrace
 10
-1017.994446730233
 20
1730.671636322124
 30
0.0
 11
-1016.994446730233
 21
1730.671636322124
 31
0.0
 12
-1017.494446730233
 22
1727.671636322125
 32
0.0
 13
-1017.494446730233
 23
1727.671636322125
 33
0.0
  0
POINT
  5
1C760
330
1C4F7
100
AcDbEntity
  8
DEFPOINTS
 62
     0
100
AcDbPoint
 10
-998.5390911791148
 20
1725.171636322125
 30
0.0
  0
POINT
  5
1C761
330
1C4F7
100
AcDbEntity
  8
DEFPOINTS
 62
     0
100
AcDbPoint
 10
-1007.018055231363
 20
1727.671636322125
 30
0.0
  0
POINT
  5
1C762
330
1C4F7
100
AcDbEntity
  8
DEFPOINTS
 62
     0
100
AcDbPoint
 10
-1017.494446730233
 20
1727.671636322125
 30
0.0
  0
ENDBLK
  5
1C504
330
1C4F7
100
AcDbEntity
  8
0
100
AcDbBlockEnd
  0
BLOCK
  5
1C531
330
1C525
100
AcDbEntity
  8
0
100
AcDbBlockBegin
  2
*D13
 70
     1
 10
0.0
 20
0.0
 30
0.0
  3
*D13
  1

  0
LINE
  5
1C63A
330
1C525
100
AcDbEntity
  8
SUNPOU
 62
     1
100
AcDbLine
 10
-1118.018055231363
 20
1624.171636322125
 30
0.0
 11
-1118.018055231363
 21
1632.564059533649
 31
0.0
  0
LINE
  5
1C63B
330
1C525
100
AcDbEntity
  8
SUNPOU
 62
     1
100
AcDbLine
 10
-1116.018055231363
 20
1624.171636322125
 30
0.0
 11
-1116.018055231363
 21
1632.564059533649
 31
0.0
  0
LINE
  5
1C63C
330
1C525
100
AcDbEntity
  8
SUNPOU
 62
     1
100
AcDbLine
 10
-1121.018055231363
 20
1632.064059533649
 30
0.0
 11
-1124.018055231363
 21
1632.064059533649
 31
0.0
  0
LINE
  5
1C63D
330
1C525
100
AcDbEntity
  8
SUNPOU
 62
     1
100
AcDbLine
 10
-1113.018055231363
 20
1632.064059533649
 30
0.0
 11
-1105.68472189803
 21
1632.064059533649
 31
0.0
  0
LINE
  5
1C63E
330
1C525
100
AcDbEntity
  8
SUNPOU
 62
     1
100
AcDbLine
 10
-1118.018055231363
 20
1632.064059533649
 30
0.0
 11
-1116.018055231363
 21
1632.064059533649
 31
0.0
  0
SOLID
  5
1C63F
330
1C525
100
AcDbEntity
  8
SUNPOU
 62
     1
100
AcDbTrace
 10
-1121.018055231363
 20
1632.564059533649
 30
0.0
 11
-1121.018055231363
 21
1631.56405953365
 31
0.0
 12
-1118.018055231363
 22
1632.064059533649
 32
0.0
 13
-1118.018055231363
 23
1632.064059533649
 33
0.0
  0
SOLID
  5
1C640
330
1C525
100
AcDbEntity
  8
SUNPOU
 62
     1
100
AcDbTrace
 10
-1113.018055231363
 20
1632.564059533649
 30
0.0
 11
-1113.018055231363
 21
1631.56405953365
 31
0.0
 12
-1116.018055231363
 22
1632.064059533649
 32
0.0
 13
-1116.018055231363
 23
1632.064059533649
 33
0.0
  0
MTEXT
  5
1C641
330
1C525
100
AcDbEntity
  8
SUNPOU
 62
     1
100
AcDbMText
 10
-1107.851388564696
 20
1634.814059533649
 30
0.0
 40
3.5
 41
0.0
 71
     5
 72
     1
  1
\A1;2
1001
ACAD
1000
MTEXTBEGIN
1070
    73
1070
     1
1070
    44
1040
1.0
1070
    74
1070
     0
1000
MTEXTEND
  0
POINT
  5
1C642
330
1C525
100
AcDbEntity
  8
DEFPOINTS
 62
     0
100
AcDbPoint
 10
-1118.018055231363
 20
1623.671636322125
 30
0.0
  0
POINT
  5
1C643
330
1C525
100
AcDbEntity
  8
DEFPOINTS
 62
     0
100
AcDbPoint
 10
-1116.018055231363
 20
1623.671636322125
 30
0.0
  0
POINT
  5
1C644
330
1C525
100
AcDbEntity
  8
DEFPOINTS
 62
     0
100
AcDbPoint
 10
-1116.018055231363
 20
1632.064059533649
 30
0.0
  0
ENDBLK
  5
1C532
330
1C525
100
AcDbEntity
  8
0
100
AcDbBlockEnd
  0
BLOCK
  5
1C53E
330
1C534
100
AcDbEntity
  8
0
100
AcDbBlockBegin
  2
*D14
 70
     1
 10
0.0
 20
0.0
 30
0.0
  3
*D14
  1

  0
LINE
  5
1C628
330
1C534
100
AcDbEntity
  8
SUNPOU
 62
     1
100
AcDbLine
 10
-1118.018055231365
 20
1601.171636322125
 30
0.0
 11
-1118.018055231365
 21
1589.663255075708
 31
0.0
  0
LINE
  5
1C629
330
1C534
100
AcDbEntity
  8
SUNPOU
 62
     1
100
AcDbLine
 10
-1052.018055231363
 20
1603.671636322125
 30
0.0
 11
-1052.018055231363
 21
1589.663255075708
 31
0.0
  0
LINE
  5
1C62A
330
1C534
100
AcDbEntity
  8
SUNPOU
 62
     1
100
AcDbLine
 10
-1115.018055231365
 20
1590.163255075708
 30
0.0
 11
-1055.018055231363
 21
1590.163255075708
 31
0.0
  0
SOLID
  5
1C62B
330
1C534
100
AcDbEntity
  8
SUNPOU
 62
     1
100
AcDbTrace
 10
-1115.018055231365
 20
1590.663255075708
 30
0.0
 11
-1115.018055231365
 21
1589.663255075708
 31
0.0
 12
-1118.018055231365
 22
1590.163255075708
 32
0.0
 13
-1118.018055231365
 23
1590.163255075708
 33
0.0
  0
SOLID
  5
1C62C
330
1C534
100
AcDbEntity
  8
SUNPOU
 62
     1
100
AcDbTrace
 10
-1055.018055231363
 20
1590.663255075708
 30
0.0
 11
-1055.018055231363
 21
1589.663255075708
 31
0.0
 12
-1052.018055231363
 22
1590.163255075708
 32
0.0
 13
-1052.018055231363
 23
1590.163255075708
 33
0.0
  0
MTEXT
  5
1C62D
330
1C534
100
AcDbEntity
  8
SUNPOU
 62
     1
100
AcDbMText
 10
-1085.018055231364
 20
1592.913255075708
 30
0.0
 40
3.5
 41
0.0
 71
     5
 72
     1
  1
\A1;66
1001
ACAD
1000
MTEXTBEGIN
1070
    73
1070
     1
1070
    44
1040
1.0
1070
    74
1070
     0
1000
MTEXTEND
  0
POINT
  5
1C62E
330
1C534
100
AcDbEntity
  8
DEFPOINTS
 62
     0
100
AcDbPoint
 10
-1118.018055231365
 20
1601.671636322125
 30
0.0
  0
POINT
  5
1C62F
330
1C534
100
AcDbEntity
  8
DEFPOINTS
 62
     0
100
AcDbPoint
 10
-1052.018055231363
 20
1604.171636322125
 30
0.0
  0
POINT
  5
1C630
330
1C534
100
AcDbEntity
  8
DEFPOINTS
 62
     0
100
AcDbPoint
 10
-1052.018055231363
 20
1590.163255075708
 30
0.0
  0
ENDBLK
  5
1C53F
330
1C534
100
AcDbEntity
  8
0
100
AcDbBlockEnd
  0
BLOCK
  5
1C580
330
1C576
100
AcDbEntity
  8
0
100
AcDbBlockBegin
  2
*D15
 70
     1
 10
0.0
 20
0.0
 30
0.0
  3
*D15
  1

  0
LINE
  5
1C631
330
1C576
100
AcDbEntity
  8
SUNPOU
 62
     1
100
AcDbLine
 10
-1069.518055231363
 20
1599.671636322126
 30
0.0
 11
-1042.29823531229
 21
1599.671636322126
 31
0.0
  0
LINE
  5
1C632
330
1C576
100
AcDbEntity
  8
SUNPOU
 62
     1
100
AcDbLine
 10
-1052.018055231364
 20
1619.571636322125
 30
0.0
 11
-1042.29823531229
 21
1619.571636322125
 31
0.0
  0
LINE
  5
1C633
330
1C576
100
AcDbEntity
  8
SUNPOU
 62
     1
100
AcDbLine
 10
-1042.798235312289
 20
1602.671636322126
 30
0.0
 11
-1042.798235312289
 21
1616.571636322125
 31
0.0
  0
SOLID
  5
1C634
330
1C576
100
AcDbEntity
  8
SUNPOU
 62
     1
100
AcDbTrace
 10
-1043.29823531229
 20
1602.671636322126
 30
0.0
 11
-1042.29823531229
 21
1602.671636322126
 31
0.0
 12
-1042.798235312289
 22
1599.671636322126
 32
0.0
 13
-1042.798235312289
 23
1599.671636322126
 33
0.0
  0
SOLID
  5
1C635
330
1C576
100
AcDbEntity
  8
SUNPOU
 62
     1
100
AcDbTrace
 10
-1043.29823531229
 20
1616.571636322125
 30
0.0
 11
-1042.29823531229
 21
1616.571636322125
 31
0.0
 12
-1042.798235312289
 22
1619.571636322125
 32
0.0
 13
-1042.798235312289
 23
1619.571636322125
 33
0.0
  0
MTEXT
  5
1C636
330
1C576
100
AcDbEntity
  8
SUNPOU
 62
     1
100
AcDbMText
 10
-1045.54823531229
 20
1609.621636322125
 30
0.0
 40
3.5
 41
0.0
 71
     5
 72
     1
  1
\A1;(19.9)
 11
0.0000000000000001
 21
1.0
 31
0.0
1001
ACAD
1000
MTEXTBEGIN
1070
    73
1070
     1
1070
    44
1040
1.0
1070
    74
1070
     0
1000
MTEXTEND
  0
POINT
  5
1C637
330
1C576
100
AcDbEntity
  8
DEFPOINTS
 62
     0
100
AcDbPoint
 10
-1070.018055231363
 20
1599.671636322126
 30
0.0
  0
POINT
  5
1C638
330
1C576
100
AcDbEntity
  8
DEFPOINTS
 62
     0
100
AcDbPoint
 10
-1052.518055231364
 20
1619.571636322125
 30
0.0
  0
POINT
  5
1C639
330
1C576
100
AcDbEntity
  8
DEFPOINTS
 62
     0
100
AcDbPoint
 10
-1042.798235312289
 20
1619.571636322125
 30
0.0
  0
ENDBLK
  5
1C581
330
1C576
100
AcDbEntity
  8
0
100
AcDbBlockEnd
  0
ENDSEC
  0
SECTION
  2
ENTITIES
  0
MTEXT
  5
5084
330
1A
100
AcDbEntity
  8
0
100
AcDbMText
 10
1985.239088685435
 20
-948.5420423450428
 30
0.0
 40
8.0
 41
0.0
 71
     7
 72
     5
  1

1001
ACAD
1000
MTEXTBEGIN
1070
    73
1070
     1
1070
    44
1040
1.0
1070
    74
1070
     0
1000
MTEXTEND
1000
MTEXTBEGIN
1070
    73
1070
     1
1070
    44
1040
1.0
1070
    74
1070
     0
1000
MTEXTEND
  0
MTEXT
  5
5085
330
1A
100
AcDbEntity
  8
0
100
AcDbMText
 10
4270.596778580329
 20
22.24825240601649
 30
0.0
 40
8.0
 41
0.0
 71
     7
 72
     5
  1

1001
ACAD
1000
MTEXTBEGIN
1070
    73
1070
     1
1070
    44
1040
1.0
1070
    74
1070
     0
1000
MTEXTEND
1000
MTEXTBEGIN
1070
    73
1070
     1
1070
    44
1040
1.0
1070
    74
1070
     0
1000
MTEXTEND
  0
MTEXT
  5
5343
330
1A
100
AcDbEntity
  8
SUNPOU
100
AcDbMText
 10
6936.493799262471
 20
9534.359644781135
 30
0.0
 40
10.5
 41
0.0
 71
     1
 72
     5
  1

1001
ACAD
1000
MTEXTBEGIN
1070
    73
1070
     1
1070
    44
1040
1.0
1070
    74
1070
     0
1000
MTEXTEND
1000
MTEXTBEGIN
1070
    73
1070
     1
1070
    44
1040
1.0
1070
    74
1070
     0
1000
MTEXTEND
  0
MTEXT
  5
544F
330
1A
100
AcDbEntity
  8
0
100
AcDbMText
 10
16317.2832773148
 20
12833.35428897674
 30
0.0
 40
8.0
 41
0.0
 71
     7
 72
     5
  1

1001
ACAD
1000
MTEXTBEGIN
1070
    73
1070
     1
1070
    44
1040
1.0
1070
    74
1070
     0
1000
MTEXTEND
1000
MTEXTBEGIN
1070
    73
1070
     1
1070
    44
1040
1.0
1070
    74
1070
     0
1000
MTEXTEND
  0
MTEXT
  5
5450
330
1A
100
AcDbEntity
  8
0
100
AcDbMText
 10
18602.64096720969
 20
13804.1445837278
 30
0.0
 40
8.0
 41
0.0
 71
     7
 72
     5
  1

1001
ACAD
1000
MTEXTBEGIN
1070
    73
1070
     1
1070
    44
1040
1.0
1070
    74
1070
     0
1000
MTEXTEND
1000
MTEXTBEGIN
1070
    73
1070
     1
1070
    44
1040
1.0
1070
    74
1070
     0
1000
MTEXTEND
  0
MTEXT
  5
5451
330
1A
100
AcDbEntity
  8
SUNPOU
100
AcDbMText
 10
21268.53798789184
 20
23316.25597610292
 30
0.0
 40
10.5
 41
0.0
 71
     1
 72
     5
  1

1001
ACAD
1000
MTEXTBEGIN
1070
    73
1070
     1
1070
    44
1040
1.0
1070
    74
1070
     0
1000
MTEXTEND
1000
MTEXTBEGIN
1070
    73
1070
     1
1070
    44
1040
1.0
1070
    74
1070
     0
1000
MTEXTEND
  0
MTEXT
  5
5452
330
1A
100
AcDbEntity
  8
SUNPOU
100
AcDbMText
 10
13337.6147919559
 20
22369.46284218996
 30
0.0
 40
10.5
 41
0.0
 71
     7
 72
     5
  1

1001
ACAD
1000
MTEXTBEGIN
1070
    73
1070
     1
1070
    44
1040
1.0
1070
    74
1070
     0
1000
MTEXTEND
1000
MTEXTBEGIN
1070
    73
1070
     1
1070
    44
1040
1.0
1070
    74
1070
     0
1000
MTEXTEND
  0
MTEXT
  5
5453
330
1A
100
AcDbEntity
  8
SUNPOU
100
AcDbMText
 10
16286.59845646867
 20
27270.13891403281
 30
0.0
 40
10.5
 41
0.0
 71
     7
 72
     5
  1

1001
ACAD
1000
MTEXTBEGIN
1070
    73
1070
     1
1070
    44
1040
1.0
1070
    74
1070
     0
1000
MTEXTEND
1000
MTEXTBEGIN
1070
    73
1070
     1
1070
    44
1040
1.0
1070
    74
1070
     0
1000
MTEXTEND
  0
MTEXT
  5
5454
330
1A
100
AcDbEntity
  8
SUNPOU
100
AcDbMText
 10
20795.67658441924
 20
29706.43966165288
 30
0.0
 40
10.5
 41
0.0
 71
     7
 72
     5
  1

1001
ACAD
1000
MTEXTBEGIN
1070
    73
1070
     1
1070
    44
1040
1.0
1070
    74
1070
     0
1000
MTEXTEND
1000
MTEXTBEGIN
1070
    73
1070
     1
1070
    44
1040
1.0
1070
    74
1070
     0
1000
MTEXTEND
  0
MTEXT
  5
5455
330
1A
100
AcDbEntity
  8
0
100
AcDbMText
 10
16611.93789220314
 20
14707.52144344448
 30
0.0
 40
8.0
 41
0.0
 71
     7
 72
     5
  1

1001
ACAD
1000
MTEXTBEGIN
1070
    73
1070
     1
1070
    44
1040
1.0
1070
    74
1070
     0
1000
MTEXTEND
1000
MTEXTBEGIN
1070
    73
1070
     1
1070
    44
1040
1.0
1070
    74
1070
     0
1000
MTEXTEND
  0
MTEXT
  5
5456
330
1A
100
AcDbEntity
  8
0
100
AcDbMText
 10
18897.29558209804
 20
15678.31173819554
 30
0.0
 40
8.0
 41
0.0
 71
     7
 72
     5
  1

1001
ACAD
1000
MTEXTBEGIN
1070
    73
1070
     1
1070
    44
1040
1.0
1070
    74
1070
     0
1000
MTEXTEND
1000
MTEXTBEGIN
1070
    73
1070
     1
1070
    44
1040
1.0
1070
    74
1070
     0
1000
MTEXTEND
  0
MTEXT
  5
5457
330
1A
100
AcDbEntity
  8
SUNPOU
100
AcDbMText
 10
21563.19260278019
 20
25190.42313057066
 30
0.0
 40
10.5
 41
0.0
 71
     1
 72
     5
  1

1001
ACAD
1000
MTEXTBEGIN
1070
    73
1070
     1
1070
    44
1040
1.0
1070
    74
1070
     0
1000
MTEXTEND
1000
MTEXTBEGIN
1070
    73
1070
     1
1070
    44
1040
1.0
1070
    74
1070
     0
1000
MTEXTEND
  0
MTEXT
  5
5458
330
1A
100
AcDbEntity
  8
SUNPOU
100
AcDbMText
 10
13632.26940684426
 20
24243.6299966577
 30
0.0
 40
10.5
 41
0.0
 71
     7
 72
     5
  1

1001
ACAD
1000
MTEXTBEGIN
1070
    73
1070
     1
1070
    44
1040
1.0
1070
    74
1070
     0
1000
MTEXTEND
1000
MTEXTBEGIN
1070
    73
1070
     1
1070
    44
1040
1.0
1070
    74
1070
     0
1000
MTEXTEND
  0
MTEXT
  5
5459
330
1A
100
AcDbEntity
  8
SUNPOU
100
AcDbMText
 10
16581.25307135702
 20
29144.30606850055
 30
0.0
 40
10.5
 41
0.0
 71
     7
 72
     5
  1

1001
ACAD
1000
MTEXTBEGIN
1070
    73
1070
     1
1070
    44
1040
1.0
1070
    74
1070
     0
1000
MTEXTEND
1000
MTEXTBEGIN
1070
    73
1070
     1
1070
    44
1040
1.0
1070
    74
1070
     0
1000
MTEXTEND
  0
MTEXT
  5
545A
330
1A
100
AcDbEntity
  8
SUNPOU
100
AcDbMText
 10
21090.33119930759
 20
31580.60681612062
 30
0.0
 40
10.5
 41
0.0
 71
     7
 72
     5
  1

1001
ACAD
1000
MTEXTBEGIN
1070
    73
1070
     1
1070
    44
1040
1.0
1070
    74
1070
     0
1000
MTEXTEND
1000
MTEXTBEGIN
1070
    73
1070
     1
1070
    44
1040
1.0
1070
    74
1070
     0
1000
MTEXTEND
  0
MTEXT
  5
545B
330
1A
100
AcDbEntity
  8
0
100
AcDbMText
 10
22871.60517627167
 20
23974.88367124799
 30
0.0
 40
8.0
 41
0.0
 71
     7
 72
     5
  1

1001
ACAD
1000
MTEXTBEGIN
1070
    73
1070
     1
1070
    44
1040
1.0
1070
    74
1070
     0
1000
MTEXTEND
1000
MTEXTBEGIN
1070
    73
1070
     1
1070
    44
1040
1.0
1070
    74
1070
     0
1000
MTEXTEND
  0
MTEXT
  5
545C
330
1A
100
AcDbEntity
  8
0
100
AcDbMText
 10
25156.96286616657
 20
24945.67396599906
 30
0.0
 40
8.0
 41
0.0
 71
     7
 72
     5
  1

1001
ACAD
1000
MTEXTBEGIN
1070
    73
1070
     1
1070
    44
1040
1.0
1070
    74
1070
     0
1000
MTEXTEND
1000
MTEXTBEGIN
1070
    73
1070
     1
1070
    44
1040
1.0
1070
    74
1070
     0
1000
MTEXTEND
  0
MTEXT
  5
545D
330
1A
100
AcDbEntity
  8
SUNPOU
100
AcDbMText
 10
27822.85988684871
 20
34457.78535837418
 30
0.0
 40
10.5
 41
0.0
 71
     1
 72
     5
  1

1001
ACAD
1000
MTEXTBEGIN
1070
    73
1070
     1
1070
    44
1040
1.0
1070
    74
1070
     0
1000
MTEXTEND
1000
MTEXTBEGIN
1070
    73
1070
     1
1070
    44
1040
1.0
1070
    74
1070
     0
1000
MTEXTEND
  0
MTEXT
  5
545E
330
1A
100
AcDbEntity
  8
SUNPOU
100
AcDbMText
 10
19891.93669091278
 20
33510.99222446122
 30
0.0
 40
10.5
 41
0.0
 71
     7
 72
     5
  1

1001
ACAD
1000
MTEXTBEGIN
1070
    73
1070
     1
1070
    44
1040
1.0
1070
    74
1070
     0
1000
MTEXTEND
1000
MTEXTBEGIN
1070
    73
1070
     1
1070
    44
1040
1.0
1070
    74
1070
     0
1000
MTEXTEND
  0
MTEXT
  5
545F
330
1A
100
AcDbEntity
  8
SUNPOU
100
AcDbMText
 10
22840.92035542555
 20
38411.66829630407
 30
0.0
 40
10.5
 41
0.0
 71
     7
 72
     5
  1

1001
ACAD
1000
MTEXTBEGIN
1070
    73
1070
     1
1070
    44
1040
1.0
1070
    74
1070
     0
1000
MTEXTEND
1000
MTEXTBEGIN
1070
    73
1070
     1
1070
    44
1040
1.0
1070
    74
1070
     0
1000
MTEXTEND
  0
MTEXT
  5
5460
330
1A
100
AcDbEntity
  8
SUNPOU
100
AcDbMText
 10
27349.99848337611
 20
40847.96904392415
 30
0.0
 40
10.5
 41
0.0
 71
     7
 72
     5
  1

1001
ACAD
1000
MTEXTBEGIN
1070
    73
1070
     1
1070
    44
1040
1.0
1070
    74
1070
     0
1000
MTEXTEND
1000
MTEXTBEGIN
1070
    73
1070
     1
1070
    44
1040
1.0
1070
    74
1070
     0
1000
MTEXTEND
  0
MTEXT
  5
55B7
330
1A
100
AcDbEntity
  8
SUNPOU
100
AcDbMText
 10
67424.23923338197
 20
64463.86602884816
 30
0.0
 40
10.5
 41
0.0
 71
     9
 72
     5
  1

1001
ACAD
1000
MTEXTBEGIN
1070
    73
1070
     1
1070
    44
1040
1.0
1070
    74
1070
     0
1000
MTEXTEND
1000
MTEXTBEGIN
1070
    73
1070
     1
1070
    44
1040
1.0
1070
    74
1070
     0
1000
MTEXTEND
  0
MTEXT
  5
55B8
330
1A
100
AcDbEntity
  8
SUNPOU
100
AcDbMText
 10
76146.40679929998
 20
71879.70056038563
 30
0.0
 40
10.5
 41
0.0
 71
     9
 72
     5
  1

1001
ACAD
1000
MTEXTBEGIN
1070
    73
1070
     1
1070
    44
1040
1.0
1070
    74
1070
     0
1000
MTEXTEND
1000
MTEXTBEGIN
1070
    73
1070
     1
1070
    44
1040
1.0
1070
    74
1070
     0
1000
MTEXTEND
  0
MTEXT
  5
55B9
330
1A
100
AcDbEntity
  8
SUNPOU
100
AcDbMText
 10
95100.16551662994
 20
89346.27661287766
 30
0.0
 40
10.5
 41
0.0
 71
     9
 72
     5
  1

1001
ACAD
1000
MTEXTBEGIN
1070
    73
1070
     1
1070
    44
1040
1.0
1070
    74
1070
     0
1000
MTEXTEND
1000
MTEXTBEGIN
1070
    73
1070
     1
1070
    44
1040
1.0
1070
    74
1070
     0
1000
MTEXTEND
  0
MTEXT
  5
55BA
330
1A
100
AcDbEntity
  8
SUNPOU
100
AcDbMText
 10
97043.57276333936
 20
87545.22753299966
 30
0.0
 40
3.5
 41
0.0
 71
     9
 72
     5
  1

1001
ACAD
1000
MTEXTBEGIN
1070
    73
1070
     1
1070
    44
1040
1.0
1070
    74
1070
     0
1000
MTEXTEND
1000
MTEXTBEGIN
1070
    73
1070
     1
1070
    44
1040
1.0
1070
    74
1070
     0
1000
MTEXTEND
  0
MTEXT
  5
55BB
330
1A
100
AcDbEntity
  8
SUNPOU
100
AcDbMText
 10
128169.752595959
 20
130040.1732006569
 30
0.0
 40
10.5
 41
0.0
 71
     9
 72
     5
  1

1001
ACAD
1000
MTEXTBEGIN
1070
    73
1070
     1
1070
    44
1040
1.0
1070
    74
1070
     0
1000
MTEXTEND
1000
MTEXTBEGIN
1070
    73
1070
     1
1070
    44
1040
1.0
1070
    74
1070
     0
1000
MTEXTEND
  0
MTEXT
  5
55BC
330
1A
100
AcDbEntity
  8
SUNPOU
100
AcDbMText
 10
130113.1598426684
 20
128239.1241207789
 30
0.0
 40
3.5
 41
0.0
 71
     9
 72
     5
  1

1001
ACAD
1000
MTEXTBEGIN
1070
    73
1070
     1
1070
    44
1040
1.0
1070
    74
1070
     0
1000
MTEXTEND
1000
MTEXTBEGIN
1070
    73
1070
     1
1070
    44
1040
1.0
1070
    74
1070
     0
1000
MTEXTEND
  0
MTEXT
  5
55BD
330
1A
100
AcDbEntity
  8
SUNPOU
100
AcDbMText
 10
78610.02030175463
 20
75873.33835563206
 30
0.0
 40
10.5
 41
0.0
 71
     9
 72
     5
  1

1001
ACAD
1000
MTEXTBEGIN
1070
    73
1070
     1
1070
    44
1040
1.0
1070
    74
1070
     0
1000
MTEXTEND
1000
MTEXTBEGIN
1070
    73
1070
     1
1070
    44
1040
1.0
1070
    74
1070
     0
1000
MTEXTEND
  0
MTEXT
  5
55BE
330
1A
100
AcDbEntity
  8
SUNPOU
100
AcDbMText
 10
64662.02020137863
 20
56700.93921651987
 30
0.0
 40
3.5
 41
0.0
 71
     7
 72
     5
  1

1001
ACAD
1000
MTEXTBEGIN
1070
    73
1070
     1
1070
    44
1040
1.0
1070
    74
1070
     0
1000
MTEXTEND
1000
MTEXTBEGIN
1070
    73
1070
     1
1070
    44
1040
1.0
1070
    74
1070
     0
1000
MTEXTEND
  0
MTEXT
  5
55BF
330
1A
100
AcDbEntity
  8
SUNPOU
100
AcDbMText
 10
45647.18959837178
 20
44463.08794733807
 30
0.0
 40
10.5
 41
0.0
 71
     7
 72
     5
  1

1001
ACAD
1000
MTEXTBEGIN
1070
    73
1070
     1
1070
    44
1040
1.0
1070
    74
1070
     0
1000
MTEXTEND
1000
MTEXTBEGIN
1070
    73
1070
     1
1070
    44
1040
1.0
1070
    74
1070
     0
1000
MTEXTEND
  0
MTEXT
  5
55C0
330
1A
100
AcDbEntity
  8
SUNPOU
100
AcDbMText
 10
33189.96133342368
 20
28618.15636923965
 30
0.0
 40
35.0
 41
0.0
 71
     9
 72
     5
  1

1001
ACAD
1000
MTEXTBEGIN
1070
    73
1070
     1
1070
    44
1040
1.0
1070
    74
1070
     0
1000
MTEXTEND
1000
MTEXTBEGIN
1070
    73
1070
     1
1070
    44
1040
1.0
1070
    74
1070
     0
1000
MTEXTEND
  0
MTEXT
  5
55C1
330
1A
100
AcDbEntity
  8
SUNPOU
100
AcDbMText
 10
32098.44639099864
 20
29226.93177928835
 30
0.0
 40
350.0000004171781
 41
0.0
 71
     7
 72
     5
  1

1001
ACAD
1000
MTEXTBEGIN
1070
    73
1070
     1
1070
    44
1040
1.0
1070
    74
1070
     0
1000
MTEXTEND
1000
MTEXTBEGIN
1070
    73
1070
     1
1070
    44
1040
1.0
1070
    74
1070
     0
1000
MTEXTEND
  0
MTEXT
  5
55C2
330
1A
100
AcDbEntity
  8
0
100
AcDbMText
 10
38142.39714894154
 20
27206.85414142458
 30
0.0
 40
8.0
 41
0.0
 71
     7
 72
     5
  1

1001
ACAD
1000
MTEXTBEGIN
1070
    73
1070
     1
1070
    44
1040
1.0
1070
    74
1070
     0
1000
MTEXTEND
1000
MTEXTBEGIN
1070
    73
1070
     1
1070
    44
1040
1.0
1070
    74
1070
     0
1000
MTEXTEND
  0
MTEXT
  5
55C3
330
1A
100
AcDbEntity
  8
0
100
AcDbMText
 10
40427.75483883644
 20
28177.64443617564
 30
0.0
 40
8.0
 41
0.0
 71
     7
 72
     5
  1

1001
ACAD
1000
MTEXTBEGIN
1070
    73
1070
     1
1070
    44
1040
1.0
1070
    74
1070
     0
1000
MTEXTEND
1000
MTEXTBEGIN
1070
    73
1070
     1
1070
    44
1040
1.0
1070
    74
1070
     0
1000
MTEXTEND
  0
MTEXT
  5
55C4
330
1A
100
AcDbEntity
  8
SUNPOU
100
AcDbMText
 10
43093.65185951858
 20
37689.75582855077
 30
0.0
 40
10.5
 41
0.0
 71
     1
 72
     5
  1

1001
ACAD
1000
MTEXTBEGIN
1070
    73
1070
     1
1070
    44
1040
1.0
1070
    74
1070
     0
1000
MTEXTEND
1000
MTEXTBEGIN
1070
    73
1070
     1
1070
    44
1040
1.0
1070
    74
1070
     0
1000
MTEXTEND
  0
MTEXT
  5
55C5
330
1A
100
AcDbEntity
  8
SUNPOU
100
AcDbMText
 10
35162.72866358265
 20
36742.96269463781
 30
0.0
 40
10.5
 41
0.0
 71
     7
 72
     5
  1

1001
ACAD
1000
MTEXTBEGIN
1070
    73
1070
     1
1070
    44
1040
1.0
1070
    74
1070
     0
1000
MTEXTEND
1000
MTEXTBEGIN
1070
    73
1070
     1
1070
    44
1040
1.0
1070
    74
1070
     0
1000
MTEXTEND
  0
MTEXT
  5
55C6
330
1A
100
AcDbEntity
  8
SUNPOU
100
AcDbMText
 10
38111.71232809542
 20
41643.63876648066
 30
0.0
 40
10.5
 41
0.0
 71
     7
 72
     5
  1

1001
ACAD
1000
MTEXTBEGIN
1070
    73
1070
     1
1070
    44
1040
1.0
1070
    74
1070
     0
1000
MTEXTEND
1000
MTEXTBEGIN
1070
    73
1070
     1
1070
    44
1040
1.0
1070
    74
1070
     0
1000
MTEXTEND
  0
MTEXT
  5
55C7
330
1A
100
AcDbEntity
  8
SUNPOU
100
AcDbMText
 10
42620.79045604597
 20
44079.93951410074
 30
0.0
 40
10.5
 41
0.0
 71
     7
 72
     5
  1

1001
ACAD
1000
MTEXTBEGIN
1070
    73
1070
     1
1070
    44
1040
1.0
1070
    74
1070
     0
1000
MTEXTEND
1000
MTEXTBEGIN
1070
    73
1070
     1
1070
    44
1040
1.0
1070
    74
1070
     0
1000
MTEXTEND
  0
MTEXT
  5
55C8
330
1A
100
AcDbEntity
  8
SUNPOU
100
AcDbMText
 10
26221.62834281429
 20
23077.53566448964
 30
0.0
 40
10.5
 41
0.0
 71
     7
 72
     5
  1

1001
ACAD
1000
MTEXTBEGIN
1070
    73
1070
     1
1070
    44
1040
1.0
1070
    74
1070
     0
1000
MTEXTEND
1000
MTEXTBEGIN
1070
    73
1070
     1
1070
    44
1040
1.0
1070
    74
1070
     0
1000
MTEXTEND
  0
MTEXT
  5
55C9
330
1A
100
AcDbEntity
  8
SUNPOU
100
AcDbMText
 10
77413.14677671455
 20
68750.51622813789
 30
0.0
 40
10.5
 41
0.0
 71
     9
 72
     5
  1

1001
ACAD
1000
MTEXTBEGIN
1070
    73
1070
     1
1070
    44
1040
1.0
1070
    74
1070
     0
1000
MTEXTEND
1000
MTEXTBEGIN
1070
    73
1070
     1
1070
    44
1040
1.0
1070
    74
1070
     0
1000
MTEXTEND
  0
MTEXT
  5
55CA
330
1A
100
AcDbEntity
  8
SUNPOU
100
AcDbMText
 10
86135.31434263256
 20
76166.35075967536
 30
0.0
 40
10.5
 41
0.0
 71
     9
 72
     5
  1

1001
ACAD
1000
MTEXTBEGIN
1070
    73
1070
     1
1070
    44
1040
1.0
1070
    74
1070
     0
1000
MTEXTEND
1000
MTEXTBEGIN
1070
    73
1070
     1
1070
    44
1040
1.0
1070
    74
1070
     0
1000
MTEXTEND
  0
MTEXT
  5
55CB
330
1A
100
AcDbEntity
  8
SUNPOU
100
AcDbMText
 10
105089.0730599625
 20
93632.92681216739
 30
0.0
 40
10.5
 41
0.0
 71
     9
 72
     5
  1

1001
ACAD
1000
MTEXTBEGIN
1070
    73
1070
     1
1070
    44
1040
1.0
1070
    74
1070
     0
1000
MTEXTEND
1000
MTEXTBEGIN
1070
    73
1070
     1
1070
    44
1040
1.0
1070
    74
1070
     0
1000
MTEXTEND
  0
MTEXT
  5
55CC
330
1A
100
AcDbEntity
  8
SUNPOU
100
AcDbMText
 10
107032.4803066719
 20
91831.8777322894
 30
0.0
 40
3.5
 41
0.0
 71
     9
 72
     5
  1

1001
ACAD
1000
MTEXTBEGIN
1070
    73
1070
     1
1070
    44
1040
1.0
1070
    74
1070
     0
1000
MTEXTEND
1000
MTEXTBEGIN
1070
    73
1070
     1
1070
    44
1040
1.0
1070
    74
1070
     0
1000
MTEXTEND
  0
MTEXT
  5
55CD
330
1A
100
AcDbEntity
  8
SUNPOU
100
AcDbMText
 10
138158.6601392916
 20
134326.8233999467
 30
0.0
 40
10.5
 41
0.0
 71
     9
 72
     5
  1

1001
ACAD
1000
MTEXTBEGIN
1070
    73
1070
     1
1070
    44
1040
1.0
1070
    74
1070
     0
1000
MTEXTEND
1000
MTEXTBEGIN
1070
    73
1070
     1
1070
    44
1040
1.0
1070
    74
1070
     0
1000
MTEXTEND
  0
MTEXT
  5
55CE
330
1A
100
AcDbEntity
  8
SUNPOU
100
AcDbMText
 10
140102.067386001
 20
132525.7743200686
 30
0.0
 40
3.5
 41
0.0
 71
     9
 72
     5
  1

1001
ACAD
1000
MTEXTBEGIN
1070
    73
1070
     1
1070
    44
1040
1.0
1070
    74
1070
     0
1000
MTEXTEND
1000
MTEXTBEGIN
1070
    73
1070
     1
1070
    44
1040
1.0
1070
    74
1070
     0
1000
MTEXTEND
  0
MTEXT
  5
55CF
330
1A
100
AcDbEntity
  8
SUNPOU
100
AcDbMText
 10
88598.92784508721
 20
80159.98855492179
 30
0.0
 40
10.5
 41
0.0
 71
     9
 72
     5
  1

1001
ACAD
1000
MTEXTBEGIN
1070
    73
1070
     1
1070
    44
1040
1.0
1070
    74
1070
     0
1000
MTEXTEND
1000
MTEXTBEGIN
1070
    73
1070
     1
1070
    44
1040
1.0
1070
    74
1070
     0
1000
MTEXTEND
  0
MTEXT
  5
55D0
330
1A
100
AcDbEntity
  8
SUNPOU
100
AcDbMText
 10
74650.92774471121
 20
60987.5894158096
 30
0.0
 40
3.5
 41
0.0
 71
     7
 72
     5
  1

1001
ACAD
1000
MTEXTBEGIN
1070
    73
1070
     1
1070
    44
1040
1.0
1070
    74
1070
     0
1000
MTEXTEND
1000
MTEXTBEGIN
1070
    73
1070
     1
1070
    44
1040
1.0
1070
    74
1070
     0
1000
MTEXTEND
  0
MTEXT
  5
55D1
330
1A
100
AcDbEntity
  8
SUNPOU
100
AcDbMText
 10
55636.09714170436
 20
48749.73814662781
 30
0.0
 40
10.5
 41
0.0
 71
     7
 72
     5
  1

1001
ACAD
1000
MTEXTBEGIN
1070
    73
1070
     1
1070
    44
1040
1.0
1070
    74
1070
     0
1000
MTEXTEND
1000
MTEXTBEGIN
1070
    73
1070
     1
1070
    44
1040
1.0
1070
    74
1070
     0
1000
MTEXTEND
  0
MTEXT
  5
55D2
330
1A
100
AcDbEntity
  8
SUNPOU
100
AcDbMText
 10
43178.86887675626
 20
32904.80656852938
 30
0.0
 40
35.0
 41
0.0
 71
     9
 72
     5
  1

1001
ACAD
1000
MTEXTBEGIN
1070
    73
1070
     1
1070
    44
1040
1.0
1070
    74
1070
     0
1000
MTEXTEND
1000
MTEXTBEGIN
1070
    73
1070
     1
1070
    44
1040
1.0
1070
    74
1070
     0
1000
MTEXTEND
  0
MTEXT
  5
55D3
330
1A
100
AcDbEntity
  8
SUNPOU
100
AcDbMText
 10
42087.35393433121
 20
33513.58197857809
 30
0.0
 40
350.0000004171781
 41
0.0
 71
     7
 72
     5
  1

1001
ACAD
1000
MTEXTBEGIN
1070
    73
1070
     1
1070
    44
1040
1.0
1070
    74
1070
     0
1000
MTEXTEND
1000
MTEXTBEGIN
1070
    73
1070
     1
1070
    44
1040
1.0
1070
    74
1070
     0
1000
MTEXTEND
  0
MTEXT
  5
55D4
330
1A
100
AcDbEntity
  8
0
100
AcDbMText
 10
48131.30469227412
 20
31493.50434071431
 30
0.0
 40
8.0
 41
0.0
 71
     7
 72
     5
  1

1001
ACAD
1000
MTEXTBEGIN
1070
    73
1070
     1
1070
    44
1040
1.0
1070
    74
1070
     0
1000
MTEXTEND
1000
MTEXTBEGIN
1070
    73
1070
     1
1070
    44
1040
1.0
1070
    74
1070
     0
1000
MTEXTEND
  0
MTEXT
  5
55D5
330
1A
100
AcDbEntity
  8
0
100
AcDbMText
 10
50416.66238216901
 20
32464.29463546537
 30
0.0
 40
8.0
 41
0.0
 71
     7
 72
     5
  1

1001
ACAD
1000
MTEXTBEGIN
1070
    73
1070
     1
1070
    44
1040
1.0
1070
    74
1070
     0
1000
MTEXTEND
1000
MTEXTBEGIN
1070
    73
1070
     1
1070
    44
1040
1.0
1070
    74
1070
     0
1000
MTEXTEND
  0
MTEXT
  5
55D6
330
1A
100
AcDbEntity
  8
SUNPOU
100
AcDbMText
 10
53082.55940285115
 20
41976.4060278405
 30
0.0
 40
10.5
 41
0.0
 71
     1
 72
     5
  1

1001
ACAD
1000
MTEXTBEGIN
1070
    73
1070
     1
1070
    44
1040
1.0
1070
    74
1070
     0
1000
MTEXTEND
1000
MTEXTBEGIN
1070
    73
1070
     1
1070
    44
1040
1.0
1070
    74
1070
     0
1000
MTEXTEND
  0
MTEXT
  5
55D7
330
1A
100
AcDbEntity
  8
SUNPOU
100
AcDbMText
 10
45151.63620691522
 20
41029.61289392755
 30
0.0
 40
10.5
 41
0.0
 71
     7
 72
     5
  1

1001
ACAD
1000
MTEXTBEGIN
1070
    73
1070
     1
1070
    44
1040
1.0
1070
    74
1070
     0
1000
MTEXTEND
1000
MTEXTBEGIN
1070
    73
1070
     1
1070
    44
1040
1.0
1070
    74
1070
     0
1000
MTEXTEND
  0
MTEXT
  5
55D8
330
1A
100
AcDbEntity
  8
SUNPOU
100
AcDbMText
 10
48100.61987142798
 20
45930.28896577039
 30
0.0
 40
10.5
 41
0.0
 71
     7
 72
     5
  1

1001
ACAD
1000
MTEXTBEGIN
1070
    73
1070
     1
1070
    44
1040
1.0
1070
    74
1070
     0
1000
MTEXTEND
1000
MTEXTBEGIN
1070
    73
1070
     1
1070
    44
1040
1.0
1070
    74
1070
     0
1000
MTEXTEND
  0
MTEXT
  5
55D9
330
1A
100
AcDbEntity
  8
SUNPOU
100
AcDbMText
 10
52609.69799937854
 20
48366.58971339046
 30
0.0
 40
10.5
 41
0.0
 71
     7
 72
     5
  1

1001
ACAD
1000
MTEXTBEGIN
1070
    73
1070
     1
1070
    44
1040
1.0
1070
    74
1070
     0
1000
MTEXTEND
1000
MTEXTBEGIN
1070
    73
1070
     1
1070
    44
1040
1.0
1070
    74
1070
     0
1000
MTEXTEND
  0
MTEXT
  5
55DA
330
1A
100
AcDbEntity
  8
SUNPOU
100
AcDbMText
 10
36210.53588614687
 20
27364.18586377937
 30
0.0
 40
10.5
 41
0.0
 71
     7
 72
     5
  1

1001
ACAD
1000
MTEXTBEGIN
1070
    73
1070
     1
1070
    44
1040
1.0
1070
    74
1070
     0
1000
MTEXTEND
1000
MTEXTBEGIN
1070
    73
1070
     1
1070
    44
1040
1.0
1070
    74
1070
     0
1000
MTEXTEND
  0
MTEXT
  5
55DB
330
1A
100
AcDbEntity
  8
SUNPOU
100
AcDbMText
 10
38021.29879752181
 20
33691.59985125794
 30
0.0
 40
10.5
 41
0.0
 71
     9
 72
     5
  1

1001
ACAD
1000
MTEXTBEGIN
1070
    73
1070
     1
1070
    44
1040
1.0
1070
    74
1070
     0
1000
MTEXTEND
1000
MTEXTBEGIN
1070
    73
1070
     1
1070
    44
1040
1.0
1070
    74
1070
     0
1000
MTEXTEND
  0
MTEXT
  5
55DC
330
1A
100
AcDbEntity
  8
SUNPOU
100
AcDbMText
 10
46743.46636343979
 20
41107.43438279541
 30
0.0
 40
10.5
 41
0.0
 71
     9
 72
     5
  1

1001
ACAD
1000
MTEXTBEGIN
1070
    73
1070
     1
1070
    44
1040
1.0
1070
    74
1070
     0
1000
MTEXTEND
1000
MTEXTBEGIN
1070
    73
1070
     1
1070
    44
1040
1.0
1070
    74
1070
     0
1000
MTEXTEND
  0
MTEXT
  5
55DD
330
1A
100
AcDbEntity
  8
SUNPOU
100
AcDbMText
 10
65697.22508076975
 20
58574.01043528746
 30
0.0
 40
10.5
 41
0.0
 71
     9
 72
     5
  1

1001
ACAD
1000
MTEXTBEGIN
1070
    73
1070
     1
1070
    44
1040
1.0
1070
    74
1070
     0
1000
MTEXTEND
1000
MTEXTBEGIN
1070
    73
1070
     1
1070
    44
1040
1.0
1070
    74
1070
     0
1000
MTEXTEND
  0
MTEXT
  5
55DE
330
1A
100
AcDbEntity
  8
SUNPOU
100
AcDbMText
 10
67640.63232747917
 20
56772.96135540945
 30
0.0
 40
3.5
 41
0.0
 71
     9
 72
     5
  1

1001
ACAD
1000
MTEXTBEGIN
1070
    73
1070
     1
1070
    44
1040
1.0
1070
    74
1070
     0
1000
MTEXTEND
1000
MTEXTBEGIN
1070
    73
1070
     1
1070
    44
1040
1.0
1070
    74
1070
     0
1000
MTEXTEND
  0
MTEXT
  5
55DF
330
1A
100
AcDbEntity
  8
SUNPOU
100
AcDbMText
 10
98766.81216009888
 20
99267.9070230668
 30
0.0
 40
10.5
 41
0.0
 71
     9
 72
     5
  1

1001
ACAD
1000
MTEXTBEGIN
1070
    73
1070
     1
1070
    44
1040
1.0
1070
    74
1070
     0
1000
MTEXTEND
1000
MTEXTBEGIN
1070
    73
1070
     1
1070
    44
1040
1.0
1070
    74
1070
     0
1000
MTEXTEND
  0
MTEXT
  5
55E0
330
1A
100
AcDbEntity
  8
SUNPOU
100
AcDbMText
 10
100710.2194068083
 20
97466.85794318878
 30
0.0
 40
3.5
 41
0.0
 71
     9
 72
     5
  1

1001
ACAD
1000
MTEXTBEGIN
1070
    73
1070
     1
1070
    44
1040
1.0
1070
    74
1070
     0
1000
MTEXTEND
1000
MTEXTBEGIN
1070
    73
1070
     1
1070
    44
1040
1.0
1070
    74
1070
     0
1000
MTEXTEND
  0
MTEXT
  5
55E1
330
1A
100
AcDbEntity
  8
SUNPOU
100
AcDbMText
 10
49207.07986589444
 20
45101.07217804185
 30
0.0
 40
10.5
 41
0.0
 71
     9
 72
     5
  1

1001
ACAD
1000
MTEXTBEGIN
1070
    73
1070
     1
1070
    44
1040
1.0
1070
    74
1070
     0
1000
MTEXTEND
1000
MTEXTBEGIN
1070
    73
1070
     1
1070
    44
1040
1.0
1070
    74
1070
     0
1000
MTEXTEND
  0
MTEXT
  5
55E2
330
1A
100
AcDbEntity
  8
SUNPOU
100
AcDbMText
 10
35259.07976551845
 20
25928.67303892964
 30
0.0
 40
3.5
 41
0.0
 71
     7
 72
     5
  1

1001
ACAD
1000
MTEXTBEGIN
1070
    73
1070
     1
1070
    44
1040
1.0
1070
    74
1070
     0
1000
MTEXTEND
1000
MTEXTBEGIN
1070
    73
1070
     1
1070
    44
1040
1.0
1070
    74
1070
     0
1000
MTEXTEND
  0
MTEXT
  5
55E3
330
1A
100
AcDbEntity
  8
SUNPOU
100
AcDbMText
 10
48951.43044828905
 20
35287.73625995099
 30
0.0
 40
10.5
 41
0.0
 71
     9
 72
     5
  1

1001
ACAD
1000
MTEXTBEGIN
1070
    73
1070
     1
1070
    44
1040
1.0
1070
    74
1070
     0
1000
MTEXTEND
1000
MTEXTBEGIN
1070
    73
1070
     1
1070
    44
1040
1.0
1070
    74
1070
     0
1000
MTEXTEND
  0
MTEXT
  5
55E4
330
1A
100
AcDbEntity
  8
SUNPOU
100
AcDbMText
 10
57673.59801420702
 20
42703.57079148847
 30
0.0
 40
10.5
 41
0.0
 71
     9
 72
     5
  1

1001
ACAD
1000
MTEXTBEGIN
1070
    73
1070
     1
1070
    44
1040
1.0
1070
    74
1070
     0
1000
MTEXTEND
1000
MTEXTBEGIN
1070
    73
1070
     1
1070
    44
1040
1.0
1070
    74
1070
     0
1000
MTEXTEND
  0
MTEXT
  5
55E5
330
1A
100
AcDbEntity
  8
SUNPOU
100
AcDbMText
 10
76627.35673153699
 20
60170.14684398051
 30
0.0
 40
10.5
 41
0.0
 71
     9
 72
     5
  1

1001
ACAD
1000
MTEXTBEGIN
1070
    73
1070
     1
1070
    44
1040
1.0
1070
    74
1070
     0
1000
MTEXTEND
1000
MTEXTBEGIN
1070
    73
1070
     1
1070
    44
1040
1.0
1070
    74
1070
     0
1000
MTEXTEND
  0
MTEXT
  5
55E6
330
1A
100
AcDbEntity
  8
SUNPOU
100
AcDbMText
 10
78570.76397824641
 20
58369.09776410251
 30
0.0
 40
3.5
 41
0.0
 71
     9
 72
     5
  1

1001
ACAD
1000
MTEXTBEGIN
1070
    73
1070
     1
1070
    44
1040
1.0
1070
    74
1070
     0
1000
MTEXTEND
1000
MTEXTBEGIN
1070
    73
1070
     1
1070
    44
1040
1.0
1070
    74
1070
     0
1000
MTEXTEND
  0
MTEXT
  5
55E7
330
1A
100
AcDbEntity
  8
SUNPOU
100
AcDbMText
 10
109696.9438108661
 20
100864.0434317598
 30
0.0
 40
10.5
 41
0.0
 71
     9
 72
     5
  1

1001
ACAD
1000
MTEXTBEGIN
1070
    73
1070
     1
1070
    44
1040
1.0
1070
    74
1070
     0
1000
MTEXTEND
1000
MTEXTBEGIN
1070
    73
1070
     1
1070
    44
1040
1.0
1070
    74
1070
     0
1000
MTEXTEND
  0
MTEXT
  5
55E8
330
1A
100
AcDbEntity
  8
SUNPOU
100
AcDbMText
 10
111640.3510575755
 20
99062.99435188183
 30
0.0
 40
3.5
 41
0.0
 71
     9
 72
     5
  1

1001
ACAD
1000
MTEXTBEGIN
1070
    73
1070
     1
1070
    44
1040
1.0
1070
    74
1070
     0
1000
MTEXTEND
1000
MTEXTBEGIN
1070
    73
1070
     1
1070
    44
1040
1.0
1070
    74
1070
     0
1000
MTEXTEND
  0
MTEXT
  5
55E9
330
1A
100
AcDbEntity
  8
SUNPOU
100
AcDbMText
 10
60137.21151666167
 20
46697.20858673491
 30
0.0
 40
10.5
 41
0.0
 71
     9
 72
     5
  1

1001
ACAD
1000
MTEXTBEGIN
1070
    73
1070
     1
1070
    44
1040
1.0
1070
    74
1070
     0
1000
MTEXTEND
1000
MTEXTBEGIN
1070
    73
1070
     1
1070
    44
1040
1.0
1070
    74
1070
     0
1000
MTEXTEND
  0
MTEXT
  5
55EA
330
1A
100
AcDbEntity
  8
SUNPOU
100
AcDbMText
 10
46189.21141628568
 20
27524.80944762269
 30
0.0
 40
3.5
 41
0.0
 71
     7
 72
     5
  1

1001
ACAD
1000
MTEXTBEGIN
1070
    73
1070
     1
1070
    44
1040
1.0
1070
    74
1070
     0
1000
MTEXTEND
1000
MTEXTBEGIN
1070
    73
1070
     1
1070
    44
1040
1.0
1070
    74
1070
     0
1000
MTEXTEND
  0
MTEXT
  5
55EB
330
1A
100
AcDbEntity
  8
SUNPOU
100
AcDbMText
 10
45007.68847015541
 20
38269.57947701874
 30
0.0
 40
10.5
 41
0.0
 71
     9
 72
     5
  1

1001
ACAD
1000
MTEXTBEGIN
1070
    73
1070
     1
1070
    44
1040
1.0
1070
    74
1070
     0
1000
MTEXTEND
1000
MTEXTBEGIN
1070
    73
1070
     1
1070
    44
1040
1.0
1070
    74
1070
     0
1000
MTEXTEND
  0
MTEXT
  5
55EC
330
1A
100
AcDbEntity
  8
SUNPOU
100
AcDbMText
 10
63961.44718748539
 20
55736.15552951081
 30
0.0
 40
10.5
 41
0.0
 71
     9
 72
     5
  1

1001
ACAD
1000
MTEXTBEGIN
1070
    73
1070
     1
1070
    44
1040
1.0
1070
    74
1070
     0
1000
MTEXTEND
1000
MTEXTBEGIN
1070
    73
1070
     1
1070
    44
1040
1.0
1070
    74
1070
     0
1000
MTEXTEND
  0
MTEXT
  5
55ED
330
1A
100
AcDbEntity
  8
SUNPOU
100
AcDbMText
 10
65904.85443419479
 20
53935.10644963279
 30
0.0
 40
3.5
 41
0.0
 71
     9
 72
     5
  1

1001
ACAD
1000
MTEXTBEGIN
1070
    73
1070
     1
1070
    44
1040
1.0
1070
    74
1070
     0
1000
MTEXTEND
1000
MTEXTBEGIN
1070
    73
1070
     1
1070
    44
1040
1.0
1070
    74
1070
     0
1000
MTEXTEND
  0
MTEXT
  5
55EE
330
1A
100
AcDbEntity
  8
SUNPOU
100
AcDbMText
 10
97031.03426681451
 20
96430.05211729015
 30
0.0
 40
10.5
 41
0.0
 71
     9
 72
     5
  1

1001
ACAD
1000
MTEXTBEGIN
1070
    73
1070
     1
1070
    44
1040
1.0
1070
    74
1070
     0
1000
MTEXTEND
1000
MTEXTBEGIN
1070
    73
1070
     1
1070
    44
1040
1.0
1070
    74
1070
     0
1000
MTEXTEND
  0
MTEXT
  5
55EF
330
1A
100
AcDbEntity
  8
SUNPOU
100
AcDbMText
 10
98974.44151352393
 20
94629.00303741212
 30
0.0
 40
3.5
 41
0.0
 71
     9
 72
     5
  1

1001
ACAD
1000
MTEXTBEGIN
1070
    73
1070
     1
1070
    44
1040
1.0
1070
    74
1070
     0
1000
MTEXTEND
1000
MTEXTBEGIN
1070
    73
1070
     1
1070
    44
1040
1.0
1070
    74
1070
     0
1000
MTEXTEND
  0
MTEXT
  5
55F0
330
1A
100
AcDbEntity
  8
SUNPOU
100
AcDbMText
 10
47471.30197261006
 20
42263.21727226519
 30
0.0
 40
10.5
 41
0.0
 71
     9
 72
     5
  1

1001
ACAD
1000
MTEXTBEGIN
1070
    73
1070
     1
1070
    44
1040
1.0
1070
    74
1070
     0
1000
MTEXTEND
1000
MTEXTBEGIN
1070
    73
1070
     1
1070
    44
1040
1.0
1070
    74
1070
     0
1000
MTEXTEND
  0
MTEXT
  5
55F1
330
1A
100
AcDbEntity
  8
SUNPOU
100
AcDbMText
 10
33523.30187223408
 20
23090.81813315298
 30
0.0
 40
3.5
 41
0.0
 71
     7
 72
     5
  1

1001
ACAD
1000
MTEXTBEGIN
1070
    73
1070
     1
1070
    44
1040
1.0
1070
    74
1070
     0
1000
MTEXTEND
1000
MTEXTBEGIN
1070
    73
1070
     1
1070
    44
1040
1.0
1070
    74
1070
     0
1000
MTEXTEND
  0
MTEXT
  5
55F2
330
1A
100
AcDbEntity
  8
SUNPOU
100
AcDbMText
 10
57959.46254102503
 20
50038.08111611015
 30
0.0
 40
10.5
 41
0.0
 71
     9
 72
     5
  1

1001
ACAD
1000
MTEXTBEGIN
1070
    73
1070
     1
1070
    44
1040
1.0
1070
    74
1070
     0
1000
MTEXTEND
1000
MTEXTBEGIN
1070
    73
1070
     1
1070
    44
1040
1.0
1070
    74
1070
     0
1000
MTEXTEND
  0
MTEXT
  5
55F3
330
1A
100
AcDbEntity
  8
SUNPOU
100
AcDbMText
 10
76913.22125835503
 20
67504.65716860222
 30
0.0
 40
10.5
 41
0.0
 71
     9
 72
     5
  1

1001
ACAD
1000
MTEXTBEGIN
1070
    73
1070
     1
1070
    44
1040
1.0
1070
    74
1070
     0
1000
MTEXTEND
1000
MTEXTBEGIN
1070
    73
1070
     1
1070
    44
1040
1.0
1070
    74
1070
     0
1000
MTEXTEND
  0
MTEXT
  5
55F4
330
1A
100
AcDbEntity
  8
SUNPOU
100
AcDbMText
 10
78856.62850506443
 20
65703.6080887242
 30
0.0
 40
3.5
 41
0.0
 71
     9
 72
     5
  1

1001
ACAD
1000
MTEXTBEGIN
1070
    73
1070
     1
1070
    44
1040
1.0
1070
    74
1070
     0
1000
MTEXTEND
1000
MTEXTBEGIN
1070
    73
1070
     1
1070
    44
1040
1.0
1070
    74
1070
     0
1000
MTEXTEND
  0
MTEXT
  5
55F5
330
1A
100
AcDbEntity
  8
SUNPOU
100
AcDbMText
 10
109982.8083376841
 20
108198.5537563815
 30
0.0
 40
10.5
 41
0.0
 71
     9
 72
     5
  1

1001
ACAD
1000
MTEXTBEGIN
1070
    73
1070
     1
1070
    44
1040
1.0
1070
    74
1070
     0
1000
MTEXTEND
1000
MTEXTBEGIN
1070
    73
1070
     1
1070
    44
1040
1.0
1070
    74
1070
     0
1000
MTEXTEND
  0
MTEXT
  5
55F6
330
1A
100
AcDbEntity
  8
SUNPOU
100
AcDbMText
 10
111926.2155843935
 20
106397.5046765035
 30
0.0
 40
3.5
 41
0.0
 71
     9
 72
     5
  1

1001
ACAD
1000
MTEXTBEGIN
1070
    73
1070
     1
1070
    44
1040
1.0
1070
    74
1070
     0
1000
MTEXTEND
1000
MTEXTBEGIN
1070
    73
1070
     1
1070
    44
1040
1.0
1070
    74
1070
     0
1000
MTEXTEND
  0
MTEXT
  5
55F7
330
1A
100
AcDbEntity
  8
SUNPOU
100
AcDbMText
 10
60423.07604347968
 20
54031.71891135659
 30
0.0
 40
10.5
 41
0.0
 71
     9
 72
     5
  1

1001
ACAD
1000
MTEXTBEGIN
1070
    73
1070
     1
1070
    44
1040
1.0
1070
    74
1070
     0
1000
MTEXTEND
1000
MTEXTBEGIN
1070
    73
1070
     1
1070
    44
1040
1.0
1070
    74
1070
     0
1000
MTEXTEND
  0
MTEXT
  5
55F8
330
1A
100
AcDbEntity
  8
SUNPOU
100
AcDbMText
 10
46475.07594310369
 20
34859.3197722444
 30
0.0
 40
3.5
 41
0.0
 71
     7
 72
     5
  1

1001
ACAD
1000
MTEXTBEGIN
1070
    73
1070
     1
1070
    44
1040
1.0
1070
    74
1070
     0
1000
MTEXTEND
1000
MTEXTBEGIN
1070
    73
1070
     1
1070
    44
1040
1.0
1070
    74
1070
     0
1000
MTEXTEND
  0
MTEXT
  5
55F9
330
1A
100
AcDbEntity
  8
SUNPOU
100
AcDbMText
 10
74027.35402123588
 20
68370.58278833383
 30
0.0
 40
10.5
 41
0.0
 71
     9
 72
     5
  1

1001
ACAD
1000
MTEXTBEGIN
1070
    73
1070
     1
1070
    44
1040
1.0
1070
    74
1070
     0
1000
MTEXTEND
1000
MTEXTBEGIN
1070
    73
1070
     1
1070
    44
1040
1.0
1070
    74
1070
     0
1000
MTEXTEND
  0
MTEXT
  5
55FA
330
1A
100
AcDbEntity
  8
SUNPOU
100
AcDbMText
 10
75970.7612679453
 20
66569.53370845583
 30
0.0
 40
3.5
 41
0.0
 71
     9
 72
     5
  1

1001
ACAD
1000
MTEXTBEGIN
1070
    73
1070
     1
1070
    44
1040
1.0
1070
    74
1070
     0
1000
MTEXTEND
1000
MTEXTBEGIN
1070
    73
1070
     1
1070
    44
1040
1.0
1070
    74
1070
     0
1000
MTEXTEND
  0
MTEXT
  5
55FB
330
1A
100
AcDbEntity
  8
SUNPOU
100
AcDbMText
 10
107096.941100565
 20
109064.4793761132
 30
0.0
 40
10.5
 41
0.0
 71
     9
 72
     5
  1

1001
ACAD
1000
MTEXTBEGIN
1070
    73
1070
     1
1070
    44
1040
1.0
1070
    74
1070
     0
1000
MTEXTEND
1000
MTEXTBEGIN
1070
    73
1070
     1
1070
    44
1040
1.0
1070
    74
1070
     0
1000
MTEXTEND
  0
MTEXT
  5
55FC
330
1A
100
AcDbEntity
  8
SUNPOU
100
AcDbMText
 10
109040.3483472744
 20
107263.4302962351
 30
0.0
 40
3.5
 41
0.0
 71
     9
 72
     5
  1

1001
ACAD
1000
MTEXTBEGIN
1070
    73
1070
     1
1070
    44
1040
1.0
1070
    74
1070
     0
1000
MTEXTEND
1000
MTEXTBEGIN
1070
    73
1070
     1
1070
    44
1040
1.0
1070
    74
1070
     0
1000
MTEXTEND
  0
MTEXT
  5
55FD
330
1A
100
AcDbEntity
  8
SUNPOU
100
AcDbMText
 10
105709.1709283621
 20
108141.3777665285
 30
0.0
 40
10.5
 41
0.0
 71
     9
 72
     5
  1

1001
ACAD
1000
MTEXTBEGIN
1070
    73
1070
     1
1070
    44
1040
1.0
1070
    74
1070
     0
1000
MTEXTEND
1000
MTEXTBEGIN
1070
    73
1070
     1
1070
    44
1040
1.0
1070
    74
1070
     0
1000
MTEXTEND
  0
MTEXT
  5
55FE
330
1A
100
AcDbEntity
  8
SUNPOU
100
AcDbMText
 10
107652.5781750715
 20
106340.3286866505
 30
0.0
 40
3.5
 41
0.0
 71
     9
 72
     5
  1

1001
ACAD
1000
MTEXTBEGIN
1070
    73
1070
     1
1070
    44
1040
1.0
1070
    74
1070
     0
1000
MTEXTEND
1000
MTEXTBEGIN
1070
    73
1070
     1
1070
    44
1040
1.0
1070
    74
1070
     0
1000
MTEXTEND
  0
MTEXT
  5
55FF
330
1A
100
AcDbEntity
  8
SUNPOU
100
AcDbMText
 10
73193.09268743351
 20
66158.78082845056
 30
0.0
 40
10.5
 41
0.0
 71
     9
 72
     5
  1

1001
ACAD
1000
MTEXTBEGIN
1070
    73
1070
     1
1070
    44
1040
1.0
1070
    74
1070
     0
1000
MTEXTEND
1000
MTEXTBEGIN
1070
    73
1070
     1
1070
    44
1040
1.0
1070
    74
1070
     0
1000
MTEXTEND
  0
MTEXT
  5
5600
330
1A
100
AcDbEntity
  8
SUNPOU
100
AcDbMText
 10
75916.39889159806
 20
66563.46252003162
 30
0.0
 40
3.5
 41
0.0
 71
     9
 72
     5
  1

1001
ACAD
1000
MTEXTBEGIN
1070
    73
1070
     1
1070
    44
1040
1.0
1070
    74
1070
     0
1000
MTEXTEND
1000
MTEXTBEGIN
1070
    73
1070
     1
1070
    44
1040
1.0
1070
    74
1070
     0
1000
MTEXTEND
  0
MTEXT
  5
5601
330
1A
100
AcDbEntity
  8
SUNPOU
100
AcDbMText
 10
75124.04436649058
 20
63402.1566819768
 30
0.0
 40
10.5
 41
0.0
 71
     9
 72
     5
  1

1001
ACAD
1000
MTEXTBEGIN
1070
    73
1070
     1
1070
    44
1040
1.0
1070
    74
1070
     0
1000
MTEXTEND
1000
MTEXTBEGIN
1070
    73
1070
     1
1070
    44
1040
1.0
1070
    74
1070
     0
1000
MTEXTEND
  0
MTEXT
  5
5602
330
1A
100
AcDbEntity
  8
SUNPOU
100
AcDbMText
 10
77067.4516132
 20
61601.1076020988
 30
0.0
 40
3.5
 41
0.0
 71
     9
 72
     5
  1

1001
ACAD
1000
MTEXTBEGIN
1070
    73
1070
     1
1070
    44
1040
1.0
1070
    74
1070
     0
1000
MTEXTEND
1000
MTEXTBEGIN
1070
    73
1070
     1
1070
    44
1040
1.0
1070
    74
1070
     0
1000
MTEXTEND
  0
MTEXT
  5
5603
330
1A
100
AcDbEntity
  8
SUNPOU
100
AcDbMText
 10
77012.54710378659
 20
61488.33571981449
 30
0.0
 40
3.5
 41
0.0
 71
     9
 72
     5
  1

1001
ACAD
1000
MTEXTBEGIN
1070
    73
1070
     1
1070
    44
1040
1.0
1070
    74
1070
     0
1000
MTEXTEND
1000
MTEXTBEGIN
1070
    73
1070
     1
1070
    44
1040
1.0
1070
    74
1070
     0
1000
MTEXTEND
  0
MTEXT
  5
5604
330
1A
100
AcDbEntity
  8
SUNPOU
100
AcDbMText
 10
76376.61896736668
 20
60677.01447874797
 30
0.0
 40
3.5
 41
0.0
 71
     9
 72
     5
  1

1001
ACAD
1000
MTEXTBEGIN
1070
    73
1070
     1
1070
    44
1040
1.0
1070
    74
1070
     0
1000
MTEXTEND
1000
MTEXTBEGIN
1070
    73
1070
     1
1070
    44
1040
1.0
1070
    74
1070
     0
1000
MTEXTEND
  0
MTEXT
  5
5605
330
1A
100
AcDbEntity
  8
SUNPOU
100
AcDbMText
 10
76375.37854794595
 20
60676.76650181047
 30
0.0
 40
10.5
 41
0.0
 71
     9
 72
     5
  1

1001
ACAD
1000
MTEXTBEGIN
1070
    73
1070
     1
1070
    44
1040
1.0
1070
    74
1070
     0
1000
MTEXTEND
1000
MTEXTBEGIN
1070
    73
1070
     1
1070
    44
1040
1.0
1070
    74
1070
     0
1000
MTEXTEND
  0
MTEXT
  5
5606
330
1A
100
AcDbEntity
  8
SUNPOU
100
AcDbMText
 10
84709.93991079748
 20
78034.0328293557
 30
0.0
 40
10.5
 41
0.0
 71
     9
 72
     5
  1

1001
ACAD
1000
MTEXTBEGIN
1070
    73
1070
     1
1070
    44
1040
1.0
1070
    74
1070
     0
1000
MTEXTEND
1000
MTEXTBEGIN
1070
    73
1070
     1
1070
    44
1040
1.0
1070
    74
1070
     0
1000
MTEXTEND
  0
MTEXT
  5
5607
330
1A
100
AcDbEntity
  8
SUNPOU
100
AcDbMText
 10
93432.10747671548
 20
85449.86736089315
 30
0.0
 40
10.5
 41
0.0
 71
     9
 72
     5
  1

1001
ACAD
1000
MTEXTBEGIN
1070
    73
1070
     1
1070
    44
1040
1.0
1070
    74
1070
     0
1000
MTEXTEND
1000
MTEXTBEGIN
1070
    73
1070
     1
1070
    44
1040
1.0
1070
    74
1070
     0
1000
MTEXTEND
  0
MTEXT
  5
5608
330
1A
100
AcDbEntity
  8
SUNPOU
100
AcDbMText
 10
112385.8661940454
 20
102916.4434133851
 30
0.0
 40
10.5
 41
0.0
 71
     9
 72
     5
  1

1001
ACAD
1000
MTEXTBEGIN
1070
    73
1070
     1
1070
    44
1040
1.0
1070
    74
1070
     0
1000
MTEXTEND
1000
MTEXTBEGIN
1070
    73
1070
     1
1070
    44
1040
1.0
1070
    74
1070
     0
1000
MTEXTEND
  0
MTEXT
  5
5609
330
1A
100
AcDbEntity
  8
SUNPOU
100
AcDbMText
 10
114329.2734407548
 20
101115.3943335072
 30
0.0
 40
3.5
 41
0.0
 71
     9
 72
     5
  1

1001
ACAD
1000
MTEXTBEGIN
1070
    73
1070
     1
1070
    44
1040
1.0
1070
    74
1070
     0
1000
MTEXTEND
1000
MTEXTBEGIN
1070
    73
1070
     1
1070
    44
1040
1.0
1070
    74
1070
     0
1000
MTEXTEND
  0
MTEXT
  5
560A
330
1A
100
AcDbEntity
  8
SUNPOU
100
AcDbMText
 10
145455.4532733745
 20
143610.3400011645
 30
0.0
 40
10.5
 41
0.0
 71
     9
 72
     5
  1

1001
ACAD
1000
MTEXTBEGIN
1070
    73
1070
     1
1070
    44
1040
1.0
1070
    74
1070
     0
1000
MTEXTEND
1000
MTEXTBEGIN
1070
    73
1070
     1
1070
    44
1040
1.0
1070
    74
1070
     0
1000
MTEXTEND
  0
MTEXT
  5
560B
330
1A
100
AcDbEntity
  8
SUNPOU
100
AcDbMText
 10
147398.8605200839
 20
141809.2909212864
 30
0.0
 40
3.5
 41
0.0
 71
     9
 72
     5
  1

1001
ACAD
1000
MTEXTBEGIN
1070
    73
1070
     1
1070
    44
1040
1.0
1070
    74
1070
     0
1000
MTEXTEND
1000
MTEXTBEGIN
1070
    73
1070
     1
1070
    44
1040
1.0
1070
    74
1070
     0
1000
MTEXTEND
  0
MTEXT
  5
560C
330
1A
100
AcDbEntity
  8
SUNPOU
100
AcDbMText
 10
95895.72097917013
 20
89443.5051561396
 30
0.0
 40
10.5
 41
0.0
 71
     9
 72
     5
  1

1001
ACAD
1000
MTEXTBEGIN
1070
    73
1070
     1
1070
    44
1040
1.0
1070
    74
1070
     0
1000
MTEXTEND
1000
MTEXTBEGIN
1070
    73
1070
     1
1070
    44
1040
1.0
1070
    74
1070
     0
1000
MTEXTEND
  0
MTEXT
  5
560D
330
1A
100
AcDbEntity
  8
SUNPOU
100
AcDbMText
 10
81947.72087879414
 20
70271.1060170274
 30
0.0
 40
3.5
 41
0.0
 71
     7
 72
     5
  1

1001
ACAD
1000
MTEXTBEGIN
1070
    73
1070
     1
1070
    44
1040
1.0
1070
    74
1070
     0
1000
MTEXTEND
1000
MTEXTBEGIN
1070
    73
1070
     1
1070
    44
1040
1.0
1070
    74
1070
     0
1000
MTEXTEND
  0
MTEXT
  5
560E
330
1A
100
AcDbEntity
  8
SUNPOU
100
AcDbMText
 10
62932.89027578729
 20
58033.25474784561
 30
0.0
 40
10.5
 41
0.0
 71
     7
 72
     5
  1

1001
ACAD
1000
MTEXTBEGIN
1070
    73
1070
     1
1070
    44
1040
1.0
1070
    74
1070
     0
1000
MTEXTEND
1000
MTEXTBEGIN
1070
    73
1070
     1
1070
    44
1040
1.0
1070
    74
1070
     0
1000
MTEXTEND
  0
MTEXT
  5
560F
330
1A
100
AcDbEntity
  8
SUNPOU
100
AcDbMText
 10
50475.66201083918
 20
42188.32316974719
 30
0.0
 40
35.0
 41
0.0
 71
     9
 72
     5
  1

1001
ACAD
1000
MTEXTBEGIN
1070
    73
1070
     1
1070
    44
1040
1.0
1070
    74
1070
     0
1000
MTEXTEND
1000
MTEXTBEGIN
1070
    73
1070
     1
1070
    44
1040
1.0
1070
    74
1070
     0
1000
MTEXTEND
  0
MTEXT
  5
5610
330
1A
100
AcDbEntity
  8
SUNPOU
100
AcDbMText
 10
49384.14706841413
 20
42797.0985797959
 30
0.0
 40
350.0000004171781
 41
0.0
 71
     7
 72
     5
  1

1001
ACAD
1000
MTEXTBEGIN
1070
    73
1070
     1
1070
    44
1040
1.0
1070
    74
1070
     0
1000
MTEXTEND
1000
MTEXTBEGIN
1070
    73
1070
     1
1070
    44
1040
1.0
1070
    74
1070
     0
1000
MTEXTEND
  0
MTEXT
  5
5611
330
1A
100
AcDbEntity
  8
0
100
AcDbMText
 10
55428.09782635704
 20
40777.02094193211
 30
0.0
 40
8.0
 41
0.0
 71
     7
 72
     5
  1

1001
ACAD
1000
MTEXTBEGIN
1070
    73
1070
     1
1070
    44
1040
1.0
1070
    74
1070
     0
1000
MTEXTEND
1000
MTEXTBEGIN
1070
    73
1070
     1
1070
    44
1040
1.0
1070
    74
1070
     0
1000
MTEXTEND
  0
MTEXT
  5
5612
330
1A
100
AcDbEntity
  8
0
100
AcDbMText
 10
57713.45551625194
 20
41747.81123668317
 30
0.0
 40
8.0
 41
0.0
 71
     7
 72
     5
  1

1001
ACAD
1000
MTEXTBEGIN
1070
    73
1070
     1
1070
    44
1040
1.0
1070
    74
1070
     0
1000
MTEXTEND
1000
MTEXTBEGIN
1070
    73
1070
     1
1070
    44
1040
1.0
1070
    74
1070
     0
1000
MTEXTEND
  0
MTEXT
  5
5613
330
1A
100
AcDbEntity
  8
SUNPOU
100
AcDbMText
 10
60379.35253693408
 20
51259.9226290583
 30
0.0
 40
10.5
 41
0.0
 71
     1
 72
     5
  1

1001
ACAD
1000
MTEXTBEGIN
1070
    73
1070
     1
1070
    44
1040
1.0
1070
    74
1070
     0
1000
MTEXTEND
1000
MTEXTBEGIN
1070
    73
1070
     1
1070
    44
1040
1.0
1070
    74
1070
     0
1000
MTEXTEND
  0
MTEXT
  5
5614
330
1A
100
AcDbEntity
  8
SUNPOU
100
AcDbMText
 10
52448.42934099814
 20
50313.12949514535
 30
0.0
 40
10.5
 41
0.0
 71
     7
 72
     5
  1

1001
ACAD
1000
MTEXTBEGIN
1070
    73
1070
     1
1070
    44
1040
1.0
1070
    74
1070
     0
1000
MTEXTEND
1000
MTEXTBEGIN
1070
    73
1070
     1
1070
    44
1040
1.0
1070
    74
1070
     0
1000
MTEXTEND
  0
MTEXT
  5
5615
330
1A
100
AcDbEntity
  8
SUNPOU
100
AcDbMText
 10
55397.41300551091
 20
55213.80556698819
 30
0.0
 40
10.5
 41
0.0
 71
     7
 72
     5
  1

1001
ACAD
1000
MTEXTBEGIN
1070
    73
1070
     1
1070
    44
1040
1.0
1070
    74
1070
     0
1000
MTEXTEND
1000
MTEXTBEGIN
1070
    73
1070
     1
1070
    44
1040
1.0
1070
    74
1070
     0
1000
MTEXTEND
  0
MTEXT
  5
5616
330
1A
100
AcDbEntity
  8
SUNPOU
100
AcDbMText
 10
59906.49113346147
 20
57650.10631460826
 30
0.0
 40
10.5
 41
0.0
 71
     7
 72
     5
  1

1001
ACAD
1000
MTEXTBEGIN
1070
    73
1070
     1
1070
    44
1040
1.0
1070
    74
1070
     0
1000
MTEXTEND
1000
MTEXTBEGIN
1070
    73
1070
     1
1070
    44
1040
1.0
1070
    74
1070
     0
1000
MTEXTEND
  0
MTEXT
  5
5617
330
1A
100
AcDbEntity
  8
SUNPOU
100
AcDbMText
 10
43507.32902022979
 20
36647.70246499718
 30
0.0
 40
10.5
 41
0.0
 71
     7
 72
     5
  1

1001
ACAD
1000
MTEXTBEGIN
1070
    73
1070
     1
1070
    44
1040
1.0
1070
    74
1070
     0
1000
MTEXTEND
1000
MTEXTBEGIN
1070
    73
1070
     1
1070
    44
1040
1.0
1070
    74
1070
     0
1000
MTEXTEND
  0
MTEXT
  5
5618
330
1A
100
AcDbEntity
  8
SUNPOU
100
AcDbMText
 10
94698.84745413006
 20
82320.68302864542
 30
0.0
 40
10.5
 41
0.0
 71
     9
 72
     5
  1

1001
ACAD
1000
MTEXTBEGIN
1070
    73
1070
     1
1070
    44
1040
1.0
1070
    74
1070
     0
1000
MTEXTEND
1000
MTEXTBEGIN
1070
    73
1070
     1
1070
    44
1040
1.0
1070
    74
1070
     0
1000
MTEXTEND
  0
MTEXT
  5
5619
330
1A
100
AcDbEntity
  8
SUNPOU
100
AcDbMText
 10
103421.015020048
 20
89736.5175601829
 30
0.0
 40
10.5
 41
0.0
 71
     9
 72
     5
  1

1001
ACAD
1000
MTEXTBEGIN
1070
    73
1070
     1
1070
    44
1040
1.0
1070
    74
1070
     0
1000
MTEXTEND
1000
MTEXTBEGIN
1070
    73
1070
     1
1070
    44
1040
1.0
1070
    74
1070
     0
1000
MTEXTEND
  0
MTEXT
  5
561A
330
1A
100
AcDbEntity
  8
SUNPOU
100
AcDbMText
 10
122374.773737378
 20
107203.0936126749
 30
0.0
 40
10.5
 41
0.0
 71
     9
 72
     5
  1

1001
ACAD
1000
MTEXTBEGIN
1070
    73
1070
     1
1070
    44
1040
1.0
1070
    74
1070
     0
1000
MTEXTEND
1000
MTEXTBEGIN
1070
    73
1070
     1
1070
    44
1040
1.0
1070
    74
1070
     0
1000
MTEXTEND
  0
MTEXT
  5
561B
330
1A
100
AcDbEntity
  8
SUNPOU
100
AcDbMText
 10
124318.1809840874
 20
105402.0445327969
 30
0.0
 40
3.5
 41
0.0
 71
     9
 72
     5
  1

1001
ACAD
1000
MTEXTBEGIN
1070
    73
1070
     1
1070
    44
1040
1.0
1070
    74
1070
     0
1000
MTEXTEND
1000
MTEXTBEGIN
1070
    73
1070
     1
1070
    44
1040
1.0
1070
    74
1070
     0
1000
MTEXTEND
  0
MTEXT
  5
561C
330
1A
100
AcDbEntity
  8
SUNPOU
100
AcDbMText
 10
155444.3608167071
 20
147896.9902004542
 30
0.0
 40
10.5
 41
0.0
 71
     9
 72
     5
  1

1001
ACAD
1000
MTEXTBEGIN
1070
    73
1070
     1
1070
    44
1040
1.0
1070
    74
1070
     0
1000
MTEXTEND
1000
MTEXTBEGIN
1070
    73
1070
     1
1070
    44
1040
1.0
1070
    74
1070
     0
1000
MTEXTEND
  0
MTEXT
  5
561D
330
1A
100
AcDbEntity
  8
SUNPOU
100
AcDbMText
 10
157387.7680634165
 20
146095.9411205762
 30
0.0
 40
3.5
 41
0.0
 71
     9
 72
     5
  1

1001
ACAD
1000
MTEXTBEGIN
1070
    73
1070
     1
1070
    44
1040
1.0
1070
    74
1070
     0
1000
MTEXTEND
1000
MTEXTBEGIN
1070
    73
1070
     1
1070
    44
1040
1.0
1070
    74
1070
     0
1000
MTEXTEND
  0
MTEXT
  5
561E
330
1A
100
AcDbEntity
  8
SUNPOU
100
AcDbMText
 10
105884.6285225027
 20
93730.15535542933
 30
0.0
 40
10.5
 41
0.0
 71
     9
 72
     5
  1

1001
ACAD
1000
MTEXTBEGIN
1070
    73
1070
     1
1070
    44
1040
1.0
1070
    74
1070
     0
1000
MTEXTEND
1000
MTEXTBEGIN
1070
    73
1070
     1
1070
    44
1040
1.0
1070
    74
1070
     0
1000
MTEXTEND
  0
MTEXT
  5
561F
330
1A
100
AcDbEntity
  8
SUNPOU
100
AcDbMText
 10
91936.6284221267
 20
74557.75621631714
 30
0.0
 40
3.5
 41
0.0
 71
     7
 72
     5
  1

1001
ACAD
1000
MTEXTBEGIN
1070
    73
1070
     1
1070
    44
1040
1.0
1070
    74
1070
     0
1000
MTEXTEND
1000
MTEXTBEGIN
1070
    73
1070
     1
1070
    44
1040
1.0
1070
    74
1070
     0
1000
MTEXTEND
  0
MTEXT
  5
5620
330
1A
100
AcDbEntity
  8
SUNPOU
100
AcDbMText
 10
72921.79781911986
 20
62319.90494713533
 30
0.0
 40
10.5
 41
0.0
 71
     7
 72
     5
  1

1001
ACAD
1000
MTEXTBEGIN
1070
    73
1070
     1
1070
    44
1040
1.0
1070
    74
1070
     0
1000
MTEXTEND
1000
MTEXTBEGIN
1070
    73
1070
     1
1070
    44
1040
1.0
1070
    74
1070
     0
1000
MTEXTEND
  0
MTEXT
  5
5621
330
1A
100
AcDbEntity
  8
SUNPOU
100
AcDbMText
 10
60464.56955417175
 20
46474.97336903692
 30
0.0
 40
35.0
 41
0.0
 71
     9
 72
     5
  1

1001
ACAD
1000
MTEXTBEGIN
1070
    73
1070
     1
1070
    44
1040
1.0
1070
    74
1070
     0
1000
MTEXTEND
1000
MTEXTBEGIN
1070
    73
1070
     1
1070
    44
1040
1.0
1070
    74
1070
     0
1000
MTEXTEND
  0
MTEXT
  5
5622
330
1A
100
AcDbEntity
  8
SUNPOU
100
AcDbMText
 10
59373.05461174672
 20
47083.74877908562
 30
0.0
 40
350.0000004171781
 41
0.0
 71
     7
 72
     5
  1

1001
ACAD
1000
MTEXTBEGIN
1070
    73
1070
     1
1070
    44
1040
1.0
1070
    74
1070
     0
1000
MTEXTEND
1000
MTEXTBEGIN
1070
    73
1070
     1
1070
    44
1040
1.0
1070
    74
1070
     0
1000
MTEXTEND
  0
MTEXT
  5
5623
330
1A
100
AcDbEntity
  8
0
100
AcDbMText
 10
65417.00536968962
 20
45063.67114122186
 30
0.0
 40
8.0
 41
0.0
 71
     7
 72
     5
  1

1001
ACAD
1000
MTEXTBEGIN
1070
    73
1070
     1
1070
    44
1040
1.0
1070
    74
1070
     0
1000
MTEXTEND
1000
MTEXTBEGIN
1070
    73
1070
     1
1070
    44
1040
1.0
1070
    74
1070
     0
1000
MTEXTEND
  0
MTEXT
  5
5624
330
1A
100
AcDbEntity
  8
0
100
AcDbMText
 10
67702.36305958452
 20
46034.46143597292
 30
0.0
 40
8.0
 41
0.0
 71
     7
 72
     5
  1

1001
ACAD
1000
MTEXTBEGIN
1070
    73
1070
     1
1070
    44
1040
1.0
1070
    74
1070
     0
1000
MTEXTEND
1000
MTEXTBEGIN
1070
    73
1070
     1
1070
    44
1040
1.0
1070
    74
1070
     0
1000
MTEXTEND
  0
MTEXT
  5
5625
330
1A
100
AcDbEntity
  8
SUNPOU
100
AcDbMText
 10
70368.26008026666
 20
55546.57282834803
 30
0.0
 40
10.5
 41
0.0
 71
     1
 72
     5
  1

1001
ACAD
1000
MTEXTBEGIN
1070
    73
1070
     1
1070
    44
1040
1.0
1070
    74
1070
     0
1000
MTEXTEND
1000
MTEXTBEGIN
1070
    73
1070
     1
1070
    44
1040
1.0
1070
    74
1070
     0
1000
MTEXTEND
  0
MTEXT
  5
5626
330
1A
100
AcDbEntity
  8
SUNPOU
100
AcDbMText
 10
62437.33688433072
 20
54599.77969443508
 30
0.0
 40
10.5
 41
0.0
 71
     7
 72
     5
  1

1001
ACAD
1000
MTEXTBEGIN
1070
    73
1070
     1
1070
    44
1040
1.0
1070
    74
1070
     0
1000
MTEXTEND
1000
MTEXTBEGIN
1070
    73
1070
     1
1070
    44
1040
1.0
1070
    74
1070
     0
1000
MTEXTEND
  0
MTEXT
  5
5627
330
1A
100
AcDbEntity
  8
SUNPOU
100
AcDbMText
 10
65386.32054884349
 20
59500.45576627792
 30
0.0
 40
10.5
 41
0.0
 71
     7
 72
     5
  1

1001
ACAD
1000
MTEXTBEGIN
1070
    73
1070
     1
1070
    44
1040
1.0
1070
    74
1070
     0
1000
MTEXTEND
1000
MTEXTBEGIN
1070
    73
1070
     1
1070
    44
1040
1.0
1070
    74
1070
     0
1000
MTEXTEND
  0
MTEXT
  5
5628
330
1A
100
AcDbEntity
  8
SUNPOU
100
AcDbMText
 10
69895.39867679405
 20
61936.756513898
 30
0.0
 40
10.5
 41
0.0
 71
     7
 72
     5
  1

1001
ACAD
1000
MTEXTBEGIN
1070
    73
1070
     1
1070
    44
1040
1.0
1070
    74
1070
     0
1000
MTEXTEND
1000
MTEXTBEGIN
1070
    73
1070
     1
1070
    44
1040
1.0
1070
    74
1070
     0
1000
MTEXTEND
  0
MTEXT
  5
5629
330
1A
100
AcDbEntity
  8
SUNPOU
100
AcDbMText
 10
53496.23656356237
 20
40934.35266428691
 30
0.0
 40
10.5
 41
0.0
 71
     7
 72
     5
  1

1001
ACAD
1000
MTEXTBEGIN
1070
    73
1070
     1
1070
    44
1040
1.0
1070
    74
1070
     0
1000
MTEXTEND
1000
MTEXTBEGIN
1070
    73
1070
     1
1070
    44
1040
1.0
1070
    74
1070
     0
1000
MTEXTEND
  0
MTEXT
  5
562A
330
1A
100
AcDbEntity
  8
SUNPOU
100
AcDbMText
 10
55306.99947493731
 20
47261.76665176547
 30
0.0
 40
10.5
 41
0.0
 71
     9
 72
     5
  1

1001
ACAD
1000
MTEXTBEGIN
1070
    73
1070
     1
1070
    44
1040
1.0
1070
    74
1070
     0
1000
MTEXTEND
1000
MTEXTBEGIN
1070
    73
1070
     1
1070
    44
1040
1.0
1070
    74
1070
     0
1000
MTEXTEND
  0
MTEXT
  5
562B
330
1A
100
AcDbEntity
  8
SUNPOU
100
AcDbMText
 10
64029.16704085528
 20
54677.60118330295
 30
0.0
 40
10.5
 41
0.0
 71
     9
 72
     5
  1

1001
ACAD
1000
MTEXTBEGIN
1070
    73
1070
     1
1070
    44
1040
1.0
1070
    74
1070
     0
1000
MTEXTEND
1000
MTEXTBEGIN
1070
    73
1070
     1
1070
    44
1040
1.0
1070
    74
1070
     0
1000
MTEXTEND
  0
MTEXT
  5
562C
330
1A
100
AcDbEntity
  8
SUNPOU
100
AcDbMText
 10
82982.92575818527
 20
72144.17723579499
 30
0.0
 40
10.5
 41
0.0
 71
     9
 72
     5
  1

1001
ACAD
1000
MTEXTBEGIN
1070
    73
1070
     1
1070
    44
1040
1.0
1070
    74
1070
     0
1000
MTEXTEND
1000
MTEXTBEGIN
1070
    73
1070
     1
1070
    44
1040
1.0
1070
    74
1070
     0
1000
MTEXTEND
  0
MTEXT
  5
562D
330
1A
100
AcDbEntity
  8
SUNPOU
100
AcDbMText
 10
84926.33300489467
 20
70343.12815591698
 30
0.0
 40
3.5
 41
0.0
 71
     9
 72
     5
  1

1001
ACAD
1000
MTEXTBEGIN
1070
    73
1070
     1
1070
    44
1040
1.0
1070
    74
1070
     0
1000
MTEXTEND
1000
MTEXTBEGIN
1070
    73
1070
     1
1070
    44
1040
1.0
1070
    74
1070
     0
1000
MTEXTEND
  0
MTEXT
  5
562E
330
1A
100
AcDbEntity
  8
SUNPOU
100
AcDbMText
 10
116052.5128375143
 20
112838.0738235743
 30
0.0
 40
10.5
 41
0.0
 71
     9
 72
     5
  1

1001
ACAD
1000
MTEXTBEGIN
1070
    73
1070
     1
1070
    44
1040
1.0
1070
    74
1070
     0
1000
MTEXTEND
1000
MTEXTBEGIN
1070
    73
1070
     1
1070
    44
1040
1.0
1070
    74
1070
     0
1000
MTEXTEND
  0
MTEXT
  5
562F
330
1A
100
AcDbEntity
  8
SUNPOU
100
AcDbMText
 10
117995.9200842238
 20
111037.0247436963
 30
0.0
 40
3.5
 41
0.0
 71
     9
 72
     5
  1

1001
ACAD
1000
MTEXTBEGIN
1070
    73
1070
     1
1070
    44
1040
1.0
1070
    74
1070
     0
1000
MTEXTEND
1000
MTEXTBEGIN
1070
    73
1070
     1
1070
    44
1040
1.0
1070
    74
1070
     0
1000
MTEXTEND
  0
MTEXT
  5
5630
330
1A
100
AcDbEntity
  8
SUNPOU
100
AcDbMText
 10
66492.78054330994
 20
58671.23897854939
 30
0.0
 40
10.5
 41
0.0
 71
     9
 72
     5
  1

1001
ACAD
1000
MTEXTBEGIN
1070
    73
1070
     1
1070
    44
1040
1.0
1070
    74
1070
     0
1000
MTEXTEND
1000
MTEXTBEGIN
1070
    73
1070
     1
1070
    44
1040
1.0
1070
    74
1070
     0
1000
MTEXTEND
  0
MTEXT
  5
5631
330
1A
100
AcDbEntity
  8
SUNPOU
100
AcDbMText
 10
52544.78044293396
 20
39498.83983943717
 30
0.0
 40
3.5
 41
0.0
 71
     7
 72
     5
  1

1001
ACAD
1000
MTEXTBEGIN
1070
    73
1070
     1
1070
    44
1040
1.0
1070
    74
1070
     0
1000
MTEXTEND
1000
MTEXTBEGIN
1070
    73
1070
     1
1070
    44
1040
1.0
1070
    74
1070
     0
1000
MTEXTEND
  0
MTEXT
  5
5632
330
1A
100
AcDbEntity
  8
SUNPOU
100
AcDbMText
 10
66237.13112570454
 20
48857.90306045851
 30
0.0
 40
10.5
 41
0.0
 71
     9
 72
     5
  1

1001
ACAD
1000
MTEXTBEGIN
1070
    73
1070
     1
1070
    44
1040
1.0
1070
    74
1070
     0
1000
MTEXTEND
1000
MTEXTBEGIN
1070
    73
1070
     1
1070
    44
1040
1.0
1070
    74
1070
     0
1000
MTEXTEND
  0
MTEXT
  5
5633
330
1A
100
AcDbEntity
  8
SUNPOU
100
AcDbMText
 10
74959.29869162252
 20
56273.737591996
 30
0.0
 40
10.5
 41
0.0
 71
     9
 72
     5
  1

1001
ACAD
1000
MTEXTBEGIN
1070
    73
1070
     1
1070
    44
1040
1.0
1070
    74
1070
     0
1000
MTEXTEND
1000
MTEXTBEGIN
1070
    73
1070
     1
1070
    44
1040
1.0
1070
    74
1070
     0
1000
MTEXTEND
  0
MTEXT
  5
5634
330
1A
100
AcDbEntity
  8
SUNPOU
100
AcDbMText
 10
93913.0574089525
 20
73740.31364448805
 30
0.0
 40
10.5
 41
0.0
 71
     9
 72
     5
  1

1001
ACAD
1000
MTEXTBEGIN
1070
    73
1070
     1
1070
    44
1040
1.0
1070
    74
1070
     0
1000
MTEXTEND
1000
MTEXTBEGIN
1070
    73
1070
     1
1070
    44
1040
1.0
1070
    74
1070
     0
1000
MTEXTEND
  0
MTEXT
  5
5635
330
1A
100
AcDbEntity
  8
SUNPOU
100
AcDbMText
 10
95856.46465566192
 20
71939.26456461004
 30
0.0
 40
3.5
 41
0.0
 71
     9
 72
     5
  1

1001
ACAD
1000
MTEXTBEGIN
1070
    73
1070
     1
1070
    44
1040
1.0
1070
    74
1070
     0
1000
MTEXTEND
1000
MTEXTBEGIN
1070
    73
1070
     1
1070
    44
1040
1.0
1070
    74
1070
     0
1000
MTEXTEND
  0
MTEXT
  5
5636
330
1A
100
AcDbEntity
  8
SUNPOU
100
AcDbMText
 10
126982.6444882816
 20
114434.2102322673
 30
0.0
 40
10.5
 41
0.0
 71
     9
 72
     5
  1

1001
ACAD
1000
MTEXTBEGIN
1070
    73
1070
     1
1070
    44
1040
1.0
1070
    74
1070
     0
1000
MTEXTEND
1000
MTEXTBEGIN
1070
    73
1070
     1
1070
    44
1040
1.0
1070
    74
1070
     0
1000
MTEXTEND
  0
MTEXT
  5
5637
330
1A
100
AcDbEntity
  8
SUNPOU
100
AcDbMText
 10
128926.051734991
 20
112633.1611523893
 30
0.0
 40
3.5
 41
0.0
 71
     9
 72
     5
  1

1001
ACAD
1000
MTEXTBEGIN
1070
    73
1070
     1
1070
    44
1040
1.0
1070
    74
1070
     0
1000
MTEXTEND
1000
MTEXTBEGIN
1070
    73
1070
     1
1070
    44
1040
1.0
1070
    74
1070
     0
1000
MTEXTEND
  0
MTEXT
  5
5638
330
1A
100
AcDbEntity
  8
SUNPOU
100
AcDbMText
 10
77422.91219407717
 20
60267.37538724244
 30
0.0
 40
10.5
 41
0.0
 71
     9
 72
     5
  1

1001
ACAD
1000
MTEXTBEGIN
1070
    73
1070
     1
1070
    44
1040
1.0
1070
    74
1070
     0
1000
MTEXTEND
1000
MTEXTBEGIN
1070
    73
1070
     1
1070
    44
1040
1.0
1070
    74
1070
     0
1000
MTEXTEND
  0
MTEXT
  5
5639
330
1A
100
AcDbEntity
  8
SUNPOU
100
AcDbMText
 10
63474.91209370119
 20
41094.97624813023
 30
0.0
 40
3.5
 41
0.0
 71
     7
 72
     5
  1

1001
ACAD
1000
MTEXTBEGIN
1070
    73
1070
     1
1070
    44
1040
1.0
1070
    74
1070
     0
1000
MTEXTEND
1000
MTEXTBEGIN
1070
    73
1070
     1
1070
    44
1040
1.0
1070
    74
1070
     0
1000
MTEXTEND
  0
MTEXT
  5
563A
330
1A
100
AcDbEntity
  8
SUNPOU
100
AcDbMText
 10
48117.65086229006
 20
40806.11043916631
 30
0.0
 40
10.5
 41
0.0
 71
     9
 72
     5
  1

1001
ACAD
1000
MTEXTBEGIN
1070
    73
1070
     1
1070
    44
1040
1.0
1070
    74
1070
     0
1000
MTEXTEND
1000
MTEXTBEGIN
1070
    73
1070
     1
1070
    44
1040
1.0
1070
    74
1070
     0
1000
MTEXTEND
  0
MTEXT
  5
563B
330
1A
100
AcDbEntity
  8
SUNPOU
100
AcDbMText
 10
67071.40957962004
 20
58272.68649165837
 30
0.0
 40
10.5
 41
0.0
 71
     9
 72
     5
  1

1001
ACAD
1000
MTEXTBEGIN
1070
    73
1070
     1
1070
    44
1040
1.0
1070
    74
1070
     0
1000
MTEXTEND
1000
MTEXTBEGIN
1070
    73
1070
     1
1070
    44
1040
1.0
1070
    74
1070
     0
1000
MTEXTEND
  0
MTEXT
  5
563C
330
1A
100
AcDbEntity
  8
SUNPOU
100
AcDbMText
 10
69014.81682632945
 20
56471.63741178035
 30
0.0
 40
3.5
 41
0.0
 71
     9
 72
     5
  1

1001
ACAD
1000
MTEXTBEGIN
1070
    73
1070
     1
1070
    44
1040
1.0
1070
    74
1070
     0
1000
MTEXTEND
1000
MTEXTBEGIN
1070
    73
1070
     1
1070
    44
1040
1.0
1070
    74
1070
     0
1000
MTEXTEND
  0
MTEXT
  5
563D
330
1A
100
AcDbEntity
  8
SUNPOU
100
AcDbMText
 10
100140.9966589491
 20
98966.58307943772
 30
0.0
 40
10.5
 41
0.0
 71
     9
 72
     5
  1

1001
ACAD
1000
MTEXTBEGIN
1070
    73
1070
     1
1070
    44
1040
1.0
1070
    74
1070
     0
1000
MTEXTEND
1000
MTEXTBEGIN
1070
    73
1070
     1
1070
    44
1040
1.0
1070
    74
1070
     0
1000
MTEXTEND
  0
MTEXT
  5
563E
330
1A
100
AcDbEntity
  8
SUNPOU
100
AcDbMText
 10
102084.4039056586
 20
97165.53399955969
 30
0.0
 40
3.5
 41
0.0
 71
     9
 72
     5
  1

1001
ACAD
1000
MTEXTBEGIN
1070
    73
1070
     1
1070
    44
1040
1.0
1070
    74
1070
     0
1000
MTEXTEND
1000
MTEXTBEGIN
1070
    73
1070
     1
1070
    44
1040
1.0
1070
    74
1070
     0
1000
MTEXTEND
  0
MTEXT
  5
563F
330
1A
100
AcDbEntity
  8
SUNPOU
100
AcDbMText
 10
50581.26436474472
 20
44799.74823441275
 30
0.0
 40
10.5
 41
0.0
 71
     9
 72
     5
  1

1001
ACAD
1000
MTEXTBEGIN
1070
    73
1070
     1
1070
    44
1040
1.0
1070
    74
1070
     0
1000
MTEXTEND
1000
MTEXTBEGIN
1070
    73
1070
     1
1070
    44
1040
1.0
1070
    74
1070
     0
1000
MTEXTEND
  0
MTEXT
  5
5640
330
1A
100
AcDbEntity
  8
SUNPOU
100
AcDbMText
 10
36633.26426436873
 20
25627.34909530054
 30
0.0
 40
3.5
 41
0.0
 71
     7
 72
     5
  1

1001
ACAD
1000
MTEXTBEGIN
1070
    73
1070
     1
1070
    44
1040
1.0
1070
    74
1070
     0
1000
MTEXTEND
1000
MTEXTBEGIN
1070
    73
1070
     1
1070
    44
1040
1.0
1070
    74
1070
     0
1000
MTEXTEND
  0
MTEXT
  5
5641
330
1A
100
AcDbEntity
  8
SUNPOU
100
AcDbMText
 10
61069.42493315968
 20
52574.61207825771
 30
0.0
 40
10.5
 41
0.0
 71
     9
 72
     5
  1

1001
ACAD
1000
MTEXTBEGIN
1070
    73
1070
     1
1070
    44
1040
1.0
1070
    74
1070
     0
1000
MTEXTEND
1000
MTEXTBEGIN
1070
    73
1070
     1
1070
    44
1040
1.0
1070
    74
1070
     0
1000
MTEXTEND
  0
MTEXT
  5
5642
330
1A
100
AcDbEntity
  8
SUNPOU
100
AcDbMText
 10
80023.18365048967
 20
70041.18813074978
 30
0.0
 40
10.5
 41
0.0
 71
     9
 72
     5
  1

1001
ACAD
1000
MTEXTBEGIN
1070
    73
1070
     1
1070
    44
1040
1.0
1070
    74
1070
     0
1000
MTEXTEND
1000
MTEXTBEGIN
1070
    73
1070
     1
1070
    44
1040
1.0
1070
    74
1070
     0
1000
MTEXTEND
  0
MTEXT
  5
5643
330
1A
100
AcDbEntity
  8
SUNPOU
100
AcDbMText
 10
81966.59089719908
 20
68240.13905087176
 30
0.0
 40
3.5
 41
0.0
 71
     9
 72
     5
  1

1001
ACAD
1000
MTEXTBEGIN
1070
    73
1070
     1
1070
    44
1040
1.0
1070
    74
1070
     0
1000
MTEXTEND
1000
MTEXTBEGIN
1070
    73
1070
     1
1070
    44
1040
1.0
1070
    74
1070
     0
1000
MTEXTEND
  0
MTEXT
  5
5644
330
1A
100
AcDbEntity
  8
SUNPOU
100
AcDbMText
 10
113092.7707298187
 20
110735.0847185291
 30
0.0
 40
10.5
 41
0.0
 71
     9
 72
     5
  1

1001
ACAD
1000
MTEXTBEGIN
1070
    73
1070
     1
1070
    44
1040
1.0
1070
    74
1070
     0
1000
MTEXTEND
1000
MTEXTBEGIN
1070
    73
1070
     1
1070
    44
1040
1.0
1070
    74
1070
     0
1000
MTEXTEND
  0
MTEXT
  5
5645
330
1A
100
AcDbEntity
  8
SUNPOU
100
AcDbMText
 10
115036.1779765282
 20
108934.0356386511
 30
0.0
 40
3.5
 41
0.0
 71
     9
 72
     5
  1

1001
ACAD
1000
MTEXTBEGIN
1070
    73
1070
     1
1070
    44
1040
1.0
1070
    74
1070
     0
1000
MTEXTEND
1000
MTEXTBEGIN
1070
    73
1070
     1
1070
    44
1040
1.0
1070
    74
1070
     0
1000
MTEXTEND
  0
MTEXT
  5
5646
330
1A
100
AcDbEntity
  8
SUNPOU
100
AcDbMText
 10
63533.03843561433
 20
56568.24987350415
 30
0.0
 40
10.5
 41
0.0
 71
     9
 72
     5
  1

1001
ACAD
1000
MTEXTBEGIN
1070
    73
1070
     1
1070
    44
1040
1.0
1070
    74
1070
     0
1000
MTEXTEND
1000
MTEXTBEGIN
1070
    73
1070
     1
1070
    44
1040
1.0
1070
    74
1070
     0
1000
MTEXTEND
  0
MTEXT
  5
5647
330
1A
100
AcDbEntity
  8
SUNPOU
100
AcDbMText
 10
49585.03833523835
 20
37395.85073439196
 30
0.0
 40
3.5
 41
0.0
 71
     7
 72
     5
  1

1001
ACAD
1000
MTEXTBEGIN
1070
    73
1070
     1
1070
    44
1040
1.0
1070
    74
1070
     0
1000
MTEXTEND
1000
MTEXTBEGIN
1070
    73
1070
     1
1070
    44
1040
1.0
1070
    74
1070
     0
1000
MTEXTEND
  0
MTEXT
  5
5648
330
1A
100
AcDbEntity
  8
SUNPOU
100
AcDbMText
 10
77137.31641337052
 20
70907.11375048141
 30
0.0
 40
10.5
 41
0.0
 71
     9
 72
     5
  1

1001
ACAD
1000
MTEXTBEGIN
1070
    73
1070
     1
1070
    44
1040
1.0
1070
    74
1070
     0
1000
MTEXTEND
1000
MTEXTBEGIN
1070
    73
1070
     1
1070
    44
1040
1.0
1070
    74
1070
     0
1000
MTEXTEND
  0
MTEXT
  5
5649
330
1A
100
AcDbEntity
  8
SUNPOU
100
AcDbMText
 10
79080.72366007995
 20
69106.06467060339
 30
0.0
 40
3.5
 41
0.0
 71
     9
 72
     5
  1

1001
ACAD
1000
MTEXTBEGIN
1070
    73
1070
     1
1070
    44
1040
1.0
1070
    74
1070
     0
1000
MTEXTEND
1000
MTEXTBEGIN
1070
    73
1070
     1
1070
    44
1040
1.0
1070
    74
1070
     0
1000
MTEXTEND
  0
MTEXT
  5
564A
330
1A
100
AcDbEntity
  8
SUNPOU
100
AcDbMText
 10
110206.9034926996
 20
111601.0103382607
 30
0.0
 40
10.5
 41
0.0
 71
     9
 72
     5
  1

1001
ACAD
1000
MTEXTBEGIN
1070
    73
1070
     1
1070
    44
1040
1.0
1070
    74
1070
     0
1000
MTEXTEND
1000
MTEXTBEGIN
1070
    73
1070
     1
1070
    44
1040
1.0
1070
    74
1070
     0
1000
MTEXTEND
  0
MTEXT
  5
564B
330
1A
100
AcDbEntity
  8
SUNPOU
100
AcDbMText
 10
112150.310739409
 20
109799.9612583827
 30
0.0
 40
3.5
 41
0.0
 71
     9
 72
     5
  1

1001
ACAD
1000
MTEXTBEGIN
1070
    73
1070
     1
1070
    44
1040
1.0
1070
    74
1070
     0
1000
MTEXTEND
1000
MTEXTBEGIN
1070
    73
1070
     1
1070
    44
1040
1.0
1070
    74
1070
     0
1000
MTEXTEND
  0
MTEXT
  5
564C
330
1A
100
AcDbEntity
  8
SUNPOU
100
AcDbMText
 10
108819.1333204968
 20
110677.9087286761
 30
0.0
 40
10.5
 41
0.0
 71
     9
 72
     5
  1

1001
ACAD
1000
MTEXTBEGIN
1070
    73
1070
     1
1070
    44
1040
1.0
1070
    74
1070
     0
1000
MTEXTEND
1000
MTEXTBEGIN
1070
    73
1070
     1
1070
    44
1040
1.0
1070
    74
1070
     0
1000
MTEXTEND
  0
MTEXT
  5
564D
330
1A
100
AcDbEntity
  8
SUNPOU
100
AcDbMText
 10
110762.5405672062
 20
108876.8596487981
 30
0.0
 40
3.5
 41
0.0
 71
     9
 72
     5
  1

1001
ACAD
1000
MTEXTBEGIN
1070
    73
1070
     1
1070
    44
1040
1.0
1070
    74
1070
     0
1000
MTEXTEND
1000
MTEXTBEGIN
1070
    73
1070
     1
1070
    44
1040
1.0
1070
    74
1070
     0
1000
MTEXTEND
  0
MTEXT
  5
564E
330
1A
100
AcDbEntity
  8
SUNPOU
100
AcDbMText
 10
76303.05507956816
 20
68695.31179059812
 30
0.0
 40
10.5
 41
0.0
 71
     9
 72
     5
  1

1001
ACAD
1000
MTEXTBEGIN
1070
    73
1070
     1
1070
    44
1040
1.0
1070
    74
1070
     0
1000
MTEXTEND
1000
MTEXTBEGIN
1070
    73
1070
     1
1070
    44
1040
1.0
1070
    74
1070
     0
1000
MTEXTEND
  0
MTEXT
  5
564F
330
1A
100
AcDbEntity
  8
SUNPOU
100
AcDbMText
 10
79026.36128373271
 20
69099.99348217918
 30
0.0
 40
3.5
 41
0.0
 71
     9
 72
     5
  1

1001
ACAD
1000
MTEXTBEGIN
1070
    73
1070
     1
1070
    44
1040
1.0
1070
    74
1070
     0
1000
MTEXTEND
1000
MTEXTBEGIN
1070
    73
1070
     1
1070
    44
1040
1.0
1070
    74
1070
     0
1000
MTEXTEND
  0
MTEXT
  5
5650
330
1A
100
AcDbEntity
  8
SUNPOU
100
AcDbMText
 10
78234.00675862522
 20
65938.68764412436
 30
0.0
 40
10.5
 41
0.0
 71
     9
 72
     5
  1

1001
ACAD
1000
MTEXTBEGIN
1070
    73
1070
     1
1070
    44
1040
1.0
1070
    74
1070
     0
1000
MTEXTEND
1000
MTEXTBEGIN
1070
    73
1070
     1
1070
    44
1040
1.0
1070
    74
1070
     0
1000
MTEXTEND
  0
MTEXT
  5
5651
330
1A
100
AcDbEntity
  8
SUNPOU
100
AcDbMText
 10
80177.41400533465
 20
64137.63856424636
 30
0.0
 40
3.5
 41
0.0
 71
     9
 72
     5
  1

1001
ACAD
1000
MTEXTBEGIN
1070
    73
1070
     1
1070
    44
1040
1.0
1070
    74
1070
     0
1000
MTEXTEND
1000
MTEXTBEGIN
1070
    73
1070
     1
1070
    44
1040
1.0
1070
    74
1070
     0
1000
MTEXTEND
  0
MTEXT
  5
5652
330
1A
100
AcDbEntity
  8
SUNPOU
100
AcDbMText
 10
80122.50949592123
 20
64024.86668196205
 30
0.0
 40
3.5
 41
0.0
 71
     9
 72
     5
  1

1001
ACAD
1000
MTEXTBEGIN
1070
    73
1070
     1
1070
    44
1040
1.0
1070
    74
1070
     0
1000
MTEXTEND
1000
MTEXTBEGIN
1070
    73
1070
     1
1070
    44
1040
1.0
1070
    74
1070
     0
1000
MTEXTEND
  0
MTEXT
  5
5653
330
1A
100
AcDbEntity
  8
SUNPOU
100
AcDbMText
 10
79486.58135950133
 20
63213.54544089553
 30
0.0
 40
3.5
 41
0.0
 71
     9
 72
     5
  1

1001
ACAD
1000
MTEXTBEGIN
1070
    73
1070
     1
1070
    44
1040
1.0
1070
    74
1070
     0
1000
MTEXTEND
1000
MTEXTBEGIN
1070
    73
1070
     1
1070
    44
1040
1.0
1070
    74
1070
     0
1000
MTEXTEND
  0
MTEXT
  5
5654
330
1A
100
AcDbEntity
  8
SUNPOU
100
AcDbMText
 10
79485.3409400806
 20
63213.29746395804
 30
0.0
 40
10.5
 41
0.0
 71
     9
 72
     5
  1

1001
ACAD
1000
MTEXTBEGIN
1070
    73
1070
     1
1070
    44
1040
1.0
1070
    74
1070
     0
1000
MTEXTEND
1000
MTEXTBEGIN
1070
    73
1070
     1
1070
    44
1040
1.0
1070
    74
1070
     0
1000
MTEXTEND
  0
MTEXT
  5
5655
330
1A
100
AcDbEntity
  8
SUNPOU
100
AcDbMText
 10
85473.63363627567
 20
80747.76348077064
 30
0.0
 40
10.5
 41
0.0
 71
     9
 72
     5
  1

1001
ACAD
1000
MTEXTBEGIN
1070
    73
1070
     1
1070
    44
1040
1.0
1070
    74
1070
     0
1000
MTEXTEND
1000
MTEXTBEGIN
1070
    73
1070
     1
1070
    44
1040
1.0
1070
    74
1070
     0
1000
MTEXTEND
  0
MTEXT
  5
5656
330
1A
100
AcDbEntity
  8
SUNPOU
100
AcDbMText
 10
94195.80120219368
 20
88163.59801230809
 30
0.0
 40
10.5
 41
0.0
 71
     9
 72
     5
  1

1001
ACAD
1000
MTEXTBEGIN
1070
    73
1070
     1
1070
    44
1040
1.0
1070
    74
1070
     0
1000
MTEXTEND
1000
MTEXTBEGIN
1070
    73
1070
     1
1070
    44
1040
1.0
1070
    74
1070
     0
1000
MTEXTEND
  0
MTEXT
  5
5657
330
1A
100
AcDbEntity
  8
SUNPOU
100
AcDbMText
 10
113149.5599195236
 20
105630.1740648001
 30
0.0
 40
10.5
 41
0.0
 71
     9
 72
     5
  1

1001
ACAD
1000
MTEXTBEGIN
1070
    73
1070
     1
1070
    44
1040
1.0
1070
    74
1070
     0
1000
MTEXTEND
1000
MTEXTBEGIN
1070
    73
1070
     1
1070
    44
1040
1.0
1070
    74
1070
     0
1000
MTEXTEND
  0
MTEXT
  5
5658
330
1A
100
AcDbEntity
  8
SUNPOU
100
AcDbMText
 10
115092.967166233
 20
103829.1249849221
 30
0.0
 40
3.5
 41
0.0
 71
     9
 72
     5
  1

1001
ACAD
1000
MTEXTBEGIN
1070
    73
1070
     1
1070
    44
1040
1.0
1070
    74
1070
     0
1000
MTEXTEND
1000
MTEXTBEGIN
1070
    73
1070
     1
1070
    44
1040
1.0
1070
    74
1070
     0
1000
MTEXTEND
  0
MTEXT
  5
5659
330
1A
100
AcDbEntity
  8
SUNPOU
100
AcDbMText
 10
146219.1469988527
 20
146324.0706525794
 30
0.0
 40
10.5
 41
0.0
 71
     9
 72
     5
  1

1001
ACAD
1000
MTEXTBEGIN
1070
    73
1070
     1
1070
    44
1040
1.0
1070
    74
1070
     0
1000
MTEXTEND
1000
MTEXTBEGIN
1070
    73
1070
     1
1070
    44
1040
1.0
1070
    74
1070
     0
1000
MTEXTEND
  0
MTEXT
  5
565A
330
1A
100
AcDbEntity
  8
SUNPOU
100
AcDbMText
 10
148162.5542455621
 20
144523.0215727014
 30
0.0
 40
3.5
 41
0.0
 71
     9
 72
     5
  1

1001
ACAD
1000
MTEXTBEGIN
1070
    73
1070
     1
1070
    44
1040
1.0
1070
    74
1070
     0
1000
MTEXTEND
1000
MTEXTBEGIN
1070
    73
1070
     1
1070
    44
1040
1.0
1070
    74
1070
     0
1000
MTEXTEND
  0
MTEXT
  5
565B
330
1A
100
AcDbEntity
  8
SUNPOU
100
AcDbMText
 10
96659.41470464833
 20
92157.23580755453
 30
0.0
 40
10.5
 41
0.0
 71
     9
 72
     5
  1

1001
ACAD
1000
MTEXTBEGIN
1070
    73
1070
     1
1070
    44
1040
1.0
1070
    74
1070
     0
1000
MTEXTEND
1000
MTEXTBEGIN
1070
    73
1070
     1
1070
    44
1040
1.0
1070
    74
1070
     0
1000
MTEXTEND
  0
MTEXT
  5
565C
330
1A
100
AcDbEntity
  8
SUNPOU
100
AcDbMText
 10
82711.41460427234
 20
72984.83666844234
 30
0.0
 40
3.5
 41
0.0
 71
     7
 72
     5
  1

1001
ACAD
1000
MTEXTBEGIN
1070
    73
1070
     1
1070
    44
1040
1.0
1070
    74
1070
     0
1000
MTEXTEND
1000
MTEXTBEGIN
1070
    73
1070
     1
1070
    44
1040
1.0
1070
    74
1070
     0
1000
MTEXTEND
  0
MTEXT
  5
565D
330
1A
100
AcDbEntity
  8
SUNPOU
100
AcDbMText
 10
63696.58400126548
 20
60746.98539926055
 30
0.0
 40
10.5
 41
0.0
 71
     7
 72
     5
  1

1001
ACAD
1000
MTEXTBEGIN
1070
    73
1070
     1
1070
    44
1040
1.0
1070
    74
1070
     0
1000
MTEXTEND
1000
MTEXTBEGIN
1070
    73
1070
     1
1070
    44
1040
1.0
1070
    74
1070
     0
1000
MTEXTEND
  0
MTEXT
  5
565E
330
1A
100
AcDbEntity
  8
SUNPOU
100
AcDbMText
 10
51239.35573631738
 20
44902.05382116213
 30
0.0
 40
35.0
 41
0.0
 71
     9
 72
     5
  1

1001
ACAD
1000
MTEXTBEGIN
1070
    73
1070
     1
1070
    44
1040
1.0
1070
    74
1070
     0
1000
MTEXTEND
1000
MTEXTBEGIN
1070
    73
1070
     1
1070
    44
1040
1.0
1070
    74
1070
     0
1000
MTEXTEND
  0
MTEXT
  5
565F
330
1A
100
AcDbEntity
  8
SUNPOU
100
AcDbMText
 10
50147.84079389233
 20
45510.82923121084
 30
0.0
 40
350.0000004171781
 41
0.0
 71
     7
 72
     5
  1

1001
ACAD
1000
MTEXTBEGIN
1070
    73
1070
     1
1070
    44
1040
1.0
1070
    74
1070
     0
1000
MTEXTEND
1000
MTEXTBEGIN
1070
    73
1070
     1
1070
    44
1040
1.0
1070
    74
1070
     0
1000
MTEXTEND
  0
MTEXT
  5
5660
330
1A
100
AcDbEntity
  8
0
100
AcDbMText
 10
56191.79155183523
 20
43490.75159334705
 30
0.0
 40
8.0
 41
0.0
 71
     7
 72
     5
  1

1001
ACAD
1000
MTEXTBEGIN
1070
    73
1070
     1
1070
    44
1040
1.0
1070
    74
1070
     0
1000
MTEXTEND
1000
MTEXTBEGIN
1070
    73
1070
     1
1070
    44
1040
1.0
1070
    74
1070
     0
1000
MTEXTEND
  0
MTEXT
  5
5661
330
1A
100
AcDbEntity
  8
0
100
AcDbMText
 10
58477.14924173013
 20
44461.54188809812
 30
0.0
 40
8.0
 41
0.0
 71
     7
 72
     5
  1

1001
ACAD
1000
MTEXTBEGIN
1070
    73
1070
     1
1070
    44
1040
1.0
1070
    74
1070
     0
1000
MTEXTEND
1000
MTEXTBEGIN
1070
    73
1070
     1
1070
    44
1040
1.0
1070
    74
1070
     0
1000
MTEXTEND
  0
MTEXT
  5
5662
330
1A
100
AcDbEntity
  8
SUNPOU
100
AcDbMText
 10
61143.04626241227
 20
53973.65328047324
 30
0.0
 40
10.5
 41
0.0
 71
     1
 72
     5
  1

1001
ACAD
1000
MTEXTBEGIN
1070
    73
1070
     1
1070
    44
1040
1.0
1070
    74
1070
     0
1000
MTEXTEND
1000
MTEXTBEGIN
1070
    73
1070
     1
1070
    44
1040
1.0
1070
    74
1070
     0
1000
MTEXTEND
  0
MTEXT
  5
5663
330
1A
100
AcDbEntity
  8
SUNPOU
100
AcDbMText
 10
53212.12306647634
 20
53026.86014656028
 30
0.0
 40
10.5
 41
0.0
 71
     7
 72
     5
  1

1001
ACAD
1000
MTEXTBEGIN
1070
    73
1070
     1
1070
    44
1040
1.0
1070
    74
1070
     0
1000
MTEXTEND
1000
MTEXTBEGIN
1070
    73
1070
     1
1070
    44
1040
1.0
1070
    74
1070
     0
1000
MTEXTEND
  0
MTEXT
  5
5664
330
1A
100
AcDbEntity
  8
SUNPOU
100
AcDbMText
 10
56161.1067309891
 20
57927.53621840312
 30
0.0
 40
10.5
 41
0.0
 71
     7
 72
     5
  1

1001
ACAD
1000
MTEXTBEGIN
1070
    73
1070
     1
1070
    44
1040
1.0
1070
    74
1070
     0
1000
MTEXTEND
1000
MTEXTBEGIN
1070
    73
1070
     1
1070
    44
1040
1.0
1070
    74
1070
     0
1000
MTEXTEND
  0
MTEXT
  5
5665
330
1A
100
AcDbEntity
  8
SUNPOU
100
AcDbMText
 10
60670.18485893966
 20
60363.8369660232
 30
0.0
 40
10.5
 41
0.0
 71
     7
 72
     5
  1

1001
ACAD
1000
MTEXTBEGIN
1070
    73
1070
     1
1070
    44
1040
1.0
1070
    74
1070
     0
1000
MTEXTEND
1000
MTEXTBEGIN
1070
    73
1070
     1
1070
    44
1040
1.0
1070
    74
1070
     0
1000
MTEXTEND
  0
MTEXT
  5
5666
330
1A
100
AcDbEntity
  8
SUNPOU
100
AcDbMText
 10
44271.02274570799
 20
39361.43311641212
 30
0.0
 40
10.5
 41
0.0
 71
     7
 72
     5
  1

1001
ACAD
1000
MTEXTBEGIN
1070
    73
1070
     1
1070
    44
1040
1.0
1070
    74
1070
     0
1000
MTEXTEND
1000
MTEXTBEGIN
1070
    73
1070
     1
1070
    44
1040
1.0
1070
    74
1070
     0
1000
MTEXTEND
  0
MTEXT
  5
5667
330
1A
100
AcDbEntity
  8
SUNPOU
100
AcDbMText
 10
95462.54117960824
 20
85034.41368006038
 30
0.0
 40
10.5
 41
0.0
 71
     9
 72
     5
  1

1001
ACAD
1000
MTEXTBEGIN
1070
    73
1070
     1
1070
    44
1040
1.0
1070
    74
1070
     0
1000
MTEXTEND
1000
MTEXTBEGIN
1070
    73
1070
     1
1070
    44
1040
1.0
1070
    74
1070
     0
1000
MTEXTEND
  0
MTEXT
  5
5668
330
1A
100
AcDbEntity
  8
SUNPOU
100
AcDbMText
 10
104184.7087455262
 20
92450.24821159784
 30
0.0
 40
10.5
 41
0.0
 71
     9
 72
     5
  1

1001
ACAD
1000
MTEXTBEGIN
1070
    73
1070
     1
1070
    44
1040
1.0
1070
    74
1070
     0
1000
MTEXTEND
1000
MTEXTBEGIN
1070
    73
1070
     1
1070
    44
1040
1.0
1070
    74
1070
     0
1000
MTEXTEND
  0
MTEXT
  5
5669
330
1A
100
AcDbEntity
  8
SUNPOU
100
AcDbMText
 10
123138.4674628562
 20
109916.8242640898
 30
0.0
 40
10.5
 41
0.0
 71
     9
 72
     5
  1

1001
ACAD
1000
MTEXTBEGIN
1070
    73
1070
     1
1070
    44
1040
1.0
1070
    74
1070
     0
1000
MTEXTEND
1000
MTEXTBEGIN
1070
    73
1070
     1
1070
    44
1040
1.0
1070
    74
1070
     0
1000
MTEXTEND
  0
MTEXT
  5
566A
330
1A
100
AcDbEntity
  8
SUNPOU
100
AcDbMText
 10
125081.8747095656
 20
108115.7751842118
 30
0.0
 40
3.5
 41
0.0
 71
     9
 72
     5
  1

1001
ACAD
1000
MTEXTBEGIN
1070
    73
1070
     1
1070
    44
1040
1.0
1070
    74
1070
     0
1000
MTEXTEND
1000
MTEXTBEGIN
1070
    73
1070
     1
1070
    44
1040
1.0
1070
    74
1070
     0
1000
MTEXTEND
  0
MTEXT
  5
566B
330
1A
100
AcDbEntity
  8
SUNPOU
100
AcDbMText
 10
156208.0545421853
 20
150610.7208518691
 30
0.0
 40
10.5
 41
0.0
 71
     9
 72
     5
  1

1001
ACAD
1000
MTEXTBEGIN
1070
    73
1070
     1
1070
    44
1040
1.0
1070
    74
1070
     0
1000
MTEXTEND
1000
MTEXTBEGIN
1070
    73
1070
     1
1070
    44
1040
1.0
1070
    74
1070
     0
1000
MTEXTEND
  0
MTEXT
  5
566C
330
1A
100
AcDbEntity
  8
SUNPOU
100
AcDbMText
 10
158151.4617888947
 20
148809.6717719911
 30
0.0
 40
3.5
 41
0.0
 71
     9
 72
     5
  1

1001
ACAD
1000
MTEXTBEGIN
1070
    73
1070
     1
1070
    44
1040
1.0
1070
    74
1070
     0
1000
MTEXTEND
1000
MTEXTBEGIN
1070
    73
1070
     1
1070
    44
1040
1.0
1070
    74
1070
     0
1000
MTEXTEND
  0
MTEXT
  5
566D
330
1A
100
AcDbEntity
  8
SUNPOU
100
AcDbMText
 10
106648.3222479809
 20
96443.88600684427
 30
0.0
 40
10.5
 41
0.0
 71
     9
 72
     5
  1

1001
ACAD
1000
MTEXTBEGIN
1070
    73
1070
     1
1070
    44
1040
1.0
1070
    74
1070
     0
1000
MTEXTEND
1000
MTEXTBEGIN
1070
    73
1070
     1
1070
    44
1040
1.0
1070
    74
1070
     0
1000
MTEXTEND
  0
MTEXT
  5
566E
330
1A
100
AcDbEntity
  8
SUNPOU
100
AcDbMText
 10
92700.3221476049
 20
77271.48686773207
 30
0.0
 40
3.5
 41
0.0
 71
     7
 72
     5
  1

1001
ACAD
1000
MTEXTBEGIN
1070
    73
1070
     1
1070
    44
1040
1.0
1070
    74
1070
     0
1000
MTEXTEND
1000
MTEXTBEGIN
1070
    73
1070
     1
1070
    44
1040
1.0
1070
    74
1070
     0
1000
MTEXTEND
  0
MTEXT
  5
566F
330
1A
100
AcDbEntity
  8
SUNPOU
100
AcDbMText
 10
73685.49154459806
 20
65033.63559855027
 30
0.0
 40
10.5
 41
0.0
 71
     7
 72
     5
  1

1001
ACAD
1000
MTEXTBEGIN
1070
    73
1070
     1
1070
    44
1040
1.0
1070
    74
1070
     0
1000
MTEXTEND
1000
MTEXTBEGIN
1070
    73
1070
     1
1070
    44
1040
1.0
1070
    74
1070
     0
1000
MTEXTEND
  0
MTEXT
  5
5670
330
1A
100
AcDbEntity
  8
SUNPOU
100
AcDbMText
 10
61228.26327964995
 20
49188.70402045185
 30
0.0
 40
35.0
 41
0.0
 71
     9
 72
     5
  1

1001
ACAD
1000
MTEXTBEGIN
1070
    73
1070
     1
1070
    44
1040
1.0
1070
    74
1070
     0
1000
MTEXTEND
1000
MTEXTBEGIN
1070
    73
1070
     1
1070
    44
1040
1.0
1070
    74
1070
     0
1000
MTEXTEND
  0
MTEXT
  5
5671
330
1A
100
AcDbEntity
  8
SUNPOU
100
AcDbMText
 10
60136.74833722491
 20
49797.47943050056
 30
0.0
 40
350.0000004171781
 41
0.0
 71
     7
 72
     5
  1

1001
ACAD
1000
MTEXTBEGIN
1070
    73
1070
     1
1070
    44
1040
1.0
1070
    74
1070
     0
1000
MTEXTEND
1000
MTEXTBEGIN
1070
    73
1070
     1
1070
    44
1040
1.0
1070
    74
1070
     0
1000
MTEXTEND
  0
MTEXT
  5
5672
330
1A
100
AcDbEntity
  8
0
100
AcDbMText
 10
66180.69909516782
 20
47777.40179263678
 30
0.0
 40
8.0
 41
0.0
 71
     7
 72
     5
  1

1001
ACAD
1000
MTEXTBEGIN
1070
    73
1070
     1
1070
    44
1040
1.0
1070
    74
1070
     0
1000
MTEXTEND
1000
MTEXTBEGIN
1070
    73
1070
     1
1070
    44
1040
1.0
1070
    74
1070
     0
1000
MTEXTEND
  0
MTEXT
  5
5673
330
1A
100
AcDbEntity
  8
0
100
AcDbMText
 10
68466.05678506271
 20
48748.19208738784
 30
0.0
 40
8.0
 41
0.0
 71
     7
 72
     5
  1

1001
ACAD
1000
MTEXTBEGIN
1070
    73
1070
     1
1070
    44
1040
1.0
1070
    74
1070
     0
1000
MTEXTEND
1000
MTEXTBEGIN
1070
    73
1070
     1
1070
    44
1040
1.0
1070
    74
1070
     0
1000
MTEXTEND
  0
MTEXT
  5
5674
330
1A
100
AcDbEntity
  8
SUNPOU
100
AcDbMText
 10
71131.95380574485
 20
58260.30347976296
 30
0.0
 40
10.5
 41
0.0
 71
     1
 72
     5
  1

1001
ACAD
1000
MTEXTBEGIN
1070
    73
1070
     1
1070
    44
1040
1.0
1070
    74
1070
     0
1000
MTEXTEND
1000
MTEXTBEGIN
1070
    73
1070
     1
1070
    44
1040
1.0
1070
    74
1070
     0
1000
MTEXTEND
  0
MTEXT
  5
5675
330
1A
100
AcDbEntity
  8
SUNPOU
100
AcDbMText
 10
63201.03060980891
 20
57313.51034585002
 30
0.0
 40
10.5
 41
0.0
 71
     7
 72
     5
  1

1001
ACAD
1000
MTEXTBEGIN
1070
    73
1070
     1
1070
    44
1040
1.0
1070
    74
1070
     0
1000
MTEXTEND
1000
MTEXTBEGIN
1070
    73
1070
     1
1070
    44
1040
1.0
1070
    74
1070
     0
1000
MTEXTEND
  0
MTEXT
  5
5676
330
1A
100
AcDbEntity
  8
SUNPOU
100
AcDbMText
 10
66150.01427432169
 20
62214.18641769286
 30
0.0
 40
10.5
 41
0.0
 71
     7
 72
     5
  1

1001
ACAD
1000
MTEXTBEGIN
1070
    73
1070
     1
1070
    44
1040
1.0
1070
    74
1070
     0
1000
MTEXTEND
1000
MTEXTBEGIN
1070
    73
1070
     1
1070
    44
1040
1.0
1070
    74
1070
     0
1000
MTEXTEND
  0
MTEXT
  5
5677
330
1A
100
AcDbEntity
  8
SUNPOU
100
AcDbMText
 10
70659.09240227225
 20
64650.48716531294
 30
0.0
 40
10.5
 41
0.0
 71
     7
 72
     5
  1

1001
ACAD
1000
MTEXTBEGIN
1070
    73
1070
     1
1070
    44
1040
1.0
1070
    74
1070
     0
1000
MTEXTEND
1000
MTEXTBEGIN
1070
    73
1070
     1
1070
    44
1040
1.0
1070
    74
1070
     0
1000
MTEXTEND
  0
MTEXT
  5
5678
330
1A
100
AcDbEntity
  8
SUNPOU
100
AcDbMText
 10
54259.93028904056
 20
43648.08331570185
 30
0.0
 40
10.5
 41
0.0
 71
     7
 72
     5
  1

1001
ACAD
1000
MTEXTBEGIN
1070
    73
1070
     1
1070
    44
1040
1.0
1070
    74
1070
     0
1000
MTEXTEND
1000
MTEXTBEGIN
1070
    73
1070
     1
1070
    44
1040
1.0
1070
    74
1070
     0
1000
MTEXTEND
  0
MTEXT
  5
5679
330
1A
100
AcDbEntity
  8
SUNPOU
100
AcDbMText
 10
56070.69320041551
 20
49975.4973031804
 30
0.0
 40
10.5
 41
0.0
 71
     9
 72
     5
  1

1001
ACAD
1000
MTEXTBEGIN
1070
    73
1070
     1
1070
    44
1040
1.0
1070
    74
1070
     0
1000
MTEXTEND
1000
MTEXTBEGIN
1070
    73
1070
     1
1070
    44
1040
1.0
1070
    74
1070
     0
1000
MTEXTEND
  0
MTEXT
  5
567A
330
1A
100
AcDbEntity
  8
SUNPOU
100
AcDbMText
 10
64792.86076633348
 20
57391.33183471788
 30
0.0
 40
10.5
 41
0.0
 71
     9
 72
     5
  1

1001
ACAD
1000
MTEXTBEGIN
1070
    73
1070
     1
1070
    44
1040
1.0
1070
    74
1070
     0
1000
MTEXTEND
1000
MTEXTBEGIN
1070
    73
1070
     1
1070
    44
1040
1.0
1070
    74
1070
     0
1000
MTEXTEND
  0
MTEXT
  5
567B
330
1A
100
AcDbEntity
  8
SUNPOU
100
AcDbMText
 10
83746.61948366345
 20
74857.90788720994
 30
0.0
 40
10.5
 41
0.0
 71
     9
 72
     5
  1

1001
ACAD
1000
MTEXTBEGIN
1070
    73
1070
     1
1070
    44
1040
1.0
1070
    74
1070
     0
1000
MTEXTEND
1000
MTEXTBEGIN
1070
    73
1070
     1
1070
    44
1040
1.0
1070
    74
1070
     0
1000
MTEXTEND
  0
MTEXT
  5
567C
330
1A
100
AcDbEntity
  8
SUNPOU
100
AcDbMText
 10
85690.02673037287
 20
73056.85880733192
 30
0.0
 40
3.5
 41
0.0
 71
     9
 72
     5
  1

1001
ACAD
1000
MTEXTBEGIN
1070
    73
1070
     1
1070
    44
1040
1.0
1070
    74
1070
     0
1000
MTEXTEND
1000
MTEXTBEGIN
1070
    73
1070
     1
1070
    44
1040
1.0
1070
    74
1070
     0
1000
MTEXTEND
  0
MTEXT
  5
567D
330
1A
100
AcDbEntity
  8
SUNPOU
100
AcDbMText
 10
116816.2065629925
 20
115551.8044749892
 30
0.0
 40
10.5
 41
0.0
 71
     9
 72
     5
  1

1001
ACAD
1000
MTEXTBEGIN
1070
    73
1070
     1
1070
    44
1040
1.0
1070
    74
1070
     0
1000
MTEXTEND
1000
MTEXTBEGIN
1070
    73
1070
     1
1070
    44
1040
1.0
1070
    74
1070
     0
1000
MTEXTEND
  0
MTEXT
  5
567E
330
1A
100
AcDbEntity
  8
SUNPOU
100
AcDbMText
 10
118759.613809702
 20
113750.7553951112
 30
0.0
 40
3.5
 41
0.0
 71
     9
 72
     5
  1

1001
ACAD
1000
MTEXTBEGIN
1070
    73
1070
     1
1070
    44
1040
1.0
1070
    74
1070
     0
1000
MTEXTEND
1000
MTEXTBEGIN
1070
    73
1070
     1
1070
    44
1040
1.0
1070
    74
1070
     0
1000
MTEXTEND
  0
MTEXT
  5
567F
330
1A
100
AcDbEntity
  8
SUNPOU
100
AcDbMText
 10
67256.47426878814
 20
61384.96962996432
 30
0.0
 40
10.5
 41
0.0
 71
     9
 72
     5
  1

1001
ACAD
1000
MTEXTBEGIN
1070
    73
1070
     1
1070
    44
1040
1.0
1070
    74
1070
     0
1000
MTEXTEND
1000
MTEXTBEGIN
1070
    73
1070
     1
1070
    44
1040
1.0
1070
    74
1070
     0
1000
MTEXTEND
  0
MTEXT
  5
5680
330
1A
100
AcDbEntity
  8
SUNPOU
100
AcDbMText
 10
53308.47416841216
 20
42212.57049085211
 30
0.0
 40
3.5
 41
0.0
 71
     7
 72
     5
  1

1001
ACAD
1000
MTEXTBEGIN
1070
    73
1070
     1
1070
    44
1040
1.0
1070
    74
1070
     0
1000
MTEXTEND
1000
MTEXTBEGIN
1070
    73
1070
     1
1070
    44
1040
1.0
1070
    74
1070
     0
1000
MTEXTEND
  0
MTEXT
  5
5681
330
1A
100
AcDbEntity
  8
SUNPOU
100
AcDbMText
 10
67000.82485118274
 20
51571.63371187345
 30
0.0
 40
10.5
 41
0.0
 71
     9
 72
     5
  1

1001
ACAD
1000
MTEXTBEGIN
1070
    73
1070
     1
1070
    44
1040
1.0
1070
    74
1070
     0
1000
MTEXTEND
1000
MTEXTBEGIN
1070
    73
1070
     1
1070
    44
1040
1.0
1070
    74
1070
     0
1000
MTEXTEND
  0
MTEXT
  5
5682
330
1A
100
AcDbEntity
  8
SUNPOU
100
AcDbMText
 10
75722.99241710071
 20
58987.46824341094
 30
0.0
 40
10.5
 41
0.0
 71
     9
 72
     5
  1

1001
ACAD
1000
MTEXTBEGIN
1070
    73
1070
     1
1070
    44
1040
1.0
1070
    74
1070
     0
1000
MTEXTEND
1000
MTEXTBEGIN
1070
    73
1070
     1
1070
    44
1040
1.0
1070
    74
1070
     0
1000
MTEXTEND
  0
MTEXT
  5
5683
330
1A
100
AcDbEntity
  8
SUNPOU
100
AcDbMText
 10
94676.75113443068
 20
76454.04429590299
 30
0.0
 40
10.5
 41
0.0
 71
     9
 72
     5
  1

1001
ACAD
1000
MTEXTBEGIN
1070
    73
1070
     1
1070
    44
1040
1.0
1070
    74
1070
     0
1000
MTEXTEND
1000
MTEXTBEGIN
1070
    73
1070
     1
1070
    44
1040
1.0
1070
    74
1070
     0
1000
MTEXTEND
  0
MTEXT
  5
5684
330
1A
100
AcDbEntity
  8
SUNPOU
100
AcDbMText
 10
96620.1583811401
 20
74652.99521602498
 30
0.0
 40
3.5
 41
0.0
 71
     9
 72
     5
  1

1001
ACAD
1000
MTEXTBEGIN
1070
    73
1070
     1
1070
    44
1040
1.0
1070
    74
1070
     0
1000
MTEXTEND
1000
MTEXTBEGIN
1070
    73
1070
     1
1070
    44
1040
1.0
1070
    74
1070
     0
1000
MTEXTEND
  0
MTEXT
  5
5685
330
1A
100
AcDbEntity
  8
SUNPOU
100
AcDbMText
 10
127746.3382137598
 20
117147.9408836823
 30
0.0
 40
10.5
 41
0.0
 71
     9
 72
     5
  1

1001
ACAD
1000
MTEXTBEGIN
1070
    73
1070
     1
1070
    44
1040
1.0
1070
    74
1070
     0
1000
MTEXTEND
1000
MTEXTBEGIN
1070
    73
1070
     1
1070
    44
1040
1.0
1070
    74
1070
     0
1000
MTEXTEND
  0
MTEXT
  5
5686
330
1A
100
AcDbEntity
  8
SUNPOU
100
AcDbMText
 10
129689.7454604692
 20
115346.8918038043
 30
0.0
 40
3.5
 41
0.0
 71
     9
 72
     5
  1

1001
ACAD
1000
MTEXTBEGIN
1070
    73
1070
     1
1070
    44
1040
1.0
1070
    74
1070
     0
1000
MTEXTEND
1000
MTEXTBEGIN
1070
    73
1070
     1
1070
    44
1040
1.0
1070
    74
1070
     0
1000
MTEXTEND
  0
MTEXT
  5
5687
330
1A
100
AcDbEntity
  8
SUNPOU
100
AcDbMText
 10
78186.60591955537
 20
62981.10603865738
 30
0.0
 40
10.5
 41
0.0
 71
     9
 72
     5
  1

1001
ACAD
1000
MTEXTBEGIN
1070
    73
1070
     1
1070
    44
1040
1.0
1070
    74
1070
     0
1000
MTEXTEND
1000
MTEXTBEGIN
1070
    73
1070
     1
1070
    44
1040
1.0
1070
    74
1070
     0
1000
MTEXTEND
  0
MTEXT
  5
5688
330
1A
100
AcDbEntity
  8
SUNPOU
100
AcDbMText
 10
64238.60581917939
 20
43808.70689954517
 30
0.0
 40
3.5
 41
0.0
 71
     7
 72
     5
  1

1001
ACAD
1000
MTEXTBEGIN
1070
    73
1070
     1
1070
    44
1040
1.0
1070
    74
1070
     0
1000
MTEXTEND
1000
MTEXTBEGIN
1070
    73
1070
     1
1070
    44
1040
1.0
1070
    74
1070
     0
1000
MTEXTEND
  0
MTEXT
  5
5689
330
1A
100
AcDbEntity
  8
SUNPOU
100
AcDbMText
 10
33428.13481137435
 20
32770.04710035564
 30
0.0
 40
10.5
 41
0.0
 71
     9
 72
     5
  1

1001
ACAD
1000
MTEXTBEGIN
1070
    73
1070
     1
1070
    44
1040
1.0
1070
    74
1070
     0
1000
MTEXTEND
1000
MTEXTBEGIN
1070
    73
1070
     1
1070
    44
1040
1.0
1070
    74
1070
     0
1000
MTEXTEND
  0
MTEXT
  5
568A
330
1A
100
AcDbEntity
  8
SUNPOU
100
AcDbMText
 10
52381.89352870432
 20
50236.62315284769
 30
0.0
 40
10.5
 41
0.0
 71
     9
 72
     5
  1

1001
ACAD
1000
MTEXTBEGIN
1070
    73
1070
     1
1070
    44
1040
1.0
1070
    74
1070
     0
1000
MTEXTEND
1000
MTEXTBEGIN
1070
    73
1070
     1
1070
    44
1040
1.0
1070
    74
1070
     0
1000
MTEXTEND
  0
MTEXT
  5
568B
330
1A
100
AcDbEntity
  8
SUNPOU
100
AcDbMText
 10
54325.30077541374
 20
48435.57407296968
 30
0.0
 40
3.5
 41
0.0
 71
     9
 72
     5
  1

1001
ACAD
1000
MTEXTBEGIN
1070
    73
1070
     1
1070
    44
1040
1.0
1070
    74
1070
     0
1000
MTEXTEND
1000
MTEXTBEGIN
1070
    73
1070
     1
1070
    44
1040
1.0
1070
    74
1070
     0
1000
MTEXTEND
  0
MTEXT
  5
568C
330
1A
100
AcDbEntity
  8
SUNPOU
100
AcDbMText
 10
85451.48060803343
 20
90930.51974062703
 30
0.0
 40
10.5
 41
0.0
 71
     9
 72
     5
  1

1001
ACAD
1000
MTEXTBEGIN
1070
    73
1070
     1
1070
    44
1040
1.0
1070
    74
1070
     0
1000
MTEXTEND
1000
MTEXTBEGIN
1070
    73
1070
     1
1070
    44
1040
1.0
1070
    74
1070
     0
1000
MTEXTEND
  0
MTEXT
  5
568D
330
1A
100
AcDbEntity
  8
SUNPOU
100
AcDbMText
 10
87394.88785474286
 20
89129.47066074901
 30
0.0
 40
3.5
 41
0.0
 71
     9
 72
     5
  1

1001
ACAD
1000
MTEXTBEGIN
1070
    73
1070
     1
1070
    44
1040
1.0
1070
    74
1070
     0
1000
MTEXTEND
1000
MTEXTBEGIN
1070
    73
1070
     1
1070
    44
1040
1.0
1070
    74
1070
     0
1000
MTEXTEND
  0
MTEXT
  5
568E
330
1A
100
AcDbEntity
  8
SUNPOU
100
AcDbMText
 10
35891.74831382901
 20
36763.68489560208
 30
0.0
 40
10.5
 41
0.0
 71
     9
 72
     5
  1

1001
ACAD
1000
MTEXTBEGIN
1070
    73
1070
     1
1070
    44
1040
1.0
1070
    74
1070
     0
1000
MTEXTEND
1000
MTEXTBEGIN
1070
    73
1070
     1
1070
    44
1040
1.0
1070
    74
1070
     0
1000
MTEXTEND
  0
MTEXT
  5
568F
330
1A
100
AcDbEntity
  8
SUNPOU
100
AcDbMText
 10
21943.74821345303
 20
17591.28575648986
 30
0.0
 40
3.5
 41
0.0
 71
     7
 72
     5
  1

1001
ACAD
1000
MTEXTBEGIN
1070
    73
1070
     1
1070
    44
1040
1.0
1070
    74
1070
     0
1000
MTEXTEND
1000
MTEXTBEGIN
1070
    73
1070
     1
1070
    44
1040
1.0
1070
    74
1070
     0
1000
MTEXTEND
  0
XLINE
  5
126D7
330
1A
100
AcDbEntity
  8
SOUZOUSEN
100
AcDbXline
 10
-2343.442450720007
 20
3248.111410528631
 30
0.0
 11
0.0
 21
1.0
 31
0.0
  0
XLINE
  5
126D8
330
1A
100
AcDbEntity
  8
SOUZOUSEN
100
AcDbXline
 10
-2343.419932224668
 20
3244.179140051123
 30
0.0
 11
0.0
 21
-1.0
 31
0.0
  0
LINE
  5
1AD67
330
1A
100
AcDbEntity
  8
ZISSEN1
100
AcDbLine
 10
-1052.518055231363
 20
1719.671636323099
 30
0.0
 11
-1052.518055231363
 21
1665.671636323098
 31
0.0
  0
LINE
  5
1AD68
330
1A
100
AcDbEntity
  8
ZISSEN1
100
AcDbLine
 10
-1114.518055231363
 20
1668.671636323098
 30
0.0
 11
-1114.518055231363
 21
1716.671636323098
 31
0.0
  0
LINE
  5
1AD78
330
1A
100
AcDbEntity
  8
ZISSEN1
100
AcDbLine
 10
-1116.018055231363
 20
1720.671636323098
 30
0.0
 11
-1053.518055231363
 21
1720.671636323098
 31
0.0
  0
LINE
  5
1AF50
330
1A
100
AcDbEntity
  8
ZISSEN1
100
AcDbLine
 10
-1053.518055231363
 20
1664.671636323098
 30
0.0
 11
-1116.018055231363
 21
1664.671636323098
 31
0.0
  0
LINE
  5
1BA6A
330
1A
100
AcDbEntity
  8
ZISSEN1
 48
0.5
100
AcDbLine
 10
-1118.018055231363
 20
1657.671636322126
 30
0.0
 11
-1118.018055231363
 21
1727.671636322125
 31
0.0
  0
LINE
  5
1BA6B
330
1A
100
AcDbEntity
  8
ZISSEN1
 48
0.5
100
AcDbLine
 10
-1116.018055231363
 20
1657.671636322126
 30
0.0
 11
-1116.018055231363
 21
1727.671636322125
 31
0.0
  0
LINE
  5
1BA70
330
1A
100
AcDbEntity
  8
ZISSEN1
 48
0.5
100
AcDbLine
 10
-990.5180552313632
 20
1721.171636322124
 30
0.0
 11
-990.5180552313632
 21
1664.171636322125
 31
0.0
  0
LINE
  5
1BA71
330
1A
100
AcDbEntity
  8
ZISSEN1
 48
0.5
100
AcDbLine
 10
-1008.018055231363
 20
1726.671636322125
 30
0.0
 11
-1008.018055231363
 21
1658.671636322124
 31
0.0
  0
LINE
  5
1BA72
330
1A
100
AcDbEntity
  8
ZISSEN1
 48
0.5
100
AcDbLine
 10
-984.0180552313631
 20
1721.171636322124
 30
0.0
 11
-984.0180552313631
 21
1664.171636322125
 31
0.0
  0
LINE
  5
1BA73
330
1A
100
AcDbEntity
  8
ZISSEN1
 48
0.5
100
AcDbLine
 10
-988.5180552313631
 20
1721.171636322124
 30
0.0
 11
-988.5180552313631
 21
1664.171636322125
 31
0.0
  0
LINE
  5
1BA74
330
1A
100
AcDbEntity
  8
ZISSEN1
  6
DASHEDX2
 48
0.5
100
AcDbLine
 10
-986.0180552313632
 20
1721.171636322124
 30
0.0
 11
-986.0180552313632
 21
1664.171636322125
 31
0.0
  0
LINE
  5
1BA7A
330
1A
100
AcDbEntity
  8
ZISSEN1
 48
0.5
100
AcDbLine
 10
-1060.018055231365
 20
1702.171636322126
 30
0.0
 11
-1060.018055231365
 21
1684.671636322124
 31
0.0
  0
LINE
  5
1BA7C
330
1A
100
AcDbEntity
  8
ZISSEN1
 48
0.5
100
AcDbLine
 10
-1053.018055231364
 20
1721.171636322125
 30
0.0
 11
-1104.018055231362
 21
1721.171636322932
 31
0.0
  0
LINE
  5
1BA87
330
1A
100
AcDbEntity
  8
ZISSEN1
 48
0.5
100
AcDbLine
 10
-1115.018055231363
 20
1727.671636322125
 30
0.0
 11
-1111.765886285496
 21
1727.671636322125
 31
0.0
  0
LINE
  5
1BA8A
330
1A
100
AcDbEntity
  8
ZISSEN1
 48
0.5
100
AcDbLine
 10
-1118.018055231363
 20
1727.671636322125
 30
0.0
 11
-1116.018055231363
 21
1727.671636322125
 31
0.0
  0
LINE
  5
1BA8B
330
1A
100
AcDbEntity
  8
ZISSEN1
 48
0.5
100
AcDbLine
 10
-1116.018055231363
 20
1727.671636322125
 30
0.0
 11
-1118.018055231363
 21
1727.671636322125
 31
0.0
  0
LINE
  5
1BA8C
330
1A
100
AcDbEntity
  8
ZISSEN1
 48
0.5
100
AcDbLine
 10
-1116.018055231363
 20
1726.671636322126
 30
0.0
 11
-1118.018055231363
 21
1726.671636322126
 31
0.0
  0
LINE
  5
1BA8E
330
1A
100
AcDbEntity
  8
ZISSEN1
 48
0.5
100
AcDbLine
 10
-1116.018055231363
 20
1721.171636322125
 30
0.0
 11
-1116.018055231363
 21
1720.171636322126
 31
0.0
  0
LINE
  5
1BA90
330
1A
100
AcDbEntity
  8
ZISSEN1
 48
0.5
100
AcDbLine
 10
-1116.018055231363
 20
1726.671636322126
 30
0.0
 11
-1115.018055231363
 21
1727.671636322125
 31
0.0
  0
ARC
  5
1BA96
330
1A
100
AcDbEntity
  8
ZISSEN1
 48
0.5
100
AcDbCircle
 10
-1104.018055231362
 20
1722.171636322932
 30
0.0
 40
1.0
100
AcDbArc
 50
180.0
 51
270.0
  0
LINE
  5
1BA97
330
1A
100
AcDbEntity
  8
ZISSEN1
 48
0.5
100
AcDbLine
 10
-1105.018055231362
 20
1722.171636322932
 30
0.0
 11
-1105.018055231363
 21
1726.671636322126
 31
0.0
  0
LINE
  5
1BA98
330
1A
100
AcDbEntity
  8
ZISSEN1
 48
0.5
100
AcDbLine
 10
-1106.018055231363
 20
1727.671636322125
 30
0.0
 11
-1105.018055231363
 21
1726.671636322126
 31
0.0
  0
ARC
  5
1BA99
330
1A
100
AcDbEntity
  8
ZISSEN1
 48
0.5
100
AcDbCircle
 10
-1110.015886285496
 20
1724.171636322125
 30
0.0
 40
1.749999999999772
100
AcDbArc
 50
180.0
 51
0.0
  0
LINE
  5
1BA9A
330
1A
100
AcDbEntity
  8
ZISSEN1
 48
0.5
100
AcDbLine
 10
-1111.765886285496
 20
1727.671636322125
 30
0.0
 11
-1111.765886285496
 21
1724.171636322125
 31
0.0
  0
LINE
  5
1BA9B
330
1A
100
AcDbEntity
  8
ZISSEN1
 48
0.5
100
AcDbLine
 10
-1108.265886285496
 20
1727.671636322125
 30
0.0
 11
-1108.265886285496
 21
1724.171636322125
 31
0.0
  0
LINE
  5
1BA9C
330
1A
100
AcDbEntity
  8
ZISSEN1
 48
0.5
100
AcDbLine
 10
-1108.265886285496
 20
1727.671636322125
 30
0.0
 11
-1106.018055231363
 21
1727.671636322125
 31
0.0
  0
LINE
  5
1BAAE
330
1A
100
AcDbEntity
  8
ZISSEN1
 48
0.5
100
AcDbLine
 10
-1052.018055231364
 20
1720.171636322126
 30
0.0
 11
-1052.018055231363
 21
1703.171636322125
 31
0.0
  0
LINE
  5
1BAB0
330
1A
100
AcDbEntity
  8
ZISSEN1
 48
0.5
100
AcDbLine
 10
-1053.018055231364
 20
1721.171636322125
 30
0.0
 11
-1052.018055231364
 21
1720.171636322126
 31
0.0
  0
CIRCLE
  5
1BAB1
330
1A
100
AcDbEntity
  8
ZISSEN1
 48
0.5
100
AcDbCircle
 10
-1061.018055231363
 20
1717.671636322125
 30
0.0
 40
1.3
  0
LINE
  5
1BAB2
330
1A
100
AcDbEntity
  8
ZISSEN1
 48
0.5
100
AcDbLine
 10
-1052.018055231363
 20
1703.171636322125
 30
0.0
 11
-1059.018055231363
 21
1703.171636322125
 31
0.0
  0
ARC
  5
1BAB3
330
1A
100
AcDbEntity
  8
ZISSEN1
 48
0.5
100
AcDbCircle
 10
-1059.018055231366
 20
1702.171636322127
 30
0.0
 40
0.9999999999984794
100
AcDbArc
 50
89.99999999984366
 51
180.000000000026
  0
LINE
  5
1BAB7
330
1A
100
AcDbEntity
  8
ZISSEN1
 48
0.5
100
AcDbLine
 10
-1008.018055231363
 20
1726.671636322125
 30
0.0
 11
-1007.018055231363
 21
1727.671636322125
 31
0.0
  0
LINE
  5
1BABD
330
1A
100
AcDbEntity
  8
ZISSEN1
 48
0.5
100
AcDbLine
 10
-1007.018055231363
 20
1727.671636322125
 30
0.0
 11
-997.7680552313632
 21
1727.671636322125
 31
0.0
  0
LINE
  5
1BABE
330
1A
100
AcDbEntity
  8
ZISSEN1
 48
0.5
100
AcDbLine
 10
-987.0180552313632
 20
1727.671636322125
 30
0.0
 11
-986.0180552313632
 21
1726.671636322126
 31
0.0
  0
LINE
  5
1BABF
330
1A
100
AcDbEntity
  8
ZISSEN1
 48
0.5
100
AcDbLine
 10
-986.0180552313632
 20
1726.671636322125
 30
0.0
 11
-986.0180552313632
 21
1721.171636322124
 31
0.0
  0
LINE
  5
1BAC0
330
1A
100
AcDbEntity
  8
ZISSEN1
 48
0.5
100
AcDbLine
 10
-990.5180552313632
 20
1721.171636322124
 30
0.0
 11
-984.0180552313631
 21
1721.171636322124
 31
0.0
  0
LINE
  5
1BAC1
330
1A
100
AcDbEntity
  8
ZISSEN1
 48
0.5
100
AcDbLine
 10
-997.7680552313632
 20
1727.671636322125
 30
0.0
 11
-997.7680552313632
 21
1724.171636322125
 31
0.0
  0
LINE
  5
1BAC2
330
1A
100
AcDbEntity
  8
ZISSEN1
 48
0.5
100
AcDbLine
 10
-994.2680552313632
 20
1727.671636322125
 30
0.0
 11
-994.2680552313632
 21
1724.171636322125
 31
0.0
  0
ARC
  5
1BAC3
330
1A
100
AcDbEntity
  8
ZISSEN1
 48
0.5
100
AcDbCircle
 10
-996.018055231363
 20
1724.171636322125
 30
0.0
 40
1.75
100
AcDbArc
 50
180.000000000026
 51
359.9999999999739
  0
LINE
  5
1BAC6
330
1A
100
AcDbEntity
  8
ZISSEN1
 48
0.5
100
AcDbLine
 10
-994.2680552313632
 20
1727.671636322125
 30
0.0
 11
-987.0180552313632
 21
1727.671636322125
 31
0.0
  0
LINE
  5
1BAC8
330
1A
100
AcDbEntity
  8
ZISSEN1
 48
0.5
100
AcDbLine
 10
-984.0180552313631
 20
1721.171636322124
 30
0.0
 11
-984.0180552313631
 21
1727.671636322125
 31
0.0
  0
LINE
  5
1BAC9
330
1A
100
AcDbEntity
  8
ZISSEN1
 48
0.5
100
AcDbLine
 10
-984.0180552313631
 20
1727.671636322125
 30
0.0
 11
-986.0180552313632
 21
1727.671636322125
 31
0.0
  0
LINE
  5
1BACA
330
1A
100
AcDbEntity
  8
ZISSEN1
 48
0.5
100
AcDbLine
 10
-986.0180552313632
 20
1727.671636322125
 30
0.0
 11
-986.0180552313632
 21
1726.671636322126
 31
0.0
  0
LINE
  5
1BACB
330
1A
100
AcDbEntity
  8
ZISSEN1
 48
0.5
100
AcDbLine
 10
-984.0180552313631
 20
1726.671636322126
 30
0.0
 11
-986.0180552313632
 21
1726.671636322126
 31
0.0
  0
LINE
  5
1BAD6
330
1A
100
AcDbEntity
  8
ZISSEN1
 48
0.5
100
AcDbLine
 10
-1053.018055231364
 20
1664.171636322125
 30
0.0
 11
-1104.018086057079
 21
1664.171636322458
 31
0.0
  0
LINE
  5
1BAEE
330
1A
100
AcDbEntity
  8
ZISSEN1
 48
0.5
100
AcDbLine
 10
-1115.018055231363
 20
1657.67163632374
 30
0.0
 11
-1111.765886285496
 21
1657.67163632374
 31
0.0
  0
LINE
  5
1BAF0
330
1A
100
AcDbEntity
  8
ZISSEN1
 48
0.5
100
AcDbLine
 10
-1116.018055231363
 20
1658.67163632374
 30
0.0
 11
-1118.018055231363
 21
1658.671636322125
 31
0.0
  0
LINE
  5
1BAF1
330
1A
100
AcDbEntity
  8
ZISSEN1
 48
0.5
100
AcDbLine
 10
-1116.018055231363
 20
1657.671636322126
 30
0.0
 11
-1118.018055231363
 21
1657.67163632374
 31
0.0
  0
LINE
  5
1BAF4
330
1A
100
AcDbEntity
  8
ZISSEN1
 48
0.5
100
AcDbLine
 10
-1116.018055231363
 20
1658.67163632374
 30
0.0
 11
-1115.018055231363
 21
1657.67163632374
 31
0.0
  0
ARC
  5
1BAF5
330
1A
100
AcDbEntity
  8
ZISSEN1
 48
0.5
100
AcDbCircle
 10
-1104.018055231362
 20
1663.171636322933
 30
0.0
 40
1.0
100
AcDbArc
 50
89.99999999999998
 51
180.0
  0
LINE
  5
1BAF6
330
1A
100
AcDbEntity
  8
ZISSEN1
 48
0.5
100
AcDbLine
 10
-1105.018055231362
 20
1663.171636322933
 30
0.0
 11
-1105.018055231363
 21
1658.67163632374
 31
0.0
  0
LINE
  5
1BAF7
330
1A
100
AcDbEntity
  8
ZISSEN1
 48
0.5
100
AcDbLine
 10
-1106.018055231363
 20
1657.67163632374
 30
0.0
 11
-1105.018055231363
 21
1658.67163632374
 31
0.0
  0
LINE
  5
1BAF8
330
1A
100
AcDbEntity
  8
ZISSEN1
 48
0.5
100
AcDbLine
 10
-1108.265886285496
 20
1657.67163632374
 30
0.0
 11
-1108.265886285496
 21
1661.17163632374
 31
0.0
  0
ARC
  5
1BAF9
330
1A
100
AcDbEntity
  8
ZISSEN1
 48
0.5
100
AcDbCircle
 10
-1110.015886285496
 20
1661.17163632374
 30
0.0
 40
1.749999999999772
100
AcDbArc
 50
0.0
 51
180.0
  0
LINE
  5
1BAFA
330
1A
100
AcDbEntity
  8
ZISSEN1
 48
0.5
100
AcDbLine
 10
-1111.765886285496
 20
1657.67163632374
 30
0.0
 11
-1111.765886285496
 21
1661.17163632374
 31
0.0
  0
LINE
  5
1BAFB
330
1A
100
AcDbEntity
  8
ZISSEN1
 48
0.5
100
AcDbLine
 10
-1108.265886285496
 20
1657.67163632374
 30
0.0
 11
-1106.018055231363
 21
1657.67163632374
 31
0.0
  0
LINE
  5
1BAFC
330
1A
100
AcDbEntity
  8
ZISSEN1
 48
0.5
100
AcDbLine
 10
-1052.018055231363
 20
1683.671636322125
 30
0.0
 11
-1052.018055231364
 21
1665.171636322125
 31
0.0
  0
CIRCLE
  5
1BB00
330
1A
100
AcDbEntity
  8
ZISSEN1
 48
0.5
100
AcDbCircle
 10
-1061.018055231363
 20
1667.671636322125
 30
0.0
 40
1.3
  0
ARC
  5
1BB03
330
1A
100
AcDbEntity
  8
ZISSEN1
 48
0.5
100
AcDbCircle
 10
-1059.018055231365
 20
1684.671636322124
 30
0.0
 40
1.0
100
AcDbArc
 50
180.0
 51
270.0
  0
LINE
  5
1BB04
330
1A
100
AcDbEntity
  8
ZISSEN1
 48
0.5
100
AcDbLine
 10
-1059.018055231365
 20
1683.671636322125
 30
0.0
 11
-1052.018055231363
 21
1683.671636322125
 31
0.0
  0
LINE
  5
1BB0F
330
1A
100
AcDbEntity
  8
ZISSEN1
 48
0.5
100
AcDbLine
 10
-1052.018055231364
 20
1665.171636322125
 30
0.0
 11
-1053.018055231364
 21
1664.171636322125
 31
0.0
  0
LINE
  5
1BB12
330
1A
100
AcDbEntity
  8
ZISSEN1
 48
0.5
100
AcDbLine
 10
-1116.018055231363
 20
1599.671636322125
 30
0.0
 11
-1070.018055231363
 21
1599.671636322126
 31
0.0
  0
LINE
  5
1BB13
330
1A
100
AcDbEntity
  8
ZISSEN1
 48
0.5
100
AcDbLine
 10
-1069.018055231363
 20
1601.671636322125
 30
0.0
 11
-1116.018055231363
 21
1601.671636322125
 31
0.0
  0
LINE
  5
1BB14
330
1A
100
AcDbEntity
  8
ZISSEN1
 48
0.5
100
AcDbLine
 10
-1118.018055231363
 20
1623.671636322125
 30
0.0
 11
-1118.018055231361
 21
1601.671636322125
 31
0.0
  0
LINE
  5
1BB15
330
1A
100
AcDbEntity
  8
ZISSEN1
 48
0.5
100
AcDbLine
 10
-1116.018055231363
 20
1599.671636322125
 30
0.0
 11
-1116.018055231363
 21
1623.671636322125
 31
0.0
  0
LINE
  5
1BB16
330
1A
100
AcDbEntity
  8
ZISSEN1
 48
0.5
100
AcDbLine
 10
-1116.018055231363
 20
1623.671636322125
 30
0.0
 11
-1118.018055231363
 21
1623.671636322125
 31
0.0
  0
LINE
  5
1BB17
330
1A
100
AcDbEntity
  8
ZISSEN1
 48
0.5
100
AcDbLine
 10
-1116.018055231363
 20
1622.671636322125
 30
0.0
 11
-1118.018055231363
 21
1622.671636322125
 31
0.0
  0
LINE
  5
1BB18
330
1A
100
AcDbEntity
  8
ZISSEN1
 48
0.5
100
AcDbLine
 10
-1116.018055231363
 20
1609.921636322126
 30
0.0
 11
-1118.018055231363
 21
1609.921636322126
 31
0.0
  0
LINE
  5
1BB1A
330
1A
100
AcDbEntity
  8
CL1
  6
DASHEDX2
 48
0.5
100
AcDbLine
 10
-1115.518055231361
 20
1611.671636322125
 30
0.0
 11
-1118.518055231361
 21
1611.671636322125
 31
0.0
  0
LINE
  5
1BB1B
330
1A
100
AcDbEntity
  8
ZISSEN1
 48
0.5
100
AcDbLine
 10
-1116.018055231363
 20
1613.421636322126
 30
0.0
 11
-1118.018055231363
 21
1613.421636322126
 31
0.0
  0
LINE
  5
1BB1D
330
1A
100
AcDbEntity
  8
ZISSEN1
 48
0.5
100
AcDbLine
 10
-1116.018055231361
 20
1602.671636322125
 30
0.0
 11
-1118.018055231361
 21
1602.671636322125
 31
0.0
  0
LINE
  5
1BB1E
330
1A
100
AcDbEntity
  8
ZISSEN1
 48
0.5
100
AcDbLine
 10
-1116.018055231363
 20
1601.671636322125
 30
0.0
 11
-1118.018055231361
 21
1601.671636322125
 31
0.0
  0
ARC
  5
1BB1F
330
1A
100
AcDbEntity
  8
ZISSEN1
 48
0.5
100
AcDbCircle
 10
-1116.018055231364
 20
1601.671636322125
 30
0.0
 40
2.0
100
AcDbArc
 50
179.9999999999739
 51
270.0000000000521
  0
LINE
  5
1BB20
330
1A
100
AcDbEntity
  8
ZISSEN1
 48
0.5
100
AcDbLine
 10
-1115.018055231363
 20
1599.671636322125
 30
0.0
 11
-1115.018055231363
 21
1601.671636322125
 31
0.0
  0
LINE
  5
1BB25
330
1A
100
AcDbEntity
  8
ZISSEN1
 48
0.5
100
AcDbLine
 10
-1111.765886285496
 20
1599.671636322125
 30
0.0
 11
-1111.765886285496
 21
1601.671636322125
 31
0.0
  0
LINE
  5
1BB26
330
1A
100
AcDbEntity
  8
ZISSEN1
 48
0.5
100
AcDbLine
 10
-1108.265886285496
 20
1599.671636322125
 30
0.0
 11
-1108.265886285496
 21
1601.671636322125
 31
0.0
  0
LINE
  5
1BB28
330
1A
100
AcDbEntity
  8
ZISSEN1
 48
0.5
100
AcDbLine
 10
-1052.018055231363
 20
1604.171636322125
 30
0.0
 11
-1067.018055231363
 21
1604.171636322125
 31
0.0
  0
LINE
  5
1BB29
330
1A
100
AcDbEntity
  8
ZISSEN1
 48
0.5
100
AcDbLine
 10
-1052.018055231363
 20
1604.171636322125
 30
0.0
 11
-1052.018055231363
 21
1606.171636322125
 31
0.0
  0
LINE
  5
1BB2A
330
1A
100
AcDbEntity
  8
ZISSEN1
 48
0.5
100
AcDbLine
 10
-1053.018055231363
 20
1604.171636322125
 30
0.0
 11
-1053.018055231363
 21
1606.171636322125
 31
0.0
  0
LINE
  5
1BB2B
330
1A
100
AcDbEntity
  8
ZISSEN1
 48
0.5
100
AcDbLine
 10
-1067.018055231362
 20
1606.171636322125
 30
0.0
 11
-1052.018055231363
 21
1606.171636322125
 31
0.0
  0
LINE
  5
1BB2C
330
1A
100
AcDbEntity
  8
ZISSEN1
 48
0.5
100
AcDbLine
 10
-1069.018055231363
 20
1601.671636322125
 30
0.0
 11
-1069.018055231362
 21
1604.171636322126
 31
0.0
  0
LINE
  5
1BB2D
330
1A
100
AcDbEntity
  8
ZISSEN1
 48
0.5
100
AcDbLine
 10
-1067.018055231363
 20
1602.671636322124
 30
0.0
 11
-1067.018055231363
 21
1604.171636322125
 31
0.0
  0
ARC
  5
1BB2E
330
1A
100
AcDbEntity
  8
ZISSEN1
 48
0.5
100
AcDbCircle
 10
-1067.018055231362
 20
1604.171636322125
 30
0.0
 40
2.0
100
AcDbArc
 50
89.99999999999998
 51
180.0
  0
ARC
  5
1BB31
330
1A
100
AcDbEntity
  8
ZISSEN1
 48
0.5
100
AcDbCircle
 10
-1070.018055231363
 20
1602.671636322126
 30
0.0
 40
3.0
100
AcDbArc
 50
270.0
 51
359.9999999999739
  0
LINE
  5
1BB43
330
1A
100
AcDbEntity
  8
ZISSEN1
 48
0.5
100
AcDbLine
 10
-984.0180552313631
 20
1664.171636322125
 30
0.0
 11
-990.5180552313632
 21
1664.171636322125
 31
0.0
  0
LINE
  5
1BB44
330
1A
100
AcDbEntity
  8
ZISSEN1
 48
0.5
100
AcDbLine
 10
-997.7680552313632
 20
1657.671636322124
 30
0.0
 11
-997.7680552313632
 21
1661.171636322124
 31
0.0
  0
LINE
  5
1BB45
330
1A
100
AcDbEntity
  8
ZISSEN1
 48
0.5
100
AcDbLine
 10
-994.2680552313632
 20
1657.671636322124
 30
0.0
 11
-994.2680552313632
 21
1661.171636322124
 31
0.0
  0
ARC
  5
1BB46
330
1A
100
AcDbEntity
  8
ZISSEN1
 48
0.5
100
AcDbCircle
 10
-996.018055231363
 20
1661.171636322124
 30
0.0
 40
1.75
100
AcDbArc
 50
0.0000000000260424
 51
179.9999999999739
  0
LINE
  5
1BB47
330
1A
100
AcDbEntity
  8
ZISSEN1
 48
0.5
100
AcDbLine
 10
-997.7680552313632
 20
1657.671636322124
 30
0.0
 11
-1007.018055231363
 21
1657.671636322124
 31
0.0
  0
LINE
  5
1BB4A
330
1A
100
AcDbEntity
  8
ZISSEN1
 48
0.5
100
AcDbLine
 10
-987.0180552313632
 20
1657.671636322124
 30
0.0
 11
-994.2680552313632
 21
1657.671636322124
 31
0.0
  0
LINE
  5
1BB4C
330
1A
100
AcDbEntity
  8
ZISSEN1
 48
0.5
100
AcDbLine
 10
-987.0180552313632
 20
1657.671636322124
 30
0.0
 11
-986.0180552313632
 21
1658.671636322124
 31
0.0
  0
LINE
  5
1BB4D
330
1A
100
AcDbEntity
  8
ZISSEN1
 48
0.5
100
AcDbLine
 10
-986.0180552313632
 20
1664.171636322125
 30
0.0
 11
-986.0180552313632
 21
1658.671636322124
 31
0.0
  0
LINE
  5
1BB4E
330
1A
100
AcDbEntity
  8
ZISSEN1
 48
0.5
100
AcDbLine
 10
-984.0180552313631
 20
1664.171636322125
 30
0.0
 11
-984.0180552313631
 21
1657.671636322124
 31
0.0
  0
LINE
  5
1BB4F
330
1A
100
AcDbEntity
  8
ZISSEN1
 48
0.5
100
AcDbLine
 10
-984.0180552313631
 20
1657.671636322124
 30
0.0
 11
-986.0180552313632
 21
1657.671636322124
 31
0.0
  0
LINE
  5
1BB50
330
1A
100
AcDbEntity
  8
ZISSEN1
 48
0.5
100
AcDbLine
 10
-986.0180552313632
 20
1657.671636322124
 30
0.0
 11
-986.0180552313632
 21
1658.671636322124
 31
0.0
  0
LINE
  5
1BB51
330
1A
100
AcDbEntity
  8
ZISSEN1
 48
0.5
100
AcDbLine
 10
-984.0180552313631
 20
1658.671636322124
 30
0.0
 11
-986.0180552313632
 21
1658.671636322124
 31
0.0
  0
LINE
  5
1BB52
330
1A
100
AcDbEntity
  8
ZISSEN1
 48
0.5
100
AcDbLine
 10
-1008.018055231363
 20
1658.671636322124
 30
0.0
 11
-1007.018055231363
 21
1657.671636322124
 31
0.0
  0
LINE
  5
1BFE0
330
1A
100
AcDbEntity
  8
ZISSEN1
100
AcDbLine
 10
-1053.518055231363
 20
1664.671636323098
 30
0.0
 11
-1115.018055231363
 21
1664.671636323098
 31
0.0
  0
LINE
  5
1BFE1
330
1A
100
AcDbEntity
  8
ZISSEN1
100
AcDbLine
 10
-1115.018055231363
 20
1720.671636323098
 30
0.0
 11
-1053.518055231363
 21
1720.671636323098
 31
0.0
  0
LINE
  5
1BFE2
330
1A
100
AcDbEntity
  8
ZISSEN1
100
AcDbLine
 10
-1083.522248331926
 20
1719.669560241155
 30
0.0
 11
-1087.122248331927
 21
1719.669560241155
 31
0.0
  0
LINE
  5
1BFE3
330
1A
100
AcDbEntity
  8
ZISSEN1
100
AcDbLine
 10
-1087.122248331927
 20
1712.269560241155
 30
0.0
 11
-1083.522248331926
 21
1712.269560241155
 31
0.0
  0
LINE
  5
1BFE4
330
1A
100
AcDbEntity
  8
ZISSEN1
100
AcDbLine
 10
-1114.518055231363
 20
1668.671636323098
 30
0.0
 11
-1114.518055231363
 21
1716.671636323098
 31
0.0
  0
LINE
  5
1BFE5
330
1A
100
AcDbEntity
  8
ZISSEN1
100
AcDbLine
 10
-1114.518055231363
 20
1668.671636323098
 30
0.0
 11
-1116.018055231363
 21
1668.671636323098
 31
0.0
  0
LINE
  5
1BFE6
102
{ACAD_REACTORS
330
1C09E
102
}
330
1A
100
AcDbEntity
  8
ZISSEN1
100
AcDbLine
 10
-1107.018055231363
 20
1667.746756414263
 30
0.0
 11
-1106.018055231363
 21
1667.746756414263
 31
0.0
  0
LINE
  5
1BFE7
102
{ACAD_REACTORS
330
1C09E
102
}
330
1A
100
AcDbEntity
  8
ZISSEN1
100
AcDbLine
 10
-1107.018055231363
 20
1666.496756414264
 30
0.0
 11
-1106.718055231363
 21
1666.496756414264
 31
0.0
  0
LINE
  5
1BFE8
102
{ACAD_REACTORS
330
1C09E
102
}
330
1A
100
AcDbEntity
  8
ZISSEN1
100
AcDbLine
 10
-1105.018055231363
 20
1666.496756414264
 30
0.0
 11
-1105.318055231362
 21
1666.496756414264
 31
0.0
  0
LINE
  5
1BFE9
102
{ACAD_REACTORS
330
1C09E
102
}
330
1A
100
AcDbEntity
  8
ZISSEN1
100
AcDbLine
 10
-1107.018055231363
 20
1666.496756414264
 30
0.0
 11
-1107.018055231363
 21
1667.121756414264
 31
0.0
  0
LINE
  5
1BFEA
102
{ACAD_REACTORS
330
1C09E
102
}
330
1A
100
AcDbEntity
  8
ZISSEN1
100
AcDbLine
 10
-1107.018055231363
 20
1666.496756414264
 30
0.0
 11
-1107.018055231363
 21
1667.121756414264
 31
0.0
  0
LINE
  5
1BFEB
102
{ACAD_REACTORS
330
1C09E
102
}
330
1A
100
AcDbEntity
  8
ZISSEN1
100
AcDbLine
 10
-1105.018055231363
 20
1666.496756414264
 30
0.0
 11
-1105.318055231362
 21
1666.496756414264
 31
0.0
  0
LINE
  5
1BFEC
102
{ACAD_REACTORS
330
1C09E
102
}
330
1A
100
AcDbEntity
  8
ZISSEN1
100
AcDbLine
 10
-1107.018055231363
 20
1666.496756414264
 30
0.0
 11
-1106.718055231363
 21
1666.496756414264
 31
0.0
  0
LINE
  5
1BFED
102
{ACAD_REACTORS
330
1C09E
102
}
330
1A
100
AcDbEntity
  8
ZISSEN1
100
AcDbLine
 10
-1107.018055231363
 20
1666.496756414264
 30
0.0
 11
-1105.018055231363
 21
1666.496756414264
 31
0.0
  0
LINE
  5
1BFEE
102
{ACAD_REACTORS
330
1C09E
102
}
330
1A
100
AcDbEntity
  8
ZISSEN1
100
AcDbLine
 10
-1107.018055231363
 20
1667.746756414263
 30
0.0
 11
-1106.018055231363
 21
1667.746756414263
 31
0.0
  0
LINE
  5
1BFEF
102
{ACAD_REACTORS
330
1C09E
102
}
330
1A
100
AcDbEntity
  8
ZISSEN1
100
AcDbLine
 10
-1105.018055231363
 20
1667.746756414263
 30
0.0
 11
-1107.018055231363
 21
1667.746756414263
 31
0.0
  0
LINE
  5
1BFF0
102
{ACAD_REACTORS
330
1C09E
102
}
330
1A
100
AcDbEntity
  8
ZISSEN1
100
AcDbLine
 10
-1107.018055231363
 20
1667.746756414263
 30
0.0
 11
-1107.018055231363
 21
1666.496756414264
 31
0.0
  0
LINE
  5
1BFF1
102
{ACAD_REACTORS
330
1C09E
102
}
330
1A
100
AcDbEntity
  8
ZISSEN1
100
AcDbLine
 10
-1105.018055231363
 20
1666.496756414264
 30
0.0
 11
-1105.018055231363
 21
1667.746756414263
 31
0.0
  0
LINE
  5
1BFF2
102
{ACAD_REACTORS
330
1C0A0
102
}
330
1A
100
AcDbEntity
  8
ZISSEN1
100
AcDbLine
 10
-1100.018055231363
 20
1667.746756414263
 30
0.0
 11
-1102.018055231363
 21
1667.746756414263
 31
0.0
  0
LINE
  5
1BFF3
102
{ACAD_REACTORS
330
1C0A0
102
}
330
1A
100
AcDbEntity
  8
ZISSEN1
100
AcDbLine
 10
-1100.018055231363
 20
1666.496756414264
 30
0.0
 11
-1100.018055231363
 21
1667.746756414263
 31
0.0
  0
LINE
  5
1BFF4
102
{ACAD_REACTORS
330
1C0A0
102
}
330
1A
100
AcDbEntity
  8
ZISSEN1
100
AcDbLine
 10
-1102.018055231363
 20
1667.746756414263
 30
0.0
 11
-1101.018055231363
 21
1667.746756414263
 31
0.0
  0
LINE
  5
1BFF5
102
{ACAD_REACTORS
330
1C0A0
102
}
330
1A
100
AcDbEntity
  8
ZISSEN1
100
AcDbLine
 10
-1102.018055231363
 20
1666.496756414264
 30
0.0
 11
-1100.018055231363
 21
1666.496756414264
 31
0.0
  0
LINE
  5
1BFF6
102
{ACAD_REACTORS
330
1C0A0
102
}
330
1A
100
AcDbEntity
  8
ZISSEN1
100
AcDbLine
 10
-1102.018055231363
 20
1666.496756414264
 30
0.0
 11
-1101.718055231363
 21
1666.496756414264
 31
0.0
  0
LINE
  5
1BFF7
102
{ACAD_REACTORS
330
1C0A0
102
}
330
1A
100
AcDbEntity
  8
ZISSEN1
100
AcDbLine
 10
-1100.018055231363
 20
1666.496756414264
 30
0.0
 11
-1100.318055231362
 21
1666.496756414264
 31
0.0
  0
LINE
  5
1BFF8
102
{ACAD_REACTORS
330
1C0A0
102
}
330
1A
100
AcDbEntity
  8
ZISSEN1
100
AcDbLine
 10
-1102.018055231363
 20
1666.496756414264
 30
0.0
 11
-1102.018055231363
 21
1667.121756414264
 31
0.0
  0
LINE
  5
1BFF9
102
{ACAD_REACTORS
330
1C0A0
102
}
330
1A
100
AcDbEntity
  8
ZISSEN1
100
AcDbLine
 10
-1102.018055231363
 20
1666.496756414264
 30
0.0
 11
-1102.018055231363
 21
1667.121756414264
 31
0.0
  0
LINE
  5
1BFFA
102
{ACAD_REACTORS
330
1C0A0
102
}
330
1A
100
AcDbEntity
  8
ZISSEN1
100
AcDbLine
 10
-1100.018055231363
 20
1666.496756414264
 30
0.0
 11
-1100.318055231362
 21
1666.496756414264
 31
0.0
  0
LINE
  5
1BFFB
102
{ACAD_REACTORS
330
1C0A0
102
}
330
1A
100
AcDbEntity
  8
ZISSEN1
100
AcDbLine
 10
-1102.018055231363
 20
1666.496756414264
 30
0.0
 11
-1101.718055231363
 21
1666.496756414264
 31
0.0
  0
LINE
  5
1BFFC
102
{ACAD_REACTORS
330
1C0A0
102
}
330
1A
100
AcDbEntity
  8
ZISSEN1
100
AcDbLine
 10
-1102.018055231363
 20
1667.746756414263
 30
0.0
 11
-1101.018055231363
 21
1667.746756414263
 31
0.0
  0
LINE
  5
1BFFD
102
{ACAD_REACTORS
330
1C0A0
102
}
330
1A
100
AcDbEntity
  8
ZISSEN1
100
AcDbLine
 10
-1102.018055231363
 20
1667.746756414263
 30
0.0
 11
-1102.018055231363
 21
1666.496756414264
 31
0.0
  0
LINE
  5
1BFFE
330
1A
100
AcDbEntity
  8
ZISSEN1
100
AcDbLine
 10
-1114.518055231363
 20
1716.671636323098
 30
0.0
 11
-1116.018055231363
 21
1716.671636323098
 31
0.0
  0
LINE
  5
1BFFF
330
1A
100
AcDbEntity
  8
ZISSEN1
100
AcDbLine
 10
-1112.018055231363
 20
1720.669560241155
 30
0.0
 11
-1089.618055231363
 21
1720.669560241155
 31
0.0
  0
LINE
  5
1C000
102
{ACAD_REACTORS
330
1C0A1
102
}
330
1A
100
AcDbEntity
  8
ZISSEN1
100
AcDbLine
 10
-1111.168055231363
 20
1719.969560241154
 30
0.0
 11
-1090.468055231364
 21
1719.969560241154
 31
0.0
  0
LINE
  5
1C001
102
{ACAD_REACTORS
330
1C0A1
102
}
330
1A
100
AcDbEntity
  8
ZISSEN1
100
AcDbLine
 10
-1112.018055231363
 20
1720.669560241154
 30
0.0
 11
-1089.618055231363
 21
1720.669560241154
 31
0.0
  0
LINE
  5
1C002
102
{ACAD_REACTORS
330
1C0A1
102
}
330
1A
100
AcDbEntity
  8
ZISSEN1
100
AcDbLine
 10
-1112.018055231363
 20
1713.069560241154
 30
0.0
 11
-1089.618055231363
 21
1713.075330152583
 31
0.0
  0
LINE
  5
1C003
102
{ACAD_REACTORS
330
1C0A1
102
}
330
1A
100
AcDbEntity
  8
ZISSEN1
100
AcDbLine
 10
-1091.468055231363
 20
1715.369560241154
 30
0.0
 11
-1110.168055231363
 21
1715.369560241154
 31
0.0
  0
LINE
  5
1C004
102
{ACAD_REACTORS
330
1C0A1
102
}
330
1A
100
AcDbEntity
  8
ZISSEN1
100
AcDbLine
 10
-1109.568055231364
 20
1714.769560241154
 30
0.0
 11
-1092.068055231364
 21
1714.769560241153
 31
0.0
  0
LINE
  5
1C005
102
{ACAD_REACTORS
330
1C0A1
102
}
330
1A
100
AcDbEntity
  8
ZISSEN1
100
AcDbLine
 10
-1103.368055231363
 20
1713.869560241154
 30
0.0
 11
-1098.268055231363
 21
1713.869560241154
 31
0.0
  0
LINE
  5
1C006
102
{ACAD_REACTORS
330
1C0A1
102
}
330
1A
100
AcDbEntity
  8
ZISSEN1
100
AcDbLine
 10
-1110.168055231363
 20
1715.369560241154
 30
0.0
 11
-1110.168055231363
 21
1714.569560241154
 31
0.0
  0
LINE
  5
1C007
102
{ACAD_REACTORS
330
1C0A1
102
}
330
1A
100
AcDbEntity
  8
ZISSEN1
100
AcDbLine
 10
-1110.168055231363
 20
1714.569560241154
 30
0.0
 11
-1111.168055231363
 21
1714.569560241154
 31
0.0
  0
LINE
  5
1C008
102
{ACAD_REACTORS
330
1C0A1
102
}
330
1A
100
AcDbEntity
  8
ZISSEN1
100
AcDbLine
 10
-1109.568055231364
 20
1713.869560241154
 30
0.0
 11
-1109.568055231364
 21
1714.769560241154
 31
0.0
  0
LINE
  5
1C009
102
{ACAD_REACTORS
330
1C0A1
102
}
330
1A
100
AcDbEntity
  8
ZISSEN1
100
AcDbLine
 10
-1105.018055231363
 20
1714.769560241154
 30
0.0
 11
-1105.018055231363
 21
1713.869560241154
 31
0.0
  0
LINE
  5
1C00A
102
{ACAD_REACTORS
330
1C0A1
102
}
330
1A
100
AcDbEntity
  8
ZISSEN1
100
AcDbLine
 10
-1103.368055231363
 20
1714.769560241154
 30
0.0
 11
-1103.368055231363
 21
1713.869560241154
 31
0.0
  0
LINE
  5
1C00B
102
{ACAD_REACTORS
330
1C0A1
102
}
330
1A
100
AcDbEntity
  8
ZISSEN1
100
AcDbLine
 10
-1105.018055231363
 20
1713.869560241154
 30
0.0
 11
-1112.018055231363
 21
1713.869560241154
 31
0.0
  0
LWPOLYLINE
  5
1C00C
102
{ACAD_REACTORS
330
1C0A1
102
}
330
1A
100
AcDbEntity
  8
ZISSEN1
100
AcDbPolyline
 90
        4
 70
     1
 43
0.0
 10
-1104.818055231363
 20
1714.169560241154
 10
-1103.568055231363
 20
1714.169560241154
 10
-1103.568055231363
 20
1714.769560241154
 10
-1104.818055231363
 20
1714.769560241154
  0
LINE
  5
1C00D
102
{ACAD_REACTORS
330
1C0A1
102
}
330
1A
100
AcDbEntity
  8
ZISSEN1
100
AcDbLine
 10
-1112.018055231363
 20
1713.069560241154
 30
0.0
 11
-1112.018055231363
 21
1720.669560241155
 31
0.0
  0
LINE
  5
1C00E
102
{ACAD_REACTORS
330
1C0A1
102
}
330
1A
100
AcDbEntity
  8
ZISSEN1
100
AcDbLine
 10
-1111.168055231363
 20
1714.569560241154
 30
0.0
 11
-1111.168055231363
 21
1719.969560241154
 31
0.0
  0
LINE
  5
1C00F
102
{ACAD_REACTORS
330
1C0A1
102
}
330
1A
100
AcDbEntity
  8
ZISSEN1
100
AcDbLine
 10
-1112.018055231363
 20
1713.869560241154
 30
0.0
 11
-1112.018055231363
 21
1720.669560241154
 31
0.0
  0
LINE
  5
1C010
330
1A
100
AcDbEntity
  8
ZISSEN1
100
AcDbLine
 10
-1089.618055231363
 20
1713.869560241155
 30
0.0
 11
-1096.618055231363
 21
1713.869560241155
 31
0.0
  0
LINE
  5
1C011
102
{ACAD_REACTORS
330
1C0A1
102
}
330
1A
100
AcDbEntity
  8
ZISSEN1
100
AcDbLine
 10
-1090.468055231364
 20
1714.569560241154
 30
0.0
 11
-1091.468055231363
 21
1714.569560241154
 31
0.0
  0
LINE
  5
1C012
102
{ACAD_REACTORS
330
1C0A1
102
}
330
1A
100
AcDbEntity
  8
ZISSEN1
100
AcDbLine
 10
-1091.468055231363
 20
1714.569560241154
 30
0.0
 11
-1091.468055231363
 21
1715.369560241154
 31
0.0
  0
LINE
  5
1C013
102
{ACAD_REACTORS
330
1C0A1
102
}
330
1A
100
AcDbEntity
  8
ZISSEN1
100
AcDbLine
 10
-1092.068055231364
 20
1714.769560241153
 30
0.0
 11
-1092.068055231364
 21
1713.869560241154
 31
0.0
  0
LINE
  5
1C014
102
{ACAD_REACTORS
330
1C0A1
102
}
330
1A
100
AcDbEntity
  8
ZISSEN1
100
AcDbLine
 10
-1098.268055231363
 20
1714.769560241153
 30
0.0
 11
-1098.268055231363
 21
1713.869560241154
 31
0.0
  0
LINE
  5
1C015
102
{ACAD_REACTORS
330
1C0A1
102
}
330
1A
100
AcDbEntity
  8
ZISSEN1
100
AcDbLine
 10
-1096.618055231364
 20
1714.769560241153
 30
0.0
 11
-1096.618055231364
 21
1713.869560241154
 31
0.0
  0
LINE
  5
1C016
102
{ACAD_REACTORS
330
1C0A1
102
}
330
1A
100
AcDbEntity
  8
ZISSEN1
100
AcDbLine
 10
-1089.618055231363
 20
1713.869560241154
 30
0.0
 11
-1096.618055231364
 21
1713.869560241154
 31
0.0
  0
LWPOLYLINE
  5
1C017
102
{ACAD_REACTORS
330
1C0A1
102
}
330
1A
100
AcDbEntity
  8
ZISSEN1
100
AcDbPolyline
 90
        4
 70
     1
 43
0.0
 10
-1098.068055231363
 20
1714.169560241154
 10
-1096.818055231364
 20
1714.169560241154
 10
-1096.818055231364
 20
1714.769560241153
 10
-1098.068055231363
 20
1714.769560241153
  0
LINE
  5
1C018
330
1A
100
AcDbEntity
  8
ZISSEN1
100
AcDbLine
 10
-1089.618055231363
 20
1720.669560241155
 30
0.0
 11
-1089.618055231363
 21
1713.869560241155
 31
0.0
  0
LINE
  5
1C019
330
1A
100
AcDbEntity
  8
ZISSEN1
100
AcDbLine
 10
-1087.122248331927
 20
1712.269560241155
 30
0.0
 11
-1087.122248331927
 21
1719.669560241155
 31
0.0
  0
LINE
  5
1C01A
102
{ACAD_REACTORS
330
1C0A1
102
}
330
1A
100
AcDbEntity
  8
ZISSEN1
100
AcDbLine
 10
-1089.618055231363
 20
1713.075330152583
 30
0.0
 11
-1089.618055231363
 21
1720.675330152583
 31
0.0
  0
LINE
  5
1C01B
102
{ACAD_REACTORS
330
1C0A1
102
}
330
1A
100
AcDbEntity
  8
ZISSEN1
100
AcDbLine
 10
-1090.468055231364
 20
1714.569560241154
 30
0.0
 11
-1090.468055231364
 21
1719.969560241154
 31
0.0
  0
LINE
  5
1C01C
102
{ACAD_REACTORS
330
1C0A1
102
}
330
1A
100
AcDbEntity
  8
ZISSEN1
100
AcDbLine
 10
-1090.468055231364
 20
1719.969560241154
 30
0.0
 11
-1090.468055231364
 21
1714.569560241154
 31
0.0
  0
LINE
  5
1C01D
102
{ACAD_REACTORS
330
1C0A1
102
}
330
1A
100
AcDbEntity
  8
ZISSEN1
100
AcDbLine
 10
-1090.468055231364
 20
1719.969560241154
 30
0.0
 11
-1090.468055231364
 21
1714.569560241154
 31
0.0
  0
LINE
  5
1C01E
102
{ACAD_REACTORS
330
1C0A1
102
}
330
1A
100
AcDbEntity
  8
ZISSEN1
100
AcDbLine
 10
-1089.618055231363
 20
1720.669560241154
 30
0.0
 11
-1089.618055231363
 21
1713.869560241154
 31
0.0
  0
LINE
  5
1C01F
330
1A
100
AcDbEntity
  8
ZISSEN1
100
AcDbLine
 10
-1052.518055231364
 20
1665.671636323099
 30
0.0
 11
-1052.518055231364
 21
1685.171636323098
 31
0.0
  0
CIRCLE
  5
1C020
330
1A
100
AcDbEntity
  8
ZISSEN1
  6
CONTINUOUS
100
AcDbCircle
 10
-1061.018055231363
 20
1667.671636323098
 30
0.0
 40
2.75
  0
LINE
  5
1C021
330
1A
100
AcDbEntity
  8
ZISSEN1
100
AcDbLine
 10
-1052.518055231363
 20
1719.671636323099
 30
0.0
 11
-1052.518055231363
 21
1665.671636323098
 31
0.0
  0
ARC
  5
1C022
330
1A
100
AcDbEntity
  8
ZISSEN1
100
AcDbCircle
 10
-1052.518055231364
 20
1664.671636323098
 30
0.0
 40
0.9999999999997681
100
AcDbArc
 50
89.99999999994788
 51
180.000000000013
  0
LINE
  5
1C023
330
1A
100
AcDbEntity
  8
ZISSEN1
100
AcDbLine
 10
-1053.518055231364
 20
1664.671636323099
 30
0.0
 11
-1052.518055231364
 21
1665.671636323099
 31
0.0
  0
LINE
  5
1C024
330
1A
100
AcDbEntity
  8
ZISSEN1
100
AcDbLine
 10
-1070.518055231364
 20
1664.671636323099
 30
0.0
 11
-1053.518055231364
 21
1664.671636323099
 31
0.0
  0
LINE
  5
1C025
330
1A
100
AcDbEntity
  8
ZISSEN1
  6
CONTINUOUS
100
AcDbLine
 10
-1060.618055231362
 20
1667.271636323098
 30
0.0
 11
-1059.518055231362
 21
1667.271636323098
 31
0.0
  0
LINE
  5
1C026
330
1A
100
AcDbEntity
  8
ZISSEN1
  6
CONTINUOUS
100
AcDbLine
 10
-1059.518055231362
 20
1668.071636323098
 30
0.0
 11
-1060.618055231362
 21
1668.071636323098
 31
0.0
  0
LINE
  5
1C027
330
1A
100
AcDbEntity
  8
ZISSEN1
  6
CONTINUOUS
100
AcDbLine
 10
-1060.618055231362
 20
1668.071636323098
 30
0.0
 11
-1060.618055231362
 21
1669.171636323098
 31
0.0
  0
LINE
  5
1C028
330
1A
100
AcDbEntity
  8
ZISSEN1
  6
CONTINUOUS
100
AcDbLine
 10
-1061.418055231363
 20
1669.171636323098
 30
0.0
 11
-1061.418055231363
 21
1668.071636323098
 31
0.0
  0
LINE
  5
1C029
330
1A
100
AcDbEntity
  8
ZISSEN1
  6
CONTINUOUS
100
AcDbLine
 10
-1060.618055231362
 20
1669.171636323098
 30
0.0
 11
-1061.018055231362
 21
1669.171636323098
 31
0.0
  0
LINE
  5
1C02A
330
1A
100
AcDbEntity
  8
ZISSEN1
  6
CONTINUOUS
100
AcDbLine
 10
-1061.018055231362
 20
1669.171636323098
 30
0.0
 11
-1061.418055231363
 21
1669.171636323098
 31
0.0
  0
LINE
  5
1C02B
330
1A
100
AcDbEntity
  8
ZISSEN1
  6
CONTINUOUS
100
AcDbLine
 10
-1062.518055231362
 20
1668.071636323098
 30
0.0
 11
-1061.418055231363
 21
1668.071636323098
 31
0.0
  0
LINE
  5
1C02C
330
1A
100
AcDbEntity
  8
ZISSEN1
  6
CONTINUOUS
100
AcDbLine
 10
-1061.418055231363
 20
1667.271636323098
 30
0.0
 11
-1062.518055231362
 21
1667.271636323098
 31
0.0
  0
LINE
  5
1C02D
330
1A
100
AcDbEntity
  8
ZISSEN1
  6
CONTINUOUS
100
AcDbLine
 10
-1061.418055231363
 20
1666.171636323098
 30
0.0
 11
-1061.418055231363
 21
1667.271636323098
 31
0.0
  0
LINE
  5
1C02E
330
1A
100
AcDbEntity
  8
ZISSEN1
  6
CONTINUOUS
100
AcDbLine
 10
-1060.618055231362
 20
1667.271636323098
 30
0.0
 11
-1060.618055231362
 21
1666.171636323098
 31
0.0
  0
LINE
  5
1C02F
330
1A
100
AcDbEntity
  8
ZISSEN1
  6
CONTINUOUS
100
AcDbLine
 10
-1062.518055231362
 20
1667.271636323098
 30
0.0
 11
-1062.518055231362
 21
1667.671636323098
 31
0.0
  0
LINE
  5
1C030
330
1A
100
AcDbEntity
  8
ZISSEN1
  6
CONTINUOUS
100
AcDbLine
 10
-1062.518055231362
 20
1667.671636323098
 30
0.0
 11
-1062.518055231362
 21
1668.071636323098
 31
0.0
  0
LINE
  5
1C031
330
1A
100
AcDbEntity
  8
ZISSEN1
  6
CONTINUOUS
100
AcDbLine
 10
-1061.018055231362
 20
1666.171636323098
 30
0.0
 11
-1061.418055231363
 21
1666.171636323098
 31
0.0
  0
LINE
  5
1C032
330
1A
100
AcDbEntity
  8
ZISSEN1
  6
CONTINUOUS
100
AcDbLine
 10
-1060.618055231362
 20
1666.171636323098
 30
0.0
 11
-1061.018055231362
 21
1666.171636323098
 31
0.0
  0
LINE
  5
1C033
330
1A
100
AcDbEntity
  8
ZISSEN1
  6
CONTINUOUS
100
AcDbLine
 10
-1059.518055231362
 20
1667.671636323098
 30
0.0
 11
-1059.518055231362
 21
1668.071636323098
 31
0.0
  0
LINE
  5
1C034
330
1A
100
AcDbEntity
  8
ZISSEN1
  6
CONTINUOUS
100
AcDbLine
 10
-1059.518055231362
 20
1667.271636323098
 30
0.0
 11
-1059.518055231362
 21
1667.671636323098
 31
0.0
  0
LINE
  5
1C035
102
{ACAD_REACTORS
330
1C09F
102
}
330
1A
100
AcDbEntity
  8
ZISSEN1
100
AcDbLine
 10
-1052.512285319933
 20
1689.721636323097
 30
0.0
 11
-1060.112285319934
 21
1689.721636323097
 31
0.0
  0
LINE
  5
1C036
102
{ACAD_REACTORS
330
1C09F
102
}
330
1A
100
AcDbEntity
  8
ZISSEN1
100
AcDbLine
 10
-1052.518055231363
 20
1702.121636323097
 30
0.0
 11
-1060.118055231363
 21
1702.121636323097
 31
0.0
  0
ARC
  5
1C037
330
1A
100
AcDbEntity
  8
ZISSEN1
100
AcDbCircle
 10
-1052.518055231363
 20
1720.671636323098
 30
0.0
 40
0.9999999999995452
100
AcDbArc
 50
179.9999999999739
 51
270.0
  0
LINE
  5
1C038
330
1A
100
AcDbEntity
  8
ZISSEN1
100
AcDbLine
 10
-1053.518055231364
 20
1720.671636323099
 30
0.0
 11
-1052.518055231364
 21
1719.671636323099
 31
0.0
  0
LINE
  5
1C039
330
1A
100
AcDbEntity
  8
ZISSEN1
100
AcDbLine
 10
-1072.268055231363
 20
1671.867367544655
 30
0.0
 11
-1074.768055231363
 21
1671.867367544655
 31
0.0
  0
LINE
  5
1C03A
330
1A
100
AcDbEntity
  8
ZISSEN1
100
AcDbLine
 10
-1075.368055231363
 20
1672.467367544656
 30
0.0
 11
-1071.668055231363
 21
1672.467367544656
 31
0.0
  0
LINE
  5
1C03B
330
1A
100
AcDbEntity
  8
ZISSEN1
100
AcDbLine
 10
-1070.668055231363
 20
1677.067367544656
 30
0.0
 11
-1076.368055231363
 21
1677.067367544655
 31
0.0
  0
LINE
  5
1C03C
330
1A
100
AcDbEntity
  8
ZISSEN1
100
AcDbLine
 10
-1069.818055231364
 20
1677.767367544655
 30
0.0
 11
-1077.218055231363
 21
1677.767367544655
 31
0.0
  0
LINE
  5
1C03D
330
1A
100
AcDbEntity
  8
ZISSEN1
100
AcDbLine
 10
-1070.668055231363
 20
1671.667367544656
 30
0.0
 11
-1070.668055231363
 21
1677.067367544656
 31
0.0
  0
LINE
  5
1C03E
330
1A
100
AcDbEntity
  8
ZISSEN1
100
AcDbLine
 10
-1071.668055231363
 20
1672.467367544656
 30
0.0
 11
-1071.668055231363
 21
1671.667367544656
 31
0.0
  0
LINE
  5
1C03F
330
1A
100
AcDbEntity
  8
ZISSEN1
100
AcDbLine
 10
-1071.668055231363
 20
1671.667367544656
 30
0.0
 11
-1070.668055231363
 21
1671.667367544656
 31
0.0
  0
LINE
  5
1C040
330
1A
100
AcDbEntity
  8
ZISSEN1
100
AcDbLine
 10
-1072.268055231363
 20
1670.967367544656
 30
0.0
 11
-1072.268055231363
 21
1671.867367544655
 31
0.0
  0
LINE
  5
1C041
330
1A
100
AcDbEntity
  8
ZISSEN1
100
AcDbLine
 10
-1072.268055231363
 20
1670.967367544656
 30
0.0
 11
-1069.818055231364
 21
1670.967367544656
 31
0.0
  0
LINE
  5
1C042
330
1A
100
AcDbEntity
  8
ZISSEN1
100
AcDbLine
 10
-1076.368055231363
 20
1671.667367544656
 30
0.0
 11
-1076.368055231363
 21
1677.067367544655
 31
0.0
  0
LINE
  5
1C043
330
1A
100
AcDbEntity
  8
ZISSEN1
100
AcDbLine
 10
-1076.368055231363
 20
1677.067367544655
 30
0.0
 11
-1076.368055231363
 21
1671.667367544656
 31
0.0
  0
LINE
  5
1C044
330
1A
100
AcDbEntity
  8
ZISSEN1
100
AcDbLine
 10
-1076.368055231363
 20
1677.067367544655
 30
0.0
 11
-1076.368055231363
 21
1671.667367544656
 31
0.0
  0
LINE
  5
1C045
330
1A
100
AcDbEntity
  8
ZISSEN1
100
AcDbLine
 10
-1077.218055231363
 20
1677.767367544655
 30
0.0
 11
-1077.218055231363
 21
1670.967367544656
 31
0.0
  0
LINE
  5
1C046
330
1A
100
AcDbEntity
  8
ZISSEN1
100
AcDbLine
 10
-1076.368055231363
 20
1671.667367544656
 30
0.0
 11
-1075.368055231363
 21
1671.667367544656
 31
0.0
  0
LINE
  5
1C047
330
1A
100
AcDbEntity
  8
ZISSEN1
100
AcDbLine
 10
-1075.368055231363
 20
1671.667367544656
 30
0.0
 11
-1075.368055231363
 21
1672.467367544656
 31
0.0
  0
LINE
  5
1C048
330
1A
100
AcDbEntity
  8
ZISSEN1
100
AcDbLine
 10
-1074.768055231363
 20
1671.867367544655
 30
0.0
 11
-1074.768055231363
 21
1670.967367544656
 31
0.0
  0
LINE
  5
1C049
330
1A
100
AcDbEntity
  8
ZISSEN1
100
AcDbLine
 10
-1077.218055231363
 20
1670.967367544656
 30
0.0
 11
-1074.768055231363
 21
1670.967367544656
 31
0.0
  0
LWPOLYLINE
  5
1C04A
330
1A
100
AcDbEntity
  8
ZISSEN1
100
AcDbPolyline
 90
        4
 70
     1
 43
0.0
 10
-1072.893055231363
 20
1671.267367544656
 10
-1074.143055231363
 20
1671.267367544656
 10
-1074.143055231363
 20
1671.867367544655
 10
-1072.893055231363
 20
1671.867367544655
  0
LINE
  5
1C04B
330
1A
100
AcDbEntity
  8
ZISSEN1
100
AcDbLine
 10
-1069.818055231364
 20
1670.967367544656
 30
0.0
 11
-1069.818055231364
 21
1677.767367544656
 31
0.0
  0
LINE
  5
1C04C
102
{ACAD_REACTORS
330
1C0A2
102
}
330
1A
100
AcDbEntity
  8
ZISSEN1
100
AcDbLine
 10
-1077.218055231365
 20
1677.767367544655
 30
0.0
 11
-1069.818055231364
 21
1677.767367544655
 31
0.0
  0
LINE
  5
1C04D
102
{ACAD_REACTORS
330
1C0A2
102
}
330
1A
100
AcDbEntity
  8
ZISSEN1
100
AcDbLine
 10
-1069.818055231364
 20
1670.167367544655
 30
0.0
 11
-1069.818055231364
 21
1677.767367544655
 31
0.0
  0
LINE
  5
1C04E
102
{ACAD_REACTORS
330
1C0A2
102
}
330
1A
100
AcDbEntity
  8
ZISSEN1
100
AcDbLine
 10
-1077.218055231365
 20
1670.167367544655
 30
0.0
 11
-1077.218055231365
 21
1677.767367544655
 31
0.0
  0
LINE
  5
1C04F
102
{ACAD_REACTORS
330
1C0A2
102
}
330
1A
100
AcDbEntity
  8
ZISSEN1
100
AcDbLine
 10
-1077.218055231365
 20
1670.167367544655
 30
0.0
 11
-1069.818055231364
 21
1670.167367544655
 31
0.0
  0
LWPOLYLINE
  5
1C050
102
{ACAD_REACTORS
330
1C0A2
102
}
330
1A
100
AcDbEntity
  8
ZISSEN1
100
AcDbPolyline
 90
        4
 70
     1
 43
0.0
 10
-1074.143055231365
 20
1671.267367544655
 10
-1072.893055231365
 20
1671.267367544655
 10
-1072.893055231365
 20
1671.867367544655
 10
-1074.143055231365
 20
1671.867367544655
  0
LINE
  5
1C051
102
{ACAD_REACTORS
330
1C0A2
102
}
330
1A
100
AcDbEntity
  8
ZISSEN1
100
AcDbLine
 10
-1069.818055231365
 20
1670.967367544655
 30
0.0
 11
-1072.268055231365
 21
1670.967367544655
 31
0.0
  0
LINE
  5
1C052
102
{ACAD_REACTORS
330
1C0A2
102
}
330
1A
100
AcDbEntity
  8
ZISSEN1
100
AcDbLine
 10
-1072.268055231365
 20
1671.867367544655
 30
0.0
 11
-1072.268055231365
 21
1670.967367544655
 31
0.0
  0
LINE
  5
1C053
102
{ACAD_REACTORS
330
1C0A2
102
}
330
1A
100
AcDbEntity
  8
ZISSEN1
100
AcDbLine
 10
-1071.668055231364
 20
1671.667367544655
 30
0.0
 11
-1071.668055231364
 21
1672.467367544654
 31
0.0
  0
LINE
  5
1C054
102
{ACAD_REACTORS
330
1C0A2
102
}
330
1A
100
AcDbEntity
  8
ZISSEN1
100
AcDbLine
 10
-1070.668055231364
 20
1671.667367544655
 30
0.0
 11
-1071.668055231364
 21
1671.667367544655
 31
0.0
  0
LINE
  5
1C055
102
{ACAD_REACTORS
330
1C0A2
102
}
330
1A
100
AcDbEntity
  8
ZISSEN1
100
AcDbLine
 10
-1069.818055231365
 20
1677.767367544655
 30
0.0
 11
-1069.818055231365
 21
1670.967367544655
 31
0.0
  0
LINE
  5
1C056
102
{ACAD_REACTORS
330
1C0A2
102
}
330
1A
100
AcDbEntity
  8
ZISSEN1
100
AcDbLine
 10
-1070.668055231364
 20
1677.067367544655
 30
0.0
 11
-1070.668055231364
 21
1671.667367544655
 31
0.0
  0
LINE
  5
1C057
102
{ACAD_REACTORS
330
1C0A2
102
}
330
1A
100
AcDbEntity
  8
ZISSEN1
100
AcDbLine
 10
-1070.668055231364
 20
1677.067367544655
 30
0.0
 11
-1070.668055231364
 21
1671.667367544655
 31
0.0
  0
LINE
  5
1C058
102
{ACAD_REACTORS
330
1C0A2
102
}
330
1A
100
AcDbEntity
  8
ZISSEN1
100
AcDbLine
 10
-1070.668055231364
 20
1671.667367544655
 30
0.0
 11
-1070.668055231364
 21
1677.067367544655
 31
0.0
  0
LINE
  5
1C059
102
{ACAD_REACTORS
330
1C0A2
102
}
330
1A
100
AcDbEntity
  8
ZISSEN1
100
AcDbLine
 10
-1074.768055231365
 20
1670.967367544655
 30
0.0
 11
-1077.218055231365
 21
1670.967367544655
 31
0.0
  0
LINE
  5
1C05A
102
{ACAD_REACTORS
330
1C0A2
102
}
330
1A
100
AcDbEntity
  8
ZISSEN1
100
AcDbLine
 10
-1074.768055231365
 20
1670.967367544655
 30
0.0
 11
-1074.768055231365
 21
1671.867367544655
 31
0.0
  0
LINE
  5
1C05B
102
{ACAD_REACTORS
330
1C0A2
102
}
330
1A
100
AcDbEntity
  8
ZISSEN1
100
AcDbLine
 10
-1075.368055231364
 20
1671.667367544655
 30
0.0
 11
-1076.368055231364
 21
1671.667367544655
 31
0.0
  0
LINE
  5
1C05C
102
{ACAD_REACTORS
330
1C0A2
102
}
330
1A
100
AcDbEntity
  8
ZISSEN1
100
AcDbLine
 10
-1075.368055231364
 20
1672.467367544654
 30
0.0
 11
-1075.368055231364
 21
1671.667367544655
 31
0.0
  0
LINE
  5
1C05D
102
{ACAD_REACTORS
330
1C0A2
102
}
330
1A
100
AcDbEntity
  8
ZISSEN1
100
AcDbLine
 10
-1077.218055231365
 20
1670.967367544655
 30
0.0
 11
-1077.218055231365
 21
1677.767367544655
 31
0.0
  0
LINE
  5
1C05E
102
{ACAD_REACTORS
330
1C0A2
102
}
330
1A
100
AcDbEntity
  8
ZISSEN1
100
AcDbLine
 10
-1076.368055231364
 20
1671.667367544655
 30
0.0
 11
-1076.368055231364
 21
1677.067367544655
 31
0.0
  0
LINE
  5
1C05F
102
{ACAD_REACTORS
330
1C0A2
102
}
330
1A
100
AcDbEntity
  8
ZISSEN1
100
AcDbLine
 10
-1077.218055231365
 20
1677.767367544655
 30
0.0
 11
-1069.818055231365
 21
1677.767367544655
 31
0.0
  0
LINE
  5
1C060
102
{ACAD_REACTORS
330
1C0A2
102
}
330
1A
100
AcDbEntity
  8
ZISSEN1
100
AcDbLine
 10
-1076.368055231364
 20
1677.067367544655
 30
0.0
 11
-1070.668055231364
 21
1677.067367544655
 31
0.0
  0
LINE
  5
1C061
102
{ACAD_REACTORS
330
1C0A2
102
}
330
1A
100
AcDbEntity
  8
ZISSEN1
100
AcDbLine
 10
-1071.668055231364
 20
1672.467367544654
 30
0.0
 11
-1075.368055231364
 21
1672.467367544654
 31
0.0
  0
LINE
  5
1C062
102
{ACAD_REACTORS
330
1C0A2
102
}
330
1A
100
AcDbEntity
  8
ZISSEN1
100
AcDbLine
 10
-1074.768055231365
 20
1671.867367544655
 30
0.0
 11
-1072.268055231365
 21
1671.867367544655
 31
0.0
  0
LINE
  5
1C063
330
1A
100
AcDbEntity
  8
ZISSEN1
100
AcDbLine
 10
-1060.118055231363
 20
1689.721636323098
 30
0.0
 11
-1053.318055231363
 21
1689.721636323098
 31
0.0
  0
LINE
  5
1C064
330
1A
100
AcDbEntity
  8
ZISSEN1
100
AcDbLine
 10
-1053.318055231363
 20
1702.121636323097
 30
0.0
 11
-1060.118055231363
 21
1702.121636323097
 31
0.0
  0
LINE
  5
1C065
102
{ACAD_REACTORS
330
1C09F
102
}
330
1A
100
AcDbEntity
  8
ZISSEN1
100
AcDbLine
 10
-1054.012285319932
 20
1701.271636323097
 30
0.0
 11
-1054.012285319932
 21
1700.271636323097
 31
0.0
  0
LINE
  5
1C066
102
{ACAD_REACTORS
330
1C09F
102
}
330
1A
100
AcDbEntity
  8
ZISSEN1
100
AcDbLine
 10
-1053.312285319933
 20
1702.121636323097
 30
0.0
 11
-1053.312285319933
 21
1698.871636323097
 31
0.0
  0
LINE
  5
1C067
102
{ACAD_REACTORS
330
1C09F
102
}
330
1A
100
AcDbEntity
  8
ZISSEN1
100
AcDbLine
 10
-1059.412285319933
 20
1690.571636323097
 30
0.0
 11
-1059.412285319933
 21
1701.271636323097
 31
0.0
  0
LINE
  5
1C068
102
{ACAD_REACTORS
330
1C09F
102
}
330
1A
100
AcDbEntity
  8
ZISSEN1
100
AcDbLine
 10
-1060.112285319934
 20
1689.721636323097
 30
0.0
 11
-1060.112285319933
 21
1702.121636323097
 31
0.0
  0
LINE
  5
1C069
102
{ACAD_REACTORS
330
1C09F
102
}
330
1A
100
AcDbEntity
  8
ZISSEN1
100
AcDbLine
 10
-1053.312285319933
 20
1689.721636323097
 30
0.0
 11
-1060.112285319934
 21
1689.721636323097
 31
0.0
  0
LINE
  5
1C06A
102
{ACAD_REACTORS
330
1C09F
102
}
330
1A
100
AcDbEntity
  8
ZISSEN1
100
AcDbLine
 10
-1054.012285319933
 20
1690.571636323097
 30
0.0
 11
-1059.412285319933
 21
1690.571636323097
 31
0.0
  0
LINE
  5
1C06B
102
{ACAD_REACTORS
330
1C09F
102
}
330
1A
100
AcDbEntity
  8
ZISSEN1
100
AcDbLine
 10
-1053.312285319933
 20
1692.971636323098
 30
0.0
 11
-1053.312285319933
 21
1689.721636323097
 31
0.0
  0
LINE
  5
1C06C
102
{ACAD_REACTORS
330
1C09F
102
}
330
1A
100
AcDbEntity
  8
ZISSEN1
100
AcDbLine
 10
-1053.312285319933
 20
1692.171636323097
 30
0.0
 11
-1054.212285319933
 21
1692.171636323097
 31
0.0
  0
LINE
  5
1C06D
102
{ACAD_REACTORS
330
1C09F
102
}
330
1A
100
AcDbEntity
  8
ZISSEN1
100
AcDbLine
 10
-1054.012285319933
 20
1691.571636323098
 30
0.0
 11
-1054.012285319933
 21
1690.571636323097
 31
0.0
  0
LINE
  5
1C06E
102
{ACAD_REACTORS
330
1C09F
102
}
330
1A
100
AcDbEntity
  8
ZISSEN1
100
AcDbLine
 10
-1054.812285319932
 20
1691.571636323098
 30
0.0
 11
-1054.012285319933
 21
1691.571636323098
 31
0.0
  0
LINE
  5
1C06F
102
{ACAD_REACTORS
330
1C09F
102
}
330
1A
100
AcDbEntity
  8
ZISSEN1
100
AcDbLine
 10
-1054.212285319934
 20
1692.971636323098
 30
0.0
 11
-1053.312285319933
 21
1692.971636323098
 31
0.0
  0
LINE
  5
1C070
102
{ACAD_REACTORS
330
1C09F
102
}
330
1A
100
AcDbEntity
  8
ZISSEN1
100
AcDbLine
 10
-1054.212285319934
 20
1694.621636323097
 30
0.0
 11
-1053.312285319933
 21
1694.621636323097
 31
0.0
  0
LINE
  5
1C071
102
{ACAD_REACTORS
330
1C09F
102
}
330
1A
100
AcDbEntity
  8
ZISSEN1
100
AcDbLine
 10
-1053.312285319933
 20
1694.621636323097
 30
0.0
 11
-1053.312285319933
 21
1697.221636323098
 31
0.0
  0
LWPOLYLINE
  5
1C072
102
{ACAD_REACTORS
330
1C09F
102
}
330
1A
100
AcDbEntity
  8
ZISSEN1
100
AcDbPolyline
 90
        4
 70
     1
 43
0.0
 10
-1053.612285319934
 20
1697.421636323097
 10
-1053.612285319934
 20
1698.671636323097
 10
-1054.212285319933
 20
1698.671636323097
 10
-1054.212285319933
 20
1697.421636323097
  0
LINE
  5
1C073
102
{ACAD_REACTORS
330
1C09F
102
}
330
1A
100
AcDbEntity
  8
ZISSEN1
100
AcDbLine
 10
-1054.212285319933
 20
1698.871636323097
 30
0.0
 11
-1053.312285319933
 21
1698.871636323097
 31
0.0
  0
LINE
  5
1C074
102
{ACAD_REACTORS
330
1C09F
102
}
330
1A
100
AcDbEntity
  8
ZISSEN1
100
AcDbLine
 10
-1054.212285319933
 20
1697.221636323098
 30
0.0
 11
-1053.312285319933
 21
1697.221636323098
 31
0.0
  0
LINE
  5
1C075
102
{ACAD_REACTORS
330
1C09F
102
}
330
1A
100
AcDbEntity
  8
ZISSEN1
100
AcDbLine
 10
-1054.012285319932
 20
1700.271636323097
 30
0.0
 11
-1054.812285319932
 21
1700.271636323097
 31
0.0
  0
LINE
  5
1C076
102
{ACAD_REACTORS
330
1C09F
102
}
330
1A
100
AcDbEntity
  8
ZISSEN1
100
AcDbLine
 10
-1054.212285319933
 20
1699.671636323098
 30
0.0
 11
-1053.312285319933
 21
1699.671636323098
 31
0.0
  0
LWPOLYLINE
  5
1C077
102
{ACAD_REACTORS
330
1C09F
102
}
330
1A
100
AcDbEntity
  8
ZISSEN1
100
AcDbPolyline
 90
        4
 70
     1
 43
0.0
 10
-1053.612285319934
 20
1693.171636323098
 10
-1053.612285319934
 20
1694.421636323097
 10
-1054.212285319934
 20
1694.421636323097
 10
-1054.212285319934
 20
1693.171636323098
  0
LINE
  5
1C078
102
{ACAD_REACTORS
330
1C09F
102
}
330
1A
100
AcDbEntity
  8
ZISSEN1
100
AcDbLine
 10
-1054.812285319932
 20
1700.271636323097
 30
0.0
 11
-1054.812285319932
 21
1691.571636323098
 31
0.0
  0
LINE
  5
1C079
102
{ACAD_REACTORS
330
1C09F
102
}
330
1A
100
AcDbEntity
  8
ZISSEN1
100
AcDbLine
 10
-1054.212285319934
 20
1692.171636323097
 30
0.0
 11
-1054.212285319933
 21
1699.671636323098
 31
0.0
  0
LINE
  5
1C07A
102
{ACAD_REACTORS
330
1C09F
102
}
330
1A
100
AcDbEntity
  8
ZISSEN1
100
AcDbLine
 10
-1054.012285319932
 20
1701.271636323097
 30
0.0
 11
-1059.412285319933
 21
1701.271636323097
 31
0.0
  0
LINE
  5
1C07B
102
{ACAD_REACTORS
330
1C09F
102
}
330
1A
100
AcDbEntity
  8
ZISSEN1
100
AcDbLine
 10
-1059.412285319933
 20
1701.271636323097
 30
0.0
 11
-1054.012285319932
 21
1701.271636323097
 31
0.0
  0
LINE
  5
1C07C
102
{ACAD_REACTORS
330
1C09F
102
}
330
1A
100
AcDbEntity
  8
ZISSEN1
100
AcDbLine
 10
-1059.412285319933
 20
1701.271636323097
 30
0.0
 11
-1054.012285319932
 21
1701.271636323097
 31
0.0
  0
LINE
  5
1C07D
102
{ACAD_REACTORS
330
1C09F
102
}
330
1A
100
AcDbEntity
  8
ZISSEN1
100
AcDbLine
 10
-1060.112285319933
 20
1702.121636323097
 30
0.0
 11
-1053.312285319933
 21
1702.121636323097
 31
0.0
  0
LWPOLYLINE
  5
1C07E
330
1A
100
AcDbEntity
  8
ZISSEN1
100
AcDbPolyline
 90
        4
 70
     1
 43
0.0
 10
-1073.322248331926
 20
1713.089560241156
 10
-1066.722248331927
 20
1713.089560241156
 10
-1066.722248331927
 20
1718.169560241156
 10
-1073.322248331926
 20
1718.169560241156
  0
LWPOLYLINE
  5
1C07F
330
1A
100
AcDbEntity
  8
ZISSEN1
100
AcDbPolyline
 90
        4
 70
     1
 43
0.0
 10
-1073.322248331926
 20
1712.929560241156
 10
-1066.722248331927
 20
1712.929560241156
 10
-1066.722248331927
 20
1718.329560241156
 10
-1073.322248331926
 20
1718.329560241156
  0
LINE
  5
1C080
330
1A
100
AcDbEntity
  8
ZISSEN1
100
AcDbLine
 10
-1083.522248331926
 20
1712.269560241155
 30
0.0
 11
-1083.522248331926
 21
1719.669560241155
 31
0.0
  0
LWPOLYLINE
  5
1C081
330
1A
100
AcDbEntity
  8
ZISSEN1
100
AcDbPolyline
 90
        4
 70
     1
 43
0.0
 10
-1080.422248331926
 20
1713.089560241156
 10
-1073.822248331927
 20
1713.089560241156
 10
-1073.822248331927
 20
1718.169560241156
 10
-1080.422248331926
 20
1718.169560241156
  0
LWPOLYLINE
  5
1C082
330
1A
100
AcDbEntity
  8
ZISSEN1
100
AcDbPolyline
 90
        4
 70
     1
 43
0.0
 10
-1076.782553187738
 20
1717.129560241155
 10
-1076.182553187738
 20
1717.129560241155
 10
-1076.182553187738
 20
1714.129560241155
 10
-1076.782553187738
 20
1714.129560241155
  0
LWPOLYLINE
  5
1C083
330
1A
100
AcDbEntity
  8
ZISSEN1
100
AcDbPolyline
 90
        4
 70
     1
 43
0.0
 10
-1075.510477105795
 20
1717.129560241155
 10
-1074.910477105795
 20
1717.129560241155
 10
-1074.910477105795
 20
1714.129560241155
 10
-1075.510477105795
 20
1714.129560241155
  0
LWPOLYLINE
  5
1C084
330
1A
100
AcDbEntity
  8
ZISSEN1
100
AcDbPolyline
 90
        4
 70
     1
 43
0.0
 10
-1078.050477105795
 20
1717.129560241155
 10
-1077.450477105795
 20
1717.129560241155
 10
-1077.450477105795
 20
1714.129560241155
 10
-1078.050477105795
 20
1714.129560241155
  0
LWPOLYLINE
  5
1C085
330
1A
100
AcDbEntity
  8
ZISSEN1
100
AcDbPolyline
 90
        4
 70
     1
 43
0.0
 10
-1079.322553187738
 20
1717.129560241155
 10
-1078.722553187738
 20
1717.129560241155
 10
-1078.722553187738
 20
1714.129560241155
 10
-1079.322553187738
 20
1714.129560241155
  0
LWPOLYLINE
  5
1C086
330
1A
100
AcDbEntity
  8
ZISSEN1
100
AcDbPolyline
 90
        4
 70
     1
 43
0.0
 10
-1080.422248331926
 20
1712.929560241156
 10
-1073.822248331927
 20
1712.929560241156
 10
-1073.822248331927
 20
1718.329560241156
 10
-1080.422248331926
 20
1718.329560241156
  0
LWPOLYLINE
  5
1C087
330
1A
100
AcDbEntity
  8
ZISSEN1
100
AcDbPolyline
 90
        4
 70
     1
 43
0.0
 10
-1069.682553187738
 20
1717.129560241155
 10
-1069.082553187738
 20
1717.129560241155
 10
-1069.082553187738
 20
1714.129560241155
 10
-1069.682553187738
 20
1714.129560241155
  0
LWPOLYLINE
  5
1C088
330
1A
100
AcDbEntity
  8
ZISSEN1
100
AcDbPolyline
 90
        4
 70
     1
 43
0.0
 10
-1070.950477105796
 20
1717.129560241155
 10
-1070.350477105796
 20
1717.129560241155
 10
-1070.350477105796
 20
1714.129560241155
 10
-1070.950477105796
 20
1714.129560241155
  0
LWPOLYLINE
  5
1C089
330
1A
100
AcDbEntity
  8
ZISSEN1
100
AcDbPolyline
 90
        4
 70
     1
 43
0.0
 10
-1072.222553187739
 20
1717.129560241155
 10
-1071.622553187739
 20
1717.129560241155
 10
-1071.622553187739
 20
1714.129560241155
 10
-1072.222553187739
 20
1714.129560241155
  0
LINE
  5
1C08A
330
1A
100
AcDbEntity
  8
ZISSEN1
  6
CONTINUOUS
100
AcDbLine
 10
-1060.618055231362
 20
1717.271636323098
 30
0.0
 11
-1059.518055231362
 21
1717.271636323098
 31
0.0
  0
LINE
  5
1C08B
330
1A
100
AcDbEntity
  8
ZISSEN1
  6
CONTINUOUS
100
AcDbLine
 10
-1059.518055231362
 20
1718.071636323099
 30
0.0
 11
-1060.618055231362
 21
1718.071636323099
 31
0.0
  0
LINE
  5
1C08C
330
1A
100
AcDbEntity
  8
ZISSEN1
  6
CONTINUOUS
100
AcDbLine
 10
-1060.618055231362
 20
1718.071636323099
 30
0.0
 11
-1060.618055231362
 21
1719.171636323098
 31
0.0
  0
LINE
  5
1C08D
330
1A
100
AcDbEntity
  8
ZISSEN1
  6
CONTINUOUS
100
AcDbLine
 10
-1061.418055231363
 20
1719.171636323098
 30
0.0
 11
-1061.418055231363
 21
1718.071636323099
 31
0.0
  0
LINE
  5
1C08E
330
1A
100
AcDbEntity
  8
ZISSEN1
  6
CONTINUOUS
100
AcDbLine
 10
-1060.618055231362
 20
1719.171636323098
 30
0.0
 11
-1061.018055231362
 21
1719.171636323098
 31
0.0
  0
LINE
  5
1C08F
330
1A
100
AcDbEntity
  8
ZISSEN1
  6
CONTINUOUS
100
AcDbLine
 10
-1061.018055231362
 20
1719.171636323098
 30
0.0
 11
-1061.418055231363
 21
1719.171636323098
 31
0.0
  0
LINE
  5
1C090
330
1A
100
AcDbEntity
  8
ZISSEN1
  6
CONTINUOUS
100
AcDbLine
 10
-1062.518055231362
 20
1718.071636323099
 30
0.0
 11
-1061.418055231363
 21
1718.071636323099
 31
0.0
  0
LINE
  5
1C091
330
1A
100
AcDbEntity
  8
ZISSEN1
  6
CONTINUOUS
100
AcDbLine
 10
-1061.418055231363
 20
1717.271636323098
 30
0.0
 11
-1062.518055231362
 21
1717.271636323098
 31
0.0
  0
LINE
  5
1C092
330
1A
100
AcDbEntity
  8
ZISSEN1
  6
CONTINUOUS
100
AcDbLine
 10
-1061.418055231363
 20
1716.171636323098
 30
0.0
 11
-1061.418055231363
 21
1717.271636323098
 31
0.0
  0
LINE
  5
1C093
330
1A
100
AcDbEntity
  8
ZISSEN1
  6
CONTINUOUS
100
AcDbLine
 10
-1060.618055231362
 20
1717.271636323098
 30
0.0
 11
-1060.618055231362
 21
1716.171636323098
 31
0.0
  0
LINE
  5
1C094
330
1A
100
AcDbEntity
  8
ZISSEN1
  6
CONTINUOUS
100
AcDbLine
 10
-1062.518055231362
 20
1717.271636323098
 30
0.0
 11
-1062.518055231362
 21
1717.671636323098
 31
0.0
  0
LINE
  5
1C095
330
1A
100
AcDbEntity
  8
ZISSEN1
  6
CONTINUOUS
100
AcDbLine
 10
-1062.518055231362
 20
1717.671636323098
 30
0.0
 11
-1062.518055231362
 21
1718.071636323099
 31
0.0
  0
LINE
  5
1C096
330
1A
100
AcDbEntity
  8
ZISSEN1
  6
CONTINUOUS
100
AcDbLine
 10
-1061.018055231362
 20
1716.171636323098
 30
0.0
 11
-1061.418055231363
 21
1716.171636323098
 31
0.0
  0
LINE
  5
1C097
330
1A
100
AcDbEntity
  8
ZISSEN1
  6
CONTINUOUS
100
AcDbLine
 10
-1060.618055231362
 20
1716.171636323098
 30
0.0
 11
-1061.018055231362
 21
1716.171636323098
 31
0.0
  0
LINE
  5
1C098
330
1A
100
AcDbEntity
  8
ZISSEN1
  6
CONTINUOUS
100
AcDbLine
 10
-1059.518055231362
 20
1717.671636323098
 30
0.0
 11
-1059.518055231362
 21
1718.071636323099
 31
0.0
  0
LINE
  5
1C099
330
1A
100
AcDbEntity
  8
ZISSEN1
  6
CONTINUOUS
100
AcDbLine
 10
-1059.518055231362
 20
1717.271636323098
 30
0.0
 11
-1059.518055231362
 21
1717.671636323098
 31
0.0
  0
LWPOLYLINE
  5
1C09A
330
1A
100
AcDbEntity
  8
ZISSEN1
100
AcDbPolyline
 90
        4
 70
     1
 43
0.0
 10
-1068.410477105795
 20
1717.129560241155
 10
-1067.810477105795
 20
1717.129560241155
 10
-1067.810477105795
 20
1714.129560241155
 10
-1068.410477105795
 20
1714.129560241155
  0
CIRCLE
  5
1C09B
330
1A
100
AcDbEntity
  8
ZISSEN1
  6
CONTINUOUS
100
AcDbCircle
 10
-1061.018055231363
 20
1717.671636323098
 30
0.0
 40
2.75
  0
LINE
  5
1C09C
330
1A
100
AcDbEntity
  8
ZISSEN1
100
AcDbLine
 10
-1052.518055231364
 20
1719.671636323099
 30
0.0
 11
-1052.518055231364
 21
1701.671636323099
 31
0.0
  0
LINE
  5
1C09D
102
{ACAD_REACTORS
330
1C09F
102
}
330
1A
100
AcDbEntity
  8
ZISSEN1
100
AcDbLine
 10
-1052.512285319933
 20
1689.721636323097
 30
0.0
 11
-1052.518055231363
 21
1702.121636323097
 31
0.0
  0
LINE
  5
1C0A4
330
1A
100
AcDbEntity
  8
ZISSEN1
 48
0.5
100
AcDbLine
 10
-992.4180552313618
 20
1670.421636321137
 30
0.0
 11
-992.4180552313618
 21
1664.921636321136
 31
0.0
  0
ARC
  5
1C0A5
330
1A
100
AcDbEntity
  8
ZISSEN1
100
AcDbCircle
 10
-989.7262564018975
 20
1667.671636321136
 30
0.0
 40
4.06366340092025
100
AcDbArc
 50
137.4114170198907
 51
222.5885829801091
  0
LINE
  5
1C0A6
330
1A
100
AcDbEntity
  8
ZISSEN1
100
AcDbLine
 10
-990.5180552313632
 20
1721.171636321136
 30
0.0
 11
-990.5180552313632
 21
1664.171636321136
 31
0.0
  0
LINE
  5
1C0A7
330
1A
100
AcDbEntity
  8
ZISSEN1
 48
0.5
100
AcDbLine
 10
-990.5180552313641
 20
1664.671636321136
 30
0.0
 11
-990.5180552313641
 21
1720.671636321137
 31
0.0
  0
LINE
  5
1C0A8
330
1A
100
AcDbEntity
  8
ZISSEN1
 48
0.5
100
AcDbLine
 10
-992.4180552313647
 20
1664.671636321137
 30
0.0
 11
-992.4180552313647
 21
1720.671636321137
 31
0.0
  0
LINE
  5
1C0A9
330
1A
100
AcDbEntity
  8
ZISSEN1
100
AcDbLine
 10
-990.8180552313647
 20
1720.671636321137
 30
0.0
 11
-990.8180552313647
 21
1664.671636321136
 31
0.0
  0
LINE
  5
1C0AA
330
1A
100
AcDbEntity
  8
ZISSEN1
100
AcDbLine
 10
-992.4180552313609
 20
1664.921636321136
 30
0.0
 11
-992.7180552313611
 21
1664.921636321136
 31
0.0
  0
LINE
  5
1C0AB
330
1A
100
AcDbEntity
  8
ZISSEN1
 48
0.5
100
AcDbLine
 10
-990.8180552313643
 20
1664.671636321136
 30
0.0
 11
-990.5180552313641
 21
1664.671636321136
 31
0.0
  0
LINE
  5
1C0AC
330
1A
100
AcDbEntity
  8
ZISSEN1
 48
0.5
100
AcDbLine
 10
-990.8180552313643
 20
1664.671636321137
 30
0.0
 11
-992.4180552313647
 21
1664.671636321137
 31
0.0
  0
LINE
  5
1C0AD
330
1A
100
AcDbEntity
  8
ZISSEN1
100
AcDbLine
 10
-992.7180552313611
 20
1720.421636321137
 30
0.0
 11
-992.4180552313609
 21
1720.421636321137
 31
0.0
  0
LINE
  5
1C0AE
330
1A
100
AcDbEntity
  8
ZISSEN1
100
AcDbLine
 10
-992.4180552313647
 20
1720.669560239195
 30
0.0
 11
-1003.918055231363
 21
1720.669560239195
 31
0.0
  0
LINE
  5
1C0AF
330
1A
100
AcDbEntity
  8
ZISSEN1
100
AcDbLine
 10
-992.7180552313611
 20
1670.421636321137
 30
0.0
 11
-992.4180552313609
 21
1670.421636321137
 31
0.0
  0
LINE
  5
1C0B0
330
1A
100
AcDbEntity
  8
ZISSEN1
100
AcDbLine
 10
-993.7117052313642
 20
1712.669562239196
 30
0.0
 11
-992.4180552313647
 21
1712.669562239196
 31
0.0
  0
LINE
  5
1C0B1
330
1A
100
AcDbEntity
  8
ZISSEN1
100
AcDbLine
 10
-1003.918055231364
 20
1702.121636321137
 30
0.0
 11
-992.4180552313647
 21
1702.121636321137
 31
0.0
  0
LINE
  5
1C0B2
330
1A
100
AcDbEntity
  8
ZISSEN1
100
AcDbLine
 10
-1003.918055231364
 20
1689.721636321138
 30
0.0
 11
-992.4180552313647
 21
1689.721636321138
 31
0.0
  0
LINE
  5
1C0B3
330
1A
100
AcDbEntity
  8
ZISSEN1
100
AcDbLine
 10
-992.4180552313647
 20
1677.767367542694
 30
0.0
 11
-1003.918055231363
 21
1677.767367542694
 31
0.0
  0
LINE
  5
1C0B4
330
1A
100
AcDbEntity
  8
ZISSEN1
100
AcDbLine
 10
-1003.918055231363
 20
1670.967367542695
 30
0.0
 11
-992.4180552313647
 21
1670.967367542695
 31
0.0
  0
LINE
  5
1C0B5
330
1A
100
AcDbEntity
  8
ZISSEN1
100
AcDbLine
 10
-993.1155032313645
 20
1713.269562239196
 30
0.0
 11
-992.4180552313647
 21
1713.269562239196
 31
0.0
  0
LINE
  5
1C0B6
330
1A
100
AcDbEntity
  8
ZISSEN1
100
AcDbLine
 10
-994.918055231361
 20
1713.869560239193
 30
0.0
 11
-992.4180552313647
 21
1713.869560239193
 31
0.0
  0
LINE
  5
1C0B7
330
1A
100
AcDbEntity
  8
ZISSEN1
100
AcDbLine
 10
-992.7180552313595
 20
1714.921636321134
 30
0.0
 11
-992.4180552313618
 21
1714.921636321137
 31
0.0
  0
LINE
  5
1C0B8
330
1A
100
AcDbEntity
  8
ZISSEN1
100
AcDbLine
 10
-1003.918055231364
 20
1700.121636321138
 30
0.0
 11
-1003.918055231364
 21
1702.121636321137
 31
0.0
  0
LINE
  5
1C0B9
330
1A
100
AcDbEntity
  8
ZISSEN1
100
AcDbLine
 10
-1003.918055231364
 20
1689.721636321138
 30
0.0
 11
-1003.918055231364
 21
1702.121636321137
 31
0.0
  0
LINE
  5
1C0BA
330
1A
100
AcDbEntity
  8
ZISSEN1
100
AcDbLine
 10
-1003.918055231364
 20
1702.121636321137
 30
0.0
 11
-1002.918055231364
 21
1702.121636321137
 31
0.0
  0
LINE
  5
1C0BB
330
1A
100
AcDbEntity
  8
ZISSEN1
100
AcDbLine
 10
-1003.918055231363
 20
1670.167367542695
 30
0.0
 11
-1002.918055231363
 21
1670.167367542695
 31
0.0
  0
LINE
  5
1C0BC
330
1A
100
AcDbEntity
  8
ZISSEN1
100
AcDbLine
 10
-1002.918055231363
 20
1670.167367542695
 30
0.0
 11
-1002.918055231363
 21
1670.967367542695
 31
0.0
  0
LINE
  5
1C0BD
330
1A
100
AcDbEntity
  8
ZISSEN1
100
AcDbLine
 10
-1003.918055231363
 20
1677.767367542694
 30
0.0
 11
-1003.918055231363
 21
1676.267367542694
 31
0.0
  0
LINE
  5
1C0BE
330
1A
100
AcDbEntity
  8
ZISSEN1
100
AcDbLine
 10
-1003.918055231363
 20
1676.267367542694
 30
0.0
 11
-1000.918055231363
 21
1676.267367542694
 31
0.0
  0
LINE
  5
1C0BF
330
1A
100
AcDbEntity
  8
ZISSEN1
100
AcDbLine
 10
-1003.918055231363
 20
1677.767367542694
 30
0.0
 11
-1003.918055231363
 21
1670.967367542695
 31
0.0
  0
LINE
  5
1C0C0
330
1A
100
AcDbEntity
  8
ZISSEN1
100
AcDbLine
 10
-1000.918055231363
 20
1676.267367542694
 30
0.0
 11
-1000.918055231363
 21
1670.967367542695
 31
0.0
  0
LINE
  5
1C0C1
330
1A
100
AcDbEntity
  8
ZISSEN1
100
AcDbLine
 10
-1003.918055231363
 20
1677.767367542694
 30
0.0
 11
-1003.918055231363
 21
1670.167367542695
 31
0.0
  0
LINE
  5
1C0C2
330
1A
100
AcDbEntity
  8
ZISSEN1
100
AcDbLine
 10
-995.480634935242
 20
1716.662843950687
 30
0.0
 11
-995.805762821973
 21
1717.447772104341
 31
0.0
  0
LINE
  5
1C0C3
330
1A
100
AcDbEntity
  8
ZISSEN1
100
AcDbLine
 10
-995.8057646697325
 20
1717.447772869708
 30
0.0
 11
-996.5885892570122
 21
1717.123516308697
 31
0.0
  0
LINE
  5
1C0C4
330
1A
100
AcDbEntity
  8
ZISSEN1
100
AcDbLine
 10
-996.5230115465537
 20
1716.500113058535
 30
0.0
 11
-996.1976257737832
 21
1717.285663804163
 31
0.0
  0
LINE
  5
1C0C5
330
1A
100
AcDbEntity
  8
ZISSEN1
100
AcDbLine
 10
-995.9686838270473
 20
1716.270502999116
 30
0.0
 11
-995.6432980542768
 21
1717.056053744744
 31
0.0
  0
LINE
  5
1C0C6
330
1A
100
AcDbEntity
  8
ZISSEN1
100
AcDbLine
 10
-996.7189959912857
 20
1716.418933643514
 30
0.0
 11
-997.3177105790528
 21
1716.666929345758
 31
0.0
  0
LINE
  5
1C0C7
330
1A
100
AcDbEntity
  8
ZISSEN1
100
AcDbLine
 10
-997.5493619490981
 20
1716.112784740771
 30
0.0
 11
-997.3203588256028
 21
1716.665647187339
 31
0.0
  0
LINE
  5
1C0C8
330
1A
100
AcDbEntity
  8
ZISSEN1
100
AcDbLine
 10
-995.4857503218327
 20
1716.665781101693
 30
0.0
 11
-995.7598191851511
 21
1716.779304141904
 31
0.0
  0
LINE
  5
1C0C9
330
1A
100
AcDbEntity
  8
ZISSEN1
100
AcDbLine
 10
-995.887504412026
 20
1716.074518554385
 30
0.0
 11
-995.9686838270473
 21
1716.270502999116
 31
0.0
  0
LINE
  5
1C0CA
330
1A
100
AcDbEntity
  8
ZISSEN1
100
AcDbLine
 10
-996.312681631719
 20
1717.008307265399
 30
0.0
 11
-996.5914752149684
 21
1717.123787348684
 31
0.0
  0
LINE
  5
1C0CB
330
1A
100
AcDbEntity
  8
ZISSEN1
100
AcDbLine
 10
-996.7189959912857
 20
1716.418933643514
 30
0.0
 11
-996.5230115465537
 21
1716.500113058535
 31
0.0
  0
LINE
  5
1C0CC
330
1A
100
AcDbEntity
  8
ZISSEN1
100
AcDbLine
 10
-999.1180552313645
 20
1719.649562239196
 30
0.0
 11
-993.7160412313643
 21
1719.649562239196
 31
0.0
  0
LINE
  5
1C0CD
330
1A
100
AcDbEntity
  8
ZISSEN1
100
AcDbLine
 10
-993.7117052313642
 20
1719.269562239196
 30
0.0
 11
-993.1438020072649
 21
1719.269562239196
 31
0.0
  0
ARC
  5
1C0CE
330
1A
100
AcDbEntity
  8
ZISSEN1
100
AcDbCircle
 10
-993.5180552313649
 20
1719.319562239196
 30
0.0
 40
0.2
100
AcDbArc
 50
180.0000024148
 51
270.0000050086768
  0
LINE
  5
1C0CF
330
1A
100
AcDbEntity
  8
ZISSEN1
100
AcDbLine
 10
-993.7180552313648
 20
1719.649562239196
 30
0.0
 11
-993.7180552313648
 21
1719.319562239196
 31
0.0
  0
LINE
  5
1C0D0
330
1A
100
AcDbEntity
  8
ZISSEN1
100
AcDbLine
 10
-993.3180552313642
 20
1719.119562239196
 30
0.0
 11
-993.5180552313649
 21
1719.119562239196
 31
0.0
  0
LINE
  5
1C0D1
330
1A
100
AcDbEntity
  8
ZISSEN1
100
AcDbLine
 10
-997.9180552313646
 20
1719.669562239196
 30
0.0
 11
-994.9180552313647
 21
1719.669562239196
 31
0.0
  0
LINE
  5
1C0D2
330
1A
100
AcDbEntity
  8
ZISSEN1
100
AcDbLine
 10
-994.9180552313647
 20
1719.669562239196
 30
0.0
 11
-994.9180552313647
 21
1719.649562239196
 31
0.0
  0
LINE
  5
1C0D3
330
1A
100
AcDbEntity
  8
ZISSEN1
100
AcDbLine
 10
-999.8180552313643
 20
1719.269562239196
 30
0.0
 11
-999.1244072313648
 21
1719.269562239196
 31
0.0
  0
LINE
  5
1C0D4
330
1A
100
AcDbEntity
  8
ZISSEN1
100
AcDbLine
 10
-999.518055231365
 20
1719.119562239196
 30
0.0
 11
-999.3180552313642
 21
1719.119562239196
 31
0.0
  0
ARC
  5
1C0D5
330
1A
100
AcDbEntity
  8
ZISSEN1
100
AcDbCircle
 10
-999.3180552313642
 20
1719.319562239196
 30
0.0
 40
0.2
100
AcDbArc
 50
269.9999949911147
 51
359.9999975851999
  0
LINE
  5
1C0D6
330
1A
100
AcDbEntity
  8
ZISSEN1
100
AcDbLine
 10
-997.9180552313646
 20
1719.669562239196
 30
0.0
 11
-997.9180552313646
 21
1719.649562239196
 31
0.0
  0
LINE
  5
1C0D7
330
1A
100
AcDbEntity
  8
ZISSEN1
100
AcDbLine
 10
-999.1180552313645
 20
1719.649562239196
 30
0.0
 11
-999.1180552313645
 21
1719.319562239196
 31
0.0
  0
ARC
  5
1C0D8
330
1A
100
AcDbEntity
  8
ZISSEN1
100
AcDbCircle
 10
-999.8180552313641
 20
1719.069562239196
 30
0.0
 40
0.2
100
AcDbArc
 50
90.00001616489914
 51
180.0000049782966
  0
LINE
  5
1C0D9
330
1A
100
AcDbEntity
  8
ZISSEN1
100
AcDbLine
 10
-999.9980552313646
 20
1718.669562239196
 30
0.0
 11
-999.7150672313646
 21
1718.669562239196
 31
0.0
  0
LINE
  5
1C0DA
330
1A
100
AcDbEntity
  8
ZISSEN1
100
AcDbLine
 10
-999.7180552313649
 20
1718.919562239196
 30
0.0
 11
-999.7180552313649
 21
1718.675834239196
 31
0.0
  0
LINE
  5
1C0DB
330
1A
100
AcDbEntity
  8
ZISSEN1
100
AcDbLine
 10
-999.7180552313649
 20
1718.919562239196
 30
0.0
 11
-999.518055231365
 21
1719.119562239196
 31
0.0
  0
LINE
  5
1C0DC
330
1A
100
AcDbEntity
  8
ZISSEN1
100
AcDbLine
 10
-1003.918055231363
 20
1720.669560239195
 30
0.0
 11
-1003.918055231363
 21
1719.169560239196
 31
0.0
  0
LINE
  5
1C0DD
330
1A
100
AcDbEntity
  8
ZISSEN1
100
AcDbLine
 10
-1003.918055231363
 20
1719.169560239196
 30
0.0
 11
-1000.918055231363
 21
1719.169560239196
 31
0.0
  0
LINE
  5
1C0DE
330
1A
100
AcDbEntity
  8
ZISSEN1
100
AcDbLine
 10
-994.918055231361
 20
1718.329560239194
 30
0.0
 11
-993.5423202321969
 21
1718.329560239194
 31
0.0
  0
LINE
  5
1C0DF
330
1A
100
AcDbEntity
  8
ZISSEN1
100
AcDbLine
 10
-993.5423202321969
 20
1718.329560239194
 30
0.0
 11
-994.918055231361
 21
1718.329560239194
 31
0.0
  0
LINE
  5
1C0E0
330
1A
100
AcDbEntity
  8
ZISSEN1
100
AcDbLine
 10
-999.1180552313645
 20
1712.289562239196
 30
0.0
 11
-993.7160412313643
 21
1712.289562239196
 31
0.0
  0
ARC
  5
1C0E1
330
1A
100
AcDbEntity
  8
ZISSEN1
100
AcDbCircle
 10
-993.5180552313649
 20
1712.619562239196
 30
0.0
 40
0.2
100
AcDbArc
 50
90.00000000010421
 51
180.0000024148
  0
LINE
  5
1C0E2
330
1A
100
AcDbEntity
  8
ZISSEN1
100
AcDbLine
 10
-993.7180552313648
 20
1712.289562239196
 30
0.0
 11
-993.7180552313648
 21
1712.619562239196
 31
0.0
  0
LINE
  5
1C0E3
330
1A
100
AcDbEntity
  8
ZISSEN1
100
AcDbLine
 10
-993.3180552313642
 20
1712.819562239196
 30
0.0
 11
-993.5180552313649
 21
1712.819562239196
 31
0.0
  0
LINE
  5
1C0E4
330
1A
100
AcDbEntity
  8
ZISSEN1
100
AcDbLine
 10
-993.1180552313644
 20
1713.019562239196
 30
0.0
 11
-993.1180552313644
 21
1713.262880239196
 31
0.0
  0
LINE
  5
1C0E5
330
1A
100
AcDbEntity
  8
ZISSEN1
100
AcDbLine
 10
-993.3180552313642
 20
1712.819562239196
 30
0.0
 11
-993.1180552313644
 21
1713.019562239196
 31
0.0
  0
ARC
  5
1C0E6
330
1A
100
AcDbEntity
  8
ZISSEN1
100
AcDbCircle
 10
-999.3180552313642
 20
1712.619562239196
 30
0.0
 40
0.2
100
AcDbArc
 50
359.9999975851999
 51
90.00000000010421
  0
ARC
  5
1C0E7
330
1A
100
AcDbEntity
  8
ZISSEN1
100
AcDbCircle
 10
-999.8180552313641
 20
1712.869562239196
 30
0.0
 40
0.2
100
AcDbArc
 50
179.9999950217034
 51
269.999983835205
  0
LINE
  5
1C0E8
330
1A
100
AcDbEntity
  8
ZISSEN1
100
AcDbLine
 10
-997.9180552313646
 20
1712.269562239196
 30
0.0
 11
-994.9180552313647
 21
1712.269562239196
 31
0.0
  0
LINE
  5
1C0E9
330
1A
100
AcDbEntity
  8
ZISSEN1
100
AcDbLine
 10
-994.9180552313647
 20
1712.289562239196
 30
0.0
 11
-994.9180552313647
 21
1712.269562239196
 31
0.0
  0
LINE
  5
1C0EA
330
1A
100
AcDbEntity
  8
ZISSEN1
100
AcDbLine
 10
-999.8180552313643
 20
1712.669562239196
 30
0.0
 11
-999.1244072313648
 21
1712.669562239196
 31
0.0
  0
LINE
  5
1C0EB
330
1A
100
AcDbEntity
  8
ZISSEN1
100
AcDbLine
 10
-997.9180552313646
 20
1712.269562239196
 30
0.0
 11
-997.9180552313646
 21
1712.289562239196
 31
0.0
  0
LINE
  5
1C0EC
330
1A
100
AcDbEntity
  8
ZISSEN1
100
AcDbLine
 10
-999.1180552313645
 20
1712.289562239196
 30
0.0
 11
-999.1180552313645
 21
1712.619562239196
 31
0.0
  0
LINE
  5
1C0ED
330
1A
100
AcDbEntity
  8
ZISSEN1
100
AcDbLine
 10
-996.1171144714445
 20
1715.520190834879
 30
0.0
 11
-996.3130989161754
 21
1715.439011419857
 31
0.0
  0
LINE
  5
1C0EE
330
1A
100
AcDbEntity
  8
ZISSEN1
100
AcDbLine
 10
-996.8674266356829
 20
1715.668621479276
 30
0.0
 11
-996.9486060507042
 21
1715.864605924007
 31
0.0
  0
LINE
  5
1C0EF
330
1A
100
AcDbEntity
  8
ZISSEN1
100
AcDbLine
 10
-997.230975131063
 20
1714.79093777115
 30
0.0
 11
-996.8674266356829
 21
1715.668621479276
 31
0.0
  0
LINE
  5
1C0F0
330
1A
100
AcDbEntity
  8
ZISSEN1
100
AcDbLine
 10
-996.6766474115557
 20
1714.561327711731
 30
0.0
 11
-996.3130989161754
 21
1715.439011419857
 31
0.0
  0
LINE
  5
1C0F1
330
1A
100
AcDbEntity
  8
ZISSEN1
100
AcDbLine
 10
-996.6766481769226
 20
1714.561325863972
 30
0.0
 11
-997.2309758964293
 21
1714.790935923391
 31
0.0
  0
LINE
  5
1C0F2
330
1A
100
AcDbEntity
  8
ZISSEN1
100
AcDbLine
 10
-995.5154323826191
 20
1715.27096595345
 30
0.0
 11
-996.1171144714445
 21
1715.520190834879
 31
0.0
  0
LINE
  5
1C0F3
330
1A
100
AcDbEntity
  8
ZISSEN1
100
AcDbLine
 10
-995.5168269775731
 20
1715.270881189568
 30
0.0
 11
-995.287823854078
 21
1715.823743636136
 31
0.0
  0
LINE
  5
1C0F4
330
1A
100
AcDbEntity
  8
ZISSEN1
100
AcDbLine
 10
-999.9980552313646
 20
1713.269614239196
 30
0.0
 11
-999.9980552313646
 21
1715.969562239196
 31
0.0
  0
LINE
  5
1C0F5
330
1A
100
AcDbEntity
  8
ZISSEN1
100
AcDbLine
 10
-999.518055231365
 20
1712.819562239196
 30
0.0
 11
-999.3180552313642
 21
1712.819562239196
 31
0.0
  0
LINE
  5
1C0F6
330
1A
100
AcDbEntity
  8
ZISSEN1
100
AcDbLine
 10
-999.9980552313646
 20
1713.269562239196
 30
0.0
 11
-999.7150672313646
 21
1713.269562239196
 31
0.0
  0
LINE
  5
1C0F7
330
1A
100
AcDbEntity
  8
ZISSEN1
100
AcDbLine
 10
-999.7180552313649
 20
1713.019562239196
 30
0.0
 11
-999.7180552313649
 21
1713.262880239196
 31
0.0
  0
LINE
  5
1C0F8
330
1A
100
AcDbEntity
  8
ZISSEN1
100
AcDbLine
 10
-999.518055231365
 20
1712.819560239196
 30
0.0
 11
-999.7180572313645
 21
1713.019562239196
 31
0.0
  0
LINE
  5
1C0F9
330
1A
100
AcDbEntity
  8
ZISSEN1
100
AcDbLine
 10
-1003.918055231363
 20
1713.069560239196
 30
0.0
 11
-1002.918055231363
 21
1713.069560239196
 31
0.0
  0
LINE
  5
1C0FA
330
1A
100
AcDbEntity
  8
ZISSEN1
100
AcDbLine
 10
-1002.918055231363
 20
1713.069560239196
 30
0.0
 11
-1002.918055231363
 21
1713.869560239196
 31
0.0
  0
LINE
  5
1C0FB
330
1A
100
AcDbEntity
  8
ZISSEN1
100
AcDbLine
 10
-1003.918055231363
 20
1713.869560239196
 30
0.0
 11
-1000.018055231364
 21
1713.869560239196
 31
0.0
  0
LINE
  5
1C0FC
330
1A
100
AcDbEntity
  8
ZISSEN1
100
AcDbLine
 10
-993.1155032313645
 20
1713.269562239196
 30
0.0
 11
-992.9155152313642
 21
1713.269562239196
 31
0.0
  0
ARC
  5
1C0FD
330
1A
100
AcDbEntity
  8
ZISSEN1
100
AcDbCircle
 10
-989.7262564018973
 20
1717.671636321136
 30
0.0
 40
4.06366340092025
100
AcDbArc
 50
137.4114170198907
 51
222.5885829801091
  0
LINE
  5
1C0FE
330
1A
100
AcDbEntity
  8
ZISSEN1
100
AcDbLine
 10
-1000.018055231364
 20
1719.069562239196
 30
0.0
 11
-1000.018055231364
 21
1712.869562239196
 31
0.0
  0
LINE
  5
1C0FF
330
1A
100
AcDbEntity
  8
ZISSEN1
100
AcDbLine
 10
-999.9980552313646
 20
1718.669510239196
 30
0.0
 11
-999.9980552313646
 21
1715.969562239196
 31
0.0
  0
LINE
  5
1C100
330
1A
100
AcDbEntity
  8
ZISSEN1
100
AcDbLine
 10
-996.9486060507042
 20
1715.864605924007
 30
0.0
 11
-997.5520453584003
 21
1716.114558669324
 31
0.0
  0
LINE
  5
1C101
330
1A
100
AcDbEntity
  8
ZISSEN1
100
AcDbLine
 10
-995.2858223232006
 20
1715.825293672957
 30
0.0
 11
-995.887504412026
 21
1716.074518554385
 31
0.0
  0
LINE
  5
1C102
330
1A
100
AcDbEntity
  8
ZISSEN1
100
AcDbLine
 10
-1003.918055231363
 20
1720.669560239195
 30
0.0
 11
-1003.918055231363
 21
1713.869560239196
 31
0.0
  0
LINE
  5
1C103
330
1A
100
AcDbEntity
  8
ZISSEN1
100
AcDbLine
 10
-1000.918055231363
 20
1719.169560239196
 30
0.0
 11
-1000.918055231363
 21
1713.869560239196
 31
0.0
  0
LINE
  5
1C104
330
1A
100
AcDbEntity
  8
ZISSEN1
100
AcDbLine
 10
-1003.918055231363
 20
1720.669560239195
 30
0.0
 11
-1003.918055231363
 21
1713.069560239196
 31
0.0
  0
LINE
  5
1C105
330
1A
100
AcDbEntity
  8
ZISSEN1
100
AcDbLine
 10
-994.918055231361
 20
1718.329560239194
 30
0.0
 11
-994.918055231361
 21
1713.869560239193
 31
0.0
  0
ARC
  5
1C106
330
1A
100
AcDbEntity
  8
ZISSEN1
100
AcDbCircle
 10
-996.4180552313646
 20
1715.969562239196
 30
0.0
 40
1.7
100
AcDbArc
 50
27.50007301674917
 51
332.4805706628632
  0
LINE
  5
1C107
330
1A
100
AcDbEntity
  8
ZISSEN1
100
AcDbLine
 10
-992.4180552313647
 20
1689.721636321138
 30
0.0
 11
-992.4180552313647
 21
1691.221636321138
 31
0.0
  0
LINE
  5
1C108
330
1A
100
AcDbEntity
  8
ZISSEN1
100
AcDbLine
 10
-992.4180552313647
 20
1700.621636321137
 30
0.0
 11
-992.4180552313647
 21
1702.121636321137
 31
0.0
  0
LINE
  5
1C109
330
1A
100
AcDbEntity
  8
ZISSEN1
 48
0.5
100
AcDbLine
 10
-990.5180552313641
 20
1720.671636321137
 30
0.0
 11
-990.8180552313643
 21
1720.671636321137
 31
0.0
  0
LINE
  5
1C10A
330
1A
100
AcDbEntity
  8
ZISSEN1
 48
0.5
100
AcDbLine
 10
-992.4180552313647
 20
1720.671636321137
 30
0.0
 11
-990.8180552313643
 21
1720.671636321137
 31
0.0
  0
LINE
  5
1C10B
330
1A
100
AcDbEntity
  8
ZISSEN1
100
AcDbLine
 10
-992.4180552313647
 20
1712.669560239196
 30
0.0
 11
-992.4180552313647
 21
1713.079560239196
 31
0.0
  0
LINE
  5
1C10C
330
1A
100
AcDbEntity
  8
ZISSEN1
100
AcDbLine
 10
-992.4180552313647
 20
1712.669562239196
 30
0.0
 11
-992.4180552313647
 21
1713.079560239196
 31
0.0
  0
LINE
  5
1C10D
330
1A
100
AcDbEntity
  8
ZISSEN1
100
AcDbLine
 10
-992.4180552313647
 20
1713.269562239196
 30
0.0
 11
-992.4180552313647
 21
1714.269562239196
 31
0.0
  0
LINE
  5
1C10E
330
1A
100
AcDbEntity
  8
ZISSEN1
100
AcDbLine
 10
-992.4180552313647
 20
1713.179564239196
 30
0.0
 11
-992.4180552313647
 21
1713.269562239196
 31
0.0
  0
LINE
  5
1C10F
330
1A
100
AcDbEntity
  8
ZISSEN1
 48
0.5
100
AcDbLine
 10
-992.4180552313618
 20
1720.421636321137
 30
0.0
 11
-992.4180552313618
 21
1714.921636321137
 31
0.0
  0
LINE
  5
1C123
330
1A
100
AcDbEntity
  8
ZISSEN1
 48
0.5
100
AcDbLine
 10
-1116.018055231363
 20
1608.071636322126
 30
0.0
 11
-1052.518055231364
 21
1608.071636322126
 31
0.0
  0
LINE
  5
1C124
330
1A
100
AcDbEntity
  8
ZISSEN1
 48
0.5
100
AcDbLine
 10
-1116.018055231363
 20
1606.471636322125
 30
0.0
 11
-1052.518055231364
 21
1606.471636322125
 31
0.0
  0
LINE
  5
1C125
330
1A
100
AcDbEntity
  8
ZISSEN1
100
AcDbLine
 10
-1112.018055231363
 20
1619.571636322126
 30
0.0
 11
-1089.618055231363
 21
1619.571636322126
 31
0.0
  0
LINE
  5
1C126
330
1A
100
AcDbEntity
  8
ZISSEN1
100
AcDbLine
 10
-1112.018055231363
 20
1608.071636322126
 30
0.0
 11
-1110.518055231363
 21
1608.071636322126
 31
0.0
  0
LINE
  5
1C127
330
1A
100
AcDbEntity
  8
ZISSEN1
100
AcDbLine
 10
-1112.018055231363
 20
1619.571636322126
 30
0.0
 11
-1112.018055231363
 21
1608.071636322126
 31
0.0
  0
LINE
  5
1C128
330
1A
100
AcDbEntity
  8
ZISSEN1
100
AcDbLine
 10
-1091.618055231363
 20
1619.571636322126
 30
0.0
 11
-1089.618055231363
 21
1619.571636322126
 31
0.0
  0
LINE
  5
1C129
330
1A
100
AcDbEntity
  8
ZISSEN1
100
AcDbLine
 10
-1089.618055231363
 20
1619.571636322126
 30
0.0
 11
-1089.618055231363
 21
1618.571636322126
 31
0.0
  0
LINE
  5
1C12A
330
1A
100
AcDbEntity
  8
ZISSEN1
100
AcDbLine
 10
-1091.118055231363
 20
1608.071636322126
 30
0.0
 11
-1089.618055231363
 21
1608.071636322126
 31
0.0
  0
LINE
  5
1C12B
330
1A
100
AcDbEntity
  8
ZISSEN1
100
AcDbLine
 10
-1089.618055231363
 20
1619.571636322126
 30
0.0
 11
-1089.618055231363
 21
1608.071636322126
 31
0.0
  0
LINE
  5
1C12C
330
1A
100
AcDbEntity
  8
ZISSEN1
100
AcDbLine
 10
-1052.518055231364
 20
1618.571636322125
 30
0.0
 11
-1053.318055231363
 21
1618.571636322125
 31
0.0
  0
LINE
  5
1C12D
330
1A
100
AcDbEntity
  8
ZISSEN1
100
AcDbLine
 10
-1060.118055231362
 20
1619.571636322125
 30
0.0
 11
-1052.518055231364
 21
1619.571636322125
 31
0.0
  0
LINE
  5
1C12E
330
1A
100
AcDbEntity
  8
ZISSEN1
100
AcDbLine
 10
-1067.018055231362
 20
1606.171636322125
 30
0.0
 11
-1052.018055231363
 21
1606.171636322125
 31
0.0
  0
LINE
  5
1C12F
330
1A
100
AcDbEntity
  8
ZISSEN1
 48
0.5
100
AcDbLine
 10
-1070.518055231363
 20
1606.171636322125
 30
0.0
 11
-1052.518055231363
 21
1606.171636322125
 31
0.0
  0
LINE
  5
1C130
330
1A
100
AcDbEntity
  8
ZISSEN1
 48
0.5
100
AcDbLine
 10
-1052.518055231363
 20
1606.471636322125
 30
0.0
 11
-1070.518055231363
 21
1606.471636322125
 31
0.0
  0
LINE
  5
1C131
330
1A
100
AcDbEntity
  8
ZISSEN1
100
AcDbLine
 10
-1071.818055231364
 20
1619.571636322126
 30
0.0
 11
-1069.818055231364
 21
1619.571636322126
 31
0.0
  0
LINE
  5
1C132
330
1A
100
AcDbEntity
  8
ZISSEN1
100
AcDbLine
 10
-1077.218055231363
 20
1619.571636322126
 30
0.0
 11
-1069.818055231364
 21
1619.571636322126
 31
0.0
  0
LINE
  5
1C133
330
1A
100
AcDbEntity
  8
ZISSEN1
100
AcDbLine
 10
-1069.818055231364
 20
1619.571636322126
 30
0.0
 11
-1069.818055231364
 21
1618.571636322126
 31
0.0
  0
LINE
  5
1C134
330
1A
100
AcDbEntity
  8
ZISSEN1
100
AcDbLine
 10
-1071.318055231364
 20
1608.071636322126
 30
0.0
 11
-1069.818055231364
 21
1608.071636322126
 31
0.0
  0
LINE
  5
1C135
330
1A
100
AcDbEntity
  8
ZISSEN1
 48
0.5
100
AcDbLine
 10
-1070.518055231363
 20
1606.471636322125
 30
0.0
 11
-1070.518055231363
 21
1606.171636322125
 31
0.0
  0
LINE
  5
1C136
330
1A
100
AcDbEntity
  8
ZISSEN1
100
AcDbLine
 10
-1069.818055231364
 20
1619.571636322126
 30
0.0
 11
-1069.818055231364
 21
1608.071636322126
 31
0.0
  0
LINE
  5
1C137
330
1A
100
AcDbEntity
  8
ZISSEN1
100
AcDbLine
 10
-1077.218055231363
 20
1619.571636322126
 30
0.0
 11
-1077.218055231363
 21
1608.071636322126
 31
0.0
  0
LINE
  5
1C138
330
1A
100
AcDbEntity
  8
ZISSEN1
100
AcDbLine
 10
-1058.618055231362
 20
1619.571636322125
 30
0.0
 11
-1058.618055231362
 21
1616.571636322125
 31
0.0
  0
LINE
  5
1C139
330
1A
100
AcDbEntity
  8
ZISSEN1
100
AcDbLine
 10
-1058.618055231362
 20
1616.571636322125
 30
0.0
 11
-1053.318055231363
 21
1616.571636322125
 31
0.0
  0
LINE
  5
1C13A
330
1A
100
AcDbEntity
  8
ZISSEN1
 48
0.5
100
AcDbLine
 10
-1053.518055231363
 20
1606.171636322125
 30
0.0
 11
-1053.518055231363
 21
1606.471636322125
 31
0.0
  0
LINE
  5
1C13B
330
1A
100
AcDbEntity
  8
ZISSEN1
 48
0.5
100
AcDbLine
 10
-1053.518055231366
 20
1606.471636322125
 30
0.0
 11
-1053.518055231366
 21
1608.071636322126
 31
0.0
  0
LINE
  5
1C13C
330
1A
100
AcDbEntity
  8
ZISSEN1
 48
0.5
100
AcDbLine
 10
-1058.268055231363
 20
1608.071636322126
 30
0.0
 11
-1063.768055231363
 21
1608.071636322126
 31
0.0
  0
LINE
  5
1C13D
330
1A
100
AcDbEntity
  8
ZISSEN1
100
AcDbLine
 10
-1058.268055231363
 20
1608.371636322125
 30
0.0
 11
-1058.268055231363
 21
1608.071636322125
 31
0.0
  0
LINE
  5
1C13E
330
1A
100
AcDbEntity
  8
ZISSEN1
100
AcDbLine
 10
-1063.768055231363
 20
1608.071636322125
 30
0.0
 11
-1063.768055231363
 21
1608.371636322125
 31
0.0
  0
ARC
  5
1C13F
330
1A
100
AcDbEntity
  8
ZISSEN1
100
AcDbCircle
 10
-1061.018055231364
 20
1605.379837492662
 30
0.0
 40
4.06366340092025
100
AcDbArc
 50
47.4114170199188
 51
132.5885829800811
  0
LINE
  5
1C140
330
1A
100
AcDbEntity
  8
ZISSEN1
100
AcDbLine
 10
-1053.318055231363
 20
1608.071636322126
 30
0.0
 11
-1053.318055231363
 21
1619.571636322126
 31
0.0
  0
LINE
  5
1C141
330
1A
100
AcDbEntity
  8
ZISSEN1
100
AcDbLine
 10
-1060.118055231362
 20
1609.342584044737
 30
0.0
 11
-1060.118055231362
 21
1619.571636322126
 31
0.0
  0
LINE
  5
1C142
330
1A
100
AcDbEntity
  8
ZISSEN1
100
AcDbLine
 10
-1052.518055231364
 20
1619.571636322125
 30
0.0
 11
-1052.518055231364
 21
1618.571636322125
 31
0.0
  0
LINE
  5
1C143
330
1A
100
AcDbEntity
  8
ZISSEN1
 48
0.5
100
AcDbLine
 10
-1052.518055231363
 20
1606.171636322125
 30
0.0
 11
-1052.518055231363
 21
1606.471636322125
 31
0.0
  0
LINE
  5
1C144
330
1A
100
AcDbEntity
  8
ZISSEN1
 48
0.5
100
AcDbLine
 10
-1052.518055231364
 20
1606.471636322125
 30
0.0
 11
-1052.518055231364
 21
1608.071636322126
 31
0.0
  0
DIMENSION
  5
1C14A
330
1A
100
AcDbEntity
  8
SUNPOU
100
AcDbDimension
  2
*D0
 10
-984.0180552313631
 20
1647.808141717385
 30
0.0
 11
-990.0180552313631
 21
1650.558141717385
 31
0.0
 70
    32
  3
標準スタイル
100
AcDbAlignedDimension
 13
-996.018055231363
 23
1656.753896217983
 33
0.0
 14
-984.0180552313631
 24
1657.671636322124
 34
0.0
100
AcDbRotatedDimension
1001
ACAD
1000
DSTYLE
1002
{
1070
   140
1040
3.5
1070
   340
1005
10
1070
    40
1040
1.0
1002
}
  0
DIMENSION
  5
1C157
330
1A
100
AcDbEntity
  8
SUNPOU
100
AcDbDimension
  2
*D1
 10
-984.0180552313631
 20
1638.413383936063
 30
0.0
 11
-996.0180552313632
 21
1641.163383936063
 31
0.0
 70
    32
  3
標準スタイル
100
AcDbAlignedDimension
 13
-1008.018055231363
 23
1658.671636322124
 33
0.0
 14
-984.0180552313631
 24
1657.171636322124
 34
0.0
100
AcDbRotatedDimension
1001
ACAD
1000
DSTYLE
1002
{
1070
   140
1040
3.5
1070
   340
1005
10
1070
    40
1040
1.0
1002
}
  0
XLINE
  5
1C165
330
1A
100
AcDbEntity
  8
CL1
 62
     4
100
AcDbXline
 10
-2149.850110206533
 20
3315.343272644251
 30
0.0
 11
1.0
 21
0.0
 31
0.0
  0
DIMENSION
  5
1C167
330
1A
100
AcDbEntity
  8
SUNPOU
100
AcDbDimension
  2
*D2
 10
-1017.494446730233
 20
1660.171636322125
 30
0.0
 11
-1020.926505713844
 21
1653.599474832279
 31
0.0
 70
   160
  3
標準スタイル
100
AcDbAlignedDimension
 13
-1007.018055231363
 23
1657.671636322124
 33
0.0
 14
-998.5193383207969
 24
1660.171636322125
 34
0.0
 50
90.0
100
AcDbRotatedDimension
1001
ACAD
1000
DSTYLE
1002
{
1070
   287
1070
     5
1070
   140
1040
3.5
1070
   340
1005
10
1070
    40
1040
1.0
1070
   279
1070
     2
1002
}
  0
DIMENSION
  5
1C1AA
330
1A
100
AcDbEntity
  8
SUNPOU
100
AcDbDimension
  2
*D3
 10
-994.2680552313632
 20
1735.751636322125
 30
0.0
 11
-983.7680552313631
 21
1738.501636322125
 31
0.0
 70
    32
  3
標準スタイル
100
AcDbAlignedDimension
 13
-997.7680552313632
 23
1727.671636322125
 33
0.0
 14
-994.2680552313632
 24
1727.671636322125
 34
0.0
100
AcDbRotatedDimension
1001
ACAD
1000
DSTYLE
1002
{
1070
   140
1040
3.5
1070
   340
1005
10
1070
    40
1040
1.0
1002
}
  0
DIMENSION
  5
1C1BA
330
1A
100
AcDbEntity
  8
SUNPOU
100
AcDbDimension
  2
*D4
 10
-1132.250050730634
 20
1727.671636322125
 30
0.0
 11
-1135.000050730634
 21
1692.671636322125
 31
0.0
 70
    32
  3
標準スタイル
100
AcDbAlignedDimension
 13
-1118.018055231363
 23
1657.671636322126
 33
0.0
 14
-1118.018055231363
 24
1727.671636322125
 34
0.0
 50
90.0
100
AcDbRotatedDimension
1001
ACAD
1000
DSTYLE
1002
{
1070
   140
1040
3.5
1070
   340
1005
10
1070
    40
1040
1.0
1002
}
  0
DIMENSION
  5
1C1C7
330
1A
100
AcDbEntity
  8
SUNPOU
 62
     4
100
AcDbDimension
  2
*D5
 10
-1108.265886285496
 20
1735.886257398453
 30
0.0
 11
-1097.765886285497
 21
1738.636257398453
 31
0.0
 70
    32
  3
標準スタイル
100
AcDbAlignedDimension
 13
-1111.765886285496
 23
1727.671636322125
 33
0.0
 14
-1108.265886285496
 24
1727.671636322125
 34
0.0
100
AcDbRotatedDimension
1001
ACAD
1000
DSTYLE
1002
{
1070
   140
1040
3.5
1070
   340
1005
10
1070
    40
1040
1.0
1002
}
  0
DIMENSION
  5
1C1D6
330
1A
100
AcDbEntity
  8
SUNPOU
100
AcDbDimension
  2
*D6
 10
-1110.015886285496
 20
1647.645060386184
 30
0.0
 11
-1114.01697075843
 21
1650.395060386184
 31
0.0
 70
    32
  3
標準スタイル
100
AcDbAlignedDimension
 13
-1118.018055231363
 23
1657.671636322126
 33
0.0
 14
-1110.015886285496
 24
1656.753896217983
 34
0.0
100
AcDbRotatedDimension
1001
ACAD
1000
DSTYLE
1002
{
1070
   340
1005
10
1070
   140
1040
3.5
1070
    40
1040
1.0
1002
}
  0
DIMENSION
  5
1C1E3
330
1A
100
AcDbEntity
  8
SUNPOU
100
AcDbDimension
  2
*D7
 10
-1052.018055231364
 20
1647.645060386184
 30
0.0
 11
-1081.01697075843
 21
1650.395060386184
 31
0.0
 70
    32
  3
標準スタイル
100
AcDbAlignedDimension
 13
-1110.015886285496
 23
1656.753896217983
 33
0.0
 14
-1052.018055231364
 24
1665.171636322125
 34
0.0
100
AcDbRotatedDimension
1001
ACAD
1000
DSTYLE
1002
{
1070
   287
1070
     4
1070
   140
1040
3.5
1070
   340
1005
10
1070
    40
1040
1.0
1070
   279
1070
     1
1002
}
  0
DIMENSION
  5
1C260
330
1A
100
AcDbEntity
  8
SUNPOU
100
AcDbDimension
  2
*D8
 10
-1043.007403568306
 20
1660.171636322125
 30
0.0
 11
-1046.163574590204
 21
1653.478864704656
 31
0.0
 70
   160
  3
標準スタイル
100
AcDbAlignedDimension
 13
-1106.018055232977
 23
1657.671636322126
 33
0.0
 14
-1107.441246472416
 24
1660.171636322125
 34
0.0
 50
90.0
100
AcDbRotatedDimension
1001
ACAD
1000
DSTYLE
1002
{
1070
   287
1070
     5
1070
   140
1040
3.5
1070
   340
1005
10
1070
    40
1040
1.0
1070
   279
1070
     2
1002
}
  0
DIMENSION
  5
1C26F
330
1A
100
AcDbEntity
  8
SUNPOU
100
AcDbDimension
  2
*D9
 10
-1043.007403568306
 20
1725.171636322125
 30
0.0
 11
-1045.757403568306
 21
1692.671636322125
 31
0.0
 70
    32
  3
標準スタイル
100
AcDbAlignedDimension
 13
-1107.441246472416
 23
1660.171636322125
 33
0.0
 14
-1107.265886285496
 24
1725.171636322125
 34
0.0
 50
90.0
100
AcDbRotatedDimension
1001
ACAD
1000
DSTYLE
1002
{
1070
   287
1070
     4
1070
   140
1040
3.5
1070
   340
1005
10
1070
    40
1040
1.0
1070
   279
1070
     1
1002
}
  0
DIMENSION
  5
1C28E
330
1A
100
AcDbEntity
  8
SUNPOU
100
AcDbDimension
  2
*D10
 10
-1043.007403568306
 20
1727.671636322125
 30
0.0
 11
-1046.335920712434
 21
1733.473283355286
 31
0.0
 70
   160
  3
標準スタイル
100
AcDbAlignedDimension
 13
-1106.765886285496
 23
1725.171636322125
 33
0.0
 14
-1106.018055231363
 24
1727.671636322125
 34
0.0
 50
90.0
100
AcDbRotatedDimension
1001
ACAD
1000
DSTYLE
1002
{
1070
   287
1070
     5
1070
   140
1040
3.5
1070
   340
1005
10
1070
    40
1040
1.0
1070
   279
1070
     2
1002
}
  0
LINE
  5
1C2CE
330
1A
100
AcDbEntity
  8
CL1
100
AcDbLine
 10
-1119.141404938599
 20
1725.171636322125
 30
0.0
 11
-1115.018055231363
 21
1725.171636322125
 31
0.0
  0
LINE
  5
1C2D0
330
1A
100
AcDbEntity
  8
CL1
100
AcDbLine
 10
-1112.591176661049
 20
1725.171636322125
 30
0.0
 11
-1107.441246472416
 21
1725.171636322125
 31
0.0
  0
LINE
  5
1C2D4
330
1A
100
AcDbEntity
  8
CL1
100
AcDbLine
 10
-1112.591176661049
 20
1660.171636322125
 30
0.0
 11
-1107.441246472416
 21
1660.171636322125
 31
0.0
  0
LINE
  5
1C2D6
330
1A
100
AcDbEntity
  8
CL1
100
AcDbLine
 10
-1119.141404938599
 20
1660.171636322125
 30
0.0
 11
-1115.018055231363
 21
1660.171636322125
 31
0.0
  0
LINE
  5
1C2D8
330
1A
100
AcDbEntity
  8
CL1
100
AcDbLine
 10
-1110.022819833473
 20
1598.63139389527
 30
0.0
 11
-1110.022819833473
 21
1602.845087116673
 31
0.0
  0
LINE
  5
1C2DB
330
1A
100
AcDbEntity
  8
CL1
100
AcDbLine
 10
-987.1399309693126
 20
1660.157454656412
 30
0.0
 11
-982.0349444712139
 21
1660.157454656412
 31
0.0
  0
LINE
  5
1C2DC
330
1A
100
AcDbEntity
  8
CL1
100
AcDbLine
 10
-987.1399309693126
 20
1725.171636322125
 30
0.0
 11
-982.0349444712139
 21
1725.171636322125
 31
0.0
  0
LINE
  5
1C368
330
1A
100
AcDbEntity
  8
CL1
100
AcDbLine
 10
-998.5193383207969
 20
1660.171636322125
 30
0.0
 11
-993.2846580128215
 21
1660.171636322125
 31
0.0
  0
LINE
  5
1C369
330
1A
100
AcDbEntity
  8
CL1
100
AcDbLine
 10
-996.018055231363
 20
1663.604466026022
 30
0.0
 11
-996.018055231363
 21
1656.753896217983
 31
0.0
  0
LINE
  5
1C36A
330
1A
100
AcDbEntity
  8
CL1
100
AcDbLine
 10
-996.018055231363
 20
1656.753896217983
 30
0.0
 11
-996.018055231363
 21
1656.753896217983
 31
0.0
  0
LINE
  5
1C36B
330
1A
100
AcDbEntity
  8
CL1
100
AcDbLine
 10
-998.5193383207969
 20
1725.171636322125
 30
0.0
 11
-993.2846580128215
 21
1725.171636322125
 31
0.0
  0
LINE
  5
1C36C
330
1A
100
AcDbEntity
  8
CL1
100
AcDbLine
 10
-996.018055231363
 20
1721.729377783496
 30
0.0
 11
-996.018055231363
 21
1728.53143581991
 31
0.0
  0
LINE
  5
1C36D
330
1A
100
AcDbEntity
  8
CL1
100
AcDbLine
 10
-998.5390911791148
 20
1725.171636322125
 30
0.0
 11
-994.2680552313632
 21
1725.171636322125
 31
0.0
  0
MTEXT
  5
1C375
330
1A
100
AcDbEntity
  8
ZISSEN1
100
AcDbMText
 10
-1101.904196475631
 20
1763.55002101271
 30
0.0
 40
5.0
 41
108.3598999999999
 71
     1
 72
     5
  1
ADB-2310BA  No.SS0001f111
1001
ACAD
1000
MTEXTBEGIN
1070
    73
1070
     1
1070
    44
1040
1.0
1070
    74
1070
     0
1000
MTEXTEND
1000
MTEXTBEGIN
1070
    73
1070
     1
1070
    44
1040
1.0
1070
    74
1070
     0
1000
MTEXTEND
1000
MTEXTBEGIN
1070
    73
1070
     1
1070
    44
1040
1.0
1070
    74
1070
     0
1000
MTEXTEND
1000
MTEXTBEGIN
1070
    73
1070
     1
1070
    44
1040
1.0
1070
    74
1070
     0
1000
MTEXTEND
  0
DIMENSION
  5
1C4E9
330
1A
100
AcDbEntity
  8
SUNPOU
100
AcDbDimension
  2
*D11
 10
-1017.494446730233
 20
1725.171636322125
 30
0.0
 11
-1020.244446730233
 21
1692.671636322125
 31
0.0
 70
    32
  3
標準スタイル
100
AcDbAlignedDimension
 13
-999.0193383207969
 23
1660.171636322125
 33
0.0
 14
-998.5390911791148
 24
1725.171636322125
 34
0.0
 50
90.0
100
AcDbRotatedDimension
1001
ACAD
1000
DSTYLE
1002
{
1070
   287
1070
     4
1070
   340
1005
10
1070
    40
1040
1.0
1070
   279
1070
     1
1002
}
  0
DIMENSION
  5
1C4F6
330
1A
100
AcDbEntity
  8
SUNPOU
100
AcDbDimension
  2
*D12
 10
-1017.494446730233
 20
1727.671636322125
 30
0.0
 11
-1020.752496490445
 21
1733.587122196841
 31
0.0
 70
   160
  3
標準スタイル
100
AcDbAlignedDimension
 13
-998.5390911791148
 23
1725.171636322125
 33
0.0
 14
-1007.018055231363
 24
1727.671636322125
 34
0.0
 50
90.0
100
AcDbRotatedDimension
1001
ACAD
1000
DSTYLE
1002
{
1070
   287
1070
     5
1070
   340
1005
10
1070
    40
1040
1.0
1070
   279
1070
     2
1002
}
  0
DIMENSION
  5
1C524
330
1A
100
AcDbEntity
  8
SUNPOU
100
AcDbDimension
  2
*D13
 10
-1116.018055231363
 20
1632.064059533649
 30
0.0
 11
-1107.851388564696
 21
1634.814059533649
 31
0.0
 70
    32
  3
標準スタイル
100
AcDbAlignedDimension
 13
-1118.018055231363
 23
1623.671636322125
 33
0.0
 14
-1116.018055231363
 24
1623.671636322125
 34
0.0
100
AcDbRotatedDimension
1001
ACAD
1000
DSTYLE
1002
{
1070
   340
1005
10
1070
    40
1040
1.0
1002
}
  0
DIMENSION
  5
1C533
330
1A
100
AcDbEntity
  8
SUNPOU
100
AcDbDimension
  2
*D14
 10
-1052.018055231363
 20
1590.163255075708
 30
0.0
 11
-1085.018055231364
 21
1592.913255075708
 31
0.0
 70
    32
  3
標準スタイル
100
AcDbAlignedDimension
 13
-1118.018055231365
 23
1601.671636322125
 33
0.0
 14
-1052.018055231363
 24
1604.171636322125
 34
0.0
100
AcDbRotatedDimension
1001
ACAD
1000
DSTYLE
1002
{
1070
   340
1005
10
1070
    40
1040
1.0
1002
}
  0
DIMENSION
  5
1C575
330
1A
100
AcDbEntity
  8
SUNPOU
100
AcDbDimension
  2
*D15
 10
-1042.798235312289
 20
1619.571636322125
 30
0.0
 11
-1045.54823531229
 21
1609.621636322125
 31
0.0
 70
    32
  1
(19.9)
  3
標準スタイル
100
AcDbAlignedDimension
 13
-1070.018055231363
 23
1599.671636322126
 33
0.0
 14
-1052.518055231364
 24
1619.571636322125
 34
0.0
 50
90.0
100
AcDbRotatedDimension
1001
ACAD
1000
DSTYLE
1002
{
1070
   340
1005
10
1070
    40
1040
1.0
1002
}
  0
LINE
  5
1C653
330
1A
100
AcDbEntity
  8
CL1
100
AcDbLine
 10
-1110.015886285496
 20
1663.604466026022
 30
0.0
 11
-1110.015886285496
 21
1656.753896217983
 31
0.0
  0
LINE
  5
1C659
330
1A
100
AcDbEntity
  8
CL1
100
AcDbLine
 10
-1110.015886285496
 20
1728.53143581991
 30
0.0
 11
-1110.015886285496
 21
1721.729377783496
 31
0.0
  0
VIEWPORT
  5
5D8F
330
5D8E
100
AcDbEntity
 67
     1
  8
0
100
AcDbViewport
 10
221.7911721315285
 20
157.685498894633
 30
0.0
 40
559.9566361207892
 41
314.2372683715821
 68
     1
 69
     1
1001
ACAD
1000
MVIEW
1002
{
1070
    16
1010
0.0
1020
0.0
1030
0.0
1010
0.0
1020
0.0
1030
1.0
1040
0.0
1040
314.2372683715821
1040
221.7911721315285
1040
157.685498894633
1040
50.0
1040
0.0
1040
0.0
1070
     0
1070
   100
1070
     1
1070
     0
1070
     0
1070
     0
1070
     0
1070
     0
1040
0.0
1040
0.0
1040
0.0
1040
1.0
1040
1.0
1040
10.0
1040
10.0
1070
     0
1002
{
1002
}
1002
}
  0
VIEWPORT
  5
6001
330
5D8E
100
AcDbEntity
 67
     1
  8
ZISSEN1
100
AcDbViewport
 10
221.7861955525412
 20
157.6960273330388
 30
0.0
 40
385.4999999999997
 41
259.9999999999999
 68
     2
 69
     2
1001
ACAD
1000
MVIEW
1002
{
1070
    16
1010
0.0
1020
0.0
1030
0.0
1010
0.0
1020
0.0
1030
1.0
1040
0.0
1040
259.9999999999999
1040
-1047.184153175129
1040
1668.372586288
1040
50.0
1040
0.0
1040
0.0
1070
     0
1070
   100
1070
     1
1070
     0
1070
     0
1070
     0
1070
     0
1070
     0
1040
0.0
1040
0.0
1040
0.0
1040
1.0
1040
1.0
1040
10.0
1040
10.0
1070
     0
1002
{
1002
}
1002
}
  0
TEXT
  5
716F
330
5D8E
100
AcDbEntity
 67
     1
  8
SUNPOU
 62
     0
100
AcDbText
 10
374.1863124306944
 20
60.86794705907585
 30
0.0
 40
3.5
  1
縮尺 1/1
  7
ゴシック体
100
AcDbText
  0
ENDSEC
  0
SECTION
  2
OBJECTS
  0
DICTIONARY
  5
C
330
0
100
AcDbDictionary
  3
ACAD_GROUP
350
D
  3
ACAD_LAYOUT
350
5C7D
  3
ACAD_MLINESTYLE
350
E
  3
ACAD_PLOTSETTINGS
350
5C7E
  3
ACAD_PLOTSTYLENAME
350
5C7B
  3
DWGPROPS
350
12861
  3
ACDBHEADERROUNDTRIPXREC
350
1C6FA
  0
DICTIONARY
  5
14053
330
2
100
AcDbDictionary
280
     1
  3
ACAD_LAYERFILTERS
360
14054
  0
DICTIONARY
  5
171B2
330
1A
100
AcDbDictionary
280
     1
  3
ACAD_LAYOUTSELFREF
360
1C71A
  0
DICTIONARY
  5
171B8
330
5D8E
100
AcDbDictionary
280
     1
  3
ACAD_LAYOUTSELFREF
360
1C71B
  0
DICTIONARY
  5
D
102
{ACAD_REACTORS
330
C
102
}
330
C
100
AcDbDictionary
  3
*A1
350
477D
  3
*A2
350
16F36
  3
*A3
350
16F37
  3
*A4
350
4C16
  3
*A5
350
16F39
  3
*A6
350
4C14
  3
*A7
350
4C15
  3
*A8
350
1C09E
  3
*A9
350
1C09F
  3
*A10
350
1C0A0
  3
*A11
350
1C0A1
  3
*A12
350
13E2E
  3
*A13
350
1C0A2
  3
*A14
350
4C17
  3
*A15
350
4781
  3
*A16
350
477E
  3
*A17
350
477F
  3
*A18
350
4780
  3
*A19
350
4C0E
  3
*A20
350
4C0F
  3
*A21
350
4C10
  3
*A22
350
16E43
  3
*A23
350
4C11
  3
*A24
350
4C12
  3
*A25
350
16DE9
  3
*A26
350
16E51
  3
*A27
350
4C13
  0
DICTIONARY
  5
5C7D
102
{ACAD_REACTORS
330
C
102
}
330
C
100
AcDbDictionary
  0
DICTIONARY
  5
E
102
{ACAD_REACTORS
330
C
102
}
330
C
100
AcDbDictionary
  3
STANDARD
350
13
  0
DICTIONARY
  5
5C7E
102
{ACAD_REACTORS
330
C
102
}
330
C
100
AcDbDictionary
  0
ACDBDICTIONARYWDFLT
  5
5C7B
102
{ACAD_REACTORS
330
C
102
}
330
C
100
AcDbDictionary
281
     1
  3
Normal
350
5C7C
100
AcDbDictionaryWithDefault
340
5C7C
  0
XRECORD
  5
12861
102
{ACAD_REACTORS
330
C
102
}
330
C
100
AcDbXrecord
  1
DWGPROPS COOKIE
  2

  3

  4

  6

  7

  8

  9

300
=
301
=
302
=
303
=
304
=
305
=
306
=
307
=
308
=
309
=
 40
1.583646701388888
 41
2450495.493631365
 42
2455325.72058449
  1

 90
        0
  0
DICTIONARY
  5
1C6FA
102
{ACAD_REACTORS
330
C
102
}
330
C
100
AcDbDictionary
  3
TSTACKALIGN
350
1C6FB
  3
TSTACKSIZE
350
1C6FC
  3
HYPERLINKBASE
350
1C6FD
  3
STYLESHEET
350
1C6FE
  3
LAYOUTDICT
350
1C6FF
  3
PLOTSETDICT
350
1C700
  3
PLOTSTYLNAMDICT
350
1C701
  3
LWETCUNION
350
1C702
  3
INSUNITS
350
1C703
  3
CEPSNTYPE
350
1C704
  3
FINGERPRINTGUID
350
1C705
  3
VERSIONGUID
350
1C706
  3
PSVPSCALE
350
1C707
  3
PUCSORTHOREF
350
1C708
  3
PUCSORTHOVIEW
350
1C709
  3
PUCSBASE
350
1C70A
  3
PUCSORGTOP
350
1C70B
  3
PUCSORGBOTTOM
350
1C70C
  3
PUCSORGLEFT
350
1C70D
  3
PUCSORGRIGHT
350
1C70E
  3
PUCSORGFRONT
350
1C70F
  3
PUCSORGBACK
350
1C710
  3
UCSORTHOREF
350
1C711
  3
UCSORTHOVIEW
350
1C712
  3
UCSBASE
350
1C713
  3
UCSORGTOP
350
1C714
  3
UCSORGBOTTOM
350
1C715
  3
UCSORGLEFT
350
1C716
  3
UCSORGRIGHT
350
1C717
  3
UCSORGFRONT
350
1C718
  3
UCSORGBACK
350
1C719
  0
DICTIONARY
  5
14054
102
{ACAD_REACTORS
330
14053
102
}
330
14053
100
AcDbDictionary
280
     1
  3
BASE
360
14055
  3
CASE
360
14056
  3
KIKOU
360
14057
  0
XRECORD
  5
1C71A
102
{ACAD_REACTORS
330
171B2
102
}
330
171B2
100
AcDbXrecord
340
1A
  0
XRECORD
  5
1C71B
102
{ACAD_REACTORS
330
171B8
102
}
330
171B8
100
AcDbXrecord
340
5D8E
  0
GROUP
  5
477D
102
{ACAD_REACTORS
330
D
102
}
330
D
100
AcDbGroup
300

 70
     1
 71
     1
  0
GROUP
  5
16F36
102
{ACAD_REACTORS
330
D
102
}
330
D
100
AcDbGroup
300

 70
     1
 71
     1
  0
GROUP
  5
16F37
102
{ACAD_REACTORS
330
D
102
}
330
D
100
AcDbGroup
300

 70
     1
 71
     1
  0
GROUP
  5
4C16
102
{ACAD_REACTORS
330
D
102
}
330
D
100
AcDbGroup
300

 70
     1
 71
     1
  0
GROUP
  5
16F39
102
{ACAD_REACTORS
330
D
102
}
330
D
100
AcDbGroup
300

 70
     1
 71
     1
  0
GROUP
  5
4C14
102
{ACAD_REACTORS
330
D
102
}
330
D
100
AcDbGroup
300

 70
     1
 71
     1
  0
GROUP
  5
4C15
102
{ACAD_REACTORS
330
D
102
}
330
D
100
AcDbGroup
300

 70
     1
 71
     1
  0
GROUP
  5
1C09E
102
{ACAD_REACTORS
330
D
102
}
330
D
100
AcDbGroup
300

 70
     1
 71
     1
340
1BFF1
340
1BFEF
340
1BFEE
340
1BFED
340
1BFEC
340
1BFEB
340
1BFEA
340
1BFE9
340
1BFE8
340
1BFE7
340
1BFE6
340
1BFF0
  0
GROUP
  5
1C09F
102
{ACAD_REACTORS
330
D
102
}
330
D
100
AcDbGroup
300

 70
     1
 71
     1
340
1C078
340
1C06B
340
1C068
340
1C067
340
1C09D
340
1C06E
340
1C06D
340
1C06A
340
1C069
340
1C035
340
1C07D
340
1C07C
340
1C07B
340
1C07A
340
1C036
340
1C079
340
1C077
340
1C076
340
1C075
340
1C074
340
1C073
340
1C072
340
1C071
340
1C070
340
1C06F
340
1C06C
340
1C066
340
1C065
  0
GROUP
  5
1C0A0
102
{ACAD_REACTORS
330
D
102
}
330
D
100
AcDbGroup
300

 70
     1
 71
     1
340
1BFF3
340
1BFF2
340
1BFF4
340
1BFF5
340
1BFF6
340
1BFF7
340
1BFF8
340
1BFF9
340
1BFFA
340
1BFFB
340
1BFFC
340
1BFFD
  0
GROUP
  5
1C0A1
102
{ACAD_REACTORS
330
D
102
}
330
D
100
AcDbGroup
300

 70
     1
 71
     1
340
1C01E
340
1C00F
340
1C01D
340
1C00E
340
1C01C
340
1C01B
340
1C017
340
1C00C
340
1C005
340
1C016
340
1C00B
340
1C00A
340
1C009
340
1C015
340
1C014
340
1C013
340
1C004
340
1C008
340
1C007
340
1C006
340
1C003
340
1C012
340
1C011
340
1C001
340
1C000
340
1C002
340
1C01A
340
1C00D
  0
GROUP
  5
13E2E
102
{ACAD_REACTORS
330
D
102
}
330
D
100
AcDbGroup
300

 70
     1
 71
     1
  0
GROUP
  5
1C0A2
102
{ACAD_REACTORS
330
D
102
}
330
D
100
AcDbGroup
300

 70
     1
 71
     1
340
1C062
340
1C061
340
1C060
340
1C05F
340
1C050
340
1C04F
340
1C04C
340
1C05E
340
1C05D
340
1C05C
340
1C05B
340
1C05A
340
1C059
340
1C04E
340
1C058
340
1C057
340
1C056
340
1C055
340
1C054
340
1C053
340
1C052
340
1C051
340
1C04D
  0
GROUP
  5
4C17
102
{ACAD_REACTORS
330
D
102
}
330
D
100
AcDbGroup
300

 70
     1
 71
     1
  0
GROUP
  5
4781
102
{ACAD_REACTORS
330
D
102
}
330
D
100
AcDbGroup
300

 70
     1
 71
     1
  0
GROUP
  5
477E
102
{ACAD_REACTORS
330
D
102
}
330
D
100
AcDbGroup
300

 70
     1
 71
     1
  0
GROUP
  5
477F
102
{ACAD_REACTORS
330
D
102
}
330
D
100
AcDbGroup
300

 70
     1
 71
     1
  0
GROUP
  5
4780
102
{ACAD_REACTORS
330
D
102
}
330
D
100
AcDbGroup
300

 70
     1
 71
     1
  0
GROUP
  5
4C0E
102
{ACAD_REACTORS
330
D
102
}
330
D
100
AcDbGroup
300

 70
     1
 71
     1
  0
GROUP
  5
4C0F
102
{ACAD_REACTORS
330
D
102
}
330
D
100
AcDbGroup
300

 70
     1
 71
     1
  0
GROUP
  5
4C10
102
{ACAD_REACTORS
330
D
102
}
330
D
100
AcDbGroup
300

 70
     1
 71
     1
  0
GROUP
  5
16E43
102
{ACAD_REACTORS
330
D
102
}
330
D
100
AcDbGroup
300

 70
     1
 71
     1
  0
GROUP
  5
4C11
102
{ACAD_REACTORS
330
D
102
}
330
D
100
AcDbGroup
300

 70
     1
 71
     1
  0
GROUP
  5
4C12
102
{ACAD_REACTORS
330
D
102
}
330
D
100
AcDbGroup
300

 70
     1
 71
     1
  0
GROUP
  5
16DE9
102
{ACAD_REACTORS
330
D
102
}
330
D
100
AcDbGroup
300

 70
     1
 71
     1
  0
GROUP
  5
16E51
102
{ACAD_REACTORS
330
D
102
}
330
D
100
AcDbGroup
300

 70
     1
 71
     1
  0
GROUP
  5
4C13
102
{ACAD_REACTORS
330
D
102
}
330
D
100
AcDbGroup
300

 70
     1
 71
     1
  0
MLINESTYLE
  5
13
102
{ACAD_REACTORS
330
E
102
}
330
E
100
AcDbMlineStyle
  2
STANDARD
 70
     0
  3

 62
     0
 51
90.0
 52
90.0
 71
     2
 49
0.5
 62
   256
  6
BYLAYER
 49
-0.5
 62
   256
  6
BYLAYER
  0
ACDBPLACEHOLDER
  5
5C7C
102
{ACAD_REACTORS
330
5C7B
102
}
330
5C7B
100
AcDbPlaceHolder
280
     0
  0
XRECORD
  5
1C6FB
102
{ACAD_REACTORS
330
1C6FA
102
}
330
1C6FA
100
AcDbXrecord
 90
        1
  0
XRECORD
  5
1C6FC
102
{ACAD_REACTORS
330
1C6FA
102
}
330
1C6FA
100
AcDbXrecord
 90
       70
  0
XRECORD
  5
1C6FD
102
{ACAD_REACTORS
330
1C6FA
102
}
330
1C6FA
100
AcDbXrecord
  1

  0
XRECORD
  5
1C6FE
102
{ACAD_REACTORS
330
1C6FA
102
}
330
1C6FA
100
AcDbXrecord
  1

  0
XRECORD
  5
1C6FF
102
{ACAD_REACTORS
330
1C6FA
102
}
330
1C6FA
100
AcDbXrecord
340
5C7D
  0
XRECORD
  5
1C700
102
{ACAD_REACTORS
330
1C6FA
102
}
330
1C6FA
100
AcDbXrecord
340
5C7E
  0
XRECORD
  5
1C701
102
{ACAD_REACTORS
330
1C6FA
102
}
330
1C6FA
100
AcDbXrecord
340
5C7B
  0
XRECORD
  5
1C702
102
{ACAD_REACTORS
330
1C6FA
102
}
330
1C6FA
100
AcDbXrecord
 90
    10781
  0
XRECORD
  5
1C703
102
{ACAD_REACTORS
330
1C6FA
102
}
330
1C6FA
100
AcDbXrecord
 90
        0
  0
XRECORD
  5
1C704
102
{ACAD_REACTORS
330
1C6FA
102
}
330
1C6FA
100
AcDbXrecord
 90
        0
  0
XRECORD
  5
1C705
102
{ACAD_REACTORS
330
1C6FA
102
}
330
1C6FA
100
AcDbXrecord
  1
{225A7F0D-DA29-11D8-946A-0000E2416295}
  0
XRECORD
  5
1C706
102
{ACAD_REACTORS
330
1C6FA
102
}
330
1C6FA
100
AcDbXrecord
  1
{E8526F5B-F61C-41D2-935B-8D6F1B363302}
  0
XRECORD
  5
1C707
102
{ACAD_REACTORS
330
1C6FA
102
}
330
1C6FA
100
AcDbXrecord
 40
0.0
  0
XRECORD
  5
1C708
102
{ACAD_REACTORS
330
1C6FA
102
}
330
1C6FA
100
AcDbXrecord
340
0
  0
XRECORD
  5
1C709
102
{ACAD_REACTORS
330
1C6FA
102
}
330
1C6FA
100
AcDbXrecord
 70
     0
  0
XRECORD
  5
1C70A
102
{ACAD_REACTORS
330
1C6FA
102
}
330
1C6FA
100
AcDbXrecord
340
0
  0
XRECORD
  5
1C70B
102
{ACAD_REACTORS
330
1C6FA
102
}
330
1C6FA
100
AcDbXrecord
 10
0.0
 20
0.0
 30
0.0
  0
XRECORD
  5
1C70C
102
{ACAD_REACTORS
330
1C6FA
102
}
330
1C6FA
100
AcDbXrecord
 10
0.0
 20
0.0
 30
0.0
  0
XRECORD
  5
1C70D
102
{ACAD_REACTORS
330
1C6FA
102
}
330
1C6FA
100
AcDbXrecord
 10
0.0
 20
0.0
 30
0.0
  0
XRECORD
  5
1C70E
102
{ACAD_REACTORS
330
1C6FA
102
}
330
1C6FA
100
AcDbXrecord
 10
0.0
 20
0.0
 30
0.0
  0
XRECORD
  5
1C70F
102
{ACAD_REACTORS
330
1C6FA
102
}
330
1C6FA
100
AcDbXrecord
 10
0.0
 20
0.0
 30
0.0
  0
XRECORD
  5
1C710
102
{ACAD_REACTORS
330
1C6FA
102
}
330
1C6FA
100
AcDbXrecord
 10
0.0
 20
0.0
 30
0.0
  0
XRECORD
  5
1C711
102
{ACAD_REACTORS
330
1C6FA
102
}
330
1C6FA
100
AcDbXrecord
340
0
  0
XRECORD
  5
1C712
102
{ACAD_REACTORS
330
1C6FA
102
}
330
1C6FA
100
AcDbXrecord
 70
     0
  0
XRECORD
  5
1C713
102
{ACAD_REACTORS
330
1C6FA
102
}
330
1C6FA
100
AcDbXrecord
340
0
  0
XRECORD
  5
1C714
102
{ACAD_REACTORS
330
1C6FA
102
}
330
1C6FA
100
AcDbXrecord
 10
0.0
 20
0.0
 30
0.0
  0
XRECORD
  5
1C715
102
{ACAD_REACTORS
330
1C6FA
102
}
330
1C6FA
100
AcDbXrecord
 10
0.0
 20
0.0
 30
0.0
  0
XRECORD
  5
1C716
102
{ACAD_REACTORS
330
1C6FA
102
}
330
1C6FA
100
AcDbXrecord
 10
0.0
 20
0.0
 30
0.0
  0
XRECORD
  5
1C717
102
{ACAD_REACTORS
330
1C6FA
102
}
330
1C6FA
100
AcDbXrecord
 10
0.0
 20
0.0
 30
0.0
  0
XRECORD
  5
1C718
102
{ACAD_REACTORS
330
1C6FA
102
}
330
1C6FA
100
AcDbXrecord
 10
0.0
 20
0.0
 30
0.0
  0
XRECORD
  5
1C719
102
{ACAD_REACTORS
330
1C6FA
102
}
330
1C6FA
100
AcDbXrecord
 10
0.0
 20
0.0
 30
0.0
  0
XRECORD
  5
14055
102
{ACAD_REACTORS
330
14054
102
}
330
14054
100
AcDbXrecord
  1
BASE
  1
BASE*
  1
*
  1
*
 70
     0
  1
*
  1
*
  0
XRECORD
  5
14056
102
{ACAD_REACTORS
330
14054
102
}
330
14054
100
AcDbXrecord
  1
CASE
  1
CASE*
  1
*
  1
*
 70
     0
  1
*
  1
*
  0
XRECORD
  5
14057
102
{ACAD_REACTORS
330
14054
102
}
330
14054
100
AcDbXrecord
  1
KIKOU
  1
KIKOU*
  1
*
  1
*
 70
     0
  1
*
  1
*
  0
ENDSEC
  0
EOF
