  0
SECTION
  2
HEADER
  9
$ACADVER
  1
AC1014
  9
$ACADMAINTVER
 70
     9
  9
$DWGCODEPAGE
  3
ANSI_932
  9
$INSBASE
 10
0.0
 20
0.0
 30
0.0
  9
$EXTMIN
 10
-1167.774207825042
 20
1583.567590712074
 30
0.0
  9
$EXTMAX
 10
-978.221645651169
 20
1741.939100243006
 30
0.0
  9
$LIMMIN
 10
0.0
 20
0.0
  9
$LIMMAX
 10
420.0
 20
297.0
  9
$ORTHOMODE
 70
     1
  9
$REGENMODE
 70
     1
  9
$FILLMODE
 70
     1
  9
$QTEXTMODE
 70
     0
  9
$MIRRTEXT
 70
     1
  9
$DRAGMODE
 70
     2
  9
$LTSCALE
 40
1.0
  9
$OSMODE
 70
    37
  9
$ATTMODE
 70
     1
  9
$TEXTSIZE
 40
2.5
  9
$TRACEWID
 40
1.0
  9
$TEXTSTYLE
  7
ゴシック体
  9
$CLAYER
  8
SUNPOU
  9
$CELTYPE
  6
BYLAYER
  9
$CECOLOR
 62
   256
  9
$CELTSCALE
 40
1.0
  9
$DELOBJ
 70
     1
  9
$DISPSILH
 70
     0
  9
$DIMSCALE
 40
0.0
  9
$DIMASZ
 40
3.0
  9
$DIMEXO
 40
0.5
  9
$DIMDLI
 40
0.5
  9
$DIMRND
 40
0.0
  9
$DIMDLE
 40
0.0
  9
$DIMEXE
 40
0.5
  9
$DIMTP
 40
0.0
  9
$DIMTM
 40
0.0
  9
$DIMTXT
 40
3.5
  9
$DIMCEN
 40
0.0
  9
$DIMTSZ
 40
0.0
  9
$DIMTOL
 70
     0
  9
$DIMLIM
 70
     0
  9
$DIMTIH
 70
     0
  9
$DIMTOH
 70
     0
  9
$DIMSE1
 70
     0
  9
$DIMSE2
 70
     0
  9
$DIMTAD
 70
     1
  9
$DIMZIN
 70
     8
  9
$DIMBLK
  1

  9
$DIMASO
 70
     1
  9
$DIMSHO
 70
     1
  9
$DIMPOST
  1

  9
$DIMAPOST
  1

  9
$DIMALT
 70
     0
  9
$DIMALTD
 70
     2
  9
$DIMALTF
 40
25.4
  9
$DIMLFAC
 40
1.0
  9
$DIMTOFL
 70
     1
  9
$DIMTVP
 40
0.0
  9
$DIMTIX
 70
     0
  9
$DIMSOXD
 70
     0
  9
$DIMSAH
 70
     0
  9
$DIMBLK1
  1

  9
$DIMBLK2
  1

  9
$DIMSTYLE
  2
標準スタイル
  9
$DIMCLRD
 70
     1
  9
$DIMCLRE
 70
     1
  9
$DIMCLRT
 70
     1
  9
$DIMTFAC
 40
1.0
  9
$DIMGAP
 40
1.0
  9
$DIMJUST
 70
     0
  9
$DIMSD1
 70
     0
  9
$DIMSD2
 70
     0
  9
$DIMTOLJ
 70
     1
  9
$DIMTZIN
 70
     8
  9
$DIMALTZ
 70
     0
  9
$DIMALTTZ
 70
     0
  9
$DIMFIT
 70
     3
  9
$DIMUPT
 70
     0
  9
$DIMUNIT
 70
     2
  9
$DIMDEC
 70
     2
  9
$DIMTDEC
 70
     2
  9
$DIMALTU
 70
     2
  9
$DIMALTTD
 70
     2
  9
$DIMTXSTY
  7
ゴシック体
  9
$DIMAUNIT
 70
     0
  9
$LUNITS
 70
     2
  9
$LUPREC
 70
     4
  9
$SKETCHINC
 40
1.0
  9
$FILLETRAD
 40
0.0
  9
$AUNITS
 70
     0
  9
$AUPREC
 70
     0
  9
$MENU
  1
.
  9
$ELEVATION
 40
0.0
  9
$PELEVATION
 40
0.0
  9
$THICKNESS
 40
0.0
  9
$LIMCHECK
 70
     0
  9
$BLIPMODE
 70
     0
  9
$CHAMFERA
 40
10.0
  9
$CHAMFERB
 40
10.0
  9
$CHAMFERC
 40
2.0
  9
$CHAMFERD
 40
0.7853981633974483
  9
$SKPOLY
 70
     0
  9
$TDCREATE
 40
2450495.493631365
  9
$TDUPDATE
 40
2457112.654007696
  9
$TDINDWG
 40
2.0128426505
  9
$TDUSRTIMER
 40
2.0128424653
  9
$USRTIMER
 70
     1
  9
$ANGBASE
 50
0.0
  9
$ANGDIR
 70
     0
  9
$PDMODE
 70
    99
  9
$PDSIZE
 40
0.0
  9
$PLINEWID
 40
0.0
  9
$COORDS
 70
     1
  9
$SPLFRAME
 70
     0
  9
$SPLINETYPE
 70
     6
  9
$SPLINESEGS
 70
     8
  9
$ATTDIA
 70
     0
  9
$ATTREQ
 70
     1
  9
$HANDLING
 70
 10241
  9
$HANDSEED
  5
150EF
  9
$SURFTAB1
 70
     6
  9
$SURFTAB2
 70
     6
  9
$SURFTYPE
 70
     6
  9
$SURFU
 70
     6
  9
$SURFV
 70
     6
  9
$UCSNAME
  2

  9
$UCSORG
 10
0.0
 20
0.0
 30
0.0
  9
$UCSXDIR
 10
1.0
 20
0.0
 30
0.0
  9
$UCSYDIR
 10
0.0
 20
1.0
 30
0.0
  9
$PUCSNAME
  2

  9
$PUCSORG
 10
0.0
 20
0.0
 30
0.0
  9
$PUCSXDIR
 10
1.0
 20
0.0
 30
0.0
  9
$PUCSYDIR
 10
0.0
 20
1.0
 30
0.0
  9
$USERI1
 70
     0
  9
$USERI2
 70
     0
  9
$USERI3
 70
     0
  9
$USERI4
 70
     0
  9
$USERI5
 70
     0
  9
$USERR1
 40
0.0
  9
$USERR2
 40
0.0
  9
$USERR3
 40
0.0
  9
$USERR4
 40
0.0
  9
$USERR5
 40
0.0
  9
$WORLDVIEW
 70
     1
  9
$SHADEDGE
 70
     3
  9
$SHADEDIF
 70
    70
  9
$TILEMODE
 70
     0
  9
$MAXACTVP
 70
    16
  9
$PINSBASE
 10
0.0
 20
0.0
 30
0.0
  9
$PLIMCHECK
 70
     0
  9
$PEXTMIN
 10
29.02447542650282
 20
27.67824605966541
 30
-0.0015258207003583
  9
$PEXTMAX
 10
414.5544209816263
 20
287.703058030916
 30
0.0000000349246037
  9
$PLIMMIN
 10
21.08616998783453
 20
19.739939332117
  9
$PLIMMAX
 10
422.4927251314144
 20
303.5165309747328
  9
$UNITMODE
 70
     0
  9
$VISRETAIN
 70
     0
  9
$PLINEGEN
 70
     0
  9
$PSLTSCALE
 70
     1
  9
$TREEDEPTH
 70
  3020
  9
$PICKSTYLE
 70
     1
  9
$CMLSTYLE
  2
STANDARD
  9
$CMLJUST
 70
     0
  9
$CMLSCALE
 40
1.0
  9
$PROXYGRAPHICS
 70
     1
  9
$MEASUREMENT
 70
     1
  0
ENDSEC
  0
SECTION
  2
CLASSES
  0
CLASS
  1
LWPOLYLINE
  2
AcDbPolyline
  3
AutoCAD 2000
 90
        0
280
     0
281
     1
  0
CLASS
  1
HATCH
  2
AcDbHatch
  3
AutoCAD 2000
 90
        0
280
     0
281
     1
  0
CLASS
  1
ACDBDICTIONARYWDFLT
  2
AcDbDictionaryWithDefault
  3
AutoCAD 2000
 90
        0
280
     0
281
     0
  0
CLASS
  1
ACDBPLACEHOLDER
  2
AcDbPlaceHolder
  3
AutoCAD 2000
 90
        0
280
     0
281
     0
  0
CLASS
  1
LAYOUT
  2
AcDbLayout
  3
AutoCAD 2000
 90
        0
280
     0
281
     0
  0
CLASS
  1
LONG_TRANSACTION
  2
AcDbLongTransaction
  3
AutoCAD 2000
 90
        0
280
     0
281
     0
  0
CLASS
  1
LWPOLYLINE
  2
AcDbPolyline
  3
AutoCAD 2000
 90
        0
280
     0
281
     1
  0
CLASS
  1
HATCH
  2
AcDbHatch
  3
AutoCAD 2000
 90
        0
280
     0
281
     1
  0
CLASS
  1
XRECORD
  2
AcDbXrecord
  3
AutoCAD 2000
 90
        0
280
     0
281
     0
  0
CLASS
  1
LONG_TRANSACTION
  2
AcDbLongTransaction
  3
AutoCAD 2000
 90
        0
280
     0
281
     0
  0
CLASS
  1
LWPOLYLINE
  2
AcDbPolyline
  3
AutoCAD 2000
 90
        0
280
     0
281
     1
  0
CLASS
  1
HATCH
  2
AcDbHatch
  3
AutoCAD 2000
 90
        0
280
     0
281
     1
  0
CLASS
  1
XRECORD
  2
AcDbXrecord
  3
AutoCAD 2000
 90
        0
280
     0
281
     0
  0
ENDSEC
  0
SECTION
  2
TABLES
  0
TABLE
  2
VPORT
  5
8
330
0
100
AcDbSymbolTable
 70
     2
  0
VPORT
  5
1509C
330
8
100
AcDbSymbolTableRecord
100
AcDbViewportTableRecord
  2
*ACTIVE
 70
     0
 10
0.0
 20
0.0
 11
1.0
 21
1.0
 12
-1072.971951597039
 22
1662.717769034663
 13
0.0
 23
0.0
 14
5.0
 24
5.0
 15
0.0
 25
0.0
 16
0.0
 26
0.0
 36
1.0
 17
0.0
 27
0.0
 37
0.0
 40
160.3337816863771
 41
1.781954887218044
 42
50.0
 43
0.0
 44
0.0
 50
0.0
 51
0.0
 71
     0
 72
   100
 73
     1
 74
     0
 75
     0
 76
     0
 77
     0
 78
     0
  0
ENDTAB
  0
TABLE
  2
LTYPE
  5
5
330
0
100
AcDbSymbolTable
 70
     3
  0
LTYPE
  5
14
330
5
100
AcDbSymbolTableRecord
100
AcDbLinetypeTableRecord
  2
BYBLOCK
 70
     0
  3

 72
    65
 73
     0
 40
0.0
  0
LTYPE
  5
15
330
5
100
AcDbSymbolTableRecord
100
AcDbLinetypeTableRecord
  2
BYLAYER
 70
     0
  3

 72
    65
 73
     0
 40
0.0
  0
LTYPE
  5
16
330
5
100
AcDbSymbolTableRecord
100
AcDbLinetypeTableRecord
  2
CONTINUOUS
 70
     0
  3
Solid line
 72
    65
 73
     0
 40
0.0
  0
LTYPE
  5
329
330
5
100
AcDbSymbolTableRecord
100
AcDbLinetypeTableRecord
  2
DASHEDX2
 70
     0
  3
____  ____  ____  ____  ____  ____  ____  ____ 
 72
    65
 73
     2
 40
1.5
 49
1.0
 74
     0
 49
-0.5
 74
     0
  0
LTYPE
  5
1956
330
5
100
AcDbSymbolTableRecord
100
AcDbLinetypeTableRecord
  2
CENTERX2
 70
     0
  3
________  __  ________  __  ________  __  _____
 72
    65
 73
     4
 40
4.0
 49
2.5
 74
     0
 49
-0.5
 74
     0
 49
0.5
 74
     0
 49
-0.5
 74
     0
  0
ENDTAB
  0
TABLE
  2
LAYER
  5
2
102
{ACAD_XDICTIONARY
360
130FA
102
}
330
0
100
AcDbSymbolTable
 70
     7
  0
LAYER
  5
F
330
2
100
AcDbSymbolTableRecord
100
AcDbLayerTableRecord
  2
0
 70
     0
 62
     7
  6
CONTINUOUS
  0
LAYER
  5
18F
330
2
100
AcDbSymbolTableRecord
100
AcDbLayerTableRecord
  2
ZISSEN1
 70
     0
 62
     7
  6
CONTINUOUS
  0
LAYER
  5
529
330
2
100
AcDbSymbolTableRecord
100
AcDbLayerTableRecord
  2
SUNPOU
 70
     0
 62
     1
  6
CONTINUOUS
  0
LAYER
  5
1959
330
2
100
AcDbSymbolTableRecord
100
AcDbLayerTableRecord
  2
KAKURESEN1
 70
     0
 62
     3
  6
DASHEDX2
  0
LAYER
  5
195A
330
2
100
AcDbSymbolTableRecord
100
AcDbLayerTableRecord
  2
CL1
 70
     0
 62
   210
  6
CENTERX2
  0
LAYER
  5
3A9B
330
2
100
AcDbSymbolTableRecord
100
AcDbLayerTableRecord
  2
DEFPOINTS
 70
     0
 62
     7
  6
CONTINUOUS
  0
LAYER
  5
146CE
330
2
100
AcDbSymbolTableRecord
100
AcDbLayerTableRecord
  2
SAISEN
 70
     0
 62
     1
  6
CONTINUOUS
  0
ENDTAB
  0
TABLE
  2
STYLE
  5
3
330
0
100
AcDbSymbolTable
 70
     2
  0
STYLE
  5
10
330
3
100
AcDbSymbolTableRecord
100
AcDbTextStyleTableRecord
  2
STANDARD
 70
     0
 40
0.0
 41
1.0
 50
0.0
 71
     0
 42
3.0
  3
txt
  4
BigFont
  0
STYLE
  5
1960
330
3
100
AcDbSymbolTableRecord
100
AcDbTextStyleTableRecord
  2
ゴシック体
 70
     0
 40
0.0
 41
1.0
 50
0.0
 71
     0
 42
2.5
  3
MS Gothic.ttf
  4

1001
ACAD
1000
MS Gothic
1071
    32817
  0
ENDTAB
  0
TABLE
  2
VIEW
  5
6
330
0
100
AcDbSymbolTable
 70
     0
  0
ENDTAB
  0
TABLE
  2
UCS
  5
7
330
0
100
AcDbSymbolTable
 70
     0
  0
ENDTAB
  0
TABLE
  2
APPID
  5
9
330
0
100
AcDbSymbolTable
 70
    12
  0
APPID
  5
11
330
9
100
AcDbSymbolTableRecord
100
AcDbRegAppTableRecord
  2
ACAD
 70
     0
  0
APPID
  5
4005
330
9
100
AcDbSymbolTableRecord
100
AcDbRegAppTableRecord
  2
CONTENTTABDATA
 70
     0
  0
APPID
  5
4006
330
9
100
AcDbSymbolTableRecord
100
AcDbRegAppTableRecord
  2
CONTENTCURRENTTAB
 70
     0
  0
APPID
  5
477B
330
9
100
AcDbSymbolTableRecord
100
AcDbRegAppTableRecord
  2
CONTENTBLOCKDESCRIPTION
 70
     0
  0
APPID
  5
477C
330
9
100
AcDbSymbolTableRecord
100
AcDbRegAppTableRecord
  2
CONTENTBLOCKICON
 70
     0
  0
APPID
  5
146D3
330
9
100
AcDbSymbolTableRecord
100
AcDbRegAppTableRecord
  2
GENIUS_GENODEF_13
 70
     0
  0
APPID
  5
146D4
330
9
100
AcDbSymbolTableRecord
100
AcDbRegAppTableRecord
  2
GENIUS_GENOBJ-N-FIL_13
 70
     0
  0
APPID
  5
146D5
330
9
100
AcDbSymbolTableRecord
100
AcDbRegAppTableRecord
  2
GENIUS_GENREC_14
 70
     0
  0
APPID
  5
146D6
330
9
100
AcDbSymbolTableRecord
100
AcDbRegAppTableRecord
  2
GENIUS_GENOBJ-N-REC_13
 70
     0
  0
APPID
  5
146D7
330
9
100
AcDbSymbolTableRecord
100
AcDbRegAppTableRecord
  2
GENIUS_GENOREF_13
 70
     0
  0
APPID
  5
146D8
330
9
100
AcDbSymbolTableRecord
100
AcDbRegAppTableRecord
  2
GENIUS_GENOBJ-N-CEN_13
 70
     0
  0
APPID
  5
146D9
330
9
100
AcDbSymbolTableRecord
100
AcDbRegAppTableRecord
  2
GENIUS_GENCEN_19
 70
     0
  0
ENDTAB
  0
TABLE
  2
DIMSTYLE
  5
A
330
0
100
AcDbSymbolTable
 70
     2
  0
DIMSTYLE
105
1D
330
A
100
AcDbSymbolTableRecord
100
AcDbDimStyleTableRecord
  2
STANDARD
 70
     0
  3

  4

  5

  6

  7

 40
1.0
 41
0.18
 42
0.0625
 43
0.38
 44
0.18
 45
0.0
 46
0.0
 47
0.0
 48
0.0
140
0.18
141
0.09
142
0.0
143
25.4
144
1.0
145
0.0
146
1.0
147
0.09
 71
     0
 72
     0
 73
     1
 74
     1
 75
     0
 76
     0
 77
     0
 78
     0
170
     0
171
     2
172
     0
173
     0
174
     0
175
     0
176
     0
177
     0
178
     0
270
     2
271
     4
272
     4
273
     2
274
     2
340
10
275
     0
280
     0
281
     0
282
     0
283
     1
284
     0
285
     0
286
     0
287
     3
288
     0
  0
DIMSTYLE
105
52E
102
{ACAD_REACTORS
330
14EFB
330
14F2F
330
14EDD
330
14ED0
330
14F08
330
14F15
330
14F22
102
}
330
A
100
AcDbSymbolTableRecord
100
AcDbDimStyleTableRecord
  2
標準スタイル
 70
     0
  3

  4

  5

  6

  7

 40
0.0
 41
3.0
 42
0.5
 43
0.5
 44
0.5
 45
0.0
 46
0.0
 47
0.0
 48
0.0
140
3.5
141
0.0
142
0.0
143
25.4
144
1.0
145
0.0
146
1.0
147
1.0
 71
     0
 72
     0
 73
     0
 74
     0
 75
     0
 76
     0
 77
     1
 78
     8
170
     0
171
     2
172
     1
173
     0
174
     0
175
     0
176
     1
177
     1
178
     1
270
     2
271
     2
272
     2
273
     2
274
     2
340
1960
275
     0
280
     0
281
     0
282
     0
283
     1
284
     8
285
     0
286
     0
287
     3
288
     0
  0
ENDTAB
  0
TABLE
  2
BLOCK_RECORD
  5
1
330
0
100
AcDbSymbolTable
 70
     7
  0
BLOCK_RECORD
  5
1A
102
{ACAD_XDICTIONARY
360
1505E
102
}
330
1
100
AcDbSymbolTableRecord
100
AcDbBlockTableRecord
  2
*MODEL_SPACE
  0
BLOCK_RECORD
  5
5D8E
102
{ACAD_XDICTIONARY
360
15060
102
}
330
1
100
AcDbSymbolTableRecord
100
AcDbBlockTableRecord
  2
*PAPER_SPACE
  0
BLOCK_RECORD
  5
14ED1
330
1
100
AcDbSymbolTableRecord
100
AcDbBlockTableRecord
  2
*D0
  0
BLOCK_RECORD
  5
14EDE
330
1
100
AcDbSymbolTableRecord
100
AcDbBlockTableRecord
  2
*D1
  0
BLOCK_RECORD
  5
14EFC
330
1
100
AcDbSymbolTableRecord
100
AcDbBlockTableRecord
  2
*D2
  0
BLOCK_RECORD
  5
14F09
330
1
100
AcDbSymbolTableRecord
100
AcDbBlockTableRecord
  2
*D3
  0
BLOCK_RECORD
  5
14F16
330
1
100
AcDbSymbolTableRecord
100
AcDbBlockTableRecord
  2
*D4
  0
BLOCK_RECORD
  5
14F23
330
1
100
AcDbSymbolTableRecord
100
AcDbBlockTableRecord
  2
*D5
  0
BLOCK_RECORD
  5
14F30
330
1
100
AcDbSymbolTableRecord
100
AcDbBlockTableRecord
  2
*D6
  0
ENDTAB
  0
ENDSEC
  0
SECTION
  2
BLOCKS
  0
BLOCK
  5
1B
330
1A
100
AcDbEntity
  8
0
100
AcDbBlockBegin
  2
*MODEL_SPACE
 70
     0
 10
0.0
 20
0.0
 30
0.0
  3
*MODEL_SPACE
  1

  0
ENDBLK
  5
1C
330
1A
100
AcDbEntity
  8
0
100
AcDbBlockEnd
  0
BLOCK
  5
5E60
330
5D8E
100
AcDbEntity
 67
     1
  8
0
100
AcDbBlockBegin
  2
*PAPER_SPACE
 70
     0
 10
0.0
 20
0.0
 30
0.0
  3
*PAPER_SPACE
  1

  0
ENDBLK
  5
5E61
330
5D8E
100
AcDbEntity
 67
     1
  8
0
100
AcDbBlockEnd
  0
BLOCK
  5
14EDB
330
14ED1
100
AcDbEntity
  8
0
100
AcDbBlockBegin
  2
*D0
 70
     1
 10
0.0
 20
0.0
 30
0.0
  3
*D0
  1

  0
LINE
  5
150BF
330
14ED1
100
AcDbEntity
  8
SUNPOU
 62
     1
100
AcDbLine
 10
-1049.888842729366
 20
1595.669741430932
 30
0.0
 11
-1005.097374273652
 21
1595.669741430932
 31
0.0
  0
LINE
  5
150C0
330
14ED1
100
AcDbEntity
  8
SUNPOU
 62
     1
100
AcDbLine
 10
-1022.888842729364
 20
1604.169741430933
 30
0.0
 11
-1005.097374273652
 21
1604.169741430933
 31
0.0
  0
LINE
  5
150C1
330
14ED1
100
AcDbEntity
  8
SUNPOU
 62
     1
100
AcDbLine
 10
-1005.597374273653
 20
1598.669741430932
 30
0.0
 11
-1005.597374273653
 21
1601.169741430932
 31
0.0
  0
LINE
  5
150C2
330
14ED1
100
AcDbEntity
  8
SUNPOU
 62
     1
100
AcDbLine
 10
-1005.597374273653
 20
1583.567590712073
 30
0.0
 11
-1005.597374273653
 21
1595.669741430932
 31
0.0
  0
MTEXT
  5
150C3
330
14ED1
100
AcDbEntity
  8
SUNPOU
 62
     1
100
AcDbMText
 10
-1008.347374273653
 20
1588.067590712073
 30
0.0
 40
3.5
 41
0.0
 71
     5
 72
     1
  1
\A1;8.5
 11
0.0000000000000001
 21
1.0
 31
0.0
  0
SOLID
  5
150C4
330
14ED1
100
AcDbEntity
  8
SUNPOU
 62
     1
100
AcDbTrace
 10
-1006.097374273652
 20
1598.669741430932
 30
0.0
 11
-1005.097374273652
 21
1598.669741430932
 31
0.0
 12
-1005.597374273653
 22
1595.669741430932
 32
0.0
 13
-1005.597374273653
 23
1595.669741430932
 33
0.0
  0
SOLID
  5
150C5
330
14ED1
100
AcDbEntity
  8
SUNPOU
 62
     1
100
AcDbTrace
 10
-1006.097374273652
 20
1601.169741430932
 30
0.0
 11
-1005.097374273652
 21
1601.169741430932
 31
0.0
 12
-1005.597374273653
 22
1604.169741430933
 32
0.0
 13
-1005.597374273653
 23
1604.169741430933
 33
0.0
  0
POINT
  5
150C6
330
14ED1
100
AcDbEntity
  8
DEFPOINTS
 62
     0
100
AcDbPoint
 10
-1050.388842729365
 20
1595.669741430932
 30
0.0
  0
POINT
  5
150C7
330
14ED1
100
AcDbEntity
  8
DEFPOINTS
 62
     0
100
AcDbPoint
 10
-1023.388842729364
 20
1604.169741430933
 30
0.0
  0
POINT
  5
150C8
330
14ED1
100
AcDbEntity
  8
DEFPOINTS
 62
     0
100
AcDbPoint
 10
-1005.597374273653
 20
1604.169741430933
 30
0.0
  0
ENDBLK
  5
14EDC
330
14ED1
100
AcDbEntity
  8
0
100
AcDbBlockEnd
  0
BLOCK
  5
14EED
330
14EDE
100
AcDbEntity
  8
0
100
AcDbBlockBegin
  2
*D1
 70
     1
 10
0.0
 20
0.0
 30
0.0
  3
*D1
  1

  0
LINE
  5
150C9
330
14EDE
100
AcDbEntity
  8
SUNPOU
 62
     1
100
AcDbLine
 10
-1022.888842729364
 20
1604.169741430933
 30
0.0
 11
-1005.097374273652
 21
1604.169741430933
 31
0.0
  0
LINE
  5
150CA
330
14EDE
100
AcDbEntity
  8
SUNPOU
 62
     1
100
AcDbLine
 10
-1022.888842729364
 20
1607.169741430933
 30
0.0
 11
-1005.097374273652
 21
1607.169741430933
 31
0.0
  0
LINE
  5
150CB
330
14EDE
100
AcDbEntity
  8
SUNPOU
 62
     1
100
AcDbLine
 10
-1005.597374273653
 20
1601.169741430932
 30
0.0
 11
-1005.597374273653
 21
1598.169741430933
 31
0.0
  0
LINE
  5
150CC
330
14EDE
100
AcDbEntity
  8
SUNPOU
 62
     1
100
AcDbLine
 10
-1005.597374273653
 20
1610.169741430932
 30
0.0
 11
-1005.597374273653
 21
1613.169741430932
 31
0.0
  0
MTEXT
  5
150CD
330
14EDE
100
AcDbEntity
  8
SUNPOU
 62
     1
100
AcDbMText
 10
-1008.622941749168
 20
1611.300227815645
 30
0.0
 40
3.5
 41
0.0
 71
     5
 72
     1
  1
\A1;3
 11
0.0000000000000001
 21
1.0
 31
0.0
  0
LINE
  5
150CE
330
14EDE
100
AcDbEntity
  8
SUNPOU
 62
     1
100
AcDbLine
 10
-1005.597374273653
 20
1604.169741430933
 30
0.0
 11
-1005.597374273653
 21
1607.169741430933
 31
0.0
  0
SOLID
  5
150CF
330
14EDE
100
AcDbEntity
  8
SUNPOU
 62
     1
100
AcDbTrace
 10
-1006.097374273652
 20
1601.169741430932
 30
0.0
 11
-1005.097374273652
 21
1601.169741430932
 31
0.0
 12
-1005.597374273653
 22
1604.169741430933
 32
0.0
 13
-1005.597374273653
 23
1604.169741430933
 33
0.0
  0
SOLID
  5
150D0
330
14EDE
100
AcDbEntity
  8
SUNPOU
 62
     1
100
AcDbTrace
 10
-1006.097374273652
 20
1610.169741430932
 30
0.0
 11
-1005.097374273652
 21
1610.169741430932
 31
0.0
 12
-1005.597374273653
 22
1607.169741430933
 32
0.0
 13
-1005.597374273653
 23
1607.169741430933
 33
0.0
  0
POINT
  5
150D1
330
14EDE
100
AcDbEntity
  8
DEFPOINTS
 62
     0
100
AcDbPoint
 10
-1023.388842729364
 20
1604.169741430933
 30
0.0
  0
POINT
  5
150D2
330
14EDE
100
AcDbEntity
  8
DEFPOINTS
 62
     0
100
AcDbPoint
 10
-1023.388842729364
 20
1607.169741430933
 30
0.0
  0
POINT
  5
150D3
330
14EDE
100
AcDbEntity
  8
DEFPOINTS
 62
     0
100
AcDbPoint
 10
-1005.597374273653
 20
1607.169741430933
 30
0.0
  0
ENDBLK
  5
14EEE
330
14EDE
100
AcDbEntity
  8
0
100
AcDbBlockEnd
  0
BLOCK
  5
14F06
330
14EFC
100
AcDbEntity
  8
0
100
AcDbBlockBegin
  2
*D2
 70
     1
 10
0.0
 20
0.0
 30
0.0
  3
*D2
  1

  0
LINE
  5
14FB5
330
14EFC
100
AcDbEntity
  8
SUNPOU
 62
     1
100
AcDbLine
 10
-1023.888842729363
 20
1672.56651737868
 30
0.0
 11
-1005.181042297082
 21
1672.56651737868
 31
0.0
  0
LINE
  5
14FB6
330
14EFC
100
AcDbEntity
  8
SUNPOU
 62
     1
100
AcDbLine
 10
-1023.888842729363
 20
1716.566517378681
 30
0.0
 11
-1005.181042297082
 21
1716.566517378681
 31
0.0
  0
LINE
  5
14FB7
330
14EFC
100
AcDbEntity
  8
SUNPOU
 62
     1
100
AcDbLine
 10
-1005.681042297082
 20
1675.56651737868
 30
0.0
 11
-1005.681042297082
 21
1713.566517378681
 31
0.0
  0
SOLID
  5
14FB8
330
14EFC
100
AcDbEntity
  8
SUNPOU
 62
     1
100
AcDbTrace
 10
-1006.181042297082
 20
1675.56651737868
 30
0.0
 11
-1005.181042297082
 21
1675.56651737868
 31
0.0
 12
-1005.681042297082
 22
1672.56651737868
 32
0.0
 13
-1005.681042297082
 23
1672.56651737868
 33
0.0
  0
SOLID
  5
14FB9
330
14EFC
100
AcDbEntity
  8
SUNPOU
 62
     1
100
AcDbTrace
 10
-1006.181042297082
 20
1713.566517378681
 30
0.0
 11
-1005.181042297082
 21
1713.566517378681
 31
0.0
 12
-1005.681042297082
 22
1716.566517378681
 32
0.0
 13
-1005.681042297082
 23
1716.566517378681
 33
0.0
  0
MTEXT
  5
14FBA
330
14EFC
100
AcDbEntity
  8
SUNPOU
 62
     1
100
AcDbMText
 10
-1008.431042297082
 20
1694.56651737868
 30
0.0
 40
3.5
 41
0.0
 71
     5
 72
     1
  1
\A1;44
 11
0.0000000000000001
 21
1.0
 31
0.0
1001
ACAD
1000
MTEXTBEGIN
1070
    73
1070
     1
1070
    44
1040
1.0
1070
    74
1070
     0
1000
MTEXTEND
1000
MTEXTBEGIN
1070
    73
1070
     1
1070
    44
1040
1.0
1070
    74
1070
     0
1000
MTEXTEND
  0
POINT
  5
14FBB
330
14EFC
100
AcDbEntity
  8
DEFPOINTS
 62
     0
100
AcDbPoint
 10
-1024.388842729364
 20
1672.56651737868
 30
0.0
  0
POINT
  5
14FBC
330
14EFC
100
AcDbEntity
  8
DEFPOINTS
 62
     0
100
AcDbPoint
 10
-1024.388842729364
 20
1716.566517378681
 30
0.0
  0
POINT
  5
14FBD
330
14EFC
100
AcDbEntity
  8
DEFPOINTS
 62
     0
100
AcDbPoint
 10
-1005.681042297082
 20
1716.566517378681
 30
0.0
  0
ENDBLK
  5
14F07
330
14EFC
100
AcDbEntity
  8
0
100
AcDbBlockEnd
  0
BLOCK
  5
14F13
330
14F09
100
AcDbEntity
  8
0
100
AcDbBlockBegin
  2
*D3
 70
     1
 10
0.0
 20
0.0
 30
0.0
  3
*D3
  1

  0
LINE
  5
150D4
330
14F09
100
AcDbEntity
  8
SUNPOU
 62
     1
100
AcDbLine
 10
-1144.488842729365
 20
1684.56651737868
 30
0.0
 11
-1144.488842729365
 21
1662.857599444948
 31
0.0
  0
LINE
  5
150D5
330
14F09
100
AcDbEntity
  8
SUNPOU
 62
     1
100
AcDbLine
 10
-1056.488842729365
 20
1677.56651737868
 30
0.0
 11
-1056.488842729365
 21
1662.857599444948
 31
0.0
  0
LINE
  5
150D6
330
14F09
100
AcDbEntity
  8
SUNPOU
 62
     1
100
AcDbLine
 10
-1141.488842729365
 20
1663.357599444948
 30
0.0
 11
-1059.488842729365
 21
1663.357599444948
 31
0.0
  0
MTEXT
  5
150D7
330
14F09
100
AcDbEntity
  8
SUNPOU
 62
     1
100
AcDbMText
 10
-1133.602233312838
 20
1666.465283762259
 30
0.0
 40
3.5
 41
0.0
 71
     5
 72
     1
  1
\A1;88
  0
SOLID
  5
150D8
330
14F09
100
AcDbEntity
  8
SUNPOU
 62
     1
100
AcDbTrace
 10
-1141.488842729365
 20
1663.857599444948
 30
0.0
 11
-1141.488842729365
 21
1662.857599444948
 31
0.0
 12
-1144.488842729365
 22
1663.357599444948
 32
0.0
 13
-1144.488842729365
 23
1663.357599444948
 33
0.0
  0
SOLID
  5
150D9
330
14F09
100
AcDbEntity
  8
SUNPOU
 62
     1
100
AcDbTrace
 10
-1059.488842729365
 20
1663.857599444948
 30
0.0
 11
-1059.488842729365
 21
1662.857599444948
 31
0.0
 12
-1056.488842729365
 22
1663.357599444948
 32
0.0
 13
-1056.488842729365
 23
1663.357599444948
 33
0.0
  0
POINT
  5
150DA
330
14F09
100
AcDbEntity
  8
DEFPOINTS
 62
     0
100
AcDbPoint
 10
-1144.488842729365
 20
1685.06651737868
 30
0.0
  0
POINT
  5
150DB
330
14F09
100
AcDbEntity
  8
DEFPOINTS
 62
     0
100
AcDbPoint
 10
-1056.488842729365
 20
1678.06651737868
 30
0.0
  0
POINT
  5
150DC
330
14F09
100
AcDbEntity
  8
DEFPOINTS
 62
     0
100
AcDbPoint
 10
-1056.488842729365
 20
1663.357599444948
 30
0.0
  0
ENDBLK
  5
14F14
330
14F09
100
AcDbEntity
  8
0
100
AcDbBlockEnd
  0
BLOCK
  5
14F20
330
14F16
100
AcDbEntity
  8
0
100
AcDbBlockBegin
  2
*D4
 70
     1
 10
0.0
 20
0.0
 30
0.0
  3
*D4
  1

  0
LINE
  5
150DD
330
14F16
100
AcDbEntity
  8
SUNPOU
 62
     1
100
AcDbLine
 10
-1144.488842086858
 20
1675.566517378678
 30
0.0
 11
-1144.488842086858
 21
1653.887778252956
 31
0.0
  0
LINE
  5
150DE
330
14F16
100
AcDbEntity
  8
SUNPOU
 62
     1
100
AcDbLine
 10
-1043.488842729365
 20
1682.566517378679
 30
0.0
 11
-1043.488842729365
 21
1653.887778252956
 31
0.0
  0
LINE
  5
150DF
330
14F16
100
AcDbEntity
  8
SUNPOU
 62
     1
100
AcDbLine
 10
-1141.488842086858
 20
1654.387778252956
 30
0.0
 11
-1046.488842729365
 21
1654.387778252956
 31
0.0
  0
MTEXT
  5
150E0
330
14F16
100
AcDbEntity
  8
SUNPOU
 62
     1
100
AcDbMText
 10
-1133.763915735638
 20
1657.256977709695
 30
0.0
 40
3.5
 41
0.0
 71
     5
 72
     1
  1
\A1;101
  0
SOLID
  5
150E1
330
14F16
100
AcDbEntity
  8
SUNPOU
 62
     1
100
AcDbTrace
 10
-1141.488842086858
 20
1654.887778252955
 30
0.0
 11
-1141.488842086858
 21
1653.887778252956
 31
0.0
 12
-1144.488842086858
 22
1654.387778252956
 32
0.0
 13
-1144.488842086858
 23
1654.387778252956
 33
0.0
  0
SOLID
  5
150E2
330
14F16
100
AcDbEntity
  8
SUNPOU
 62
     1
100
AcDbTrace
 10
-1046.488842729365
 20
1654.887778252955
 30
0.0
 11
-1046.488842729365
 21
1653.887778252956
 31
0.0
 12
-1043.488842729365
 22
1654.387778252956
 32
0.0
 13
-1043.488842729365
 23
1654.387778252956
 33
0.0
  0
POINT
  5
150E3
330
14F16
100
AcDbEntity
  8
DEFPOINTS
 62
     0
100
AcDbPoint
 10
-1144.488842086858
 20
1676.066517378678
 30
0.0
  0
POINT
  5
150E4
330
14F16
100
AcDbEntity
  8
DEFPOINTS
 62
     0
100
AcDbPoint
 10
-1043.488842729365
 20
1683.066517378678
 30
0.0
  0
POINT
  5
150E5
330
14F16
100
AcDbEntity
  8
DEFPOINTS
 62
     0
100
AcDbPoint
 10
-1043.488842729365
 20
1654.387778252956
 30
0.0
  0
ENDBLK
  5
14F21
330
14F16
100
AcDbEntity
  8
0
100
AcDbBlockEnd
  0
BLOCK
  5
14F2D
330
14F23
100
AcDbEntity
  8
0
100
AcDbBlockBegin
  2
*D5
 70
     1
 10
0.0
 20
0.0
 30
0.0
  3
*D5
  1

  0
LINE
  5
150E6
330
14F23
100
AcDbEntity
  8
SUNPOU
 62
     1
100
AcDbLine
 10
-1144.488842086858
 20
1675.06651737868
 30
0.0
 11
-1144.488842086858
 21
1644.914044399151
 31
0.0
  0
LINE
  5
150E7
330
14F23
100
AcDbEntity
  8
SUNPOU
 62
     1
100
AcDbLine
 10
-1028.488842729365
 20
1682.566517378679
 30
0.0
 11
-1028.488842729365
 21
1644.914044399151
 31
0.0
  0
LINE
  5
150E8
330
14F23
100
AcDbEntity
  8
SUNPOU
 62
     1
100
AcDbLine
 10
-1141.488842086858
 20
1645.414044399152
 30
0.0
 11
-1031.488842729364
 21
1645.414044399152
 31
0.0
  0
MTEXT
  5
150E9
330
14F23
100
AcDbEntity
  8
SUNPOU
 62
     1
100
AcDbMText
 10
-1133.440550890039
 20
1648.210221285344
 30
0.0
 40
3.5
 41
0.0
 71
     5
 72
     1
  1
\A1;116
  0
SOLID
  5
150EA
330
14F23
100
AcDbEntity
  8
SUNPOU
 62
     1
100
AcDbTrace
 10
-1141.488842086858
 20
1645.914044399152
 30
0.0
 11
-1141.488842086858
 21
1644.914044399151
 31
0.0
 12
-1144.488842086858
 22
1645.414044399152
 32
0.0
 13
-1144.488842086858
 23
1645.414044399152
 33
0.0
  0
SOLID
  5
150EB
330
14F23
100
AcDbEntity
  8
SUNPOU
 62
     1
100
AcDbTrace
 10
-1031.488842729364
 20
1645.914044399152
 30
0.0
 11
-1031.488842729364
 21
1644.914044399151
 31
0.0
 12
-1028.488842729365
 22
1645.414044399152
 32
0.0
 13
-1028.488842729365
 23
1645.414044399152
 33
0.0
  0
POINT
  5
150EC
330
14F23
100
AcDbEntity
  8
DEFPOINTS
 62
     0
100
AcDbPoint
 10
-1144.488842086858
 20
1675.56651737868
 30
0.0
  0
POINT
  5
150ED
330
14F23
100
AcDbEntity
  8
DEFPOINTS
 62
     0
100
AcDbPoint
 10
-1028.488842729365
 20
1683.066517378678
 30
0.0
  0
POINT
  5
150EE
330
14F23
100
AcDbEntity
  8
DEFPOINTS
 62
     0
100
AcDbPoint
 10
-1028.488842729365
 20
1645.414044399152
 30
0.0
  0
ENDBLK
  5
14F2E
330
14F23
100
AcDbEntity
  8
0
100
AcDbBlockEnd
  0
BLOCK
  5
14F3A
330
14F30
100
AcDbEntity
  8
0
100
AcDbBlockBegin
  2
*D6
 70
     1
 10
0.0
 20
0.0
 30
0.0
  3
*D6
  1

  0
LINE
  5
14F91
330
14F30
100
AcDbEntity
  8
SUNPOU
 62
     1
100
AcDbLine
 10
-1148.888842729364
 20
1673.06651737868
 30
0.0
 11
-1148.888842729364
 21
1631.209895415437
 31
0.0
  0
LINE
  5
14F92
330
14F30
100
AcDbEntity
  8
SUNPOU
 62
     1
100
AcDbLine
 10
-1023.388842729364
 20
1673.06651737868
 30
0.0
 11
-1023.388842729364
 21
1631.209895415437
 31
0.0
  0
LINE
  5
14F93
330
14F30
100
AcDbEntity
  8
SUNPOU
 62
     1
100
AcDbLine
 10
-1145.888842729364
 20
1631.709895415436
 30
0.0
 11
-1026.388842729365
 21
1631.709895415436
 31
0.0
  0
SOLID
  5
14F94
330
14F30
100
AcDbEntity
  8
SUNPOU
 62
     1
100
AcDbTrace
 10
-1145.888842729364
 20
1632.209895415437
 30
0.0
 11
-1145.888842729364
 21
1631.209895415437
 31
0.0
 12
-1148.888842729364
 22
1631.709895415436
 32
0.0
 13
-1148.888842729364
 23
1631.709895415436
 33
0.0
  0
SOLID
  5
14F95
330
14F30
100
AcDbEntity
  8
SUNPOU
 62
     1
100
AcDbTrace
 10
-1026.388842729365
 20
1632.209895415437
 30
0.0
 11
-1026.388842729365
 21
1631.209895415437
 31
0.0
 12
-1023.388842729364
 22
1631.709895415436
 32
0.0
 13
-1023.388842729364
 23
1631.709895415436
 33
0.0
  0
MTEXT
  5
14F96
330
14F30
100
AcDbEntity
  8
SUNPOU
 62
     1
100
AcDbMText
 10
-1086.138842729364
 20
1634.459895415437
 30
0.0
 40
3.5
 41
0.0
 71
     5
 72
     1
  1
\A1;125.5
1001
ACAD
1000
MTEXTBEGIN
1070
    73
1070
     1
1070
    44
1040
1.0
1070
    74
1070
     0
1000
MTEXTEND
1000
MTEXTBEGIN
1070
    73
1070
     1
1070
    44
1040
1.0
1070
    74
1070
     0
1000
MTEXTEND
  0
POINT
  5
14F97
330
14F30
100
AcDbEntity
  8
DEFPOINTS
 62
     0
100
AcDbPoint
 10
-1148.888842729364
 20
1673.56651737868
 30
0.0
  0
POINT
  5
14F98
330
14F30
100
AcDbEntity
  8
DEFPOINTS
 62
     0
100
AcDbPoint
 10
-1023.388842729364
 20
1673.56651737868
 30
0.0
  0
POINT
  5
14F99
330
14F30
100
AcDbEntity
  8
DEFPOINTS
 62
     0
100
AcDbPoint
 10
-1023.388842729364
 20
1631.709895415436
 30
0.0
  0
ENDBLK
  5
14F3B
330
14F30
100
AcDbEntity
  8
0
100
AcDbBlockEnd
  0
ENDSEC
  0
SECTION
  2
ENTITIES
  0
MTEXT
  5
5084
330
1A
100
AcDbEntity
  8
0
100
AcDbMText
 10
1985.239088685434
 20
-948.5420423450428
 30
0.0
 40
8.0
 41
0.0
 71
     7
 72
     5
  1

1001
ACAD
1000
MTEXTBEGIN
1070
    73
1070
     1
1070
    44
1040
1.0
1070
    74
1070
     0
1000
MTEXTEND
1000
MTEXTBEGIN
1070
    73
1070
     1
1070
    44
1040
1.0
1070
    74
1070
     0
1000
MTEXTEND
  0
MTEXT
  5
5085
330
1A
100
AcDbEntity
  8
0
100
AcDbMText
 10
4270.596778580329
 20
22.24825240601648
 30
0.0
 40
8.0
 41
0.0
 71
     7
 72
     5
  1

1001
ACAD
1000
MTEXTBEGIN
1070
    73
1070
     1
1070
    44
1040
1.0
1070
    74
1070
     0
1000
MTEXTEND
1000
MTEXTBEGIN
1070
    73
1070
     1
1070
    44
1040
1.0
1070
    74
1070
     0
1000
MTEXTEND
  0
MTEXT
  5
5343
330
1A
100
AcDbEntity
  8
SUNPOU
100
AcDbMText
 10
6936.493799262471
 20
9534.359644781137
 30
0.0
 40
10.5
 41
0.0
 71
     1
 72
     5
  1

1001
ACAD
1000
MTEXTBEGIN
1070
    73
1070
     1
1070
    44
1040
1.0
1070
    74
1070
     0
1000
MTEXTEND
1000
MTEXTBEGIN
1070
    73
1070
     1
1070
    44
1040
1.0
1070
    74
1070
     0
1000
MTEXTEND
  0
MTEXT
  5
544F
330
1A
100
AcDbEntity
  8
0
100
AcDbMText
 10
16317.2832773148
 20
12833.35428897674
 30
0.0
 40
8.0
 41
0.0
 71
     7
 72
     5
  1

1001
ACAD
1000
MTEXTBEGIN
1070
    73
1070
     1
1070
    44
1040
1.0
1070
    74
1070
     0
1000
MTEXTEND
1000
MTEXTBEGIN
1070
    73
1070
     1
1070
    44
1040
1.0
1070
    74
1070
     0
1000
MTEXTEND
  0
MTEXT
  5
5450
330
1A
100
AcDbEntity
  8
0
100
AcDbMText
 10
18602.64096720968
 20
13804.1445837278
 30
0.0
 40
8.0
 41
0.0
 71
     7
 72
     5
  1

1001
ACAD
1000
MTEXTBEGIN
1070
    73
1070
     1
1070
    44
1040
1.0
1070
    74
1070
     0
1000
MTEXTEND
1000
MTEXTBEGIN
1070
    73
1070
     1
1070
    44
1040
1.0
1070
    74
1070
     0
1000
MTEXTEND
  0
MTEXT
  5
5451
330
1A
100
AcDbEntity
  8
SUNPOU
100
AcDbMText
 10
21268.53798789184
 20
23316.25597610292
 30
0.0
 40
10.5
 41
0.0
 71
     1
 72
     5
  1

1001
ACAD
1000
MTEXTBEGIN
1070
    73
1070
     1
1070
    44
1040
1.0
1070
    74
1070
     0
1000
MTEXTEND
1000
MTEXTBEGIN
1070
    73
1070
     1
1070
    44
1040
1.0
1070
    74
1070
     0
1000
MTEXTEND
  0
MTEXT
  5
5452
330
1A
100
AcDbEntity
  8
SUNPOU
100
AcDbMText
 10
13337.6147919559
 20
22369.46284218996
 30
0.0
 40
10.5
 41
0.0
 71
     7
 72
     5
  1

1001
ACAD
1000
MTEXTBEGIN
1070
    73
1070
     1
1070
    44
1040
1.0
1070
    74
1070
     0
1000
MTEXTEND
1000
MTEXTBEGIN
1070
    73
1070
     1
1070
    44
1040
1.0
1070
    74
1070
     0
1000
MTEXTEND
  0
MTEXT
  5
5453
330
1A
100
AcDbEntity
  8
SUNPOU
100
AcDbMText
 10
16286.59845646867
 20
27270.1389140328
 30
0.0
 40
10.5
 41
0.0
 71
     7
 72
     5
  1

1001
ACAD
1000
MTEXTBEGIN
1070
    73
1070
     1
1070
    44
1040
1.0
1070
    74
1070
     0
1000
MTEXTEND
1000
MTEXTBEGIN
1070
    73
1070
     1
1070
    44
1040
1.0
1070
    74
1070
     0
1000
MTEXTEND
  0
MTEXT
  5
5454
330
1A
100
AcDbEntity
  8
SUNPOU
100
AcDbMText
 10
20795.67658441924
 20
29706.43966165288
 30
0.0
 40
10.5
 41
0.0
 71
     7
 72
     5
  1

1001
ACAD
1000
MTEXTBEGIN
1070
    73
1070
     1
1070
    44
1040
1.0
1070
    74
1070
     0
1000
MTEXTEND
1000
MTEXTBEGIN
1070
    73
1070
     1
1070
    44
1040
1.0
1070
    74
1070
     0
1000
MTEXTEND
  0
MTEXT
  5
5455
330
1A
100
AcDbEntity
  8
0
100
AcDbMText
 10
16611.93789220313
 20
14707.52144344448
 30
0.0
 40
8.0
 41
0.0
 71
     7
 72
     5
  1

1001
ACAD
1000
MTEXTBEGIN
1070
    73
1070
     1
1070
    44
1040
1.0
1070
    74
1070
     0
1000
MTEXTEND
1000
MTEXTBEGIN
1070
    73
1070
     1
1070
    44
1040
1.0
1070
    74
1070
     0
1000
MTEXTEND
  0
MTEXT
  5
5456
330
1A
100
AcDbEntity
  8
0
100
AcDbMText
 10
18897.29558209803
 20
15678.31173819554
 30
0.0
 40
8.0
 41
0.0
 71
     7
 72
     5
  1

1001
ACAD
1000
MTEXTBEGIN
1070
    73
1070
     1
1070
    44
1040
1.0
1070
    74
1070
     0
1000
MTEXTEND
1000
MTEXTBEGIN
1070
    73
1070
     1
1070
    44
1040
1.0
1070
    74
1070
     0
1000
MTEXTEND
  0
MTEXT
  5
5457
330
1A
100
AcDbEntity
  8
SUNPOU
100
AcDbMText
 10
21563.19260278019
 20
25190.42313057066
 30
0.0
 40
10.5
 41
0.0
 71
     1
 72
     5
  1

1001
ACAD
1000
MTEXTBEGIN
1070
    73
1070
     1
1070
    44
1040
1.0
1070
    74
1070
     0
1000
MTEXTEND
1000
MTEXTBEGIN
1070
    73
1070
     1
1070
    44
1040
1.0
1070
    74
1070
     0
1000
MTEXTEND
  0
MTEXT
  5
5458
330
1A
100
AcDbEntity
  8
SUNPOU
100
AcDbMText
 10
13632.26940684425
 20
24243.6299966577
 30
0.0
 40
10.5
 41
0.0
 71
     7
 72
     5
  1

1001
ACAD
1000
MTEXTBEGIN
1070
    73
1070
     1
1070
    44
1040
1.0
1070
    74
1070
     0
1000
MTEXTEND
1000
MTEXTBEGIN
1070
    73
1070
     1
1070
    44
1040
1.0
1070
    74
1070
     0
1000
MTEXTEND
  0
MTEXT
  5
5459
330
1A
100
AcDbEntity
  8
SUNPOU
100
AcDbMText
 10
16581.25307135702
 20
29144.30606850055
 30
0.0
 40
10.5
 41
0.0
 71
     7
 72
     5
  1

1001
ACAD
1000
MTEXTBEGIN
1070
    73
1070
     1
1070
    44
1040
1.0
1070
    74
1070
     0
1000
MTEXTEND
1000
MTEXTBEGIN
1070
    73
1070
     1
1070
    44
1040
1.0
1070
    74
1070
     0
1000
MTEXTEND
  0
MTEXT
  5
545A
330
1A
100
AcDbEntity
  8
SUNPOU
100
AcDbMText
 10
21090.33119930759
 20
31580.60681612062
 30
0.0
 40
10.5
 41
0.0
 71
     7
 72
     5
  1

1001
ACAD
1000
MTEXTBEGIN
1070
    73
1070
     1
1070
    44
1040
1.0
1070
    74
1070
     0
1000
MTEXTEND
1000
MTEXTBEGIN
1070
    73
1070
     1
1070
    44
1040
1.0
1070
    74
1070
     0
1000
MTEXTEND
  0
MTEXT
  5
545B
330
1A
100
AcDbEntity
  8
0
100
AcDbMText
 10
22871.60517627166
 20
23974.88367124799
 30
0.0
 40
8.0
 41
0.0
 71
     7
 72
     5
  1

1001
ACAD
1000
MTEXTBEGIN
1070
    73
1070
     1
1070
    44
1040
1.0
1070
    74
1070
     0
1000
MTEXTEND
1000
MTEXTBEGIN
1070
    73
1070
     1
1070
    44
1040
1.0
1070
    74
1070
     0
1000
MTEXTEND
  0
MTEXT
  5
545C
330
1A
100
AcDbEntity
  8
0
100
AcDbMText
 10
25156.96286616656
 20
24945.67396599905
 30
0.0
 40
8.0
 41
0.0
 71
     7
 72
     5
  1

1001
ACAD
1000
MTEXTBEGIN
1070
    73
1070
     1
1070
    44
1040
1.0
1070
    74
1070
     0
1000
MTEXTEND
1000
MTEXTBEGIN
1070
    73
1070
     1
1070
    44
1040
1.0
1070
    74
1070
     0
1000
MTEXTEND
  0
MTEXT
  5
545D
330
1A
100
AcDbEntity
  8
SUNPOU
100
AcDbMText
 10
27822.85988684871
 20
34457.78535837418
 30
0.0
 40
10.5
 41
0.0
 71
     1
 72
     5
  1

1001
ACAD
1000
MTEXTBEGIN
1070
    73
1070
     1
1070
    44
1040
1.0
1070
    74
1070
     0
1000
MTEXTEND
1000
MTEXTBEGIN
1070
    73
1070
     1
1070
    44
1040
1.0
1070
    74
1070
     0
1000
MTEXTEND
  0
MTEXT
  5
545E
330
1A
100
AcDbEntity
  8
SUNPOU
100
AcDbMText
 10
19891.93669091278
 20
33510.99222446122
 30
0.0
 40
10.5
 41
0.0
 71
     7
 72
     5
  1

1001
ACAD
1000
MTEXTBEGIN
1070
    73
1070
     1
1070
    44
1040
1.0
1070
    74
1070
     0
1000
MTEXTEND
1000
MTEXTBEGIN
1070
    73
1070
     1
1070
    44
1040
1.0
1070
    74
1070
     0
1000
MTEXTEND
  0
MTEXT
  5
545F
330
1A
100
AcDbEntity
  8
SUNPOU
100
AcDbMText
 10
22840.92035542555
 20
38411.66829630406
 30
0.0
 40
10.5
 41
0.0
 71
     7
 72
     5
  1

1001
ACAD
1000
MTEXTBEGIN
1070
    73
1070
     1
1070
    44
1040
1.0
1070
    74
1070
     0
1000
MTEXTEND
1000
MTEXTBEGIN
1070
    73
1070
     1
1070
    44
1040
1.0
1070
    74
1070
     0
1000
MTEXTEND
  0
MTEXT
  5
5460
330
1A
100
AcDbEntity
  8
SUNPOU
100
AcDbMText
 10
27349.99848337611
 20
40847.96904392415
 30
0.0
 40
10.5
 41
0.0
 71
     7
 72
     5
  1

1001
ACAD
1000
MTEXTBEGIN
1070
    73
1070
     1
1070
    44
1040
1.0
1070
    74
1070
     0
1000
MTEXTEND
1000
MTEXTBEGIN
1070
    73
1070
     1
1070
    44
1040
1.0
1070
    74
1070
     0
1000
MTEXTEND
  0
MTEXT
  5
55B7
330
1A
100
AcDbEntity
  8
SUNPOU
100
AcDbMText
 10
67424.23923338197
 20
64463.86602884816
 30
0.0
 40
10.5
 41
0.0
 71
     9
 72
     5
  1

1001
ACAD
1000
MTEXTBEGIN
1070
    73
1070
     1
1070
    44
1040
1.0
1070
    74
1070
     0
1000
MTEXTEND
1000
MTEXTBEGIN
1070
    73
1070
     1
1070
    44
1040
1.0
1070
    74
1070
     0
1000
MTEXTEND
  0
MTEXT
  5
55B8
330
1A
100
AcDbEntity
  8
SUNPOU
100
AcDbMText
 10
76146.40679929998
 20
71879.70056038563
 30
0.0
 40
10.5
 41
0.0
 71
     9
 72
     5
  1

1001
ACAD
1000
MTEXTBEGIN
1070
    73
1070
     1
1070
    44
1040
1.0
1070
    74
1070
     0
1000
MTEXTEND
1000
MTEXTBEGIN
1070
    73
1070
     1
1070
    44
1040
1.0
1070
    74
1070
     0
1000
MTEXTEND
  0
MTEXT
  5
55B9
330
1A
100
AcDbEntity
  8
SUNPOU
100
AcDbMText
 10
95100.16551662994
 20
89346.27661287766
 30
0.0
 40
10.5
 41
0.0
 71
     9
 72
     5
  1

1001
ACAD
1000
MTEXTBEGIN
1070
    73
1070
     1
1070
    44
1040
1.0
1070
    74
1070
     0
1000
MTEXTEND
1000
MTEXTBEGIN
1070
    73
1070
     1
1070
    44
1040
1.0
1070
    74
1070
     0
1000
MTEXTEND
  0
MTEXT
  5
55BA
330
1A
100
AcDbEntity
  8
SUNPOU
100
AcDbMText
 10
97043.57276333935
 20
87545.22753299966
 30
0.0
 40
3.5
 41
0.0
 71
     9
 72
     5
  1

1001
ACAD
1000
MTEXTBEGIN
1070
    73
1070
     1
1070
    44
1040
1.0
1070
    74
1070
     0
1000
MTEXTEND
1000
MTEXTBEGIN
1070
    73
1070
     1
1070
    44
1040
1.0
1070
    74
1070
     0
1000
MTEXTEND
  0
MTEXT
  5
55BB
330
1A
100
AcDbEntity
  8
SUNPOU
100
AcDbMText
 10
128169.7525959589
 20
130040.1732006569
 30
0.0
 40
10.5
 41
0.0
 71
     9
 72
     5
  1

1001
ACAD
1000
MTEXTBEGIN
1070
    73
1070
     1
1070
    44
1040
1.0
1070
    74
1070
     0
1000
MTEXTEND
1000
MTEXTBEGIN
1070
    73
1070
     1
1070
    44
1040
1.0
1070
    74
1070
     0
1000
MTEXTEND
  0
MTEXT
  5
55BC
330
1A
100
AcDbEntity
  8
SUNPOU
100
AcDbMText
 10
130113.1598426684
 20
128239.1241207789
 30
0.0
 40
3.5
 41
0.0
 71
     9
 72
     5
  1

1001
ACAD
1000
MTEXTBEGIN
1070
    73
1070
     1
1070
    44
1040
1.0
1070
    74
1070
     0
1000
MTEXTEND
1000
MTEXTBEGIN
1070
    73
1070
     1
1070
    44
1040
1.0
1070
    74
1070
     0
1000
MTEXTEND
  0
MTEXT
  5
55BD
330
1A
100
AcDbEntity
  8
SUNPOU
100
AcDbMText
 10
78610.02030175463
 20
75873.33835563206
 30
0.0
 40
10.5
 41
0.0
 71
     9
 72
     5
  1

1001
ACAD
1000
MTEXTBEGIN
1070
    73
1070
     1
1070
    44
1040
1.0
1070
    74
1070
     0
1000
MTEXTEND
1000
MTEXTBEGIN
1070
    73
1070
     1
1070
    44
1040
1.0
1070
    74
1070
     0
1000
MTEXTEND
  0
MTEXT
  5
55BE
330
1A
100
AcDbEntity
  8
SUNPOU
100
AcDbMText
 10
64662.02020137862
 20
56700.93921651987
 30
0.0
 40
3.5
 41
0.0
 71
     7
 72
     5
  1

1001
ACAD
1000
MTEXTBEGIN
1070
    73
1070
     1
1070
    44
1040
1.0
1070
    74
1070
     0
1000
MTEXTEND
1000
MTEXTBEGIN
1070
    73
1070
     1
1070
    44
1040
1.0
1070
    74
1070
     0
1000
MTEXTEND
  0
MTEXT
  5
55BF
330
1A
100
AcDbEntity
  8
SUNPOU
100
AcDbMText
 10
45647.18959837177
 20
44463.08794733806
 30
0.0
 40
10.5
 41
0.0
 71
     7
 72
     5
  1

1001
ACAD
1000
MTEXTBEGIN
1070
    73
1070
     1
1070
    44
1040
1.0
1070
    74
1070
     0
1000
MTEXTEND
1000
MTEXTBEGIN
1070
    73
1070
     1
1070
    44
1040
1.0
1070
    74
1070
     0
1000
MTEXTEND
  0
MTEXT
  5
55C0
330
1A
100
AcDbEntity
  8
SUNPOU
100
AcDbMText
 10
33189.96133342368
 20
28618.15636923965
 30
0.0
 40
35.0
 41
0.0
 71
     9
 72
     5
  1

1001
ACAD
1000
MTEXTBEGIN
1070
    73
1070
     1
1070
    44
1040
1.0
1070
    74
1070
     0
1000
MTEXTEND
1000
MTEXTBEGIN
1070
    73
1070
     1
1070
    44
1040
1.0
1070
    74
1070
     0
1000
MTEXTEND
  0
MTEXT
  5
55C1
330
1A
100
AcDbEntity
  8
SUNPOU
100
AcDbMText
 10
32098.44639099864
 20
29226.93177928834
 30
0.0
 40
350.0000004171781
 41
0.0
 71
     7
 72
     5
  1

1001
ACAD
1000
MTEXTBEGIN
1070
    73
1070
     1
1070
    44
1040
1.0
1070
    74
1070
     0
1000
MTEXTEND
1000
MTEXTBEGIN
1070
    73
1070
     1
1070
    44
1040
1.0
1070
    74
1070
     0
1000
MTEXTEND
  0
MTEXT
  5
55C2
330
1A
100
AcDbEntity
  8
0
100
AcDbMText
 10
38142.39714894154
 20
27206.85414142458
 30
0.0
 40
8.0
 41
0.0
 71
     7
 72
     5
  1

1001
ACAD
1000
MTEXTBEGIN
1070
    73
1070
     1
1070
    44
1040
1.0
1070
    74
1070
     0
1000
MTEXTEND
1000
MTEXTBEGIN
1070
    73
1070
     1
1070
    44
1040
1.0
1070
    74
1070
     0
1000
MTEXTEND
  0
MTEXT
  5
55C3
330
1A
100
AcDbEntity
  8
0
100
AcDbMText
 10
40427.75483883644
 20
28177.64443617564
 30
0.0
 40
8.0
 41
0.0
 71
     7
 72
     5
  1

1001
ACAD
1000
MTEXTBEGIN
1070
    73
1070
     1
1070
    44
1040
1.0
1070
    74
1070
     0
1000
MTEXTEND
1000
MTEXTBEGIN
1070
    73
1070
     1
1070
    44
1040
1.0
1070
    74
1070
     0
1000
MTEXTEND
  0
MTEXT
  5
55C4
330
1A
100
AcDbEntity
  8
SUNPOU
100
AcDbMText
 10
43093.65185951858
 20
37689.75582855077
 30
0.0
 40
10.5
 41
0.0
 71
     1
 72
     5
  1

1001
ACAD
1000
MTEXTBEGIN
1070
    73
1070
     1
1070
    44
1040
1.0
1070
    74
1070
     0
1000
MTEXTEND
1000
MTEXTBEGIN
1070
    73
1070
     1
1070
    44
1040
1.0
1070
    74
1070
     0
1000
MTEXTEND
  0
MTEXT
  5
55C5
330
1A
100
AcDbEntity
  8
SUNPOU
100
AcDbMText
 10
35162.72866358265
 20
36742.96269463781
 30
0.0
 40
10.5
 41
0.0
 71
     7
 72
     5
  1

1001
ACAD
1000
MTEXTBEGIN
1070
    73
1070
     1
1070
    44
1040
1.0
1070
    74
1070
     0
1000
MTEXTEND
1000
MTEXTBEGIN
1070
    73
1070
     1
1070
    44
1040
1.0
1070
    74
1070
     0
1000
MTEXTEND
  0
MTEXT
  5
55C6
330
1A
100
AcDbEntity
  8
SUNPOU
100
AcDbMText
 10
38111.71232809542
 20
41643.63876648065
 30
0.0
 40
10.5
 41
0.0
 71
     7
 72
     5
  1

1001
ACAD
1000
MTEXTBEGIN
1070
    73
1070
     1
1070
    44
1040
1.0
1070
    74
1070
     0
1000
MTEXTEND
1000
MTEXTBEGIN
1070
    73
1070
     1
1070
    44
1040
1.0
1070
    74
1070
     0
1000
MTEXTEND
  0
MTEXT
  5
55C7
330
1A
100
AcDbEntity
  8
SUNPOU
100
AcDbMText
 10
42620.79045604596
 20
44079.93951410074
 30
0.0
 40
10.5
 41
0.0
 71
     7
 72
     5
  1

1001
ACAD
1000
MTEXTBEGIN
1070
    73
1070
     1
1070
    44
1040
1.0
1070
    74
1070
     0
1000
MTEXTEND
1000
MTEXTBEGIN
1070
    73
1070
     1
1070
    44
1040
1.0
1070
    74
1070
     0
1000
MTEXTEND
  0
MTEXT
  5
55C8
330
1A
100
AcDbEntity
  8
SUNPOU
100
AcDbMText
 10
26221.62834281429
 20
23077.53566448964
 30
0.0
 40
10.5
 41
0.0
 71
     7
 72
     5
  1

1001
ACAD
1000
MTEXTBEGIN
1070
    73
1070
     1
1070
    44
1040
1.0
1070
    74
1070
     0
1000
MTEXTEND
1000
MTEXTBEGIN
1070
    73
1070
     1
1070
    44
1040
1.0
1070
    74
1070
     0
1000
MTEXTEND
  0
MTEXT
  5
55C9
330
1A
100
AcDbEntity
  8
SUNPOU
100
AcDbMText
 10
77413.14677671455
 20
68750.51622813789
 30
0.0
 40
10.5
 41
0.0
 71
     9
 72
     5
  1

1001
ACAD
1000
MTEXTBEGIN
1070
    73
1070
     1
1070
    44
1040
1.0
1070
    74
1070
     0
1000
MTEXTEND
1000
MTEXTBEGIN
1070
    73
1070
     1
1070
    44
1040
1.0
1070
    74
1070
     0
1000
MTEXTEND
  0
MTEXT
  5
55CA
330
1A
100
AcDbEntity
  8
SUNPOU
100
AcDbMText
 10
86135.31434263256
 20
76166.35075967536
 30
0.0
 40
10.5
 41
0.0
 71
     9
 72
     5
  1

1001
ACAD
1000
MTEXTBEGIN
1070
    73
1070
     1
1070
    44
1040
1.0
1070
    74
1070
     0
1000
MTEXTEND
1000
MTEXTBEGIN
1070
    73
1070
     1
1070
    44
1040
1.0
1070
    74
1070
     0
1000
MTEXTEND
  0
MTEXT
  5
55CB
330
1A
100
AcDbEntity
  8
SUNPOU
100
AcDbMText
 10
105089.0730599624
 20
93632.92681216739
 30
0.0
 40
10.5
 41
0.0
 71
     9
 72
     5
  1

1001
ACAD
1000
MTEXTBEGIN
1070
    73
1070
     1
1070
    44
1040
1.0
1070
    74
1070
     0
1000
MTEXTEND
1000
MTEXTBEGIN
1070
    73
1070
     1
1070
    44
1040
1.0
1070
    74
1070
     0
1000
MTEXTEND
  0
MTEXT
  5
55CC
330
1A
100
AcDbEntity
  8
SUNPOU
100
AcDbMText
 10
107032.4803066718
 20
91831.87773228938
 30
0.0
 40
3.5
 41
0.0
 71
     9
 72
     5
  1

1001
ACAD
1000
MTEXTBEGIN
1070
    73
1070
     1
1070
    44
1040
1.0
1070
    74
1070
     0
1000
MTEXTEND
1000
MTEXTBEGIN
1070
    73
1070
     1
1070
    44
1040
1.0
1070
    74
1070
     0
1000
MTEXTEND
  0
MTEXT
  5
55CD
330
1A
100
AcDbEntity
  8
SUNPOU
100
AcDbMText
 10
138158.6601392916
 20
134326.8233999467
 30
0.0
 40
10.5
 41
0.0
 71
     9
 72
     5
  1

1001
ACAD
1000
MTEXTBEGIN
1070
    73
1070
     1
1070
    44
1040
1.0
1070
    74
1070
     0
1000
MTEXTEND
1000
MTEXTBEGIN
1070
    73
1070
     1
1070
    44
1040
1.0
1070
    74
1070
     0
1000
MTEXTEND
  0
MTEXT
  5
55CE
330
1A
100
AcDbEntity
  8
SUNPOU
100
AcDbMText
 10
140102.067386001
 20
132525.7743200686
 30
0.0
 40
3.5
 41
0.0
 71
     9
 72
     5
  1

1001
ACAD
1000
MTEXTBEGIN
1070
    73
1070
     1
1070
    44
1040
1.0
1070
    74
1070
     0
1000
MTEXTEND
1000
MTEXTBEGIN
1070
    73
1070
     1
1070
    44
1040
1.0
1070
    74
1070
     0
1000
MTEXTEND
  0
MTEXT
  5
55CF
330
1A
100
AcDbEntity
  8
SUNPOU
100
AcDbMText
 10
88598.92784508721
 20
80159.98855492179
 30
0.0
 40
10.5
 41
0.0
 71
     9
 72
     5
  1

1001
ACAD
1000
MTEXTBEGIN
1070
    73
1070
     1
1070
    44
1040
1.0
1070
    74
1070
     0
1000
MTEXTEND
1000
MTEXTBEGIN
1070
    73
1070
     1
1070
    44
1040
1.0
1070
    74
1070
     0
1000
MTEXTEND
  0
MTEXT
  5
55D0
330
1A
100
AcDbEntity
  8
SUNPOU
100
AcDbMText
 10
74650.92774471121
 20
60987.58941580959
 30
0.0
 40
3.5
 41
0.0
 71
     7
 72
     5
  1

1001
ACAD
1000
MTEXTBEGIN
1070
    73
1070
     1
1070
    44
1040
1.0
1070
    74
1070
     0
1000
MTEXTEND
1000
MTEXTBEGIN
1070
    73
1070
     1
1070
    44
1040
1.0
1070
    74
1070
     0
1000
MTEXTEND
  0
MTEXT
  5
55D1
330
1A
100
AcDbEntity
  8
SUNPOU
100
AcDbMText
 10
55636.09714170436
 20
48749.73814662781
 30
0.0
 40
10.5
 41
0.0
 71
     7
 72
     5
  1

1001
ACAD
1000
MTEXTBEGIN
1070
    73
1070
     1
1070
    44
1040
1.0
1070
    74
1070
     0
1000
MTEXTEND
1000
MTEXTBEGIN
1070
    73
1070
     1
1070
    44
1040
1.0
1070
    74
1070
     0
1000
MTEXTEND
  0
MTEXT
  5
55D2
330
1A
100
AcDbEntity
  8
SUNPOU
100
AcDbMText
 10
43178.86887675626
 20
32904.80656852937
 30
0.0
 40
35.0
 41
0.0
 71
     9
 72
     5
  1

1001
ACAD
1000
MTEXTBEGIN
1070
    73
1070
     1
1070
    44
1040
1.0
1070
    74
1070
     0
1000
MTEXTEND
1000
MTEXTBEGIN
1070
    73
1070
     1
1070
    44
1040
1.0
1070
    74
1070
     0
1000
MTEXTEND
  0
MTEXT
  5
55D3
330
1A
100
AcDbEntity
  8
SUNPOU
100
AcDbMText
 10
42087.3539343312
 20
33513.58197857808
 30
0.0
 40
350.0000004171781
 41
0.0
 71
     7
 72
     5
  1

1001
ACAD
1000
MTEXTBEGIN
1070
    73
1070
     1
1070
    44
1040
1.0
1070
    74
1070
     0
1000
MTEXTEND
1000
MTEXTBEGIN
1070
    73
1070
     1
1070
    44
1040
1.0
1070
    74
1070
     0
1000
MTEXTEND
  0
MTEXT
  5
55D4
330
1A
100
AcDbEntity
  8
0
100
AcDbMText
 10
48131.30469227412
 20
31493.50434071431
 30
0.0
 40
8.0
 41
0.0
 71
     7
 72
     5
  1

1001
ACAD
1000
MTEXTBEGIN
1070
    73
1070
     1
1070
    44
1040
1.0
1070
    74
1070
     0
1000
MTEXTEND
1000
MTEXTBEGIN
1070
    73
1070
     1
1070
    44
1040
1.0
1070
    74
1070
     0
1000
MTEXTEND
  0
MTEXT
  5
55D5
330
1A
100
AcDbEntity
  8
0
100
AcDbMText
 10
50416.66238216901
 20
32464.29463546537
 30
0.0
 40
8.0
 41
0.0
 71
     7
 72
     5
  1

1001
ACAD
1000
MTEXTBEGIN
1070
    73
1070
     1
1070
    44
1040
1.0
1070
    74
1070
     0
1000
MTEXTEND
1000
MTEXTBEGIN
1070
    73
1070
     1
1070
    44
1040
1.0
1070
    74
1070
     0
1000
MTEXTEND
  0
MTEXT
  5
55D6
330
1A
100
AcDbEntity
  8
SUNPOU
100
AcDbMText
 10
53082.55940285115
 20
41976.4060278405
 30
0.0
 40
10.5
 41
0.0
 71
     1
 72
     5
  1

1001
ACAD
1000
MTEXTBEGIN
1070
    73
1070
     1
1070
    44
1040
1.0
1070
    74
1070
     0
1000
MTEXTEND
1000
MTEXTBEGIN
1070
    73
1070
     1
1070
    44
1040
1.0
1070
    74
1070
     0
1000
MTEXTEND
  0
MTEXT
  5
55D7
330
1A
100
AcDbEntity
  8
SUNPOU
100
AcDbMText
 10
45151.63620691521
 20
41029.61289392755
 30
0.0
 40
10.5
 41
0.0
 71
     7
 72
     5
  1

1001
ACAD
1000
MTEXTBEGIN
1070
    73
1070
     1
1070
    44
1040
1.0
1070
    74
1070
     0
1000
MTEXTEND
1000
MTEXTBEGIN
1070
    73
1070
     1
1070
    44
1040
1.0
1070
    74
1070
     0
1000
MTEXTEND
  0
MTEXT
  5
55D8
330
1A
100
AcDbEntity
  8
SUNPOU
100
AcDbMText
 10
48100.61987142798
 20
45930.28896577039
 30
0.0
 40
10.5
 41
0.0
 71
     7
 72
     5
  1

1001
ACAD
1000
MTEXTBEGIN
1070
    73
1070
     1
1070
    44
1040
1.0
1070
    74
1070
     0
1000
MTEXTEND
1000
MTEXTBEGIN
1070
    73
1070
     1
1070
    44
1040
1.0
1070
    74
1070
     0
1000
MTEXTEND
  0
MTEXT
  5
55D9
330
1A
100
AcDbEntity
  8
SUNPOU
100
AcDbMText
 10
52609.69799937853
 20
48366.58971339046
 30
0.0
 40
10.5
 41
0.0
 71
     7
 72
     5
  1

1001
ACAD
1000
MTEXTBEGIN
1070
    73
1070
     1
1070
    44
1040
1.0
1070
    74
1070
     0
1000
MTEXTEND
1000
MTEXTBEGIN
1070
    73
1070
     1
1070
    44
1040
1.0
1070
    74
1070
     0
1000
MTEXTEND
  0
MTEXT
  5
55DA
330
1A
100
AcDbEntity
  8
SUNPOU
100
AcDbMText
 10
36210.53588614687
 20
27364.18586377937
 30
0.0
 40
10.5
 41
0.0
 71
     7
 72
     5
  1

1001
ACAD
1000
MTEXTBEGIN
1070
    73
1070
     1
1070
    44
1040
1.0
1070
    74
1070
     0
1000
MTEXTEND
1000
MTEXTBEGIN
1070
    73
1070
     1
1070
    44
1040
1.0
1070
    74
1070
     0
1000
MTEXTEND
  0
MTEXT
  5
55DB
330
1A
100
AcDbEntity
  8
SUNPOU
100
AcDbMText
 10
38021.29879752181
 20
33691.59985125794
 30
0.0
 40
10.5
 41
0.0
 71
     9
 72
     5
  1

1001
ACAD
1000
MTEXTBEGIN
1070
    73
1070
     1
1070
    44
1040
1.0
1070
    74
1070
     0
1000
MTEXTEND
1000
MTEXTBEGIN
1070
    73
1070
     1
1070
    44
1040
1.0
1070
    74
1070
     0
1000
MTEXTEND
  0
MTEXT
  5
55DC
330
1A
100
AcDbEntity
  8
SUNPOU
100
AcDbMText
 10
46743.46636343979
 20
41107.4343827954
 30
0.0
 40
10.5
 41
0.0
 71
     9
 72
     5
  1

1001
ACAD
1000
MTEXTBEGIN
1070
    73
1070
     1
1070
    44
1040
1.0
1070
    74
1070
     0
1000
MTEXTEND
1000
MTEXTBEGIN
1070
    73
1070
     1
1070
    44
1040
1.0
1070
    74
1070
     0
1000
MTEXTEND
  0
MTEXT
  5
55DD
330
1A
100
AcDbEntity
  8
SUNPOU
100
AcDbMText
 10
65697.22508076974
 20
58574.01043528746
 30
0.0
 40
10.5
 41
0.0
 71
     9
 72
     5
  1

1001
ACAD
1000
MTEXTBEGIN
1070
    73
1070
     1
1070
    44
1040
1.0
1070
    74
1070
     0
1000
MTEXTEND
1000
MTEXTBEGIN
1070
    73
1070
     1
1070
    44
1040
1.0
1070
    74
1070
     0
1000
MTEXTEND
  0
MTEXT
  5
55DE
330
1A
100
AcDbEntity
  8
SUNPOU
100
AcDbMText
 10
67640.63232747917
 20
56772.96135540945
 30
0.0
 40
3.5
 41
0.0
 71
     9
 72
     5
  1

1001
ACAD
1000
MTEXTBEGIN
1070
    73
1070
     1
1070
    44
1040
1.0
1070
    74
1070
     0
1000
MTEXTEND
1000
MTEXTBEGIN
1070
    73
1070
     1
1070
    44
1040
1.0
1070
    74
1070
     0
1000
MTEXTEND
  0
MTEXT
  5
55DF
330
1A
100
AcDbEntity
  8
SUNPOU
100
AcDbMText
 10
98766.81216009886
 20
99267.9070230668
 30
0.0
 40
10.5
 41
0.0
 71
     9
 72
     5
  1

1001
ACAD
1000
MTEXTBEGIN
1070
    73
1070
     1
1070
    44
1040
1.0
1070
    74
1070
     0
1000
MTEXTEND
1000
MTEXTBEGIN
1070
    73
1070
     1
1070
    44
1040
1.0
1070
    74
1070
     0
1000
MTEXTEND
  0
MTEXT
  5
55E0
330
1A
100
AcDbEntity
  8
SUNPOU
100
AcDbMText
 10
100710.2194068083
 20
97466.85794318876
 30
0.0
 40
3.5
 41
0.0
 71
     9
 72
     5
  1

1001
ACAD
1000
MTEXTBEGIN
1070
    73
1070
     1
1070
    44
1040
1.0
1070
    74
1070
     0
1000
MTEXTEND
1000
MTEXTBEGIN
1070
    73
1070
     1
1070
    44
1040
1.0
1070
    74
1070
     0
1000
MTEXTEND
  0
MTEXT
  5
55E1
330
1A
100
AcDbEntity
  8
SUNPOU
100
AcDbMText
 10
49207.07986589443
 20
45101.07217804184
 30
0.0
 40
10.5
 41
0.0
 71
     9
 72
     5
  1

1001
ACAD
1000
MTEXTBEGIN
1070
    73
1070
     1
1070
    44
1040
1.0
1070
    74
1070
     0
1000
MTEXTEND
1000
MTEXTBEGIN
1070
    73
1070
     1
1070
    44
1040
1.0
1070
    74
1070
     0
1000
MTEXTEND
  0
MTEXT
  5
55E2
330
1A
100
AcDbEntity
  8
SUNPOU
100
AcDbMText
 10
35259.07976551845
 20
25928.67303892964
 30
0.0
 40
3.5
 41
0.0
 71
     7
 72
     5
  1

1001
ACAD
1000
MTEXTBEGIN
1070
    73
1070
     1
1070
    44
1040
1.0
1070
    74
1070
     0
1000
MTEXTEND
1000
MTEXTBEGIN
1070
    73
1070
     1
1070
    44
1040
1.0
1070
    74
1070
     0
1000
MTEXTEND
  0
MTEXT
  5
55E3
330
1A
100
AcDbEntity
  8
SUNPOU
100
AcDbMText
 10
48951.43044828905
 20
35287.73625995099
 30
0.0
 40
10.5
 41
0.0
 71
     9
 72
     5
  1

1001
ACAD
1000
MTEXTBEGIN
1070
    73
1070
     1
1070
    44
1040
1.0
1070
    74
1070
     0
1000
MTEXTEND
1000
MTEXTBEGIN
1070
    73
1070
     1
1070
    44
1040
1.0
1070
    74
1070
     0
1000
MTEXTEND
  0
MTEXT
  5
55E4
330
1A
100
AcDbEntity
  8
SUNPOU
100
AcDbMText
 10
57673.59801420702
 20
42703.57079148847
 30
0.0
 40
10.5
 41
0.0
 71
     9
 72
     5
  1

1001
ACAD
1000
MTEXTBEGIN
1070
    73
1070
     1
1070
    44
1040
1.0
1070
    74
1070
     0
1000
MTEXTEND
1000
MTEXTBEGIN
1070
    73
1070
     1
1070
    44
1040
1.0
1070
    74
1070
     0
1000
MTEXTEND
  0
MTEXT
  5
55E5
330
1A
100
AcDbEntity
  8
SUNPOU
100
AcDbMText
 10
76627.35673153699
 20
60170.14684398051
 30
0.0
 40
10.5
 41
0.0
 71
     9
 72
     5
  1

1001
ACAD
1000
MTEXTBEGIN
1070
    73
1070
     1
1070
    44
1040
1.0
1070
    74
1070
     0
1000
MTEXTEND
1000
MTEXTBEGIN
1070
    73
1070
     1
1070
    44
1040
1.0
1070
    74
1070
     0
1000
MTEXTEND
  0
MTEXT
  5
55E6
330
1A
100
AcDbEntity
  8
SUNPOU
100
AcDbMText
 10
78570.76397824641
 20
58369.09776410251
 30
0.0
 40
3.5
 41
0.0
 71
     9
 72
     5
  1

1001
ACAD
1000
MTEXTBEGIN
1070
    73
1070
     1
1070
    44
1040
1.0
1070
    74
1070
     0
1000
MTEXTEND
1000
MTEXTBEGIN
1070
    73
1070
     1
1070
    44
1040
1.0
1070
    74
1070
     0
1000
MTEXTEND
  0
MTEXT
  5
55E7
330
1A
100
AcDbEntity
  8
SUNPOU
100
AcDbMText
 10
109696.943810866
 20
100864.0434317598
 30
0.0
 40
10.5
 41
0.0
 71
     9
 72
     5
  1

1001
ACAD
1000
MTEXTBEGIN
1070
    73
1070
     1
1070
    44
1040
1.0
1070
    74
1070
     0
1000
MTEXTEND
1000
MTEXTBEGIN
1070
    73
1070
     1
1070
    44
1040
1.0
1070
    74
1070
     0
1000
MTEXTEND
  0
MTEXT
  5
55E8
330
1A
100
AcDbEntity
  8
SUNPOU
100
AcDbMText
 10
111640.3510575755
 20
99062.99435188183
 30
0.0
 40
3.5
 41
0.0
 71
     9
 72
     5
  1

1001
ACAD
1000
MTEXTBEGIN
1070
    73
1070
     1
1070
    44
1040
1.0
1070
    74
1070
     0
1000
MTEXTEND
1000
MTEXTBEGIN
1070
    73
1070
     1
1070
    44
1040
1.0
1070
    74
1070
     0
1000
MTEXTEND
  0
MTEXT
  5
55E9
330
1A
100
AcDbEntity
  8
SUNPOU
100
AcDbMText
 10
60137.21151666167
 20
46697.20858673491
 30
0.0
 40
10.5
 41
0.0
 71
     9
 72
     5
  1

1001
ACAD
1000
MTEXTBEGIN
1070
    73
1070
     1
1070
    44
1040
1.0
1070
    74
1070
     0
1000
MTEXTEND
1000
MTEXTBEGIN
1070
    73
1070
     1
1070
    44
1040
1.0
1070
    74
1070
     0
1000
MTEXTEND
  0
MTEXT
  5
55EA
330
1A
100
AcDbEntity
  8
SUNPOU
100
AcDbMText
 10
46189.21141628568
 20
27524.80944762269
 30
0.0
 40
3.5
 41
0.0
 71
     7
 72
     5
  1

1001
ACAD
1000
MTEXTBEGIN
1070
    73
1070
     1
1070
    44
1040
1.0
1070
    74
1070
     0
1000
MTEXTEND
1000
MTEXTBEGIN
1070
    73
1070
     1
1070
    44
1040
1.0
1070
    74
1070
     0
1000
MTEXTEND
  0
MTEXT
  5
55EB
330
1A
100
AcDbEntity
  8
SUNPOU
100
AcDbMText
 10
45007.68847015541
 20
38269.57947701873
 30
0.0
 40
10.5
 41
0.0
 71
     9
 72
     5
  1

1001
ACAD
1000
MTEXTBEGIN
1070
    73
1070
     1
1070
    44
1040
1.0
1070
    74
1070
     0
1000
MTEXTEND
1000
MTEXTBEGIN
1070
    73
1070
     1
1070
    44
1040
1.0
1070
    74
1070
     0
1000
MTEXTEND
  0
MTEXT
  5
55EC
330
1A
100
AcDbEntity
  8
SUNPOU
100
AcDbMText
 10
63961.44718748539
 20
55736.15552951081
 30
0.0
 40
10.5
 41
0.0
 71
     9
 72
     5
  1

1001
ACAD
1000
MTEXTBEGIN
1070
    73
1070
     1
1070
    44
1040
1.0
1070
    74
1070
     0
1000
MTEXTEND
1000
MTEXTBEGIN
1070
    73
1070
     1
1070
    44
1040
1.0
1070
    74
1070
     0
1000
MTEXTEND
  0
MTEXT
  5
55ED
330
1A
100
AcDbEntity
  8
SUNPOU
100
AcDbMText
 10
65904.85443419479
 20
53935.10644963278
 30
0.0
 40
3.5
 41
0.0
 71
     9
 72
     5
  1

1001
ACAD
1000
MTEXTBEGIN
1070
    73
1070
     1
1070
    44
1040
1.0
1070
    74
1070
     0
1000
MTEXTEND
1000
MTEXTBEGIN
1070
    73
1070
     1
1070
    44
1040
1.0
1070
    74
1070
     0
1000
MTEXTEND
  0
MTEXT
  5
55EE
330
1A
100
AcDbEntity
  8
SUNPOU
100
AcDbMText
 10
97031.03426681453
 20
96430.05211729015
 30
0.0
 40
10.5
 41
0.0
 71
     9
 72
     5
  1

1001
ACAD
1000
MTEXTBEGIN
1070
    73
1070
     1
1070
    44
1040
1.0
1070
    74
1070
     0
1000
MTEXTEND
1000
MTEXTBEGIN
1070
    73
1070
     1
1070
    44
1040
1.0
1070
    74
1070
     0
1000
MTEXTEND
  0
MTEXT
  5
55EF
330
1A
100
AcDbEntity
  8
SUNPOU
100
AcDbMText
 10
98974.44151352393
 20
94629.00303741212
 30
0.0
 40
3.5
 41
0.0
 71
     9
 72
     5
  1

1001
ACAD
1000
MTEXTBEGIN
1070
    73
1070
     1
1070
    44
1040
1.0
1070
    74
1070
     0
1000
MTEXTEND
1000
MTEXTBEGIN
1070
    73
1070
     1
1070
    44
1040
1.0
1070
    74
1070
     0
1000
MTEXTEND
  0
MTEXT
  5
55F0
330
1A
100
AcDbEntity
  8
SUNPOU
100
AcDbMText
 10
47471.30197261006
 20
42263.21727226519
 30
0.0
 40
10.5
 41
0.0
 71
     9
 72
     5
  1

1001
ACAD
1000
MTEXTBEGIN
1070
    73
1070
     1
1070
    44
1040
1.0
1070
    74
1070
     0
1000
MTEXTEND
1000
MTEXTBEGIN
1070
    73
1070
     1
1070
    44
1040
1.0
1070
    74
1070
     0
1000
MTEXTEND
  0
MTEXT
  5
55F1
330
1A
100
AcDbEntity
  8
SUNPOU
100
AcDbMText
 10
33523.30187223408
 20
23090.81813315298
 30
0.0
 40
3.5
 41
0.0
 71
     7
 72
     5
  1

1001
ACAD
1000
MTEXTBEGIN
1070
    73
1070
     1
1070
    44
1040
1.0
1070
    74
1070
     0
1000
MTEXTEND
1000
MTEXTBEGIN
1070
    73
1070
     1
1070
    44
1040
1.0
1070
    74
1070
     0
1000
MTEXTEND
  0
MTEXT
  5
55F2
330
1A
100
AcDbEntity
  8
SUNPOU
100
AcDbMText
 10
57959.46254102503
 20
50038.08111611014
 30
0.0
 40
10.5
 41
0.0
 71
     9
 72
     5
  1

1001
ACAD
1000
MTEXTBEGIN
1070
    73
1070
     1
1070
    44
1040
1.0
1070
    74
1070
     0
1000
MTEXTEND
1000
MTEXTBEGIN
1070
    73
1070
     1
1070
    44
1040
1.0
1070
    74
1070
     0
1000
MTEXTEND
  0
MTEXT
  5
55F3
330
1A
100
AcDbEntity
  8
SUNPOU
100
AcDbMText
 10
76913.22125835503
 20
67504.65716860222
 30
0.0
 40
10.5
 41
0.0
 71
     9
 72
     5
  1

1001
ACAD
1000
MTEXTBEGIN
1070
    73
1070
     1
1070
    44
1040
1.0
1070
    74
1070
     0
1000
MTEXTEND
1000
MTEXTBEGIN
1070
    73
1070
     1
1070
    44
1040
1.0
1070
    74
1070
     0
1000
MTEXTEND
  0
MTEXT
  5
55F4
330
1A
100
AcDbEntity
  8
SUNPOU
100
AcDbMText
 10
78856.62850506443
 20
65703.6080887242
 30
0.0
 40
3.5
 41
0.0
 71
     9
 72
     5
  1

1001
ACAD
1000
MTEXTBEGIN
1070
    73
1070
     1
1070
    44
1040
1.0
1070
    74
1070
     0
1000
MTEXTEND
1000
MTEXTBEGIN
1070
    73
1070
     1
1070
    44
1040
1.0
1070
    74
1070
     0
1000
MTEXTEND
  0
MTEXT
  5
55F5
330
1A
100
AcDbEntity
  8
SUNPOU
100
AcDbMText
 10
109982.8083376841
 20
108198.5537563815
 30
0.0
 40
10.5
 41
0.0
 71
     9
 72
     5
  1

1001
ACAD
1000
MTEXTBEGIN
1070
    73
1070
     1
1070
    44
1040
1.0
1070
    74
1070
     0
1000
MTEXTEND
1000
MTEXTBEGIN
1070
    73
1070
     1
1070
    44
1040
1.0
1070
    74
1070
     0
1000
MTEXTEND
  0
MTEXT
  5
55F6
330
1A
100
AcDbEntity
  8
SUNPOU
100
AcDbMText
 10
111926.2155843934
 20
106397.5046765035
 30
0.0
 40
3.5
 41
0.0
 71
     9
 72
     5
  1

1001
ACAD
1000
MTEXTBEGIN
1070
    73
1070
     1
1070
    44
1040
1.0
1070
    74
1070
     0
1000
MTEXTEND
1000
MTEXTBEGIN
1070
    73
1070
     1
1070
    44
1040
1.0
1070
    74
1070
     0
1000
MTEXTEND
  0
MTEXT
  5
55F7
330
1A
100
AcDbEntity
  8
SUNPOU
100
AcDbMText
 10
60423.07604347968
 20
54031.71891135658
 30
0.0
 40
10.5
 41
0.0
 71
     9
 72
     5
  1

1001
ACAD
1000
MTEXTBEGIN
1070
    73
1070
     1
1070
    44
1040
1.0
1070
    74
1070
     0
1000
MTEXTEND
1000
MTEXTBEGIN
1070
    73
1070
     1
1070
    44
1040
1.0
1070
    74
1070
     0
1000
MTEXTEND
  0
MTEXT
  5
55F8
330
1A
100
AcDbEntity
  8
SUNPOU
100
AcDbMText
 10
46475.07594310369
 20
34859.3197722444
 30
0.0
 40
3.5
 41
0.0
 71
     7
 72
     5
  1

1001
ACAD
1000
MTEXTBEGIN
1070
    73
1070
     1
1070
    44
1040
1.0
1070
    74
1070
     0
1000
MTEXTEND
1000
MTEXTBEGIN
1070
    73
1070
     1
1070
    44
1040
1.0
1070
    74
1070
     0
1000
MTEXTEND
  0
MTEXT
  5
55F9
330
1A
100
AcDbEntity
  8
SUNPOU
100
AcDbMText
 10
74027.35402123588
 20
68370.58278833383
 30
0.0
 40
10.5
 41
0.0
 71
     9
 72
     5
  1

1001
ACAD
1000
MTEXTBEGIN
1070
    73
1070
     1
1070
    44
1040
1.0
1070
    74
1070
     0
1000
MTEXTEND
1000
MTEXTBEGIN
1070
    73
1070
     1
1070
    44
1040
1.0
1070
    74
1070
     0
1000
MTEXTEND
  0
MTEXT
  5
55FA
330
1A
100
AcDbEntity
  8
SUNPOU
100
AcDbMText
 10
75970.7612679453
 20
66569.53370845583
 30
0.0
 40
3.5
 41
0.0
 71
     9
 72
     5
  1

1001
ACAD
1000
MTEXTBEGIN
1070
    73
1070
     1
1070
    44
1040
1.0
1070
    74
1070
     0
1000
MTEXTEND
1000
MTEXTBEGIN
1070
    73
1070
     1
1070
    44
1040
1.0
1070
    74
1070
     0
1000
MTEXTEND
  0
MTEXT
  5
55FB
330
1A
100
AcDbEntity
  8
SUNPOU
100
AcDbMText
 10
107096.941100565
 20
109064.4793761132
 30
0.0
 40
10.5
 41
0.0
 71
     9
 72
     5
  1

1001
ACAD
1000
MTEXTBEGIN
1070
    73
1070
     1
1070
    44
1040
1.0
1070
    74
1070
     0
1000
MTEXTEND
1000
MTEXTBEGIN
1070
    73
1070
     1
1070
    44
1040
1.0
1070
    74
1070
     0
1000
MTEXTEND
  0
MTEXT
  5
55FC
330
1A
100
AcDbEntity
  8
SUNPOU
100
AcDbMText
 10
109040.3483472744
 20
107263.430296235
 30
0.0
 40
3.5
 41
0.0
 71
     9
 72
     5
  1

1001
ACAD
1000
MTEXTBEGIN
1070
    73
1070
     1
1070
    44
1040
1.0
1070
    74
1070
     0
1000
MTEXTEND
1000
MTEXTBEGIN
1070
    73
1070
     1
1070
    44
1040
1.0
1070
    74
1070
     0
1000
MTEXTEND
  0
MTEXT
  5
55FD
330
1A
100
AcDbEntity
  8
SUNPOU
100
AcDbMText
 10
105709.1709283621
 20
108141.3777665285
 30
0.0
 40
10.5
 41
0.0
 71
     9
 72
     5
  1

1001
ACAD
1000
MTEXTBEGIN
1070
    73
1070
     1
1070
    44
1040
1.0
1070
    74
1070
     0
1000
MTEXTEND
1000
MTEXTBEGIN
1070
    73
1070
     1
1070
    44
1040
1.0
1070
    74
1070
     0
1000
MTEXTEND
  0
MTEXT
  5
55FE
330
1A
100
AcDbEntity
  8
SUNPOU
100
AcDbMText
 10
107652.5781750715
 20
106340.3286866505
 30
0.0
 40
3.5
 41
0.0
 71
     9
 72
     5
  1

1001
ACAD
1000
MTEXTBEGIN
1070
    73
1070
     1
1070
    44
1040
1.0
1070
    74
1070
     0
1000
MTEXTEND
1000
MTEXTBEGIN
1070
    73
1070
     1
1070
    44
1040
1.0
1070
    74
1070
     0
1000
MTEXTEND
  0
MTEXT
  5
55FF
330
1A
100
AcDbEntity
  8
SUNPOU
100
AcDbMText
 10
73193.09268743351
 20
66158.78082845057
 30
0.0
 40
10.5
 41
0.0
 71
     9
 72
     5
  1

1001
ACAD
1000
MTEXTBEGIN
1070
    73
1070
     1
1070
    44
1040
1.0
1070
    74
1070
     0
1000
MTEXTEND
1000
MTEXTBEGIN
1070
    73
1070
     1
1070
    44
1040
1.0
1070
    74
1070
     0
1000
MTEXTEND
  0
MTEXT
  5
5600
330
1A
100
AcDbEntity
  8
SUNPOU
100
AcDbMText
 10
75916.39889159807
 20
66563.46252003162
 30
0.0
 40
3.5
 41
0.0
 71
     9
 72
     5
  1

1001
ACAD
1000
MTEXTBEGIN
1070
    73
1070
     1
1070
    44
1040
1.0
1070
    74
1070
     0
1000
MTEXTEND
1000
MTEXTBEGIN
1070
    73
1070
     1
1070
    44
1040
1.0
1070
    74
1070
     0
1000
MTEXTEND
  0
MTEXT
  5
5601
330
1A
100
AcDbEntity
  8
SUNPOU
100
AcDbMText
 10
75124.04436649058
 20
63402.1566819768
 30
0.0
 40
10.5
 41
0.0
 71
     9
 72
     5
  1

1001
ACAD
1000
MTEXTBEGIN
1070
    73
1070
     1
1070
    44
1040
1.0
1070
    74
1070
     0
1000
MTEXTEND
1000
MTEXTBEGIN
1070
    73
1070
     1
1070
    44
1040
1.0
1070
    74
1070
     0
1000
MTEXTEND
  0
MTEXT
  5
5602
330
1A
100
AcDbEntity
  8
SUNPOU
100
AcDbMText
 10
77067.4516132
 20
61601.1076020988
 30
0.0
 40
3.5
 41
0.0
 71
     9
 72
     5
  1

1001
ACAD
1000
MTEXTBEGIN
1070
    73
1070
     1
1070
    44
1040
1.0
1070
    74
1070
     0
1000
MTEXTEND
1000
MTEXTBEGIN
1070
    73
1070
     1
1070
    44
1040
1.0
1070
    74
1070
     0
1000
MTEXTEND
  0
MTEXT
  5
5603
330
1A
100
AcDbEntity
  8
SUNPOU
100
AcDbMText
 10
77012.54710378659
 20
61488.33571981449
 30
0.0
 40
3.5
 41
0.0
 71
     9
 72
     5
  1

1001
ACAD
1000
MTEXTBEGIN
1070
    73
1070
     1
1070
    44
1040
1.0
1070
    74
1070
     0
1000
MTEXTEND
1000
MTEXTBEGIN
1070
    73
1070
     1
1070
    44
1040
1.0
1070
    74
1070
     0
1000
MTEXTEND
  0
MTEXT
  5
5604
330
1A
100
AcDbEntity
  8
SUNPOU
100
AcDbMText
 10
76376.61896736668
 20
60677.01447874798
 30
0.0
 40
3.5
 41
0.0
 71
     9
 72
     5
  1

1001
ACAD
1000
MTEXTBEGIN
1070
    73
1070
     1
1070
    44
1040
1.0
1070
    74
1070
     0
1000
MTEXTEND
1000
MTEXTBEGIN
1070
    73
1070
     1
1070
    44
1040
1.0
1070
    74
1070
     0
1000
MTEXTEND
  0
MTEXT
  5
5605
330
1A
100
AcDbEntity
  8
SUNPOU
100
AcDbMText
 10
76375.37854794595
 20
60676.76650181048
 30
0.0
 40
10.5
 41
0.0
 71
     9
 72
     5
  1

1001
ACAD
1000
MTEXTBEGIN
1070
    73
1070
     1
1070
    44
1040
1.0
1070
    74
1070
     0
1000
MTEXTEND
1000
MTEXTBEGIN
1070
    73
1070
     1
1070
    44
1040
1.0
1070
    74
1070
     0
1000
MTEXTEND
  0
MTEXT
  5
5606
330
1A
100
AcDbEntity
  8
SUNPOU
100
AcDbMText
 10
84709.93991079748
 20
78034.0328293557
 30
0.0
 40
10.5
 41
0.0
 71
     9
 72
     5
  1

1001
ACAD
1000
MTEXTBEGIN
1070
    73
1070
     1
1070
    44
1040
1.0
1070
    74
1070
     0
1000
MTEXTEND
1000
MTEXTBEGIN
1070
    73
1070
     1
1070
    44
1040
1.0
1070
    74
1070
     0
1000
MTEXTEND
  0
MTEXT
  5
5607
330
1A
100
AcDbEntity
  8
SUNPOU
100
AcDbMText
 10
93432.10747671546
 20
85449.86736089315
 30
0.0
 40
10.5
 41
0.0
 71
     9
 72
     5
  1

1001
ACAD
1000
MTEXTBEGIN
1070
    73
1070
     1
1070
    44
1040
1.0
1070
    74
1070
     0
1000
MTEXTEND
1000
MTEXTBEGIN
1070
    73
1070
     1
1070
    44
1040
1.0
1070
    74
1070
     0
1000
MTEXTEND
  0
MTEXT
  5
5608
330
1A
100
AcDbEntity
  8
SUNPOU
100
AcDbMText
 10
112385.8661940454
 20
102916.4434133851
 30
0.0
 40
10.5
 41
0.0
 71
     9
 72
     5
  1

1001
ACAD
1000
MTEXTBEGIN
1070
    73
1070
     1
1070
    44
1040
1.0
1070
    74
1070
     0
1000
MTEXTEND
1000
MTEXTBEGIN
1070
    73
1070
     1
1070
    44
1040
1.0
1070
    74
1070
     0
1000
MTEXTEND
  0
MTEXT
  5
5609
330
1A
100
AcDbEntity
  8
SUNPOU
100
AcDbMText
 10
114329.2734407548
 20
101115.3943335072
 30
0.0
 40
3.5
 41
0.0
 71
     9
 72
     5
  1

1001
ACAD
1000
MTEXTBEGIN
1070
    73
1070
     1
1070
    44
1040
1.0
1070
    74
1070
     0
1000
MTEXTEND
1000
MTEXTBEGIN
1070
    73
1070
     1
1070
    44
1040
1.0
1070
    74
1070
     0
1000
MTEXTEND
  0
MTEXT
  5
560A
330
1A
100
AcDbEntity
  8
SUNPOU
100
AcDbMText
 10
145455.4532733745
 20
143610.3400011645
 30
0.0
 40
10.5
 41
0.0
 71
     9
 72
     5
  1

1001
ACAD
1000
MTEXTBEGIN
1070
    73
1070
     1
1070
    44
1040
1.0
1070
    74
1070
     0
1000
MTEXTEND
1000
MTEXTBEGIN
1070
    73
1070
     1
1070
    44
1040
1.0
1070
    74
1070
     0
1000
MTEXTEND
  0
MTEXT
  5
560B
330
1A
100
AcDbEntity
  8
SUNPOU
100
AcDbMText
 10
147398.8605200839
 20
141809.2909212864
 30
0.0
 40
3.5
 41
0.0
 71
     9
 72
     5
  1

1001
ACAD
1000
MTEXTBEGIN
1070
    73
1070
     1
1070
    44
1040
1.0
1070
    74
1070
     0
1000
MTEXTEND
1000
MTEXTBEGIN
1070
    73
1070
     1
1070
    44
1040
1.0
1070
    74
1070
     0
1000
MTEXTEND
  0
MTEXT
  5
560C
330
1A
100
AcDbEntity
  8
SUNPOU
100
AcDbMText
 10
95895.72097917011
 20
89443.50515613962
 30
0.0
 40
10.5
 41
0.0
 71
     9
 72
     5
  1

1001
ACAD
1000
MTEXTBEGIN
1070
    73
1070
     1
1070
    44
1040
1.0
1070
    74
1070
     0
1000
MTEXTEND
1000
MTEXTBEGIN
1070
    73
1070
     1
1070
    44
1040
1.0
1070
    74
1070
     0
1000
MTEXTEND
  0
MTEXT
  5
560D
330
1A
100
AcDbEntity
  8
SUNPOU
100
AcDbMText
 10
81947.72087879414
 20
70271.1060170274
 30
0.0
 40
3.5
 41
0.0
 71
     7
 72
     5
  1

1001
ACAD
1000
MTEXTBEGIN
1070
    73
1070
     1
1070
    44
1040
1.0
1070
    74
1070
     0
1000
MTEXTEND
1000
MTEXTBEGIN
1070
    73
1070
     1
1070
    44
1040
1.0
1070
    74
1070
     0
1000
MTEXTEND
  0
MTEXT
  5
560E
330
1A
100
AcDbEntity
  8
SUNPOU
100
AcDbMText
 10
62932.89027578729
 20
58033.25474784561
 30
0.0
 40
10.5
 41
0.0
 71
     7
 72
     5
  1

1001
ACAD
1000
MTEXTBEGIN
1070
    73
1070
     1
1070
    44
1040
1.0
1070
    74
1070
     0
1000
MTEXTEND
1000
MTEXTBEGIN
1070
    73
1070
     1
1070
    44
1040
1.0
1070
    74
1070
     0
1000
MTEXTEND
  0
MTEXT
  5
560F
330
1A
100
AcDbEntity
  8
SUNPOU
100
AcDbMText
 10
50475.66201083918
 20
42188.32316974718
 30
0.0
 40
35.0
 41
0.0
 71
     9
 72
     5
  1

1001
ACAD
1000
MTEXTBEGIN
1070
    73
1070
     1
1070
    44
1040
1.0
1070
    74
1070
     0
1000
MTEXTEND
1000
MTEXTBEGIN
1070
    73
1070
     1
1070
    44
1040
1.0
1070
    74
1070
     0
1000
MTEXTEND
  0
MTEXT
  5
5610
330
1A
100
AcDbEntity
  8
SUNPOU
100
AcDbMText
 10
49384.14706841413
 20
42797.0985797959
 30
0.0
 40
350.0000004171781
 41
0.0
 71
     7
 72
     5
  1

1001
ACAD
1000
MTEXTBEGIN
1070
    73
1070
     1
1070
    44
1040
1.0
1070
    74
1070
     0
1000
MTEXTEND
1000
MTEXTBEGIN
1070
    73
1070
     1
1070
    44
1040
1.0
1070
    74
1070
     0
1000
MTEXTEND
  0
MTEXT
  5
5611
330
1A
100
AcDbEntity
  8
0
100
AcDbMText
 10
55428.09782635704
 20
40777.0209419321
 30
0.0
 40
8.0
 41
0.0
 71
     7
 72
     5
  1

1001
ACAD
1000
MTEXTBEGIN
1070
    73
1070
     1
1070
    44
1040
1.0
1070
    74
1070
     0
1000
MTEXTEND
1000
MTEXTBEGIN
1070
    73
1070
     1
1070
    44
1040
1.0
1070
    74
1070
     0
1000
MTEXTEND
  0
MTEXT
  5
5612
330
1A
100
AcDbEntity
  8
0
100
AcDbMText
 10
57713.45551625193
 20
41747.81123668316
 30
0.0
 40
8.0
 41
0.0
 71
     7
 72
     5
  1

1001
ACAD
1000
MTEXTBEGIN
1070
    73
1070
     1
1070
    44
1040
1.0
1070
    74
1070
     0
1000
MTEXTEND
1000
MTEXTBEGIN
1070
    73
1070
     1
1070
    44
1040
1.0
1070
    74
1070
     0
1000
MTEXTEND
  0
MTEXT
  5
5613
330
1A
100
AcDbEntity
  8
SUNPOU
100
AcDbMText
 10
60379.35253693407
 20
51259.9226290583
 30
0.0
 40
10.5
 41
0.0
 71
     1
 72
     5
  1

1001
ACAD
1000
MTEXTBEGIN
1070
    73
1070
     1
1070
    44
1040
1.0
1070
    74
1070
     0
1000
MTEXTEND
1000
MTEXTBEGIN
1070
    73
1070
     1
1070
    44
1040
1.0
1070
    74
1070
     0
1000
MTEXTEND
  0
MTEXT
  5
5614
330
1A
100
AcDbEntity
  8
SUNPOU
100
AcDbMText
 10
52448.42934099813
 20
50313.12949514535
 30
0.0
 40
10.5
 41
0.0
 71
     7
 72
     5
  1

1001
ACAD
1000
MTEXTBEGIN
1070
    73
1070
     1
1070
    44
1040
1.0
1070
    74
1070
     0
1000
MTEXTEND
1000
MTEXTBEGIN
1070
    73
1070
     1
1070
    44
1040
1.0
1070
    74
1070
     0
1000
MTEXTEND
  0
MTEXT
  5
5615
330
1A
100
AcDbEntity
  8
SUNPOU
100
AcDbMText
 10
55397.4130055109
 20
55213.80556698819
 30
0.0
 40
10.5
 41
0.0
 71
     7
 72
     5
  1

1001
ACAD
1000
MTEXTBEGIN
1070
    73
1070
     1
1070
    44
1040
1.0
1070
    74
1070
     0
1000
MTEXTEND
1000
MTEXTBEGIN
1070
    73
1070
     1
1070
    44
1040
1.0
1070
    74
1070
     0
1000
MTEXTEND
  0
MTEXT
  5
5616
330
1A
100
AcDbEntity
  8
SUNPOU
100
AcDbMText
 10
59906.49113346147
 20
57650.10631460826
 30
0.0
 40
10.5
 41
0.0
 71
     7
 72
     5
  1

1001
ACAD
1000
MTEXTBEGIN
1070
    73
1070
     1
1070
    44
1040
1.0
1070
    74
1070
     0
1000
MTEXTEND
1000
MTEXTBEGIN
1070
    73
1070
     1
1070
    44
1040
1.0
1070
    74
1070
     0
1000
MTEXTEND
  0
MTEXT
  5
5617
330
1A
100
AcDbEntity
  8
SUNPOU
100
AcDbMText
 10
43507.32902022978
 20
36647.70246499718
 30
0.0
 40
10.5
 41
0.0
 71
     7
 72
     5
  1

1001
ACAD
1000
MTEXTBEGIN
1070
    73
1070
     1
1070
    44
1040
1.0
1070
    74
1070
     0
1000
MTEXTEND
1000
MTEXTBEGIN
1070
    73
1070
     1
1070
    44
1040
1.0
1070
    74
1070
     0
1000
MTEXTEND
  0
MTEXT
  5
5618
330
1A
100
AcDbEntity
  8
SUNPOU
100
AcDbMText
 10
94698.84745413006
 20
82320.68302864544
 30
0.0
 40
10.5
 41
0.0
 71
     9
 72
     5
  1

1001
ACAD
1000
MTEXTBEGIN
1070
    73
1070
     1
1070
    44
1040
1.0
1070
    74
1070
     0
1000
MTEXTEND
1000
MTEXTBEGIN
1070
    73
1070
     1
1070
    44
1040
1.0
1070
    74
1070
     0
1000
MTEXTEND
  0
MTEXT
  5
5619
330
1A
100
AcDbEntity
  8
SUNPOU
100
AcDbMText
 10
103421.015020048
 20
89736.5175601829
 30
0.0
 40
10.5
 41
0.0
 71
     9
 72
     5
  1

1001
ACAD
1000
MTEXTBEGIN
1070
    73
1070
     1
1070
    44
1040
1.0
1070
    74
1070
     0
1000
MTEXTEND
1000
MTEXTBEGIN
1070
    73
1070
     1
1070
    44
1040
1.0
1070
    74
1070
     0
1000
MTEXTEND
  0
MTEXT
  5
561A
330
1A
100
AcDbEntity
  8
SUNPOU
100
AcDbMText
 10
122374.773737378
 20
107203.0936126749
 30
0.0
 40
10.5
 41
0.0
 71
     9
 72
     5
  1

1001
ACAD
1000
MTEXTBEGIN
1070
    73
1070
     1
1070
    44
1040
1.0
1070
    74
1070
     0
1000
MTEXTEND
1000
MTEXTBEGIN
1070
    73
1070
     1
1070
    44
1040
1.0
1070
    74
1070
     0
1000
MTEXTEND
  0
MTEXT
  5
561B
330
1A
100
AcDbEntity
  8
SUNPOU
100
AcDbMText
 10
124318.1809840874
 20
105402.0445327969
 30
0.0
 40
3.5
 41
0.0
 71
     9
 72
     5
  1

1001
ACAD
1000
MTEXTBEGIN
1070
    73
1070
     1
1070
    44
1040
1.0
1070
    74
1070
     0
1000
MTEXTEND
1000
MTEXTBEGIN
1070
    73
1070
     1
1070
    44
1040
1.0
1070
    74
1070
     0
1000
MTEXTEND
  0
MTEXT
  5
561C
330
1A
100
AcDbEntity
  8
SUNPOU
100
AcDbMText
 10
155444.3608167071
 20
147896.9902004542
 30
0.0
 40
10.5
 41
0.0
 71
     9
 72
     5
  1

1001
ACAD
1000
MTEXTBEGIN
1070
    73
1070
     1
1070
    44
1040
1.0
1070
    74
1070
     0
1000
MTEXTEND
1000
MTEXTBEGIN
1070
    73
1070
     1
1070
    44
1040
1.0
1070
    74
1070
     0
1000
MTEXTEND
  0
MTEXT
  5
561D
330
1A
100
AcDbEntity
  8
SUNPOU
100
AcDbMText
 10
157387.7680634165
 20
146095.9411205762
 30
0.0
 40
3.5
 41
0.0
 71
     9
 72
     5
  1

1001
ACAD
1000
MTEXTBEGIN
1070
    73
1070
     1
1070
    44
1040
1.0
1070
    74
1070
     0
1000
MTEXTEND
1000
MTEXTBEGIN
1070
    73
1070
     1
1070
    44
1040
1.0
1070
    74
1070
     0
1000
MTEXTEND
  0
MTEXT
  5
561E
330
1A
100
AcDbEntity
  8
SUNPOU
100
AcDbMText
 10
105884.6285225027
 20
93730.15535542933
 30
0.0
 40
10.5
 41
0.0
 71
     9
 72
     5
  1

1001
ACAD
1000
MTEXTBEGIN
1070
    73
1070
     1
1070
    44
1040
1.0
1070
    74
1070
     0
1000
MTEXTEND
1000
MTEXTBEGIN
1070
    73
1070
     1
1070
    44
1040
1.0
1070
    74
1070
     0
1000
MTEXTEND
  0
MTEXT
  5
561F
330
1A
100
AcDbEntity
  8
SUNPOU
100
AcDbMText
 10
91936.6284221267
 20
74557.75621631714
 30
0.0
 40
3.5
 41
0.0
 71
     7
 72
     5
  1

1001
ACAD
1000
MTEXTBEGIN
1070
    73
1070
     1
1070
    44
1040
1.0
1070
    74
1070
     0
1000
MTEXTEND
1000
MTEXTBEGIN
1070
    73
1070
     1
1070
    44
1040
1.0
1070
    74
1070
     0
1000
MTEXTEND
  0
MTEXT
  5
5620
330
1A
100
AcDbEntity
  8
SUNPOU
100
AcDbMText
 10
72921.79781911986
 20
62319.90494713532
 30
0.0
 40
10.5
 41
0.0
 71
     7
 72
     5
  1

1001
ACAD
1000
MTEXTBEGIN
1070
    73
1070
     1
1070
    44
1040
1.0
1070
    74
1070
     0
1000
MTEXTEND
1000
MTEXTBEGIN
1070
    73
1070
     1
1070
    44
1040
1.0
1070
    74
1070
     0
1000
MTEXTEND
  0
MTEXT
  5
5621
330
1A
100
AcDbEntity
  8
SUNPOU
100
AcDbMText
 10
60464.56955417175
 20
46474.97336903692
 30
0.0
 40
35.0
 41
0.0
 71
     9
 72
     5
  1

1001
ACAD
1000
MTEXTBEGIN
1070
    73
1070
     1
1070
    44
1040
1.0
1070
    74
1070
     0
1000
MTEXTEND
1000
MTEXTBEGIN
1070
    73
1070
     1
1070
    44
1040
1.0
1070
    74
1070
     0
1000
MTEXTEND
  0
MTEXT
  5
5622
330
1A
100
AcDbEntity
  8
SUNPOU
100
AcDbMText
 10
59373.05461174673
 20
47083.74877908561
 30
0.0
 40
350.0000004171781
 41
0.0
 71
     7
 72
     5
  1

1001
ACAD
1000
MTEXTBEGIN
1070
    73
1070
     1
1070
    44
1040
1.0
1070
    74
1070
     0
1000
MTEXTEND
1000
MTEXTBEGIN
1070
    73
1070
     1
1070
    44
1040
1.0
1070
    74
1070
     0
1000
MTEXTEND
  0
MTEXT
  5
5623
330
1A
100
AcDbEntity
  8
0
100
AcDbMText
 10
65417.00536968963
 20
45063.67114122186
 30
0.0
 40
8.0
 41
0.0
 71
     7
 72
     5
  1

1001
ACAD
1000
MTEXTBEGIN
1070
    73
1070
     1
1070
    44
1040
1.0
1070
    74
1070
     0
1000
MTEXTEND
1000
MTEXTBEGIN
1070
    73
1070
     1
1070
    44
1040
1.0
1070
    74
1070
     0
1000
MTEXTEND
  0
MTEXT
  5
5624
330
1A
100
AcDbEntity
  8
0
100
AcDbMText
 10
67702.36305958452
 20
46034.46143597292
 30
0.0
 40
8.0
 41
0.0
 71
     7
 72
     5
  1

1001
ACAD
1000
MTEXTBEGIN
1070
    73
1070
     1
1070
    44
1040
1.0
1070
    74
1070
     0
1000
MTEXTEND
1000
MTEXTBEGIN
1070
    73
1070
     1
1070
    44
1040
1.0
1070
    74
1070
     0
1000
MTEXTEND
  0
MTEXT
  5
5625
330
1A
100
AcDbEntity
  8
SUNPOU
100
AcDbMText
 10
70368.26008026666
 20
55546.57282834803
 30
0.0
 40
10.5
 41
0.0
 71
     1
 72
     5
  1

1001
ACAD
1000
MTEXTBEGIN
1070
    73
1070
     1
1070
    44
1040
1.0
1070
    74
1070
     0
1000
MTEXTEND
1000
MTEXTBEGIN
1070
    73
1070
     1
1070
    44
1040
1.0
1070
    74
1070
     0
1000
MTEXTEND
  0
MTEXT
  5
5626
330
1A
100
AcDbEntity
  8
SUNPOU
100
AcDbMText
 10
62437.33688433072
 20
54599.77969443507
 30
0.0
 40
10.5
 41
0.0
 71
     7
 72
     5
  1

1001
ACAD
1000
MTEXTBEGIN
1070
    73
1070
     1
1070
    44
1040
1.0
1070
    74
1070
     0
1000
MTEXTEND
1000
MTEXTBEGIN
1070
    73
1070
     1
1070
    44
1040
1.0
1070
    74
1070
     0
1000
MTEXTEND
  0
MTEXT
  5
5627
330
1A
100
AcDbEntity
  8
SUNPOU
100
AcDbMText
 10
65386.32054884348
 20
59500.45576627792
 30
0.0
 40
10.5
 41
0.0
 71
     7
 72
     5
  1

1001
ACAD
1000
MTEXTBEGIN
1070
    73
1070
     1
1070
    44
1040
1.0
1070
    74
1070
     0
1000
MTEXTEND
1000
MTEXTBEGIN
1070
    73
1070
     1
1070
    44
1040
1.0
1070
    74
1070
     0
1000
MTEXTEND
  0
MTEXT
  5
5628
330
1A
100
AcDbEntity
  8
SUNPOU
100
AcDbMText
 10
69895.39867679405
 20
61936.756513898
 30
0.0
 40
10.5
 41
0.0
 71
     7
 72
     5
  1

1001
ACAD
1000
MTEXTBEGIN
1070
    73
1070
     1
1070
    44
1040
1.0
1070
    74
1070
     0
1000
MTEXTEND
1000
MTEXTBEGIN
1070
    73
1070
     1
1070
    44
1040
1.0
1070
    74
1070
     0
1000
MTEXTEND
  0
MTEXT
  5
5629
330
1A
100
AcDbEntity
  8
SUNPOU
100
AcDbMText
 10
53496.23656356237
 20
40934.35266428691
 30
0.0
 40
10.5
 41
0.0
 71
     7
 72
     5
  1

1001
ACAD
1000
MTEXTBEGIN
1070
    73
1070
     1
1070
    44
1040
1.0
1070
    74
1070
     0
1000
MTEXTEND
1000
MTEXTBEGIN
1070
    73
1070
     1
1070
    44
1040
1.0
1070
    74
1070
     0
1000
MTEXTEND
  0
MTEXT
  5
562A
330
1A
100
AcDbEntity
  8
SUNPOU
100
AcDbMText
 10
55306.99947493731
 20
47261.76665176546
 30
0.0
 40
10.5
 41
0.0
 71
     9
 72
     5
  1

1001
ACAD
1000
MTEXTBEGIN
1070
    73
1070
     1
1070
    44
1040
1.0
1070
    74
1070
     0
1000
MTEXTEND
1000
MTEXTBEGIN
1070
    73
1070
     1
1070
    44
1040
1.0
1070
    74
1070
     0
1000
MTEXTEND
  0
MTEXT
  5
562B
330
1A
100
AcDbEntity
  8
SUNPOU
100
AcDbMText
 10
64029.16704085527
 20
54677.60118330295
 30
0.0
 40
10.5
 41
0.0
 71
     9
 72
     5
  1

1001
ACAD
1000
MTEXTBEGIN
1070
    73
1070
     1
1070
    44
1040
1.0
1070
    74
1070
     0
1000
MTEXTEND
1000
MTEXTBEGIN
1070
    73
1070
     1
1070
    44
1040
1.0
1070
    74
1070
     0
1000
MTEXTEND
  0
MTEXT
  5
562C
330
1A
100
AcDbEntity
  8
SUNPOU
100
AcDbMText
 10
82982.92575818527
 20
72144.17723579499
 30
0.0
 40
10.5
 41
0.0
 71
     9
 72
     5
  1

1001
ACAD
1000
MTEXTBEGIN
1070
    73
1070
     1
1070
    44
1040
1.0
1070
    74
1070
     0
1000
MTEXTEND
1000
MTEXTBEGIN
1070
    73
1070
     1
1070
    44
1040
1.0
1070
    74
1070
     0
1000
MTEXTEND
  0
MTEXT
  5
562D
330
1A
100
AcDbEntity
  8
SUNPOU
100
AcDbMText
 10
84926.33300489467
 20
70343.12815591697
 30
0.0
 40
3.5
 41
0.0
 71
     9
 72
     5
  1

1001
ACAD
1000
MTEXTBEGIN
1070
    73
1070
     1
1070
    44
1040
1.0
1070
    74
1070
     0
1000
MTEXTEND
1000
MTEXTBEGIN
1070
    73
1070
     1
1070
    44
1040
1.0
1070
    74
1070
     0
1000
MTEXTEND
  0
MTEXT
  5
562E
330
1A
100
AcDbEntity
  8
SUNPOU
100
AcDbMText
 10
116052.5128375142
 20
112838.0738235742
 30
0.0
 40
10.5
 41
0.0
 71
     9
 72
     5
  1

1001
ACAD
1000
MTEXTBEGIN
1070
    73
1070
     1
1070
    44
1040
1.0
1070
    74
1070
     0
1000
MTEXTEND
1000
MTEXTBEGIN
1070
    73
1070
     1
1070
    44
1040
1.0
1070
    74
1070
     0
1000
MTEXTEND
  0
MTEXT
  5
562F
330
1A
100
AcDbEntity
  8
SUNPOU
100
AcDbMText
 10
117995.9200842238
 20
111037.0247436963
 30
0.0
 40
3.5
 41
0.0
 71
     9
 72
     5
  1

1001
ACAD
1000
MTEXTBEGIN
1070
    73
1070
     1
1070
    44
1040
1.0
1070
    74
1070
     0
1000
MTEXTEND
1000
MTEXTBEGIN
1070
    73
1070
     1
1070
    44
1040
1.0
1070
    74
1070
     0
1000
MTEXTEND
  0
MTEXT
  5
5630
330
1A
100
AcDbEntity
  8
SUNPOU
100
AcDbMText
 10
66492.78054330994
 20
58671.23897854939
 30
0.0
 40
10.5
 41
0.0
 71
     9
 72
     5
  1

1001
ACAD
1000
MTEXTBEGIN
1070
    73
1070
     1
1070
    44
1040
1.0
1070
    74
1070
     0
1000
MTEXTEND
1000
MTEXTBEGIN
1070
    73
1070
     1
1070
    44
1040
1.0
1070
    74
1070
     0
1000
MTEXTEND
  0
MTEXT
  5
5631
330
1A
100
AcDbEntity
  8
SUNPOU
100
AcDbMText
 10
52544.78044293397
 20
39498.83983943717
 30
0.0
 40
3.5
 41
0.0
 71
     7
 72
     5
  1

1001
ACAD
1000
MTEXTBEGIN
1070
    73
1070
     1
1070
    44
1040
1.0
1070
    74
1070
     0
1000
MTEXTEND
1000
MTEXTBEGIN
1070
    73
1070
     1
1070
    44
1040
1.0
1070
    74
1070
     0
1000
MTEXTEND
  0
MTEXT
  5
5632
330
1A
100
AcDbEntity
  8
SUNPOU
100
AcDbMText
 10
66237.13112570454
 20
48857.90306045851
 30
0.0
 40
10.5
 41
0.0
 71
     9
 72
     5
  1

1001
ACAD
1000
MTEXTBEGIN
1070
    73
1070
     1
1070
    44
1040
1.0
1070
    74
1070
     0
1000
MTEXTEND
1000
MTEXTBEGIN
1070
    73
1070
     1
1070
    44
1040
1.0
1070
    74
1070
     0
1000
MTEXTEND
  0
MTEXT
  5
5633
330
1A
100
AcDbEntity
  8
SUNPOU
100
AcDbMText
 10
74959.29869162253
 20
56273.73759199599
 30
0.0
 40
10.5
 41
0.0
 71
     9
 72
     5
  1

1001
ACAD
1000
MTEXTBEGIN
1070
    73
1070
     1
1070
    44
1040
1.0
1070
    74
1070
     0
1000
MTEXTEND
1000
MTEXTBEGIN
1070
    73
1070
     1
1070
    44
1040
1.0
1070
    74
1070
     0
1000
MTEXTEND
  0
MTEXT
  5
5634
330
1A
100
AcDbEntity
  8
SUNPOU
100
AcDbMText
 10
93913.0574089525
 20
73740.31364448805
 30
0.0
 40
10.5
 41
0.0
 71
     9
 72
     5
  1

1001
ACAD
1000
MTEXTBEGIN
1070
    73
1070
     1
1070
    44
1040
1.0
1070
    74
1070
     0
1000
MTEXTEND
1000
MTEXTBEGIN
1070
    73
1070
     1
1070
    44
1040
1.0
1070
    74
1070
     0
1000
MTEXTEND
  0
MTEXT
  5
5635
330
1A
100
AcDbEntity
  8
SUNPOU
100
AcDbMText
 10
95856.46465566192
 20
71939.26456461004
 30
0.0
 40
3.5
 41
0.0
 71
     9
 72
     5
  1

1001
ACAD
1000
MTEXTBEGIN
1070
    73
1070
     1
1070
    44
1040
1.0
1070
    74
1070
     0
1000
MTEXTEND
1000
MTEXTBEGIN
1070
    73
1070
     1
1070
    44
1040
1.0
1070
    74
1070
     0
1000
MTEXTEND
  0
MTEXT
  5
5636
330
1A
100
AcDbEntity
  8
SUNPOU
100
AcDbMText
 10
126982.6444882816
 20
114434.2102322673
 30
0.0
 40
10.5
 41
0.0
 71
     9
 72
     5
  1

1001
ACAD
1000
MTEXTBEGIN
1070
    73
1070
     1
1070
    44
1040
1.0
1070
    74
1070
     0
1000
MTEXTEND
1000
MTEXTBEGIN
1070
    73
1070
     1
1070
    44
1040
1.0
1070
    74
1070
     0
1000
MTEXTEND
  0
MTEXT
  5
5637
330
1A
100
AcDbEntity
  8
SUNPOU
100
AcDbMText
 10
128926.051734991
 20
112633.1611523893
 30
0.0
 40
3.5
 41
0.0
 71
     9
 72
     5
  1

1001
ACAD
1000
MTEXTBEGIN
1070
    73
1070
     1
1070
    44
1040
1.0
1070
    74
1070
     0
1000
MTEXTEND
1000
MTEXTBEGIN
1070
    73
1070
     1
1070
    44
1040
1.0
1070
    74
1070
     0
1000
MTEXTEND
  0
MTEXT
  5
5638
330
1A
100
AcDbEntity
  8
SUNPOU
100
AcDbMText
 10
77422.91219407717
 20
60267.37538724244
 30
0.0
 40
10.5
 41
0.0
 71
     9
 72
     5
  1

1001
ACAD
1000
MTEXTBEGIN
1070
    73
1070
     1
1070
    44
1040
1.0
1070
    74
1070
     0
1000
MTEXTEND
1000
MTEXTBEGIN
1070
    73
1070
     1
1070
    44
1040
1.0
1070
    74
1070
     0
1000
MTEXTEND
  0
MTEXT
  5
5639
330
1A
100
AcDbEntity
  8
SUNPOU
100
AcDbMText
 10
63474.91209370119
 20
41094.97624813023
 30
0.0
 40
3.5
 41
0.0
 71
     7
 72
     5
  1

1001
ACAD
1000
MTEXTBEGIN
1070
    73
1070
     1
1070
    44
1040
1.0
1070
    74
1070
     0
1000
MTEXTEND
1000
MTEXTBEGIN
1070
    73
1070
     1
1070
    44
1040
1.0
1070
    74
1070
     0
1000
MTEXTEND
  0
MTEXT
  5
563A
330
1A
100
AcDbEntity
  8
SUNPOU
100
AcDbMText
 10
48117.65086229006
 20
40806.11043916631
 30
0.0
 40
10.5
 41
0.0
 71
     9
 72
     5
  1

1001
ACAD
1000
MTEXTBEGIN
1070
    73
1070
     1
1070
    44
1040
1.0
1070
    74
1070
     0
1000
MTEXTEND
1000
MTEXTBEGIN
1070
    73
1070
     1
1070
    44
1040
1.0
1070
    74
1070
     0
1000
MTEXTEND
  0
MTEXT
  5
563B
330
1A
100
AcDbEntity
  8
SUNPOU
100
AcDbMText
 10
67071.40957962004
 20
58272.68649165838
 30
0.0
 40
10.5
 41
0.0
 71
     9
 72
     5
  1

1001
ACAD
1000
MTEXTBEGIN
1070
    73
1070
     1
1070
    44
1040
1.0
1070
    74
1070
     0
1000
MTEXTEND
1000
MTEXTBEGIN
1070
    73
1070
     1
1070
    44
1040
1.0
1070
    74
1070
     0
1000
MTEXTEND
  0
MTEXT
  5
563C
330
1A
100
AcDbEntity
  8
SUNPOU
100
AcDbMText
 10
69014.81682632945
 20
56471.63741178035
 30
0.0
 40
3.5
 41
0.0
 71
     9
 72
     5
  1

1001
ACAD
1000
MTEXTBEGIN
1070
    73
1070
     1
1070
    44
1040
1.0
1070
    74
1070
     0
1000
MTEXTEND
1000
MTEXTBEGIN
1070
    73
1070
     1
1070
    44
1040
1.0
1070
    74
1070
     0
1000
MTEXTEND
  0
MTEXT
  5
563D
330
1A
100
AcDbEntity
  8
SUNPOU
100
AcDbMText
 10
100140.9966589491
 20
98966.58307943773
 30
0.0
 40
10.5
 41
0.0
 71
     9
 72
     5
  1

1001
ACAD
1000
MTEXTBEGIN
1070
    73
1070
     1
1070
    44
1040
1.0
1070
    74
1070
     0
1000
MTEXTEND
1000
MTEXTBEGIN
1070
    73
1070
     1
1070
    44
1040
1.0
1070
    74
1070
     0
1000
MTEXTEND
  0
MTEXT
  5
563E
330
1A
100
AcDbEntity
  8
SUNPOU
100
AcDbMText
 10
102084.4039056586
 20
97165.53399955968
 30
0.0
 40
3.5
 41
0.0
 71
     9
 72
     5
  1

1001
ACAD
1000
MTEXTBEGIN
1070
    73
1070
     1
1070
    44
1040
1.0
1070
    74
1070
     0
1000
MTEXTEND
1000
MTEXTBEGIN
1070
    73
1070
     1
1070
    44
1040
1.0
1070
    74
1070
     0
1000
MTEXTEND
  0
MTEXT
  5
563F
330
1A
100
AcDbEntity
  8
SUNPOU
100
AcDbMText
 10
50581.26436474472
 20
44799.74823441275
 30
0.0
 40
10.5
 41
0.0
 71
     9
 72
     5
  1

1001
ACAD
1000
MTEXTBEGIN
1070
    73
1070
     1
1070
    44
1040
1.0
1070
    74
1070
     0
1000
MTEXTEND
1000
MTEXTBEGIN
1070
    73
1070
     1
1070
    44
1040
1.0
1070
    74
1070
     0
1000
MTEXTEND
  0
MTEXT
  5
5640
330
1A
100
AcDbEntity
  8
SUNPOU
100
AcDbMText
 10
36633.26426436873
 20
25627.34909530054
 30
0.0
 40
3.5
 41
0.0
 71
     7
 72
     5
  1

1001
ACAD
1000
MTEXTBEGIN
1070
    73
1070
     1
1070
    44
1040
1.0
1070
    74
1070
     0
1000
MTEXTEND
1000
MTEXTBEGIN
1070
    73
1070
     1
1070
    44
1040
1.0
1070
    74
1070
     0
1000
MTEXTEND
  0
MTEXT
  5
5641
330
1A
100
AcDbEntity
  8
SUNPOU
100
AcDbMText
 10
61069.42493315968
 20
52574.61207825771
 30
0.0
 40
10.5
 41
0.0
 71
     9
 72
     5
  1

1001
ACAD
1000
MTEXTBEGIN
1070
    73
1070
     1
1070
    44
1040
1.0
1070
    74
1070
     0
1000
MTEXTEND
1000
MTEXTBEGIN
1070
    73
1070
     1
1070
    44
1040
1.0
1070
    74
1070
     0
1000
MTEXTEND
  0
MTEXT
  5
5642
330
1A
100
AcDbEntity
  8
SUNPOU
100
AcDbMText
 10
80023.18365048967
 20
70041.18813074978
 30
0.0
 40
10.5
 41
0.0
 71
     9
 72
     5
  1

1001
ACAD
1000
MTEXTBEGIN
1070
    73
1070
     1
1070
    44
1040
1.0
1070
    74
1070
     0
1000
MTEXTEND
1000
MTEXTBEGIN
1070
    73
1070
     1
1070
    44
1040
1.0
1070
    74
1070
     0
1000
MTEXTEND
  0
MTEXT
  5
5643
330
1A
100
AcDbEntity
  8
SUNPOU
100
AcDbMText
 10
81966.59089719908
 20
68240.13905087176
 30
0.0
 40
3.5
 41
0.0
 71
     9
 72
     5
  1

1001
ACAD
1000
MTEXTBEGIN
1070
    73
1070
     1
1070
    44
1040
1.0
1070
    74
1070
     0
1000
MTEXTEND
1000
MTEXTBEGIN
1070
    73
1070
     1
1070
    44
1040
1.0
1070
    74
1070
     0
1000
MTEXTEND
  0
MTEXT
  5
5644
330
1A
100
AcDbEntity
  8
SUNPOU
100
AcDbMText
 10
113092.7707298186
 20
110735.0847185291
 30
0.0
 40
10.5
 41
0.0
 71
     9
 72
     5
  1

1001
ACAD
1000
MTEXTBEGIN
1070
    73
1070
     1
1070
    44
1040
1.0
1070
    74
1070
     0
1000
MTEXTEND
1000
MTEXTBEGIN
1070
    73
1070
     1
1070
    44
1040
1.0
1070
    74
1070
     0
1000
MTEXTEND
  0
MTEXT
  5
5645
330
1A
100
AcDbEntity
  8
SUNPOU
100
AcDbMText
 10
115036.1779765282
 20
108934.0356386511
 30
0.0
 40
3.5
 41
0.0
 71
     9
 72
     5
  1

1001
ACAD
1000
MTEXTBEGIN
1070
    73
1070
     1
1070
    44
1040
1.0
1070
    74
1070
     0
1000
MTEXTEND
1000
MTEXTBEGIN
1070
    73
1070
     1
1070
    44
1040
1.0
1070
    74
1070
     0
1000
MTEXTEND
  0
MTEXT
  5
5646
330
1A
100
AcDbEntity
  8
SUNPOU
100
AcDbMText
 10
63533.03843561432
 20
56568.24987350415
 30
0.0
 40
10.5
 41
0.0
 71
     9
 72
     5
  1

1001
ACAD
1000
MTEXTBEGIN
1070
    73
1070
     1
1070
    44
1040
1.0
1070
    74
1070
     0
1000
MTEXTEND
1000
MTEXTBEGIN
1070
    73
1070
     1
1070
    44
1040
1.0
1070
    74
1070
     0
1000
MTEXTEND
  0
MTEXT
  5
5647
330
1A
100
AcDbEntity
  8
SUNPOU
100
AcDbMText
 10
49585.03833523835
 20
37395.85073439196
 30
0.0
 40
3.5
 41
0.0
 71
     7
 72
     5
  1

1001
ACAD
1000
MTEXTBEGIN
1070
    73
1070
     1
1070
    44
1040
1.0
1070
    74
1070
     0
1000
MTEXTEND
1000
MTEXTBEGIN
1070
    73
1070
     1
1070
    44
1040
1.0
1070
    74
1070
     0
1000
MTEXTEND
  0
MTEXT
  5
5648
330
1A
100
AcDbEntity
  8
SUNPOU
100
AcDbMText
 10
77137.31641337052
 20
70907.11375048141
 30
0.0
 40
10.5
 41
0.0
 71
     9
 72
     5
  1

1001
ACAD
1000
MTEXTBEGIN
1070
    73
1070
     1
1070
    44
1040
1.0
1070
    74
1070
     0
1000
MTEXTEND
1000
MTEXTBEGIN
1070
    73
1070
     1
1070
    44
1040
1.0
1070
    74
1070
     0
1000
MTEXTEND
  0
MTEXT
  5
5649
330
1A
100
AcDbEntity
  8
SUNPOU
100
AcDbMText
 10
79080.72366007995
 20
69106.06467060339
 30
0.0
 40
3.5
 41
0.0
 71
     9
 72
     5
  1

1001
ACAD
1000
MTEXTBEGIN
1070
    73
1070
     1
1070
    44
1040
1.0
1070
    74
1070
     0
1000
MTEXTEND
1000
MTEXTBEGIN
1070
    73
1070
     1
1070
    44
1040
1.0
1070
    74
1070
     0
1000
MTEXTEND
  0
MTEXT
  5
564A
330
1A
100
AcDbEntity
  8
SUNPOU
100
AcDbMText
 10
110206.9034926996
 20
111601.0103382607
 30
0.0
 40
10.5
 41
0.0
 71
     9
 72
     5
  1

1001
ACAD
1000
MTEXTBEGIN
1070
    73
1070
     1
1070
    44
1040
1.0
1070
    74
1070
     0
1000
MTEXTEND
1000
MTEXTBEGIN
1070
    73
1070
     1
1070
    44
1040
1.0
1070
    74
1070
     0
1000
MTEXTEND
  0
MTEXT
  5
564B
330
1A
100
AcDbEntity
  8
SUNPOU
100
AcDbMText
 10
112150.310739409
 20
109799.9612583826
 30
0.0
 40
3.5
 41
0.0
 71
     9
 72
     5
  1

1001
ACAD
1000
MTEXTBEGIN
1070
    73
1070
     1
1070
    44
1040
1.0
1070
    74
1070
     0
1000
MTEXTEND
1000
MTEXTBEGIN
1070
    73
1070
     1
1070
    44
1040
1.0
1070
    74
1070
     0
1000
MTEXTEND
  0
MTEXT
  5
564C
330
1A
100
AcDbEntity
  8
SUNPOU
100
AcDbMText
 10
108819.1333204967
 20
110677.9087286761
 30
0.0
 40
10.5
 41
0.0
 71
     9
 72
     5
  1

1001
ACAD
1000
MTEXTBEGIN
1070
    73
1070
     1
1070
    44
1040
1.0
1070
    74
1070
     0
1000
MTEXTEND
1000
MTEXTBEGIN
1070
    73
1070
     1
1070
    44
1040
1.0
1070
    74
1070
     0
1000
MTEXTEND
  0
MTEXT
  5
564D
330
1A
100
AcDbEntity
  8
SUNPOU
100
AcDbMText
 10
110762.5405672062
 20
108876.8596487981
 30
0.0
 40
3.5
 41
0.0
 71
     9
 72
     5
  1

1001
ACAD
1000
MTEXTBEGIN
1070
    73
1070
     1
1070
    44
1040
1.0
1070
    74
1070
     0
1000
MTEXTEND
1000
MTEXTBEGIN
1070
    73
1070
     1
1070
    44
1040
1.0
1070
    74
1070
     0
1000
MTEXTEND
  0
MTEXT
  5
564E
330
1A
100
AcDbEntity
  8
SUNPOU
100
AcDbMText
 10
76303.05507956816
 20
68695.31179059812
 30
0.0
 40
10.5
 41
0.0
 71
     9
 72
     5
  1

1001
ACAD
1000
MTEXTBEGIN
1070
    73
1070
     1
1070
    44
1040
1.0
1070
    74
1070
     0
1000
MTEXTEND
1000
MTEXTBEGIN
1070
    73
1070
     1
1070
    44
1040
1.0
1070
    74
1070
     0
1000
MTEXTEND
  0
MTEXT
  5
564F
330
1A
100
AcDbEntity
  8
SUNPOU
100
AcDbMText
 10
79026.36128373271
 20
69099.99348217918
 30
0.0
 40
3.5
 41
0.0
 71
     9
 72
     5
  1

1001
ACAD
1000
MTEXTBEGIN
1070
    73
1070
     1
1070
    44
1040
1.0
1070
    74
1070
     0
1000
MTEXTEND
1000
MTEXTBEGIN
1070
    73
1070
     1
1070
    44
1040
1.0
1070
    74
1070
     0
1000
MTEXTEND
  0
MTEXT
  5
5650
330
1A
100
AcDbEntity
  8
SUNPOU
100
AcDbMText
 10
78234.00675862522
 20
65938.68764412436
 30
0.0
 40
10.5
 41
0.0
 71
     9
 72
     5
  1

1001
ACAD
1000
MTEXTBEGIN
1070
    73
1070
     1
1070
    44
1040
1.0
1070
    74
1070
     0
1000
MTEXTEND
1000
MTEXTBEGIN
1070
    73
1070
     1
1070
    44
1040
1.0
1070
    74
1070
     0
1000
MTEXTEND
  0
MTEXT
  5
5651
330
1A
100
AcDbEntity
  8
SUNPOU
100
AcDbMText
 10
80177.41400533465
 20
64137.63856424636
 30
0.0
 40
3.5
 41
0.0
 71
     9
 72
     5
  1

1001
ACAD
1000
MTEXTBEGIN
1070
    73
1070
     1
1070
    44
1040
1.0
1070
    74
1070
     0
1000
MTEXTEND
1000
MTEXTBEGIN
1070
    73
1070
     1
1070
    44
1040
1.0
1070
    74
1070
     0
1000
MTEXTEND
  0
MTEXT
  5
5652
330
1A
100
AcDbEntity
  8
SUNPOU
100
AcDbMText
 10
80122.50949592122
 20
64024.86668196204
 30
0.0
 40
3.5
 41
0.0
 71
     9
 72
     5
  1

1001
ACAD
1000
MTEXTBEGIN
1070
    73
1070
     1
1070
    44
1040
1.0
1070
    74
1070
     0
1000
MTEXTEND
1000
MTEXTBEGIN
1070
    73
1070
     1
1070
    44
1040
1.0
1070
    74
1070
     0
1000
MTEXTEND
  0
MTEXT
  5
5653
330
1A
100
AcDbEntity
  8
SUNPOU
100
AcDbMText
 10
79486.58135950133
 20
63213.54544089553
 30
0.0
 40
3.5
 41
0.0
 71
     9
 72
     5
  1

1001
ACAD
1000
MTEXTBEGIN
1070
    73
1070
     1
1070
    44
1040
1.0
1070
    74
1070
     0
1000
MTEXTEND
1000
MTEXTBEGIN
1070
    73
1070
     1
1070
    44
1040
1.0
1070
    74
1070
     0
1000
MTEXTEND
  0
MTEXT
  5
5654
330
1A
100
AcDbEntity
  8
SUNPOU
100
AcDbMText
 10
79485.3409400806
 20
63213.29746395804
 30
0.0
 40
10.5
 41
0.0
 71
     9
 72
     5
  1

1001
ACAD
1000
MTEXTBEGIN
1070
    73
1070
     1
1070
    44
1040
1.0
1070
    74
1070
     0
1000
MTEXTEND
1000
MTEXTBEGIN
1070
    73
1070
     1
1070
    44
1040
1.0
1070
    74
1070
     0
1000
MTEXTEND
  0
MTEXT
  5
5655
330
1A
100
AcDbEntity
  8
SUNPOU
100
AcDbMText
 10
85473.63363627567
 20
80747.76348077064
 30
0.0
 40
10.5
 41
0.0
 71
     9
 72
     5
  1

1001
ACAD
1000
MTEXTBEGIN
1070
    73
1070
     1
1070
    44
1040
1.0
1070
    74
1070
     0
1000
MTEXTEND
1000
MTEXTBEGIN
1070
    73
1070
     1
1070
    44
1040
1.0
1070
    74
1070
     0
1000
MTEXTEND
  0
MTEXT
  5
5656
330
1A
100
AcDbEntity
  8
SUNPOU
100
AcDbMText
 10
94195.80120219368
 20
88163.59801230808
 30
0.0
 40
10.5
 41
0.0
 71
     9
 72
     5
  1

1001
ACAD
1000
MTEXTBEGIN
1070
    73
1070
     1
1070
    44
1040
1.0
1070
    74
1070
     0
1000
MTEXTEND
1000
MTEXTBEGIN
1070
    73
1070
     1
1070
    44
1040
1.0
1070
    74
1070
     0
1000
MTEXTEND
  0
MTEXT
  5
5657
330
1A
100
AcDbEntity
  8
SUNPOU
100
AcDbMText
 10
113149.5599195236
 20
105630.1740648001
 30
0.0
 40
10.5
 41
0.0
 71
     9
 72
     5
  1

1001
ACAD
1000
MTEXTBEGIN
1070
    73
1070
     1
1070
    44
1040
1.0
1070
    74
1070
     0
1000
MTEXTEND
1000
MTEXTBEGIN
1070
    73
1070
     1
1070
    44
1040
1.0
1070
    74
1070
     0
1000
MTEXTEND
  0
MTEXT
  5
5658
330
1A
100
AcDbEntity
  8
SUNPOU
100
AcDbMText
 10
115092.967166233
 20
103829.1249849221
 30
0.0
 40
3.5
 41
0.0
 71
     9
 72
     5
  1

1001
ACAD
1000
MTEXTBEGIN
1070
    73
1070
     1
1070
    44
1040
1.0
1070
    74
1070
     0
1000
MTEXTEND
1000
MTEXTBEGIN
1070
    73
1070
     1
1070
    44
1040
1.0
1070
    74
1070
     0
1000
MTEXTEND
  0
MTEXT
  5
5659
330
1A
100
AcDbEntity
  8
SUNPOU
100
AcDbMText
 10
146219.1469988527
 20
146324.0706525794
 30
0.0
 40
10.5
 41
0.0
 71
     9
 72
     5
  1

1001
ACAD
1000
MTEXTBEGIN
1070
    73
1070
     1
1070
    44
1040
1.0
1070
    74
1070
     0
1000
MTEXTEND
1000
MTEXTBEGIN
1070
    73
1070
     1
1070
    44
1040
1.0
1070
    74
1070
     0
1000
MTEXTEND
  0
MTEXT
  5
565A
330
1A
100
AcDbEntity
  8
SUNPOU
100
AcDbMText
 10
148162.5542455621
 20
144523.0215727014
 30
0.0
 40
3.5
 41
0.0
 71
     9
 72
     5
  1

1001
ACAD
1000
MTEXTBEGIN
1070
    73
1070
     1
1070
    44
1040
1.0
1070
    74
1070
     0
1000
MTEXTEND
1000
MTEXTBEGIN
1070
    73
1070
     1
1070
    44
1040
1.0
1070
    74
1070
     0
1000
MTEXTEND
  0
MTEXT
  5
565B
330
1A
100
AcDbEntity
  8
SUNPOU
100
AcDbMText
 10
96659.41470464833
 20
92157.23580755453
 30
0.0
 40
10.5
 41
0.0
 71
     9
 72
     5
  1

1001
ACAD
1000
MTEXTBEGIN
1070
    73
1070
     1
1070
    44
1040
1.0
1070
    74
1070
     0
1000
MTEXTEND
1000
MTEXTBEGIN
1070
    73
1070
     1
1070
    44
1040
1.0
1070
    74
1070
     0
1000
MTEXTEND
  0
MTEXT
  5
565C
330
1A
100
AcDbEntity
  8
SUNPOU
100
AcDbMText
 10
82711.41460427234
 20
72984.83666844234
 30
0.0
 40
3.5
 41
0.0
 71
     7
 72
     5
  1

1001
ACAD
1000
MTEXTBEGIN
1070
    73
1070
     1
1070
    44
1040
1.0
1070
    74
1070
     0
1000
MTEXTEND
1000
MTEXTBEGIN
1070
    73
1070
     1
1070
    44
1040
1.0
1070
    74
1070
     0
1000
MTEXTEND
  0
MTEXT
  5
565D
330
1A
100
AcDbEntity
  8
SUNPOU
100
AcDbMText
 10
63696.58400126548
 20
60746.98539926055
 30
0.0
 40
10.5
 41
0.0
 71
     7
 72
     5
  1

1001
ACAD
1000
MTEXTBEGIN
1070
    73
1070
     1
1070
    44
1040
1.0
1070
    74
1070
     0
1000
MTEXTEND
1000
MTEXTBEGIN
1070
    73
1070
     1
1070
    44
1040
1.0
1070
    74
1070
     0
1000
MTEXTEND
  0
MTEXT
  5
565E
330
1A
100
AcDbEntity
  8
SUNPOU
100
AcDbMText
 10
51239.35573631738
 20
44902.05382116213
 30
0.0
 40
35.0
 41
0.0
 71
     9
 72
     5
  1

1001
ACAD
1000
MTEXTBEGIN
1070
    73
1070
     1
1070
    44
1040
1.0
1070
    74
1070
     0
1000
MTEXTEND
1000
MTEXTBEGIN
1070
    73
1070
     1
1070
    44
1040
1.0
1070
    74
1070
     0
1000
MTEXTEND
  0
MTEXT
  5
565F
330
1A
100
AcDbEntity
  8
SUNPOU
100
AcDbMText
 10
50147.84079389233
 20
45510.82923121084
 30
0.0
 40
350.0000004171781
 41
0.0
 71
     7
 72
     5
  1

1001
ACAD
1000
MTEXTBEGIN
1070
    73
1070
     1
1070
    44
1040
1.0
1070
    74
1070
     0
1000
MTEXTEND
1000
MTEXTBEGIN
1070
    73
1070
     1
1070
    44
1040
1.0
1070
    74
1070
     0
1000
MTEXTEND
  0
MTEXT
  5
5660
330
1A
100
AcDbEntity
  8
0
100
AcDbMText
 10
56191.79155183523
 20
43490.75159334705
 30
0.0
 40
8.0
 41
0.0
 71
     7
 72
     5
  1

1001
ACAD
1000
MTEXTBEGIN
1070
    73
1070
     1
1070
    44
1040
1.0
1070
    74
1070
     0
1000
MTEXTEND
1000
MTEXTBEGIN
1070
    73
1070
     1
1070
    44
1040
1.0
1070
    74
1070
     0
1000
MTEXTEND
  0
MTEXT
  5
5661
330
1A
100
AcDbEntity
  8
0
100
AcDbMText
 10
58477.14924173012
 20
44461.54188809812
 30
0.0
 40
8.0
 41
0.0
 71
     7
 72
     5
  1

1001
ACAD
1000
MTEXTBEGIN
1070
    73
1070
     1
1070
    44
1040
1.0
1070
    74
1070
     0
1000
MTEXTEND
1000
MTEXTBEGIN
1070
    73
1070
     1
1070
    44
1040
1.0
1070
    74
1070
     0
1000
MTEXTEND
  0
MTEXT
  5
5662
330
1A
100
AcDbEntity
  8
SUNPOU
100
AcDbMText
 10
61143.04626241227
 20
53973.65328047324
 30
0.0
 40
10.5
 41
0.0
 71
     1
 72
     5
  1

1001
ACAD
1000
MTEXTBEGIN
1070
    73
1070
     1
1070
    44
1040
1.0
1070
    74
1070
     0
1000
MTEXTEND
1000
MTEXTBEGIN
1070
    73
1070
     1
1070
    44
1040
1.0
1070
    74
1070
     0
1000
MTEXTEND
  0
MTEXT
  5
5663
330
1A
100
AcDbEntity
  8
SUNPOU
100
AcDbMText
 10
53212.12306647633
 20
53026.86014656028
 30
0.0
 40
10.5
 41
0.0
 71
     7
 72
     5
  1

1001
ACAD
1000
MTEXTBEGIN
1070
    73
1070
     1
1070
    44
1040
1.0
1070
    74
1070
     0
1000
MTEXTEND
1000
MTEXTBEGIN
1070
    73
1070
     1
1070
    44
1040
1.0
1070
    74
1070
     0
1000
MTEXTEND
  0
MTEXT
  5
5664
330
1A
100
AcDbEntity
  8
SUNPOU
100
AcDbMText
 10
56161.10673098909
 20
57927.53621840312
 30
0.0
 40
10.5
 41
0.0
 71
     7
 72
     5
  1

1001
ACAD
1000
MTEXTBEGIN
1070
    73
1070
     1
1070
    44
1040
1.0
1070
    74
1070
     0
1000
MTEXTEND
1000
MTEXTBEGIN
1070
    73
1070
     1
1070
    44
1040
1.0
1070
    74
1070
     0
1000
MTEXTEND
  0
MTEXT
  5
5665
330
1A
100
AcDbEntity
  8
SUNPOU
100
AcDbMText
 10
60670.18485893966
 20
60363.8369660232
 30
0.0
 40
10.5
 41
0.0
 71
     7
 72
     5
  1

1001
ACAD
1000
MTEXTBEGIN
1070
    73
1070
     1
1070
    44
1040
1.0
1070
    74
1070
     0
1000
MTEXTEND
1000
MTEXTBEGIN
1070
    73
1070
     1
1070
    44
1040
1.0
1070
    74
1070
     0
1000
MTEXTEND
  0
MTEXT
  5
5666
330
1A
100
AcDbEntity
  8
SUNPOU
100
AcDbMText
 10
44271.02274570799
 20
39361.43311641211
 30
0.0
 40
10.5
 41
0.0
 71
     7
 72
     5
  1

1001
ACAD
1000
MTEXTBEGIN
1070
    73
1070
     1
1070
    44
1040
1.0
1070
    74
1070
     0
1000
MTEXTEND
1000
MTEXTBEGIN
1070
    73
1070
     1
1070
    44
1040
1.0
1070
    74
1070
     0
1000
MTEXTEND
  0
MTEXT
  5
5667
330
1A
100
AcDbEntity
  8
SUNPOU
100
AcDbMText
 10
95462.54117960824
 20
85034.41368006038
 30
0.0
 40
10.5
 41
0.0
 71
     9
 72
     5
  1

1001
ACAD
1000
MTEXTBEGIN
1070
    73
1070
     1
1070
    44
1040
1.0
1070
    74
1070
     0
1000
MTEXTEND
1000
MTEXTBEGIN
1070
    73
1070
     1
1070
    44
1040
1.0
1070
    74
1070
     0
1000
MTEXTEND
  0
MTEXT
  5
5668
330
1A
100
AcDbEntity
  8
SUNPOU
100
AcDbMText
 10
104184.7087455262
 20
92450.24821159784
 30
0.0
 40
10.5
 41
0.0
 71
     9
 72
     5
  1

1001
ACAD
1000
MTEXTBEGIN
1070
    73
1070
     1
1070
    44
1040
1.0
1070
    74
1070
     0
1000
MTEXTEND
1000
MTEXTBEGIN
1070
    73
1070
     1
1070
    44
1040
1.0
1070
    74
1070
     0
1000
MTEXTEND
  0
MTEXT
  5
5669
330
1A
100
AcDbEntity
  8
SUNPOU
100
AcDbMText
 10
123138.4674628562
 20
109916.8242640898
 30
0.0
 40
10.5
 41
0.0
 71
     9
 72
     5
  1

1001
ACAD
1000
MTEXTBEGIN
1070
    73
1070
     1
1070
    44
1040
1.0
1070
    74
1070
     0
1000
MTEXTEND
1000
MTEXTBEGIN
1070
    73
1070
     1
1070
    44
1040
1.0
1070
    74
1070
     0
1000
MTEXTEND
  0
MTEXT
  5
566A
330
1A
100
AcDbEntity
  8
SUNPOU
100
AcDbMText
 10
125081.8747095656
 20
108115.7751842118
 30
0.0
 40
3.5
 41
0.0
 71
     9
 72
     5
  1

1001
ACAD
1000
MTEXTBEGIN
1070
    73
1070
     1
1070
    44
1040
1.0
1070
    74
1070
     0
1000
MTEXTEND
1000
MTEXTBEGIN
1070
    73
1070
     1
1070
    44
1040
1.0
1070
    74
1070
     0
1000
MTEXTEND
  0
MTEXT
  5
566B
330
1A
100
AcDbEntity
  8
SUNPOU
100
AcDbMText
 10
156208.0545421853
 20
150610.7208518691
 30
0.0
 40
10.5
 41
0.0
 71
     9
 72
     5
  1

1001
ACAD
1000
MTEXTBEGIN
1070
    73
1070
     1
1070
    44
1040
1.0
1070
    74
1070
     0
1000
MTEXTEND
1000
MTEXTBEGIN
1070
    73
1070
     1
1070
    44
1040
1.0
1070
    74
1070
     0
1000
MTEXTEND
  0
MTEXT
  5
566C
330
1A
100
AcDbEntity
  8
SUNPOU
100
AcDbMText
 10
158151.4617888947
 20
148809.6717719911
 30
0.0
 40
3.5
 41
0.0
 71
     9
 72
     5
  1

1001
ACAD
1000
MTEXTBEGIN
1070
    73
1070
     1
1070
    44
1040
1.0
1070
    74
1070
     0
1000
MTEXTEND
1000
MTEXTBEGIN
1070
    73
1070
     1
1070
    44
1040
1.0
1070
    74
1070
     0
1000
MTEXTEND
  0
MTEXT
  5
566D
330
1A
100
AcDbEntity
  8
SUNPOU
100
AcDbMText
 10
106648.3222479809
 20
96443.88600684427
 30
0.0
 40
10.5
 41
0.0
 71
     9
 72
     5
  1

1001
ACAD
1000
MTEXTBEGIN
1070
    73
1070
     1
1070
    44
1040
1.0
1070
    74
1070
     0
1000
MTEXTEND
1000
MTEXTBEGIN
1070
    73
1070
     1
1070
    44
1040
1.0
1070
    74
1070
     0
1000
MTEXTEND
  0
MTEXT
  5
566E
330
1A
100
AcDbEntity
  8
SUNPOU
100
AcDbMText
 10
92700.3221476049
 20
77271.48686773207
 30
0.0
 40
3.5
 41
0.0
 71
     7
 72
     5
  1

1001
ACAD
1000
MTEXTBEGIN
1070
    73
1070
     1
1070
    44
1040
1.0
1070
    74
1070
     0
1000
MTEXTEND
1000
MTEXTBEGIN
1070
    73
1070
     1
1070
    44
1040
1.0
1070
    74
1070
     0
1000
MTEXTEND
  0
MTEXT
  5
566F
330
1A
100
AcDbEntity
  8
SUNPOU
100
AcDbMText
 10
73685.49154459807
 20
65033.63559855027
 30
0.0
 40
10.5
 41
0.0
 71
     7
 72
     5
  1

1001
ACAD
1000
MTEXTBEGIN
1070
    73
1070
     1
1070
    44
1040
1.0
1070
    74
1070
     0
1000
MTEXTEND
1000
MTEXTBEGIN
1070
    73
1070
     1
1070
    44
1040
1.0
1070
    74
1070
     0
1000
MTEXTEND
  0
MTEXT
  5
5670
330
1A
100
AcDbEntity
  8
SUNPOU
100
AcDbMText
 10
61228.26327964995
 20
49188.70402045184
 30
0.0
 40
35.0
 41
0.0
 71
     9
 72
     5
  1

1001
ACAD
1000
MTEXTBEGIN
1070
    73
1070
     1
1070
    44
1040
1.0
1070
    74
1070
     0
1000
MTEXTEND
1000
MTEXTBEGIN
1070
    73
1070
     1
1070
    44
1040
1.0
1070
    74
1070
     0
1000
MTEXTEND
  0
MTEXT
  5
5671
330
1A
100
AcDbEntity
  8
SUNPOU
100
AcDbMText
 10
60136.74833722491
 20
49797.47943050056
 30
0.0
 40
350.0000004171781
 41
0.0
 71
     7
 72
     5
  1

1001
ACAD
1000
MTEXTBEGIN
1070
    73
1070
     1
1070
    44
1040
1.0
1070
    74
1070
     0
1000
MTEXTEND
1000
MTEXTBEGIN
1070
    73
1070
     1
1070
    44
1040
1.0
1070
    74
1070
     0
1000
MTEXTEND
  0
MTEXT
  5
5672
330
1A
100
AcDbEntity
  8
0
100
AcDbMText
 10
66180.69909516782
 20
47777.40179263677
 30
0.0
 40
8.0
 41
0.0
 71
     7
 72
     5
  1

1001
ACAD
1000
MTEXTBEGIN
1070
    73
1070
     1
1070
    44
1040
1.0
1070
    74
1070
     0
1000
MTEXTEND
1000
MTEXTBEGIN
1070
    73
1070
     1
1070
    44
1040
1.0
1070
    74
1070
     0
1000
MTEXTEND
  0
MTEXT
  5
5673
330
1A
100
AcDbEntity
  8
0
100
AcDbMText
 10
68466.05678506271
 20
48748.19208738784
 30
0.0
 40
8.0
 41
0.0
 71
     7
 72
     5
  1

1001
ACAD
1000
MTEXTBEGIN
1070
    73
1070
     1
1070
    44
1040
1.0
1070
    74
1070
     0
1000
MTEXTEND
1000
MTEXTBEGIN
1070
    73
1070
     1
1070
    44
1040
1.0
1070
    74
1070
     0
1000
MTEXTEND
  0
MTEXT
  5
5674
330
1A
100
AcDbEntity
  8
SUNPOU
100
AcDbMText
 10
71131.95380574485
 20
58260.30347976296
 30
0.0
 40
10.5
 41
0.0
 71
     1
 72
     5
  1

1001
ACAD
1000
MTEXTBEGIN
1070
    73
1070
     1
1070
    44
1040
1.0
1070
    74
1070
     0
1000
MTEXTEND
1000
MTEXTBEGIN
1070
    73
1070
     1
1070
    44
1040
1.0
1070
    74
1070
     0
1000
MTEXTEND
  0
MTEXT
  5
5675
330
1A
100
AcDbEntity
  8
SUNPOU
100
AcDbMText
 10
63201.03060980891
 20
57313.51034585003
 30
0.0
 40
10.5
 41
0.0
 71
     7
 72
     5
  1

1001
ACAD
1000
MTEXTBEGIN
1070
    73
1070
     1
1070
    44
1040
1.0
1070
    74
1070
     0
1000
MTEXTEND
1000
MTEXTBEGIN
1070
    73
1070
     1
1070
    44
1040
1.0
1070
    74
1070
     0
1000
MTEXTEND
  0
MTEXT
  5
5676
330
1A
100
AcDbEntity
  8
SUNPOU
100
AcDbMText
 10
66150.01427432169
 20
62214.18641769286
 30
0.0
 40
10.5
 41
0.0
 71
     7
 72
     5
  1

1001
ACAD
1000
MTEXTBEGIN
1070
    73
1070
     1
1070
    44
1040
1.0
1070
    74
1070
     0
1000
MTEXTEND
1000
MTEXTBEGIN
1070
    73
1070
     1
1070
    44
1040
1.0
1070
    74
1070
     0
1000
MTEXTEND
  0
MTEXT
  5
5677
330
1A
100
AcDbEntity
  8
SUNPOU
100
AcDbMText
 10
70659.09240227225
 20
64650.48716531294
 30
0.0
 40
10.5
 41
0.0
 71
     7
 72
     5
  1

1001
ACAD
1000
MTEXTBEGIN
1070
    73
1070
     1
1070
    44
1040
1.0
1070
    74
1070
     0
1000
MTEXTEND
1000
MTEXTBEGIN
1070
    73
1070
     1
1070
    44
1040
1.0
1070
    74
1070
     0
1000
MTEXTEND
  0
MTEXT
  5
5678
330
1A
100
AcDbEntity
  8
SUNPOU
100
AcDbMText
 10
54259.93028904056
 20
43648.08331570185
 30
0.0
 40
10.5
 41
0.0
 71
     7
 72
     5
  1

1001
ACAD
1000
MTEXTBEGIN
1070
    73
1070
     1
1070
    44
1040
1.0
1070
    74
1070
     0
1000
MTEXTEND
1000
MTEXTBEGIN
1070
    73
1070
     1
1070
    44
1040
1.0
1070
    74
1070
     0
1000
MTEXTEND
  0
MTEXT
  5
5679
330
1A
100
AcDbEntity
  8
SUNPOU
100
AcDbMText
 10
56070.69320041551
 20
49975.4973031804
 30
0.0
 40
10.5
 41
0.0
 71
     9
 72
     5
  1

1001
ACAD
1000
MTEXTBEGIN
1070
    73
1070
     1
1070
    44
1040
1.0
1070
    74
1070
     0
1000
MTEXTEND
1000
MTEXTBEGIN
1070
    73
1070
     1
1070
    44
1040
1.0
1070
    74
1070
     0
1000
MTEXTEND
  0
MTEXT
  5
567A
330
1A
100
AcDbEntity
  8
SUNPOU
100
AcDbMText
 10
64792.86076633347
 20
57391.33183471787
 30
0.0
 40
10.5
 41
0.0
 71
     9
 72
     5
  1

1001
ACAD
1000
MTEXTBEGIN
1070
    73
1070
     1
1070
    44
1040
1.0
1070
    74
1070
     0
1000
MTEXTEND
1000
MTEXTBEGIN
1070
    73
1070
     1
1070
    44
1040
1.0
1070
    74
1070
     0
1000
MTEXTEND
  0
MTEXT
  5
567B
330
1A
100
AcDbEntity
  8
SUNPOU
100
AcDbMText
 10
83746.61948366345
 20
74857.90788720994
 30
0.0
 40
10.5
 41
0.0
 71
     9
 72
     5
  1

1001
ACAD
1000
MTEXTBEGIN
1070
    73
1070
     1
1070
    44
1040
1.0
1070
    74
1070
     0
1000
MTEXTEND
1000
MTEXTBEGIN
1070
    73
1070
     1
1070
    44
1040
1.0
1070
    74
1070
     0
1000
MTEXTEND
  0
MTEXT
  5
567C
330
1A
100
AcDbEntity
  8
SUNPOU
100
AcDbMText
 10
85690.02673037287
 20
73056.85880733192
 30
0.0
 40
3.5
 41
0.0
 71
     9
 72
     5
  1

1001
ACAD
1000
MTEXTBEGIN
1070
    73
1070
     1
1070
    44
1040
1.0
1070
    74
1070
     0
1000
MTEXTEND
1000
MTEXTBEGIN
1070
    73
1070
     1
1070
    44
1040
1.0
1070
    74
1070
     0
1000
MTEXTEND
  0
MTEXT
  5
567D
330
1A
100
AcDbEntity
  8
SUNPOU
100
AcDbMText
 10
116816.2065629925
 20
115551.8044749892
 30
0.0
 40
10.5
 41
0.0
 71
     9
 72
     5
  1

1001
ACAD
1000
MTEXTBEGIN
1070
    73
1070
     1
1070
    44
1040
1.0
1070
    74
1070
     0
1000
MTEXTEND
1000
MTEXTBEGIN
1070
    73
1070
     1
1070
    44
1040
1.0
1070
    74
1070
     0
1000
MTEXTEND
  0
MTEXT
  5
567E
330
1A
100
AcDbEntity
  8
SUNPOU
100
AcDbMText
 10
118759.6138097019
 20
113750.7553951111
 30
0.0
 40
3.5
 41
0.0
 71
     9
 72
     5
  1

1001
ACAD
1000
MTEXTBEGIN
1070
    73
1070
     1
1070
    44
1040
1.0
1070
    74
1070
     0
1000
MTEXTEND
1000
MTEXTBEGIN
1070
    73
1070
     1
1070
    44
1040
1.0
1070
    74
1070
     0
1000
MTEXTEND
  0
MTEXT
  5
567F
330
1A
100
AcDbEntity
  8
SUNPOU
100
AcDbMText
 10
67256.47426878814
 20
61384.96962996432
 30
0.0
 40
10.5
 41
0.0
 71
     9
 72
     5
  1

1001
ACAD
1000
MTEXTBEGIN
1070
    73
1070
     1
1070
    44
1040
1.0
1070
    74
1070
     0
1000
MTEXTEND
1000
MTEXTBEGIN
1070
    73
1070
     1
1070
    44
1040
1.0
1070
    74
1070
     0
1000
MTEXTEND
  0
MTEXT
  5
5680
330
1A
100
AcDbEntity
  8
SUNPOU
100
AcDbMText
 10
53308.47416841216
 20
42212.57049085211
 30
0.0
 40
3.5
 41
0.0
 71
     7
 72
     5
  1

1001
ACAD
1000
MTEXTBEGIN
1070
    73
1070
     1
1070
    44
1040
1.0
1070
    74
1070
     0
1000
MTEXTEND
1000
MTEXTBEGIN
1070
    73
1070
     1
1070
    44
1040
1.0
1070
    74
1070
     0
1000
MTEXTEND
  0
MTEXT
  5
5681
330
1A
100
AcDbEntity
  8
SUNPOU
100
AcDbMText
 10
67000.82485118274
 20
51571.63371187344
 30
0.0
 40
10.5
 41
0.0
 71
     9
 72
     5
  1

1001
ACAD
1000
MTEXTBEGIN
1070
    73
1070
     1
1070
    44
1040
1.0
1070
    74
1070
     0
1000
MTEXTEND
1000
MTEXTBEGIN
1070
    73
1070
     1
1070
    44
1040
1.0
1070
    74
1070
     0
1000
MTEXTEND
  0
MTEXT
  5
5682
330
1A
100
AcDbEntity
  8
SUNPOU
100
AcDbMText
 10
75722.99241710071
 20
58987.46824341094
 30
0.0
 40
10.5
 41
0.0
 71
     9
 72
     5
  1

1001
ACAD
1000
MTEXTBEGIN
1070
    73
1070
     1
1070
    44
1040
1.0
1070
    74
1070
     0
1000
MTEXTEND
1000
MTEXTBEGIN
1070
    73
1070
     1
1070
    44
1040
1.0
1070
    74
1070
     0
1000
MTEXTEND
  0
MTEXT
  5
5683
330
1A
100
AcDbEntity
  8
SUNPOU
100
AcDbMText
 10
94676.75113443068
 20
76454.04429590299
 30
0.0
 40
10.5
 41
0.0
 71
     9
 72
     5
  1

1001
ACAD
1000
MTEXTBEGIN
1070
    73
1070
     1
1070
    44
1040
1.0
1070
    74
1070
     0
1000
MTEXTEND
1000
MTEXTBEGIN
1070
    73
1070
     1
1070
    44
1040
1.0
1070
    74
1070
     0
1000
MTEXTEND
  0
MTEXT
  5
5684
330
1A
100
AcDbEntity
  8
SUNPOU
100
AcDbMText
 10
96620.1583811401
 20
74652.99521602497
 30
0.0
 40
3.5
 41
0.0
 71
     9
 72
     5
  1

1001
ACAD
1000
MTEXTBEGIN
1070
    73
1070
     1
1070
    44
1040
1.0
1070
    74
1070
     0
1000
MTEXTEND
1000
MTEXTBEGIN
1070
    73
1070
     1
1070
    44
1040
1.0
1070
    74
1070
     0
1000
MTEXTEND
  0
MTEXT
  5
5685
330
1A
100
AcDbEntity
  8
SUNPOU
100
AcDbMText
 10
127746.3382137598
 20
117147.9408836822
 30
0.0
 40
10.5
 41
0.0
 71
     9
 72
     5
  1

1001
ACAD
1000
MTEXTBEGIN
1070
    73
1070
     1
1070
    44
1040
1.0
1070
    74
1070
     0
1000
MTEXTEND
1000
MTEXTBEGIN
1070
    73
1070
     1
1070
    44
1040
1.0
1070
    74
1070
     0
1000
MTEXTEND
  0
MTEXT
  5
5686
330
1A
100
AcDbEntity
  8
SUNPOU
100
AcDbMText
 10
129689.7454604692
 20
115346.8918038042
 30
0.0
 40
3.5
 41
0.0
 71
     9
 72
     5
  1

1001
ACAD
1000
MTEXTBEGIN
1070
    73
1070
     1
1070
    44
1040
1.0
1070
    74
1070
     0
1000
MTEXTEND
1000
MTEXTBEGIN
1070
    73
1070
     1
1070
    44
1040
1.0
1070
    74
1070
     0
1000
MTEXTEND
  0
MTEXT
  5
5687
330
1A
100
AcDbEntity
  8
SUNPOU
100
AcDbMText
 10
78186.60591955537
 20
62981.10603865737
 30
0.0
 40
10.5
 41
0.0
 71
     9
 72
     5
  1

1001
ACAD
1000
MTEXTBEGIN
1070
    73
1070
     1
1070
    44
1040
1.0
1070
    74
1070
     0
1000
MTEXTEND
1000
MTEXTBEGIN
1070
    73
1070
     1
1070
    44
1040
1.0
1070
    74
1070
     0
1000
MTEXTEND
  0
MTEXT
  5
5688
330
1A
100
AcDbEntity
  8
SUNPOU
100
AcDbMText
 10
64238.60581917939
 20
43808.70689954517
 30
0.0
 40
3.5
 41
0.0
 71
     7
 72
     5
  1

1001
ACAD
1000
MTEXTBEGIN
1070
    73
1070
     1
1070
    44
1040
1.0
1070
    74
1070
     0
1000
MTEXTEND
1000
MTEXTBEGIN
1070
    73
1070
     1
1070
    44
1040
1.0
1070
    74
1070
     0
1000
MTEXTEND
  0
MTEXT
  5
5689
330
1A
100
AcDbEntity
  8
SUNPOU
100
AcDbMText
 10
33428.13481137435
 20
32770.04710035563
 30
0.0
 40
10.5
 41
0.0
 71
     9
 72
     5
  1

1001
ACAD
1000
MTEXTBEGIN
1070
    73
1070
     1
1070
    44
1040
1.0
1070
    74
1070
     0
1000
MTEXTEND
1000
MTEXTBEGIN
1070
    73
1070
     1
1070
    44
1040
1.0
1070
    74
1070
     0
1000
MTEXTEND
  0
MTEXT
  5
568A
330
1A
100
AcDbEntity
  8
SUNPOU
100
AcDbMText
 10
52381.89352870431
 20
50236.62315284768
 30
0.0
 40
10.5
 41
0.0
 71
     9
 72
     5
  1

1001
ACAD
1000
MTEXTBEGIN
1070
    73
1070
     1
1070
    44
1040
1.0
1070
    74
1070
     0
1000
MTEXTEND
1000
MTEXTBEGIN
1070
    73
1070
     1
1070
    44
1040
1.0
1070
    74
1070
     0
1000
MTEXTEND
  0
MTEXT
  5
568B
330
1A
100
AcDbEntity
  8
SUNPOU
100
AcDbMText
 10
54325.30077541374
 20
48435.57407296968
 30
0.0
 40
3.5
 41
0.0
 71
     9
 72
     5
  1

1001
ACAD
1000
MTEXTBEGIN
1070
    73
1070
     1
1070
    44
1040
1.0
1070
    74
1070
     0
1000
MTEXTEND
1000
MTEXTBEGIN
1070
    73
1070
     1
1070
    44
1040
1.0
1070
    74
1070
     0
1000
MTEXTEND
  0
MTEXT
  5
568C
330
1A
100
AcDbEntity
  8
SUNPOU
100
AcDbMText
 10
85451.48060803342
 20
90930.51974062703
 30
0.0
 40
10.5
 41
0.0
 71
     9
 72
     5
  1

1001
ACAD
1000
MTEXTBEGIN
1070
    73
1070
     1
1070
    44
1040
1.0
1070
    74
1070
     0
1000
MTEXTEND
1000
MTEXTBEGIN
1070
    73
1070
     1
1070
    44
1040
1.0
1070
    74
1070
     0
1000
MTEXTEND
  0
MTEXT
  5
568D
330
1A
100
AcDbEntity
  8
SUNPOU
100
AcDbMText
 10
87394.88785474286
 20
89129.47066074901
 30
0.0
 40
3.5
 41
0.0
 71
     9
 72
     5
  1

1001
ACAD
1000
MTEXTBEGIN
1070
    73
1070
     1
1070
    44
1040
1.0
1070
    74
1070
     0
1000
MTEXTEND
1000
MTEXTBEGIN
1070
    73
1070
     1
1070
    44
1040
1.0
1070
    74
1070
     0
1000
MTEXTEND
  0
MTEXT
  5
568E
330
1A
100
AcDbEntity
  8
SUNPOU
100
AcDbMText
 10
35891.74831382901
 20
36763.68489560208
 30
0.0
 40
10.5
 41
0.0
 71
     9
 72
     5
  1

1001
ACAD
1000
MTEXTBEGIN
1070
    73
1070
     1
1070
    44
1040
1.0
1070
    74
1070
     0
1000
MTEXTEND
1000
MTEXTBEGIN
1070
    73
1070
     1
1070
    44
1040
1.0
1070
    74
1070
     0
1000
MTEXTEND
  0
MTEXT
  5
568F
330
1A
100
AcDbEntity
  8
SUNPOU
100
AcDbMText
 10
21943.74821345303
 20
17591.28575648985
 30
0.0
 40
3.5
 41
0.0
 71
     7
 72
     5
  1

1001
ACAD
1000
MTEXTBEGIN
1070
    73
1070
     1
1070
    44
1040
1.0
1070
    74
1070
     0
1000
MTEXTEND
1000
MTEXTBEGIN
1070
    73
1070
     1
1070
    44
1040
1.0
1070
    74
1070
     0
1000
MTEXTEND
  0
MTEXT
  5
11D07
330
1A
100
AcDbEntity
  8
ZISSEN1
100
AcDbMText
 10
-1138.61034023246
 20
1741.939100243006
 30
0.0
 40
5.0
 41
111.2412999999999
 71
     1
 72
     5
  1
CP-16/AT3　No.SS0001f109
1001
ACAD
1000
MTEXTBEGIN
1070
    73
1070
     1
1070
    44
1040
1.0
1070
    74
1070
     0
1000
MTEXTEND
1000
MTEXTBEGIN
1070
    73
1070
     1
1070
    44
1040
1.0
1070
    74
1070
     0
1000
MTEXTEND
  0
LINE
  5
14869
330
1A
100
AcDbEntity
  8
ZISSEN1
100
AcDbLine
 10
-1147.888842729364
 20
1672.56651737868
 30
0.0
 11
-1024.388842729364
 21
1672.56651737868
 31
0.0
  0
LINE
  5
1486A
330
1A
100
AcDbEntity
  8
ZISSEN1
100
AcDbLine
 10
-1024.388842729364
 20
1716.566517378681
 30
0.0
 11
-1140.488842729366
 21
1716.566517378681
 31
0.0
  0
LWPOLYLINE
  5
1486E
330
1A
100
AcDbEntity
  8
ZISSEN1
100
AcDbPolyline
 90
        4
 70
     1
 43
0.0
 10
-1148.888839005242
 20
1607.169741430933
 10
-1023.388842729364
 20
1607.169741430933
 10
-1023.388842729364
 20
1604.169741430933
 10
-1148.888839005242
 20
1604.169741430933
  0
LINE
  5
148F8
330
1A
100
AcDbEntity
  8
ZISSEN1
100
AcDbLine
 10
-1112.888842729365
 20
1595.669741430932
 30
0.0
 11
-1137.573969450075
 21
1595.669741430932
 31
0.0
  0
LINE
  5
148F9
330
1A
100
AcDbEntity
  8
ZISSEN1
100
AcDbLine
 10
-1050.388842729365
 20
1604.169741430933
 30
0.0
 11
-1140.388842729366
 21
1604.169741430933
 31
0.0
  0
LINE
  5
148FA
330
1A
100
AcDbEntity
  8
KAKURESEN1
100
AcDbLine
 10
-1127.488842729366
 20
1686.31651737868
 30
0.0
 11
-1130.288842729367
 21
1686.31651737868
 31
0.0
  0
LINE
  5
148FB
330
1A
100
AcDbEntity
  8
KAKURESEN1
100
AcDbLine
 10
-1098.788842729367
 20
1682.91651737868
 30
0.0
 11
-1133.388842729366
 21
1682.91651737868
 31
0.0
  0
LINE
  5
148FC
330
1A
100
AcDbEntity
  8
KAKURESEN1
100
AcDbLine
 10
-1130.288842729367
 20
1692.31651737868
 30
0.0
 11
-1127.488842729366
 21
1692.31651737868
 31
0.0
  0
LINE
  5
148FD
330
1A
100
AcDbEntity
  8
KAKURESEN1
100
AcDbLine
 10
-1130.288842729367
 20
1704.516517378678
 30
0.0
 11
-1127.488842729366
 21
1704.516517378678
 31
0.0
  0
LINE
  5
148FE
330
1A
100
AcDbEntity
  8
KAKURESEN1
100
AcDbLine
 10
-1127.488842729366
 20
1710.516517378678
 30
0.0
 11
-1130.288842729367
 21
1710.516517378678
 31
0.0
  0
LINE
  5
148FF
330
1A
100
AcDbEntity
  8
KAKURESEN1
100
AcDbLine
 10
-1098.788842729367
 20
1713.91651737868
 30
0.0
 11
-1133.388842729366
 21
1713.91651737868
 31
0.0
  0
LINE
  5
14900
330
1A
100
AcDbEntity
  8
KAKURESEN1
100
AcDbLine
 10
-1140.388842729366
 20
1680.91651737868
 30
0.0
 11
-1050.388842729365
 21
1680.91651737868
 31
0.0
1001
GENIUS_GENREC_14
1002
{
1000
PYDIR
1011
-1050.388842729365
1021
1715.91651737868
1031
0.0
1002
}
1002
{
1000
PXDIR
1011
-1140.388842729366
1021
1680.91651737868
1031
0.0
1002
}
1002
{
1000
PORI
1011
-1140.388842729366
1021
1715.91651737868
1031
0.0
1002
}
1002
{
1000
PINS
1011
-1095.388842729365
1021
1698.41651737868
1031
0.0
1002
}
1002
{
1000
HVAL
1000
90
1002
}
1002
{
1000
H
1070
     2
1002
}
1002
{
1000
WVAL
1000
35
1002
}
1002
{
1000
W
1070
     2
1002
}
1002
{
1000
C
1070
     4
1002
}
1001
GENIUS_GENOBJ-N-REC_13
1002
{
1000
OWNER
1000
GEN
1002
}
1001
GENIUS_GENODEF_13
1002
{
1000
HIER
1070
     0
1002
}
1002
{
1000
MANEDIT
1070
     0
1002
}
1002
{
1000
NOSEL
1070
     0
1002
}
1002
{
1000
BEHIND
1070
     0
1002
}
1002
{
1000
OTHER
1070
     0
1002
}
1002
{
1000
REACTOR
1002
}
  0
LINE
  5
14901
330
1A
100
AcDbEntity
  8
KAKURESEN1
100
AcDbLine
 10
-1050.388842729365
 20
1715.91651737868
 30
0.0
 11
-1140.388842729366
 21
1715.91651737868
 31
0.0
1001
GENIUS_GENREC_14
1002
{
1000
PYDIR
1011
-1050.388842729365
1021
1715.91651737868
1031
0.0
1002
}
1002
{
1000
PXDIR
1011
-1140.388842729366
1021
1680.91651737868
1031
0.0
1002
}
1002
{
1000
PORI
1011
-1140.388842729366
1021
1715.91651737868
1031
0.0
1002
}
1002
{
1000
PINS
1011
-1095.388842729365
1021
1698.41651737868
1031
0.0
1002
}
1002
{
1000
HVAL
1000
90
1002
}
1002
{
1000
H
1070
     2
1002
}
1002
{
1000
WVAL
1000
35
1002
}
1002
{
1000
W
1070
     2
1002
}
1002
{
1000
C
1070
     4
1002
}
1001
GENIUS_GENOBJ-N-REC_13
1002
{
1000
OWNER
1000
GEN
1002
}
1001
GENIUS_GENODEF_13
1002
{
1000
HIER
1070
     0
1002
}
1002
{
1000
MANEDIT
1070
     0
1002
}
1002
{
1000
NOSEL
1070
     0
1002
}
1002
{
1000
BEHIND
1070
     0
1002
}
1002
{
1000
OTHER
1070
     0
1002
}
1002
{
1000
REACTOR
1002
}
  0
LINE
  5
14903
330
1A
100
AcDbEntity
  8
KAKURESEN1
100
AcDbLine
 10
-1050.388842729365
 20
1702.41651737868
 30
0.0
 11
-1140.388842729366
 21
1702.41651737868
 31
0.0
  0
LINE
  5
14904
330
1A
100
AcDbEntity
  8
KAKURESEN1
100
AcDbLine
 10
-1140.388842729366
 20
1694.416517378679
 30
0.0
 11
-1050.388842729365
 21
1694.416517378679
 31
0.0
  0
CIRCLE
  5
14906
330
1A
100
AcDbEntity
  8
KAKURESEN1
100
AcDbCircle
 10
-1136.488842729366
 20
1684.766517378678
 30
0.0
 40
2.0
  0
CIRCLE
  5
14907
330
1A
100
AcDbEntity
  8
ZISSEN1
100
AcDbCircle
 10
-1136.488842729366
 20
1684.766517378678
 30
0.0
 40
1.5
  0
CIRCLE
  5
14908
330
1A
100
AcDbEntity
  8
ZISSEN1
100
AcDbCircle
 10
-1136.488842729366
 20
1684.766517378678
 30
0.0
 40
1.399999999999999
  0
LINE
  5
14909
330
1A
100
AcDbEntity
  8
ZISSEN1
100
AcDbLine
 10
-1148.888842729364
 20
1692.56651737868
 30
0.0
 11
-1148.888842729364
 21
1673.56651737868
 31
0.0
  0
LINE
  5
1490B
330
1A
100
AcDbEntity
  8
KAKURESEN1
100
AcDbLine
 10
-1133.388842729366
 20
1682.91651737868
 30
0.0
 11
-1133.388842729366
 21
1687.91651737868
 31
0.0
  0
LINE
  5
1490E
330
1A
100
AcDbEntity
  8
KAKURESEN1
100
AcDbLine
 10
-1140.388842729366
 20
1715.91651737868
 30
0.0
 11
-1140.388842729366
 21
1680.91651737868
 31
0.0
1001
GENIUS_GENREC_14
1002
{
1000
PYDIR
1011
-1050.388842729365
1021
1715.91651737868
1031
0.0
1002
}
1002
{
1000
PXDIR
1011
-1140.388842729366
1021
1680.91651737868
1031
0.0
1002
}
1002
{
1000
PORI
1011
-1140.388842729366
1021
1715.91651737868
1031
0.0
1002
}
1002
{
1000
PINS
1011
-1095.388842729365
1021
1698.41651737868
1031
0.0
1002
}
1002
{
1000
HVAL
1000
90
1002
}
1002
{
1000
H
1070
     2
1002
}
1002
{
1000
WVAL
1000
35
1002
}
1002
{
1000
W
1070
     2
1002
}
1002
{
1000
C
1070
     4
1002
}
1001
GENIUS_GENOBJ-N-REC_13
1002
{
1000
OWNER
1000
GEN
1002
}
1001
GENIUS_GENODEF_13
1002
{
1000
HIER
1070
     0
1002
}
1002
{
1000
MANEDIT
1070
     0
1002
}
1002
{
1000
NOSEL
1070
     0
1002
}
1002
{
1000
BEHIND
1070
     0
1002
}
1002
{
1000
OTHER
1070
     0
1002
}
1002
{
1000
REACTOR
1002
}
  0
LINE
  5
14910
330
1A
100
AcDbEntity
  8
ZISSEN1
100
AcDbLine
 10
-1140.388842729366
 20
1595.669741430932
 30
0.0
 11
-1140.388842729366
 21
1604.169741430933
 31
0.0
  0
LINE
  5
14914
330
1A
100
AcDbEntity
  8
ZISSEN1
100
AcDbLine
 10
-1137.573969450075
 20
1595.669741430932
 30
0.0
 11
-1140.388842729366
 21
1595.669741430932
 31
0.0
  0
LINE
  5
14915
330
1A
100
AcDbEntity
  8
SAISEN
100
AcDbLine
 10
-1140.388842729366
 20
1595.669741430932
 30
0.0
 11
-1143.888842729366
 21
1595.669741430932
 31
0.0
  0
LINE
  5
14916
330
1A
100
AcDbEntity
  8
SAISEN
100
AcDbLine
 10
-1143.888842729366
 20
1595.669741430932
 30
0.0
 11
-1145.688842729364
 21
1594.169741430933
 31
0.0
  0
LINE
  5
14917
330
1A
100
AcDbEntity
  8
ZISSEN1
100
AcDbLine
 10
-1145.688842729364
 20
1594.169741430933
 30
0.0
 11
-1145.888842729366
 21
1594.169741430933
 31
0.0
  0
LINE
  5
14918
330
1A
100
AcDbEntity
  8
SAISEN
100
AcDbLine
 10
-1145.888842729366
 20
1598.969741430933
 30
0.0
 11
-1140.388842729366
 21
1598.969741430933
 31
0.0
  0
LINE
  5
14919
330
1A
100
AcDbEntity
  8
SAISEN
100
AcDbLine
 10
-1145.888842729366
 20
1594.169741430933
 30
0.0
 11
-1145.888842729366
 21
1598.969741430933
 31
0.0
  0
LINE
  5
1491A
330
1A
100
AcDbEntity
  8
ZISSEN1
100
AcDbLine
 10
-1137.573969450075
 20
1596.669741430932
 30
0.0
 11
-1135.403716008654
 21
1596.669741430932
 31
0.0
  0
LINE
  5
1491B
330
1A
100
AcDbEntity
  8
ZISSEN1
100
AcDbLine
 10
-1135.403716008654
 20
1596.669741430932
 30
0.0
 11
-1135.403716008654
 21
1595.669741430932
 31
0.0
  0
LINE
  5
1491C
330
1A
100
AcDbEntity
  8
ZISSEN1
100
AcDbLine
 10
-1137.573969450075
 20
1596.669741430932
 30
0.0
 11
-1137.573969450075
 21
1595.669741430932
 31
0.0
  0
LINE
  5
1491D
330
1A
100
AcDbEntity
  8
ZISSEN1
100
AcDbLine
 10
-1148.888842729364
 20
1673.56651737868
 30
0.0
 11
-1147.888842729364
 21
1672.56651737868
 31
0.0
  0
LINE
  5
14925
330
1A
100
AcDbEntity
  8
ZISSEN1
100
AcDbLine
 10
-1147.888842729364
 20
1693.56651737868
 30
0.0
 11
-1148.888842729364
 21
1692.56651737868
 31
0.0
  0
LINE
  5
14926
330
1A
100
AcDbEntity
  8
KAKURESEN1
100
AcDbLine
 10
-1133.388842729366
 20
1687.91651737868
 30
0.0
 11
-1140.388842729366
 21
1687.91651737868
 31
0.0
  0
LINE
  5
14927
330
1A
100
AcDbEntity
  8
KAKURESEN1
100
AcDbLine
 10
-1133.988842729366
 20
1688.41651737868
 30
0.0
 11
-1138.488842729366
 21
1688.41651737868
 31
0.0
  0
LINE
  5
14928
330
1A
100
AcDbEntity
  8
KAKURESEN1
100
AcDbLine
 10
-1138.488842729366
 20
1689.91651737868
 30
0.0
 11
-1133.988842729366
 21
1689.91651737868
 31
0.0
  0
LINE
  5
14929
330
1A
100
AcDbEntity
  8
KAKURESEN1
100
AcDbLine
 10
-1138.488842729366
 20
1706.916517378679
 30
0.0
 11
-1133.988842729366
 21
1706.916517378679
 31
0.0
  0
CIRCLE
  5
1492B
330
1A
100
AcDbEntity
  8
KAKURESEN1
100
AcDbCircle
 10
-1136.488842729366
 20
1712.06651737868
 30
0.0
 40
2.0
  0
LINE
  5
1492C
330
1A
100
AcDbEntity
  8
KAKURESEN1
100
AcDbLine
 10
-1133.388842729366
 20
1708.916517378679
 30
0.0
 11
-1140.388842729366
 21
1708.916517378679
 31
0.0
  0
LINE
  5
1492D
330
1A
100
AcDbEntity
  8
KAKURESEN1
100
AcDbLine
 10
-1133.988842729366
 20
1708.41651737868
 30
0.0
 11
-1138.488842729366
 21
1708.41651737868
 31
0.0
  0
CIRCLE
  5
1492E
330
1A
100
AcDbEntity
  8
ZISSEN1
100
AcDbCircle
 10
-1136.488842729366
 20
1712.06651737868
 30
0.0
 40
1.5
  0
CIRCLE
  5
1492F
330
1A
100
AcDbEntity
  8
ZISSEN1
100
AcDbCircle
 10
-1136.488842729366
 20
1712.06651737868
 30
0.0
 40
1.399999999999999
  0
LINE
  5
14930
330
1A
100
AcDbEntity
  8
ZISSEN1
100
AcDbLine
 10
-1141.488842729364
 20
1693.56651737868
 30
0.0
 11
-1147.888842729364
 21
1693.56651737868
 31
0.0
  0
LINE
  5
14931
330
1A
100
AcDbEntity
  8
KAKURESEN1
100
AcDbLine
 10
-1145.888842729366
 20
1688.66651737868
 30
0.0
 11
-1140.388842729366
 21
1688.66651737868
 31
0.0
  0
LINE
  5
14932
330
1A
100
AcDbEntity
  8
KAKURESEN1
100
AcDbLine
 10
-1140.888842729365
 20
1696.266517378679
 30
0.0
 11
-1140.388842729366
 21
1696.266517378679
 31
0.0
  0
LINE
  5
14933
330
1A
100
AcDbEntity
  8
SAISEN
100
AcDbLine
 10
-1143.388842729365
 20
1695.56651737868
 30
0.0
 11
-1142.388842729366
 21
1695.56651737868
 31
0.0
  0
LINE
  5
14934
330
1A
100
AcDbEntity
  8
KAKURESEN1
100
AcDbLine
 10
-1138.488842729366
 20
1688.41651737868
 30
0.0
 11
-1138.488842729366
 21
1689.91651737868
 31
0.0
  0
LINE
  5
14935
330
1A
100
AcDbEntity
  8
KAKURESEN1
100
AcDbLine
 10
-1140.888842729365
 20
1700.56651737868
 30
0.0
 11
-1140.388842729366
 21
1700.56651737868
 31
0.0
  0
LINE
  5
14936
330
1A
100
AcDbEntity
  8
SAISEN
100
AcDbLine
 10
-1143.388842729365
 20
1701.266517378678
 30
0.0
 11
-1142.388842729366
 21
1701.266517378678
 31
0.0
  0
LWPOLYLINE
  5
14937
330
1A
100
AcDbEntity
  8
KAKURESEN1
100
AcDbPolyline
 90
        2
 70
     0
 43
0.0
 10
-1140.388842729366
 20
1700.56651737868
 10
-1140.388842729366
 20
1696.266517378679
1001
GENIUS_GENREC_14
1002
{
1000
PYDIR
1011
-1050.388842729365
1021
1715.91651737868
1031
0.0
1002
}
1002
{
1000
PXDIR
1011
-1140.388842729366
1021
1680.91651737868
1031
0.0
1002
}
1002
{
1000
PORI
1011
-1140.388842729366
1021
1715.91651737868
1031
0.0
1002
}
1002
{
1000
PINS
1011
-1095.388842729365
1021
1698.41651737868
1031
0.0
1002
}
1002
{
1000
HVAL
1000
90
1002
}
1002
{
1000
H
1070
     2
1002
}
1002
{
1000
WVAL
1000
35
1002
}
1002
{
1000
W
1070
     2
1002
}
1002
{
1000
C
1070
     4
1002
}
1001
GENIUS_GENOBJ-N-REC_13
1002
{
1000
OWNER
1000
GEN
1002
}
1001
GENIUS_GENODEF_13
1002
{
1000
HIER
1070
     0
1002
}
1002
{
1000
MANEDIT
1070
     0
1002
}
1002
{
1000
NOSEL
1070
     0
1002
}
1002
{
1000
BEHIND
1070
     0
1002
}
1002
{
1000
OTHER
1070
     0
1002
}
1002
{
1000
REACTOR
1002
}
  0
LINE
  5
14938
330
1A
100
AcDbEntity
  8
KAKURESEN1
100
AcDbLine
 10
-1140.888842729365
 20
1696.266517378679
 30
0.0
 11
-1140.888842729365
 21
1700.56651737868
 31
0.0
  0
LINE
  5
14939
330
1A
100
AcDbEntity
  8
SAISEN
100
AcDbLine
 10
-1142.388842729366
 20
1695.56651737868
 30
0.0
 11
-1142.388842729366
 21
1701.266517378678
 31
0.0
  0
LINE
  5
1493A
330
1A
100
AcDbEntity
  8
SAISEN
100
AcDbLine
 10
-1143.388842729365
 20
1695.56651737868
 30
0.0
 11
-1143.388842729365
 21
1701.266517378678
 31
0.0
  0
LINE
  5
1493B
330
1A
100
AcDbEntity
  8
ZISSEN1
100
AcDbLine
 10
-1141.488842729366
 20
1715.566517378681
 30
0.0
 11
-1140.488842729366
 21
1716.566517378681
 31
0.0
  0
LINE
  5
1493C
330
1A
100
AcDbEntity
  8
SAISEN
100
AcDbLine
 10
-1145.888842729366
 20
1708.166517378679
 30
0.0
 11
-1141.488842729365
 21
1708.166517378679
 31
0.0
  0
LINE
  5
1493D
330
1A
100
AcDbEntity
  8
ZISSEN1
100
AcDbLine
 10
-1141.488842729366
 20
1715.566517378681
 30
0.0
 11
-1141.488842729364
 21
1693.56651737868
 31
0.0
  0
LINE
  5
1493E
330
1A
100
AcDbEntity
  8
KAKURESEN1
100
AcDbLine
 10
-1145.888842729366
 20
1688.66651737868
 30
0.0
 11
-1145.888842729366
 21
1693.56651737868
 31
0.0
  0
LINE
  5
1493F
330
1A
100
AcDbEntity
  8
KAKURESEN1
100
AcDbLine
 10
-1143.888842729366
 20
1693.56651737868
 30
0.0
 11
-1143.888842729366
 21
1688.66651737868
 31
0.0
  0
LINE
  5
14940
330
1A
100
AcDbEntity
  8
KAKURESEN1
100
AcDbLine
 10
-1138.488842729366
 20
1708.41651737868
 30
0.0
 11
-1138.488842729366
 21
1706.916517378679
 31
0.0
  0
LINE
  5
14941
330
1A
100
AcDbEntity
  8
KAKURESEN1
100
AcDbLine
 10
-1133.988842729366
 20
1689.91651737868
 30
0.0
 11
-1133.988842729366
 21
1688.41651737868
 31
0.0
  0
LINE
  5
14942
330
1A
100
AcDbEntity
  8
KAKURESEN1
100
AcDbLine
 10
-1130.288842729367
 20
1686.31651737868
 30
0.0
 11
-1130.288842729367
 21
1692.31651737868
 31
0.0
  0
LINE
  5
14945
330
1A
100
AcDbEntity
  8
KAKURESEN1
100
AcDbLine
 10
-1133.388842729366
 20
1713.91651737868
 30
0.0
 11
-1133.388842729366
 21
1708.916517378679
 31
0.0
  0
LINE
  5
14947
330
1A
100
AcDbEntity
  8
KAKURESEN1
100
AcDbLine
 10
-1130.288842729367
 20
1710.516517378678
 30
0.0
 11
-1130.288842729367
 21
1704.516517378678
 31
0.0
  0
LINE
  5
14948
330
1A
100
AcDbEntity
  8
KAKURESEN1
100
AcDbLine
 10
-1133.988842729366
 20
1706.916517378679
 30
0.0
 11
-1133.988842729366
 21
1708.41651737868
 31
0.0
  0
CIRCLE
  5
14949
330
1A
100
AcDbEntity
  8
KAKURESEN1
100
AcDbCircle
 10
-1054.288842729367
 20
1684.766517378678
 30
0.0
 40
2.0
  0
CIRCLE
  5
1494A
330
1A
100
AcDbEntity
  8
ZISSEN1
100
AcDbCircle
 10
-1054.288842729367
 20
1684.766517378678
 30
0.0
 40
1.5
  0
CIRCLE
  5
1494B
330
1A
100
AcDbEntity
  8
ZISSEN1
100
AcDbCircle
 10
-1054.288842729367
 20
1684.766517378678
 30
0.0
 40
1.399999999999999
  0
LINE
  5
1494C
330
1A
100
AcDbEntity
  8
KAKURESEN1
100
AcDbLine
 10
-1057.388842729366
 20
1687.91651737868
 30
0.0
 11
-1057.388842729366
 21
1682.91651737868
 31
0.0
  0
LINE
  5
1494E
330
1A
100
AcDbEntity
  8
KAKURESEN1
100
AcDbLine
 10
-1050.388842729365
 20
1680.91651737868
 30
0.0
 11
-1050.388842729365
 21
1715.91651737868
 31
0.0
1001
GENIUS_GENREC_14
1002
{
1000
PYDIR
1011
-1050.388842729365
1021
1715.91651737868
1031
0.0
1002
}
1002
{
1000
PXDIR
1011
-1140.388842729366
1021
1680.91651737868
1031
0.0
1002
}
1002
{
1000
PORI
1011
-1140.388842729366
1021
1715.91651737868
1031
0.0
1002
}
1002
{
1000
PINS
1011
-1095.388842729365
1021
1698.41651737868
1031
0.0
1002
}
1002
{
1000
HVAL
1000
90
1002
}
1002
{
1000
H
1070
     2
1002
}
1002
{
1000
WVAL
1000
35
1002
}
1002
{
1000
W
1070
     2
1002
}
1002
{
1000
C
1070
     4
1002
}
1001
GENIUS_GENOBJ-N-REC_13
1002
{
1000
OWNER
1000
GEN
1002
}
1001
GENIUS_GENODEF_13
1002
{
1000
HIER
1070
     0
1002
}
1002
{
1000
MANEDIT
1070
     0
1002
}
1002
{
1000
NOSEL
1070
     0
1002
}
1002
{
1000
BEHIND
1070
     0
1002
}
1002
{
1000
OTHER
1070
     0
1002
}
1002
{
1000
REACTOR
1002
}
  0
CIRCLE
  5
1494F
330
1A
100
AcDbEntity
  8
KAKURESEN1
100
AcDbCircle
 10
-1095.388842729365
 20
1684.766517378678
 30
0.0
 40
2.0
  0
CIRCLE
  5
14950
330
1A
100
AcDbEntity
  8
ZISSEN1
100
AcDbCircle
 10
-1095.388842729364
 20
1684.766517378678
 30
0.0
 40
1.5
  0
CIRCLE
  5
14951
330
1A
100
AcDbEntity
  8
ZISSEN1
100
AcDbCircle
 10
-1095.388842729364
 20
1684.766517378678
 30
0.0
 40
1.399999999999999
  0
LINE
  5
14952
330
1A
100
AcDbEntity
  8
KAKURESEN1
100
AcDbLine
 10
-1091.788842729367
 20
1682.91651737868
 30
0.0
 11
-1091.788842729367
 21
1687.91651737868
 31
0.0
  0
LINE
  5
14953
330
1A
100
AcDbEntity
  8
KAKURESEN1
100
AcDbLine
 10
-1098.788842729367
 20
1682.91651737868
 30
0.0
 11
-1098.788842729367
 21
1687.91651737868
 31
0.0
  0
LINE
  5
14955
330
1A
100
AcDbEntity
  8
ZISSEN1
100
AcDbLine
 10
-1077.888842729366
 20
1599.069741430932
 30
0.0
 11
-1091.538842729367
 21
1599.069741430932
 31
0.0
  0
LINE
  5
14956
330
1A
100
AcDbEntity
  8
KAKURESEN1
100
AcDbLine
 10
-1081.188842729367
 20
1682.91651737868
 30
0.0
 11
-1091.788842729367
 21
1682.91651737868
 31
0.0
  0
LINE
  5
14957
330
1A
100
AcDbEntity
  8
ZISSEN1
100
AcDbLine
 10
-1099.238842729364
 20
1599.069741430932
 30
0.0
 11
-1112.888842729365
 21
1599.069741430932
 31
0.0
  0
LINE
  5
14958
330
1A
100
AcDbEntity
  8
ZISSEN1
100
AcDbLine
 10
-1112.888842729365
 20
1595.669741430932
 30
0.0
 11
-1112.888842729365
 21
1599.069741430932
 31
0.0
  0
LINE
  5
14959
330
1A
100
AcDbEntity
  8
ZISSEN1
100
AcDbLine
 10
-1112.888842729365
 20
1595.669741430932
 30
0.0
 11
-1111.888842729366
 21
1596.869741430932
 31
0.0
  0
LINE
  5
1495A
330
1A
100
AcDbEntity
  8
ZISSEN1
100
AcDbLine
 10
-1111.888842729366
 20
1596.869741430932
 30
0.0
 11
-1112.888842729365
 21
1597.469741430933
 31
0.0
  0
LINE
  5
1495B
330
1A
100
AcDbEntity
  8
ZISSEN1
100
AcDbLine
 10
-1096.473969450076
 20
1595.669741430932
 30
0.0
 11
-1099.238842729364
 21
1595.669741430932
 31
0.0
  0
LINE
  5
1495C
330
1A
100
AcDbEntity
  8
ZISSEN1
100
AcDbLine
 10
-1099.238842729364
 20
1595.669741430932
 30
0.0
 11
-1099.238842729364
 21
1599.069741430932
 31
0.0
  0
LINE
  5
1495D
330
1A
100
AcDbEntity
  8
ZISSEN1
100
AcDbLine
 10
-1091.538842729367
 20
1595.669741430932
 30
0.0
 11
-1094.303716008654
 21
1595.669741430932
 31
0.0
  0
LINE
  5
1495E
330
1A
100
AcDbEntity
  8
ZISSEN1
100
AcDbLine
 10
-1094.303716008654
 20
1596.669741430932
 30
0.0
 11
-1096.473969450076
 21
1596.669741430932
 31
0.0
  0
LINE
  5
1495F
330
1A
100
AcDbEntity
  8
ZISSEN1
100
AcDbLine
 10
-1094.303716008654
 20
1595.669741430932
 30
0.0
 11
-1094.303716008654
 21
1596.669741430932
 31
0.0
  0
LINE
  5
14960
330
1A
100
AcDbEntity
  8
ZISSEN1
100
AcDbLine
 10
-1096.473969450076
 20
1595.669741430932
 30
0.0
 11
-1096.473969450076
 21
1596.669741430932
 31
0.0
  0
LINE
  5
14961
330
1A
100
AcDbEntity
  8
ZISSEN1
100
AcDbLine
 10
-1091.538842729367
 20
1595.669741430932
 30
0.0
 11
-1091.538842729367
 21
1599.069741430932
 31
0.0
  0
LINE
  5
14963
330
1A
100
AcDbEntity
  8
ZISSEN1
100
AcDbLine
 10
-1050.388842729365
 20
1595.669741430932
 30
0.0
 11
-1050.388842729365
 21
1604.169741430933
 31
0.0
  0
LINE
  5
14964
330
1A
100
AcDbEntity
  8
ZISSEN1
100
AcDbLine
 10
-1055.373969450078
 20
1595.669741430932
 30
0.0
 11
-1077.888842729366
 21
1595.669741430932
 31
0.0
  0
ARC
  5
14965
330
1A
100
AcDbEntity
  8
ZISSEN1
100
AcDbCircle
 10
-1081.105895526605
 20
1598.069741430932
 30
0.0
 40
1.0
100
AcDbArc
 50
65.50749474939621
 51
90.0
1001
GENIUS_GENODEF_13
1002
{
1000
HIER
1070
     0
1002
}
1002
{
1000
MANEDIT
1070
     0
1002
}
1002
{
1000
NOSEL
1070
     0
1002
}
1002
{
1000
BEHIND
1070
     0
1002
}
1002
{
1000
OTHER
1070
     0
1002
}
1002
{
1000
REACTOR
1002
}
1001
GENIUS_GENOBJ-N-FIL_13
1002
{
1000
OWNER
1000
GEN
1002
}
  0
LINE
  5
14966
330
1A
100
AcDbEntity
  8
ZISSEN1
100
AcDbLine
 10
-1077.888842729366
 20
1599.069741430932
 30
0.0
 11
-1079.266954849323
 21
1598.70224486561
 31
0.0
  0
ARC
  5
14967
330
1A
100
AcDbEntity
  8
ZISSEN1
100
AcDbCircle
 10
-1079.395786174603
 20
1599.185362335409
 30
0.0
 40
0.5
100
AcDbArc
 50
256.6116004117919
 51
284.9314171781006
1001
GENIUS_GENOBJ-N-FIL_13
1002
{
1000
OWNER
1000
GEN
1002
}
1001
GENIUS_GENODEF_13
1002
{
1000
HIER
1070
     0
1002
}
1002
{
1000
MANEDIT
1070
     0
1002
}
1002
{
1000
NOSEL
1070
     0
1002
}
1002
{
1000
BEHIND
1070
     0
1002
}
1002
{
1000
OTHER
1070
     0
1002
}
1002
{
1000
REACTOR
1002
}
  0
LINE
  5
14968
330
1A
100
AcDbEntity
  8
ZISSEN1
100
AcDbLine
 10
-1079.511561647256
 20
1598.698950945813
 30
0.0
 11
-1080.691321317759
 21
1598.97975693924
 31
0.0
  0
ARC
  5
14969
330
1A
100
AcDbEntity
  8
ZISSEN1
100
AcDbCircle
 10
-1079.388842729368
 20
1596.978758425306
 30
0.0
 40
0.5
100
AcDbArc
 50
193.7411021811513
 51
243.4349488228928
1001
GENIUS_GENODEF_13
1002
{
1000
HIER
1070
     0
1002
}
1002
{
1000
MANEDIT
1070
     0
1002
}
1002
{
1000
NOSEL
1070
     0
1002
}
1002
{
1000
BEHIND
1070
     0
1002
}
1002
{
1000
OTHER
1070
     0
1002
}
1002
{
1000
REACTOR
1002
}
1001
GENIUS_GENOBJ-N-FIL_13
1002
{
1000
OWNER
1000
GEN
1002
}
  0
ARC
  5
1496A
330
1A
100
AcDbEntity
  8
ZISSEN1
100
AcDbCircle
 10
-1079.68025642031
 20
1596.907497912199
 30
0.0
 40
0.2
100
AcDbArc
 50
101.3099324740917
 51
193.7411021811513
1001
GENIUS_GENOBJ-N-FIL_13
1002
{
1000
OWNER
1000
GEN
1002
}
1001
GENIUS_GENODEF_13
1002
{
1000
HIER
1070
     0
1002
}
1002
{
1000
MANEDIT
1070
     0
1002
}
1002
{
1000
NOSEL
1070
     0
1002
}
1002
{
1000
BEHIND
1070
     0
1002
}
1002
{
1000
OTHER
1070
     0
1002
}
1002
{
1000
REACTOR
1002
}
  0
LINE
  5
1496B
330
1A
100
AcDbEntity
  8
ZISSEN1
100
AcDbLine
 10
-1079.719479647335
 20
1597.103614047338
 30
0.0
 11
-1077.888842729366
 21
1597.469741430933
 31
0.0
  0
LINE
  5
1496C
330
1A
100
AcDbEntity
  8
ZISSEN1
100
AcDbLine
 10
-1077.888842729366
 20
1595.669741430932
 30
0.0
 11
-1077.888842729366
 21
1599.069741430932
 31
0.0
  0
LINE
  5
1496D
330
1A
100
AcDbEntity
  8
ZISSEN1
100
AcDbLine
 10
-1077.888842729366
 20
1595.669741430932
 30
0.0
 11
-1079.612449527115
 21
1596.531544829808
 31
0.0
  0
LINE
  5
1496E
330
1A
100
AcDbEntity
  8
ZISSEN1
100
AcDbLine
 10
-1050.388842729365
 20
1595.669741430932
 30
0.0
 11
-1053.203716008656
 21
1595.669741430932
 31
0.0
  0
LINE
  5
1496F
330
1A
100
AcDbEntity
  8
ZISSEN1
100
AcDbLine
 10
-1055.373969450078
 20
1596.669741430932
 30
0.0
 11
-1053.203716008656
 21
1596.669741430932
 31
0.0
  0
LINE
  5
14970
330
1A
100
AcDbEntity
  8
ZISSEN1
100
AcDbLine
 10
-1053.203716008656
 20
1596.669741430932
 30
0.0
 11
-1053.203716008656
 21
1595.669741430932
 31
0.0
  0
LINE
  5
14971
330
1A
100
AcDbEntity
  8
ZISSEN1
100
AcDbLine
 10
-1055.373969450078
 20
1596.669741430932
 30
0.0
 11
-1055.373969450078
 21
1595.669741430932
 31
0.0
  0
LINE
  5
14972
330
1A
100
AcDbEntity
  8
KAKURESEN1
100
AcDbLine
 10
-1057.388842729366
 20
1682.91651737868
 30
0.0
 11
-1074.088842729366
 21
1682.91651737868
 31
0.0
  0
LINE
  5
14973
330
1A
100
AcDbEntity
  8
KAKURESEN1
100
AcDbLine
 10
-1074.088842729366
 20
1684.91651737868
 30
0.0
 11
-1081.188842729367
 21
1684.91651737868
 31
0.0
  0
LINE
  5
14974
330
1A
100
AcDbEntity
  8
KAKURESEN1
100
AcDbLine
 10
-1081.188842729367
 20
1684.91651737868
 30
0.0
 11
-1081.188842729367
 21
1682.91651737868
 31
0.0
  0
LINE
  5
14975
330
1A
100
AcDbEntity
  8
KAKURESEN1
100
AcDbLine
 10
-1074.088842729366
 20
1682.91651737868
 30
0.0
 11
-1074.088842729366
 21
1684.91651737868
 31
0.0
  0
LINE
  5
1497C
330
1A
100
AcDbEntity
  8
KAKURESEN1
100
AcDbLine
 10
-1081.188842729367
 20
1713.91651737868
 30
0.0
 11
-1091.788842729367
 21
1713.91651737868
 31
0.0
  0
LINE
  5
1497D
330
1A
100
AcDbEntity
  8
KAKURESEN1
100
AcDbLine
 10
-1112.988842729366
 20
1688.41651737868
 30
0.0
 11
-1124.588842729367
 21
1688.41651737868
 31
0.0
  0
LINE
  5
1497E
330
1A
100
AcDbEntity
  8
KAKURESEN1
100
AcDbLine
 10
-1124.588842729367
 20
1689.91651737868
 30
0.0
 11
-1112.988842729366
 21
1689.91651737868
 31
0.0
  0
LINE
  5
1497F
330
1A
100
AcDbEntity
  8
KAKURESEN1
100
AcDbLine
 10
-1116.688842729367
 20
1688.616517378679
 30
0.0
 11
-1119.988842729366
 21
1688.616517378679
 31
0.0
  0
LINE
  5
14980
330
1A
100
AcDbEntity
  8
KAKURESEN1
100
AcDbLine
 10
-1124.588842729367
 20
1706.916517378679
 30
0.0
 11
-1112.988842729366
 21
1706.916517378679
 31
0.0
  0
LINE
  5
14981
330
1A
100
AcDbEntity
  8
KAKURESEN1
100
AcDbLine
 10
-1112.988842729366
 20
1708.41651737868
 30
0.0
 11
-1124.588842729367
 21
1708.41651737868
 31
0.0
  0
LINE
  5
14982
330
1A
100
AcDbEntity
  8
KAKURESEN1
100
AcDbLine
 10
-1116.688842729367
 20
1708.216517378678
 30
0.0
 11
-1119.988842729366
 21
1708.216517378678
 31
0.0
  0
LINE
  5
14983
330
1A
100
AcDbEntity
  8
KAKURESEN1
100
AcDbLine
 10
-1124.588842729367
 20
1688.41651737868
 30
0.0
 11
-1124.588842729367
 21
1689.91651737868
 31
0.0
  0
LINE
  5
14984
330
1A
100
AcDbEntity
  8
KAKURESEN1
100
AcDbLine
 10
-1120.388842729366
 20
1688.41651737868
 30
0.0
 11
-1120.388842729366
 21
1689.91651737868
 31
0.0
  0
LINE
  5
14985
330
1A
100
AcDbEntity
  8
KAKURESEN1
100
AcDbLine
 10
-1119.988842729366
 20
1688.616517378679
 30
0.0
 11
-1119.988842729366
 21
1689.91651737868
 31
0.0
  0
LINE
  5
14986
330
1A
100
AcDbEntity
  8
KAKURESEN1
100
AcDbLine
 10
-1127.488842729366
 20
1692.31651737868
 30
0.0
 11
-1127.488842729366
 21
1686.31651737868
 31
0.0
  0
LINE
  5
14987
330
1A
100
AcDbEntity
  8
KAKURESEN1
100
AcDbLine
 10
-1127.488842729366
 20
1704.516517378678
 30
0.0
 11
-1127.488842729366
 21
1710.516517378678
 31
0.0
  0
LINE
  5
14988
330
1A
100
AcDbEntity
  8
KAKURESEN1
100
AcDbLine
 10
-1124.588842729367
 20
1708.41651737868
 30
0.0
 11
-1124.588842729367
 21
1706.916517378679
 31
0.0
  0
LINE
  5
14989
330
1A
100
AcDbEntity
  8
KAKURESEN1
100
AcDbLine
 10
-1120.388842729366
 20
1708.41651737868
 30
0.0
 11
-1120.388842729366
 21
1706.916517378679
 31
0.0
  0
LINE
  5
1498A
330
1A
100
AcDbEntity
  8
KAKURESEN1
100
AcDbLine
 10
-1119.988842729366
 20
1708.216517378678
 30
0.0
 11
-1119.988842729366
 21
1706.916517378679
 31
0.0
  0
LINE
  5
1498B
330
1A
100
AcDbEntity
  8
KAKURESEN1
100
AcDbLine
 10
-1112.988842729366
 20
1689.91651737868
 30
0.0
 11
-1112.988842729366
 21
1688.41651737868
 31
0.0
  0
LINE
  5
1498C
330
1A
100
AcDbEntity
  8
KAKURESEN1
100
AcDbLine
 10
-1116.688842729367
 20
1689.91651737868
 30
0.0
 11
-1116.688842729367
 21
1688.616517378679
 31
0.0
  0
LINE
  5
1498D
330
1A
100
AcDbEntity
  8
KAKURESEN1
100
AcDbLine
 10
-1112.988842729366
 20
1706.916517378679
 30
0.0
 11
-1112.988842729366
 21
1708.41651737868
 31
0.0
  0
LINE
  5
1498E
330
1A
100
AcDbEntity
  8
KAKURESEN1
100
AcDbLine
 10
-1116.688842729367
 20
1706.916517378679
 30
0.0
 11
-1116.688842729367
 21
1708.216517378678
 31
0.0
  0
LINE
  5
1498F
330
1A
100
AcDbEntity
  8
KAKURESEN1
100
AcDbLine
 10
-1091.788842729367
 20
1687.91651737868
 30
0.0
 11
-1098.788842729367
 21
1687.91651737868
 31
0.0
  0
LINE
  5
14990
330
1A
100
AcDbEntity
  8
KAKURESEN1
100
AcDbLine
 10
-1091.788842729367
 20
1708.916517378679
 30
0.0
 11
-1098.788842729367
 21
1708.916517378679
 31
0.0
  0
CIRCLE
  5
14991
330
1A
100
AcDbEntity
  8
KAKURESEN1
100
AcDbCircle
 10
-1095.388842729365
 20
1712.06651737868
 30
0.0
 40
2.0
  0
LINE
  5
14993
330
1A
100
AcDbEntity
  8
KAKURESEN1
100
AcDbLine
 10
-1101.288842729367
 20
1686.31651737868
 30
0.0
 11
-1104.088842729366
 21
1686.31651737868
 31
0.0
  0
LINE
  5
14994
330
1A
100
AcDbEntity
  8
KAKURESEN1
100
AcDbLine
 10
-1104.088842729366
 20
1692.31651737868
 30
0.0
 11
-1101.288842729367
 21
1692.31651737868
 31
0.0
  0
LINE
  5
14998
330
1A
100
AcDbEntity
  8
KAKURESEN1
100
AcDbLine
 10
-1104.088842729366
 20
1704.516517378678
 30
0.0
 11
-1101.288842729367
 21
1704.516517378678
 31
0.0
  0
CIRCLE
  5
14999
330
1A
100
AcDbEntity
  8
KAKURESEN1
100
AcDbCircle
 10
-1102.388842729365
 20
1698.41651737868
 30
0.0
 40
2.0
  0
LINE
  5
1499B
330
1A
100
AcDbEntity
  8
KAKURESEN1
100
AcDbLine
 10
-1104.088842729366
 20
1686.31651737868
 30
0.0
 11
-1104.088842729366
 21
1692.31651737868
 31
0.0
  0
LINE
  5
1499C
330
1A
100
AcDbEntity
  8
KAKURESEN1
100
AcDbLine
 10
-1101.288842729367
 20
1692.31651737868
 30
0.0
 11
-1101.288842729367
 21
1686.31651737868
 31
0.0
  0
LINE
  5
1499D
330
1A
100
AcDbEntity
  8
KAKURESEN1
100
AcDbLine
 10
-1098.788842729367
 20
1713.91651737868
 30
0.0
 11
-1098.788842729367
 21
1708.916517378679
 31
0.0
  0
LINE
  5
1499E
330
1A
100
AcDbEntity
  8
KAKURESEN1
100
AcDbLine
 10
-1101.288842729367
 20
1710.516517378678
 30
0.0
 11
-1104.088842729366
 21
1710.516517378678
 31
0.0
  0
LINE
  5
1499F
330
1A
100
AcDbEntity
  8
KAKURESEN1
100
AcDbLine
 10
-1104.088842729366
 20
1710.516517378678
 30
0.0
 11
-1104.088842729366
 21
1704.516517378678
 31
0.0
  0
LINE
  5
149A0
330
1A
100
AcDbEntity
  8
KAKURESEN1
100
AcDbLine
 10
-1101.288842729367
 20
1704.516517378678
 30
0.0
 11
-1101.288842729367
 21
1710.516517378678
 31
0.0
  0
LINE
  5
149A1
330
1A
100
AcDbEntity
  8
KAKURESEN1
100
AcDbLine
 10
-1091.788842729367
 20
1713.91651737868
 30
0.0
 11
-1091.788842729367
 21
1708.916517378679
 31
0.0
  0
CIRCLE
  5
149A2
330
1A
100
AcDbEntity
  8
ZISSEN1
100
AcDbCircle
 10
-1095.388842729364
 20
1712.06651737868
 30
0.0
 40
1.5
  0
CIRCLE
  5
149A3
330
1A
100
AcDbEntity
  8
ZISSEN1
100
AcDbCircle
 10
-1095.388842729364
 20
1712.06651737868
 30
0.0
 40
1.399999999999999
  0
LINE
  5
149A4
330
1A
100
AcDbEntity
  8
KAKURESEN1
100
AcDbLine
 10
-1057.388842729366
 20
1713.91651737868
 30
0.0
 11
-1074.088842729366
 21
1713.91651737868
 31
0.0
  0
LINE
  5
149A5
330
1A
100
AcDbEntity
  8
KAKURESEN1
100
AcDbLine
 10
-1074.088842729366
 20
1711.91651737868
 30
0.0
 11
-1081.188842729367
 21
1711.91651737868
 31
0.0
  0
LINE
  5
149A6
330
1A
100
AcDbEntity
  8
KAKURESEN1
100
AcDbLine
 10
-1079.888842729366
 20
1686.71651737868
 30
0.0
 11
-1077.888842729366
 21
1686.71651737868
 31
0.0
  0
LINE
  5
149A7
330
1A
100
AcDbEntity
  8
KAKURESEN1
100
AcDbLine
 10
-1080.388842729365
 20
1686.616517378679
 30
0.0
 11
-1077.888842729366
 21
1686.616517378679
 31
0.0
  0
LINE
  5
149A8
330
1A
100
AcDbEntity
  8
KAKURESEN1
100
AcDbLine
 10
-1079.888842729366
 20
1692.916517378679
 30
0.0
 11
-1077.888842729366
 21
1692.916517378679
 31
0.0
  0
LINE
  5
149A9
330
1A
100
AcDbEntity
  8
KAKURESEN1
100
AcDbLine
 10
-1080.388842729365
 20
1693.16651737868
 30
0.0
 11
-1077.888842729366
 21
1693.16651737868
 31
0.0
  0
LINE
  5
149AA
330
1A
100
AcDbEntity
  8
KAKURESEN1
100
AcDbLine
 10
-1079.888842729366
 20
1703.91651737868
 30
0.0
 11
-1077.888842729366
 21
1703.91651737868
 31
0.0
  0
LINE
  5
149AB
330
1A
100
AcDbEntity
  8
KAKURESEN1
100
AcDbLine
 10
-1080.388842729365
 20
1703.66651737868
 30
0.0
 11
-1077.888842729366
 21
1703.66651737868
 31
0.0
  0
LINE
  5
149AC
330
1A
100
AcDbEntity
  8
KAKURESEN1
100
AcDbLine
 10
-1077.888842729366
 20
1686.616517378679
 30
0.0
 11
-1077.888842729366
 21
1693.16651737868
 31
0.0
  0
LINE
  5
149AD
330
1A
100
AcDbEntity
  8
KAKURESEN1
100
AcDbLine
 10
-1080.388842729365
 20
1693.16651737868
 30
0.0
 11
-1080.388842729365
 21
1686.616517378679
 31
0.0
  0
LINE
  5
149AE
330
1A
100
AcDbEntity
  8
KAKURESEN1
100
AcDbLine
 10
-1079.888842729366
 20
1686.71651737868
 30
0.0
 11
-1079.888842729366
 21
1692.916517378679
 31
0.0
  0
LINE
  5
149AF
330
1A
100
AcDbEntity
  8
KAKURESEN1
100
AcDbLine
 10
-1079.888842729366
 20
1710.116517378678
 30
0.0
 11
-1077.888842729366
 21
1710.116517378678
 31
0.0
  0
LINE
  5
149B0
330
1A
100
AcDbEntity
  8
KAKURESEN1
100
AcDbLine
 10
-1080.388842729365
 20
1710.216517378679
 30
0.0
 11
-1077.888842729366
 21
1710.216517378679
 31
0.0
  0
LINE
  5
149B1
330
1A
100
AcDbEntity
  8
KAKURESEN1
100
AcDbLine
 10
-1081.188842729367
 20
1711.91651737868
 30
0.0
 11
-1081.188842729367
 21
1713.91651737868
 31
0.0
  0
LINE
  5
149B2
330
1A
100
AcDbEntity
  8
KAKURESEN1
100
AcDbLine
 10
-1077.888842729366
 20
1710.216517378679
 30
0.0
 11
-1077.888842729366
 21
1703.66651737868
 31
0.0
  0
LINE
  5
149B3
330
1A
100
AcDbEntity
  8
KAKURESEN1
100
AcDbLine
 10
-1080.388842729365
 20
1703.66651737868
 30
0.0
 11
-1080.388842729365
 21
1710.216517378679
 31
0.0
  0
LINE
  5
149B4
330
1A
100
AcDbEntity
  8
KAKURESEN1
100
AcDbLine
 10
-1079.888842729366
 20
1710.116517378678
 30
0.0
 11
-1079.888842729366
 21
1703.91651737868
 31
0.0
  0
LINE
  5
149B5
330
1A
100
AcDbEntity
  8
KAKURESEN1
100
AcDbLine
 10
-1074.088842729366
 20
1713.91651737868
 30
0.0
 11
-1074.088842729366
 21
1711.91651737868
 31
0.0
  0
LINE
  5
149B6
330
1A
100
AcDbEntity
  8
KAKURESEN1
100
AcDbLine
 10
-1050.388842729365
 20
1687.91651737868
 30
0.0
 11
-1057.388842729366
 21
1687.91651737868
 31
0.0
  0
LINE
  5
149B7
330
1A
100
AcDbEntity
  8
KAKURESEN1
100
AcDbLine
 10
-1050.388842729365
 20
1708.916517378679
 30
0.0
 11
-1057.388842729366
 21
1708.916517378679
 31
0.0
  0
LINE
  5
149B9
330
1A
100
AcDbEntity
  8
KAKURESEN1
100
AcDbLine
 10
-1059.988842729366
 20
1686.31651737868
 30
0.0
 11
-1062.788842729367
 21
1686.31651737868
 31
0.0
  0
LINE
  5
149BA
330
1A
100
AcDbEntity
  8
KAKURESEN1
100
AcDbLine
 10
-1062.788842729367
 20
1692.31651737868
 30
0.0
 11
-1059.988842729366
 21
1692.31651737868
 31
0.0
  0
LINE
  5
149BE
330
1A
100
AcDbEntity
  8
KAKURESEN1
100
AcDbLine
 10
-1062.788842729367
 20
1704.516517378678
 30
0.0
 11
-1059.988842729366
 21
1704.516517378678
 31
0.0
  0
CIRCLE
  5
149BF
330
1A
100
AcDbEntity
  8
KAKURESEN1
100
AcDbCircle
 10
-1061.388842729366
 20
1698.41651737868
 30
0.0
 40
2.0
  0
LINE
  5
149C1
330
1A
100
AcDbEntity
  8
KAKURESEN1
100
AcDbLine
 10
-1062.788842729367
 20
1686.31651737868
 30
0.0
 11
-1062.788842729367
 21
1692.31651737868
 31
0.0
  0
LINE
  5
149C2
330
1A
100
AcDbEntity
  8
KAKURESEN1
100
AcDbLine
 10
-1059.988842729366
 20
1692.31651737868
 30
0.0
 11
-1059.988842729366
 21
1686.31651737868
 31
0.0
  0
LINE
  5
149C3
330
1A
100
AcDbEntity
  8
KAKURESEN1
100
AcDbLine
 10
-1057.388842729366
 20
1708.916517378679
 30
0.0
 11
-1057.388842729366
 21
1713.91651737868
 31
0.0
  0
LINE
  5
149C4
330
1A
100
AcDbEntity
  8
KAKURESEN1
100
AcDbLine
 10
-1059.988842729366
 20
1710.516517378678
 30
0.0
 11
-1062.788842729367
 21
1710.516517378678
 31
0.0
  0
LINE
  5
149C5
330
1A
100
AcDbEntity
  8
KAKURESEN1
100
AcDbLine
 10
-1062.788842729367
 20
1710.516517378678
 30
0.0
 11
-1062.788842729367
 21
1704.516517378678
 31
0.0
  0
LINE
  5
149C6
330
1A
100
AcDbEntity
  8
KAKURESEN1
100
AcDbLine
 10
-1059.988842729366
 20
1704.516517378678
 30
0.0
 11
-1059.988842729366
 21
1710.516517378678
 31
0.0
  0
CIRCLE
  5
149C9
330
1A
100
AcDbEntity
  8
KAKURESEN1
100
AcDbCircle
 10
-1054.288842729367
 20
1712.06651737868
 30
0.0
 40
2.0
  0
CIRCLE
  5
149CA
330
1A
100
AcDbEntity
  8
ZISSEN1
100
AcDbCircle
 10
-1054.288842729367
 20
1712.06651737868
 30
0.0
 40
1.5
  0
CIRCLE
  5
149CB
330
1A
100
AcDbEntity
  8
ZISSEN1
100
AcDbCircle
 10
-1054.288842729367
 20
1712.06651737868
 30
0.0
 40
1.399999999999999
  0
LINE
  5
149DF
330
1A
100
AcDbEntity
  8
ZISSEN1
100
AcDbLine
 10
-1023.388842729364
 20
1673.56651737868
 30
0.0
 11
-1023.388842729364
 21
1715.566517378681
 31
0.0
  0
LINE
  5
149E6
330
1A
100
AcDbEntity
  8
ZISSEN1
100
AcDbLine
 10
-1024.388842729364
 20
1672.56651737868
 30
0.0
 11
-1023.388842729364
 21
1673.56651737868
 31
0.0
  0
LINE
  5
149EA
330
1A
100
AcDbEntity
  8
ZISSEN1
100
AcDbLine
 10
-1023.388842729364
 20
1715.566517378681
 30
0.0
 11
-1024.388842729364
 21
1716.566517378681
 31
0.0
  0
LINE
  5
14EA2
330
1A
100
AcDbEntity
  8
SAISEN
100
AcDbLine
 10
-1145.888842729366
 20
1708.166517378679
 30
0.0
 11
-1145.888842729366
 21
1693.56651737868
 31
0.0
  0
LINE
  5
14EA3
330
1A
100
AcDbEntity
  8
SAISEN
100
AcDbLine
 10
-1143.888842729366
 20
1708.166517378679
 30
0.0
 11
-1143.888842729366
 21
1693.56651737868
 31
0.0
  0
LINE
  5
14EA5
330
1A
100
AcDbEntity
  8
KAKURESEN1
100
AcDbLine
 10
-1141.488842729365
 20
1708.166517378679
 30
0.0
 11
-1140.388842729366
 21
1708.166517378679
 31
0.0
  0
LINE
  5
14EA8
102
{ACAD_REACTORS
330
14EAC
102
}
330
1A
100
AcDbEntity
  8
CL1
100
AcDbLine
 10
-1031.488842729364
 20
1686.066517378678
 30
0.0
 11
-1025.488842729364
 21
1686.066517378678
 31
0.0
  0
LINE
  5
14EA9
102
{ACAD_REACTORS
330
14EAC
102
}
330
1A
100
AcDbEntity
  8
CL1
100
AcDbLine
 10
-1028.488842729365
 20
1689.06651737868
 30
0.0
 11
-1028.488842729365
 21
1683.066517378678
 31
0.0
  0
CIRCLE
  5
14EAA
102
{ACAD_REACTORS
330
14EAC
102
}
330
1A
100
AcDbEntity
  8
ZISSEN1
100
AcDbCircle
 10
-1028.488842729365
 20
1686.066517378678
 30
0.0
 40
1.0
  0
CIRCLE
  5
14EAB
102
{ACAD_REACTORS
330
14EAC
102
}
330
1A
100
AcDbEntity
  8
SAISEN
100
AcDbCircle
 10
-1028.488842729365
 20
1686.066517378678
 30
0.0
 40
1.5
  0
CIRCLE
  5
14EAD
102
{ACAD_REACTORS
330
14EB1
102
}
330
1A
100
AcDbEntity
  8
SAISEN
100
AcDbCircle
 10
-1028.488842729365
 20
1679.06651737868
 30
0.0
 40
1.5
  0
LINE
  5
14EAE
102
{ACAD_REACTORS
330
14EB1
102
}
330
1A
100
AcDbEntity
  8
CL1
100
AcDbLine
 10
-1031.488842729364
 20
1679.06651737868
 30
0.0
 11
-1025.488842729364
 21
1679.06651737868
 31
0.0
  0
LINE
  5
14EAF
102
{ACAD_REACTORS
330
14EB1
102
}
330
1A
100
AcDbEntity
  8
CL1
100
AcDbLine
 10
-1028.488842729365
 20
1682.06651737868
 30
0.0
 11
-1028.488842729365
 21
1676.066517378678
 31
0.0
  0
CIRCLE
  5
14EB0
102
{ACAD_REACTORS
330
14EB1
102
}
330
1A
100
AcDbEntity
  8
ZISSEN1
100
AcDbCircle
 10
-1028.488842729365
 20
1679.06651737868
 30
0.0
 40
1.0
  0
CIRCLE
  5
14EB2
102
{ACAD_REACTORS
330
14EBB
102
}
330
1A
100
AcDbEntity
  8
ZISSEN1
100
AcDbCircle
 10
-1043.488842729365
 20
1679.06651737868
 30
0.0
 40
1.0
  0
CIRCLE
  5
14EB3
102
{ACAD_REACTORS
330
14EBB
102
}
330
1A
100
AcDbEntity
  8
SAISEN
100
AcDbCircle
 10
-1043.488842729365
 20
1679.06651737868
 30
0.0
 40
1.5
  0
CIRCLE
  5
14EB4
102
{ACAD_REACTORS
330
14EBA
102
}
330
1A
100
AcDbEntity
  8
SAISEN
100
AcDbCircle
 10
-1043.488842729365
 20
1686.066517378678
 30
0.0
 40
1.5
  0
CIRCLE
  5
14EB5
102
{ACAD_REACTORS
330
14EBA
102
}
330
1A
100
AcDbEntity
  8
ZISSEN1
100
AcDbCircle
 10
-1043.488842729365
 20
1686.066517378678
 30
0.0
 40
1.0
  0
LINE
  5
14EB6
102
{ACAD_REACTORS
330
14EBB
102
}
330
1A
100
AcDbEntity
  8
CL1
100
AcDbLine
 10
-1046.488842729365
 20
1679.06651737868
 30
0.0
 11
-1040.488842729365
 21
1679.06651737868
 31
0.0
  0
LINE
  5
14EB7
102
{ACAD_REACTORS
330
14EBB
102
}
330
1A
100
AcDbEntity
  8
CL1
100
AcDbLine
 10
-1043.488842729365
 20
1682.06651737868
 30
0.0
 11
-1043.488842729365
 21
1676.066517378678
 31
0.0
  0
LINE
  5
14EB8
102
{ACAD_REACTORS
330
14EBA
102
}
330
1A
100
AcDbEntity
  8
CL1
100
AcDbLine
 10
-1046.488842729365
 20
1686.066517378678
 30
0.0
 11
-1040.488842729365
 21
1686.066517378678
 31
0.0
  0
LINE
  5
14EB9
102
{ACAD_REACTORS
330
14EBA
102
}
330
1A
100
AcDbEntity
  8
CL1
100
AcDbLine
 10
-1043.488842729365
 20
1689.06651737868
 30
0.0
 11
-1043.488842729365
 21
1683.066517378678
 31
0.0
  0
CIRCLE
  5
14EBC
102
{ACAD_REACTORS
330
14EC0
102
}
330
1A
100
AcDbEntity
  8
ZISSEN1
100
AcDbCircle
 10
-1056.488842729364
 20
1679.06651737868
 30
0.0
 40
1.0
  0
LINE
  5
14EBD
102
{ACAD_REACTORS
330
14EC0
102
}
330
1A
100
AcDbEntity
  8
CL1
100
AcDbLine
 10
-1059.488842729364
 20
1679.06651737868
 30
0.0
 11
-1053.488842729364
 21
1679.06651737868
 31
0.0
  0
LINE
  5
14EBE
102
{ACAD_REACTORS
330
14EC0
102
}
330
1A
100
AcDbEntity
  8
CL1
100
AcDbLine
 10
-1056.488842729364
 20
1682.06651737868
 30
0.0
 11
-1056.488842729364
 21
1676.066517378678
 31
0.0
  0
CIRCLE
  5
14EBF
102
{ACAD_REACTORS
330
14EC0
102
}
330
1A
100
AcDbEntity
  8
SAISEN
100
AcDbCircle
 10
-1056.488842729364
 20
1679.06651737868
 30
0.0
 40
1.5
  0
CIRCLE
  5
14EC1
102
{ACAD_REACTORS
330
14EC5
102
}
330
1A
100
AcDbEntity
  8
ZISSEN1
100
AcDbCircle
 10
-1144.488842086858
 20
1679.06651737868
 30
0.0
 40
1.0
  0
LINE
  5
14EC2
102
{ACAD_REACTORS
330
14EC5
102
}
330
1A
100
AcDbEntity
  8
CL1
100
AcDbLine
 10
-1147.488842086858
 20
1679.06651737868
 30
0.0
 11
-1141.488842086858
 21
1679.06651737868
 31
0.0
  0
LINE
  5
14EC3
102
{ACAD_REACTORS
330
14EC5
102
}
330
1A
100
AcDbEntity
  8
CL1
100
AcDbLine
 10
-1144.488842086858
 20
1682.06651737868
 30
0.0
 11
-1144.488842086858
 21
1676.066517378678
 31
0.0
  0
CIRCLE
  5
14EC4
102
{ACAD_REACTORS
330
14EC5
102
}
330
1A
100
AcDbEntity
  8
SAISEN
100
AcDbCircle
 10
-1144.488842086858
 20
1679.06651737868
 30
0.0
 40
1.5
  0
CIRCLE
  5
14EC6
102
{ACAD_REACTORS
330
14ECA
102
}
330
1A
100
AcDbEntity
  8
SAISEN
100
AcDbCircle
 10
-1144.488842729365
 20
1686.066517378678
 30
0.0
 40
1.5
  0
LINE
  5
14EC7
102
{ACAD_REACTORS
330
14ECA
102
}
330
1A
100
AcDbEntity
  8
CL1
100
AcDbLine
 10
-1147.488842729365
 20
1686.066517378678
 30
0.0
 11
-1141.488842729365
 21
1686.066517378678
 31
0.0
  0
LINE
  5
14EC8
102
{ACAD_REACTORS
330
14ECA
102
}
330
1A
100
AcDbEntity
  8
CL1
100
AcDbLine
 10
-1144.488842729365
 20
1689.06651737868
 30
0.0
 11
-1144.488842729365
 21
1683.066517378678
 31
0.0
  0
CIRCLE
  5
14EC9
102
{ACAD_REACTORS
330
14ECA
102
}
330
1A
100
AcDbEntity
  8
ZISSEN1
100
AcDbCircle
 10
-1144.488842729365
 20
1686.066517378678
 30
0.0
 40
1.0
  0
CIRCLE
  5
14ECB
102
{ACAD_REACTORS
330
14ECF
102
}
330
1A
100
AcDbEntity
  8
SAISEN
100
AcDbCircle
 10
-1026.488842729363
 20
1710.56651737868
 30
0.0
 40
1.5
  0
LINE
  5
14ECC
102
{ACAD_REACTORS
330
14ECF
102
}
330
1A
100
AcDbEntity
  8
CL1
100
AcDbLine
 10
-1029.488842729364
 20
1710.56651737868
 30
0.0
 11
-1023.488842729364
 21
1710.56651737868
 31
0.0
  0
LINE
  5
14ECD
102
{ACAD_REACTORS
330
14ECF
102
}
330
1A
100
AcDbEntity
  8
CL1
100
AcDbLine
 10
-1026.488842729363
 20
1713.56651737868
 30
0.0
 11
-1026.488842729363
 21
1707.566517378681
 31
0.0
  0
CIRCLE
  5
14ECE
102
{ACAD_REACTORS
330
14ECF
102
}
330
1A
100
AcDbEntity
  8
ZISSEN1
100
AcDbCircle
 10
-1026.488842729363
 20
1710.56651737868
 30
0.0
 40
1.0
  0
DIMENSION
  5
14ED0
330
1A
100
AcDbEntity
  8
SUNPOU
100
AcDbDimension
  2
*D0
 10
-1005.597374273653
 20
1604.169741430933
 30
0.0
 11
-1005.022719295133
 21
1588.067590712073
 31
0.0
 70
   160
  3
標準スタイル
100
AcDbAlignedDimension
 13
-1050.388842729365
 23
1595.669741430932
 33
0.0
 14
-1023.388842729364
 24
1604.169741430933
 34
0.0
 50
90.0
100
AcDbRotatedDimension
1001
ACAD
1000
DSTYLE
1002
{
1070
   287
1070
     4
1070
   287
1070
     4
1070
    40
1040
1.0
1070
   279
1070
     1
1070
   340
1005
10
1002
}
  0
DIMENSION
  5
14EDD
330
1A
100
AcDbEntity
  8
SUNPOU
100
AcDbDimension
  2
*D1
 10
-1005.597374273653
 20
1607.169741430933
 30
0.0
 11
-1008.622941749168
 21
1611.300227815645
 31
0.0
 70
   160
  3
標準スタイル
100
AcDbAlignedDimension
 13
-1023.388842729364
 23
1604.169741430933
 33
0.0
 14
-1023.388842729364
 24
1607.169741430933
 34
0.0
 50
90.0
100
AcDbRotatedDimension
1001
ACAD
1000
DSTYLE
1002
{
1070
   287
1070
     5
1070
   287
1070
     5
1070
   340
1005
10
1070
    40
1040
1.0
1070
   279
1070
     2
1002
}
  0
DIMENSION
  5
14EFB
330
1A
100
AcDbEntity
  8
SUNPOU
100
AcDbDimension
  2
*D2
 10
-1005.681042297082
 20
1716.566517378681
 30
0.0
 11
-1008.431042297082
 21
1694.56651737868
 31
0.0
 70
    32
  3
標準スタイル
100
AcDbAlignedDimension
 13
-1024.388842729364
 23
1672.56651737868
 33
0.0
 14
-1024.388842729364
 24
1716.566517378681
 34
0.0
 50
90.0
100
AcDbRotatedDimension
1001
ACAD
1000
DSTYLE
1002
{
1070
   340
1005
10
1070
    40
1040
1.0
1002
}
  0
DIMENSION
  5
14F08
330
1A
100
AcDbEntity
  8
SUNPOU
100
AcDbDimension
  2
*D3
 10
-1056.488842729365
 20
1663.357599444948
 30
0.0
 11
-1133.602233312838
 21
1666.465283762259
 31
0.0
 70
   160
  3
標準スタイル
100
AcDbAlignedDimension
 13
-1144.488842729365
 23
1685.06651737868
 33
0.0
 14
-1056.488842729365
 24
1678.06651737868
 34
0.0
100
AcDbRotatedDimension
1001
ACAD
1000
DSTYLE
1002
{
1070
   287
1070
     5
1070
   287
1070
     5
1070
    40
1040
1.0
1070
   279
1070
     2
1070
   340
1005
10
1002
}
  0
DIMENSION
  5
14F15
330
1A
100
AcDbEntity
  8
SUNPOU
100
AcDbDimension
  2
*D4
 10
-1043.488842729365
 20
1654.387778252956
 30
0.0
 11
-1133.763915735638
 21
1657.256977709695
 31
0.0
 70
   160
  3
標準スタイル
100
AcDbAlignedDimension
 13
-1144.488842086858
 23
1676.066517378678
 33
0.0
 14
-1043.488842729365
 24
1683.066517378678
 34
0.0
100
AcDbRotatedDimension
1001
ACAD
1000
DSTYLE
1002
{
1070
   287
1070
     5
1070
   287
1070
     5
1070
    40
1040
1.0
1070
   279
1070
     2
1070
   340
1005
10
1002
}
  0
DIMENSION
  5
14F22
330
1A
100
AcDbEntity
  8
SUNPOU
100
AcDbDimension
  2
*D5
 10
-1028.488842729365
 20
1645.414044399152
 30
0.0
 11
-1133.440550890039
 21
1648.210221285344
 31
0.0
 70
   160
  3
標準スタイル
100
AcDbAlignedDimension
 13
-1144.488842086858
 23
1675.56651737868
 33
0.0
 14
-1028.488842729365
 24
1683.066517378678
 34
0.0
100
AcDbRotatedDimension
1001
ACAD
1000
DSTYLE
1002
{
1070
   287
1070
     5
1070
   287
1070
     5
1070
    40
1040
1.0
1070
   279
1070
     2
1070
   340
1005
10
1002
}
  0
DIMENSION
  5
14F2F
330
1A
100
AcDbEntity
  8
SUNPOU
100
AcDbDimension
  2
*D6
 10
-1023.388842729364
 20
1631.709895415436
 30
0.0
 11
-1086.138842729364
 21
1634.459895415437
 31
0.0
 70
    32
  3
標準スタイル
100
AcDbAlignedDimension
 13
-1148.888842729364
 23
1673.56651737868
 33
0.0
 14
-1023.388842729364
 24
1673.56651737868
 34
0.0
100
AcDbRotatedDimension
1001
ACAD
1000
DSTYLE
1002
{
1070
   340
1005
10
1070
    40
1040
1.0
1002
}
  0
MTEXT
  5
14F49
330
1A
100
AcDbEntity
  8
SUNPOU
 62
     1
100
AcDbMText
 10
-1158.607541158376
 20
1684.943255848474
 30
0.0
 40
2.5
 41
0.0
 71
     9
 72
     1
  1
7-M3
1001
ACAD
1000
MTEXTBEGIN
1070
    73
1070
     1
1070
    44
1040
1.0
1070
    74
1070
     0
1000
MTEXTEND
1000
MTEXTBEGIN
1070
    73
1070
     1
1070
    44
1040
1.0
1070
    74
1070
     0
1000
MTEXTEND
  0
LEADER
  5
14F4F
330
1A
100
AcDbEntity
  8
SUNPOU
100
AcDbLeader
  3
標準スタイル
 76
     2
 10
-1024.988842729364
 20
1710.56651737868
 30
0.0
 10
-1001.372163138657
 20
1710.56651737868
 30
0.0
1001
ACAD
1000
DSTYLE
1002
{
1070
     5
1000

1070
    77
1070
     0
1070
   147
1040
1.0
1070
   342
1005
0
1002
}
  0
MTEXT
  5
14F50
330
1A
100
AcDbEntity
  8
SUNPOU
 62
     1
100
AcDbMText
 10
-978.2216456511694
 20
1709.307617359164
 30
0.0
 40
2.5
 41
0.0
 71
     9
 72
     1
  1
M3(F.G取付用)
1001
ACAD
1000
MTEXTBEGIN
1070
    73
1070
     1
1070
    44
1040
1.0
1070
    74
1070
     0
1000
MTEXTEND
1000
MTEXTBEGIN
1070
    73
1070
     1
1070
    44
1040
1.0
1070
    74
1070
     0
1000
MTEXTEND
  0
LEADER
  5
14F52
330
1A
100
AcDbEntity
  8
SUNPOU
100
AcDbLeader
  3
標準スタイル
 76
     2
 10
-1145.988842729364
 20
1686.066517378678
 30
0.0
 10
-1157.123353312185
 20
1686.066517378678
 30
0.0
1001
ACAD
1000
DSTYLE
1002
{
1070
     5
1000

1070
    77
1070
     0
1070
   147
1040
1.0
1070
   342
1005
0
1002
}
  0
MTEXT
  5
1500B
330
1A
100
AcDbEntity
  8
DEFPOINTS
 62
     1
100
AcDbMText
 10
-1070.631208746432
 20
1665.383133597619
 30
0.0
 40
2.0
 41
0.0
 71
     9
 72
     1
  1
(2CB-03/G4、CB-58/GAI4C16など)
1001
ACAD
1000
MTEXTBEGIN
1070
    73
1070
     1
1070
    44
1040
1.0
1070
    74
1070
     0
1000
MTEXTEND
1000
MTEXTBEGIN
1070
    73
1070
     1
1070
    44
1040
1.0
1070
    74
1070
     0
1000
MTEXTEND
  0
MTEXT
  5
1501A
330
1A
100
AcDbEntity
  8
DEFPOINTS
 62
     1
100
AcDbMText
 10
-1056.631208746433
 20
1656.127786185389
 30
0.0
 40
2.0
 41
0.0
 71
     9
 72
     1
  1
(2CB-01v1/3232-MIL、CB-56/GIO4C16など)
1001
ACAD
1000
MTEXTBEGIN
1070
    73
1070
     1
1070
    44
1040
1.0
1070
    74
1070
     0
1000
MTEXTEND
1000
MTEXTBEGIN
1070
    73
1070
     1
1070
    44
1040
1.0
1070
    74
1070
     0
1000
MTEXTEND
  0
MTEXT
  5
1501B
330
1A
100
AcDbEntity
  8
DEFPOINTS
 62
     1
100
AcDbMText
 10
-1065.897875413098
 20
1647.081029761037
 30
0.0
 40
2.0
 41
0.0
 71
     9
 72
     1
  1
(2C-776Av1、2C-7760、UC-7660など)
1001
ACAD
1000
MTEXTBEGIN
1070
    73
1070
     1
1070
    44
1040
1.0
1070
    74
1070
     0
1000
MTEXTEND
1000
MTEXTBEGIN
1070
    73
1070
     1
1070
    44
1040
1.0
1070
    74
1070
     0
1000
MTEXTEND
  0
VIEWPORT
  5
5D8F
330
5D8E
100
AcDbEntity
 67
     1
  8
0
100
AcDbViewport
 10
221.8054669198946
 20
161.6375156005652
 30
0.0
 40
573.9825248868203
 41
322.1083367508316
 68
     1
 69
     1
1001
ACAD
1000
MVIEW
1002
{
1070
    16
1010
0.0
1020
0.0
1030
0.0
1010
0.0
1020
0.0
1030
1.0
1040
0.0
1040
322.1083367508316
1040
221.8054669198946
1040
161.6375156005652
1040
50.0
1040
0.0
1040
0.0
1070
     0
1070
   100
1070
     1
1070
     0
1070
     0
1070
     0
1070
     0
1070
     0
1040
0.0
1040
0.0
1040
0.0
1040
1.0
1040
1.0
1040
10.0
1040
10.0
1070
     0
1002
{
1002
}
1002
}
  0
VIEWPORT
  5
6001
330
5D8E
100
AcDbEntity
 67
     1
  8
ZISSEN1
100
AcDbViewport
 10
221.7861955525411
 20
157.6960273330388
 30
0.0
 40
385.4999999999997
 41
259.9999999999999
 68
     2
 69
     2
1001
ACAD
1000
MVIEW
1002
{
1070
    16
1010
0.0
1020
0.0
1030
0.0
1010
0.0
1020
0.0
1030
1.0
1040
0.0
1040
260.0000011423039
1040
-1074.768722882789
1040
1651.737263520739
1040
50.0
1040
0.0
1040
0.0
1070
     0
1070
   100
1070
     1
1070
     0
1070
     0
1070
     0
1070
     0
1070
     0
1040
0.0
1040
0.0
1040
0.0
1040
1.0
1040
1.0
1040
10.0
1040
10.0
1070
     0
1002
{
1002
}
1002
}
  0
TEXT
  5
716F
330
5D8E
100
AcDbEntity
 67
     1
  8
SUNPOU
 62
     0
100
AcDbText
 10
329.2365168140136
 20
48.53763487172603
 30
0.0
 40
3.5
  1
縮尺 1/1
  7
ゴシック体
100
AcDbText
  0
ENDSEC
  0
SECTION
  2
OBJECTS
  0
DICTIONARY
  5
C
330
0
100
AcDbDictionary
  3
ACAD_GROUP
350
D
  3
ACAD_LAYOUT
350
5C7D
  3
ACAD_MLINESTYLE
350
E
  3
ACAD_PLOTSETTINGS
350
5C7E
  3
ACAD_PLOTSTYLENAME
350
5C7B
  3
ACADDIM
350
14F3E
  3
DWGPROPS
350
13E94
  3
ACDBHEADERROUNDTRIPXREC
350
1509D
  0
DICTIONARY
  5
130FA
330
2
100
AcDbDictionary
280
     1
  3
ACAD_LAYERFILTERS
360
130FB
  0
DICTIONARY
  5
1505E
330
1A
100
AcDbDictionary
280
     1
  3
ACAD_LAYOUTSELFREF
360
150BD
  0
DICTIONARY
  5
15060
330
5D8E
100
AcDbDictionary
280
     1
  3
ACAD_LAYOUTSELFREF
360
150BE
  0
DICTIONARY
  5
D
102
{ACAD_REACTORS
330
C
102
}
330
C
100
AcDbDictionary
  3
*A1
350
477D
  3
*A2
350
14EB1
  3
*A3
350
14EBA
  3
*A4
350
477E
  3
*A5
350
14EBB
  3
*A6
350
14EC0
  3
*A7
350
14EC5
  3
*A8
350
14ECA
  3
*A9
350
14ECF
  3
*A10
350
477F
  3
*A11
350
4780
  3
*A12
350
4C12
  3
*A13
350
4781
  3
*A14
350
4C0E
  3
*A15
350
4C0F
  3
*A16
350
4C10
  3
*A17
350
4C11
  3
*A18
350
4C13
  3
*A19
350
4C14
  3
*A20
350
4C15
  3
*A21
350
4C16
  3
*A22
350
4C17
  3
*A23
350
14EA7
  3
*A24
350
14EAC
  0
DICTIONARY
  5
5C7D
102
{ACAD_REACTORS
330
C
102
}
330
C
100
AcDbDictionary
  0
DICTIONARY
  5
E
102
{ACAD_REACTORS
330
C
102
}
330
C
100
AcDbDictionary
  3
STANDARD
350
13
  0
DICTIONARY
  5
5C7E
102
{ACAD_REACTORS
330
C
102
}
330
C
100
AcDbDictionary
  0
ACDBDICTIONARYWDFLT
  5
5C7B
102
{ACAD_REACTORS
330
C
102
}
330
C
100
AcDbDictionary
281
     1
  3
Normal
350
5C7C
100
AcDbDictionaryWithDefault
340
5C7C
  0
XRECORD
  5
14F3E
102
{ACAD_REACTORS
330
C
102
}
330
C
100
AcDbXrecord
 90
   990106
  3

 60
     0
 61
     0
 62
     1
 63
     3
 64
     0
 65
     0
 66
     0
 67
     3
 68
     1
 69
     0
 70
     0
 71
     0
 72
     0
 40
0.0
170
     0
  0
XRECORD
  5
13E94
102
{ACAD_REACTORS
330
C
102
}
330
C
100
AcDbXrecord
  1
DWGPROPS COOKIE
  2

  3

  4

  6

  7

  8

  9

300
=
301
=
302
=
303
=
304
=
305
=
306
=
307
=
308
=
309
=
 40
1.825955324074073
 41
2450495.493631364
 42
2455083.433891168
  1

 90
        0
  0
DICTIONARY
  5
1509D
102
{ACAD_REACTORS
330
C
102
}
330
C
100
AcDbDictionary
  3
TSTACKALIGN
350
1509E
  3
TSTACKSIZE
350
1509F
  3
HYPERLINKBASE
350
150A0
  3
STYLESHEET
350
150A1
  3
LAYOUTDICT
350
150A2
  3
PLOTSETDICT
350
150A3
  3
PLOTSTYLNAMDICT
350
150A4
  3
LWETCUNION
350
150A5
  3
INSUNITS
350
150A6
  3
CEPSNTYPE
350
150A7
  3
FINGERPRINTGUID
350
150A8
  3
VERSIONGUID
350
150A9
  3
PSVPSCALE
350
150AA
  3
PUCSORTHOREF
350
150AB
  3
PUCSORTHOVIEW
350
150AC
  3
PUCSBASE
350
150AD
  3
PUCSORGTOP
350
150AE
  3
PUCSORGBOTTOM
350
150AF
  3
PUCSORGLEFT
350
150B0
  3
PUCSORGRIGHT
350
150B1
  3
PUCSORGFRONT
350
150B2
  3
PUCSORGBACK
350
150B3
  3
UCSORTHOREF
350
150B4
  3
UCSORTHOVIEW
350
150B5
  3
UCSBASE
350
150B6
  3
UCSORGTOP
350
150B7
  3
UCSORGBOTTOM
350
150B8
  3
UCSORGLEFT
350
150B9
  3
UCSORGRIGHT
350
150BA
  3
UCSORGFRONT
350
150BB
  3
UCSORGBACK
350
150BC
  0
DICTIONARY
  5
130FB
102
{ACAD_REACTORS
330
130FA
102
}
330
130FA
100
AcDbDictionary
280
     1
  3
BASE
360
130FC
  3
CASE
360
130FD
  3
KIKOU
360
130FE
  0
XRECORD
  5
150BD
102
{ACAD_REACTORS
330
1505E
102
}
330
1505E
100
AcDbXrecord
340
1A
  0
XRECORD
  5
150BE
102
{ACAD_REACTORS
330
15060
102
}
330
15060
100
AcDbXrecord
340
5D8E
  0
GROUP
  5
477D
102
{ACAD_REACTORS
330
D
102
}
330
D
100
AcDbGroup
300

 70
     1
 71
     1
  0
GROUP
  5
14EB1
102
{ACAD_REACTORS
330
D
102
}
330
D
100
AcDbGroup
300

 70
     1
 71
     1
340
14EAE
340
14EAF
340
14EB0
340
14EAD
  0
GROUP
  5
14EBA
102
{ACAD_REACTORS
330
D
102
}
330
D
100
AcDbGroup
300

 70
     1
 71
     1
340
14EB8
340
14EB9
340
14EB5
340
14EB4
  0
GROUP
  5
477E
102
{ACAD_REACTORS
330
D
102
}
330
D
100
AcDbGroup
300

 70
     1
 71
     1
  0
GROUP
  5
14EBB
102
{ACAD_REACTORS
330
D
102
}
330
D
100
AcDbGroup
300

 70
     1
 71
     1
340
14EB6
340
14EB7
340
14EB2
340
14EB3
  0
GROUP
  5
14EC0
102
{ACAD_REACTORS
330
D
102
}
330
D
100
AcDbGroup
300

 70
     1
 71
     1
340
14EBD
340
14EBE
340
14EBC
340
14EBF
  0
GROUP
  5
14EC5
102
{ACAD_REACTORS
330
D
102
}
330
D
100
AcDbGroup
300

 70
     1
 71
     1
340
14EC2
340
14EC3
340
14EC1
340
14EC4
  0
GROUP
  5
14ECA
102
{ACAD_REACTORS
330
D
102
}
330
D
100
AcDbGroup
300

 70
     1
 71
     1
340
14EC7
340
14EC8
340
14EC9
340
14EC6
  0
GROUP
  5
14ECF
102
{ACAD_REACTORS
330
D
102
}
330
D
100
AcDbGroup
300

 70
     1
 71
     1
340
14ECC
340
14ECD
340
14ECE
340
14ECB
  0
GROUP
  5
477F
102
{ACAD_REACTORS
330
D
102
}
330
D
100
AcDbGroup
300

 70
     1
 71
     1
  0
GROUP
  5
4780
102
{ACAD_REACTORS
330
D
102
}
330
D
100
AcDbGroup
300

 70
     1
 71
     1
  0
GROUP
  5
4C12
102
{ACAD_REACTORS
330
D
102
}
330
D
100
AcDbGroup
300

 70
     1
 71
     1
  0
GROUP
  5
4781
102
{ACAD_REACTORS
330
D
102
}
330
D
100
AcDbGroup
300

 70
     1
 71
     1
  0
GROUP
  5
4C0E
102
{ACAD_REACTORS
330
D
102
}
330
D
100
AcDbGroup
300

 70
     1
 71
     1
  0
GROUP
  5
4C0F
102
{ACAD_REACTORS
330
D
102
}
330
D
100
AcDbGroup
300

 70
     1
 71
     1
  0
GROUP
  5
4C10
102
{ACAD_REACTORS
330
D
102
}
330
D
100
AcDbGroup
300

 70
     1
 71
     1
  0
GROUP
  5
4C11
102
{ACAD_REACTORS
330
D
102
}
330
D
100
AcDbGroup
300

 70
     1
 71
     1
  0
GROUP
  5
4C13
102
{ACAD_REACTORS
330
D
102
}
330
D
100
AcDbGroup
300

 70
     1
 71
     1
  0
GROUP
  5
4C14
102
{ACAD_REACTORS
330
D
102
}
330
D
100
AcDbGroup
300

 70
     1
 71
     1
  0
GROUP
  5
4C15
102
{ACAD_REACTORS
330
D
102
}
330
D
100
AcDbGroup
300

 70
     1
 71
     1
  0
GROUP
  5
4C16
102
{ACAD_REACTORS
330
D
102
}
330
D
100
AcDbGroup
300

 70
     1
 71
     1
  0
GROUP
  5
4C17
102
{ACAD_REACTORS
330
D
102
}
330
D
100
AcDbGroup
300

 70
     1
 71
     1
  0
GROUP
  5
14EA7
102
{ACAD_REACTORS
330
D
102
}
330
D
100
AcDbGroup
300

 70
     1
 71
     1
  0
GROUP
  5
14EAC
102
{ACAD_REACTORS
330
D
102
}
330
D
100
AcDbGroup
300

 70
     1
 71
     1
340
14EA8
340
14EA9
340
14EAA
340
14EAB
  0
MLINESTYLE
  5
13
102
{ACAD_REACTORS
330
E
102
}
330
E
100
AcDbMlineStyle
  2
STANDARD
 70
     0
  3

 62
     0
 51
90.0
 52
90.0
 71
     2
 49
0.5
 62
   256
  6
BYLAYER
 49
-0.5
 62
   256
  6
BYLAYER
  0
ACDBPLACEHOLDER
  5
5C7C
102
{ACAD_REACTORS
330
5C7B
102
}
330
5C7B
100
AcDbPlaceHolder
280
     0
  0
XRECORD
  5
1509E
102
{ACAD_REACTORS
330
1509D
102
}
330
1509D
100
AcDbXrecord
 90
        1
  0
XRECORD
  5
1509F
102
{ACAD_REACTORS
330
1509D
102
}
330
1509D
100
AcDbXrecord
 90
       70
  0
XRECORD
  5
150A0
102
{ACAD_REACTORS
330
1509D
102
}
330
1509D
100
AcDbXrecord
  1

  0
XRECORD
  5
150A1
102
{ACAD_REACTORS
330
1509D
102
}
330
1509D
100
AcDbXrecord
  1

  0
XRECORD
  5
150A2
102
{ACAD_REACTORS
330
1509D
102
}
330
1509D
100
AcDbXrecord
340
5C7D
  0
XRECORD
  5
150A3
102
{ACAD_REACTORS
330
1509D
102
}
330
1509D
100
AcDbXrecord
340
5C7E
  0
XRECORD
  5
150A4
102
{ACAD_REACTORS
330
1509D
102
}
330
1509D
100
AcDbXrecord
340
5C7B
  0
XRECORD
  5
150A5
102
{ACAD_REACTORS
330
1509D
102
}
330
1509D
100
AcDbXrecord
 90
    10781
  0
XRECORD
  5
150A6
102
{ACAD_REACTORS
330
1509D
102
}
330
1509D
100
AcDbXrecord
 90
        0
  0
XRECORD
  5
150A7
102
{ACAD_REACTORS
330
1509D
102
}
330
1509D
100
AcDbXrecord
 90
        0
  0
XRECORD
  5
150A8
102
{ACAD_REACTORS
330
1509D
102
}
330
1509D
100
AcDbXrecord
  1
{225A7F0D-DA29-11D8-946A-0000E2416295}
  0
XRECORD
  5
150A9
102
{ACAD_REACTORS
330
1509D
102
}
330
1509D
100
AcDbXrecord
  1
{7158A718-48A6-4155-8D1B-5E3D30D71E00}
  0
XRECORD
  5
150AA
102
{ACAD_REACTORS
330
1509D
102
}
330
1509D
100
AcDbXrecord
 40
0.0
  0
XRECORD
  5
150AB
102
{ACAD_REACTORS
330
1509D
102
}
330
1509D
100
AcDbXrecord
340
0
  0
XRECORD
  5
150AC
102
{ACAD_REACTORS
330
1509D
102
}
330
1509D
100
AcDbXrecord
 70
     0
  0
XRECORD
  5
150AD
102
{ACAD_REACTORS
330
1509D
102
}
330
1509D
100
AcDbXrecord
340
0
  0
XRECORD
  5
150AE
102
{ACAD_REACTORS
330
1509D
102
}
330
1509D
100
AcDbXrecord
 10
0.0
 20
0.0
 30
0.0
  0
XRECORD
  5
150AF
102
{ACAD_REACTORS
330
1509D
102
}
330
1509D
100
AcDbXrecord
 10
0.0
 20
0.0
 30
0.0
  0
XRECORD
  5
150B0
102
{ACAD_REACTORS
330
1509D
102
}
330
1509D
100
AcDbXrecord
 10
0.0
 20
0.0
 30
0.0
  0
XRECORD
  5
150B1
102
{ACAD_REACTORS
330
1509D
102
}
330
1509D
100
AcDbXrecord
 10
0.0
 20
0.0
 30
0.0
  0
XRECORD
  5
150B2
102
{ACAD_REACTORS
330
1509D
102
}
330
1509D
100
AcDbXrecord
 10
0.0
 20
0.0
 30
0.0
  0
XRECORD
  5
150B3
102
{ACAD_REACTORS
330
1509D
102
}
330
1509D
100
AcDbXrecord
 10
0.0
 20
0.0
 30
0.0
  0
XRECORD
  5
150B4
102
{ACAD_REACTORS
330
1509D
102
}
330
1509D
100
AcDbXrecord
340
0
  0
XRECORD
  5
150B5
102
{ACAD_REACTORS
330
1509D
102
}
330
1509D
100
AcDbXrecord
 70
     0
  0
XRECORD
  5
150B6
102
{ACAD_REACTORS
330
1509D
102
}
330
1509D
100
AcDbXrecord
340
0
  0
XRECORD
  5
150B7
102
{ACAD_REACTORS
330
1509D
102
}
330
1509D
100
AcDbXrecord
 10
0.0
 20
0.0
 30
0.0
  0
XRECORD
  5
150B8
102
{ACAD_REACTORS
330
1509D
102
}
330
1509D
100
AcDbXrecord
 10
0.0
 20
0.0
 30
0.0
  0
XRECORD
  5
150B9
102
{ACAD_REACTORS
330
1509D
102
}
330
1509D
100
AcDbXrecord
 10
0.0
 20
0.0
 30
0.0
  0
XRECORD
  5
150BA
102
{ACAD_REACTORS
330
1509D
102
}
330
1509D
100
AcDbXrecord
 10
0.0
 20
0.0
 30
0.0
  0
XRECORD
  5
150BB
102
{ACAD_REACTORS
330
1509D
102
}
330
1509D
100
AcDbXrecord
 10
0.0
 20
0.0
 30
0.0
  0
XRECORD
  5
150BC
102
{ACAD_REACTORS
330
1509D
102
}
330
1509D
100
AcDbXrecord
 10
0.0
 20
0.0
 30
0.0
  0
XRECORD
  5
130FC
102
{ACAD_REACTORS
330
130FB
102
}
330
130FB
100
AcDbXrecord
  1
BASE
  1
BASE*
  1
*
  1
*
 70
     0
  1
*
  1
*
  0
XRECORD
  5
130FD
102
{ACAD_REACTORS
330
130FB
102
}
330
130FB
100
AcDbXrecord
  1
CASE
  1
CASE*
  1
*
  1
*
 70
     0
  1
*
  1
*
  0
XRECORD
  5
130FE
102
{ACAD_REACTORS
330
130FB
102
}
330
130FB
100
AcDbXrecord
  1
KIKOU
  1
KIKOU*
  1
*
  1
*
 70
     0
  1
*
  1
*
  0
ENDSEC
  0
EOF
